999
DXF file: 1316451-7-A.dxf
999
Pro/ENGINEER 2016130 by Parametric Technology Corporation
  0
SECTION
  2
HEADER
  9
$EXTMAX
 10
34.0
 20
22.0
 30
0.0
  9
$EXTMIN
 10
0.0
 20
0.0
 30
0.0
  9
$LIMMIN
 10
0.0
 20
0.0
  9
$LIMMAX
 10
34.0
 20
22.0
  9
$VIEWCTR
 10
17.0
 20
11.0
  9
$VIEWSIZE
 40
22.0
  9
$CLAYER
  8
0
  9
$LTSCALE
 40
1.87
  9
$CELTYPE
  6
BYLAYER
  9
$DIMSCALE
 40
1.0
  9
$DIMASZ
 40
0.1875
  9
$DIMEXO
 40
0.0625
  9
$DIMDLI
 40
1.292
  9
$DIMEXE
 40
0.125
  9
$DIMCEN
 40
0.306
  9
$DIMLFAC
 40
1.0
  9
$DIMBLK
  1
_FILLED
  9
$DIMALT
 70
0
  9
$DIMALTF
 40
25.4
  9
$DIMTXT
 40
0.15625
  9
$AUNITS
 70
0
  9
$PDMODE
 70
3
  9
$PDSIZE
 40
0.3125
  9
$TILEMODE
 70
1
  0
ENDSEC
  0
SECTION
  2
TABLES
  0
TABLE
  2
LTYPE
 70
6
  0
LTYPE
  2
BYBLOCK
 70
0
  3

 72
65
 73
0
 40
0.0
  0
LTYPE
  2
BYLAYER
 70
0
  3

 72
65
 73
0
 40
0.0
  0
LTYPE
  2
CONTINUOUS
 70
64
  3
Solid line
 72
65
 73
0
 40
0.0
  0
LTYPE
  2
CENTER
 70
64
  3
____ _ ____ _ ____ _ ____ _ ____ _ ____ _ ____
 72
65
 73
4
 40
0.6
 49
0.375
 49
-0.075
 49
0.075
 49
-0.075
  0
LTYPE
  2
HIDDEN
 70
64
  3
- - - - - - - - - - - - - - - - - - - -
 72
65
 73
2
 40
0.2
 49
0.1
 49
-0.1
  0
LTYPE
  2
PHANTOM
 70
64
  3
_____ _ _ _____ _ _ _____ _ _ _____
 72
65
 73
6
 40
0.8
 49
0.45
 49
-0.05
 49
0.1
 49
-0.05
 49
0.1
 49
-0.05
  0
LTYPE
  2
DOT
 70
64
  3
. . . . . . . . . . . . . . . . . . . .
 72
65
 73
2
 40
0.2
 49
0.1
 49
-0.1
  0
LTYPE
  2
DASHED
 70
64
  3
- - - - - - - - - - - - - - - - - - - -
 72
65
 73
2
 40
0.2
 49
0.1
 49
-0.1
  0
ENDTAB
  0
TABLE
  2
LAYER
 70
36
  0
LAYER
  2
0
 70
0
 62
7
  6
CONTINUOUS
  0
LAYER
  2
DEFAULT_1
 70
0
 62
7
  6
CENTER
  0
LAYER
  2
DEFAULT_2
 70
0
 62
8
  6
HIDDEN
  0
LAYER
  2
DEFAULT_3
 70
0
 62
7
  6
PHANTOM
  0
LAYER
  2
DATUMS
 70
0
 62
7
  6
CONTINUOUS
  0
LAYER
  2
DATUM_AXIS
 70
0
 62
7
  6
CONTINUOUS
  0
LAYER
  2
DATUM_CSYS
 70
0
 62
7
  6
CONTINUOUS
  0
LAYER
  2
DATUM_PLANE
 70
0
 62
7
  6
CONTINUOUS
  0
LAYER
  2
DATUM_POINT
 70
0
 62
7
  6
CONTINUOUS
  0
LAYER
  2
_CURVE
 70
0
 62
7
  6
CONTINUOUS
  0
LAYER
  2
_SURFACE
 70
0
 62
7
  6
CONTINUOUS
  0
LAYER
  2
__REF_CURVE
 70
0
 62
7
  6
CONTINUOUS
  0
LAYER
  2
__REF_SURFACE
 70
0
 62
7
  6
CONTINUOUS
  0
LAYER
  2
___NOTE
 70
0
 62
7
  6
CONTINUOUS
  0
LAYER
  2
___SYMBOL
 70
0
 62
7
  6
CONTINUOUS
  0
ENDTAB
  0
TABLE
  2
STYLE
 70
1
  0
STYLE
  2
STANDARD
 70
0
 40
0.0
 41
0.8
 50
0.0
 71
0
 42
0.2
  3
txt
  4

  0
STYLE
  2
TEXTSTYLE_1
 70
0
 40
0.0
 41
0.8
 50
0.0
 71
0
 42
0.2
  3
gdt
  4

  0
STYLE
  2
TEXTSTYLE_2
 70
0
 40
0.0
 41
1.0
 50
0.0
 71
0
 42
0.2
  3
txt
  4

  0
ENDTAB
  0
ENDSEC
  0
SECTION
  2
BLOCKS
  0
BLOCK
  8
___SYMBOL
 62
2
  6
CONTINUOUS
  2
SCISSORS_BL3
 70
64
 10
28.0450114735
 20
12.1797864769
  0
LINE
  8
___SYMBOL
 62
7
  6
CONTINUOUS
 10
28.0297203349
 20
12.2387412655
 11
27.9736804483
 21
12.5155704164
  0
LINE
  8
___SYMBOL
 62
7
  6
CONTINUOUS
 10
28.0055305053
 20
12.2239907278
 11
27.9736804483
 21
12.5155704164
  0
LINE
  8
___SYMBOL
 62
7
  6
CONTINUOUS
 10
28.0433513875
 20
12.1908992695
 11
28.0425675806
 21
12.216325973
  0
LINE
  8
___SYMBOL
 62
7
  6
CONTINUOUS
 10
28.0507564312
 20
12.2166659677
 11
28.0515456316
 21
12.1910643023
  0
LINE
  8
___SYMBOL
 62
7
  6
CONTINUOUS
 10
28.0477973897
 20
12.3053506926
 11
28.1416545846
 21
12.5107026759
  0
LINE
  8
___SYMBOL
 62
7
  6
CONTINUOUS
 10
27.9907429789
 20
12.1762156423
 11
28.0070075258
 21
12.2069219263
  0
LINE
  8
___SYMBOL
 62
7
  6
CONTINUOUS
 10
28.0813710125
 20
12.2101249916
 11
28.1416545846
 21
12.402969298
  0
LINE
  8
___SYMBOL
 62
7
  6
CONTINUOUS
 10
28.0666867048
 20
12.2517744587
 11
28.0297203349
 21
12.2387412655
  0
LINE
  8
___SYMBOL
 62
7
  6
CONTINUOUS
 10
28.0936770244
 20
12.175221144
 11
28.0650336236
 21
12.1060888826
  0
LINE
  8
___SYMBOL
 62
7
  6
CONTINUOUS
 10
28.0176638604
 20
12.1083446875
 11
28.039702498
 21
12.1312442884
  0
LINE
  8
___SYMBOL
 62
7
  6
CONTINUOUS
 10
27.9736804483
 20
12.5155704164
 11
28.0936770244
 21
12.175221144
  0
LINE
  8
___SYMBOL
 62
7
  6
CONTINUOUS
 10
28.0176638604
 20
12.1083446875
 11
27.9907429789
 21
12.1762156423
  0
ARC
  8
___SYMBOL
 62
7
  6
CONTINUOUS
 10
27.9693375849
 20
12.4568359869
 40
0.1805402131
 50
342.6406360869
 51
17.3593639131
  0
ARC
  8
___SYMBOL
 62
7
  6
CONTINUOUS
 10
28.1618564896
 20
12.2289198317
 40
0.1564036746
 50
181.8059909349
 51
231.752660067
  0
CIRCLE
  8
___SYMBOL
 62
7
  6
CONTINUOUS
 10
28.0471914961
 20
12.2037430778
 40
0.0134055901
  0
ARC
  8
___SYMBOL
 62
7
  6
CONTINUOUS
 10
28.1269204013
 20
12.0175842791
 40
0.0073044281
 50
185.3133793157
 51
314.0675041521
  0
ARC
  8
___SYMBOL
 62
7
  6
CONTINUOUS
 10
27.9595896037
 20
12.0138239945
 40
0.0073043678
 50
233.3109272841
 51
359.4467240969
  0
POLYLINE
  8
___SYMBOL
 62
7
  6
CONTINUOUS
 66
1
 70
0
  0
VERTEX
  8
___SYMBOL
 62
7
  6
CONTINUOUS
 10
28.1080483372
 20
11.9002135939
  0
VERTEX
  8
___SYMBOL
 62
7
  6
CONTINUOUS
 10
28.1063786808
 20
11.9053380475
  0
VERTEX
  8
___SYMBOL
 62
7
  6
CONTINUOUS
 10
28.1048498919
 20
11.9105030422
  0
VERTEX
  8
___SYMBOL
 62
7
  6
CONTINUOUS
 10
28.1034558625
 20
11.9157057677
  0
VERTEX
  8
___SYMBOL
 62
7
  6
CONTINUOUS
 10
28.1021904848
 20
11.9209434142
  0
VERTEX
  8
___SYMBOL
 62
7
  6
CONTINUOUS
 10
28.1010476509
 20
11.9262131715
  0
VERTEX
  8
___SYMBOL
 62
7
  6
CONTINUOUS
 10
28.1000212528
 20
11.9315122298
  0
VERTEX
  8
___SYMBOL
 62
7
  6
CONTINUOUS
 10
28.0991051826
 20
11.936837779
  0
VERTEX
  8
___SYMBOL
 62
7
  6
CONTINUOUS
 10
28.0982933324
 20
11.9421870091
  0
VERTEX
  8
___SYMBOL
 62
7
  6
CONTINUOUS
 10
28.0975795943
 20
11.9475571101
  0
VERTEX
  8
___SYMBOL
 62
7
  6
CONTINUOUS
 10
28.0969578603
 20
11.952945272
  0
VERTEX
  8
___SYMBOL
 62
7
  6
CONTINUOUS
 10
28.0964220227
 20
11.9583486847
  0
VERTEX
  8
___SYMBOL
 62
7
  6
CONTINUOUS
 10
28.0959659733
 20
11.9637645384
  0
VERTEX
  8
___SYMBOL
 62
7
  6
CONTINUOUS
 10
28.0955836044
 20
11.9691900229
  0
VERTEX
  8
___SYMBOL
 62
7
  6
CONTINUOUS
 10
28.0952688081
 20
11.9746223283
  0
VERTEX
  8
___SYMBOL
 62
7
  6
CONTINUOUS
 10
28.0950154763
 20
11.9800586446
  0
VERTEX
  8
___SYMBOL
 62
7
  6
CONTINUOUS
 10
28.0948175012
 20
11.9854961617
  0
VERTEX
  8
___SYMBOL
 62
7
  6
CONTINUOUS
 10
28.0946687749
 20
11.9909320697
  0
VERTEX
  8
___SYMBOL
 62
7
  6
CONTINUOUS
 10
28.0945631895
 20
11.9963635586
  0
VERTEX
  8
___SYMBOL
 62
7
  6
CONTINUOUS
 10
28.094494637
 20
12.0017878184
  0
VERTEX
  8
___SYMBOL
 62
7
  6
CONTINUOUS
 10
28.0944570096
 20
12.0072020389
  0
VERTEX
  8
___SYMBOL
 62
7
  6
CONTINUOUS
 10
28.0944419046
 20
12.0151608708
  0
VERTEX
  8
___SYMBOL
 62
7
  6
CONTINUOUS
 10
28.0944423632
 20
12.023102876
  0
VERTEX
  8
___SYMBOL
 62
7
  6
CONTINUOUS
 10
28.094420041
 20
12.0310391391
  0
VERTEX
  8
___SYMBOL
 62
7
  6
CONTINUOUS
 10
28.0943365933
 20
12.0389807445
  0
VERTEX
  8
___SYMBOL
 62
7
  6
CONTINUOUS
 10
28.0941536757
 20
12.0469387767
  0
VERTEX
  8
___SYMBOL
 62
7
  6
CONTINUOUS
 10
28.0940245987
 20
12.0506048784
  0
VERTEX
  8
___SYMBOL
 62
7
  6
CONTINUOUS
 10
28.0938562621
 20
12.0542732968
  0
VERTEX
  8
___SYMBOL
 62
7
  6
CONTINUOUS
 10
28.0936385297
 20
12.0579405346
  0
VERTEX
  8
___SYMBOL
 62
7
  6
CONTINUOUS
 10
28.0933612654
 20
12.0616030947
  0
VERTEX
  8
___SYMBOL
 62
7
  6
CONTINUOUS
 10
28.0930143331
 20
12.06525748
  0
VERTEX
  8
___SYMBOL
 62
7
  6
CONTINUOUS
 10
28.0925875966
 20
12.0689001934
  0
VERTEX
  8
___SYMBOL
 62
7
  6
CONTINUOUS
 10
28.0920709196
 20
12.0725277376
  0
VERTEX
  8
___SYMBOL
 62
7
  6
CONTINUOUS
 10
28.0914541662
 20
12.0761366155
  0
VERTEX
  8
___SYMBOL
 62
7
  6
CONTINUOUS
 10
28.0907272001
 20
12.0797233299
  0
VERTEX
  8
___SYMBOL
 62
7
  6
CONTINUOUS
 10
28.0898798852
 20
12.0832843838
  0
VERTEX
  8
___SYMBOL
 62
7
  6
CONTINUOUS
 10
28.0889020853
 20
12.0868162799
  0
VERTEX
  8
___SYMBOL
 62
7
  6
CONTINUOUS
 10
28.0877836643
 20
12.0903155211
  0
VERTEX
  8
___SYMBOL
 62
7
  6
CONTINUOUS
 10
28.0872501563
 20
12.0918183623
  0
VERTEX
  8
___SYMBOL
 62
7
  6
CONTINUOUS
 10
28.0866706078
 20
12.0933023641
  0
VERTEX
  8
___SYMBOL
 62
7
  6
CONTINUOUS
 10
28.0860272678
 20
12.0947554712
  0
VERTEX
  8
___SYMBOL
 62
7
  6
CONTINUOUS
 10
28.0853023855
 20
12.0961656281
  0
VERTEX
  8
___SYMBOL
 62
7
  6
CONTINUOUS
 10
28.0844782099
 20
12.0975207794
  0
VERTEX
  8
___SYMBOL
 62
7
  6
CONTINUOUS
 10
28.08353699
 20
12.0988088696
  0
VERTEX
  8
___SYMBOL
 62
7
  6
CONTINUOUS
 10
28.0825042957
 20
12.0999795063
  0
VERTEX
  8
___SYMBOL
 62
7
  6
CONTINUOUS
 10
28.0813587277
 20
12.1010702733
  0
VERTEX
  8
___SYMBOL
 62
7
  6
CONTINUOUS
 10
28.0801133132
 20
12.1020751971
  0
VERTEX
  8
___SYMBOL
 62
7
  6
CONTINUOUS
 10
28.0787810796
 20
12.1029883041
  0
VERTEX
  8
___SYMBOL
 62
7
  6
CONTINUOUS
 10
28.0773750541
 20
12.1038036209
  0
VERTEX
  8
___SYMBOL
 62
7
  6
CONTINUOUS
 10
28.0759082642
 20
12.1045151738
  0
VERTEX
  8
___SYMBOL
 62
7
  6
CONTINUOUS
 10
28.0743937371
 20
12.1051169895
  0
VERTEX
  8
___SYMBOL
 62
7
  6
CONTINUOUS
 10
28.0728445001
 20
12.1056030943
  0
VERTEX
  8
___SYMBOL
 62
7
  6
CONTINUOUS
 10
28.0712735806
 20
12.1059675147
  0
VERTEX
  8
___SYMBOL
 62
7
  6
CONTINUOUS
 10
28.0696940059
 20
12.1062042773
  0
VERTEX
  8
___SYMBOL
 62
7
  6
CONTINUOUS
 10
28.0681188033
 20
12.1063074085
  0
VERTEX
  8
___SYMBOL
 62
7
  6
CONTINUOUS
 10
28.0665610001
 20
12.1062709348
  0
VERTEX
  8
___SYMBOL
 62
7
  6
CONTINUOUS
 10
28.0650336236
 20
12.1060888826
  0
SEQEND
  0
POLYLINE
  8
___SYMBOL
 62
7
  6
CONTINUOUS
 66
1
 70
0
  0
VERTEX
  8
___SYMBOL
 62
7
  6
CONTINUOUS
 10
28.1196473595
 20
12.0169078664
  0
VERTEX
  8
___SYMBOL
 62
7
  6
CONTINUOUS
 10
28.1193359166
 20
12.0207390086
  0
VERTEX
  8
___SYMBOL
 62
7
  6
CONTINUOUS
 10
28.1191085366
 20
12.0245734077
  0
VERTEX
  8
___SYMBOL
 62
7
  6
CONTINUOUS
 10
28.1189432152
 20
12.0289262265
  0
VERTEX
  8
___SYMBOL
 62
7
  6
CONTINUOUS
 10
28.1188670025
 20
12.0332734847
  0
VERTEX
  8
___SYMBOL
 62
7
  6
CONTINUOUS
 10
28.1188693616
 20
12.0376201326
  0
VERTEX
  8
___SYMBOL
 62
7
  6
CONTINUOUS
 10
28.1189397554
 20
12.0419711202
  0
VERTEX
  8
___SYMBOL
 62
7
  6
CONTINUOUS
 10
28.119067647
 20
12.0463313976
  0
VERTEX
  8
___SYMBOL
 62
7
  6
CONTINUOUS
 10
28.1192424992
 20
12.0507059149
  0
VERTEX
  8
___SYMBOL
 62
7
  6
CONTINUOUS
 10
28.1194537751
 20
12.0550996225
  0
VERTEX
  8
___SYMBOL
 62
7
  6
CONTINUOUS
 10
28.1196909377
 20
12.0595174702
  0
VERTEX
  8
___SYMBOL
 62
7
  6
CONTINUOUS
 10
28.1198483803
 20
12.0623171887
  0
VERTEX
  8
___SYMBOL
 62
7
  6
CONTINUOUS
 10
28.1200053212
 20
12.0651258854
  0
VERTEX
  8
___SYMBOL
 62
7
  6
CONTINUOUS
 10
28.1201551556
 20
12.0679409722
  0
VERTEX
  8
___SYMBOL
 62
7
  6
CONTINUOUS
 10
28.1202912788
 20
12.0707598608
  0
VERTEX
  8
___SYMBOL
 62
7
  6
CONTINUOUS
 10
28.120407086
 20
12.0735799631
  0
VERTEX
  8
___SYMBOL
 62
7
  6
CONTINUOUS
 10
28.1204959724
 20
12.0763986908
  0
VERTEX
  8
___SYMBOL
 62
7
  6
CONTINUOUS
 10
28.1205513332
 20
12.0792134558
  0
VERTEX
  8
___SYMBOL
 62
7
  6
CONTINUOUS
 10
28.1205665637
 20
12.0820216698
  0
VERTEX
  8
___SYMBOL
 62
7
  6
CONTINUOUS
 10
28.1205350591
 20
12.0848207445
  0
VERTEX
  8
___SYMBOL
 62
7
  6
CONTINUOUS
 10
28.1204502146
 20
12.0876080919
  0
VERTEX
  8
___SYMBOL
 62
7
  6
CONTINUOUS
 10
28.1203054255
 20
12.0903811237
  0
VERTEX
  8
___SYMBOL
 62
7
  6
CONTINUOUS
 10
28.1200940869
 20
12.0931372516
  0
VERTEX
  8
___SYMBOL
 62
7
  6
CONTINUOUS
 10
28.1198095941
 20
12.0958738875
  0
VERTEX
  8
___SYMBOL
 62
7
  6
CONTINUOUS
 10
28.1194453423
 20
12.0985884431
  0
VERTEX
  8
___SYMBOL
 62
7
  6
CONTINUOUS
 10
28.1189947267
 20
12.1012783303
  0
VERTEX
  8
___SYMBOL
 62
7
  6
CONTINUOUS
 10
28.1184511426
 20
12.1039409608
  0
VERTEX
  8
___SYMBOL
 62
7
  6
CONTINUOUS
 10
28.1178079852
 20
12.1065737465
  0
VERTEX
  8
___SYMBOL
 62
7
  6
CONTINUOUS
 10
28.1170586497
 20
12.1091740991
  0
VERTEX
  8
___SYMBOL
 62
7
  6
CONTINUOUS
 10
28.1161965314
 20
12.1117394303
  0
VERTEX
  8
___SYMBOL
 62
7
  6
CONTINUOUS
 10
28.1152835719
 20
12.1141086434
  0
VERTEX
  8
___SYMBOL
 62
7
  6
CONTINUOUS
 10
28.1142756711
 20
12.1164479379
  0
VERTEX
  8
___SYMBOL
 62
7
  6
CONTINUOUS
 10
28.1131825919
 20
12.1187603793
  0
VERTEX
  8
___SYMBOL
 62
7
  6
CONTINUOUS
 10
28.1120140969
 20
12.121049033
  0
VERTEX
  8
___SYMBOL
 62
7
  6
CONTINUOUS
 10
28.1107799488
 20
12.1233169641
  0
VERTEX
  8
___SYMBOL
 62
7
  6
CONTINUOUS
 10
28.1094899105
 20
12.1255672382
  0
VERTEX
  8
___SYMBOL
 62
7
  6
CONTINUOUS
 10
28.1081537447
 20
12.1278029206
  0
VERTEX
  8
___SYMBOL
 62
7
  6
CONTINUOUS
 10
28.1067812141
 20
12.1300270766
  0
VERTEX
  8
___SYMBOL
 62
7
  6
CONTINUOUS
 10
28.1053820814
 20
12.1322427716
  0
VERTEX
  8
___SYMBOL
 62
7
  6
CONTINUOUS
 10
28.1039661095
 20
12.134453071
  0
VERTEX
  8
___SYMBOL
 62
7
  6
CONTINUOUS
 10
28.1029458874
 20
12.136039252
  0
VERTEX
  8
___SYMBOL
 62
7
  6
CONTINUOUS
 10
28.1019349161
 20
12.1376285796
  0
VERTEX
  8
___SYMBOL
 62
7
  6
CONTINUOUS
 10
28.100946096
 20
12.139225402
  0
VERTEX
  8
___SYMBOL
 62
7
  6
CONTINUOUS
 10
28.0999923272
 20
12.1408340675
  0
VERTEX
  8
___SYMBOL
 62
7
  6
CONTINUOUS
 10
28.09908651
 20
12.1424589244
  0
VERTEX
  8
___SYMBOL
 62
7
  6
CONTINUOUS
 10
28.0982415447
 20
12.1441043209
  0
VERTEX
  8
___SYMBOL
 62
7
  6
CONTINUOUS
 10
28.0974703315
 20
12.1457746052
  0
VERTEX
  8
___SYMBOL
 62
7
  6
CONTINUOUS
 10
28.0967857706
 20
12.1474741258
  0
VERTEX
  8
___SYMBOL
 62
7
  6
CONTINUOUS
 10
28.0962007623
 20
12.1492072307
  0
VERTEX
  8
___SYMBOL
 62
7
  6
CONTINUOUS
 10
28.0957506277
 20
12.1508649348
  0
VERTEX
  8
___SYMBOL
 62
7
  6
CONTINUOUS
 10
28.0953884504
 20
12.1525510767
  0
VERTEX
  8
___SYMBOL
 62
7
  6
CONTINUOUS
 10
28.0951033568
 20
12.1542607565
  0
VERTEX
  8
___SYMBOL
 62
7
  6
CONTINUOUS
 10
28.0948844729
 20
12.155989074
  0
VERTEX
  8
___SYMBOL
 62
7
  6
CONTINUOUS
 10
28.094720925
 20
12.1577311294
  0
VERTEX
  8
___SYMBOL
 62
7
  6
CONTINUOUS
 10
28.0946018393
 20
12.1594820225
  0
VERTEX
  8
___SYMBOL
 62
7
  6
CONTINUOUS
 10
28.0945163419
 20
12.1612368534
  0
VERTEX
  8
___SYMBOL
 62
7
  6
CONTINUOUS
 10
28.0944535592
 20
12.1629907221
  0
VERTEX
  8
___SYMBOL
 62
7
  6
CONTINUOUS
 10
28.0943938437
 20
12.1650469239
  0
VERTEX
  8
___SYMBOL
 62
7
  6
CONTINUOUS
 10
28.094331537
 20
12.1670954412
  0
VERTEX
  8
___SYMBOL
 62
7
  6
CONTINUOUS
 10
28.0942476704
 20
12.169136698
  0
VERTEX
  8
___SYMBOL
 62
7
  6
CONTINUOUS
 10
28.0941232752
 20
12.1711711182
  0
VERTEX
  8
___SYMBOL
 62
7
  6
CONTINUOUS
 10
28.0939393828
 20
12.1731991255
  0
VERTEX
  8
___SYMBOL
 62
7
  6
CONTINUOUS
 10
28.0936770244
 20
12.175221144
  0
SEQEND
  0
POLYLINE
  8
___SYMBOL
 62
7
  6
CONTINUOUS
 66
1
 70
0
  0
VERTEX
  8
___SYMBOL
 62
7
  6
CONTINUOUS
 10
27.9883323399
 20
11.9195418856
  0
VERTEX
  8
___SYMBOL
 62
7
  6
CONTINUOUS
 10
27.9893308194
 20
11.9237880012
  0
VERTEX
  8
___SYMBOL
 62
7
  6
CONTINUOUS
 10
27.9902074287
 20
11.9280586016
  0
VERTEX
  8
___SYMBOL
 62
7
  6
CONTINUOUS
 10
27.9909690544
 20
11.9323514631
  0
VERTEX
  8
___SYMBOL
 62
7
  6
CONTINUOUS
 10
27.9916225834
 20
11.9366643624
  0
VERTEX
  8
___SYMBOL
 62
7
  6
CONTINUOUS
 10
27.9921749026
 20
11.940995076
  0
VERTEX
  8
___SYMBOL
 62
7
  6
CONTINUOUS
 10
27.9926328987
 20
11.9453413804
  0
VERTEX
  8
___SYMBOL
 62
7
  6
CONTINUOUS
 10
27.9930034585
 20
11.9497010522
  0
VERTEX
  8
___SYMBOL
 62
7
  6
CONTINUOUS
 10
27.9932934689
 20
11.9540718679
  0
VERTEX
  8
___SYMBOL
 62
7
  6
CONTINUOUS
 10
27.9935098167
 20
11.9584516041
  0
VERTEX
  8
___SYMBOL
 62
7
  6
CONTINUOUS
 10
27.9936593886
 20
11.9628380372
  0
VERTEX
  8
___SYMBOL
 62
7
  6
CONTINUOUS
 10
27.9937490716
 20
11.9672289439
  0
VERTEX
  8
___SYMBOL
 62
7
  6
CONTINUOUS
 10
27.9937857523
 20
11.9716221006
  0
VERTEX
  8
___SYMBOL
 62
7
  6
CONTINUOUS
 10
27.9937763176
 20
11.9760152839
  0
VERTEX
  8
___SYMBOL
 62
7
  6
CONTINUOUS
 10
27.993700873
 20
11.982077018
  0
VERTEX
  8
___SYMBOL
 62
7
  6
CONTINUOUS
 10
27.9935724293
 20
11.9881330321
  0
VERTEX
  8
___SYMBOL
 62
7
  6
CONTINUOUS
 10
27.9934127561
 20
11.9941817935
  0
VERTEX
  8
___SYMBOL
 62
7
  6
CONTINUOUS
 10
27.9932436227
 20
12.0002217692
  0
VERTEX
  8
___SYMBOL
 62
7
  6
CONTINUOUS
 10
27.9930867986
 20
12.0062514264
  0
VERTEX
  8
___SYMBOL
 62
7
  6
CONTINUOUS
 10
27.9929640531
 20
12.0122692324
  0
VERTEX
  8
___SYMBOL
 62
7
  6
CONTINUOUS
 10
27.9928971557
 20
12.0182736542
  0
VERTEX
  8
___SYMBOL
 62
7
  6
CONTINUOUS
 10
27.9929078759
 20
12.0242631592
  0
VERTEX
  8
___SYMBOL
 62
7
  6
CONTINUOUS
 10
27.9930179829
 20
12.0302362143
  0
VERTEX
  8
___SYMBOL
 62
7
  6
CONTINUOUS
 10
27.9932681738
 20
12.0367493068
  0
VERTEX
  8
___SYMBOL
 62
7
  6
CONTINUOUS
 10
27.9936340574
 20
12.0432602557
  0
VERTEX
  8
___SYMBOL
 62
7
  6
CONTINUOUS
 10
27.9940865155
 20
12.0497884113
  0
VERTEX
  8
___SYMBOL
 62
7
  6
CONTINUOUS
 10
27.9945964299
 20
12.0563531235
  0
VERTEX
  8
___SYMBOL
 62
7
  6
CONTINUOUS
 10
27.9951346822
 20
12.0629737425
  0
VERTEX
  8
___SYMBOL
 62
7
  6
CONTINUOUS
 10
27.9956721543
 20
12.0696696182
  0
VERTEX
  8
___SYMBOL
 62
7
  6
CONTINUOUS
 10
27.9958307491
 20
12.0716962184
  0
VERTEX
  8
___SYMBOL
 62
7
  6
CONTINUOUS
 10
27.9959964755
 20
12.073726448
  0
VERTEX
  8
___SYMBOL
 62
7
  6
CONTINUOUS
 10
27.9961791593
 20
12.0757554119
  0
VERTEX
  8
___SYMBOL
 62
7
  6
CONTINUOUS
 10
27.996388626
 20
12.0777782152
  0
VERTEX
  8
___SYMBOL
 62
7
  6
CONTINUOUS
 10
27.9966347014
 20
12.0797899627
  0
VERTEX
  8
___SYMBOL
 62
7
  6
CONTINUOUS
 10
27.996927211
 20
12.0817857594
  0
VERTEX
  8
___SYMBOL
 62
7
  6
CONTINUOUS
 10
27.9972759806
 20
12.0837607103
  0
VERTEX
  8
___SYMBOL
 62
7
  6
CONTINUOUS
 10
27.9976908357
 20
12.0857099204
  0
VERTEX
  8
___SYMBOL
 62
7
  6
CONTINUOUS
 10
27.998181602
 20
12.0876284945
  0
VERTEX
  8
___SYMBOL
 62
7
  6
CONTINUOUS
 10
27.9987581051
 20
12.0895115377
  0
VERTEX
  8
___SYMBOL
 62
7
  6
CONTINUOUS
 10
27.9994301708
 20
12.0913541548
  0
VERTEX
  8
___SYMBOL
 62
7
  6
CONTINUOUS
 10
28.0002076246
 20
12.0931514509
  0
VERTEX
  8
___SYMBOL
 62
7
  6
CONTINUOUS
 10
28.0011002922
 20
12.0948985309
  0
VERTEX
  8
___SYMBOL
 62
7
  6
CONTINUOUS
 10
28.0021179992
 20
12.0965904998
  0
VERTEX
  8
___SYMBOL
 62
7
  6
CONTINUOUS
 10
28.0031417617
 20
12.0980550726
  0
VERTEX
  8
___SYMBOL
 62
7
  6
CONTINUOUS
 10
28.0042662142
 20
12.0994637095
  0
VERTEX
  8
___SYMBOL
 62
7
  6
CONTINUOUS
 10
28.0054837599
 20
12.100808655
  0
VERTEX
  8
___SYMBOL
 62
7
  6
CONTINUOUS
 10
28.006786802
 20
12.1020821538
  0
VERTEX
  8
___SYMBOL
 62
7
  6
CONTINUOUS
 10
28.0081677436
 20
12.1032764506
  0
VERTEX
  8
___SYMBOL
 62
7
  6
CONTINUOUS
 10
28.0096189879
 20
12.1043837899
  0
VERTEX
  8
___SYMBOL
 62
7
  6
CONTINUOUS
 10
28.011132938
 20
12.1053964164
  0
VERTEX
  8
___SYMBOL
 62
7
  6
CONTINUOUS
 10
28.0127019972
 20
12.1063065748
  0
VERTEX
  8
___SYMBOL
 62
7
  6
CONTINUOUS
 10
28.0143185685
 20
12.1071065097
  0
VERTEX
  8
___SYMBOL
 62
7
  6
CONTINUOUS
 10
28.0159750552
 20
12.1077884657
  0
VERTEX
  8
___SYMBOL
 62
7
  6
CONTINUOUS
 10
28.0176638604
 20
12.1083446875
  0
SEQEND
  0
POLYLINE
  8
___SYMBOL
 62
7
  6
CONTINUOUS
 66
1
 70
0
  0
VERTEX
  8
___SYMBOL
 62
7
  6
CONTINUOUS
 10
27.966893631
 20
12.013753461
  0
VERTEX
  8
___SYMBOL
 62
7
  6
CONTINUOUS
 10
27.9669134357
 20
12.0212336001
  0
VERTEX
  8
___SYMBOL
 62
7
  6
CONTINUOUS
 10
27.9668554361
 20
12.0287195449
  0
VERTEX
  8
___SYMBOL
 62
7
  6
CONTINUOUS
 10
27.9667876208
 20
12.0341555006
  0
VERTEX
  8
___SYMBOL
 62
7
  6
CONTINUOUS
 10
27.9667143247
 20
12.0395991133
  0
VERTEX
  8
___SYMBOL
 62
7
  6
CONTINUOUS
 10
27.9666495736
 20
12.0450463565
  0
VERTEX
  8
___SYMBOL
 62
7
  6
CONTINUOUS
 10
27.9666073938
 20
12.0504932035
  0
VERTEX
  8
___SYMBOL
 62
7
  6
CONTINUOUS
 10
27.9666018113
 20
12.0559356278
  0
VERTEX
  8
___SYMBOL
 62
7
  6
CONTINUOUS
 10
27.9666468521
 20
12.0613696027
  0
VERTEX
  8
___SYMBOL
 62
7
  6
CONTINUOUS
 10
27.9667565424
 20
12.0667911015
  0
VERTEX
  8
___SYMBOL
 62
7
  6
CONTINUOUS
 10
27.9669449082
 20
12.0721960976
  0
VERTEX
  8
___SYMBOL
 62
7
  6
CONTINUOUS
 10
27.9672259757
 20
12.0775805644
  0
VERTEX
  8
___SYMBOL
 62
7
  6
CONTINUOUS
 10
27.9676137708
 20
12.0829404753
  0
VERTEX
  8
___SYMBOL
 62
7
  6
CONTINUOUS
 10
27.9678880584
 20
12.0859772134
  0
VERTEX
  8
___SYMBOL
 62
7
  6
CONTINUOUS
 10
27.9682082515
 20
12.0890055213
  0
VERTEX
  8
___SYMBOL
 62
7
  6
CONTINUOUS
 10
27.9685811809
 20
12.092026218
  0
VERTEX
  8
___SYMBOL
 62
7
  6
CONTINUOUS
 10
27.9690136776
 20
12.0950401222
  0
VERTEX
  8
___SYMBOL
 62
7
  6
CONTINUOUS
 10
27.9695125727
 20
12.0980480529
  0
VERTEX
  8
___SYMBOL
 62
7
  6
CONTINUOUS
 10
27.970084697
 20
12.1010508289
  0
VERTEX
  8
___SYMBOL
 62
7
  6
CONTINUOUS
 10
27.9707368815
 20
12.1040492689
  0
VERTEX
  8
___SYMBOL
 62
7
  6
CONTINUOUS
 10
27.9714759572
 20
12.107044192
  0
VERTEX
  8
___SYMBOL
 62
7
  6
CONTINUOUS
 10
27.9723087551
 20
12.1100364169
  0
VERTEX
  8
___SYMBOL
 62
7
  6
CONTINUOUS
 10
27.973242106
 20
12.1130267625
  0
VERTEX
  8
___SYMBOL
 62
7
  6
CONTINUOUS
 10
27.974282841
 20
12.1160160476
  0
VERTEX
  8
___SYMBOL
 62
7
  6
CONTINUOUS
 10
27.9754377911
 20
12.1190050912
  0
VERTEX
  8
___SYMBOL
 62
7
  6
CONTINUOUS
 10
27.9767137871
 20
12.1219947119
  0
VERTEX
  8
___SYMBOL
 62
7
  6
CONTINUOUS
 10
27.9774430582
 20
12.1235854107
  0
VERTEX
  8
___SYMBOL
 62
7
  6
CONTINUOUS
 10
27.9782028112
 20
12.1251763115
  0
VERTEX
  8
___SYMBOL
 62
7
  6
CONTINUOUS
 10
27.9789873468
 20
12.1267672211
  0
VERTEX
  8
___SYMBOL
 62
7
  6
CONTINUOUS
 10
27.9797909657
 20
12.1283579465
  0
VERTEX
  8
___SYMBOL
 62
7
  6
CONTINUOUS
 10
27.9806079686
 20
12.1299482946
  0
VERTEX
  8
___SYMBOL
 62
7
  6
CONTINUOUS
 10
27.9814326561
 20
12.1315380725
  0
VERTEX
  8
___SYMBOL
 62
7
  6
CONTINUOUS
 10
27.9822593291
 20
12.1331270869
  0
VERTEX
  8
___SYMBOL
 62
7
  6
CONTINUOUS
 10
27.9830822882
 20
12.1347151449
  0
VERTEX
  8
___SYMBOL
 62
7
  6
CONTINUOUS
 10
27.9838958341
 20
12.1363020533
  0
VERTEX
  8
___SYMBOL
 62
7
  6
CONTINUOUS
 10
27.9846942676
 20
12.1378876192
  0
VERTEX
  8
___SYMBOL
 62
7
  6
CONTINUOUS
 10
27.9854718893
 20
12.1394716493
  0
VERTEX
  8
___SYMBOL
 62
7
  6
CONTINUOUS
 10
27.9862229999
 20
12.1410539508
  0
VERTEX
  8
___SYMBOL
 62
7
  6
CONTINUOUS
 10
27.9869419002
 20
12.1426343304
  0
VERTEX
  8
___SYMBOL
 62
7
  6
CONTINUOUS
 10
27.9876228909
 20
12.1442125952
  0
VERTEX
  8
___SYMBOL
 62
7
  6
CONTINUOUS
 10
27.9882602726
 20
12.1457885521
  0
VERTEX
  8
___SYMBOL
 62
7
  6
CONTINUOUS
 10
27.9888483461
 20
12.1473620079
  0
VERTEX
  8
___SYMBOL
 62
7
  6
CONTINUOUS
 10
27.9893814121
 20
12.1489327697
  0
VERTEX
  8
___SYMBOL
 62
7
  6
CONTINUOUS
 10
27.9898537713
 20
12.1505006444
  0
VERTEX
  8
___SYMBOL
 62
7
  6
CONTINUOUS
 10
27.9902597243
 20
12.1520654388
  0
VERTEX
  8
___SYMBOL
 62
7
  6
CONTINUOUS
 10
27.990593572
 20
12.15362696
  0
VERTEX
  8
___SYMBOL
 62
7
  6
CONTINUOUS
 10
27.990849615
 20
12.1551850149
  0
VERTEX
  8
___SYMBOL
 62
7
  6
CONTINUOUS
 10
27.991022154
 20
12.1567394104
  0
VERTEX
  8
___SYMBOL
 62
7
  6
CONTINUOUS
 10
27.9911054898
 20
12.1582899534
  0
VERTEX
  8
___SYMBOL
 62
7
  6
CONTINUOUS
 10
27.9910939229
 20
12.1598364508
  0
VERTEX
  8
___SYMBOL
 62
7
  6
CONTINUOUS
 10
27.9909817543
 20
12.1613787097
  0
VERTEX
  8
___SYMBOL
 62
7
  6
CONTINUOUS
 10
27.9907632844
 20
12.1629165369
  0
VERTEX
  8
___SYMBOL
 62
7
  6
CONTINUOUS
 10
27.9904328142
 20
12.1644497393
  0
VERTEX
  8
___SYMBOL
 62
7
  6
CONTINUOUS
 10
27.9899846442
 20
12.165978124
  0
VERTEX
  8
___SYMBOL
 62
7
  6
CONTINUOUS
 10
27.9897283058
 20
12.1667148354
  0
VERTEX
  8
___SYMBOL
 62
7
  6
CONTINUOUS
 10
27.9894648111
 20
12.1674563693
  0
VERTEX
  8
___SYMBOL
 62
7
  6
CONTINUOUS
 10
27.9892157355
 20
12.1682087148
  0
VERTEX
  8
___SYMBOL
 62
7
  6
CONTINUOUS
 10
27.989002654
 20
12.1689778611
  0
VERTEX
  8
___SYMBOL
 62
7
  6
CONTINUOUS
 10
27.9888471421
 20
12.1697697974
  0
VERTEX
  8
___SYMBOL
 62
7
  6
CONTINUOUS
 10
27.9887696959
 20
12.170540004
  0
VERTEX
  8
___SYMBOL
 62
7
  6
CONTINUOUS
 10
27.9887631149
 20
12.171324072
  0
VERTEX
  8
___SYMBOL
 62
7
  6
CONTINUOUS
 10
27.9888278957
 20
12.172110275
  0
VERTEX
  8
___SYMBOL
 62
7
  6
CONTINUOUS
 10
27.9889645346
 20
12.1728868864
  0
VERTEX
  8
___SYMBOL
 62
7
  6
CONTINUOUS
 10
27.9891735283
 20
12.1736421798
  0
VERTEX
  8
___SYMBOL
 62
7
  6
CONTINUOUS
 10
27.9894553731
 20
12.1743644286
  0
VERTEX
  8
___SYMBOL
 62
7
  6
CONTINUOUS
 10
27.9898105655
 20
12.1750419063
  0
VERTEX
  8
___SYMBOL
 62
7
  6
CONTINUOUS
 10
27.9902396019
 20
12.1756628864
  0
VERTEX
  8
___SYMBOL
 62
7
  6
CONTINUOUS
 10
27.9907429789
 20
12.1762156423
  0
SEQEND
  0
POLYLINE
  8
___SYMBOL
 62
7
  6
CONTINUOUS
 66
1
 70
0
  0
VERTEX
  8
___SYMBOL
 62
7
  6
CONTINUOUS
 10
28.1708971211
 20
11.8743418045
  0
VERTEX
  8
___SYMBOL
 62
7
  6
CONTINUOUS
 10
28.1813967241
 20
11.876386007
  0
VERTEX
  8
___SYMBOL
 62
7
  6
CONTINUOUS
 10
28.1914116367
 20
11.8815070107
  0
VERTEX
  8
___SYMBOL
 62
7
  6
CONTINUOUS
 10
28.2000645059
 20
11.8892561081
  0
VERTEX
  8
___SYMBOL
 62
7
  6
CONTINUOUS
 10
28.2072494823
 20
11.899538764
  0
VERTEX
  8
___SYMBOL
 62
7
  6
CONTINUOUS
 10
28.2123371274
 20
11.9114538308
  0
VERTEX
  8
___SYMBOL
 62
7
  6
CONTINUOUS
 10
28.2152651565
 20
11.9248559191
  0
VERTEX
  8
___SYMBOL
 62
7
  6
CONTINUOUS
 10
28.2157771402
 20
11.938570598
  0
VERTEX
  8
___SYMBOL
 62
7
  6
CONTINUOUS
 10
28.2139262656
 20
11.9521694551
  0
VERTEX
  8
___SYMBOL
 62
7
  6
CONTINUOUS
 10
28.2097014522
 20
11.9652208704
  0
VERTEX
  8
___SYMBOL
 62
7
  6
CONTINUOUS
 10
28.2034729097
 20
11.9765813223
  0
VERTEX
  8
___SYMBOL
 62
7
  6
CONTINUOUS
 10
28.1953166864
 20
11.9861118945
  0
VERTEX
  8
___SYMBOL
 62
7
  6
CONTINUOUS
 10
28.1859474249
 20
11.9929775736
  0
VERTEX
  8
___SYMBOL
 62
7
  6
CONTINUOUS
 10
28.1754796058
 20
11.9970945549
  0
VERTEX
  8
___SYMBOL
 62
7
  6
CONTINUOUS
 10
28.1648304725
 20
11.9981020181
  0
VERTEX
  8
___SYMBOL
 62
7
  6
CONTINUOUS
 10
28.1543309278
 20
11.9960578739
  0
VERTEX
  8
___SYMBOL
 62
7
  6
CONTINUOUS
 10
28.1443159569
 20
11.9909368702
  0
VERTEX
  8
___SYMBOL
 62
7
  6
CONTINUOUS
 10
28.135663146
 20
11.9831877145
  0
VERTEX
  8
___SYMBOL
 62
7
  6
CONTINUOUS
 10
28.1284781114
 20
11.9729050586
  0
VERTEX
  8
___SYMBOL
 62
7
  6
CONTINUOUS
 10
28.1233905245
 20
11.9609899918
  0
VERTEX
  8
___SYMBOL
 62
7
  6
CONTINUOUS
 10
28.1204624371
 20
11.9475879035
  0
VERTEX
  8
___SYMBOL
 62
7
  6
CONTINUOUS
 10
28.1199504534
 20
11.9338732246
  0
VERTEX
  8
___SYMBOL
 62
7
  6
CONTINUOUS
 10
28.121801328
 20
11.9202743675
  0
VERTEX
  8
___SYMBOL
 62
7
  6
CONTINUOUS
 10
28.1260261414
 20
11.9072229522
  0
VERTEX
  8
___SYMBOL
 62
7
  6
CONTINUOUS
 10
28.1322547422
 20
11.8958625003
  0
VERTEX
  8
___SYMBOL
 62
7
  6
CONTINUOUS
 10
28.1404109656
 20
11.8863319281
  0
VERTEX
  8
___SYMBOL
 62
7
  6
CONTINUOUS
 10
28.149780227
 20
11.8794662491
  0
VERTEX
  8
___SYMBOL
 62
7
  6
CONTINUOUS
 10
28.1602479878
 20
11.875349326
  0
VERTEX
  8
___SYMBOL
 62
7
  6
CONTINUOUS
 10
28.1708971211
 20
11.8743418045
  0
SEQEND
  0
POLYLINE
  8
___SYMBOL
 62
7
  6
CONTINUOUS
 66
1
 70
0
  0
VERTEX
  8
___SYMBOL
 62
7
  6
CONTINUOUS
 10
28.1080483372
 20
11.9002135939
  0
VERTEX
  8
___SYMBOL
 62
7
  6
CONTINUOUS
 10
28.1095098425
 20
11.8955339543
  0
VERTEX
  8
___SYMBOL
 62
7
  6
CONTINUOUS
 10
28.1111530545
 20
11.8909810117
  0
VERTEX
  8
___SYMBOL
 62
7
  6
CONTINUOUS
 10
28.1129728565
 20
11.8865689435
  0
VERTEX
  8
___SYMBOL
 62
7
  6
CONTINUOUS
 10
28.1149635818
 20
11.8823114882
  0
VERTEX
  8
___SYMBOL
 62
7
  6
CONTINUOUS
 10
28.1171190316
 20
11.878221903
  0
VERTEX
  8
___SYMBOL
 62
7
  6
CONTINUOUS
 10
28.1194324941
 20
11.8743129224
  0
VERTEX
  8
___SYMBOL
 62
7
  6
CONTINUOUS
 10
28.1218967655
 20
11.8705967184
  0
VERTEX
  8
___SYMBOL
 62
7
  6
CONTINUOUS
 10
28.1245041723
 20
11.8670848628
  0
VERTEX
  8
___SYMBOL
 62
7
  6
CONTINUOUS
 10
28.1272465954
 20
11.863788291
  0
VERTEX
  8
___SYMBOL
 62
7
  6
CONTINUOUS
 10
28.1301154953
 20
11.8607172682
  0
VERTEX
  8
___SYMBOL
 62
7
  6
CONTINUOUS
 10
28.1331019386
 20
11.8578813572
  0
VERTEX
  8
___SYMBOL
 62
7
  6
CONTINUOUS
 10
28.1361966258
 20
11.8552893885
  0
VERTEX
  8
___SYMBOL
 62
7
  6
CONTINUOUS
 10
28.1393899206
 20
11.8529494332
  0
VERTEX
  8
___SYMBOL
 62
7
  6
CONTINUOUS
 10
28.1426718793
 20
11.8508687777
  0
VERTEX
  8
___SYMBOL
 62
7
  6
CONTINUOUS
 10
28.1460322825
 20
11.8490539009
  0
VERTEX
  8
___SYMBOL
 62
7
  6
CONTINUOUS
 10
28.1494606663
 20
11.847510454
  0
VERTEX
  8
___SYMBOL
 62
7
  6
CONTINUOUS
 10
28.152946355
 20
11.8462432432
  0
VERTEX
  8
___SYMBOL
 62
7
  6
CONTINUOUS
 10
28.1564784948
 20
11.8452562143
  0
VERTEX
  8
___SYMBOL
 62
7
  6
CONTINUOUS
 10
28.160046087
 20
11.8445524409
  0
VERTEX
  8
___SYMBOL
 62
7
  6
CONTINUOUS
 10
28.1636380225
 20
11.8441341144
  0
VERTEX
  8
___SYMBOL
 62
7
  6
CONTINUOUS
 10
28.1672431166
 20
11.8440025374
  0
VERTEX
  8
___SYMBOL
 62
7
  6
CONTINUOUS
 10
28.1708501435
 20
11.8441581197
  0
VERTEX
  8
___SYMBOL
 62
7
  6
CONTINUOUS
 10
28.1744478713
 20
11.8446003767
  0
VERTEX
  8
___SYMBOL
 62
7
  6
CONTINUOUS
 10
28.1780250971
 20
11.8453279314
  0
VERTEX
  8
___SYMBOL
 62
7
  6
CONTINUOUS
 10
28.181570682
 20
11.8463385182
  0
VERTEX
  8
___SYMBOL
 62
7
  6
CONTINUOUS
 10
28.1850735855
 20
11.8476289903
  0
VERTEX
  8
___SYMBOL
 62
7
  6
CONTINUOUS
 10
28.1885229
 20
11.8491953294
  0
VERTEX
  8
___SYMBOL
 62
7
  6
CONTINUOUS
 10
28.1919078847
 20
11.851032658
  0
VERTEX
  8
___SYMBOL
 62
7
  6
CONTINUOUS
 10
28.1952179992
 20
11.853135255
  0
VERTEX
  8
___SYMBOL
 62
7
  6
CONTINUOUS
 10
28.1984429363
 20
11.8554965731
  0
VERTEX
  8
___SYMBOL
 62
7
  6
CONTINUOUS
 10
28.201572654
 20
11.8581092595
  0
VERTEX
  8
___SYMBOL
 62
7
  6
CONTINUOUS
 10
28.2045974066
 20
11.8609651786
  0
VERTEX
  8
___SYMBOL
 62
7
  6
CONTINUOUS
 10
28.2075077756
 20
11.8640554375
  0
VERTEX
  8
___SYMBOL
 62
7
  6
CONTINUOUS
 10
28.2102946983
 20
11.8673704135
  0
VERTEX
  8
___SYMBOL
 62
7
  6
CONTINUOUS
 10
28.2129494968
 20
11.8708997842
  0
VERTEX
  8
___SYMBOL
 62
7
  6
CONTINUOUS
 10
28.2154639042
 20
11.8746325596
  0
VERTEX
  8
___SYMBOL
 62
7
  6
CONTINUOUS
 10
28.217830091
 20
11.8785571163
  0
VERTEX
  8
___SYMBOL
 62
7
  6
CONTINUOUS
 10
28.2200406893
 20
11.8826612337
  0
VERTEX
  8
___SYMBOL
 62
7
  6
CONTINUOUS
 10
28.2220888155
 20
11.8869321321
  0
VERTEX
  8
___SYMBOL
 62
7
  6
CONTINUOUS
 10
28.223968092
 20
11.8913565126
  0
VERTEX
  8
___SYMBOL
 62
7
  6
CONTINUOUS
 10
28.225672667
 20
11.8959205981
  0
VERTEX
  8
___SYMBOL
 62
7
  6
CONTINUOUS
 10
28.2271972327
 20
11.9006101768
  0
VERTEX
  8
___SYMBOL
 62
7
  6
CONTINUOUS
 10
28.2285370418
 20
11.9054106457
  0
VERTEX
  8
___SYMBOL
 62
7
  6
CONTINUOUS
 10
28.2296879222
 20
11.910307057
  0
VERTEX
  8
___SYMBOL
 62
7
  6
CONTINUOUS
 10
28.2306462903
 20
11.9152841638
  0
VERTEX
  8
___SYMBOL
 62
7
  6
CONTINUOUS
 10
28.2314091618
 20
11.9203264681
  0
VERTEX
  8
___SYMBOL
 62
7
  6
CONTINUOUS
 10
28.2319741613
 20
11.9254182687
  0
VERTEX
  8
___SYMBOL
 62
7
  6
CONTINUOUS
 10
28.2323395294
 20
11.9305437105
  0
VERTEX
  8
___SYMBOL
 62
7
  6
CONTINUOUS
 10
28.2325041284
 20
11.9356868335
  0
VERTEX
  8
___SYMBOL
 62
7
  6
CONTINUOUS
 10
28.2324674459
 20
11.9408316226
  0
VERTEX
  8
___SYMBOL
 62
7
  6
CONTINUOUS
 10
28.2322295959
 20
11.9459620577
  0
VERTEX
  8
___SYMBOL
 62
7
  6
CONTINUOUS
 10
28.2317913191
 20
11.9510621632
  0
VERTEX
  8
___SYMBOL
 62
7
  6
CONTINUOUS
 10
28.2311539803
 20
11.9561160581
  0
VERTEX
  8
___SYMBOL
 62
7
  6
CONTINUOUS
 10
28.2303195641
 20
11.9611080052
  0
VERTEX
  8
___SYMBOL
 62
7
  6
CONTINUOUS
 10
28.2292906687
 20
11.9660224602
  0
VERTEX
  8
___SYMBOL
 62
7
  6
CONTINUOUS
 10
28.228070498
 20
11.9708441201
  0
VERTEX
  8
___SYMBOL
 62
7
  6
CONTINUOUS
 10
28.2266628514
 20
11.975557971
  0
VERTEX
  8
___SYMBOL
 62
7
  6
CONTINUOUS
 10
28.2250721122
 20
11.9801493344
  0
VERTEX
  8
___SYMBOL
 62
7
  6
CONTINUOUS
 10
28.2233032337
 20
11.9846039135
  0
VERTEX
  8
___SYMBOL
 62
7
  6
CONTINUOUS
 10
28.2213617239
 20
11.9889078373
  0
VERTEX
  8
___SYMBOL
 62
7
  6
CONTINUOUS
 10
28.2192536286
 20
11.9930477039
  0
VERTEX
  8
___SYMBOL
 62
7
  6
CONTINUOUS
 10
28.2169855119
 20
11.9970106223
  0
VERTEX
  8
___SYMBOL
 62
7
  6
CONTINUOUS
 10
28.2145644367
 20
12.0007842525
  0
VERTEX
  8
___SYMBOL
 62
7
  6
CONTINUOUS
 10
28.2119979416
 20
12.0043568439
  0
VERTEX
  8
___SYMBOL
 62
7
  6
CONTINUOUS
 10
28.2092940186
 20
12.0077172719
  0
VERTEX
  8
___SYMBOL
 62
7
  6
CONTINUOUS
 10
28.2064610872
 20
12.0108550726
  0
VERTEX
  8
___SYMBOL
 62
7
  6
CONTINUOUS
 10
28.2035079689
 20
12.0137604753
  0
VERTEX
  8
___SYMBOL
 62
7
  6
CONTINUOUS
 10
28.2004438593
 20
12.0164244328
  0
VERTEX
  8
___SYMBOL
 62
7
  6
CONTINUOUS
 10
28.1972782996
 20
12.0188386501
  0
VERTEX
  8
___SYMBOL
 62
7
  6
CONTINUOUS
 10
28.1940211469
 20
12.0209956094
  0
VERTEX
  8
___SYMBOL
 62
7
  6
CONTINUOUS
 10
28.1906825437
 20
12.0228885944
  0
VERTEX
  8
___SYMBOL
 62
7
  6
CONTINUOUS
 10
28.1872728859
 20
12.0245117106
  0
VERTEX
  8
___SYMBOL
 62
7
  6
CONTINUOUS
 10
28.1838027907
 20
12.0258599036
  0
VERTEX
  8
___SYMBOL
 62
7
  6
CONTINUOUS
 10
28.1802830635
 20
12.0269289756
  0
VERTEX
  8
___SYMBOL
 62
7
  6
CONTINUOUS
 10
28.1767246644
 20
12.0277155974
  0
VERTEX
  8
___SYMBOL
 62
7
  6
CONTINUOUS
 10
28.1731386738
 20
12.0282173197
  0
VERTEX
  8
___SYMBOL
 62
7
  6
CONTINUOUS
 10
28.1695362579
 20
12.0284325802
  0
VERTEX
  8
___SYMBOL
 62
7
  6
CONTINUOUS
 10
28.1659286341
 20
12.0283607085
  0
VERTEX
  8
___SYMBOL
 62
7
  6
CONTINUOUS
 10
28.1623270363
 20
12.0280019285
  0
VERTEX
  8
___SYMBOL
 62
7
  6
CONTINUOUS
 10
28.1587426793
 20
12.0273573573
  0
VERTEX
  8
___SYMBOL
 62
7
  6
CONTINUOUS
 10
28.1551867243
 20
12.0264290022
  0
VERTEX
  8
___SYMBOL
 62
7
  6
CONTINUOUS
 10
28.151670244
 20
12.0252197537
  0
VERTEX
  8
___SYMBOL
 62
7
  6
CONTINUOUS
 10
28.1482041885
 20
12.0237333775
  0
VERTEX
  8
___SYMBOL
 62
7
  6
CONTINUOUS
 10
28.1447993505
 20
12.0219745019
  0
VERTEX
  8
___SYMBOL
 62
7
  6
CONTINUOUS
 10
28.1414663322
 20
12.0199486037
  0
VERTEX
  8
___SYMBOL
 62
7
  6
CONTINUOUS
 10
28.1382155122
 20
12.0176619914
  0
VERTEX
  8
___SYMBOL
 62
7
  6
CONTINUOUS
 10
28.1350570132
 20
12.0151217852
  0
VERTEX
  8
___SYMBOL
 62
7
  6
CONTINUOUS
 10
28.1320006704
 20
12.012335895
  0
SEQEND
  0
POLYLINE
  8
___SYMBOL
 62
7
  6
CONTINUOUS
 66
1
 70
0
  0
VERTEX
  8
___SYMBOL
 62
7
  6
CONTINUOUS
 10
27.9296970308
 20
11.8812234631
  0
VERTEX
  8
___SYMBOL
 62
7
  6
CONTINUOUS
 10
27.9396789348
 20
11.8839934473
  0
VERTEX
  8
___SYMBOL
 62
7
  6
CONTINUOUS
 10
27.9489615632
 20
11.8897943938
  0
VERTEX
  8
___SYMBOL
 62
7
  6
CONTINUOUS
 10
27.9567315389
 20
11.8981178764
  0
VERTEX
  8
___SYMBOL
 62
7
  6
CONTINUOUS
 10
27.9628939766
 20
11.9088623032
  0
VERTEX
  8
___SYMBOL
 62
7
  6
CONTINUOUS
 10
27.9669089286
 20
11.9210862282
  0
VERTEX
  8
___SYMBOL
 62
7
  6
CONTINUOUS
 10
27.9687273194
 20
11.9346403545
  0
VERTEX
  8
___SYMBOL
 62
7
  6
CONTINUOUS
 10
27.9681898211
 20
11.9483369545
  0
VERTEX
  8
___SYMBOL
 62
7
  6
CONTINUOUS
 10
27.9653800632
 20
11.9617530977
  0
VERTEX
  8
___SYMBOL
 62
7
  6
CONTINUOUS
 10
27.9603198281
 20
11.9744579224
  0
VERTEX
  8
___SYMBOL
 62
7
  6
CONTINUOUS
 10
27.9534525161
 20
11.9853384077
  0
VERTEX
  8
___SYMBOL
 62
7
  6
CONTINUOUS
 10
27.9448619609
 20
11.9942614694
  0
VERTEX
  8
___SYMBOL
 62
7
  6
CONTINUOUS
 10
27.9353009461
 20
12.0004453394
  0
VERTEX
  8
___SYMBOL
 62
7
  6
CONTINUOUS
 10
27.9248862266
 20
12.0038144945
  0
VERTEX
  8
___SYMBOL
 62
7
  6
CONTINUOUS
 10
27.9145303511
 20
12.0040736647
  0
VERTEX
  8
___SYMBOL
 62
7
  6
CONTINUOUS
 10
27.9045484471
 20
12.0013036222
  0
VERTEX
  8
___SYMBOL
 62
7
  6
CONTINUOUS
 10
27.8952658188
 20
11.995502734
  0
VERTEX
  8
___SYMBOL
 62
7
  6
CONTINUOUS
 10
27.8874958431
 20
11.9871792514
  0
VERTEX
  8
___SYMBOL
 62
7
  6
CONTINUOUS
 10
27.8813333762
 20
11.9764347663
  0
VERTEX
  8
___SYMBOL
 62
7
  6
CONTINUOUS
 10
27.8773184533
 20
11.9642108412
  0
VERTEX
  8
___SYMBOL
 62
7
  6
CONTINUOUS
 10
27.8755000625
 20
11.9506567733
  0
VERTEX
  8
___SYMBOL
 62
7
  6
CONTINUOUS
 10
27.8760375609
 20
11.9369601733
  0
VERTEX
  8
___SYMBOL
 62
7
  6
CONTINUOUS
 10
27.8788473187
 20
11.9235440301
  0
VERTEX
  8
___SYMBOL
 62
7
  6
CONTINUOUS
 10
27.8839075539
 20
11.9108391471
  0
VERTEX
  8
___SYMBOL
 62
7
  6
CONTINUOUS
 10
27.8907748659
 20
11.8999587201
  0
VERTEX
  8
___SYMBOL
 62
7
  6
CONTINUOUS
 10
27.899365421
 20
11.8910356584
  0
VERTEX
  8
___SYMBOL
 62
7
  6
CONTINUOUS
 10
27.9089264358
 20
11.8848517884
  0
VERTEX
  8
___SYMBOL
 62
7
  6
CONTINUOUS
 10
27.9193411553
 20
11.8814826333
  0
VERTEX
  8
___SYMBOL
 62
7
  6
CONTINUOUS
 10
27.9296970308
 20
11.8812234631
  0
SEQEND
  0
POLYLINE
  8
___SYMBOL
 62
7
  6
CONTINUOUS
 66
1
 70
0
  0
VERTEX
  8
___SYMBOL
 62
7
  6
CONTINUOUS
 10
27.9552254468
 20
12.0079666978
  0
VERTEX
  8
___SYMBOL
 62
7
  6
CONTINUOUS
 10
27.9517795723
 20
12.0103608924
  0
VERTEX
  8
___SYMBOL
 62
7
  6
CONTINUOUS
 10
27.9482342241
 20
12.0124832889
  0
VERTEX
  8
___SYMBOL
 62
7
  6
CONTINUOUS
 10
27.9446017642
 20
12.014326487
  0
VERTEX
  8
___SYMBOL
 62
7
  6
CONTINUOUS
 10
27.9408948585
 20
12.0158840598
  0
VERTEX
  8
___SYMBOL
 62
7
  6
CONTINUOUS
 10
27.9371264323
 20
12.0171505761
  0
VERTEX
  8
___SYMBOL
 62
7
  6
CONTINUOUS
 10
27.9333096255
 20
12.01812162
  0
VERTEX
  8
___SYMBOL
 62
7
  6
CONTINUOUS
 10
27.9294577466
 20
12.0187938055
  0
VERTEX
  8
___SYMBOL
 62
7
  6
CONTINUOUS
 10
27.9255842265
 20
12.0191647888
  0
VERTEX
  8
___SYMBOL
 62
7
  6
CONTINUOUS
 10
27.9217025715
 20
12.0192332764
  0
VERTEX
  8
___SYMBOL
 62
7
  6
CONTINUOUS
 10
27.9178263163
 20
12.0189990295
  0
VERTEX
  8
___SYMBOL
 62
7
  6
CONTINUOUS
 10
27.9139689767
 20
12.0184628649
  0
VERTEX
  8
___SYMBOL
 62
7
  6
CONTINUOUS
 10
27.9101440026
 20
12.017626652
  0
VERTEX
  8
___SYMBOL
 62
7
  6
CONTINUOUS
 10
27.9063647311
 20
12.0164933067
  0
VERTEX
  8
___SYMBOL
 62
7
  6
CONTINUOUS
 10
27.9026443398
 20
12.0150667806
  0
VERTEX
  8
___SYMBOL
 62
7
  6
CONTINUOUS
 10
27.8989958012
 20
12.0133520479
  0
VERTEX
  8
___SYMBOL
 62
7
  6
CONTINUOUS
 10
27.895431837
 20
12.0113550875
  0
VERTEX
  8
___SYMBOL
 62
7
  6
CONTINUOUS
 10
27.8919648742
 20
12.0090828625
  0
VERTEX
  8
___SYMBOL
 62
7
  6
CONTINUOUS
 10
27.8886070015
 20
12.0065432958
  0
VERTEX
  8
___SYMBOL
 62
7
  6
CONTINUOUS
 10
27.8853699273
 20
12.0037452424
  0
VERTEX
  8
___SYMBOL
 62
7
  6
CONTINUOUS
 10
27.8822649387
 20
12.0006984586
  0
VERTEX
  8
___SYMBOL
 62
7
  6
CONTINUOUS
 10
27.8793028622
 20
11.9974135681
  0
VERTEX
  8
___SYMBOL
 62
7
  6
CONTINUOUS
 10
27.8764940262
 20
11.9939020247
  0
VERTEX
  8
___SYMBOL
 62
7
  6
CONTINUOUS
 10
27.8738482245
 20
11.9901760726
  0
VERTEX
  8
___SYMBOL
 62
7
  6
CONTINUOUS
 10
27.8713746827
 20
11.9862487036
  0
VERTEX
  8
___SYMBOL
 62
7
  6
CONTINUOUS
 10
27.8690820255
 20
11.9821336117
  0
VERTEX
  8
___SYMBOL
 62
7
  6
CONTINUOUS
 10
27.866978247
 20
11.9778451455
  0
VERTEX
  8
___SYMBOL
 62
7
  6
CONTINUOUS
 10
27.8650706829
 20
11.9733982583
  0
VERTEX
  8
___SYMBOL
 62
7
  6
CONTINUOUS
 10
27.8633659844
 20
11.9688084555
  0
VERTEX
  8
___SYMBOL
 62
7
  6
CONTINUOUS
 10
27.8618700955
 20
11.9640917411
  0
VERTEX
  8
___SYMBOL
 62
7
  6
CONTINUOUS
 10
27.8605882321
 20
11.9592645614
  0
VERTEX
  8
___SYMBOL
 62
7
  6
CONTINUOUS
 10
27.859524864
 20
11.954343748
  0
VERTEX
  8
___SYMBOL
 62
7
  6
CONTINUOUS
 10
27.8586836988
 20
11.949346459
  0
VERTEX
  8
___SYMBOL
 62
7
  6
CONTINUOUS
 10
27.8580676696
 20
11.9442901189
  0
VERTEX
  8
___SYMBOL
 62
7
  6
CONTINUOUS
 10
27.8576789243
 20
11.9391923586
  0
VERTEX
  8
___SYMBOL
 62
7
  6
CONTINUOUS
 10
27.8575188185
 20
11.9340709529
  0
VERTEX
  8
___SYMBOL
 62
7
  6
CONTINUOUS
 10
27.8575879105
 20
11.9289437594
  0
VERTEX
  8
___SYMBOL
 62
7
  6
CONTINUOUS
 10
27.8578859592
 20
11.9238286557
  0
VERTEX
  8
___SYMBOL
 62
7
  6
CONTINUOUS
 10
27.8584119255
 20
11.9187434773
  0
VERTEX
  8
___SYMBOL
 62
7
  6
CONTINUOUS
 10
27.8591639754
 20
11.9137059554
  0
VERTEX
  8
___SYMBOL
 62
7
  6
CONTINUOUS
 10
27.8601394866
 20
11.908733655
  0
VERTEX
  8
___SYMBOL
 62
7
  6
CONTINUOUS
 10
27.8613350577
 20
11.9038439136
  0
VERTEX
  8
___SYMBOL
 62
7
  6
CONTINUOUS
 10
27.8627465199
 20
11.899053781
  0
VERTEX
  8
___SYMBOL
 62
7
  6
CONTINUOUS
 10
27.8643689518
 20
11.8943799595
  0
VERTEX
  8
___SYMBOL
 62
7
  6
CONTINUOUS
 10
27.8661966961
 20
11.889838746
  0
VERTEX
  8
___SYMBOL
 62
7
  6
CONTINUOUS
 10
27.8682233798
 20
11.885445975
  0
VERTEX
  8
___SYMBOL
 62
7
  6
CONTINUOUS
 10
27.8704419362
 20
11.8812169632
  0
VERTEX
  8
___SYMBOL
 62
7
  6
CONTINUOUS
 10
27.8728446296
 20
11.8771664565
  0
VERTEX
  8
___SYMBOL
 62
7
  6
CONTINUOUS
 10
27.8754230822
 20
11.8733085783
  0
VERTEX
  8
___SYMBOL
 62
7
  6
CONTINUOUS
 10
27.8781683034
 20
11.8696567806
  0
VERTEX
  8
___SYMBOL
 62
7
  6
CONTINUOUS
 10
27.881070721
 20
11.8662237963
  0
VERTEX
  8
___SYMBOL
 62
7
  6
CONTINUOUS
 10
27.8841202148
 20
11.8630215958
  0
VERTEX
  8
___SYMBOL
 62
7
  6
CONTINUOUS
 10
27.8873061517
 20
11.8600613446
  0
VERTEX
  8
___SYMBOL
 62
7
  6
CONTINUOUS
 10
27.8906174229
 20
11.8573533646
  0
VERTEX
  8
___SYMBOL
 62
7
  6
CONTINUOUS
 10
27.8940424826
 20
11.8549070981
  0
VERTEX
  8
___SYMBOL
 62
7
  6
CONTINUOUS
 10
27.8975693881
 20
11.8527310748
  0
VERTEX
  8
___SYMBOL
 62
7
  6
CONTINUOUS
 10
27.9011858418
 20
11.8508328821
  0
VERTEX
  8
___SYMBOL
 62
7
  6
CONTINUOUS
 10
27.9048792336
 20
11.8492191387
  0
VERTEX
  8
___SYMBOL
 62
7
  6
CONTINUOUS
 10
27.9086366853
 20
11.8478954714
  0
VERTEX
  8
___SYMBOL
 62
7
  6
CONTINUOUS
 10
27.9124450954
 20
11.8468664957
  0
VERTEX
  8
___SYMBOL
 62
7
  6
CONTINUOUS
 10
27.9162911845
 20
11.8461357994
  0
VERTEX
  8
___SYMBOL
 62
7
  6
CONTINUOUS
 10
27.920161542
 20
11.8457059304
  0
VERTEX
  8
___SYMBOL
 62
7
  6
CONTINUOUS
 10
27.9240426725
 20
11.8455783875
  0
VERTEX
  8
___SYMBOL
 62
7
  6
CONTINUOUS
 10
27.9279210433
 20
11.8457536154
  0
VERTEX
  8
___SYMBOL
 62
7
  6
CONTINUOUS
 10
27.9317831311
 20
11.8462310031
  0
VERTEX
  8
___SYMBOL
 62
7
  6
CONTINUOUS
 10
27.9356154695
 20
11.8470088861
  0
VERTEX
  8
___SYMBOL
 62
7
  6
CONTINUOUS
 10
27.9394046957
 20
11.8480845521
  0
VERTEX
  8
___SYMBOL
 62
7
  6
CONTINUOUS
 10
27.9431375973
 20
11.8494542503
  0
VERTEX
  8
___SYMBOL
 62
7
  6
CONTINUOUS
 10
27.9468011585
 20
11.8511132048
  0
VERTEX
  8
___SYMBOL
 62
7
  6
CONTINUOUS
 10
27.9503826048
 20
11.8530556312
  0
VERTEX
  8
___SYMBOL
 62
7
  6
CONTINUOUS
 10
27.9538694485
 20
11.8552747566
  0
VERTEX
  8
___SYMBOL
 62
7
  6
CONTINUOUS
 10
27.9572495314
 20
11.8577628432
  0
VERTEX
  8
___SYMBOL
 62
7
  6
CONTINUOUS
 10
27.9605110679
 20
11.8605112155
  0
VERTEX
  8
___SYMBOL
 62
7
  6
CONTINUOUS
 10
27.9636426855
 20
11.8635102904
  0
VERTEX
  8
___SYMBOL
 62
7
  6
CONTINUOUS
 10
27.9666334647
 20
11.8667496105
  0
VERTEX
  8
___SYMBOL
 62
7
  6
CONTINUOUS
 10
27.9694729773
 20
11.870217881
  0
VERTEX
  8
___SYMBOL
 62
7
  6
CONTINUOUS
 10
27.9721513222
 20
11.8739030086
  0
VERTEX
  8
___SYMBOL
 62
7
  6
CONTINUOUS
 10
27.9746591607
 20
11.8777921439
  0
VERTEX
  8
___SYMBOL
 62
7
  6
CONTINUOUS
 10
27.9769877482
 20
11.881871726
  0
VERTEX
  8
___SYMBOL
 62
7
  6
CONTINUOUS
 10
27.9791289653
 20
11.8861275302
  0
VERTEX
  8
___SYMBOL
 62
7
  6
CONTINUOUS
 10
27.9810753461
 20
11.8905447172
  0
VERTEX
  8
___SYMBOL
 62
7
  6
CONTINUOUS
 10
27.9828201038
 20
11.895107885
  0
VERTEX
  8
___SYMBOL
 62
7
  6
CONTINUOUS
 10
27.9843571548
 20
11.8998011227
  0
VERTEX
  8
___SYMBOL
 62
7
  6
CONTINUOUS
 10
27.9856811395
 20
11.9046080656
  0
VERTEX
  8
___SYMBOL
 62
7
  6
CONTINUOUS
 10
27.9867874415
 20
11.9095119528
  0
VERTEX
  8
___SYMBOL
 62
7
  6
CONTINUOUS
 10
27.9876722033
 20
11.9144956853
  0
VERTEX
  8
___SYMBOL
 62
7
  6
CONTINUOUS
 10
27.9883323399
 20
11.9195418856
  0
SEQEND
  0
ENDBLK
  8
0
  6
BYBLOCK
 62
0
  0
BLOCK
  8
___SYMBOL
 62
2
  6
CONTINUOUS
  2
CUT-OUT_TEMPLATE_SKU_SIN_BL2
 70
64
 10
9.7452154389
 20
15.9868623475
  0
TEXT
  8
___SYMBOL
 62
2
  6
CONTINUOUS
 10
7.3452154389
 20
16.7714164714
  7
STANDARD
 40
0.25
  1
CUT-OUT TEMPLATE
 41
0.8
 72
0
  0
TEXT
  8
___SYMBOL
 62
2
  6
CONTINUOUS
 10
7.3452154389
 20
16.3964164714
  7
STANDARD
 40
0.25
  1
UNDER-MOUNT SINK
 41
0.8
 72
0
  0
TEXT
  8
___SYMBOL
 62
2
  6
CONTINUOUS
 10
7.3452154389
 20
16.0214164714
  7
STANDARD
 40
0.25
  1
PLANTILLA DE RECORTE
 41
0.8
 72
0
  0
TEXT
  8
___SYMBOL
 62
2
  6
CONTINUOUS
 10
7.3452154389
 20
15.6464164714
  7
STANDARD
 40
0.25
  1
FREGADERO MONTADO DEBAJO
 41
0.8
 72
0
  0
TEXT
  8
___SYMBOL
 62
2
  6
CONTINUOUS
 10
7.3452154389
 20
15.2714164714
  7
STANDARD
 40
0.25
  1
  DEL MOSTRADOR
 41
0.8
 72
0
  0
TEXT
  8
___SYMBOL
 62
2
  6
CONTINUOUS
 10
7.3452154389
 20
14.8964164714
  7
STANDARD
 40
0.25
  1
PLAN DE DÉCOUPE
 41
0.8
 72
0
  0
TEXT
  8
___SYMBOL
 62
2
  6
CONTINUOUS
 10
7.3452154389
 20
14.5214164714
  7
STANDARD
 40
0.25
  1
ÉVIER SOUS-COMPTOIR
 41
0.8
 72
0
  0
TEXT
  8
___SYMBOL
 62
2
  6
CONTINUOUS
 10
7.3452154389
 20
14.1464164714
  7
STANDARD
 40
0.25
  1
   28001-***
 41
0.8
 72
0
  0
LINE
  8
___SYMBOL
 62
2
  6
CONTINUOUS
 10
7.8717872151
 20
17.8233297092
 11
7.6584837632
 21
17.5696814363
  0
LINE
  8
___SYMBOL
 62
2
  6
CONTINUOUS
 10
7.679725403
 20
17.8233297092
 11
7.8717872151
 21
17.8233297092
  0
LINE
  8
___SYMBOL
 62
2
  6
CONTINUOUS
 10
7.679725403
 20
17.8233297092
 11
7.5419612363
 21
17.6595085196
  0
LINE
  8
___SYMBOL
 62
2
  6
CONTINUOUS
 10
7.5419612363
 20
17.8233297092
 11
7.5419612363
 21
17.6595085196
  0
LINE
  8
___SYMBOL
 62
2
  6
CONTINUOUS
 10
7.3674610093
 20
17.8233297092
 11
7.5419612363
 21
17.8233297092
  0
LINE
  8
___SYMBOL
 62
2
  6
CONTINUOUS
 10
7.3674610093
 20
17.8233297092
 11
7.3674610093
 21
17.2373920564
  0
LINE
  8
___SYMBOL
 62
2
  6
CONTINUOUS
 10
7.5419612363
 20
17.2374160599
 11
7.3674610093
 21
17.2373920564
  0
LINE
  8
___SYMBOL
 62
2
  6
CONTINUOUS
 10
7.5419612363
 20
17.4389158939
 11
7.5419612363
 21
17.2374160599
  0
LINE
  8
___SYMBOL
 62
2
  6
CONTINUOUS
 10
7.6956991764
 20
17.2374160599
 11
7.5419612363
 21
17.4389158939
  0
LINE
  8
___SYMBOL
 62
2
  6
CONTINUOUS
 10
7.6956991764
 20
17.2374160599
 11
7.9119915979
 21
17.2374160599
  0
LINE
  8
___SYMBOL
 62
2
  6
CONTINUOUS
 10
7.9119915979
 20
17.2374160599
 11
7.6584837632
 21
17.5696814363
  0
SOLID
  8
___SYMBOL
 62
2
  6
CONTINUOUS
 10
7.5419612363
 20
17.6595085196
 11
7.679725403
 21
17.8233297092
 12
7.8717872151
 22
17.8233297092
 13
7.8717872151
 23
17.8233297092
  0
SOLID
  8
___SYMBOL
 62
2
  6
CONTINUOUS
 10
7.8717872151
 20
17.8233297092
 11
7.6584837632
 21
17.5696814363
 12
7.5419612363
 22
17.6595085196
 13
7.5419612363
 23
17.6595085196
  0
SOLID
  8
___SYMBOL
 62
2
  6
CONTINUOUS
 10
7.5419612363
 20
17.4389158939
 11
7.6584837632
 21
17.5696814363
 12
7.6956991764
 22
17.2374160599
 13
7.6956991764
 23
17.2374160599
  0
SOLID
  8
___SYMBOL
 62
2
  6
CONTINUOUS
 10
7.6584837632
 20
17.5696814363
 11
7.9119915979
 21
17.2374160599
 12
7.6956991764
 22
17.2374160599
 13
7.6956991764
 23
17.2374160599
  0
SOLID
  8
___SYMBOL
 62
2
  6
CONTINUOUS
 10
7.5419612363
 20
17.2374160599
 11
7.3674610093
 21
17.2373920564
 12
7.5419612363
 22
17.4389158939
 13
7.5419612363
 23
17.4389158939
  0
SOLID
  8
___SYMBOL
 62
2
  6
CONTINUOUS
 10
7.6584837632
 20
17.5696814363
 11
7.5419612363
 21
17.4389158939
 12
7.5419612363
 22
17.6595085196
 13
7.5419612363
 23
17.6595085196
  0
SOLID
  8
___SYMBOL
 62
2
  6
CONTINUOUS
 10
7.5419612363
 20
17.4389158939
 11
7.3674610093
 21
17.2373920564
 12
7.5419612363
 22
17.6595085196
 13
7.5419612363
 23
17.6595085196
  0
SOLID
  8
___SYMBOL
 62
2
  6
CONTINUOUS
 10
7.5419612363
 20
17.6595085196
 11
7.3674610093
 21
17.2373920564
 12
7.5419612363
 22
17.8233297092
 13
7.5419612363
 23
17.8233297092
  0
SOLID
  8
___SYMBOL
 62
2
  6
CONTINUOUS
 10
7.3674610093
 20
17.2373920564
 11
7.3674610093
 21
17.8233297092
 12
7.5419612363
 22
17.8233297092
 13
7.5419612363
 23
17.8233297092
  0
CIRCLE
  8
___SYMBOL
 62
2
  6
CONTINUOUS
 10
8.0885004346
 20
17.5292516327
 40
0.298056591
  0
CIRCLE
  8
___SYMBOL
 62
2
  6
CONTINUOUS
 10
8.0885004346
 20
17.5292516327
 40
0.1247694151
  0
SOLID
  8
___SYMBOL
 62
2
  6
CONTINUOUS
 10
7.9963958827
 20
17.8127202958
 11
8.0573450371
 21
17.8256754385
 12
8.119655832
 22
17.8256754385
 13
8.119655832
 23
17.8256754385
  0
SOLID
  8
___SYMBOL
 62
2
  6
CONTINUOUS
 10
8.119655832
 20
17.8256754385
 11
8.1806049865
 21
17.8127202958
 12
7.9963958827
 22
17.8127202958
 13
7.9963958827
 23
17.8127202958
  0
SOLID
  8
___SYMBOL
 62
2
  6
CONTINUOUS
 10
7.9394721391
 20
17.7873762123
 11
7.9963958827
 21
17.8127202958
 12
8.1806049865
 22
17.8127202958
 13
8.1806049865
 23
17.8127202958
  0
SOLID
  8
___SYMBOL
 62
2
  6
CONTINUOUS
 10
8.1806049865
 20
17.8127202958
 11
8.23752873
 21
17.7873762123
 12
7.9394721391
 22
17.7873762123
 13
7.9394721391
 23
17.7873762123
  0
SOLID
  8
___SYMBOL
 62
2
  6
CONTINUOUS
 10
7.8890616471
 20
17.750750846
 11
7.9394721391
 21
17.7873762123
 12
8.23752873
 22
17.7873762123
 13
8.23752873
 23
17.7873762123
  0
SOLID
  8
___SYMBOL
 62
2
  6
CONTINUOUS
 10
8.23752873
 20
17.7873762123
 11
8.287939222
 21
17.750750846
 12
7.8890616471
 22
17.750750846
 13
7.8890616471
 23
17.750750846
  0
SOLID
  8
___SYMBOL
 62
2
  6
CONTINUOUS
 10
7.8473675872
 20
17.7044449012
 11
7.8890616471
 21
17.750750846
 12
8.287939222
 22
17.750750846
 13
8.287939222
 23
17.750750846
  0
SOLID
  8
___SYMBOL
 62
2
  6
CONTINUOUS
 10
8.287939222
 20
17.750750846
 11
8.329633282
 21
17.7044449012
 12
7.8473675872
 22
17.7044449012
 13
7.8473675872
 23
17.7044449012
  0
SOLID
  8
___SYMBOL
 62
2
  6
CONTINUOUS
 10
8.0885004346
 20
17.6540210478
 11
7.8162121897
 21
17.65048217
 12
8.329633282
 22
17.7044449012
 13
8.329633282
 23
17.7044449012
  0
SOLID
  8
___SYMBOL
 62
2
  6
CONTINUOUS
 10
7.8162121897
 20
17.65048217
 11
7.8473675872
 21
17.7044449012
 12
8.329633282
 22
17.7044449012
 13
8.329633282
 23
17.7044449012
  0
SOLID
  8
___SYMBOL
 62
2
  6
CONTINUOUS
 10
8.329633282
 20
17.7044449012
 11
8.3607886794
 21
17.65048217
 12
8.0885004346
 22
17.6540210478
 13
8.0885004346
 23
17.6540210478
  0
SOLID
  8
___SYMBOL
 62
2
  6
CONTINUOUS
 10
8.0885004346
 20
17.6540210478
 11
8.0499445649
 21
17.6479143979
 12
7.8162121897
 22
17.65048217
 13
7.8162121897
 23
17.65048217
  0
SOLID
  8
___SYMBOL
 62
2
  6
CONTINUOUS
 10
8.1270563042
 20
17.6479143979
 11
8.0885004346
 21
17.6540210478
 12
8.3607886794
 22
17.65048217
 13
8.3607886794
 23
17.65048217
  0
SOLID
  8
___SYMBOL
 62
2
  6
CONTINUOUS
 10
7.9875598574
 20
17.6025892548
 11
7.7969570952
 21
17.5912210825
 12
8.0151628124
 22
17.6301922099
 13
8.0151628124
 23
17.6301922099
  0
SOLID
  8
___SYMBOL
 62
2
  6
CONTINUOUS
 10
8.0151628124
 20
17.6301922099
 11
7.7969570952
 21
17.5912210825
 12
8.0499445649
 22
17.6479143979
 13
8.0499445649
 23
17.6479143979
  0
SOLID
  8
___SYMBOL
 62
2
  6
CONTINUOUS
 10
7.7969570952
 20
17.5912210825
 11
7.8162121897
 21
17.65048217
 12
8.0499445649
 22
17.6479143979
 13
8.0499445649
 23
17.6479143979
  0
SOLID
  8
___SYMBOL
 62
2
  6
CONTINUOUS
 10
8.1270563042
 20
17.6479143979
 11
8.3607886794
 21
17.65048217
 12
8.1618380567
 22
17.6301922099
 13
8.1618380567
 23
17.6301922099
  0
SOLID
  8
___SYMBOL
 62
2
  6
CONTINUOUS
 10
8.1618380567
 20
17.6301922099
 11
8.3607886794
 21
17.65048217
 12
8.1894410117
 22
17.6025892548
 13
8.1894410117
 23
17.6025892548
  0
SOLID
  8
___SYMBOL
 62
2
  6
CONTINUOUS
 10
8.3607886794
 20
17.65048217
 11
8.3800437739
 21
17.5912210825
 12
8.1894410117
 22
17.6025892548
 13
8.1894410117
 23
17.6025892548
  0
SOLID
  8
___SYMBOL
 62
2
  6
CONTINUOUS
 10
7.9875598574
 20
17.6025892548
 11
7.9698376693
 21
17.5678075023
 12
7.7969570952
 22
17.5912210825
 13
7.7969570952
 23
17.5912210825
  0
SOLID
  8
___SYMBOL
 62
2
  6
CONTINUOUS
 10
8.2071631998
 20
17.5678075023
 11
8.1894410117
 21
17.6025892548
 12
8.3800437739
 22
17.5912210825
 13
8.3800437739
 23
17.5912210825
  0
SOLID
  8
___SYMBOL
 62
2
  6
CONTINUOUS
 10
7.7904438436
 20
17.5292516327
 11
7.7969570952
 21
17.5912210825
 12
7.9698376693
 22
17.5678075023
 13
7.9698376693
 23
17.5678075023
  0
SOLID
  8
___SYMBOL
 62
2
  6
CONTINUOUS
 10
7.9698376693
 20
17.5678075023
 11
7.9637310195
 21
17.5292516327
 12
7.7904438436
 22
17.5292516327
 13
7.7904438436
 23
17.5292516327
  0
SOLID
  8
___SYMBOL
 62
2
  6
CONTINUOUS
 10
8.2071631998
 20
17.5678075023
 11
8.3800437739
 21
17.5912210825
 12
8.2132698496
 22
17.5292516327
 13
8.2132698496
 23
17.5292516327
  0
SOLID
  8
___SYMBOL
 62
2
  6
CONTINUOUS
 10
8.3800437739
 20
17.5912210825
 11
8.3865570255
 21
17.5292516327
 12
8.2132698496
 22
17.5292516327
 13
8.2132698496
 23
17.5292516327
  0
SOLID
  8
___SYMBOL
 62
2
  6
CONTINUOUS
 10
8.2071631998
 20
17.4906957631
 11
8.2132698496
 21
17.5292516327
 12
8.3865570255
 22
17.5292516327
 13
8.3865570255
 23
17.5292516327
  0
SOLID
  8
___SYMBOL
 62
2
  6
CONTINUOUS
 10
7.9698376693
 20
17.4906957631
 11
7.7969570952
 21
17.4672821829
 12
7.9637310195
 22
17.5292516327
 13
7.9637310195
 23
17.5292516327
  0
SOLID
  8
___SYMBOL
 62
2
  6
CONTINUOUS
 10
7.7969570952
 20
17.4672821829
 11
7.7904438436
 21
17.5292516327
 12
7.9637310195
 22
17.5292516327
 13
7.9637310195
 23
17.5292516327
  0
SOLID
  8
___SYMBOL
 62
2
  6
CONTINUOUS
 10
8.3865570255
 20
17.5292516327
 11
8.3800437739
 21
17.4672821829
 12
8.2071631998
 22
17.4906957631
 13
8.2071631998
 23
17.4906957631
  0
SOLID
  8
___SYMBOL
 62
2
  6
CONTINUOUS
 10
7.9698376693
 20
17.4906957631
 11
7.9875598574
 21
17.4559140106
 12
7.7969570952
 22
17.4672821829
 13
7.7969570952
 23
17.4672821829
  0
SOLID
  8
___SYMBOL
 62
2
  6
CONTINUOUS
 10
8.1894410117
 20
17.4559140106
 11
8.2071631998
 21
17.4906957631
 12
8.3800437739
 22
17.4672821829
 13
8.3800437739
 23
17.4672821829
  0
SOLID
  8
___SYMBOL
 62
2
  6
CONTINUOUS
 10
8.0499445649
 20
17.4105888675
 11
7.8162121897
 21
17.4080210954
 12
8.0151628124
 22
17.4283110555
 13
8.0151628124
 23
17.4283110555
  0
SOLID
  8
___SYMBOL
 62
2
  6
CONTINUOUS
 10
8.0151628124
 20
17.4283110555
 11
7.8162121897
 21
17.4080210954
 12
7.9875598574
 22
17.4559140106
 13
7.9875598574
 23
17.4559140106
  0
SOLID
  8
___SYMBOL
 62
2
  6
CONTINUOUS
 10
7.8162121897
 20
17.4080210954
 11
7.7969570952
 21
17.4672821829
 12
7.9875598574
 22
17.4559140106
 13
7.9875598574
 23
17.4559140106
  0
SOLID
  8
___SYMBOL
 62
2
  6
CONTINUOUS
 10
8.1894410117
 20
17.4559140106
 11
8.3800437739
 21
17.4672821829
 12
8.1618380567
 22
17.4283110555
 13
8.1618380567
 23
17.4283110555
  0
SOLID
  8
___SYMBOL
 62
2
  6
CONTINUOUS
 10
8.1618380567
 20
17.4283110555
 11
8.3800437739
 21
17.4672821829
 12
8.1270563042
 22
17.4105888675
 13
8.1270563042
 23
17.4105888675
  0
SOLID
  8
___SYMBOL
 62
2
  6
CONTINUOUS
 10
8.3800437739
 20
17.4672821829
 11
8.3607886794
 21
17.4080210954
 12
8.1270563042
 22
17.4105888675
 13
8.1270563042
 23
17.4105888675
  0
SOLID
  8
___SYMBOL
 62
2
  6
CONTINUOUS
 10
8.0499445649
 20
17.4105888675
 11
8.0885004346
 21
17.4044822176
 12
7.8162121897
 22
17.4080210954
 13
7.8162121897
 23
17.4080210954
  0
SOLID
  8
___SYMBOL
 62
2
  6
CONTINUOUS
 10
8.0885004346
 20
17.4044822176
 11
8.1270563042
 21
17.4105888675
 12
8.3607886794
 22
17.4080210954
 13
8.3607886794
 23
17.4080210954
  0
SOLID
  8
___SYMBOL
 62
2
  6
CONTINUOUS
 10
7.8473675872
 20
17.3540583642
 11
7.8162121897
 21
17.4080210954
 12
8.0885004346
 22
17.4044822176
 13
8.0885004346
 23
17.4044822176
  0
SOLID
  8
___SYMBOL
 62
2
  6
CONTINUOUS
 10
8.0885004346
 20
17.4044822176
 11
8.3607886794
 21
17.4080210954
 12
7.8473675872
 22
17.3540583642
 13
7.8473675872
 23
17.3540583642
  0
SOLID
  8
___SYMBOL
 62
2
  6
CONTINUOUS
 10
8.3607886794
 20
17.4080210954
 11
8.329633282
 21
17.3540583642
 12
7.8473675872
 22
17.3540583642
 13
7.8473675872
 23
17.3540583642
  0
SOLID
  8
___SYMBOL
 62
2
  6
CONTINUOUS
 10
7.8890616471
 20
17.3077524194
 11
7.8473675872
 21
17.3540583642
 12
8.329633282
 22
17.3540583642
 13
8.329633282
 23
17.3540583642
  0
SOLID
  8
___SYMBOL
 62
2
  6
CONTINUOUS
 10
8.329633282
 20
17.3540583642
 11
8.287939222
 21
17.3077524194
 12
7.8890616471
 22
17.3077524194
 13
7.8890616471
 23
17.3077524194
  0
SOLID
  8
___SYMBOL
 62
2
  6
CONTINUOUS
 10
7.9394721391
 20
17.2711270531
 11
7.8890616471
 21
17.3077524194
 12
8.287939222
 22
17.3077524194
 13
8.287939222
 23
17.3077524194
  0
SOLID
  8
___SYMBOL
 62
2
  6
CONTINUOUS
 10
8.287939222
 20
17.3077524194
 11
8.23752873
 21
17.2711270531
 12
7.9394721391
 22
17.2711270531
 13
7.9394721391
 23
17.2711270531
  0
SOLID
  8
___SYMBOL
 62
2
  6
CONTINUOUS
 10
7.9963958827
 20
17.2457829696
 11
7.9394721391
 21
17.2711270531
 12
8.23752873
 22
17.2711270531
 13
8.23752873
 23
17.2711270531
  0
SOLID
  8
___SYMBOL
 62
2
  6
CONTINUOUS
 10
8.23752873
 20
17.2711270531
 11
8.1806049865
 21
17.2457829696
 12
7.9963958827
 22
17.2457829696
 13
7.9963958827
 23
17.2457829696
  0
SOLID
  8
___SYMBOL
 62
2
  6
CONTINUOUS
 10
8.0573450371
 20
17.2328278269
 11
7.9963958827
 21
17.2457829696
 12
8.1806049865
 22
17.2457829696
 13
8.1806049865
 23
17.2457829696
  0
SOLID
  8
___SYMBOL
 62
2
  6
CONTINUOUS
 10
8.1806049865
 20
17.2457829696
 11
8.119655832
 21
17.2328278269
 12
8.0573450371
 22
17.2328278269
 13
8.0573450371
 23
17.2328278269
  0
LINE
  8
___SYMBOL
 62
2
  6
CONTINUOUS
 10
8.8811364438
 20
17.8233297092
 11
8.8811364438
 21
17.2374160599
  0
LINE
  8
___SYMBOL
 62
2
  6
CONTINUOUS
 10
8.8811364438
 20
17.2374160599
 11
8.7164027639
 21
17.2374160599
  0
LINE
  8
___SYMBOL
 62
2
  6
CONTINUOUS
 10
8.7164027639
 20
17.4657406697
 11
8.7164027639
 21
17.2374160599
  0
LINE
  8
___SYMBOL
 62
2
  6
CONTINUOUS
 10
8.5684059528
 20
17.4657406697
 11
8.7164027639
 21
17.4657406697
  0
LINE
  8
___SYMBOL
 62
2
  6
CONTINUOUS
 10
8.5684059528
 20
17.4657406697
 11
8.5684059528
 21
17.2374160599
  0
LINE
  8
___SYMBOL
 62
2
  6
CONTINUOUS
 10
8.5684059528
 20
17.2374160599
 11
8.4036722729
 21
17.2374160599
  0
LINE
  8
___SYMBOL
 62
2
  6
CONTINUOUS
 10
8.4036722729
 20
17.8233297092
 11
8.4036722729
 21
17.2374160599
  0
LINE
  8
___SYMBOL
 62
2
  6
CONTINUOUS
 10
8.4036722729
 20
17.8233297092
 11
8.5684059528
 21
17.8233297092
  0
LINE
  8
___SYMBOL
 62
2
  6
CONTINUOUS
 10
8.5684059528
 20
17.8233297092
 11
8.5684059528
 21
17.6029459496
  0
LINE
  8
___SYMBOL
 62
2
  6
CONTINUOUS
 10
8.5684059528
 20
17.6029459496
 11
8.7164027639
 21
17.6029459496
  0
LINE
  8
___SYMBOL
 62
2
  6
CONTINUOUS
 10
8.7164027639
 20
17.8233297092
 11
8.7164027639
 21
17.6029459496
  0
LINE
  8
___SYMBOL
 62
2
  6
CONTINUOUS
 10
8.7164027639
 20
17.8233297092
 11
8.8811364438
 21
17.8233297092
  0
SOLID
  8
___SYMBOL
 62
2
  6
CONTINUOUS
 10
8.7164027639
 20
17.6029459496
 11
8.7164027639
 21
17.8233297092
 12
8.8811364438
 22
17.8233297092
 13
8.8811364438
 23
17.8233297092
  0
SOLID
  8
___SYMBOL
 62
2
  6
CONTINUOUS
 10
8.7164027639
 20
17.6029459496
 11
8.5684059528
 21
17.4657406697
 12
8.5684059528
 22
17.6029459496
 13
8.5684059528
 23
17.6029459496
  0
SOLID
  8
___SYMBOL
 62
2
  6
CONTINUOUS
 10
8.5684059528
 20
17.4657406697
 11
8.4036722729
 21
17.2374160599
 12
8.5684059528
 22
17.6029459496
 13
8.5684059528
 23
17.6029459496
  0
SOLID
  8
___SYMBOL
 62
2
  6
CONTINUOUS
 10
8.5684059528
 20
17.6029459496
 11
8.4036722729
 21
17.2374160599
 12
8.5684059528
 22
17.8233297092
 13
8.5684059528
 23
17.8233297092
  0
SOLID
  8
___SYMBOL
 62
2
  6
CONTINUOUS
 10
8.4036722729
 20
17.2374160599
 11
8.4036722729
 21
17.8233297092
 12
8.5684059528
 22
17.8233297092
 13
8.5684059528
 23
17.8233297092
  0
SOLID
  8
___SYMBOL
 62
2
  6
CONTINUOUS
 10
8.5684059528
 20
17.4657406697
 11
8.5684059528
 21
17.2374160599
 12
8.4036722729
 22
17.2374160599
 13
8.4036722729
 23
17.2374160599
  0
SOLID
  8
___SYMBOL
 62
2
  6
CONTINUOUS
 10
8.5684059528
 20
17.4657406697
 11
8.7164027639
 21
17.6029459496
 12
8.7164027639
 22
17.4657406697
 13
8.7164027639
 23
17.4657406697
  0
SOLID
  8
___SYMBOL
 62
2
  6
CONTINUOUS
 10
8.7164027639
 20
17.6029459496
 11
8.8811364438
 21
17.8233297092
 12
8.7164027639
 22
17.4657406697
 13
8.7164027639
 23
17.4657406697
  0
SOLID
  8
___SYMBOL
 62
2
  6
CONTINUOUS
 10
8.7164027639
 20
17.4657406697
 11
8.8811364438
 21
17.8233297092
 12
8.7164027639
 22
17.2374160599
 13
8.7164027639
 23
17.2374160599
  0
SOLID
  8
___SYMBOL
 62
2
  6
CONTINUOUS
 10
8.8811364438
 20
17.8233297092
 11
8.8811364438
 21
17.2374160599
 12
8.7164027639
 22
17.2374160599
 13
8.7164027639
 23
17.2374160599
  0
LINE
  8
___SYMBOL
 62
2
  6
CONTINUOUS
 10
9.0762273507
 20
17.2374160599
 11
9.2389114207
 21
17.2374160599
  0
LINE
  8
___SYMBOL
 62
2
  6
CONTINUOUS
 10
9.0762273507
 20
17.2374160599
 11
8.926181288
 21
17.2374160599
  0
LINE
  8
___SYMBOL
 62
2
  6
CONTINUOUS
 10
8.926181288
 20
17.2374160599
 11
8.926181288
 21
17.8233297092
  0
LINE
  8
___SYMBOL
 62
2
  6
CONTINUOUS
 10
8.926181288
 20
17.8233297092
 11
9.0762273507
 21
17.8233297092
  0
LINE
  8
___SYMBOL
 62
2
  6
CONTINUOUS
 10
9.0762273507
 20
17.8233297092
 11
9.0762273507
 21
17.378642817
  0
LINE
  8
___SYMBOL
 62
2
  6
CONTINUOUS
 10
9.0762273507
 20
17.378642817
 11
9.2389114207
 21
17.378642817
  0
LINE
  8
___SYMBOL
 62
2
  6
CONTINUOUS
 10
9.2389114207
 20
17.378642817
 11
9.2389114207
 21
17.2374160599
  0
SOLID
  8
___SYMBOL
 62
2
  6
CONTINUOUS
 10
9.2389114207
 20
17.378642817
 11
8.926181288
 21
17.2374160599
 12
9.0762273507
 22
17.378642817
 13
9.0762273507
 23
17.378642817
  0
SOLID
  8
___SYMBOL
 62
2
  6
CONTINUOUS
 10
9.0762273507
 20
17.378642817
 11
8.926181288
 21
17.2374160599
 12
9.0762273507
 22
17.8233297092
 13
9.0762273507
 23
17.8233297092
  0
SOLID
  8
___SYMBOL
 62
2
  6
CONTINUOUS
 10
8.926181288
 20
17.2374160599
 11
8.926181288
 21
17.8233297092
 12
9.0762273507
 22
17.8233297092
 13
9.0762273507
 23
17.8233297092
  0
SOLID
  8
___SYMBOL
 62
2
  6
CONTINUOUS
 10
8.926181288
 20
17.2374160599
 11
9.2389114207
 21
17.378642817
 12
9.0762273507
 22
17.2374160599
 13
9.0762273507
 23
17.2374160599
  0
SOLID
  8
___SYMBOL
 62
2
  6
CONTINUOUS
 10
9.2389114207
 20
17.378642817
 11
9.2389114207
 21
17.2374160599
 12
9.0762273507
 22
17.2374160599
 13
9.0762273507
 23
17.2374160599
  0
LINE
  8
___SYMBOL
 62
2
  6
CONTINUOUS
 10
9.5771633347
 20
17.458564348
 11
9.5771633347
 21
17.6029459496
  0
LINE
  8
___SYMBOL
 62
2
  6
CONTINUOUS
 10
9.4263058113
 20
17.6029459496
 11
9.5771633347
 21
17.6029459496
  0
LINE
  8
___SYMBOL
 62
2
  6
CONTINUOUS
 10
9.4263058113
 20
17.6805703125
 11
9.4263058113
 21
17.6029459496
  0
LINE
  8
___SYMBOL
 62
2
  6
CONTINUOUS
 10
9.4263058113
 20
17.6805703125
 11
9.5771633347
 21
17.6805703125
  0
LINE
  8
___SYMBOL
 62
2
  6
CONTINUOUS
 10
9.5771633347
 20
17.6805703125
 11
9.5771633347
 21
17.8233297092
  0
LINE
  8
___SYMBOL
 62
2
  6
CONTINUOUS
 10
9.4405101346
 20
17.8233297092
 11
9.5771633347
 21
17.8233297092
  0
LINE
  8
___SYMBOL
 62
2
  6
CONTINUOUS
 10
9.2680591593
 20
17.8233297092
 11
9.4405101346
 21
17.8233297092
  0
LINE
  8
___SYMBOL
 62
2
  6
CONTINUOUS
 10
9.2680591593
 20
17.2374160599
 11
9.2680591593
 21
17.8233297092
  0
LINE
  8
___SYMBOL
 62
2
  6
CONTINUOUS
 10
9.2680591593
 20
17.2374160599
 11
9.5771633347
 21
17.2374160599
  0
LINE
  8
___SYMBOL
 62
2
  6
CONTINUOUS
 10
9.5771633347
 20
17.2374160599
 11
9.5771633347
 21
17.378642817
  0
LINE
  8
___SYMBOL
 62
2
  6
CONTINUOUS
 10
9.4263058113
 20
17.378642817
 11
9.5771633347
 21
17.378642817
  0
LINE
  8
___SYMBOL
 62
2
  6
CONTINUOUS
 10
9.4263058113
 20
17.458564348
 11
9.4263058113
 21
17.378642817
  0
LINE
  8
___SYMBOL
 62
2
  6
CONTINUOUS
 10
9.4263058113
 20
17.458564348
 11
9.5771633347
 21
17.458564348
  0
SOLID
  8
___SYMBOL
 62
2
  6
CONTINUOUS
 10
9.5771633347
 20
17.8233297092
 11
9.5771633347
 21
17.6805703125
 12
9.4263058113
 22
17.6805703125
 13
9.4263058113
 23
17.6805703125
  0
SOLID
  8
___SYMBOL
 62
2
  6
CONTINUOUS
 10
9.5771633347
 20
17.6029459496
 11
9.5771633347
 21
17.458564348
 12
9.4263058113
 22
17.458564348
 13
9.4263058113
 23
17.458564348
  0
SOLID
  8
___SYMBOL
 62
2
  6
CONTINUOUS
 10
9.5771633347
 20
17.378642817
 11
9.2680591593
 21
17.2374160599
 12
9.4263058113
 22
17.378642817
 13
9.4263058113
 23
17.378642817
  0
SOLID
  8
___SYMBOL
 62
2
  6
CONTINUOUS
 10
9.4263058113
 20
17.378642817
 11
9.2680591593
 21
17.2374160599
 12
9.4263058113
 22
17.458564348
 13
9.4263058113
 23
17.458564348
  0
SOLID
  8
___SYMBOL
 62
2
  6
CONTINUOUS
 10
9.5771633347
 20
17.6029459496
 11
9.4263058113
 21
17.458564348
 12
9.4263058113
 22
17.6029459496
 13
9.4263058113
 23
17.6029459496
  0
SOLID
  8
___SYMBOL
 62
2
  6
CONTINUOUS
 10
9.4263058113
 20
17.458564348
 11
9.2680591593
 21
17.2374160599
 12
9.4263058113
 22
17.6029459496
 13
9.4263058113
 23
17.6029459496
  0
SOLID
  8
___SYMBOL
 62
2
  6
CONTINUOUS
 10
9.4263058113
 20
17.6029459496
 11
9.2680591593
 21
17.2374160599
 12
9.4263058113
 22
17.6805703125
 13
9.4263058113
 23
17.6805703125
  0
SOLID
  8
___SYMBOL
 62
2
  6
CONTINUOUS
 10
9.5771633347
 20
17.8233297092
 11
9.4263058113
 21
17.6805703125
 12
9.4405101346
 22
17.8233297092
 13
9.4405101346
 23
17.8233297092
  0
SOLID
  8
___SYMBOL
 62
2
  6
CONTINUOUS
 10
9.4263058113
 20
17.6805703125
 11
9.2680591593
 21
17.2374160599
 12
9.4405101346
 22
17.8233297092
 13
9.4405101346
 23
17.8233297092
  0
SOLID
  8
___SYMBOL
 62
2
  6
CONTINUOUS
 10
9.2680591593
 20
17.2374160599
 11
9.2680591593
 21
17.8233297092
 12
9.4405101346
 22
17.8233297092
 13
9.4405101346
 23
17.8233297092
  0
SOLID
  8
___SYMBOL
 62
2
  6
CONTINUOUS
 10
9.5771633347
 20
17.378642817
 11
9.5771633347
 21
17.2374160599
 12
9.2680591593
 22
17.2374160599
 13
9.2680591593
 23
17.2374160599
  0
LINE
  8
___SYMBOL
 62
2
  6
CONTINUOUS
 10
10.0874137407
 20
17.2374160599
 11
9.9279704977
 21
17.4889986012
  0
ARC
  8
___SYMBOL
 62
2
  6
CONTINUOUS
 10
9.85553125
 20
17.6483201985
 40
0.1750166163
 50
294.4500166359
 51
90.0
  0
LINE
  8
___SYMBOL
 62
2
  6
CONTINUOUS
 10
9.6219835494
 20
17.8233297092
 11
9.85553125
 21
17.8233297092
  0
LINE
  8
___SYMBOL
 62
2
  6
CONTINUOUS
 10
9.6219835494
 20
17.2374160599
 11
9.6219835494
 21
17.8233297092
  0
LINE
  8
___SYMBOL
 62
2
  6
CONTINUOUS
 10
9.6219835494
 20
17.2374160599
 11
9.772639372
 21
17.2374160599
  0
LINE
  8
___SYMBOL
 62
2
  6
CONTINUOUS
 10
9.772639372
 20
17.4343724307
 11
9.772639372
 21
17.2374160599
  0
LINE
  8
___SYMBOL
 62
2
  6
CONTINUOUS
 10
9.8974628011
 20
17.2374160599
 11
9.772639372
 21
17.4343724307
  0
LINE
  8
___SYMBOL
 62
2
  6
CONTINUOUS
 10
9.8974628011
 20
17.2374160599
 11
10.0874137407
 21
17.2374160599
  0
LINE
  8
___SYMBOL
 62
2
  6
CONTINUOUS
 10
9.772639372
 20
17.5736477414
 11
9.8249791221
 21
17.5736477414
  0
ARC
  8
___SYMBOL
 62
2
  6
CONTINUOUS
 10
9.8285691515
 20
17.6271391409
 40
0.053611735
 50
266.1604009902
 51
89.9998910512
  0
LINE
  8
___SYMBOL
 62
2
  6
CONTINUOUS
 10
9.8285692534
 20
17.6807508759
 11
9.772639372
 21
17.6807508759
  0
LINE
  8
___SYMBOL
 62
2
  6
CONTINUOUS
 10
9.772639372
 20
17.6807508759
 11
9.772639372
 21
17.5736477414
  0
SOLID
  8
___SYMBOL
 62
2
  6
CONTINUOUS
 10
9.85553125
 20
17.8233368149
 11
9.9024642736
 21
17.8169265664
 12
9.6219835494
 22
17.8233297092
 13
9.6219835494
 23
17.8233297092
  0
SOLID
  8
___SYMBOL
 62
2
  6
CONTINUOUS
 10
9.772639372
 20
17.6807508759
 11
10.026579113
 21
17.6853802114
 12
9.8285692534
 22
17.6807508759
 13
9.8285692534
 23
17.6807508759
  0
SOLID
  8
___SYMBOL
 62
2
  6
CONTINUOUS
 10
9.8285692534
 20
17.6807508759
 11
10.026579113
 21
17.6853802114
 12
9.852291835
 22
17.6752167076
 13
9.852291835
 23
17.6752167076
  0
SOLID
  8
___SYMBOL
 62
2
  6
CONTINUOUS
 10
9.852291835
 20
17.6752167076
 11
10.026579113
 21
17.6853802114
 12
9.8711168227
 22
17.6597568325
 13
9.8711168227
 23
17.6597568325
  0
SOLID
  8
___SYMBOL
 62
2
  6
CONTINUOUS
 10
10.026579113
 20
17.6853802114
 11
10.0302523595
 21
17.6381540826
 12
9.8711168227
 22
17.6597568325
 13
9.8711168227
 23
17.6597568325
  0
SOLID
  8
___SYMBOL
 62
2
  6
CONTINUOUS
 10
9.8811577612
 20
17.6375629719
 11
9.8711168227
 21
17.6597568325
 12
10.0302523595
 22
17.6381540826
 13
10.0302523595
 23
17.6381540826
  0
SOLID
  8
___SYMBOL
 62
2
  6
CONTINUOUS
 10
9.8811577612
 20
17.6375629719
 11
10.0302523595
 21
17.6381540826
 12
9.8803416795
 22
17.6132170912
 13
9.8803416795
 23
17.6132170912
  0
SOLID
  8
___SYMBOL
 62
2
  6
CONTINUOUS
 10
9.8803416795
 20
17.6132170912
 11
10.0302523595
 21
17.6381540826
 12
9.8688370592
 22
17.5917454446
 13
9.8688370592
 23
17.5917454446
  0
SOLID
  8
___SYMBOL
 62
2
  6
CONTINUOUS
 10
10.0302523595
 20
17.6381540826
 11
10.0211267558
 21
17.5916726525
 12
9.8688370592
 22
17.5917454446
 13
9.8688370592
 23
17.5917454446
  0
SOLID
  8
___SYMBOL
 62
2
  6
CONTINUOUS
 10
9.8490190514
 20
17.5775808951
 11
9.8688370592
 21
17.5917454446
 12
10.0211267558
 22
17.5916726525
 13
10.0211267558
 23
17.5916726525
  0
SOLID
  8
___SYMBOL
 62
2
  6
CONTINUOUS
 10
9.8490190514
 20
17.5775808951
 11
10.0211267558
 21
17.5916726525
 12
9.8249791221
 22
17.5736477414
 13
9.8249791221
 23
17.5736477414
  0
SOLID
  8
___SYMBOL
 62
2
  6
CONTINUOUS
 10
10.0211267558
 20
17.5916726525
 11
9.9998707801
 21
17.5493408267
 12
9.8249791221
 22
17.5736477414
 13
9.8249791221
 23
17.5736477414
  0
SOLID
  8
___SYMBOL
 62
2
  6
CONTINUOUS
 10
9.9279704977
 20
17.4889986012
 11
9.772639372
 21
17.4343724307
 12
9.968041497
 22
17.5142595394
 13
9.968041497
 23
17.5142595394
  0
SOLID
  8
___SYMBOL
 62
2
  6
CONTINUOUS
 10
9.968041497
 20
17.5142595394
 11
9.772639372
 21
17.4343724307
 12
9.9998707801
 22
17.5493408267
 13
9.9998707801
 23
17.5493408267
  0
SOLID
  8
___SYMBOL
 62
2
  6
CONTINUOUS
 10
9.9998707801
 20
17.5493408267
 11
9.772639372
 21
17.4343724307
 12
9.8249791221
 22
17.5736477414
 13
9.8249791221
 23
17.5736477414
  0
SOLID
  8
___SYMBOL
 62
2
  6
CONTINUOUS
 10
9.772639372
 20
17.4343724307
 11
9.6219835494
 21
17.2374160599
 12
9.8249791221
 22
17.5736477414
 13
9.8249791221
 23
17.5736477414
  0
SOLID
  8
___SYMBOL
 62
2
  6
CONTINUOUS
 10
9.8249791221
 20
17.5736477414
 11
9.6219835494
 21
17.2374160599
 12
9.772639372
 22
17.5736477414
 13
9.772639372
 23
17.5736477414
  0
SOLID
  8
___SYMBOL
 62
2
  6
CONTINUOUS
 10
9.772639372
 20
17.5736477414
 11
9.6219835494
 21
17.2374160599
 12
9.772639372
 22
17.6807508759
 13
9.772639372
 23
17.6807508759
  0
SOLID
  8
___SYMBOL
 62
2
  6
CONTINUOUS
 10
10.026579113
 20
17.6853802114
 11
9.772639372
 21
17.6807508759
 12
10.0103760929
 22
17.7298915821
 13
10.0103760929
 23
17.7298915821
  0
SOLID
  8
___SYMBOL
 62
2
  6
CONTINUOUS
 10
10.0103760929
 20
17.7298915821
 11
9.772639372
 21
17.6807508759
 12
9.9828302194
 22
17.7684276021
 13
9.9828302194
 23
17.7684276021
  0
SOLID
  8
___SYMBOL
 62
2
  6
CONTINUOUS
 10
9.9828302194
 20
17.7684276021
 11
9.772639372
 21
17.6807508759
 12
9.9459593111
 22
17.7981653912
 13
9.9459593111
 23
17.7981653912
  0
SOLID
  8
___SYMBOL
 62
2
  6
CONTINUOUS
 10
9.9459593111
 20
17.7981653912
 11
9.772639372
 21
17.6807508759
 12
9.9024642736
 22
17.8169265664
 13
9.9024642736
 23
17.8169265664
  0
SOLID
  8
___SYMBOL
 62
2
  6
CONTINUOUS
 10
9.9024642736
 20
17.8169265664
 11
9.772639372
 21
17.6807508759
 12
9.6219835494
 22
17.8233297092
 13
9.6219835494
 23
17.8233297092
  0
SOLID
  8
___SYMBOL
 62
2
  6
CONTINUOUS
 10
9.6219835494
 20
17.2374160599
 11
9.6219835494
 21
17.8233297092
 12
9.772639372
 22
17.6807508759
 13
9.772639372
 23
17.6807508759
  0
SOLID
  8
___SYMBOL
 62
2
  6
CONTINUOUS
 10
9.772639372
 20
17.4343724307
 11
9.772639372
 21
17.2374160599
 12
9.6219835494
 22
17.2374160599
 13
9.6219835494
 23
17.2374160599
  0
SOLID
  8
___SYMBOL
 62
2
  6
CONTINUOUS
 10
9.772639372
 20
17.4343724307
 11
9.9279704977
 21
17.4889986012
 12
9.8974628011
 22
17.2374160599
 13
9.8974628011
 23
17.2374160599
  0
SOLID
  8
___SYMBOL
 62
2
  6
CONTINUOUS
 10
9.9279704977
 20
17.4889986012
 11
10.0874137407
 21
17.2374160599
 12
9.8974628011
 22
17.2374160599
 13
9.8974628011
 23
17.2374160599
  0
CIRCLE
  8
___SYMBOL
 62
2
  6
CONTINUOUS
 10
10.2281837153
 20
17.2374160599
 40
0.0653578721
  0
LINE
  8
___SYMBOL
 62
2
  6
CONTINUOUS
 10
10.2238956921
 20
17.2368783105
 11
10.2557637048
 21
17.2045753691
  0
LINE
  8
___SYMBOL
 62
2
  6
CONTINUOUS
 10
10.2122977159
 20
17.2045753691
 11
10.2122977159
 21
17.270541568
  0
LINE
  8
___SYMBOL
 62
2
  6
CONTINUOUS
 10
10.2122977159
 20
17.270541568
 11
10.2365770488
 21
17.270541568
  0
ARC
  8
___SYMBOL
 62
2
  6
CONTINUOUS
 10
10.2365770488
 20
17.2537101183
 40
0.0168314496
 50
270.0
 51
90.0
  0
LINE
  8
___SYMBOL
 62
2
  6
CONTINUOUS
 10
10.2365770488
 20
17.2368783105
 11
10.2122977159
 21
17.2368783105
  0
ENDBLK
  8
0
  6
BYBLOCK
 62
0
  0
BLOCK
  8
___SYMBOL
 62
2
  6
CONTINUOUS
  2
COPYRIGHT_YEAR_BL1
 70
64
 10
25.2335358471
 20
1.1852289996
  0
TEXT
  8
___SYMBOL
 62
2
  6
CONTINUOUS
 10
24.8598442215
 20
1.1499553748
  7
STANDARD
 40
0.0705
  1
2014 KOHLER CO.
 41
0.8
 72
0
  0
TEXT
  8
___SYMBOL
 62
7
  6
CONTINUOUS
 10
24.7798184725
 20
1.166440375
  7
TEXTSTYLE_2
 40
0.0421874995
  1
C
 41
1.0
 72
0
  0
CIRCLE
  8
___SYMBOL
 62
7
  6
CONTINUOUS
 10
24.7940534723
 20
1.1876766248
 40
0.0328259996
  0
ENDBLK
  8
0
  6
BYBLOCK
 62
0
  0
BLOCK
  8
___SYMBOL
 62
2
  6
CONTINUOUS
  2
WHEN_PLOTTING_TEMPLATE_N_BL0
 70
64
 10
23.3229045998
 20
5.253399728
  0
TEXT
  8
___SYMBOL
 62
2
  6
CONTINUOUS
 10
20.0104045998
 20
6.464337228
  7
STANDARD
 40
0.15625
  1
WHEN PLOTTING TEMPLATE FULL SIZE:
 41
0.8
 72
0
  0
TEXT
  8
___SYMBOL
 62
2
  6
CONTINUOUS
 10
20.0104045998
 20
6.229962228
  7
STANDARD
 40
0.15625
  1
Make sure horizontal and vertical dimensions
 41
0.8
 72
0
  0
TEXT
  8
___SYMBOL
 62
2
  6
CONTINUOUS
 10
20.0104045998
 20
5.995587228
  7
STANDARD
 40
0.15625
  1
match the dimensions labeled on the template.
 41
0.8
 72
0
  0
TEXT
  8
___SYMBOL
 62
2
  6
CONTINUOUS
 10
20.0104045998
 20
5.761212228
  7
STANDARD
 40
0.15625
  1
 
 41
0.8
 72
0
  0
TEXT
  8
___SYMBOL
 62
2
  6
CONTINUOUS
 10
20.0104045998
 20
5.526837228
  7
STANDARD
 40
0.15625
  1
AL TRAZAR LA PLANTILLA A ESCALA,
 41
0.8
 72
0
  0
TEXT
  8
___SYMBOL
 62
2
  6
CONTINUOUS
 10
20.0104045998
 20
5.292462228
  7
STANDARD
 40
0.15625
  1
asegúrese de que las dimensiones horizontales
 41
0.8
 72
0
  0
TEXT
  8
___SYMBOL
 62
2
  6
CONTINUOUS
 10
20.0104045998
 20
5.058087228
  7
STANDARD
 40
0.15625
  1
y verticales concuerden con las dimensiones marcadas
 41
0.8
 72
0
  0
TEXT
  8
___SYMBOL
 62
2
  6
CONTINUOUS
 10
20.0104045998
 20
4.823712228
  7
STANDARD
 40
0.15625
  1
en la plantilla.
 41
0.8
 72
0
  0
TEXT
  8
___SYMBOL
 62
2
  6
CONTINUOUS
 10
20.0104045998
 20
4.589337228
  7
STANDARD
 40
0.15625
  1
 
 41
0.8
 72
0
  0
TEXT
  8
___SYMBOL
 62
2
  6
CONTINUOUS
 10
20.0104045998
 20
4.354962228
  7
STANDARD
 40
0.15625
  1
AU MOMENT DE TRACER LA DÉCOUPE À L'ÉCHELLE,
 41
0.8
 72
0
  0
TEXT
  8
___SYMBOL
 62
2
  6
CONTINUOUS
 10
20.0104045998
 20
4.120587228
  7
STANDARD
 40
0.15625
  1
Assurez vos que les dimensions horizotales et
 41
0.8
 72
0
  0
TEXT
  8
___SYMBOL
 62
2
  6
CONTINUOUS
 10
20.0104045998
 20
3.886212228
  7
STANDARD
 40
0.15625
  1
verticales correspondent avec les dimensions du plan.
 41
0.8
 72
0
  0
ENDBLK
  8
0
  6
BYBLOCK
 62
0
  0
BLOCK
  8
0
  2
_FILLED
 70
64
 10
0.0
 20
0.0
  0
SOLID
  8
0
  6
BYBLOCK
 62
0
 10
0.0
 20
0.0
 11
-1.0
 21
0.1666666667
 12
-1.0
 22
-0.1666666667
 13
-1.0
 23
-0.1666666667
  0
ENDBLK
  8
0
  6
BYBLOCK
 62
0
  0
BLOCK
  8
0
 62
2
  6
CONTINUOUS
  2
*D0
 70
65
 10
0.0
 20
0.0
  0
TEXT
  8
0
 62
2
  6
CONTINUOUS
 10
12.6606021216
 20
10.9060998233
  7
STANDARD
 40
0.15625
  1
16-3/8
 41
0.8
 72
1
 11
13.0356021216
 21
10.9060998233
  0
TEXT
  8
0
 62
2
  6
CONTINUOUS
 10
12.6606021216
 20
10.6717248233
  7
STANDARD
 40
0.15625
  1
[
 41
0.8
 72
1
 11
12.7231021216
 21
10.6717248233
  0
TEXT
  8
0
 62
2
  6
CONTINUOUS
 10
12.7856021216
 20
10.6717248233
  7
STANDARD
 40
0.15625
  1
42
 41
0.8
 72
1
 11
12.9106021216
 21
10.6717248233
  0
TEXT
  8
0
 62
2
  6
CONTINUOUS
 10
13.0356021216
 20
10.6717248233
  7
STANDARD
 40
0.15625
  1
]
 41
0.8
 72
1
 11
13.0981021216
 21
10.6717248233
  0
LINE
  8
0
 62
2
  6
CONTINUOUS
 10
12.9106021216
 20
2.8047481246
 11
15.0056012556
 21
2.8047481246
  0
LINE
  8
0
 62
2
  6
CONTINUOUS
 10
12.9106021216
 20
19.163701522
 11
14.9283455788
 21
19.163701522
  0
LINE
  8
0
 62
2
  6
CONTINUOUS
 10
13.0356021216
 20
2.8047481246
 11
13.0356021216
 21
10.5935998233
  0
LINE
  8
0
 62
2
  6
CONTINUOUS
 10
13.0356021216
 20
19.163701522
 11
13.0356021216
 21
11.1404748233
  0
INSERT
  8
0
 62
2
  6
CONTINUOUS
  2
_FILLED
 10
13.0356021216
 20
2.8047481246
 41
0.1875
 42
0.1875
 43
0.1875
 50
270.0
  0
INSERT
  8
0
 62
2
  6
CONTINUOUS
  2
_FILLED
 10
13.0356021216
 20
19.163701522
 41
0.1875
 42
0.1875
 43
0.1875
 50
90.0
  0
ENDBLK
  8
0
  6
BYBLOCK
 62
0
  0
BLOCK
  8
0
 62
2
  6
CONTINUOUS
  2
*D1
 70
65
 10
0.0
 20
0.0
  0
TEXT
  8
0
 62
2
  6
CONTINUOUS
 10
16.3299239916
 20
7.0159151835
  7
STANDARD
 40
0.15625
  1
22-9/16
 41
0.8
 72
1
 11
16.7674239916
 21
7.0159151835
  0
TEXT
  8
0
 62
2
  6
CONTINUOUS
 10
16.3299239916
 20
6.7815401835
  7
STANDARD
 40
0.15625
  1
[
 41
0.8
 72
1
 11
16.3924239916
 21
6.7815401835
  0
TEXT
  8
0
 62
2
  6
CONTINUOUS
 10
16.4549239916
 20
6.7815401835
  7
STANDARD
 40
0.15625
  1
57
 41
0.8
 72
1
 11
16.5799239916
 21
6.7815401835
  0
TEXT
  8
0
 62
2
  6
CONTINUOUS
 10
16.7049239916
 20
6.7815401835
  7
STANDARD
 40
0.15625
  1
]
 41
0.8
 72
1
 11
16.7674239916
 21
6.7815401835
  0
LINE
  8
0
 62
2
  6
CONTINUOUS
 10
5.4879472929
 20
6.7366231246
 11
5.4879472929
 21
7.2190401835
  0
LINE
  8
0
 62
2
  6
CONTINUOUS
 10
28.0469006903
 20
7.0322481246
 11
28.0469006903
 21
7.2190401835
  0
LINE
  8
0
 62
2
  6
CONTINUOUS
 10
5.4879472929
 20
7.0940401835
 11
16.2517989916
 21
7.0940401835
  0
LINE
  8
0
 62
2
  6
CONTINUOUS
 10
28.0469006903
 20
7.0940401835
 11
17.2830489916
 21
7.0940401835
  0
INSERT
  8
0
 62
2
  6
CONTINUOUS
  2
_FILLED
 10
5.4879472929
 20
7.0940401835
 41
0.1875
 42
0.1875
 43
0.1875
 50
180.0
  0
INSERT
  8
0
 62
2
  6
CONTINUOUS
  2
_FILLED
 10
28.0469006903
 20
7.0940401835
 41
0.1875
 42
0.1875
 43
0.1875
  0
ENDBLK
  8
0
  6
BYBLOCK
 62
0
  0
ENDSEC
  0
SECTION
  2
ENTITIES
  0
DIMENSION
  8
0
 62
2
  6
CONTINUOUS
  2
*D0
 10
13.0356021216
 20
19.163701522
 11
13.0356021216
 21
10.8670373233
 70
128
 13
15.0681012556
 23
2.8047481246
 14
14.9908455788
 24
19.163701522
 50
90.0
  0
DIMENSION
  8
0
 62
2
  6
CONTINUOUS
  2
*D1
 10
28.0469006903
 20
7.0940401835
 11
16.7674239916
 21
6.9768526835
 70
128
 13
5.4879472929
 23
6.6741231246
 14
28.0469006903
 24
7.2815401835
  0
TEXT
  8
___NOTE
 62
2
  6
CONTINUOUS
 10
22.7236419044
 20
11.5205192221
  7
STANDARD
 40
0.15625
  1
FOR UNDER-MOUNT INSTALLATION
 41
0.8
 72
2
 11
26.2236419044
 21
11.5205192221
  0
TEXT
  8
___NOTE
 62
2
  6
CONTINUOUS
 10
23.8486419044
 20
11.2861442221
  7
STANDARD
 40
0.15625
  1
CUT ALONG THIS LINE
 41
0.8
 72
2
 11
26.2236419044
 21
11.2861442221
  0
TEXT
  8
___NOTE
 62
2
  6
CONTINUOUS
 10
21.5986419044
 20
11.0517692221
  7
STANDARD
 40
0.15625
  1
PARA INSTALACIÓN DE MONTAJE POR ABAJO
 41
0.8
 72
2
 11
26.2236419044
 21
11.0517692221
  0
TEXT
  8
___NOTE
 62
2
  6
CONTINUOUS
 10
22.4736419044
 20
10.8173942221
  7
STANDARD
 40
0.15625
  1
CORTE A LO LARGO DE ESTA LÍNEA
 41
0.8
 72
2
 11
26.2236419044
 21
10.8173942221
  0
TEXT
  8
___NOTE
 62
2
  6
CONTINUOUS
 10
21.5986419044
 20
10.5830192221
  7
STANDARD
 40
0.15625
  1
POUR INSTALLATION À MONTAGE SOUS PLAN
 41
0.8
 72
2
 11
26.2236419044
 21
10.5830192221
  0
TEXT
  8
___NOTE
 62
2
  6
CONTINUOUS
 10
22.5986419044
 20
10.3486442221
  7
STANDARD
 40
0.15625
  1
COUPER LE LONG DE CETTE LIGNE
 41
0.8
 72
2
 11
26.2236419044
 21
10.3486442221
  0
TEXT
  8
___NOTE
 62
2
  6
CONTINUOUS
 10
26.0986419044
 20
10.1142692221
  7
STANDARD
 40
0.15625
  1
 
 41
0.8
 72
2
 11
26.2236419044
 21
10.1142692221
  0
LINE
  8
___NOTE
 62
2
  6
CONTINUOUS
 10
28.0469006903
 20
12.9323864811
 11
26.4736419044
 21
11.5986442221
  0
LINE
  8
___NOTE
 62
2
  6
CONTINUOUS
 10
26.4736419044
 20
11.5986442221
 11
26.2236419044
 21
11.5986442221
  0
SOLID
  8
___NOTE
 62
2
  6
CONTINUOUS
 10
27.9240869014
 20
12.7873017274
 11
28.0469006903
 21
12.9323864811
 12
27.8836709699
 22
12.8349756456
 13
27.8836709699
 23
12.8349756456
  0
TEXT
  8
___NOTE
 62
2
  6
CONTINUOUS
 10
7.0005540952
 20
3.4150577451
  7
STANDARD
 40
0.2
  1
1316451-7
 41
0.8
 72
0
  0
TEXT
  8
___NOTE
 62
2
  6
CONTINUOUS
 10
8.4405540952
 20
3.4150577451
  7
STANDARD
 40
0.2
  1
-
 41
0.8
 72
0
  0
TEXT
  8
___NOTE
 62
2
  6
CONTINUOUS
 10
8.6005540952
 20
3.4150577451
  7
STANDARD
 40
0.2
  1
A
 41
0.8
 72
0
  0
TEXT
  8
___NOTE
 62
2
  6
CONTINUOUS
 10
7.0005540952
 20
3.1150577451
  7
STANDARD
 40
0.2
  1
 
 41
0.8
 72
0
  0
TEXT
  8
___NOTE
 62
2
  6
CONTINUOUS
 10
7.0005540952
 20
2.8150577451
  7
STANDARD
 40
0.2
  1
 
 41
0.8
 72
0
  0
TEXT
  8
___NOTE
 62
2
  6
CONTINUOUS
 10
7.0005540952
 20
2.5150577451
  7
STANDARD
 40
0.2
  1
 
 41
0.8
 72
0
  0
TEXT
  8
___NOTE
 62
2
  6
CONTINUOUS
 10
7.0005540952
 20
2.2150577451
  7
STANDARD
 40
0.2
  1
 
 41
0.8
 72
0
  0
TEXT
  8
___NOTE
 62
2
  6
CONTINUOUS
 10
7.0005540952
 20
1.9150577451
  7
STANDARD
 40
0.2
  1
 
 41
0.8
 72
0
  0
TEXT
  8
___NOTE
 62
2
  6
CONTINUOUS
 10
7.0005540952
 20
1.6150577451
  7
STANDARD
 40
0.2
  1
 
 41
0.8
 72
0
  0
TEXT
  8
___NOTE
 62
2
  6
CONTINUOUS
 10
7.0005540952
 20
1.3150577451
  7
STANDARD
 40
0.2
  1
 
 41
0.8
 72
0
  0
TEXT
  8
___NOTE
 62
2
  6
CONTINUOUS
 10
7.0005540952
 20
1.0150577451
  7
STANDARD
 40
0.2
  1
1316451-7
 41
0.8
 72
0
  0
TEXT
  8
___NOTE
 62
2
  6
CONTINUOUS
 10
8.4405540952
 20
1.0150577451
  7
STANDARD
 40
0.2
  1
-
 41
0.8
 72
0
  0
TEXT
  8
___NOTE
 62
2
  6
CONTINUOUS
 10
8.6005540952
 20
1.0150577451
  7
STANDARD
 40
0.2
  1
A
 41
0.8
 72
0
  0
TEXT
  8
___NOTE
 62
2
  6
CONTINUOUS
 10
24.6064239402
 20
14.3983107935
  7
STANDARD
 40
0.15625
  1
RIM OF SINK
 41
0.8
 72
2
 11
25.9814239402
 21
14.3983107935
  0
TEXT
  8
___NOTE
 62
2
  6
CONTINUOUS
 10
23.4814239402
 20
14.1639357935
  7
STANDARD
 40
0.15625
  1
REBORDE DE FREGADERO
 41
0.8
 72
2
 11
25.9814239402
 21
14.1639357935
  0
TEXT
  8
___NOTE
 62
2
  6
CONTINUOUS
 10
24.2314239402
 20
13.9295607935
  7
STANDARD
 40
0.15625
  1
REBORD D'ÉVIER
 41
0.8
 72
2
 11
25.9814239402
 21
13.9295607935
  0
LINE
  8
___NOTE
 62
2
  6
CONTINUOUS
 10
29.0174239916
 20
16.3816544765
 11
26.2314239402
 21
14.4764357935
  0
LINE
  8
___NOTE
 62
2
  6
CONTINUOUS
 10
26.2314239402
 20
14.4764357935
 11
25.9814239402
 21
14.4764357935
  0
SOLID
  8
___NOTE
 62
2
  6
CONTINUOUS
 10
28.8802933217
 20
16.250018646
 11
29.0174239916
 21
16.3816544765
 12
28.8450130886
 22
16.3016089082
 13
28.8450130886
 23
16.3016089082
  0
INSERT
  8
___SYMBOL
 62
2
  6
CONTINUOUS
  2
WHEN_PLOTTING_TEMPLATE_N_BL0
 10
23.3229045998
 20
5.253399728
  0
INSERT
  8
___SYMBOL
 62
2
  6
CONTINUOUS
  2
COPYRIGHT_YEAR_BL1
 10
25.2335358471
 20
1.1852289996
  0
INSERT
  8
___SYMBOL
 62
2
  6
CONTINUOUS
  2
CUT-OUT_TEMPLATE_SKU_SIN_BL2
 10
9.7452154389
 20
15.9868623475
  0
INSERT
  8
___SYMBOL
 62
2
  6
CONTINUOUS
  2
SCISSORS_BL3
 10
28.0450114735
 20
12.1797864769
  0
LINE
  8
0
 62
7
  6
CONTINUOUS
 10
0.0
 20
0.0
 11
0.0
 21
22.0
  0
LINE
  8
0
 62
7
  6
CONTINUOUS
 10
0.0
 20
0.0
 11
34.0
 21
0.0
  0
LINE
  8
0
 62
7
  6
CONTINUOUS
 10
0.0
 20
22.0
 11
34.0
 21
22.0
  0
LINE
  8
0
 62
7
  6
CONTINUOUS
 10
34.0
 20
0.0
 11
34.0
 21
22.0
  0
LINE
  8
_CURVE
 62
8
  6
PHANTOM
 10
4.5174239916
 20
17.5807548233
 11
4.5174239916
 21
4.3876948233
  0
LINE
  8
_CURVE
 62
7
  6
CONTINUOUS
 10
5.4879472929
 20
4.3847481246
 11
5.4879472929
 21
17.583701522
  0
LINE
  8
_CURVE
 62
8
  6
PHANTOM
 10
7.0708939916
 20
1.8342248233
 11
26.4639539916
 21
1.8342248233
  0
LINE
  8
_CURVE
 62
7
  6
CONTINUOUS
 10
26.4669006903
 20
2.8047481246
 11
7.0679472929
 21
2.8047481246
  0
LINE
  8
_CURVE
 62
8
  6
CENTER
 10
16.7674239916
 20
21.6342248233
 11
16.7674239916
 21
18.6342248233
  0
LINE
  8
_CURVE
 62
8
  6
CENTER
 10
16.7674239916
 20
0.3342248233
 11
16.7674239916
 21
3.3342248233
  0
LINE
  8
_CURVE
 62
8
  6
CENTER
 10
30.5174239916
 20
10.9842248233
 11
27.5174239916
 21
10.9842248233
  0
LINE
  8
_CURVE
 62
8
  6
CENTER
 10
3.0174239916
 20
10.9842248233
 11
6.0174239916
 21
10.9842248233
  0
LINE
  8
_CURVE
 62
7
  6
CONTINUOUS
 10
7.0679472929
 20
19.163701522
 11
26.4669006903
 21
19.163701522
  0
LINE
  8
_CURVE
 62
8
  6
PHANTOM
 10
26.4639539916
 20
20.1342248233
 11
7.0708939916
 21
20.1342248233
  0
LINE
  8
_CURVE
 62
7
  6
CONTINUOUS
 10
28.0469006903
 20
17.583701522
 11
28.0469006903
 21
4.3847481246
  0
LINE
  8
_CURVE
 62
8
  6
PHANTOM
 10
29.0174239916
 20
4.3876948233
 11
29.0174239916
 21
17.5807548233
  0
ARC
  8
_CURVE
 62
8
  6
PHANTOM
 10
26.4639539916
 20
4.3876948233
 40
2.55347
 50
270.0
 51
360.0
  0
ARC
  8
_CURVE
 62
8
  6
PHANTOM
 10
26.4639539916
 20
17.5807548233
 40
2.55347
 50
0.0
 51
90.0
  0
ARC
  8
_CURVE
 62
8
  6
PHANTOM
 10
7.0708939916
 20
17.5807548233
 40
2.55347
 50
90.0
 51
180.0
  0
ARC
  8
_CURVE
 62
8
  6
PHANTOM
 10
7.0708939916
 20
4.3876948233
 40
2.55347
 50
180.0
 51
270.0
  0
ARC
  8
_CURVE
 62
7
  6
CONTINUOUS
 10
7.0679472929
 20
17.583701522
 40
1.58
 50
90.0
 51
180.0
  0
ARC
  8
_CURVE
 62
7
  6
CONTINUOUS
 10
7.0679472929
 20
4.3847481246
 40
1.58
 50
180.0
 51
270.0
  0
ARC
  8
_CURVE
 62
7
  6
CONTINUOUS
 10
26.4669006903
 20
4.3847481246
 40
1.58
 50
270.0
 51
360.0
  0
ARC
  8
_CURVE
 62
7
  6
CONTINUOUS
 10
26.4669006903
 20
17.583701522
 40
1.58
 50
0.0
 51
90.0
  0
ENDSEC
  0
EOF
