999
DXF file: 1151011_7_b.dxf
999
Pro/ENGINEER 2009220 by Parametric Technology Corporation
  0
SECTION
  2
HEADER
  9
$EXTMAX
 10
34.0
 20
22.0
 30
0.0
  9
$EXTMIN
 10
0.0
 20
0.0
 30
0.0
  9
$LIMMIN
 10
0.0
 20
0.0
  9
$LIMMAX
 10
34.0
 20
22.0
  9
$VIEWCTR
 10
17.0
 20
11.0
  9
$VIEWSIZE
 40
22.0
  9
$CLAYER
  8
0
  9
$LTSCALE
 40
1.87
  9
$CELTYPE
  6
BYLAYER
  9
$DIMSCALE
 40
1.0
  9
$DIMASZ
 40
0.1875
  9
$DIMEXO
 40
0.2125
  9
$DIMDLI
 40
1.292
  9
$DIMEXE
 40
0.612
  9
$DIMCEN
 40
0.306
  9
$DIMLFAC
 40
1.0
  9
$DIMBLK
  1
_FILLED
  9
$DIMTXT
 40
0.15625
  9
$PDMODE
 70
0
  9
$PDSIZE
 40
0.3125
  9
$TILEMODE
 70
1
  0
ENDSEC
  0
SECTION
  2
TABLES
  0
TABLE
  2
LTYPE
 70
6
  0
LTYPE
  2
BYBLOCK
 70
0
  3

 72
65
 73
0
 40
0.0
  0
LTYPE
  2
BYLAYER
 70
0
  3

 72
65
 73
0
 40
0.0
  0
LTYPE
  2
CONTINUOUS
 70
64
  3
Solid line
 72
65
 73
0
 40
0.0
  0
LTYPE
  2
CENTER
 70
64
  3
____ _ ____ _ ____ _ ____ _ ____ _ ____ _ ____
 72
65
 73
4
 40
0.6
 49
0.375
 49
-0.075
 49
0.075
 49
-0.075
  0
LTYPE
  2
HIDDEN
 70
64
  3
- - - - - - - - - - - - - - - - - - - -
 72
65
 73
2
 40
0.2
 49
0.1
 49
-0.1
  0
LTYPE
  2
PHANTOM
 70
64
  3
_____ _ _ _____ _ _ _____ _ _ _____
 72
65
 73
6
 40
0.8
 49
0.45
 49
-0.05
 49
0.1
 49
-0.05
 49
0.1
 49
-0.05
  0
LTYPE
  2
DOT
 70
64
  3
. . . . . . . . . . . . . . . . . . . .
 72
65
 73
2
 40
0.2
 49
0.1
 49
-0.1
  0
LTYPE
  2
DASHED
 70
64
  3
- - - - - - - - - - - - - - - - - - - -
 72
65
 73
2
 40
0.2
 49
0.1
 49
-0.1
  0
ENDTAB
  0
TABLE
  2
LAYER
 70
36
  0
LAYER
  2
0
 70
0
 62
7
  6
CONTINUOUS
  0
LAYER
  2
DEFAULT_1
 70
0
 62
7
  6
CENTER
  0
LAYER
  2
DEFAULT_2
 70
0
 62
8
  6
HIDDEN
  0
LAYER
  2
DEFAULT_3
 70
0
 62
7
  6
PHANTOM
  0
LAYER
  2
259
 70
0
 62
7
  6
CONTINUOUS
  0
LAYER
  2
781
 70
0
 62
7
  6
CONTINUOUS
  0
LAYER
  2
DATUMS
 70
0
 62
7
  6
CONTINUOUS
  0
LAYER
  2
DATUM_AXIS
 70
0
 62
7
  6
CONTINUOUS
  0
LAYER
  2
DATUM_CSYS
 70
0
 62
7
  6
CONTINUOUS
  0
LAYER
  2
DATUM_PLANE
 70
0
 62
7
  6
CONTINUOUS
  0
LAYER
  2
DATUM_POINT
 70
0
 62
7
  6
CONTINUOUS
  0
LAYER
  2
DEFPOINTS_
 70
0
 62
7
  6
CONTINUOUS
  0
LAYER
  2
DRAFT_ENT
 70
0
 62
7
  6
CONTINUOUS
  0
LAYER
  2
IGES_FRZ
 70
0
 62
7
  6
CONTINUOUS
  0
LAYER
  2
IMPORT
 70
0
 62
7
  6
CONTINUOUS
  0
LAYER
  2
INTFCLR_3
 70
0
 62
7
  6
CONTINUOUS
  0
LAYER
  2
LAYER_1
 70
0
 62
7
  6
CONTINUOUS
  0
LAYER
  2
NOTE
 70
0
 62
7
  6
CONTINUOUS
  0
LAYER
  2
SYMBOL
 70
0
 62
7
  6
CONTINUOUS
  0
LAYER
  2
_CURVE
 70
0
 62
7
  6
CONTINUOUS
  0
LAYER
  2
_SURFACE
 70
0
 62
7
  6
CONTINUOUS
  0
LAYER
  2
__REF_CURVE
 70
0
 62
7
  6
CONTINUOUS
  0
LAYER
  2
__REF_SURFACE
 70
0
 62
7
  6
CONTINUOUS
  0
LAYER
  2
___NOTE
 70
0
 62
7
  6
CONTINUOUS
  0
LAYER
  2
___SYMBOL
 70
0
 62
7
  6
CONTINUOUS
  0
ENDTAB
  0
TABLE
  2
STYLE
 70
1
  0
STYLE
  2
STANDARD
 70
0
 40
0.0
 41
0.8
 50
0.0
 71
0
 42
0.2
  3
txt
  4

  0
STYLE
  2
TEXTSTYLE_1
 70
0
 40
0.0
 41
0.8
 50
0.0
 71
0
 42
0.2
  3
gdt
  4

  0
ENDTAB
  0
ENDSEC
  0
SECTION
  2
BLOCKS
  0
BLOCK
  8
___SYMBOL
 62
2
  6
CONTINUOUS
  2
SCISSORS_BL0
 70
64
 10
19.8539704164
 20
6.3447655814
  0
LINE
  8
___SYMBOL
 62
7
  6
CONTINUOUS
 10
19.7805417212
 20
6.2006201819
 11
19.5648442758
 21
5.7058726121
  0
LINE
  8
___SYMBOL
 62
7
  6
CONTINUOUS
 10
19.8345737363
 20
6.1971962659
 11
19.5648442758
 21
5.7058726121
  0
LINE
  8
___SYMBOL
 62
7
  6
CONTINUOUS
 10
19.8116418588
 20
6.2904483168
 11
19.7849999168
 21
6.2497883883
  0
LINE
  8
___SYMBOL
 62
7
  6
CONTINUOUS
 10
19.7718091234
 20
6.2582315495
 11
19.7986343894
 21
6.2991712603
  0
LINE
  8
___SYMBOL
 62
7
  6
CONTINUOUS
 10
19.6792383823
 20
6.1161686351
 11
19.3072468502
 21
5.8975996222
  0
LINE
  8
___SYMBOL
 62
7
  6
CONTINUOUS
 10
19.910084609
 20
6.255771582
 11
19.850969931
 21
6.2255332265
  0
LINE
  8
___SYMBOL
 62
7
  6
CONTINUOUS
 10
19.7310568262
 20
6.3020252507
 11
19.4253276363
 21
6.0662364614
  0
LINE
  8
___SYMBOL
 62
7
  6
CONTINUOUS
 10
19.7083926657
 20
6.2207359672
 11
19.7805417212
 21
6.2006201819
  0
LINE
  8
___SYMBOL
 62
7
  6
CONTINUOUS
 10
19.7500502603
 20
6.3701487817
 11
19.8706584192
 21
6.4469681567
  0
LINE
  8
___SYMBOL
 62
7
  6
CONTINUOUS
 10
19.9423346265
 20
6.3915176474
 11
19.8827381562
 21
6.3798278935
  0
LINE
  8
___SYMBOL
 62
7
  6
CONTINUOUS
 10
19.5648442758
 20
5.7058726121
 11
19.7500502603
 21
6.3701487817
  0
LINE
  8
___SYMBOL
 62
7
  6
CONTINUOUS
 10
19.9423346265
 20
6.3915176474
 11
19.910084609
 21
6.255771582
  0
ARC
  8
___SYMBOL
 62
7
  6
CONTINUOUS
 10
19.6360178946
 20
5.7930506065
 40
0.3449940525
 50
127.6406360869
 51
162.3593639131
  0
ARC
  8
___SYMBOL
 62
7
  6
CONTINUOUS
 10
19.5844715592
 20
6.3608211978
 40
0.2988715733
 50
326.8059909349
 51
16.752660067
  0
CIRCLE
  8
___SYMBOL
 62
7
  6
CONTINUOUS
 10
19.7915534629
 20
6.2745526284
 40
0.0256167242
  0
ARC
  8
___SYMBOL
 62
7
  6
CONTINUOUS
 10
19.8707911781
 20
6.6533366601
 40
0.0139580219
 50
330.3133793157
 51
99.0675041521
  0
ARC
  8
___SYMBOL
 62
7
  6
CONTINUOUS
 10
20.1368382913
 20
6.4758203697
 40
0.0139579068
 50
18.3109272841
 51
144.4467240969
  0
POLYLINE
  8
___SYMBOL
 62
7
  6
CONTINUOUS
 66
1
 70
0
  0
VERTEX
  8
___SYMBOL
 62
7
  6
CONTINUOUS
 10
20.0289756549
 20
6.8163742773
  0
VERTEX
  8
___SYMBOL
 62
7
  6
CONTINUOUS
 10
20.0259725565
 20
6.8065228642
  0
VERTEX
  8
___SYMBOL
 62
7
  6
CONTINUOUS
 10
20.0227045211
 20
6.796762389
  0
VERTEX
  8
___SYMBOL
 62
7
  6
CONTINUOUS
 10
20.0191841894
 20
6.7870905557
  0
VERTEX
  8
___SYMBOL
 62
7
  6
CONTINUOUS
 10
20.0154242023
 20
6.7775050683
  0
VERTEX
  8
___SYMBOL
 62
7
  6
CONTINUOUS
 10
20.0114372003
 20
6.7680036308
  0
VERTEX
  8
___SYMBOL
 62
7
  6
CONTINUOUS
 10
20.0072358243
 20
6.7585839471
  0
VERTEX
  8
___SYMBOL
 62
7
  6
CONTINUOUS
 10
20.0028327148
 20
6.7492437214
  0
VERTEX
  8
___SYMBOL
 62
7
  6
CONTINUOUS
 10
19.9982405128
 20
6.7399806575
  0
VERTEX
  8
___SYMBOL
 62
7
  6
CONTINUOUS
 10
19.9934718587
 20
6.7307924594
  0
VERTEX
  8
___SYMBOL
 62
7
  6
CONTINUOUS
 10
19.9885393935
 20
6.7216768312
  0
VERTEX
  8
___SYMBOL
 62
7
  6
CONTINUOUS
 10
19.9834557577
 20
6.7126314768
  0
VERTEX
  8
___SYMBOL
 62
7
  6
CONTINUOUS
 10
19.9782335921
 20
6.7036541002
  0
VERTEX
  8
___SYMBOL
 62
7
  6
CONTINUOUS
 10
19.9728855374
 20
6.6947424054
  0
VERTEX
  8
___SYMBOL
 62
7
  6
CONTINUOUS
 10
19.9674242343
 20
6.6858940964
  0
VERTEX
  8
___SYMBOL
 62
7
  6
CONTINUOUS
 10
19.9618623236
 20
6.6771068772
  0
VERTEX
  8
___SYMBOL
 62
7
  6
CONTINUOUS
 10
19.9562124459
 20
6.6683784517
  0
VERTEX
  8
___SYMBOL
 62
7
  6
CONTINUOUS
 10
19.9504872419
 20
6.659706524
  0
VERTEX
  8
___SYMBOL
 62
7
  6
CONTINUOUS
 10
19.9446993525
 20
6.6510887981
  0
VERTEX
  8
___SYMBOL
 62
7
  6
CONTINUOUS
 10
19.9388614182
 20
6.6425229778
  0
VERTEX
  8
___SYMBOL
 62
7
  6
CONTINUOUS
 10
19.9329860798
 20
6.6340067673
  0
VERTEX
  8
___SYMBOL
 62
7
  6
CONTINUOUS
 10
19.9242864746
 20
6.6215321203
  0
VERTEX
  8
___SYMBOL
 62
7
  6
CONTINUOUS
 10
19.9155809501
 20
6.6091008708
  0
VERTEX
  8
___SYMBOL
 62
7
  6
CONTINUOUS
 10
19.9069173785
 20
6.5966536407
  0
VERTEX
  8
___SYMBOL
 62
7
  6
CONTINUOUS
 10
19.8983436321
 20
6.5841310518
  0
VERTEX
  8
___SYMBOL
 62
7
  6
CONTINUOUS
 10
19.8899075831
 20
6.571473726
  0
VERTEX
  8
___SYMBOL
 62
7
  6
CONTINUOUS
 10
19.8860914117
 20
6.565593642
  0
VERTEX
  8
___SYMBOL
 62
7
  6
CONTINUOUS
 10
19.8823341549
 20
6.5596669013
  0
VERTEX
  8
___SYMBOL
 62
7
  6
CONTINUOUS
 10
19.878655512
 20
6.5536878685
  0
VERTEX
  8
___SYMBOL
 62
7
  6
CONTINUOUS
 10
19.8750751823
 20
6.547650908
  0
VERTEX
  8
___SYMBOL
 62
7
  6
CONTINUOUS
 10
19.8716128652
 20
6.5415503842
  0
VERTEX
  8
___SYMBOL
 62
7
  6
CONTINUOUS
 10
19.86828826
 20
6.5353806617
  0
VERTEX
  8
___SYMBOL
 62
7
  6
CONTINUOUS
 10
19.865121066
 20
6.5291361048
  0
VERTEX
  8
___SYMBOL
 62
7
  6
CONTINUOUS
 10
19.8621309825
 20
6.5228110781
  0
VERTEX
  8
___SYMBOL
 62
7
  6
CONTINUOUS
 10
19.8593377089
 20
6.516399946
  0
VERTEX
  8
___SYMBOL
 62
7
  6
CONTINUOUS
 10
19.8567609446
 20
6.5098970729
  0
VERTEX
  8
___SYMBOL
 62
7
  6
CONTINUOUS
 10
19.8544203888
 20
6.5032968234
  0
VERTEX
  8
___SYMBOL
 62
7
  6
CONTINUOUS
 10
19.8523357408
 20
6.4965935619
  0
VERTEX
  8
___SYMBOL
 62
7
  6
CONTINUOUS
 10
19.851523666
 20
6.4936563901
  0
VERTEX
  8
___SYMBOL
 62
7
  6
CONTINUOUS
 10
19.8508043079
 20
6.4906982454
  0
VERTEX
  8
___SYMBOL
 62
7
  6
CONTINUOUS
 10
19.8502186657
 20
6.4877185423
  0
VERTEX
  8
___SYMBOL
 62
7
  6
CONTINUOUS
 10
19.8498077385
 20
6.4847166957
  0
VERTEX
  8
___SYMBOL
 62
7
  6
CONTINUOUS
 10
19.8496125255
 20
6.4816921203
  0
VERTEX
  8
___SYMBOL
 62
7
  6
CONTINUOUS
 10
19.8496740258
 20
6.4786442307
  0
VERTEX
  8
___SYMBOL
 62
7
  6
CONTINUOUS
 10
19.8499047111
 20
6.4763781724
  0
VERTEX
  8
___SYMBOL
 62
7
  6
CONTINUOUS
 10
19.850291813
 20
6.4741096269
  0
VERTEX
  8
___SYMBOL
 62
7
  6
CONTINUOUS
 10
19.8508291405
 20
6.4718491607
  0
VERTEX
  8
___SYMBOL
 62
7
  6
CONTINUOUS
 10
19.8515105024
 20
6.4696073401
  0
VERTEX
  8
___SYMBOL
 62
7
  6
CONTINUOUS
 10
19.8523297078
 20
6.4673947316
  0
VERTEX
  8
___SYMBOL
 62
7
  6
CONTINUOUS
 10
19.8532805656
 20
6.4652219016
  0
VERTEX
  8
___SYMBOL
 62
7
  6
CONTINUOUS
 10
19.8543568847
 20
6.4630994167
  0
VERTEX
  8
___SYMBOL
 62
7
  6
CONTINUOUS
 10
19.8555524742
 20
6.4610378431
  0
VERTEX
  8
___SYMBOL
 62
7
  6
CONTINUOUS
 10
19.8568611428
 20
6.4590477474
  0
VERTEX
  8
___SYMBOL
 62
7
  6
CONTINUOUS
 10
19.8582766997
 20
6.4571396959
  0
VERTEX
  8
___SYMBOL
 62
7
  6
CONTINUOUS
 10
19.8597929537
 20
6.4553242552
  0
VERTEX
  8
___SYMBOL
 62
7
  6
CONTINUOUS
 10
19.8614037139
 20
6.4536119917
  0
VERTEX
  8
___SYMBOL
 62
7
  6
CONTINUOUS
 10
19.863102789
 20
6.4520134718
  0
VERTEX
  8
___SYMBOL
 62
7
  6
CONTINUOUS
 10
19.8648839882
 20
6.4505392619
  0
VERTEX
  8
___SYMBOL
 62
7
  6
CONTINUOUS
 10
19.8667411203
 20
6.4491999284
  0
VERTEX
  8
___SYMBOL
 62
7
  6
CONTINUOUS
 10
19.8686679943
 20
6.4480060379
  0
VERTEX
  8
___SYMBOL
 62
7
  6
CONTINUOUS
 10
19.8706584192
 20
6.4469681567
  0
SEQEND
  0
POLYLINE
  8
___SYMBOL
 62
7
  6
CONTINUOUS
 66
1
 70
0
  0
VERTEX
  8
___SYMBOL
 62
7
  6
CONTINUOUS
 10
19.8829171704
 20
6.6464238685
  0
VERTEX
  8
___SYMBOL
 62
7
  6
CONTINUOUS
 10
19.8792055674
 20
6.6400855624
  0
VERTEX
  8
___SYMBOL
 62
7
  6
CONTINUOUS
 10
19.8753588096
 20
6.633834295
  0
VERTEX
  8
___SYMBOL
 62
7
  6
CONTINUOUS
 10
19.8708466984
 20
6.6268395557
  0
VERTEX
  8
___SYMBOL
 62
7
  6
CONTINUOUS
 10
19.8662011984
 20
6.6199511878
  0
VERTEX
  8
___SYMBOL
 62
7
  6
CONTINUOUS
 10
19.8614333777
 20
6.6131498937
  0
VERTEX
  8
___SYMBOL
 62
7
  6
CONTINUOUS
 10
19.8565543046
 20
6.6064163757
  0
VERTEX
  8
___SYMBOL
 62
7
  6
CONTINUOUS
 10
19.8515750473
 20
6.5997313364
  0
VERTEX
  8
___SYMBOL
 62
7
  6
CONTINUOUS
 10
19.8465066739
 20
6.5930754781
  0
VERTEX
  8
___SYMBOL
 62
7
  6
CONTINUOUS
 10
19.8413602528
 20
6.5864295033
  0
VERTEX
  8
___SYMBOL
 62
7
  6
CONTINUOUS
 10
19.836146852
 20
6.5797741142
  0
VERTEX
  8
___SYMBOL
 62
7
  6
CONTINUOUS
 10
19.832831783
 20
6.575564233
  0
VERTEX
  8
___SYMBOL
 62
7
  6
CONTINUOUS
 10
19.8295076588
 20
6.5713397481
  0
VERTEX
  8
___SYMBOL
 62
7
  6
CONTINUOUS
 10
19.8261876546
 20
6.5670974716
  0
VERTEX
  8
___SYMBOL
 62
7
  6
CONTINUOUS
 10
19.8228849458
 20
6.5628342159
  0
VERTEX
  8
___SYMBOL
 62
7
  6
CONTINUOUS
 10
19.8196127078
 20
6.5585467932
  0
VERTEX
  8
___SYMBOL
 62
7
  6
CONTINUOUS
 10
19.8163841159
 20
6.5542320157
  0
VERTEX
  8
___SYMBOL
 62
7
  6
CONTINUOUS
 10
19.8132123455
 20
6.5498866955
  0
VERTEX
  8
___SYMBOL
 62
7
  6
CONTINUOUS
 10
19.810110572
 20
6.5455076451
  0
VERTEX
  8
___SYMBOL
 62
7
  6
CONTINUOUS
 10
19.8070919708
 20
6.5410916765
  0
VERTEX
  8
___SYMBOL
 62
7
  6
CONTINUOUS
 10
19.8041697171
 20
6.536635602
  0
VERTEX
  8
___SYMBOL
 62
7
  6
CONTINUOUS
 10
19.8013569864
 20
6.5321362339
  0
VERTEX
  8
___SYMBOL
 62
7
  6
CONTINUOUS
 10
19.7986669539
 20
6.5275903843
  0
VERTEX
  8
___SYMBOL
 62
7
  6
CONTINUOUS
 10
19.7961127952
 20
6.5229948655
  0
VERTEX
  8
___SYMBOL
 62
7
  6
CONTINUOUS
 10
19.7937076855
 20
6.5183464898
  0
VERTEX
  8
___SYMBOL
 62
7
  6
CONTINUOUS
 10
19.7914648002
 20
6.5136420692
  0
VERTEX
  8
___SYMBOL
 62
7
  6
CONTINUOUS
 10
19.7893973146
 20
6.5088784162
  0
VERTEX
  8
___SYMBOL
 62
7
  6
CONTINUOUS
 10
19.7875184041
 20
6.5040523429
  0
VERTEX
  8
___SYMBOL
 62
7
  6
CONTINUOUS
 10
19.7858412442
 20
6.4991606615
  0
VERTEX
  8
___SYMBOL
 62
7
  6
CONTINUOUS
 10
19.78437901
 20
6.4942001842
  0
VERTEX
  8
___SYMBOL
 62
7
  6
CONTINUOUS
 10
19.7830931078
 20
6.4889640832
  0
VERTEX
  8
___SYMBOL
 62
7
  6
CONTINUOUS
 10
19.7820286055
 20
6.4836581399
  0
VERTEX
  8
___SYMBOL
 62
7
  6
CONTINUOUS
 10
19.7811599316
 20
6.4782904504
  0
VERTEX
  8
___SYMBOL
 62
7
  6
CONTINUOUS
 10
19.7804615147
 20
6.4728691111
  0
VERTEX
  8
___SYMBOL
 62
7
  6
CONTINUOUS
 10
19.7799077835
 20
6.4674022183
  0
VERTEX
  8
___SYMBOL
 62
7
  6
CONTINUOUS
 10
19.7794731665
 20
6.4618978681
  0
VERTEX
  8
___SYMBOL
 62
7
  6
CONTINUOUS
 10
19.7791320923
 20
6.4563641569
  0
VERTEX
  8
___SYMBOL
 62
7
  6
CONTINUOUS
 10
19.7788589895
 20
6.4508091808
  0
VERTEX
  8
___SYMBOL
 62
7
  6
CONTINUOUS
 10
19.7786282867
 20
6.4452410361
  0
VERTEX
  8
___SYMBOL
 62
7
  6
CONTINUOUS
 10
19.7784682857
 20
6.4411900303
  0
VERTEX
  8
___SYMBOL
 62
7
  6
CONTINUOUS
 10
19.7782816444
 20
6.4371467835
  0
VERTEX
  8
___SYMBOL
 62
7
  6
CONTINUOUS
 10
19.7780328255
 20
6.4331217366
  0
VERTEX
  8
___SYMBOL
 62
7
  6
CONTINUOUS
 10
19.777686292
 20
6.4291253303
  0
VERTEX
  8
___SYMBOL
 62
7
  6
CONTINUOUS
 10
19.7772065067
 20
6.4251680052
  0
VERTEX
  8
___SYMBOL
 62
7
  6
CONTINUOUS
 10
19.7765579325
 20
6.421260202
  0
VERTEX
  8
___SYMBOL
 62
7
  6
CONTINUOUS
 10
19.7757050323
 20
6.4174123616
  0
VERTEX
  8
___SYMBOL
 62
7
  6
CONTINUOUS
 10
19.7746122689
 20
6.4136349245
  0
VERTEX
  8
___SYMBOL
 62
7
  6
CONTINUOUS
 10
19.7733267429
 20
6.410109888
  0
VERTEX
  8
___SYMBOL
 62
7
  6
CONTINUOUS
 10
19.7718248558
 20
6.4066518352
  0
VERTEX
  8
___SYMBOL
 62
7
  6
CONTINUOUS
 10
19.7701400316
 20
6.4032544247
  0
VERTEX
  8
___SYMBOL
 62
7
  6
CONTINUOUS
 10
19.7683056946
 20
6.3999113153
  0
VERTEX
  8
___SYMBOL
 62
7
  6
CONTINUOUS
 10
19.7663552689
 20
6.3966161658
  0
VERTEX
  8
___SYMBOL
 62
7
  6
CONTINUOUS
 10
19.7643221787
 20
6.393362635
  0
VERTEX
  8
___SYMBOL
 62
7
  6
CONTINUOUS
 10
19.7622398481
 20
6.3901443816
  0
VERTEX
  8
___SYMBOL
 62
7
  6
CONTINUOUS
 10
19.7596481474
 20
6.3862053016
  0
VERTEX
  8
___SYMBOL
 62
7
  6
CONTINUOUS
 10
19.7570828333
 20
6.3822732742
  0
VERTEX
  8
___SYMBOL
 62
7
  6
CONTINUOUS
 10
19.7545944109
 20
6.3783112268
  0
VERTEX
  8
___SYMBOL
 62
7
  6
CONTINUOUS
 10
19.7522333849
 20
6.3742820869
  0
VERTEX
  8
___SYMBOL
 62
7
  6
CONTINUOUS
 10
19.7500502603
 20
6.3701487817
  0
SEQEND
  0
POLYLINE
  8
___SYMBOL
 62
7
  6
CONTINUOUS
 66
1
 70
0
  0
VERTEX
  8
___SYMBOL
 62
7
  6
CONTINUOUS
 10
20.1951843812
 20
6.6549050889
  0
VERTEX
  8
___SYMBOL
 62
7
  6
CONTINUOUS
 10
20.1889675047
 20
6.6493529538
  0
VERTEX
  8
___SYMBOL
 62
7
  6
CONTINUOUS
 10
20.1829145574
 20
6.6436289168
  0
VERTEX
  8
___SYMBOL
 62
7
  6
CONTINUOUS
 10
20.1770171964
 20
6.6377440067
  0
VERTEX
  8
___SYMBOL
 62
7
  6
CONTINUOUS
 10
20.1712670786
 20
6.6317092523
  0
VERTEX
  8
___SYMBOL
 62
7
  6
CONTINUOUS
 10
20.1656558611
 20
6.6255356821
  0
VERTEX
  8
___SYMBOL
 62
7
  6
CONTINUOUS
 10
20.1601752007
 20
6.6192343248
  0
VERTEX
  8
___SYMBOL
 62
7
  6
CONTINUOUS
 10
20.1548167544
 20
6.6128162092
  0
VERTEX
  8
___SYMBOL
 62
7
  6
CONTINUOUS
 10
20.1495721793
 20
6.6062923639
  0
VERTEX
  8
___SYMBOL
 62
7
  6
CONTINUOUS
 10
20.1444331324
 20
6.5996738177
  0
VERTEX
  8
___SYMBOL
 62
7
  6
CONTINUOUS
 10
20.1393912705
 20
6.5929715991
  0
VERTEX
  8
___SYMBOL
 62
7
  6
CONTINUOUS
 10
20.1344382507
 20
6.5861967369
  0
VERTEX
  8
___SYMBOL
 62
7
  6
CONTINUOUS
 10
20.1295657299
 20
6.5793602597
  0
VERTEX
  8
___SYMBOL
 62
7
  6
CONTINUOUS
 10
20.1247653651
 20
6.5724731963
  0
VERTEX
  8
___SYMBOL
 62
7
  6
CONTINUOUS
 10
20.1188875527
 20
6.5638617395
  0
VERTEX
  8
___SYMBOL
 62
7
  6
CONTINUOUS
 10
20.1130846402
 20
6.5552083557
  0
VERTEX
  8
___SYMBOL
 62
7
  6
CONTINUOUS
 10
20.1073330111
 20
6.5465321882
  0
VERTEX
  8
___SYMBOL
 62
7
  6
CONTINUOUS
 10
20.1016090487
 20
6.5378523802
  0
VERTEX
  8
___SYMBOL
 62
7
  6
CONTINUOUS
 10
20.0958891362
 20
6.529188075
  0
VERTEX
  8
___SYMBOL
 62
7
  6
CONTINUOUS
 10
20.0901496571
 20
6.520558416
  0
VERTEX
  8
___SYMBOL
 62
7
  6
CONTINUOUS
 10
20.0843669947
 20
6.5119825463
  0
VERTEX
  8
___SYMBOL
 62
7
  6
CONTINUOUS
 10
20.0785175323
 20
6.5034796093
  0
VERTEX
  8
___SYMBOL
 62
7
  6
CONTINUOUS
 10
20.0725776533
 20
6.4950687483
  0
VERTEX
  8
___SYMBOL
 62
7
  6
CONTINUOUS
 10
20.0665237409
 20
6.4867691066
  0
VERTEX
  8
___SYMBOL
 62
7
  6
CONTINUOUS
 10
20.0600807274
 20
6.4782561178
  0
VERTEX
  8
___SYMBOL
 62
7
  6
CONTINUOUS
 10
20.0535038322
 20
6.4698452853
  0
VERTEX
  8
___SYMBOL
 62
7
  6
CONTINUOUS
 10
20.0468084024
 20
6.4614974369
  0
VERTEX
  8
___SYMBOL
 62
7
  6
CONTINUOUS
 10
20.0400097852
 20
6.4531734005
  0
VERTEX
  8
___SYMBOL
 62
7
  6
CONTINUOUS
 10
20.0331233277
 20
6.444834004
  0
VERTEX
  8
___SYMBOL
 62
7
  6
CONTINUOUS
 10
20.0261643769
 20
6.4364400752
  0
VERTEX
  8
___SYMBOL
 62
7
  6
CONTINUOUS
 10
20.0191482802
 20
6.427952442
  0
VERTEX
  8
___SYMBOL
 62
7
  6
CONTINUOUS
 10
20.0166787812
 20
6.4249539985
  0
VERTEX
  8
___SYMBOL
 62
7
  6
CONTINUOUS
 10
20.014194141
 20
6.4219576904
  0
VERTEX
  8
___SYMBOL
 62
7
  6
CONTINUOUS
 10
20.0116843443
 20
6.4189819494
  0
VERTEX
  8
___SYMBOL
 62
7
  6
CONTINUOUS
 10
20.0091393763
 20
6.4160452073
  0
VERTEX
  8
___SYMBOL
 62
7
  6
CONTINUOUS
 10
20.0065492217
 20
6.4131658957
  0
VERTEX
  8
___SYMBOL
 62
7
  6
CONTINUOUS
 10
20.0039038657
 20
6.4103624461
  0
VERTEX
  8
___SYMBOL
 62
7
  6
CONTINUOUS
 10
20.001193293
 20
6.4076532904
  0
VERTEX
  8
___SYMBOL
 62
7
  6
CONTINUOUS
 10
19.9984074887
 20
6.4050568601
  0
VERTEX
  8
___SYMBOL
 62
7
  6
CONTINUOUS
 10
19.9955364377
 20
6.4025915869
  0
VERTEX
  8
___SYMBOL
 62
7
  6
CONTINUOUS
 10
19.992570125
 20
6.4002759025
  0
VERTEX
  8
___SYMBOL
 62
7
  6
CONTINUOUS
 10
19.9894985356
 20
6.3981282386
  0
VERTEX
  8
___SYMBOL
 62
7
  6
CONTINUOUS
 10
19.9863116542
 20
6.3961670268
  0
VERTEX
  8
___SYMBOL
 62
7
  6
CONTINUOUS
 10
19.9829994661
 20
6.3944106987
  0
VERTEX
  8
___SYMBOL
 62
7
  6
CONTINUOUS
 10
19.9795519559
 20
6.392877686
  0
VERTEX
  8
___SYMBOL
 62
7
  6
CONTINUOUS
 10
19.9770403812
 20
6.3919415317
  0
VERTEX
  8
___SYMBOL
 62
7
  6
CONTINUOUS
 10
19.9744666564
 20
6.3911270574
  0
VERTEX
  8
___SYMBOL
 62
7
  6
CONTINUOUS
 10
19.9718406725
 20
6.3904361126
  0
VERTEX
  8
___SYMBOL
 62
7
  6
CONTINUOUS
 10
19.9691723207
 20
6.3898705468
  0
VERTEX
  8
___SYMBOL
 62
7
  6
CONTINUOUS
 10
19.9664714923
 20
6.3894322098
  0
VERTEX
  8
___SYMBOL
 62
7
  6
CONTINUOUS
 10
19.9637480783
 20
6.389122951
  0
VERTEX
  8
___SYMBOL
 62
7
  6
CONTINUOUS
 10
19.96101197
 20
6.38894462
  0
VERTEX
  8
___SYMBOL
 62
7
  6
CONTINUOUS
 10
19.9582730584
 20
6.3888990665
  0
VERTEX
  8
___SYMBOL
 62
7
  6
CONTINUOUS
 10
19.9555412348
 20
6.3889881399
  0
VERTEX
  8
___SYMBOL
 62
7
  6
CONTINUOUS
 10
19.9528263903
 20
6.3892136899
  0
VERTEX
  8
___SYMBOL
 62
7
  6
CONTINUOUS
 10
19.950138416
 20
6.3895775661
  0
VERTEX
  8
___SYMBOL
 62
7
  6
CONTINUOUS
 10
19.9474872032
 20
6.390081618
  0
VERTEX
  8
___SYMBOL
 62
7
  6
CONTINUOUS
 10
19.944882643
 20
6.3907276953
  0
VERTEX
  8
___SYMBOL
 62
7
  6
CONTINUOUS
 10
19.9423346265
 20
6.3915176474
  0
SEQEND
  0
POLYLINE
  8
___SYMBOL
 62
7
  6
CONTINUOUS
 66
1
 70
0
  0
VERTEX
  8
___SYMBOL
 62
7
  6
CONTINUOUS
 10
20.1254824844
 20
6.48393633
  0
VERTEX
  8
___SYMBOL
 62
7
  6
CONTINUOUS
 10
20.117252904
 20
6.4722492514
  0
VERTEX
  8
___SYMBOL
 62
7
  6
CONTINUOUS
 10
20.1091387485
 20
6.4604678078
  0
VERTEX
  8
___SYMBOL
 62
7
  6
CONTINUOUS
 10
20.103286841
 20
6.4518844878
  0
VERTEX
  8
___SYMBOL
 62
7
  6
CONTINUOUS
 10
20.0974351203
 20
6.4432831747
  0
VERTEX
  8
___SYMBOL
 62
7
  6
CONTINUOUS
 10
20.0915660447
 20
6.4346855446
  0
VERTEX
  8
___SYMBOL
 62
7
  6
CONTINUOUS
 10
20.0856620721
 20
6.4261132737
  0
VERTEX
  8
___SYMBOL
 62
7
  6
CONTINUOUS
 10
20.0797056607
 20
6.4175880383
  0
VERTEX
  8
___SYMBOL
 62
7
  6
CONTINUOUS
 10
20.0736792687
 20
6.4091315144
  0
VERTEX
  8
___SYMBOL
 62
7
  6
CONTINUOUS
 10
20.0675653541
 20
6.4007653782
  0
VERTEX
  8
___SYMBOL
 62
7
  6
CONTINUOUS
 10
20.0613463752
 20
6.392511306
  0
VERTEX
  8
___SYMBOL
 62
7
  6
CONTINUOUS
 10
20.0550047899
 20
6.3843909739
  0
VERTEX
  8
___SYMBOL
 62
7
  6
CONTINUOUS
 10
20.0485230565
 20
6.3764260582
  0
VERTEX
  8
___SYMBOL
 62
7
  6
CONTINUOUS
 10
20.0450356538
 20
6.37228926
  0
VERTEX
  8
___SYMBOL
 62
7
  6
CONTINUOUS
 10
20.041494974
 20
6.368206841
  0
VERTEX
  8
___SYMBOL
 62
7
  6
CONTINUOUS
 10
20.0378917374
 20
6.3641837696
  0
VERTEX
  8
___SYMBOL
 62
7
  6
CONTINUOUS
 10
20.0342166643
 20
6.3602250141
  0
VERTEX
  8
___SYMBOL
 62
7
  6
CONTINUOUS
 10
20.030460475
 20
6.3563355426
  0
VERTEX
  8
___SYMBOL
 62
7
  6
CONTINUOUS
 10
20.0266138898
 20
6.3525203236
  0
VERTEX
  8
___SYMBOL
 62
7
  6
CONTINUOUS
 10
20.0226676291
 20
6.3487843254
  0
VERTEX
  8
___SYMBOL
 62
7
  6
CONTINUOUS
 10
20.018612413
 20
6.3451325162
  0
VERTEX
  8
___SYMBOL
 62
7
  6
CONTINUOUS
 10
20.014438962
 20
6.3415698643
  0
VERTEX
  8
___SYMBOL
 62
7
  6
CONTINUOUS
 10
20.0101379964
 20
6.3381013381
  0
VERTEX
  8
___SYMBOL
 62
7
  6
CONTINUOUS
 10
20.0057002363
 20
6.3347319059
  0
VERTEX
  8
___SYMBOL
 62
7
  6
CONTINUOUS
 10
20.0011164023
 20
6.3314665359
  0
VERTEX
  8
___SYMBOL
 62
7
  6
CONTINUOUS
 10
19.9963772144
 20
6.3283101965
  0
VERTEX
  8
___SYMBOL
 62
7
  6
CONTINUOUS
 10
19.9914733932
 20
6.3252678559
  0
VERTEX
  8
___SYMBOL
 62
7
  6
CONTINUOUS
 10
19.9887823002
 20
6.3236888372
  0
VERTEX
  8
___SYMBOL
 62
7
  6
CONTINUOUS
 10
19.9860489201
 20
6.3221389919
  0
VERTEX
  8
___SYMBOL
 62
7
  6
CONTINUOUS
 10
19.9832806781
 20
6.3206134867
  0
VERTEX
  8
___SYMBOL
 62
7
  6
CONTINUOUS
 10
19.9804849995
 20
6.3191074887
  0
VERTEX
  8
___SYMBOL
 62
7
  6
CONTINUOUS
 10
19.9776693096
 20
6.3176161648
  0
VERTEX
  8
___SYMBOL
 62
7
  6
CONTINUOUS
 10
19.9748410338
 20
6.3161346818
  0
VERTEX
  8
___SYMBOL
 62
7
  6
CONTINUOUS
 10
19.9720075974
 20
6.3146582066
  0
VERTEX
  8
___SYMBOL
 62
7
  6
CONTINUOUS
 10
19.9691764256
 20
6.3131819063
  0
VERTEX
  8
___SYMBOL
 62
7
  6
CONTINUOUS
 10
19.9663549439
 20
6.3117009477
  0
VERTEX
  8
___SYMBOL
 62
7
  6
CONTINUOUS
 10
19.9635505774
 20
6.3102104978
  0
VERTEX
  8
___SYMBOL
 62
7
  6
CONTINUOUS
 10
19.9607707515
 20
6.3087057234
  0
VERTEX
  8
___SYMBOL
 62
7
  6
CONTINUOUS
 10
19.9580228916
 20
6.3071817915
  0
VERTEX
  8
___SYMBOL
 62
7
  6
CONTINUOUS
 10
19.9553144229
 20
6.305633869
  0
VERTEX
  8
___SYMBOL
 62
7
  6
CONTINUOUS
 10
19.9526527707
 20
6.3040571228
  0
VERTEX
  8
___SYMBOL
 62
7
  6
CONTINUOUS
 10
19.9500453604
 20
6.3024467199
  0
VERTEX
  8
___SYMBOL
 62
7
  6
CONTINUOUS
 10
19.9474996172
 20
6.3007978271
  0
VERTEX
  8
___SYMBOL
 62
7
  6
CONTINUOUS
 10
19.9450229665
 20
6.2991056114
  0
VERTEX
  8
___SYMBOL
 62
7
  6
CONTINUOUS
 10
19.9426228336
 20
6.2973652396
  0
VERTEX
  8
___SYMBOL
 62
7
  6
CONTINUOUS
 10
19.9403066437
 20
6.2955718788
  0
VERTEX
  8
___SYMBOL
 62
7
  6
CONTINUOUS
 10
19.9380818223
 20
6.2937206958
  0
VERTEX
  8
___SYMBOL
 62
7
  6
CONTINUOUS
 10
19.9359557946
 20
6.2918068576
  0
VERTEX
  8
___SYMBOL
 62
7
  6
CONTINUOUS
 10
19.9339359859
 20
6.2898255311
  0
VERTEX
  8
___SYMBOL
 62
7
  6
CONTINUOUS
 10
19.9320298215
 20
6.2877718831
  0
VERTEX
  8
___SYMBOL
 62
7
  6
CONTINUOUS
 10
19.9302447268
 20
6.2856410806
  0
VERTEX
  8
___SYMBOL
 62
7
  6
CONTINUOUS
 10
19.928588127
 20
6.2834282906
  0
VERTEX
  8
___SYMBOL
 62
7
  6
CONTINUOUS
 10
19.9270674475
 20
6.2811286799
  0
VERTEX
  8
___SYMBOL
 62
7
  6
CONTINUOUS
 10
19.9256901136
 20
6.2787374154
  0
VERTEX
  8
___SYMBOL
 62
7
  6
CONTINUOUS
 10
19.9244635506
 20
6.2762496642
  0
VERTEX
  8
___SYMBOL
 62
7
  6
CONTINUOUS
 10
19.9233951837
 20
6.273660593
  0
VERTEX
  8
___SYMBOL
 62
7
  6
CONTINUOUS
 10
19.9224924384
 20
6.2709653689
  0
VERTEX
  8
___SYMBOL
 62
7
  6
CONTINUOUS
 10
19.9219871645
 20
6.2691697246
  0
VERTEX
  8
___SYMBOL
 62
7
  6
CONTINUOUS
 10
19.9214753781
 20
6.2673556051
  0
VERTEX
  8
___SYMBOL
 62
7
  6
CONTINUOUS
 10
19.920878297
 20
6.2655508864
  0
VERTEX
  8
___SYMBOL
 62
7
  6
CONTINUOUS
 10
19.9201171389
 20
6.2637834446
  0
VERTEX
  8
___SYMBOL
 62
7
  6
CONTINUOUS
 10
19.9194723548
 20
6.262619786
  0
VERTEX
  8
___SYMBOL
 62
7
  6
CONTINUOUS
 10
19.9187244357
 20
6.2614999355
  0
VERTEX
  8
___SYMBOL
 62
7
  6
CONTINUOUS
 10
19.9178821849
 20
6.2604376711
  0
VERTEX
  8
___SYMBOL
 62
7
  6
CONTINUOUS
 10
19.9169544057
 20
6.2594467708
  0
VERTEX
  8
___SYMBOL
 62
7
  6
CONTINUOUS
 10
19.9159499011
 20
6.2585410125
  0
VERTEX
  8
___SYMBOL
 62
7
  6
CONTINUOUS
 10
19.9148774743
 20
6.2577341743
  0
VERTEX
  8
___SYMBOL
 62
7
  6
CONTINUOUS
 10
19.9137459285
 20
6.2570400342
  0
VERTEX
  8
___SYMBOL
 62
7
  6
CONTINUOUS
 10
19.9125640669
 20
6.2564723701
  0
VERTEX
  8
___SYMBOL
 62
7
  6
CONTINUOUS
 10
19.9113406927
 20
6.25604496
  0
VERTEX
  8
___SYMBOL
 62
7
  6
CONTINUOUS
 10
19.910084609
 20
6.255771582
  0
SEQEND
  0
POLYLINE
  8
___SYMBOL
 62
7
  6
CONTINUOUS
 66
1
 70
0
  0
VERTEX
  8
___SYMBOL
 62
7
  6
CONTINUOUS
 10
19.9589540962
 20
6.9257570036
  0
VERTEX
  8
___SYMBOL
 62
7
  6
CONTINUOUS
 10
19.9402783529
 20
6.9340652322
  0
VERTEX
  8
___SYMBOL
 62
7
  6
CONTINUOUS
 10
19.9189889865
 20
6.9370260498
  0
VERTEX
  8
___SYMBOL
 62
7
  6
CONTINUOUS
 10
19.8969511366
 20
6.9343802059
  0
VERTEX
  8
___SYMBOL
 62
7
  6
CONTINUOUS
 10
19.8744341058
 20
6.9261596624
  0
VERTEX
  8
___SYMBOL
 62
7
  6
CONTINUOUS
 10
19.8534108639
 20
6.9130851064
  0
VERTEX
  8
___SYMBOL
 62
7
  6
CONTINUOUS
 10
19.8341382603
 20
6.8953158516
  0
VERTEX
  8
___SYMBOL
 62
7
  6
CONTINUOUS
 10
19.8183049186
 20
6.8744091957
  0
VERTEX
  8
___SYMBOL
 62
7
  6
CONTINUOUS
 10
19.8062971442
 20
6.8510940352
  0
VERTEX
  8
___SYMBOL
 62
7
  6
CONTINUOUS
 10
19.7986053572
 20
6.8260338471
  0
VERTEX
  8
___SYMBOL
 62
7
  6
CONTINUOUS
 10
19.795903415
 20
6.8014243719
  0
VERTEX
  8
___SYMBOL
 62
7
  6
CONTINUOUS
 10
19.7982245365
 20
6.7775664099
  0
VERTEX
  8
___SYMBOL
 62
7
  6
CONTINUOUS
 10
19.8053652934
 20
6.7565503031
  0
VERTEX
  8
___SYMBOL
 62
7
  6
CONTINUOUS
 10
19.817238341
 20
6.7386327081
  0
VERTEX
  8
___SYMBOL
 62
7
  6
CONTINUOUS
 10
19.8328033792
 20
6.7253837647
  0
VERTEX
  8
___SYMBOL
 62
7
  6
CONTINUOUS
 10
19.8514789672
 20
6.7170755087
  0
VERTEX
  8
___SYMBOL
 62
7
  6
CONTINUOUS
 10
19.8727684249
 20
6.7141146272
  0
VERTEX
  8
___SYMBOL
 62
7
  6
CONTINUOUS
 10
19.8948062475
 20
6.7167606263
  0
VERTEX
  8
___SYMBOL
 62
7
  6
CONTINUOUS
 10
19.9173233696
 20
6.7249811059
  0
VERTEX
  8
___SYMBOL
 62
7
  6
CONTINUOUS
 10
19.9383465202
 20
6.7380557258
  0
VERTEX
  8
___SYMBOL
 62
7
  6
CONTINUOUS
 10
19.9576192151
 20
6.7558249166
  0
VERTEX
  8
___SYMBOL
 62
7
  6
CONTINUOUS
 10
19.9734525568
 20
6.7767315725
  0
VERTEX
  8
___SYMBOL
 62
7
  6
CONTINUOUS
 10
19.9854603312
 20
6.8000467331
  0
VERTEX
  8
___SYMBOL
 62
7
  6
CONTINUOUS
 10
19.9931521182
 20
6.8251069212
  0
VERTEX
  8
___SYMBOL
 62
7
  6
CONTINUOUS
 10
19.9958539691
 20
6.8497164603
  0
VERTEX
  8
___SYMBOL
 62
7
  6
CONTINUOUS
 10
19.9935328476
 20
6.8735744223
  0
VERTEX
  8
___SYMBOL
 62
7
  6
CONTINUOUS
 10
19.9863920907
 20
6.8945905291
  0
VERTEX
  8
___SYMBOL
 62
7
  6
CONTINUOUS
 10
19.9745190705
 20
6.9125079689
  0
VERTEX
  8
___SYMBOL
 62
7
  6
CONTINUOUS
 10
19.9589540962
 20
6.9257570036
  0
SEQEND
  0
POLYLINE
  8
___SYMBOL
 62
7
  6
CONTINUOUS
 66
1
 70
0
  0
VERTEX
  8
___SYMBOL
 62
7
  6
CONTINUOUS
 10
20.0289756549
 20
6.8163742773
  0
VERTEX
  8
___SYMBOL
 62
7
  6
CONTINUOUS
 10
20.0318781128
 20
6.8255089946
  0
VERTEX
  8
___SYMBOL
 62
7
  6
CONTINUOUS
 10
20.0343371655
 20
6.834643912
  0
VERTEX
  8
___SYMBOL
 62
7
  6
CONTINUOUS
 10
20.0363447957
 20
6.8437492467
  0
VERTEX
  8
___SYMBOL
 62
7
  6
CONTINUOUS
 10
20.0378944578
 20
6.8527953119
  0
VERTEX
  8
___SYMBOL
 62
7
  6
CONTINUOUS
 10
20.0389810994
 20
6.8617526145
  0
VERTEX
  8
___SYMBOL
 62
7
  6
CONTINUOUS
 10
20.0396011777
 20
6.8705919506
  0
VERTEX
  8
___SYMBOL
 62
7
  6
CONTINUOUS
 10
20.0397526709
 20
6.8792845008
  0
VERTEX
  8
___SYMBOL
 62
7
  6
CONTINUOUS
 10
20.0394350852
 20
6.8878019243
  0
VERTEX
  8
___SYMBOL
 62
7
  6
CONTINUOUS
 10
20.038649456
 20
6.8961164515
  0
VERTEX
  8
___SYMBOL
 62
7
  6
CONTINUOUS
 10
20.0373983447
 20
6.9042009742
  0
VERTEX
  8
___SYMBOL
 62
7
  6
CONTINUOUS
 10
20.0356858304
 20
6.9120291338
  0
VERTEX
  8
___SYMBOL
 62
7
  6
CONTINUOUS
 10
20.0335174965
 20
6.9195754081
  0
VERTEX
  8
___SYMBOL
 62
7
  6
CONTINUOUS
 10
20.0309004125
 20
6.9268151934
  0
VERTEX
  8
___SYMBOL
 62
7
  6
CONTINUOUS
 10
20.0278431109
 20
6.9337248856
  0
VERTEX
  8
___SYMBOL
 62
7
  6
CONTINUOUS
 10
20.0243555597
 20
6.9402819567
  0
VERTEX
  8
___SYMBOL
 62
7
  6
CONTINUOUS
 10
20.0204491295
 20
6.9464650283
  0
VERTEX
  8
___SYMBOL
 62
7
  6
CONTINUOUS
 10
20.0161365566
 20
6.9522539415
  0
VERTEX
  8
___SYMBOL
 62
7
  6
CONTINUOUS
 10
20.0114319015
 20
6.9576298225
  0
VERTEX
  8
___SYMBOL
 62
7
  6
CONTINUOUS
 10
20.006350503
 20
6.962575144
  0
VERTEX
  8
___SYMBOL
 62
7
  6
CONTINUOUS
 10
20.0009089281
 20
6.9670737825
  0
VERTEX
  8
___SYMBOL
 62
7
  6
CONTINUOUS
 10
19.9951249184
 20
6.9711110709
  0
VERTEX
  8
___SYMBOL
 62
7
  6
CONTINUOUS
 10
19.9890173317
 20
6.9746738463
  0
VERTEX
  8
___SYMBOL
 62
7
  6
CONTINUOUS
 10
19.9826060808
 20
6.9777504928
  0
VERTEX
  8
___SYMBOL
 62
7
  6
CONTINUOUS
 10
19.9759120687
 20
6.9803309794
  0
VERTEX
  8
___SYMBOL
 62
7
  6
CONTINUOUS
 10
19.9689571201
 20
6.9824068929
  0
VERTEX
  8
___SYMBOL
 62
7
  6
CONTINUOUS
 10
19.9617639106
 20
6.983971465
  0
VERTEX
  8
___SYMBOL
 62
7
  6
CONTINUOUS
 10
19.9543558926
 20
6.9850195948
  0
VERTEX
  8
___SYMBOL
 62
7
  6
CONTINUOUS
 10
19.9467572187
 20
6.9855478649
  0
VERTEX
  8
___SYMBOL
 62
7
  6
CONTINUOUS
 10
19.9389926633
 20
6.985554553
  0
VERTEX
  8
___SYMBOL
 62
7
  6
CONTINUOUS
 10
19.9310875415
 20
6.9850396374
  0
VERTEX
  8
___SYMBOL
 62
7
  6
CONTINUOUS
 10
19.9230676267
 20
6.9840047967
  0
VERTEX
  8
___SYMBOL
 62
7
  6
CONTINUOUS
 10
19.9149590667
 20
6.982453405
  0
VERTEX
  8
___SYMBOL
 62
7
  6
CONTINUOUS
 10
19.9067882981
 20
6.9803905203
  0
VERTEX
  8
___SYMBOL
 62
7
  6
CONTINUOUS
 10
19.8985819606
 20
6.9778228684
  0
VERTEX
  8
___SYMBOL
 62
7
  6
CONTINUOUS
 10
19.8903668095
 20
6.9747588206
  0
VERTEX
  8
___SYMBOL
 62
7
  6
CONTINUOUS
 10
19.8821696291
 20
6.9712083669
  0
VERTEX
  8
___SYMBOL
 62
7
  6
CONTINUOUS
 10
19.8740171452
 20
6.9671830829
  0
VERTEX
  8
___SYMBOL
 62
7
  6
CONTINUOUS
 10
19.8659359375
 20
6.9626960924
  0
VERTEX
  8
___SYMBOL
 62
7
  6
CONTINUOUS
 10
19.8579523538
 20
6.9577620247
  0
VERTEX
  8
___SYMBOL
 62
7
  6
CONTINUOUS
 10
19.8500924231
 20
6.9523969665
  0
VERTEX
  8
___SYMBOL
 62
7
  6
CONTINUOUS
 10
19.8423817716
 20
6.9466184096
  0
VERTEX
  8
___SYMBOL
 62
7
  6
CONTINUOUS
 10
19.8348455386
 20
6.9404451943
  0
VERTEX
  8
___SYMBOL
 62
7
  6
CONTINUOUS
 10
19.8275082951
 20
6.9338974474
  0
VERTEX
  8
___SYMBOL
 62
7
  6
CONTINUOUS
 10
19.8203939628
 20
6.9269965167
  0
VERTEX
  8
___SYMBOL
 62
7
  6
CONTINUOUS
 10
19.8135257369
 20
6.9197649017
  0
VERTEX
  8
___SYMBOL
 62
7
  6
CONTINUOUS
 10
19.8069260103
 20
6.91222618
  0
VERTEX
  8
___SYMBOL
 62
7
  6
CONTINUOUS
 10
19.8006163004
 20
6.9044049304
  0
VERTEX
  8
___SYMBOL
 62
7
  6
CONTINUOUS
 10
19.794617179
 20
6.8963266529
  0
VERTEX
  8
___SYMBOL
 62
7
  6
CONTINUOUS
 10
19.7889482053
 20
6.8880176854
  0
VERTEX
  8
___SYMBOL
 62
7
  6
CONTINUOUS
 10
19.7836278621
 20
6.8795051182
  0
VERTEX
  8
___SYMBOL
 62
7
  6
CONTINUOUS
 10
19.7786734957
 20
6.8708167051
  0
VERTEX
  8
___SYMBOL
 62
7
  6
CONTINUOUS
 10
19.7741012588
 20
6.8619807733
  0
VERTEX
  8
___SYMBOL
 62
7
  6
CONTINUOUS
 10
19.7699260587
 20
6.853026131
  0
VERTEX
  8
___SYMBOL
 62
7
  6
CONTINUOUS
 10
19.766161508
 20
6.8439819736
  0
VERTEX
  8
___SYMBOL
 62
7
  6
CONTINUOUS
 10
19.7628198802
 20
6.834877788
  0
VERTEX
  8
___SYMBOL
 62
7
  6
CONTINUOUS
 10
19.7599120705
 20
6.8257432571
  0
VERTEX
  8
___SYMBOL
 62
7
  6
CONTINUOUS
 10
19.7574475591
 20
6.8166081626
  0
VERTEX
  8
___SYMBOL
 62
7
  6
CONTINUOUS
 10
19.7554343812
 20
6.8075022881
  0
VERTEX
  8
___SYMBOL
 62
7
  6
CONTINUOUS
 10
19.7538791006
 20
6.7984553219
  0
VERTEX
  8
___SYMBOL
 62
7
  6
CONTINUOUS
 10
19.752786788
 20
6.7894967603
  0
VERTEX
  8
___SYMBOL
 62
7
  6
CONTINUOUS
 10
19.7521610046
 20
6.7806558111
  0
VERTEX
  8
___SYMBOL
 62
7
  6
CONTINUOUS
 10
19.7520037908
 20
6.7719612991
  0
VERTEX
  8
___SYMBOL
 62
7
  6
CONTINUOUS
 10
19.7523156591
 20
6.7634415713
  0
VERTEX
  8
___SYMBOL
 62
7
  6
CONTINUOUS
 10
19.7530955928
 20
6.755124405
  0
VERTEX
  8
___SYMBOL
 62
7
  6
CONTINUOUS
 10
19.7543410489
 20
6.7470369171
  0
VERTEX
  8
___SYMBOL
 62
7
  6
CONTINUOUS
 10
19.7560479669
 20
6.7392054755
  0
VERTEX
  8
___SYMBOL
 62
7
  6
CONTINUOUS
 10
19.7582107816
 20
6.7316556134
  0
VERTEX
  8
___SYMBOL
 62
7
  6
CONTINUOUS
 10
19.7608224415
 20
6.7244119461
  0
VERTEX
  8
___SYMBOL
 62
7
  6
CONTINUOUS
 10
19.7638744316
 20
6.7174980904
  0
VERTEX
  8
___SYMBOL
 62
7
  6
CONTINUOUS
 10
19.7673568015
 20
6.7109365879
  0
VERTEX
  8
___SYMBOL
 62
7
  6
CONTINUOUS
 10
19.7712581974
 20
6.7047488313
  0
VERTEX
  8
___SYMBOL
 62
7
  6
CONTINUOUS
 10
19.7755658993
 20
6.6989549949
  0
VERTEX
  8
___SYMBOL
 62
7
  6
CONTINUOUS
 10
19.7802658628
 20
6.6935739685
  0
VERTEX
  8
___SYMBOL
 62
7
  6
CONTINUOUS
 10
19.7853427642
 20
6.6886232963
  0
VERTEX
  8
___SYMBOL
 62
7
  6
CONTINUOUS
 10
19.7907800511
 20
6.684119119
  0
VERTEX
  8
___SYMBOL
 62
7
  6
CONTINUOUS
 10
19.7965599962
 20
6.6800761219
  0
VERTEX
  8
___SYMBOL
 62
7
  6
CONTINUOUS
 10
19.8026637547
 20
6.6765074866
  0
VERTEX
  8
___SYMBOL
 62
7
  6
CONTINUOUS
 10
19.8090714263
 20
6.673424848
  0
VERTEX
  8
___SYMBOL
 62
7
  6
CONTINUOUS
 10
19.8157621197
 20
6.6708382567
  0
VERTEX
  8
___SYMBOL
 62
7
  6
CONTINUOUS
 10
19.822714021
 20
6.6687561457
  0
VERTEX
  8
___SYMBOL
 62
7
  6
CONTINUOUS
 10
19.8299044646
 20
6.6671853035
  0
VERTEX
  8
___SYMBOL
 62
7
  6
CONTINUOUS
 10
19.8373100071
 20
6.6661308516
  0
VERTEX
  8
___SYMBOL
 62
7
  6
CONTINUOUS
 10
19.844906504
 20
6.6655962278
  0
VERTEX
  8
___SYMBOL
 62
7
  6
CONTINUOUS
 10
19.8526691879
 20
6.6655831753
  0
VERTEX
  8
___SYMBOL
 62
7
  6
CONTINUOUS
 10
19.8605727499
 20
6.6660917366
  0
VERTEX
  8
___SYMBOL
 62
7
  6
CONTINUOUS
 10
19.8685914215
 20
6.6671202535
  0
SEQEND
  0
POLYLINE
  8
___SYMBOL
 62
7
  6
CONTINUOUS
 66
1
 70
0
  0
VERTEX
  8
___SYMBOL
 62
7
  6
CONTINUOUS
 10
20.3289659718
 20
6.6506185276
  0
VERTEX
  8
___SYMBOL
 62
7
  6
CONTINUOUS
 10
20.3103051009
 20
6.6572232559
  0
VERTEX
  8
___SYMBOL
 62
7
  6
CONTINUOUS
 10
20.2894167422
 20
6.6583171301
  0
VERTEX
  8
___SYMBOL
 62
7
  6
CONTINUOUS
 10
20.2681313472
 20
6.6538044993
  0
VERTEX
  8
___SYMBOL
 62
7
  6
CONTINUOUS
 10
20.2467087906
 20
6.6437403882
  0
VERTEX
  8
___SYMBOL
 62
7
  6
CONTINUOUS
 10
20.2270261301
 20
6.62900665
  0
VERTEX
  8
___SYMBOL
 62
7
  6
CONTINUOUS
 10
20.2093238209
 20
6.6097831925
  0
VERTEX
  8
___SYMBOL
 62
7
  6
CONTINUOUS
 10
20.1951530663
 20
6.5877545548
  0
VERTEX
  8
___SYMBOL
 62
7
  6
CONTINUOUS
 10
20.1848465106
 20
6.5636744187
  0
VERTEX
  8
___SYMBOL
 62
7
  6
CONTINUOUS
 10
20.1788423025
 20
6.5382410936
  0
VERTEX
  8
___SYMBOL
 62
7
  6
CONTINUOUS
 10
20.1776663024
 20
6.5136827969
  0
VERTEX
  8
___SYMBOL
 62
7
  6
CONTINUOUS
 10
20.1813331504
 20
6.4902997333
  0
VERTEX
  8
___SYMBOL
 62
7
  6
CONTINUOUS
 10
20.1895213563
 20
6.470140703
  0
VERTEX
  8
___SYMBOL
 62
7
  6
CONTINUOUS
 10
20.2021309387
 20
6.4534518925
  0
VERTEX
  8
___SYMBOL
 62
7
  6
CONTINUOUS
 10
20.2180570994
 20
6.4416956885
  0
VERTEX
  8
___SYMBOL
 62
7
  6
CONTINUOUS
 10
20.2367180342
 20
6.4350910514
  0
VERTEX
  8
___SYMBOL
 62
7
  6
CONTINUOUS
 10
20.2576063289
 20
6.4339970859
  0
VERTEX
  8
___SYMBOL
 62
7
  6
CONTINUOUS
 10
20.278891724
 20
6.4385097168
  0
VERTEX
  8
___SYMBOL
 62
7
  6
CONTINUOUS
 10
20.3003143901
 20
6.4485738872
  0
VERTEX
  8
___SYMBOL
 62
7
  6
CONTINUOUS
 10
20.3199970049
 20
6.4633076574
  0
VERTEX
  8
___SYMBOL
 62
7
  6
CONTINUOUS
 10
20.3376992502
 20
6.4825310235
  0
VERTEX
  8
___SYMBOL
 62
7
  6
CONTINUOUS
 10
20.3518700048
 20
6.5045596613
  0
VERTEX
  8
___SYMBOL
 62
7
  6
CONTINUOUS
 10
20.3621765605
 20
6.5286397974
  0
VERTEX
  8
___SYMBOL
 62
7
  6
CONTINUOUS
 10
20.3681808325
 20
6.5540732137
  0
VERTEX
  8
___SYMBOL
 62
7
  6
CONTINUOUS
 10
20.3693567688
 20
6.5786314191
  0
VERTEX
  8
___SYMBOL
 62
7
  6
CONTINUOUS
 10
20.3656899207
 20
6.6020144827
  0
VERTEX
  8
___SYMBOL
 62
7
  6
CONTINUOUS
 10
20.3575017148
 20
6.6221735131
  0
VERTEX
  8
___SYMBOL
 62
7
  6
CONTINUOUS
 10
20.3448921324
 20
6.6388623235
  0
VERTEX
  8
___SYMBOL
 62
7
  6
CONTINUOUS
 10
20.3289659718
 20
6.6506185276
  0
SEQEND
  0
POLYLINE
  8
___SYMBOL
 62
7
  6
CONTINUOUS
 66
1
 70
0
  0
VERTEX
  8
___SYMBOL
 62
7
  6
CONTINUOUS
 10
20.1500894475
 20
6.4802055744
  0
VERTEX
  8
___SYMBOL
 62
7
  6
CONTINUOUS
 10
20.1528944888
 20
6.4725943727
  0
VERTEX
  8
___SYMBOL
 62
7
  6
CONTINUOUS
 10
20.156163748
 20
6.4653073893
  0
VERTEX
  8
___SYMBOL
 62
7
  6
CONTINUOUS
 10
20.1598855558
 20
6.458370634
  0
VERTEX
  8
___SYMBOL
 62
7
  6
CONTINUOUS
 10
20.164046628
 20
6.4518088663
  0
VERTEX
  8
___SYMBOL
 62
7
  6
CONTINUOUS
 10
20.1686321123
 20
6.4456455075
  0
VERTEX
  8
___SYMBOL
 62
7
  6
CONTINUOUS
 10
20.1736256416
 20
6.4399025565
  0
VERTEX
  8
___SYMBOL
 62
7
  6
CONTINUOUS
 10
20.1790093922
 20
6.4346005118
  0
VERTEX
  8
___SYMBOL
 62
7
  6
CONTINUOUS
 10
20.1847641479
 20
6.4297582983
  0
VERTEX
  8
___SYMBOL
 62
7
  6
CONTINUOUS
 10
20.1908693679
 20
6.4253931994
  0
VERTEX
  8
___SYMBOL
 62
7
  6
CONTINUOUS
 10
20.1973032607
 20
6.4215207956
  0
VERTEX
  8
___SYMBOL
 62
7
  6
CONTINUOUS
 10
20.2040428617
 20
6.4181549088
  0
VERTEX
  8
___SYMBOL
 62
7
  6
CONTINUOUS
 10
20.2110641148
 20
6.4153075529
  0
VERTEX
  8
___SYMBOL
 62
7
  6
CONTINUOUS
 10
20.218341959
 20
6.4129888912
  0
VERTEX
  8
___SYMBOL
 62
7
  6
CONTINUOUS
 10
20.2258504172
 20
6.4112071996
  0
VERTEX
  8
___SYMBOL
 62
7
  6
CONTINUOUS
 10
20.2335626892
 20
6.4099688377
  0
VERTEX
  8
___SYMBOL
 62
7
  6
CONTINUOUS
 10
20.2414512473
 20
6.4092782256
  0
VERTEX
  8
___SYMBOL
 62
7
  6
CONTINUOUS
 10
20.2494879346
 20
6.4091378282
  0
VERTEX
  8
___SYMBOL
 62
7
  6
CONTINUOUS
 10
20.2576440656
 20
6.4095481468
  0
VERTEX
  8
___SYMBOL
 62
7
  6
CONTINUOUS
 10
20.2658905283
 20
6.4105077168
  0
VERTEX
  8
___SYMBOL
 62
7
  6
CONTINUOUS
 10
20.2741978883
 20
6.412013113
  0
VERTEX
  8
___SYMBOL
 62
7
  6
CONTINUOUS
 10
20.2825364939
 20
6.4140589624
  0
VERTEX
  8
___SYMBOL
 62
7
  6
CONTINUOUS
 10
20.2908765818
 20
6.4166379625
  0
VERTEX
  8
___SYMBOL
 62
7
  6
CONTINUOUS
 10
20.2991883835
 20
6.419740908
  0
VERTEX
  8
___SYMBOL
 62
7
  6
CONTINUOUS
 10
20.3074422314
 20
6.4233567236
  0
VERTEX
  8
___SYMBOL
 62
7
  6
CONTINUOUS
 10
20.3156086648
 20
6.4274725031
  0
VERTEX
  8
___SYMBOL
 62
7
  6
CONTINUOUS
 10
20.3236585349
 20
6.4320735559
  0
VERTEX
  8
___SYMBOL
 62
7
  6
CONTINUOUS
 10
20.331563109
 20
6.4371434595
  0
VERTEX
  8
___SYMBOL
 62
7
  6
CONTINUOUS
 10
20.3392941733
 20
6.4426641175
  0
VERTEX
  8
___SYMBOL
 62
7
  6
CONTINUOUS
 10
20.3468241328
 20
6.448615825
  0
VERTEX
  8
___SYMBOL
 62
7
  6
CONTINUOUS
 10
20.3541261106
 20
6.4549773383
  0
VERTEX
  8
___SYMBOL
 62
7
  6
CONTINUOUS
 10
20.3611740436
 20
6.461725951
  0
VERTEX
  8
___SYMBOL
 62
7
  6
CONTINUOUS
 10
20.3679427754
 20
6.4688375752
  0
VERTEX
  8
___SYMBOL
 62
7
  6
CONTINUOUS
 10
20.3744081461
 20
6.476286827
  0
VERTEX
  8
___SYMBOL
 62
7
  6
CONTINUOUS
 10
20.3805470785
 20
6.4840471176
  0
VERTEX
  8
___SYMBOL
 62
7
  6
CONTINUOUS
 10
20.386337661
 20
6.492090748
  0
VERTEX
  8
___SYMBOL
 62
7
  6
CONTINUOUS
 10
20.3917592248
 20
6.5003890077
  0
VERTEX
  8
___SYMBOL
 62
7
  6
CONTINUOUS
 10
20.3967924187
 20
6.5089122775
  0
VERTEX
  8
___SYMBOL
 62
7
  6
CONTINUOUS
 10
20.4014192776
 20
6.517630135
  0
VERTEX
  8
___SYMBOL
 62
7
  6
CONTINUOUS
 10
20.4056232865
 20
6.5265114633
  0
VERTEX
  8
___SYMBOL
 62
7
  6
CONTINUOUS
 10
20.40938944
 20
6.5355245619
  0
VERTEX
  8
___SYMBOL
 62
7
  6
CONTINUOUS
 10
20.4127042955
 20
6.5446372602
  0
VERTEX
  8
___SYMBOL
 62
7
  6
CONTINUOUS
 10
20.4155560212
 20
6.5538170318
  0
VERTEX
  8
___SYMBOL
 62
7
  6
CONTINUOUS
 10
20.4179344382
 20
6.5630311111
  0
VERTEX
  8
___SYMBOL
 62
7
  6
CONTINUOUS
 10
20.4198310572
 20
6.57224661
  0
VERTEX
  8
___SYMBOL
 62
7
  6
CONTINUOUS
 10
20.4212391086
 20
6.5814306353
  0
VERTEX
  8
___SYMBOL
 62
7
  6
CONTINUOUS
 10
20.4221535665
 20
6.5905504062
  0
VERTEX
  8
___SYMBOL
 62
7
  6
CONTINUOUS
 10
20.4225711669
 20
6.5995733711
  0
VERTEX
  8
___SYMBOL
 62
7
  6
CONTINUOUS
 10
20.4224904193
 20
6.6084673241
  0
VERTEX
  8
___SYMBOL
 62
7
  6
CONTINUOUS
 10
20.421911612
 20
6.6172005198
  0
VERTEX
  8
___SYMBOL
 62
7
  6
CONTINUOUS
 10
20.4208368107
 20
6.6257417863
  0
VERTEX
  8
___SYMBOL
 62
7
  6
CONTINUOUS
 10
20.419269852
 20
6.6340606372
  0
VERTEX
  8
___SYMBOL
 62
7
  6
CONTINUOUS
 10
20.4172163287
 20
6.6421273797
  0
VERTEX
  8
___SYMBOL
 62
7
  6
CONTINUOUS
 10
20.4146835707
 20
6.6499132209
  0
VERTEX
  8
___SYMBOL
 62
7
  6
CONTINUOUS
 10
20.411680618
 20
6.6573903704
  0
VERTEX
  8
___SYMBOL
 62
7
  6
CONTINUOUS
 10
20.4082181894
 20
6.66453214
  0
VERTEX
  8
___SYMBOL
 62
7
  6
CONTINUOUS
 10
20.4043086432
 20
6.6713130382
  0
VERTEX
  8
___SYMBOL
 62
7
  6
CONTINUOUS
 10
20.3999659341
 20
6.6777088618
  0
VERTEX
  8
___SYMBOL
 62
7
  6
CONTINUOUS
 10
20.3952055626
 20
6.6836967818
  0
VERTEX
  8
___SYMBOL
 62
7
  6
CONTINUOUS
 10
20.39004452
 20
6.6892554256
  0
VERTEX
  8
___SYMBOL
 62
7
  6
CONTINUOUS
 10
20.3845012278
 20
6.6943649523
  0
VERTEX
  8
___SYMBOL
 62
7
  6
CONTINUOUS
 10
20.3785954718
 20
6.6990071245
  0
VERTEX
  8
___SYMBOL
 62
7
  6
CONTINUOUS
 10
20.3723483318
 20
6.7031653726
  0
VERTEX
  8
___SYMBOL
 62
7
  6
CONTINUOUS
 10
20.3657821057
 20
6.7068248544
  0
VERTEX
  8
___SYMBOL
 62
7
  6
CONTINUOUS
 10
20.3589202307
 20
6.7099725082
  0
VERTEX
  8
___SYMBOL
 62
7
  6
CONTINUOUS
 10
20.351787199
 20
6.7125970987
  0
VERTEX
  8
___SYMBOL
 62
7
  6
CONTINUOUS
 10
20.3444084709
 20
6.7146892581
  0
VERTEX
  8
___SYMBOL
 62
7
  6
CONTINUOUS
 10
20.3368103834
 20
6.7162415187
  0
VERTEX
  8
___SYMBOL
 62
7
  6
CONTINUOUS
 10
20.3290200566
 20
6.7172483399
  0
VERTEX
  8
___SYMBOL
 62
7
  6
CONTINUOUS
 10
20.3210652969
 20
6.7177061281
  0
VERTEX
  8
___SYMBOL
 62
7
  6
CONTINUOUS
 10
20.3129744974
 20
6.7176132493
  0
VERTEX
  8
___SYMBOL
 62
7
  6
CONTINUOUS
 10
20.3047765369
 20
6.716970035
  0
VERTEX
  8
___SYMBOL
 62
7
  6
CONTINUOUS
 10
20.2965006766
 20
6.715778781
  0
VERTEX
  8
___SYMBOL
 62
7
  6
CONTINUOUS
 10
20.2881764558
 20
6.7140437393
  0
VERTEX
  8
___SYMBOL
 62
7
  6
CONTINUOUS
 10
20.2798335864
 20
6.7117711029
  0
VERTEX
  8
___SYMBOL
 62
7
  6
CONTINUOUS
 10
20.2715018469
 20
6.7089689836
  0
VERTEX
  8
___SYMBOL
 62
7
  6
CONTINUOUS
 10
20.2632109761
 20
6.705647383
  0
VERTEX
  8
___SYMBOL
 62
7
  6
CONTINUOUS
 10
20.2549905668
 20
6.7018181571
  0
VERTEX
  8
___SYMBOL
 62
7
  6
CONTINUOUS
 10
20.2468699605
 20
6.6974949736
  0
VERTEX
  8
___SYMBOL
 62
7
  6
CONTINUOUS
 10
20.2388781422
 20
6.6926932634
  0
VERTEX
  8
___SYMBOL
 62
7
  6
CONTINUOUS
 10
20.2310436374
 20
6.6874301655
  0
VERTEX
  8
___SYMBOL
 62
7
  6
CONTINUOUS
 10
20.22339441
 20
6.6817244655
  0
VERTEX
  8
___SYMBOL
 62
7
  6
CONTINUOUS
 10
20.2159577628
 20
6.675596529
  0
VERTEX
  8
___SYMBOL
 62
7
  6
CONTINUOUS
 10
20.2087602396
 20
6.6690682286
  0
VERTEX
  8
___SYMBOL
 62
7
  6
CONTINUOUS
 10
20.2018275307
 20
6.6621628661
  0
VERTEX
  8
___SYMBOL
 62
7
  6
CONTINUOUS
 10
20.1951843812
 20
6.654905089
  0
SEQEND
  0
ENDBLK
  8
0
  6
BYBLOCK
 62
0
  0
BLOCK
  8
0
  2
_FILLED
 70
64
 10
0.0
 20
0.0
  0
SOLID
  8
0
  6
BYBLOCK
 62
0
 10
0.0
 20
0.0
 11
-1.0
 21
0.2933333333
 12
-1.0
 22
-0.2933333333
 13
-1.0
 23
-0.2933333333
  0
ENDBLK
  8
0
  6
BYBLOCK
 62
0
  0
BLOCK
  8
0
 62
2
  6
CONTINUOUS
  2
*D0
 70
65
 10
0.0
 20
0.0
  0
TEXT
  8
0
 62
2
  6
CONTINUOUS
 10
2.6878179903
 20
20.0395967675
  7
STANDARD
 40
0.15625
  1
2
 41
0.8
 72
1
 11
2.7503179903
 21
20.0395967675
  0
TEXT
  8
0
 62
2
  6
CONTINUOUS
 10
2.8128179903
 20
20.0395967675
  7
STANDARD
 40
0.15625
  1
" MIN
 41
0.8
 72
1
 11
3.1253179903
 21
20.0395967675
  0
TEXT
  8
0
 62
2
  6
CONTINUOUS
 10
2.5628179903
 20
19.8052217675
  7
STANDARD
 40
0.15625
  1
[5,1 cm]
 41
0.8
 72
1
 11
3.0628179903
 21
19.8052217675
  0
LINE
  8
0
 62
2
  6
CONTINUOUS
 10
3.7018450106
 20
21.1177217675
 11
2.9378179903
 21
21.1177217675
  0
LINE
  8
0
 62
2
  6
CONTINUOUS
 10
3.7517532675
 20
19.1177217675
 11
2.9378179903
 21
19.1177217675
  0
LINE
  8
0
 62
2
  6
CONTINUOUS
 10
3.0628179903
 20
21.1177217675
 11
3.0628179903
 21
20.2739717675
  0
LINE
  8
0
 62
2
  6
CONTINUOUS
 10
3.0628179903
 20
19.1177217675
 11
3.0628179903
 21
19.7270967675
  0
INSERT
  8
0
 62
2
  6
CONTINUOUS
  2
_FILLED
 10
3.0628179903
 20
21.1177217675
 41
0.1875
 42
0.1875
 43
0.1875
 50
90.0
  0
INSERT
  8
0
 62
2
  6
CONTINUOUS
  2
_FILLED
 10
3.0628179903
 20
19.1177217675
 41
0.1875
 42
0.1875
 43
0.1875
 50
270.0
  0
ENDBLK
  8
0
  6
BYBLOCK
 62
0
  0
BLOCK
  8
0
 62
2
  6
CONTINUOUS
  2
*D1
 70
65
 10
0.0
 20
0.0
  0
TEXT
  8
0
 62
2
  6
CONTINUOUS
 10
2.6898805284
 20
17.7895967675
  7
STANDARD
 40
0.15625
  1
2-1/2
 41
0.8
 72
1
 11
3.0023805284
 21
17.7895967675
  0
TEXT
  8
0
 62
2
  6
CONTINUOUS
 10
3.3148805284
 20
17.7895967675
  7
STANDARD
 40
0.15625
  1
"
 41
0.8
 72
1
 11
3.3773805284
 21
17.7895967675
  0
TEXT
  8
0
 62
2
  6
CONTINUOUS
 10
2.5648805284
 20
17.5552217675
  7
STANDARD
 40
0.15625
  1
[6,4 cm]
 41
0.8
 72
1
 11
3.0648805284
 21
17.5552217675
  0
LINE
  8
0
 62
2
  6
CONTINUOUS
 10
3.6519367538
 20
19.1177217675
 11
2.9398805284
 21
19.1177217675
  0
LINE
  8
0
 62
2
  6
CONTINUOUS
 10
12.1615341116
 20
16.6177217675
 11
2.9398805284
 21
16.6177217675
  0
LINE
  8
0
 62
2
  6
CONTINUOUS
 10
3.0648805284
 20
19.1177217675
 11
3.0648805284
 21
18.0239717675
  0
LINE
  8
0
 62
2
  6
CONTINUOUS
 10
3.0648805284
 20
16.6177217675
 11
3.0648805284
 21
17.4770967675
  0
INSERT
  8
0
 62
2
  6
CONTINUOUS
  2
_FILLED
 10
3.0648805284
 20
19.1177217675
 41
0.1875
 42
0.1875
 43
0.1875
 50
90.0
  0
INSERT
  8
0
 62
2
  6
CONTINUOUS
  2
_FILLED
 10
3.0648805284
 20
16.6177217675
 41
0.1875
 42
0.1875
 43
0.1875
 50
270.0
  0
ENDBLK
  8
0
  6
BYBLOCK
 62
0
  0
BLOCK
  8
0
 62
2
  6
CONTINUOUS
  2
*D2
 70
65
 10
0.0
 20
0.0
  0
TEXT
  8
0
 62
2
  6
CONTINUOUS
 10
13.1617036468
 20
9.0675039222
  7
STANDARD
 40
0.15625
  1
13-3/4
 41
0.8
 72
1
 11
13.5367036468
 21
9.0675039222
  0
TEXT
  8
0
 62
2
  6
CONTINUOUS
 10
13.9117036468
 20
9.0675039222
  7
STANDARD
 40
0.15625
  1
"
 41
0.8
 72
1
 11
13.9742036468
 21
9.0675039222
  0
TEXT
  8
0
 62
2
  6
CONTINUOUS
 10
13.0367036468
 20
8.8331289222
  7
STANDARD
 40
0.15625
  1
[34,9 cm]
 41
0.8
 72
1
 11
13.5992036468
 21
8.8331289222
  0
LINE
  8
0
 62
2
  6
CONTINUOUS
 10
12.6119820665
 20
16.6177218629
 11
13.7242036468
 21
16.6177218629
  0
LINE
  8
0
 62
2
  6
CONTINUOUS
 10
12.6345988106
 20
2.8665486398
 11
13.7242036468
 21
2.8665486398
  0
LINE
  8
0
 62
2
  6
CONTINUOUS
 10
13.5992036468
 20
16.6177218629
 11
13.5992036468
 21
9.3018789222
  0
LINE
  8
0
 62
2
  6
CONTINUOUS
 10
13.5992036468
 20
2.8665486398
 11
13.5992036468
 21
8.7550039222
  0
INSERT
  8
0
 62
2
  6
CONTINUOUS
  2
_FILLED
 10
13.5992036468
 20
16.6177218629
 41
0.1875
 42
0.1875
 43
0.1875
 50
90.0
  0
INSERT
  8
0
 62
2
  6
CONTINUOUS
  2
_FILLED
 10
13.5992036468
 20
2.8665486398
 41
0.1875
 42
0.1875
 43
0.1875
 50
270.0
  0
ENDBLK
  8
0
  6
BYBLOCK
 62
0
  0
BLOCK
  8
0
 62
2
  6
CONTINUOUS
  2
*D3
 70
65
 10
0.0
 20
0.0
  0
TEXT
  8
0
 62
2
  6
CONTINUOUS
 10
14.6262336903
 20
10.4812791504
  7
STANDARD
 40
0.15625
  1
16-3/4
 41
0.8
 72
1
 11
15.0012336903
 21
10.4812791504
  0
TEXT
  8
0
 62
2
  6
CONTINUOUS
 10
15.3762336903
 20
10.4812791504
  7
STANDARD
 40
0.15625
  1
"
 41
0.8
 72
1
 11
15.4387336903
 21
10.4812791504
  0
TEXT
  8
0
 62
2
  6
CONTINUOUS
 10
14.5012336903
 20
10.2469041504
  7
STANDARD
 40
0.15625
  1
[42,5 cm]
 41
0.8
 72
1
 11
15.0637336903
 21
10.2469041504
  0
LINE
  8
0
 62
2
  6
CONTINUOUS
 10
20.9353047523
 20
9.7973115765
 11
20.9353047523
 21
10.6844041504
  0
LINE
  8
0
 62
2
  6
CONTINUOUS
 10
4.1846369258
 20
9.8082115457
 11
4.1846369258
 21
10.6844041504
  0
LINE
  8
0
 62
2
  6
CONTINUOUS
 10
20.9353047523
 20
10.5594041504
 11
15.7043586903
 21
10.5594041504
  0
LINE
  8
0
 62
2
  6
CONTINUOUS
 10
4.1846369258
 20
10.5594041504
 11
14.4231086903
 21
10.5594041504
  0
INSERT
  8
0
 62
2
  6
CONTINUOUS
  2
_FILLED
 10
20.9353047523
 20
10.5594041504
 41
0.1875
 42
0.1875
 43
0.1875
  0
INSERT
  8
0
 62
2
  6
CONTINUOUS
  2
_FILLED
 10
4.1846369258
 20
10.5594041504
 41
0.1875
 42
0.1875
 43
0.1875
 50
180.0
  0
ENDBLK
  8
0
  6
BYBLOCK
 62
0
  0
ENDSEC
  0
SECTION
  2
ENTITIES
  0
SOLID
  8
DRAFT_ENT
 62
2
  6
CONTINUOUS
 10
7.9728106402
 20
14.6672563751
 11
8.0589132608
 21
14.7696446381
 12
8.1789519163
 22
14.7696446381
 13
8.1789519163
 23
14.7696446381
  0
SOLID
  8
DRAFT_ENT
 62
2
  6
CONTINUOUS
 10
8.1789519163
 20
14.7696446381
 11
8.0456372334
 21
14.6111144373
 12
7.9728106402
 22
14.6672563751
 13
7.9728106402
 23
14.6672563751
  0
SOLID
  8
DRAFT_ENT
 62
2
  6
CONTINUOUS
 10
7.9728106402
 20
14.5293859577
 11
8.0456372334
 21
14.6111144373
 12
8.0688968711
 22
14.4034485374
 13
8.0688968711
 23
14.4034485374
  0
SOLID
  8
DRAFT_ENT
 62
2
  6
CONTINUOUS
 10
8.0456372334
 20
14.6111144373
 11
8.2040796603
 21
14.4034485374
 12
8.0688968711
 22
14.4034485374
 13
8.0688968711
 23
14.4034485374
  0
SOLID
  8
DRAFT_ENT
 62
2
  6
CONTINUOUS
 10
7.9728106402
 20
14.4034485374
 11
7.8637479775
 21
14.4034335352
 12
7.9728106402
 22
14.5293859577
 13
7.9728106402
 23
14.5293859577
  0
SOLID
  8
DRAFT_ENT
 62
2
  6
CONTINUOUS
 10
8.0456372334
 20
14.6111144373
 11
7.9728106402
 21
14.5293859577
 12
7.9728106402
 22
14.6672563751
 13
7.9728106402
 23
14.6672563751
  0
SOLID
  8
DRAFT_ENT
 62
2
  6
CONTINUOUS
 10
7.9728106402
 20
14.5293859577
 11
7.8637479775
 21
14.4034335352
 12
7.9728106402
 22
14.6672563751
 13
7.9728106402
 23
14.6672563751
  0
SOLID
  8
DRAFT_ENT
 62
2
  6
CONTINUOUS
 10
7.9728106402
 20
14.6672563751
 11
7.8637479775
 21
14.4034335352
 12
7.9728106402
 22
14.7696446381
 13
7.9728106402
 23
14.7696446381
  0
SOLID
  8
DRAFT_ENT
 62
2
  6
CONTINUOUS
 10
7.8637479775
 20
14.4034335352
 11
7.8637479775
 21
14.7696446381
 12
7.9728106402
 22
14.7696446381
 13
7.9728106402
 23
14.7696446381
  0
SOLID
  8
DRAFT_ENT
 62
2
  6
CONTINUOUS
 10
8.2568323484
 20
14.7630137535
 11
8.2949255772
 21
14.7711107192
 12
8.3338698314
 22
14.7711107192
 13
8.3338698314
 23
14.7711107192
  0
SOLID
  8
DRAFT_ENT
 62
2
  6
CONTINUOUS
 10
8.3338698314
 20
14.7711107192
 11
8.3719630602
 21
14.7630137535
 12
8.2568323484
 22
14.7630137535
 13
8.2568323484
 23
14.7630137535
  0
SOLID
  8
DRAFT_ENT
 62
2
  6
CONTINUOUS
 10
8.2212550018
 20
14.7471736983
 11
8.2568323484
 21
14.7630137535
 12
8.3719630602
 22
14.7630137535
 13
8.3719630602
 23
14.7630137535
  0
SOLID
  8
DRAFT_ENT
 62
2
  6
CONTINUOUS
 10
8.3719630602
 20
14.7630137535
 11
8.4075404067
 21
14.7471736983
 12
8.2212550018
 22
14.7471736983
 13
8.2212550018
 23
14.7471736983
  0
SOLID
  8
DRAFT_ENT
 62
2
  6
CONTINUOUS
 10
8.1897484383
 20
14.72428284
 11
8.2212550018
 21
14.7471736983
 12
8.4075404067
 22
14.7471736983
 13
8.4075404067
 23
14.7471736983
  0
SOLID
  8
DRAFT_ENT
 62
2
  6
CONTINUOUS
 10
8.4075404067
 20
14.7471736983
 11
8.4390469702
 21
14.72428284
 12
8.1897484383
 22
14.72428284
 13
8.1897484383
 23
14.72428284
  0
SOLID
  8
DRAFT_ENT
 62
2
  6
CONTINUOUS
 10
8.1636896459
 20
14.695341619
 11
8.1897484383
 21
14.72428284
 12
8.4390469702
 22
14.72428284
 13
8.4390469702
 23
14.72428284
  0
SOLID
  8
DRAFT_ENT
 62
2
  6
CONTINUOUS
 10
8.4390469702
 20
14.72428284
 11
8.4651057627
 21
14.695341619
 12
8.1636896459
 22
14.695341619
 13
8.1636896459
 23
14.695341619
  0
SOLID
  8
DRAFT_ENT
 62
2
  6
CONTINUOUS
 10
8.3143977043
 20
14.6638267045
 11
8.1442175188
 21
14.6616149055
 12
8.4651057627
 22
14.695341619
 13
8.4651057627
 23
14.695341619
  0
SOLID
  8
DRAFT_ENT
 62
2
  6
CONTINUOUS
 10
8.1442175188
 20
14.6616149055
 11
8.1636896459
 21
14.695341619
 12
8.4651057627
 22
14.695341619
 13
8.4651057627
 23
14.695341619
  0
SOLID
  8
DRAFT_ENT
 62
2
  6
CONTINUOUS
 10
8.4651057627
 20
14.695341619
 11
8.4845778898
 21
14.6616149055
 12
8.3143977043
 22
14.6638267045
 13
8.3143977043
 23
14.6638267045
  0
SOLID
  8
DRAFT_ENT
 62
2
  6
CONTINUOUS
 10
8.3143977043
 20
14.6638267045
 11
8.2903002812
 21
14.6600100477
 12
8.1442175188
 22
14.6616149055
 13
8.1442175188
 23
14.6616149055
  0
SOLID
  8
DRAFT_ENT
 62
2
  6
CONTINUOUS
 10
8.3384951274
 20
14.6600100477
 11
8.3143977043
 21
14.6638267045
 12
8.4845778898
 22
14.6616149055
 13
8.4845778898
 23
14.6616149055
  0
SOLID
  8
DRAFT_ENT
 62
2
  6
CONTINUOUS
 10
8.2513098315
 20
14.6316818278
 11
8.1321830824
 21
14.6245767187
 12
8.2685616817
 22
14.648933678
 13
8.2685616817
 23
14.648933678
  0
SOLID
  8
DRAFT_ENT
 62
2
  6
CONTINUOUS
 10
8.2685616817
 20
14.648933678
 11
8.1321830824
 21
14.6245767187
 12
8.2903002812
 22
14.6600100477
 13
8.2903002812
 23
14.6600100477
  0
SOLID
  8
DRAFT_ENT
 62
2
  6
CONTINUOUS
 10
8.1321830824
 20
14.6245767187
 11
8.1442175188
 21
14.6616149055
 12
8.2903002812
 22
14.6600100477
 13
8.2903002812
 23
14.6600100477
  0
SOLID
  8
DRAFT_ENT
 62
2
  6
CONTINUOUS
 10
8.3384951274
 20
14.6600100477
 11
8.4845778898
 21
14.6616149055
 12
8.3602337269
 22
14.648933678
 13
8.3602337269
 23
14.648933678
  0
SOLID
  8
DRAFT_ENT
 62
2
  6
CONTINUOUS
 10
8.3602337269
 20
14.648933678
 11
8.4845778898
 21
14.6616149055
 12
8.3774855771
 22
14.6316818278
 13
8.3774855771
 23
14.6316818278
  0
SOLID
  8
DRAFT_ENT
 62
2
  6
CONTINUOUS
 10
8.4845778898
 20
14.6616149055
 11
8.4966123262
 21
14.6245767187
 12
8.3774855771
 22
14.6316818278
 13
8.3774855771
 23
14.6316818278
  0
SOLID
  8
DRAFT_ENT
 62
2
  6
CONTINUOUS
 10
8.2513098315
 20
14.6316818278
 11
8.2402334619
 21
14.6099432284
 12
8.1321830824
 22
14.6245767187
 13
8.1321830824
 23
14.6245767187
  0
SOLID
  8
DRAFT_ENT
 62
2
  6
CONTINUOUS
 10
8.3885619467
 20
14.6099432284
 11
8.3774855771
 21
14.6316818278
 12
8.4966123262
 22
14.6245767187
 13
8.4966123262
 23
14.6245767187
  0
SOLID
  8
DRAFT_ENT
 62
2
  6
CONTINUOUS
 10
8.1281122994
 20
14.5858458052
 11
8.1321830824
 21
14.6245767187
 12
8.2402334619
 22
14.6099432284
 13
8.2402334619
 23
14.6099432284
  0
SOLID
  8
DRAFT_ENT
 62
2
  6
CONTINUOUS
 10
8.2402334619
 20
14.6099432284
 11
8.236416805
 21
14.5858458052
 12
8.1281122994
 22
14.5858458052
 13
8.1281122994
 23
14.5858458052
  0
SOLID
  8
DRAFT_ENT
 62
2
  6
CONTINUOUS
 10
8.3885619467
 20
14.6099432284
 11
8.4966123262
 21
14.6245767187
 12
8.3923786036
 22
14.5858458052
 13
8.3923786036
 23
14.5858458052
  0
SOLID
  8
DRAFT_ENT
 62
2
  6
CONTINUOUS
 10
8.4966123262
 20
14.6245767187
 11
8.5006831092
 21
14.5858458052
 12
8.3923786036
 22
14.5858458052
 13
8.3923786036
 23
14.5858458052
  0
SOLID
  8
DRAFT_ENT
 62
2
  6
CONTINUOUS
 10
8.3885619467
 20
14.5617483821
 11
8.3923786036
 21
14.5858458052
 12
8.5006831092
 22
14.5858458052
 13
8.5006831092
 23
14.5858458052
  0
SOLID
  8
DRAFT_ENT
 62
2
  6
CONTINUOUS
 10
8.2402334619
 20
14.5617483821
 11
8.1321830824
 21
14.5471148917
 12
8.236416805
 22
14.5858458052
 13
8.236416805
 23
14.5858458052
  0
SOLID
  8
DRAFT_ENT
 62
2
  6
CONTINUOUS
 10
8.1321830824
 20
14.5471148917
 11
8.1281122994
 21
14.5858458052
 12
8.236416805
 22
14.5858458052
 13
8.236416805
 23
14.5858458052
  0
SOLID
  8
DRAFT_ENT
 62
2
  6
CONTINUOUS
 10
8.5006831092
 20
14.5858458052
 11
8.4966123262
 21
14.5471148917
 12
8.3885619467
 22
14.5617483821
 13
8.3885619467
 23
14.5617483821
  0
SOLID
  8
DRAFT_ENT
 62
2
  6
CONTINUOUS
 10
8.2402334619
 20
14.5617483821
 11
8.2513098315
 21
14.5400097827
 12
8.1321830824
 22
14.5471148917
 13
8.1321830824
 23
14.5471148917
  0
SOLID
  8
DRAFT_ENT
 62
2
  6
CONTINUOUS
 10
8.3774855771
 20
14.5400097827
 11
8.3885619467
 21
14.5617483821
 12
8.4966123262
 22
14.5471148917
 13
8.4966123262
 23
14.5471148917
  0
SOLID
  8
DRAFT_ENT
 62
2
  6
CONTINUOUS
 10
8.2903002812
 20
14.5116815628
 11
8.1442175188
 21
14.510076705
 12
8.2685616817
 22
14.5227579325
 13
8.2685616817
 23
14.5227579325
  0
SOLID
  8
DRAFT_ENT
 62
2
  6
CONTINUOUS
 10
8.2685616817
 20
14.5227579325
 11
8.1442175188
 21
14.510076705
 12
8.2513098315
 22
14.5400097827
 13
8.2513098315
 23
14.5400097827
  0
SOLID
  8
DRAFT_ENT
 62
2
  6
CONTINUOUS
 10
8.1442175188
 20
14.510076705
 11
8.1321830824
 21
14.5471148917
 12
8.2513098315
 22
14.5400097827
 13
8.2513098315
 23
14.5400097827
  0
SOLID
  8
DRAFT_ENT
 62
2
  6
CONTINUOUS
 10
8.3774855771
 20
14.5400097827
 11
8.4966123262
 21
14.5471148917
 12
8.3602337269
 22
14.5227579325
 13
8.3602337269
 23
14.5227579325
  0
SOLID
  8
DRAFT_ENT
 62
2
  6
CONTINUOUS
 10
8.3602337269
 20
14.5227579325
 11
8.4966123262
 21
14.5471148917
 12
8.3384951274
 22
14.5116815628
 13
8.3384951274
 23
14.5116815628
  0
SOLID
  8
DRAFT_ENT
 62
2
  6
CONTINUOUS
 10
8.4966123262
 20
14.5471148917
 11
8.4845778898
 21
14.510076705
 12
8.3384951274
 22
14.5116815628
 13
8.3384951274
 23
14.5116815628
  0
SOLID
  8
DRAFT_ENT
 62
2
  6
CONTINUOUS
 10
8.2903002812
 20
14.5116815628
 11
8.3143977043
 21
14.5078649059
 12
8.1442175188
 22
14.510076705
 13
8.1442175188
 23
14.510076705
  0
SOLID
  8
DRAFT_ENT
 62
2
  6
CONTINUOUS
 10
8.3143977043
 20
14.5078649059
 11
8.3384951274
 21
14.5116815628
 12
8.4845778898
 22
14.510076705
 13
8.4845778898
 23
14.510076705
  0
SOLID
  8
DRAFT_ENT
 62
2
  6
CONTINUOUS
 10
8.1636896459
 20
14.4763499915
 11
8.1442175188
 21
14.510076705
 12
8.3143977043
 22
14.5078649059
 13
8.3143977043
 23
14.5078649059
  0
SOLID
  8
DRAFT_ENT
 62
2
  6
CONTINUOUS
 10
8.3143977043
 20
14.5078649059
 11
8.4845778898
 21
14.510076705
 12
8.1636896459
 22
14.4763499915
 13
8.1636896459
 23
14.4763499915
  0
SOLID
  8
DRAFT_ENT
 62
2
  6
CONTINUOUS
 10
8.4845778898
 20
14.510076705
 11
8.4651057627
 21
14.4763499915
 12
8.1636896459
 22
14.4763499915
 13
8.1636896459
 23
14.4763499915
  0
SOLID
  8
DRAFT_ENT
 62
2
  6
CONTINUOUS
 10
8.1897484383
 20
14.4474087705
 11
8.1636896459
 21
14.4763499915
 12
8.4651057627
 22
14.4763499915
 13
8.4651057627
 23
14.4763499915
  0
SOLID
  8
DRAFT_ENT
 62
2
  6
CONTINUOUS
 10
8.4651057627
 20
14.4763499915
 11
8.4390469702
 21
14.4474087705
 12
8.1897484383
 22
14.4474087705
 13
8.1897484383
 23
14.4474087705
  0
SOLID
  8
DRAFT_ENT
 62
2
  6
CONTINUOUS
 10
8.2212550018
 20
14.4245179122
 11
8.1897484383
 21
14.4474087705
 12
8.4390469702
 22
14.4474087705
 13
8.4390469702
 23
14.4474087705
  0
SOLID
  8
DRAFT_ENT
 62
2
  6
CONTINUOUS
 10
8.4390469702
 20
14.4474087705
 11
8.4075404067
 21
14.4245179122
 12
8.2212550018
 22
14.4245179122
 13
8.2212550018
 23
14.4245179122
  0
SOLID
  8
DRAFT_ENT
 62
2
  6
CONTINUOUS
 10
8.2568323484
 20
14.408677857
 11
8.2212550018
 21
14.4245179122
 12
8.4075404067
 22
14.4245179122
 13
8.4075404067
 23
14.4245179122
  0
SOLID
  8
DRAFT_ENT
 62
2
  6
CONTINUOUS
 10
8.4075404067
 20
14.4245179122
 11
8.3719630602
 21
14.408677857
 12
8.2568323484
 22
14.408677857
 13
8.2568323484
 23
14.408677857
  0
SOLID
  8
DRAFT_ENT
 62
2
  6
CONTINUOUS
 10
8.2949255772
 20
14.4005808913
 11
8.2568323484
 21
14.408677857
 12
8.3719630602
 22
14.408677857
 13
8.3719630602
 23
14.408677857
  0
SOLID
  8
DRAFT_ENT
 62
2
  6
CONTINUOUS
 10
8.3719630602
 20
14.408677857
 11
8.3338698314
 21
14.4005808913
 12
8.2949255772
 22
14.4005808913
 13
8.2949255772
 23
14.4005808913
  0
SOLID
  8
DRAFT_ENT
 62
2
  6
CONTINUOUS
 10
8.706836735
 20
14.6319047621
 11
8.706836735
 21
14.7696446381
 12
8.8097953046
 22
14.7696446381
 13
8.8097953046
 23
14.7696446381
  0
SOLID
  8
DRAFT_ENT
 62
2
  6
CONTINUOUS
 10
8.706836735
 20
14.6319047621
 11
8.6143387104
 21
14.5461514458
 12
8.6143387104
 22
14.6319047621
 13
8.6143387104
 23
14.6319047621
  0
SOLID
  8
DRAFT_ENT
 62
2
  6
CONTINUOUS
 10
8.6143387104
 20
14.5461514458
 11
8.5113801409
 21
14.4034485374
 12
8.6143387104
 22
14.6319047621
 13
8.6143387104
 23
14.6319047621
  0
SOLID
  8
DRAFT_ENT
 62
2
  6
CONTINUOUS
 10
8.6143387104
 20
14.6319047621
 11
8.5113801409
 21
14.4034485374
 12
8.6143387104
 22
14.7696446381
 13
8.6143387104
 23
14.7696446381
  0
SOLID
  8
DRAFT_ENT
 62
2
  6
CONTINUOUS
 10
8.5113801409
 20
14.4034485374
 11
8.5113801409
 21
14.7696446381
 12
8.6143387104
 22
14.7696446381
 13
8.6143387104
 23
14.7696446381
  0
SOLID
  8
DRAFT_ENT
 62
2
  6
CONTINUOUS
 10
8.6143387104
 20
14.5461514458
 11
8.6143387104
 21
14.4034485374
 12
8.5113801409
 22
14.4034485374
 13
8.5113801409
 23
14.4034485374
  0
SOLID
  8
DRAFT_ENT
 62
2
  6
CONTINUOUS
 10
8.6143387104
 20
14.5461514458
 11
8.706836735
 21
14.6319047621
 12
8.706836735
 22
14.5461514458
 13
8.706836735
 23
14.5461514458
  0
SOLID
  8
DRAFT_ENT
 62
2
  6
CONTINUOUS
 10
8.706836735
 20
14.6319047621
 11
8.8097953046
 21
14.7696446381
 12
8.706836735
 22
14.5461514458
 13
8.706836735
 23
14.5461514458
  0
SOLID
  8
DRAFT_ENT
 62
2
  6
CONTINUOUS
 10
8.706836735
 20
14.5461514458
 11
8.8097953046
 21
14.7696446381
 12
8.706836735
 22
14.4034485374
 13
8.706836735
 23
14.4034485374
  0
SOLID
  8
DRAFT_ENT
 62
2
  6
CONTINUOUS
 10
8.8097953046
 20
14.7696446381
 11
8.8097953046
 21
14.4034485374
 12
8.706836735
 22
14.4034485374
 13
8.706836735
 23
14.4034485374
  0
SOLID
  8
DRAFT_ENT
 62
2
  6
CONTINUOUS
 10
9.0334047078
 20
14.4917152775
 11
8.8379483376
 21
14.4034485374
 12
8.9317271447
 22
14.4917152775
 13
8.9317271447
 23
14.4917152775
  0
SOLID
  8
DRAFT_ENT
 62
2
  6
CONTINUOUS
 10
8.9317271447
 20
14.4917152775
 11
8.8379483376
 21
14.4034485374
 12
8.9317271447
 22
14.7696446381
 13
8.9317271447
 23
14.7696446381
  0
SOLID
  8
DRAFT_ENT
 62
2
  6
CONTINUOUS
 10
8.8379483376
 20
14.4034485374
 11
8.8379483376
 21
14.7696446381
 12
8.9317271447
 22
14.7696446381
 13
8.9317271447
 23
14.7696446381
  0
SOLID
  8
DRAFT_ENT
 62
2
  6
CONTINUOUS
 10
8.8379483376
 20
14.4034485374
 11
9.0334047078
 21
14.4917152775
 12
8.9317271447
 22
14.4034485374
 13
8.9317271447
 23
14.4034485374
  0
SOLID
  8
DRAFT_ENT
 62
2
  6
CONTINUOUS
 10
9.0334047078
 20
14.4917152775
 11
9.0334047078
 21
14.4034485374
 12
8.9317271447
 22
14.4034485374
 13
8.9317271447
 23
14.4034485374
  0
SOLID
  8
DRAFT_ENT
 62
2
  6
CONTINUOUS
 10
9.2448121944
 20
14.7696446381
 11
9.2448121944
 21
14.6804199981
 12
9.1505262243
 22
14.6804199981
 13
9.1505262243
 23
14.6804199981
  0
SOLID
  8
DRAFT_ENT
 62
2
  6
CONTINUOUS
 10
9.2448121944
 20
14.6319047621
 11
9.2448121944
 21
14.5416662439
 12
9.1505262243
 22
14.5416662439
 13
9.1505262243
 23
14.5416662439
  0
SOLID
  8
DRAFT_ENT
 62
2
  6
CONTINUOUS
 10
9.2448121944
 20
14.4917152775
 11
9.051622048
 21
14.4034485374
 12
9.1505262243
 22
14.4917152775
 13
9.1505262243
 23
14.4917152775
  0
SOLID
  8
DRAFT_ENT
 62
2
  6
CONTINUOUS
 10
9.1505262243
 20
14.4917152775
 11
9.051622048
 21
14.4034485374
 12
9.1505262243
 22
14.5416662439
 13
9.1505262243
 23
14.5416662439
  0
SOLID
  8
DRAFT_ENT
 62
2
  6
CONTINUOUS
 10
9.2448121944
 20
14.6319047621
 11
9.1505262243
 21
14.5416662439
 12
9.1505262243
 22
14.6319047621
 13
9.1505262243
 23
14.6319047621
  0
SOLID
  8
DRAFT_ENT
 62
2
  6
CONTINUOUS
 10
9.1505262243
 20
14.5416662439
 11
9.051622048
 21
14.4034485374
 12
9.1505262243
 22
14.6319047621
 13
9.1505262243
 23
14.6319047621
  0
SOLID
  8
DRAFT_ENT
 62
2
  6
CONTINUOUS
 10
9.1505262243
 20
14.6319047621
 11
9.051622048
 21
14.4034485374
 12
9.1505262243
 22
14.6804199981
 13
9.1505262243
 23
14.6804199981
  0
SOLID
  8
DRAFT_ENT
 62
2
  6
CONTINUOUS
 10
9.2448121944
 20
14.7696446381
 11
9.1505262243
 21
14.6804199981
 12
9.1594039281
 22
14.7696446381
 13
9.1594039281
 23
14.7696446381
  0
SOLID
  8
DRAFT_ENT
 62
2
  6
CONTINUOUS
 10
9.1505262243
 20
14.6804199981
 11
9.051622048
 21
14.4034485374
 12
9.1594039281
 22
14.7696446381
 13
9.1594039281
 23
14.7696446381
  0
SOLID
  8
DRAFT_ENT
 62
2
  6
CONTINUOUS
 10
9.051622048
 20
14.4034485374
 11
9.051622048
 21
14.7696446381
 12
9.1594039281
 22
14.7696446381
 13
9.1594039281
 23
14.7696446381
  0
SOLID
  8
DRAFT_ENT
 62
2
  6
CONTINUOUS
 10
9.2448121944
 20
14.4917152775
 11
9.2448121944
 21
14.4034485374
 12
9.051622048
 22
14.4034485374
 13
9.051622048
 23
14.4034485374
  0
SOLID
  8
DRAFT_ENT
 62
2
  6
CONTINUOUS
 10
9.4187921747
 20
14.7696490792
 11
9.44812532
 21
14.7656426731
 12
9.272824834
 22
14.7696446381
 13
9.272824834
 23
14.7696446381
  0
SOLID
  8
DRAFT_ENT
 62
2
  6
CONTINUOUS
 10
9.3669847411
 20
14.6805328503
 11
9.5256971095
 21
14.6834261856
 12
9.4019409236
 22
14.6805328503
 13
9.4019409236
 23
14.6805328503
  0
SOLID
  8
DRAFT_ENT
 62
2
  6
CONTINUOUS
 10
9.4019409236
 20
14.6805328503
 11
9.5256971095
 21
14.6834261856
 12
9.41676754
 22
14.6770739944
 13
9.41676754
 23
14.6770739944
  0
SOLID
  8
DRAFT_ENT
 62
2
  6
CONTINUOUS
 10
9.41676754
 20
14.6770739944
 11
9.5256971095
 21
14.6834261856
 12
9.4285331595
 22
14.6674115707
 13
9.4285331595
 23
14.6674115707
  0
SOLID
  8
DRAFT_ENT
 62
2
  6
CONTINUOUS
 10
9.5256971095
 20
14.6834261856
 11
9.527992889
 21
14.6539098494
 12
9.4285331595
 22
14.6674115707
 13
9.4285331595
 23
14.6674115707
  0
SOLID
  8
DRAFT_ENT
 62
2
  6
CONTINUOUS
 10
9.4348087473
 20
14.6535404052
 11
9.4285331595
 21
14.6674115707
 12
9.527992889
 22
14.6539098494
 13
9.527992889
 23
14.6539098494
  0
SOLID
  8
DRAFT_ENT
 62
2
  6
CONTINUOUS
 10
9.4348087473
 20
14.6535404052
 11
9.527992889
 21
14.6539098494
 12
9.4342986961
 22
14.6383242268
 13
9.4342986961
 23
14.6383242268
  0
SOLID
  8
DRAFT_ENT
 62
2
  6
CONTINUOUS
 10
9.4342986961
 20
14.6383242268
 11
9.527992889
 21
14.6539098494
 12
9.4271083071
 22
14.6249044451
 13
9.4271083071
 23
14.6249044451
  0
SOLID
  8
DRAFT_ENT
 62
2
  6
CONTINUOUS
 10
9.527992889
 20
14.6539098494
 11
9.5222893856
 21
14.6248589501
 12
9.4271083071
 22
14.6249044451
 13
9.4271083071
 23
14.6249044451
  0
SOLID
  8
DRAFT_ENT
 62
2
  6
CONTINUOUS
 10
9.4147220498
 20
14.6160516
 11
9.4271083071
 21
14.6249044451
 12
9.5222893856
 22
14.6248589501
 13
9.5222893856
 23
14.6248589501
  0
SOLID
  8
DRAFT_ENT
 62
2
  6
CONTINUOUS
 10
9.4147220498
 20
14.6160516
 11
9.5222893856
 21
14.6248589501
 12
9.3996970912
 22
14.6135933785
 13
9.3996970912
 23
14.6135933785
  0
SOLID
  8
DRAFT_ENT
 62
2
  6
CONTINUOUS
 10
9.5222893856
 20
14.6248589501
 11
9.5090043983
 21
14.5984015539
 12
9.3996970912
 22
14.6135933785
 13
9.3996970912
 23
14.6135933785
  0
SOLID
  8
DRAFT_ENT
 62
2
  6
CONTINUOUS
 10
9.4640667132
 20
14.5606876557
 11
9.3669847411
 21
14.5265462927
 12
9.4891110925
 22
14.5764757451
 13
9.4891110925
 23
14.5764757451
  0
SOLID
  8
DRAFT_ENT
 62
2
  6
CONTINUOUS
 10
9.4891110925
 20
14.5764757451
 11
9.3669847411
 21
14.5265462927
 12
9.5090043983
 22
14.5984015539
 13
9.5090043983
 23
14.5984015539
  0
SOLID
  8
DRAFT_ENT
 62
2
  6
CONTINUOUS
 10
9.5090043983
 20
14.5984015539
 11
9.3669847411
 21
14.5265462927
 12
9.3996970912
 22
14.6135933785
 13
9.3996970912
 23
14.6135933785
  0
SOLID
  8
DRAFT_ENT
 62
2
  6
CONTINUOUS
 10
9.3669847411
 20
14.5265462927
 11
9.272824834
 21
14.4034485374
 12
9.3996970912
 22
14.6135933785
 13
9.3996970912
 23
14.6135933785
  0
SOLID
  8
DRAFT_ENT
 62
2
  6
CONTINUOUS
 10
9.3996970912
 20
14.6135933785
 11
9.272824834
 21
14.4034485374
 12
9.3669847411
 22
14.6135933785
 13
9.3669847411
 23
14.6135933785
  0
SOLID
  8
DRAFT_ENT
 62
2
  6
CONTINUOUS
 10
9.3669847411
 20
14.6135933785
 11
9.272824834
 21
14.4034485374
 12
9.3669847411
 22
14.6805328503
 13
9.3669847411
 23
14.6805328503
  0
SOLID
  8
DRAFT_ENT
 62
2
  6
CONTINUOUS
 10
9.5256971095
 20
14.6834261856
 11
9.3669847411
 21
14.6805328503
 12
9.51557022
 22
14.7112457976
 13
9.51557022
 23
14.7112457976
  0
SOLID
  8
DRAFT_ENT
 62
2
  6
CONTINUOUS
 10
9.51557022
 20
14.7112457976
 11
9.3669847411
 21
14.6805328503
 12
9.4983540458
 22
14.7353308146
 13
9.4983540458
 23
14.7353308146
  0
SOLID
  8
DRAFT_ENT
 62
2
  6
CONTINUOUS
 10
9.4983540458
 20
14.7353308146
 11
9.3669847411
 21
14.6805328503
 12
9.4753097237
 22
14.7539169364
 13
9.4753097237
 23
14.7539169364
  0
SOLID
  8
DRAFT_ENT
 62
2
  6
CONTINUOUS
 10
9.4753097237
 20
14.7539169364
 11
9.3669847411
 21
14.6805328503
 12
9.44812532
 22
14.7656426731
 13
9.44812532
 23
14.7656426731
  0
SOLID
  8
DRAFT_ENT
 62
2
  6
CONTINUOUS
 10
9.44812532
 20
14.7656426731
 11
9.3669847411
 21
14.6805328503
 12
9.272824834
 22
14.7696446381
 13
9.272824834
 23
14.7696446381
  0
SOLID
  8
DRAFT_ENT
 62
2
  6
CONTINUOUS
 10
9.272824834
 20
14.4034485374
 11
9.272824834
 21
14.7696446381
 12
9.3669847411
 22
14.6805328503
 13
9.3669847411
 23
14.6805328503
  0
SOLID
  8
DRAFT_ENT
 62
2
  6
CONTINUOUS
 10
9.3669847411
 20
14.5265462927
 11
9.3669847411
 21
14.4034485374
 12
9.272824834
 22
14.4034485374
 13
9.272824834
 23
14.4034485374
  0
SOLID
  8
DRAFT_ENT
 62
2
  6
CONTINUOUS
 10
9.3669847411
 20
14.5265462927
 11
9.4640667132
 21
14.5606876557
 12
9.4449993992
 22
14.4034485374
 13
9.4449993992
 23
14.4034485374
  0
SOLID
  8
DRAFT_ENT
 62
2
  6
CONTINUOUS
 10
9.4640667132
 20
14.5606876557
 11
9.563718759
 21
14.4034485374
 12
9.4449993992
 22
14.4034485374
 13
9.4449993992
 23
14.4034485374
  0
SOLID
  8
0
 62
2
  6
CONTINUOUS
 10
16.5912105397
 20
8.1645551739
 11
16.5840263896
 21
8.167203767
 12
16.934775761
 22
8.167203767
 13
16.934775761
 23
8.167203767
  0
SOLID
  8
0
 62
2
  6
CONTINUOUS
 10
16.934775761
 20
8.167203767
 11
16.9360173881
 21
8.1643832077
 12
16.5912105397
 22
8.1645551739
 13
16.5912105397
 23
8.1645551739
  0
SOLID
  8
0
 62
2
  6
CONTINUOUS
 10
16.937032327
 20
8.1615853876
 11
16.5980832764
 21
8.1611798612
 12
16.9360173881
 22
8.1643832077
 13
16.9360173881
 23
8.1643832077
  0
SOLID
  8
0
 62
2
  6
CONTINUOUS
 10
16.5980832764
 20
8.1611798612
 11
16.5912105397
 21
8.1645551739
 12
16.9360173881
 22
8.1643832077
 13
16.9360173881
 23
8.1643832077
  0
SOLID
  8
0
 62
2
  6
CONTINUOUS
 10
16.937032327
 20
8.1615853876
 11
16.9378205776
 21
8.1588103423
 12
16.5980832764
 22
8.1611798612
 13
16.5980832764
 23
8.1611798612
  0
SOLID
  8
0
 62
2
  6
CONTINUOUS
 10
16.6045713268
 20
8.15711385
 11
16.5980832764
 21
8.1611798612
 12
16.9378205776
 22
8.1588103423
 13
16.9378205776
 23
8.1588103423
  0
SOLID
  8
0
 62
2
  6
CONTINUOUS
 10
16.9378205776
 20
8.1588103423
 11
16.9383821398
 21
8.1560580718
 12
16.6045713268
 22
8.15711385
 13
16.6045713268
 23
8.15711385
  0
SOLID
  8
0
 62
2
  6
CONTINUOUS
 10
16.9387170137
 20
8.1533285761
 11
16.6106055193
 21
8.1524004895
 12
16.9383821398
 22
8.1560580718
 13
16.9383821398
 23
8.1560580718
  0
SOLID
  8
0
 62
2
  6
CONTINUOUS
 10
16.6106055193
 20
8.1524004895
 11
16.6045713268
 21
8.15711385
 12
16.9383821398
 22
8.1560580718
 13
16.9383821398
 23
8.1560580718
  0
SOLID
  8
0
 62
2
  6
CONTINUOUS
 10
16.9387170137
 20
8.1533285761
 11
16.9388251993
 21
8.1506218552
 12
16.6106055193
 22
8.1524004895
 13
16.6106055193
 23
8.1524004895
  0
SOLID
  8
0
 62
2
  6
CONTINUOUS
 10
16.9387066965
 20
8.1479379091
 11
16.616121521
 21
8.1470900309
 12
16.9388251993
 22
8.1506218552
 13
16.9388251993
 23
8.1506218552
  0
SOLID
  8
0
 62
2
  6
CONTINUOUS
 10
16.616121521
 20
8.1470900309
 11
16.6106055193
 21
8.1524004895
 12
16.9388251993
 22
8.1506218552
 13
16.9388251993
 23
8.1506218552
  0
SOLID
  8
0
 62
2
  6
CONTINUOUS
 10
16.9387066965
 20
8.1479379091
 11
16.9383615055
 21
8.1452767377
 12
16.616121521
 22
8.1470900309
 13
16.616121521
 23
8.1470900309
  0
SOLID
  8
0
 62
2
  6
CONTINUOUS
 10
16.9377896261
 20
8.1426383412
 11
16.6210605236
 21
8.1412390908
 12
16.9383615055
 22
8.1452767377
 13
16.9383615055
 23
8.1452767377
  0
SOLID
  8
0
 62
2
  6
CONTINUOUS
 10
16.6210605236
 20
8.1412390908
 11
16.616121521
 21
8.1470900309
 12
16.9383615055
 22
8.1452767377
 13
16.9383615055
 23
8.1452767377
  0
SOLID
  8
0
 62
2
  6
CONTINUOUS
 10
16.9377896261
 20
8.1426383412
 11
16.9370658015
 21
8.1402384684
 12
16.6210605236
 22
8.1412390908
 13
16.6210605236
 23
8.1412390908
  0
SOLID
  8
0
 62
2
  6
CONTINUOUS
 10
16.9350460627
 20
8.135496199
 11
16.6253698705
 21
8.1349100486
 12
16.9361512803
 22
8.1378577543
 13
16.9361512803
 23
8.1378577543
  0
SOLID
  8
0
 62
2
  6
CONTINUOUS
 10
16.9361512803
 20
8.1378577543
 11
16.6253698705
 21
8.1349100486
 12
16.9370658015
 22
8.1402384684
 13
16.9370658015
 23
8.1402384684
  0
SOLID
  8
0
 62
2
  6
CONTINUOUS
 10
16.6253698705
 20
8.1349100486
 11
16.6210605236
 21
8.1412390908
 12
16.9370658015
 22
8.1402384684
 13
16.9370658015
 23
8.1402384684
  0
SOLID
  8
0
 62
2
  6
CONTINUOUS
 10
16.6253698705
 20
8.1349100486
 11
16.9350460627
 21
8.135496199
 12
16.7355621975
 22
8.1331537804
 13
16.7355621975
 23
8.1331537804
  0
SOLID
  8
0
 62
2
  6
CONTINUOUS
 10
16.9350460627
 20
8.135496199
 11
16.9337501487
 21
8.1331537804
 12
16.7355621975
 22
8.1331537804
 13
16.7355621975
 23
8.1331537804
  0
SOLID
  8
0
 62
2
  6
CONTINUOUS
 10
16.7052713867
 20
8.1292678274
 11
16.6290036181
 21
8.1281703806
 12
16.7152458105
 22
8.1314214837
 13
16.7152458105
 23
8.1314214837
  0
SOLID
  8
0
 62
2
  6
CONTINUOUS
 10
16.7152458105
 20
8.1314214837
 11
16.6290036181
 21
8.1281703806
 12
16.7253671435
 22
8.1327199385
 13
16.7253671435
 23
8.1327199385
  0
SOLID
  8
0
 62
2
  6
CONTINUOUS
 10
16.7355621975
 20
8.1331537804
 11
16.7253671435
 21
8.1327199385
 12
16.6253698705
 22
8.1349100486
 13
16.6253698705
 23
8.1349100486
  0
SOLID
  8
0
 62
2
  6
CONTINUOUS
 10
16.6290036181
 20
8.1281703806
 11
16.6253698705
 21
8.1349100486
 12
16.7253671435
 22
8.1327199385
 13
16.7253671435
 23
8.1327199385
  0
SOLID
  8
0
 62
2
  6
CONTINUOUS
 10
16.7052713867
 20
8.1292678274
 11
16.6955159978
 21
8.1262745428
 12
16.6290036181
 22
8.1281703806
 13
16.6290036181
 23
8.1281703806
  0
SOLID
  8
0
 62
2
  6
CONTINUOUS
 10
16.6860501856
 20
8.1224632746
 11
16.6319230254
 21
8.1210919411
 12
16.6955159978
 22
8.1262745428
 13
16.6955159978
 23
8.1262745428
  0
SOLID
  8
0
 62
2
  6
CONTINUOUS
 10
16.6319230254
 20
8.1210919411
 11
16.6290036181
 21
8.1281703806
 12
16.6955159978
 22
8.1262745428
 13
16.6955159978
 23
8.1262745428
  0
SOLID
  8
0
 62
2
  6
CONTINUOUS
 10
16.6860501856
 20
8.1224632746
 11
16.6769423981
 21
8.1178615822
 12
16.6319230254
 22
8.1210919411
 13
16.6319230254
 23
8.1210919411
  0
SOLID
  8
0
 62
2
  6
CONTINUOUS
 10
16.6340969677
 20
8.113750196
 11
16.6319230254
 21
8.1210919411
 12
16.6769423981
 22
8.1178615822
 13
16.6769423981
 23
8.1178615822
  0
SOLID
  8
0
 62
2
  6
CONTINUOUS
 10
16.6769423981
 20
8.1178615822
 11
16.6682584943
 21
8.1125027408
 12
16.6340969677
 22
8.113750196
 13
16.6340969677
 23
8.113750196
  0
SOLID
  8
0
 62
2
  6
CONTINUOUS
 10
16.6600612681
 20
8.1064255006
 11
16.6355022676
 21
8.1062234186
 12
16.6682584943
 22
8.1125027408
 13
16.6682584943
 23
8.1125027408
  0
SOLID
  8
0
 62
2
  6
CONTINUOUS
 10
16.6355022676
 20
8.1062234186
 11
16.6340969677
 21
8.113750196
 12
16.6682584943
 22
8.1125027408
 13
16.6682584943
 23
8.1125027408
  0
SOLID
  8
0
 62
2
  6
CONTINUOUS
 10
16.6600612681
 20
8.1064255006
 11
16.6524099942
 21
8.0996738065
 12
16.6355022676
 22
8.1062234186
 13
16.6355022676
 23
8.1062234186
  0
SOLID
  8
0
 62
2
  6
CONTINUOUS
 10
16.6361239428
 20
8.0985918548
 11
16.6355022676
 21
8.1062234186
 12
16.6524099942
 22
8.0996738065
 13
16.6524099942
 23
8.0996738065
  0
SOLID
  8
0
 62
2
  6
CONTINUOUS
 10
16.6524099942
 20
8.0996738065
 11
16.6453599995
 21
8.0922964804
 12
16.6361239428
 22
8.0985918548
 13
16.6361239428
 23
8.0985918548
  0
SOLID
  8
0
 62
2
  6
CONTINUOUS
 10
16.6359553651
 20
8.0909368677
 11
16.6361239428
 21
8.0985918548
 12
16.6453599995
 22
8.0922964804
 13
16.6453599995
 23
8.0922964804
  0
SOLID
  8
0
 62
2
  6
CONTINUOUS
 10
16.6453599995
 20
8.0922964804
 11
16.6389622629
 21
8.0843468683
 12
16.6359553651
 22
8.0909368677
 13
16.6359553651
 23
8.0909368677
  0
SOLID
  8
0
 62
2
  6
CONTINUOUS
 10
16.6349983321
 20
8.0833400701
 11
16.6359553651
 21
8.0909368677
 12
16.6389622629
 22
8.0843468683
 13
16.6389622629
 23
8.0843468683
  0
SOLID
  8
0
 62
2
  6
CONTINUOUS
 10
16.6389622629
 20
8.0843468683
 11
16.6332630469
 21
8.0758824544
 12
16.6349983321
 22
8.0833400701
 13
16.6349983321
 23
8.0833400701
  0
DIMENSION
  8
0
 62
2
  6
CONTINUOUS
  2
*D0
 10
3.0628179903
 20
19.1177217675
 11
2.5940679903
 21
20.0005342675
 70
128
 13
3.7018450106
 23
21.1177217675
 14
3.7517532675
 24
19.1177217675
 50
270.0
  0
DIMENSION
  8
0
 62
2
  6
CONTINUOUS
  2
*D1
 10
3.0648805284
 20
16.6177217675
 11
2.7211305284
 21
17.7505342675
 70
128
 13
3.6519367538
 23
19.1177217675
 14
12.1615341116
 24
16.6177217675
 50
270.0
  0
DIMENSION
  8
0
 62
2
  6
CONTINUOUS
  2
*D2
 10
13.5992036468
 20
2.8665486398
 11
13.2242036468
 21
9.0284414222
 70
128
 13
12.6119820665
 23
16.6177218629
 14
12.6345988106
 24
2.8665486398
 50
270.0
  0
DIMENSION
  8
0
 62
2
  6
CONTINUOUS
  2
*D3
 10
4.1846369258
 20
10.5594041504
 11
14.6887336903
 21
10.4422166504
 70
128
 13
20.9353047523
 23
9.7973115765
 14
4.1846369258
 24
9.8082115457
 50
180.0
  0
TEXT
  8
NOTE
 62
2
  6
CONTINUOUS
 10
7.8784750808
 20
14.1004035678
  7
STANDARD
 40
0.15625
  1
CUT-OUT TEMPLATE
 41
0.8
 72
0
  0
TEXT
  8
NOTE
 62
2
  6
CONTINUOUS
 10
7.8784750808
 20
13.8660285678
  7
STANDARD
 40
0.15625
  1
UNDERCOUNTER LAVATORY
 41
0.8
 72
0
  0
TEXT
  8
NOTE
 62
2
  6
CONTINUOUS
 10
7.8784750808
 20
13.6316535678
  7
STANDARD
 40
0.15625
  1
GABARIT DE DÉCOUPE
 41
0.8
 72
0
  0
TEXT
  8
NOTE
 62
2
  6
CONTINUOUS
 10
7.8784750808
 20
13.3972785678
  7
STANDARD
 40
0.15625
  1
LAVABO SOUS COMPTOIR 
 41
0.8
 72
0
  0
TEXT
  8
NOTE
 62
2
  6
CONTINUOUS
 10
7.8784750808
 20
13.1629035678
  7
STANDARD
 40
0.15625
  1
PLANTILLA DE CORTE
 41
0.8
 72
0
  0
TEXT
  8
NOTE
 62
2
  6
CONTINUOUS
 10
7.8784750808
 20
12.9285285678
  7
STANDARD
 40
0.15625
  1
LAVABO DE INSTALACIÓN BAJO CUBIERTA 
 41
0.8
 72
0
  0
TEXT
  8
NOTE
 62
2
  6
CONTINUOUS
 10
15.9516160889
 20
20.8015572262
  7
STANDARD
 40
0.15625
  1
FINISHED WALL / BACK SPLASH
 41
0.8
 72
0
  0
TEXT
  8
NOTE
 62
2
  6
CONTINUOUS
 10
15.9516160889
 20
20.5671822262
  7
STANDARD
 40
0.15625
  1
MUR FINI/DOSSERET
 41
0.8
 72
0
  0
TEXT
  8
NOTE
 62
2
  6
CONTINUOUS
 10
15.9516160889
 20
20.3328072262
  7
STANDARD
 40
0.15625
  1
PARED ACABADA/PROTECTOR CONTRA SALPICADURAS
 41
0.8
 72
0
  0
TEXT
  8
NOTE
 62
2
  6
CONTINUOUS
 10
5.7643286584
 20
20.5667760633
  7
STANDARD
 40
0.15625
  1
NOTE: BEFORE CUTTING COUNTERTOP ALLOW
 41
0.8
 72
0
  0
TEXT
  8
NOTE
 62
2
  6
CONTINUOUS
 10
5.7643286584
 20
20.3324010633
  7
STANDARD
 40
0.15625
  1
      FOR HANDLE CLEARANCE
 41
0.8
 72
0
  0
TEXT
  8
NOTE
 62
2
  6
CONTINUOUS
 10
5.7643286584
 20
20.0980260633
  7
STANDARD
 40
0.15625
  1
REMARQUE: AVANT LA DÉCOUPE DU COMPTOIR
 41
0.8
 72
0
  0
TEXT
  8
NOTE
 62
2
  6
CONTINUOUS
 10
5.7643286584
 20
19.8636510633
  7
STANDARD
 40
0.15625
  1
      PRÉVOIR UN ESPACEMENT POUR LA POIGNÉE
 41
0.8
 72
0
  0
TEXT
  8
NOTE
 62
2
  6
CONTINUOUS
 10
5.7643286584
 20
19.6292760633
  7
STANDARD
 40
0.15625
  1
NOTA: ANTES DE CORTAR LA CUBIERTA, TOME EN
 41
0.8
 72
0
  0
TEXT
  8
NOTE
 62
2
  6
CONTINUOUS
 10
5.7643286584
 20
19.3949010633
  7
STANDARD
 40
0.15625
  1
      CUENTA EL ESPACIO LIBRE PARA LAS MANIJAS
 41
0.8
 72
0
  0
TEXT
  8
NOTE
 62
2
  6
CONTINUOUS
 10
5.0817115829
 20
9.5584467573
  7
STANDARD
 40
0.15625
  1
IMPORTANT: Basin clamp assembly supplied can only
 41
0.8
 72
0
  0
TEXT
  8
NOTE
 62
2
  6
CONTINUOUS
 10
5.0817115829
 20
9.3240717573
  7
STANDARD
 40
0.15625
  1
           be used on countertops with a minimum
 41
0.8
 72
0
  0
TEXT
  8
NOTE
 62
2
  6
CONTINUOUS
 10
5.0817115829
 20
9.0896967573
  7
STANDARD
 40
0.15625
  1
           thickness of 1".  Installer must supply
 41
0.8
 72
0
  0
TEXT
  8
NOTE
 62
2
  6
CONTINUOUS
 10
5.0817115829
 20
8.8553217573
  7
STANDARD
 40
0.15625
  1
           anchors for thinner countertops.
 41
0.8
 72
0
  0
TEXT
  8
NOTE
 62
2
  6
CONTINUOUS
 10
5.0817115829
 20
8.6209467573
  7
STANDARD
 40
0.15625
  1
 
 41
0.8
 72
0
  0
TEXT
  8
NOTE
 62
2
  6
CONTINUOUS
 10
5.0817115829
 20
8.3865717573
  7
STANDARD
 40
0.15625
  1
IMPORTANT: Ensemble des attaches du bassin fournit ne peut
 41
0.8
 72
0
  0
TEXT
  8
NOTE
 62
2
  6
CONTINUOUS
 10
5.0817115829
 20
8.1521967573
  7
STANDARD
 40
0.15625
  1
           être utilisé que sur des comptoirs à épaisseur
 41
0.8
 72
0
  0
TEXT
  8
NOTE
 62
2
  6
CONTINUOUS
 10
5.0817115829
 20
7.9178217573
  7
STANDARD
 40
0.15625
  1
           minimum de 1" (25 mm).   L'installateur doit
 41
0.8
 72
0
  0
TEXT
  8
NOTE
 62
2
  6
CONTINUOUS
 10
5.0817115829
 20
7.6834467573
  7
STANDARD
 40
0.15625
  1
           fournir les ancrages pour des comptoirs plus fins.
 41
0.8
 72
0
  0
TEXT
  8
NOTE
 62
2
  6
CONTINUOUS
 10
5.0817115829
 20
7.4490717573
  7
STANDARD
 40
0.15625
  1
 
 41
0.8
 72
0
  0
TEXT
  8
NOTE
 62
2
  6
CONTINUOUS
 10
5.0817115829
 20
7.2146967573
  7
STANDARD
 40
0.15625
  1
IMPORTANTE: El montaje de grapas provisto para fondos, sólo
 41
0.8
 72
0
  0
TEXT
  8
NOTE
 62
2
  6
CONTINUOUS
 10
5.0817115829
 20
6.9803217573
  7
STANDARD
 40
0.15625
  1
           se puede utilizar con cubiertas de un espesor
 41
0.8
 72
0
  0
TEXT
  8
NOTE
 62
2
  6
CONTINUOUS
 10
5.0817115829
 20
6.7459467573
  7
STANDARD
 40
0.15625
  1
           mínimo de 1" (25 mm).  El instalador debe proveer
 41
0.8
 72
0
  0
TEXT
  8
NOTE
 62
2
  6
CONTINUOUS
 10
5.0817115829
 20
6.5115717573
  7
STANDARD
 40
0.15625
  1
           los anclajes para cubiertas más delgadas.
 41
0.8
 72
0
  0
TEXT
  8
NOTE
 62
2
  6
CONTINUOUS
 10
5.0817115829
 20
6.2771967573
  7
STANDARD
 40
0.15625
  1
 
 41
0.8
 72
0
  0
TEXT
  8
NOTE
 62
2
  6
CONTINUOUS
 10
5.0817115829
 20
6.0428217573
  7
STANDARD
 40
0.15625
  1
 
 41
0.8
 72
0
  0
TEXT
  8
NOTE
 62
2
  6
CONTINUOUS
 10
5.0817115829
 20
5.8084467573
  7
STANDARD
 40
0.15625
  1
 
 41
0.8
 72
0
  0
TEXT
  8
NOTE
 62
2
  6
CONTINUOUS
 10
5.0817115829
 20
5.5740717573
  7
STANDARD
 40
0.15625
  1
 
 41
0.8
 72
0
  0
TEXT
  8
NOTE
 62
2
  6
CONTINUOUS
 10
18.8999832184
 20
19.8008486837
  7
STANDARD
 40
0.15625
  1
CENTERLINE OF FITTING
 41
0.8
 72
0
  0
TEXT
  8
NOTE
 62
2
  6
CONTINUOUS
 10
18.8999832184
 20
19.5664736837
  7
STANDARD
 40
0.15625
  1
LIGNE CENTRALE DE RACCORDEMENT
 41
0.8
 72
0
  0
TEXT
  8
NOTE
 62
2
  6
CONTINUOUS
 10
18.8999832184
 20
19.3320986837
  7
STANDARD
 40
0.15625
  1
LÍNEA CENTRAL DE LA CONEXIÓN
 41
0.8
 72
0
  0
TEXT
  8
___NOTE
 62
2
  6
CONTINUOUS
 10
7.8555926405
 20
12.5993729885
  7
STANDARD
 40
0.15625
  1
2205    2210    2219    14174
 41
0.8
 72
0
  0
TEXT
  8
___NOTE
 62
2
  6
CONTINUOUS
 10
7.8555926405
 20
12.2087479885
  7
STANDARD
 40
0.15625
  1
14193   14194   14195   14218
 41
0.8
 72
0
  0
TEXT
  8
___NOTE
 62
2
  6
CONTINUOUS
 10
7.8555926405
 20
11.8181229885
  7
STANDARD
 40
0.15625
  1
14390   14280   2319    2608
 41
0.8
 72
0
  0
TEXT
  8
___NOTE
 62
2
  6
CONTINUOUS
 10
7.8555926405
 20
11.4274979885
  7
STANDARD
 40
0.15625
  1
2609    14297   2881    2874
 41
0.8
 72
0
  0
TEXT
  8
___NOTE
 62
2
  6
CONTINUOUS
 10
7.8555926405
 20
11.0368729885
  7
STANDARD
 40
0.15625
  1
2741
 41
0.8
 72
0
  0
TEXT
  8
___NOTE
 62
2
  6
CONTINUOUS
 10
17.7365359894
 20
8.2806282292
  7
STANDARD
 40
0.15625
  1
5/8"
 41
0.8
 72
0
  0
TEXT
  8
___NOTE
 62
2
  6
CONTINUOUS
 10
17.7365359894
 20
8.0462532292
  7
STANDARD
 40
0.15625
  1
16mm
 41
0.8
 72
0
  0
TEXT
  8
___NOTE
 62
2
  6
CONTINUOUS
 10
16.800749706
 20
7.4484136895
  7
STANDARD
 40
0.15625
  1
MARBLE INSTALLATION
 41
0.8
 72
0
  0
TEXT
  8
___NOTE
 62
2
  6
CONTINUOUS
 10
16.800749706
 20
7.2140386895
  7
STANDARD
 40
0.15625
  1
MARBRE INSTALLATION
 41
0.8
 72
0
  0
TEXT
  8
___NOTE
 62
2
  6
CONTINUOUS
 10
16.800749706
 20
6.9796636895
  7
STANDARD
 40
0.15625
  1
MÁRMOL INSTALACIÓN
 41
0.8
 72
0
  0
TEXT
  8
___NOTE
 62
2
  6
CONTINUOUS
 10
16.3635208451
 20
9.9347543075
  7
STANDARD
 40
0.15625
  1
SEALANT
 41
0.8
 72
0
  0
TEXT
  8
___NOTE
 62
2
  6
CONTINUOUS
 10
16.3635208451
 20
9.7003793075
  7
STANDARD
 40
0.15625
  1
MASTIC D'ÉTANCHÉITÉ
 41
0.8
 72
0
  0
TEXT
  8
___NOTE
 62
2
  6
CONTINUOUS
 10
16.3635208451
 20
9.4660043075
  7
STANDARD
 40
0.15625
  1
SELLADOR
 41
0.8
 72
0
  0
TEXT
  8
___NOTE
 62
2
  6
CONTINUOUS
 10
17.9954267022
 20
8.9559717609
  7
TEXTSTYLE_1
 40
0.15625
  1
n
 41
1.0
 72
0
  0
TEXT
  8
___NOTE
 62
2
  6
CONTINUOUS
 10
18.2298017022
 20
8.9559717609
  7
STANDARD
 40
0.15625
  1
3/8"
 41
0.8
 72
0
  0
TEXT
  8
___NOTE
 62
2
  6
CONTINUOUS
 10
17.9954267022
 20
8.7215967609
  7
TEXTSTYLE_1
 40
0.15625
  1
n
 41
1.0
 72
0
  0
TEXT
  8
___NOTE
 62
2
  6
CONTINUOUS
 10
18.2298017022
 20
8.7215967609
  7
STANDARD
 40
0.15625
  1
10mm
 41
0.8
 72
0
  0
TEXT
  8
___NOTE
 62
2
  6
CONTINUOUS
 10
10.5270929114
 20
3.785403038
  7
STANDARD
 40
0.15625
  1
1151011-7-B
 41
0.8
 72
0
  0
TEXT
  8
___NOTE
 62
2
  6
CONTINUOUS
 10
10.5469248101
 20
0.9872460759
  7
STANDARD
 40
0.15625
  1
1151011-7-B
 41
0.8
 72
0
  0
TEXT
  8
___NOTE
 62
2
  6
CONTINUOUS
 10
14.5389429028
 20
4.4592738345
  7
STANDARD
 40
0.15625
  1
c 2011 KOHLER CO.
 41
0.8
 72
0
  0
TEXT
  8
NOTE
 62
2
  6
CONTINUOUS
 10
16.0811202911
 20
6.1520178167
  7
STANDARD
 40
0.15625
  1
CUT ALONG THIS LINE
 41
0.8
 72
2
 11
18.4561202911
 21
6.1520178167
  0
TEXT
  8
NOTE
 62
2
  6
CONTINUOUS
 10
14.5811202911
 20
5.9176428167
  7
STANDARD
 40
0.15625
  1
DÉCOUPER LE LONG DE CETTE LIGNE
 41
0.8
 72
2
 11
18.4561202911
 21
5.9176428167
  0
TEXT
  8
NOTE
 62
2
  6
CONTINUOUS
 10
15.9561202911
 20
5.6832678167
  7
STANDARD
 40
0.15625
  1
CORTE POR ESTA LÍNEA
 41
0.8
 72
2
 11
18.4561202911
 21
5.6832678167
  0
LINE
  8
NOTE
 62
2
  6
CONTINUOUS
 10
19.220948025
 20
5.5804409904
 11
18.7061202911
 21
6.2301428167
  0
LINE
  8
NOTE
 62
2
  6
CONTINUOUS
 10
18.7061202911
 20
6.2301428167
 11
18.4561202911
 21
6.2301428167
  0
SOLID
  8
NOTE
 62
2
  6
CONTINUOUS
 10
19.0613924278
 20
5.6932384257
 11
19.220948025
 21
5.5804409904
 12
19.1476064325
 22
5.7615549347
 13
19.1476064325
 23
5.7615549347
  0
TEXT
  8
NOTE
 62
2
  6
CONTINUOUS
 10
14.6143447129
 20
15.1300808182
  7
STANDARD
 40
0.15625
  1
RIM OF LAVATORY
 41
0.8
 72
2
 11
16.4893447129
 21
15.1300808182
  0
TEXT
  8
NOTE
 62
2
  6
CONTINUOUS
 10
14.4893447129
 20
14.8957058182
  7
STANDARD
 40
0.15625
  1
REBORD DU LAVABO
 41
0.8
 72
2
 11
16.4893447129
 21
14.8957058182
  0
TEXT
  8
NOTE
 62
2
  6
CONTINUOUS
 10
14.3643447129
 20
14.6613308182
  7
STANDARD
 40
0.15625
  1
BORDE DEL LAVABO 
 41
0.8
 72
2
 11
16.4893447129
 21
14.6613308182
  0
LINE
  8
NOTE
 62
2
  6
CONTINUOUS
 10
18.1499647505
 20
16.5112350621
 11
16.7393447129
 21
15.2082058182
  0
LINE
  8
NOTE
 62
2
  6
CONTINUOUS
 10
16.7393447129
 20
15.2082058182
 11
16.4893447129
 21
15.2082058182
  0
SOLID
  8
NOTE
 62
2
  6
CONTINUOUS
 10
18.0495534136
 20
16.3436080552
 11
18.1499647505
 21
16.5112350621
 12
17.9749142012
 22
16.4244102085
 13
17.9749142012
 23
16.4244102085
  0
TEXT
  8
NOTE
 62
2
  6
CONTINUOUS
 10
16.3688615374
 20
13.9468908872
  7
STANDARD
 40
0.15625
  1
CLIP LOCATIONS
 41
0.8
 72
2
 11
18.1188615374
 21
13.9468908872
  0
TEXT
  8
NOTE
 62
2
  6
CONTINUOUS
 10
15.4938615374
 20
13.7125158872
  7
STANDARD
 40
0.15625
  1
EMPLACEMENT DES CLIPS
 41
0.8
 72
2
 11
18.1188615374
 21
13.7125158872
  0
TEXT
  8
NOTE
 62
2
  6
CONTINUOUS
 10
15.3688615374
 20
13.4781408872
  7
STANDARD
 40
0.15625
  1
LUGARES PARA LOS CLIPS
 41
0.8
 72
2
 11
18.1188615374
 21
13.4781408872
  0
LINE
  8
NOTE
 62
2
  6
CONTINUOUS
 10
20.231357107
 20
15.0738129336
 11
18.3688615374
 21
14.0250158872
  0
LINE
  8
NOTE
 62
2
  6
CONTINUOUS
 10
18.3688615374
 20
14.0250158872
 11
18.1188615374
 21
14.0250158872
  0
SOLID
  8
NOTE
 62
2
  6
CONTINUOUS
 10
20.0949662775
 20
14.9338886983
 11
20.231357107
 21
15.0738129336
 12
20.0409928525
 22
15.0297368563
 13
20.0409928525
 23
15.0297368563
  0
TEXT
  8
___NOTE
 62
2
  6
CONTINUOUS
 10
14.9996206791
 20
12.7784469213
  7
STANDARD
 40
0.15625
  1
RIM OF LAVATORY IS FOR REFERENCE ONLY.
 41
0.8
 72
2
 11
19.7496206791
 21
12.7784469213
  0
TEXT
  8
___NOTE
 62
2
  6
CONTINUOUS
 10
14.3746206791
 20
12.5440719213
  7
STANDARD
 40
0.15625
  1
IT SHOULD NOT BE USED FOR ACCURATE LAYOUTS.
 41
0.8
 72
2
 11
19.7496206791
 21
12.5440719213
  0
TEXT
  8
___NOTE
 62
2
  6
CONTINUOUS
 10
16.7496206791
 20
12.3096969213
  7
STANDARD
 40
0.15625
  1
LE REBORD DU LAVABO EST 
 41
0.8
 72
2
 11
19.7496206791
 21
12.3096969213
  0
TEXT
  8
___NOTE
 62
2
  6
CONTINUOUS
 10
15.8746206791
 20
12.0753219213
  7
STANDARD
 40
0.15625
  1
À TITRE DE RÉFÉRENCE SEULEMENT.
 41
0.8
 72
2
 11
19.7496206791
 21
12.0753219213
  0
TEXT
  8
___NOTE
 62
2
  6
CONTINUOUS
 10
13.9996206791
 20
11.8409469213
  7
STANDARD
 40
0.15625
  1
NE PAS L'UTILISER POUR DES AGENCEMENTS PRÉCIS.
 41
0.8
 72
2
 11
19.7496206791
 21
11.8409469213
  0
TEXT
  8
___NOTE
 62
2
  6
CONTINUOUS
 10
15.8746206791
 20
11.6065719213
  7
STANDARD
 40
0.15625
  1
EL BORDE DEL LAVABO SE MUESTRA 
 41
0.8
 72
2
 11
19.7496206791
 21
11.6065719213
  0
TEXT
  8
___NOTE
 62
2
  6
CONTINUOUS
 10
16.4996206791
 20
11.3721969213
  7
STANDARD
 40
0.15625
  1
COMO REFERENCIA SOLAMENTE.
 41
0.8
 72
2
 11
19.7496206791
 21
11.3721969213
  0
TEXT
  8
___NOTE
 62
2
  6
CONTINUOUS
 10
13.8746206791
 20
11.1378219213
  7
STANDARD
 40
0.15625
  1
NO SE DEBE UTILIZAR PARA LA DISPOSICIÓN EXACTA.
 41
0.8
 72
2
 11
19.7496206791
 21
11.1378219213
  0
LINE
  8
___NOTE
 62
2
  6
CONTINUOUS
 10
21.430353749
 20
13.2152856423
 11
19.9996206791
 21
12.8565719213
  0
LINE
  8
___NOTE
 62
2
  6
CONTINUOUS
 10
19.9996206791
 20
12.8565719213
 11
19.7496206791
 21
12.8565719213
  0
SOLID
  8
___NOTE
 62
2
  6
CONTINUOUS
 10
21.2618585122
 20
13.1163381553
 11
21.430353749
 21
13.2152856423
 12
21.2351072734
 22
13.2230357243
 13
21.2351072734
 23
13.2230357243
  0
INSERT
  8
___SYMBOL
 62
2
  6
CONTINUOUS
  2
SCISSORS_BL0
 10
19.8539704164
 20
6.3447655814
  0
LINE
  8
DRAFT_ENT
 62
2
  6
CONTINUOUS
 10
7.8637479775
 20
14.7696446381
 11
7.8637479775
 21
14.4034335352
  0
LINE
  8
DRAFT_ENT
 62
2
  6
CONTINUOUS
 10
7.9728106402
 20
14.7696446381
 11
7.9728106402
 21
14.6672563751
  0
LINE
  8
DRAFT_ENT
 62
2
  6
CONTINUOUS
 10
7.9728106402
 20
14.5293859577
 11
7.9728106402
 21
14.4034485374
  0
LINE
  8
DRAFT_ENT
 62
2
  6
CONTINUOUS
 10
8.5113801409
 20
14.7696446381
 11
8.5113801409
 21
14.4034485374
  0
LINE
  8
DRAFT_ENT
 62
2
  6
CONTINUOUS
 10
8.6143387104
 20
14.7696446381
 11
8.6143387104
 21
14.6319047621
  0
LINE
  8
DRAFT_ENT
 62
2
  6
CONTINUOUS
 10
8.6143387104
 20
14.5461514458
 11
8.6143387104
 21
14.4034485374
  0
LINE
  8
DRAFT_ENT
 62
2
  6
CONTINUOUS
 10
8.706836735
 20
14.7696446381
 11
8.706836735
 21
14.6319047621
  0
LINE
  8
DRAFT_ENT
 62
2
  6
CONTINUOUS
 10
8.706836735
 20
14.5461514458
 11
8.706836735
 21
14.4034485374
  0
LINE
  8
DRAFT_ENT
 62
2
  6
CONTINUOUS
 10
8.8097953046
 20
14.7696446381
 11
8.8097953046
 21
14.4034485374
  0
LINE
  8
DRAFT_ENT
 62
2
  6
CONTINUOUS
 10
8.8379483376
 20
14.4034485374
 11
8.8379483376
 21
14.7696446381
  0
LINE
  8
DRAFT_ENT
 62
2
  6
CONTINUOUS
 10
8.0589132608
 20
14.7696446381
 11
7.9728106402
 21
14.6672563751
  0
LINE
  8
DRAFT_ENT
 62
2
  6
CONTINUOUS
 10
8.1789519163
 20
14.7696446381
 11
8.0456372334
 21
14.6111144373
  0
LINE
  8
DRAFT_ENT
 62
2
  6
CONTINUOUS
 10
8.9317271447
 20
14.7696446381
 11
8.9317271447
 21
14.4917152775
  0
LINE
  8
DRAFT_ENT
 62
2
  6
CONTINUOUS
 10
9.0334047078
 20
14.4917152775
 11
9.0334047078
 21
14.4034485374
  0
LINE
  8
DRAFT_ENT
 62
2
  6
CONTINUOUS
 10
9.051622048
 20
14.4034485374
 11
9.051622048
 21
14.7696446381
  0
LINE
  8
DRAFT_ENT
 62
2
  6
CONTINUOUS
 10
9.1505262243
 20
14.6804199981
 11
9.1505262243
 21
14.6319047621
  0
LINE
  8
DRAFT_ENT
 62
2
  6
CONTINUOUS
 10
9.1505262243
 20
14.5416662439
 11
9.1505262243
 21
14.4917152775
  0
LINE
  8
DRAFT_ENT
 62
2
  6
CONTINUOUS
 10
9.2448121944
 20
14.4034485374
 11
9.2448121944
 21
14.4917152775
  0
LINE
  8
DRAFT_ENT
 62
2
  6
CONTINUOUS
 10
9.2448121944
 20
14.5416662439
 11
9.2448121944
 21
14.6319047621
  0
LINE
  8
DRAFT_ENT
 62
2
  6
CONTINUOUS
 10
9.2448121944
 20
14.6804199981
 11
9.2448121944
 21
14.7696446381
  0
LINE
  8
DRAFT_ENT
 62
2
  6
CONTINUOUS
 10
9.272824834
 20
14.4034485374
 11
9.272824834
 21
14.7696446381
  0
LINE
  8
DRAFT_ENT
 62
2
  6
CONTINUOUS
 10
9.3669847411
 20
14.6805328503
 11
9.3669847411
 21
14.6135933785
  0
LINE
  8
DRAFT_ENT
 62
2
  6
CONTINUOUS
 10
9.3669847411
 20
14.5265462927
 11
9.3669847411
 21
14.4034485374
  0
LINE
  8
DRAFT_ENT
 62
2
  6
CONTINUOUS
 10
9.6417712584
 20
14.3829231018
 11
9.6417712584
 21
14.4241519839
  0
LINE
  8
DRAFT_ENT
 62
2
  6
CONTINUOUS
 10
8.0688968711
 20
14.4034485374
 11
7.9728106402
 21
14.5293859577
  0
LINE
  8
DRAFT_ENT
 62
2
  6
CONTINUOUS
 10
8.2040796603
 20
14.4034485374
 11
8.0456372334
 21
14.6111144373
  0
LINE
  8
0
 62
2
  6
CONTINUOUS
 10
16.5354421625
 20
7.5802938025
 11
16.5603421625
 21
7.5802938025
  0
LINE
  8
0
 62
2
  6
CONTINUOUS
 10
16.4801421625
 20
7.6216738025
 11
16.4939221625
 21
7.6189938025
  0
LINE
  8
0
 62
2
  6
CONTINUOUS
 10
16.5713821625
 20
7.5857738025
 11
16.5824421625
 21
7.5829738025
  0
LINE
  8
DRAFT_ENT
 62
2
  6
CONTINUOUS
 10
9.4449993992
 20
14.4034485374
 11
9.3669847411
 21
14.5265462927
  0
LINE
  8
DRAFT_ENT
 62
2
  6
CONTINUOUS
 10
9.563718759
 20
14.4034485374
 11
9.4640667132
 21
14.5606876557
  0
LINE
  8
0
 62
2
  6
CONTINUOUS
 10
16.4939221625
 20
7.6189938025
 11
16.5243821625
 21
7.6189938025
  0
LINE
  8
0
 62
2
  6
CONTINUOUS
 10
17.2360095931
 20
7.822252525
 11
17.253194732
 21
7.822252525
  0
LINE
  8
0
 62
2
  6
CONTINUOUS
 10
17.4142021625
 20
7.8484738025
 11
16.8008821625
 21
7.8484738025
  0
LINE
  8
0
 62
2
  6
CONTINUOUS
 10
17.2197021625
 20
7.8553138025
 11
17.2708421625
 21
7.8553138025
  0
LINE
  8
0
 62
2
  6
CONTINUOUS
 10
17.2045021625
 20
7.8719138025
 11
17.2874421625
 21
7.8719138025
  0
LINE
  8
0
 62
2
  6
CONTINUOUS
 10
17.2197021625
 20
7.8898538025
 11
17.2708421625
 21
7.8898538025
  0
LINE
  8
0
 62
2
  6
CONTINUOUS
 10
16.7926070773
 20
7.9092738025
 11
17.4033421625
 21
7.9092738025
  0
LINE
  8
0
 62
2
  6
CONTINUOUS
 10
17.2197021625
 20
7.9258738025
 11
17.2708421625
 21
7.9258738025
  0
LINE
  8
0
 62
2
  6
CONTINUOUS
 10
17.2874421625
 20
7.9451538025
 11
17.2045021625
 21
7.9451538025
  0
LINE
  8
0
 62
2
  6
CONTINUOUS
 10
17.2197021625
 20
7.9617538025
 11
17.2708421625
 21
7.9617538025
  0
LINE
  8
0
 62
2
  6
CONTINUOUS
 10
17.2045021625
 20
7.9796938025
 11
17.2874421625
 21
7.9796938025
  0
LINE
  8
0
 62
2
  6
CONTINUOUS
 10
17.2197021625
 20
7.9977738025
 11
17.2708421625
 21
7.9977738025
  0
LINE
  8
0
 62
2
  6
CONTINUOUS
 10
17.2045021625
 20
8.0157138025
 11
17.2874421625
 21
8.0157138025
  0
LINE
  8
0
 62
2
  6
CONTINUOUS
 10
17.2197021625
 20
8.0323138025
 11
17.2708421625
 21
8.0323138025
  0
LINE
  8
0
 62
2
  6
CONTINUOUS
 10
17.2045021625
 20
8.0530738025
 11
17.2874421625
 21
8.0530738025
  0
LINE
  8
0
 62
2
  6
CONTINUOUS
 10
17.2197021625
 20
8.0696738025
 11
17.2708421625
 21
8.0696738025
  0
LINE
  8
0
 62
2
  6
CONTINUOUS
 10
17.2045021625
 20
8.0889538025
 11
17.2874421625
 21
8.0889538025
  0
LINE
  8
0
 62
2
  6
CONTINUOUS
 10
17.2197021625
 20
8.1055538025
 11
17.2708421625
 21
8.1055538025
  0
LINE
  8
0
 62
2
  6
CONTINUOUS
 10
17.2045021625
 20
8.1249738025
 11
17.2874421625
 21
8.1249738025
  0
LINE
  8
0
 62
2
  6
CONTINUOUS
 10
16.7355621975
 20
8.1331538025
 11
17.0348590296
 21
8.1331538025
  0
LINE
  8
0
 62
2
  6
CONTINUOUS
 10
17.2197021625
 20
8.1429138025
 11
17.2708421625
 21
8.1429138025
  0
LINE
  8
0
 62
2
  6
CONTINUOUS
 10
17.2045021625
 20
8.1608538025
 11
17.2874421625
 21
8.1608538025
  0
LINE
  8
0
 62
2
  6
CONTINUOUS
 10
16.4931421625
 20
8.1672038025
 11
17.1437221625
 21
8.1672038025
  0
LINE
  8
0
 62
2
  6
CONTINUOUS
 10
17.3400021625
 20
8.1672038025
 11
17.5777421625
 21
8.1672038025
  0
LINE
  8
0
 62
2
  6
CONTINUOUS
 10
17.5970821625
 20
8.1700038025
 11
17.7049221625
 21
8.1700038025
  0
LINE
  8
0
 62
2
  6
CONTINUOUS
 10
17.2197021625
 20
8.1802738025
 11
17.2708421625
 21
8.1802738025
  0
LINE
  8
0
 62
2
  6
CONTINUOUS
 10
17.2045021625
 20
8.1995538025
 11
17.2874421625
 21
8.1995538025
  0
LINE
  8
0
 62
2
  6
CONTINUOUS
 10
17.2197021625
 20
8.2161538025
 11
17.2708421625
 21
8.2161538025
  0
LINE
  8
0
 62
2
  6
CONTINUOUS
 10
17.2045021625
 20
8.2355538025
 11
17.2874421625
 21
8.2355538025
  0
LINE
  8
0
 62
2
  6
CONTINUOUS
 10
17.2197021625
 20
8.2520338025
 11
17.2708421625
 21
8.2520338025
  0
LINE
  8
0
 62
2
  6
CONTINUOUS
 10
17.2045021625
 20
8.2701138025
 11
17.2874421625
 21
8.2701138025
  0
LINE
  8
0
 62
2
  6
CONTINUOUS
 10
17.2197021625
 20
8.2880538025
 11
17.2708421625
 21
8.2880538025
  0
LINE
  8
0
 62
2
  6
CONTINUOUS
 10
17.2045021625
 20
8.3059938025
 11
17.2874421625
 21
8.3059938025
  0
LINE
  8
0
 62
2
  6
CONTINUOUS
 10
17.2197021625
 20
8.3239338025
 11
17.2708421625
 21
8.3239338025
  0
LINE
  8
0
 62
2
  6
CONTINUOUS
 10
17.2045021625
 20
8.3433538025
 11
17.2874421625
 21
8.3433538025
  0
LINE
  8
0
 62
2
  6
CONTINUOUS
 10
17.2197021625
 20
8.3612938025
 11
17.2708421625
 21
8.3612938025
  0
LINE
  8
0
 62
2
  6
CONTINUOUS
 10
17.2874421625
 20
8.3792338025
 11
17.2045021625
 21
8.3792338025
  0
LINE
  8
0
 62
2
  6
CONTINUOUS
 10
17.2183621625
 20
8.4262338025
 11
17.2736621625
 21
8.4262338025
  0
LINE
  8
0
 62
2
  6
CONTINUOUS
 10
17.3400021625
 20
8.4574838025
 11
17.1437221625
 21
8.4574838025
  0
LINE
  8
0
 62
2
  6
CONTINUOUS
 10
17.3731421625
 20
8.4603038025
 11
17.7104821625
 21
8.4603038025
  0
LINE
  8
DEFAULT_3
 62
2
  6
PHANTOM
 10
17.5777421625
 20
8.6952838025
 11
16.4931421625
 21
8.6952838025
  0
LINE
  8
0
 62
2
  6
CONTINUOUS
 10
17.1464621625
 20
8.7746338025
 11
17.9462021625
 21
8.7746338025
  0
LINE
  8
0
 62
2
  6
CONTINUOUS
 10
16.5879918171
 20
7.5333085425
 11
16.6017918171
 21
7.5276885425
  0
LINE
  8
0
 62
2
  6
CONTINUOUS
 10
16.5243821625
 20
7.5857738025
 11
16.5354421625
 21
7.5802938025
  0
LINE
  8
0
 62
2
  6
CONTINUOUS
 10
16.5796918171
 20
7.5416085425
 11
16.5879918171
 21
7.5333085425
  0
LINE
  8
0
 62
2
  6
CONTINUOUS
 10
16.4690821625
 20
7.6327738025
 11
16.4801421625
 21
7.6216738025
  0
LINE
  8
DRAFT_ENT
 62
2
  6
CONTINUOUS
 10
9.6490199949
 20
14.403112444
 11
9.6689375067
 21
14.3829231018
  0
LINE
  8
0
 62
2
  6
CONTINUOUS
 10
17.5252421625
 20
8.3248038025
 11
17.5169421625
 21
8.3331038025
  0
LINE
  8
0
 62
2
  6
CONTINUOUS
 10
15.8498581194
 20
9.2789242529
 11
16.7701524277
 21
8.150261422
  0
POLYLINE
  8
0
 62
2
  6
CONTINUOUS
 66
1
 70
0
  0
VERTEX
  8
0
 62
2
  6
CONTINUOUS
 10
16.934775761
 20
8.1672038025
  0
VERTEX
  8
0
 62
2
  6
CONTINUOUS
 10
16.9351074198
 20
8.1664965187
  0
VERTEX
  8
0
 62
2
  6
CONTINUOUS
 10
16.9354249106
 20
8.1657906582
  0
VERTEX
  8
0
 62
2
  6
CONTINUOUS
 10
16.9357282334
 20
8.1650862212
  0
VERTEX
  8
0
 62
2
  6
CONTINUOUS
 10
16.9360173881
 20
8.1643832077
  0
VERTEX
  8
0
 62
2
  6
CONTINUOUS
 10
16.9362923749
 20
8.1636816175
  0
VERTEX
  8
0
 62
2
  6
CONTINUOUS
 10
16.9365531936
 20
8.1629814508
  0
VERTEX
  8
0
 62
2
  6
CONTINUOUS
 10
16.9367998443
 20
8.1622827075
  0
VERTEX
  8
0
 62
2
  6
CONTINUOUS
 10
16.937032327
 20
8.1615853876
  0
VERTEX
  8
0
 62
2
  6
CONTINUOUS
 10
16.9372506417
 20
8.1608894911
  0
VERTEX
  8
0
 62
2
  6
CONTINUOUS
 10
16.9374547883
 20
8.1601950181
  0
VERTEX
  8
0
 62
2
  6
CONTINUOUS
 10
16.9376447669
 20
8.1595019685
  0
VERTEX
  8
0
 62
2
  6
CONTINUOUS
 10
16.9378205776
 20
8.1588103423
  0
VERTEX
  8
0
 62
2
  6
CONTINUOUS
 10
16.9379822201
 20
8.1581201395
  0
VERTEX
  8
0
 62
2
  6
CONTINUOUS
 10
16.9381296947
 20
8.1574313602
  0
VERTEX
  8
0
 62
2
  6
CONTINUOUS
 10
16.9382630012
 20
8.1567440043
  0
VERTEX
  8
0
 62
2
  6
CONTINUOUS
 10
16.9383821398
 20
8.1560580718
  0
VERTEX
  8
0
 62
2
  6
CONTINUOUS
 10
16.9384871103
 20
8.1553735627
  0
VERTEX
  8
0
 62
2
  6
CONTINUOUS
 10
16.9385779128
 20
8.1546904771
  0
VERTEX
  8
0
 62
2
  6
CONTINUOUS
 10
16.9386545472
 20
8.1540088149
  0
VERTEX
  8
0
 62
2
  6
CONTINUOUS
 10
16.9387170137
 20
8.1533285761
  0
VERTEX
  8
0
 62
2
  6
CONTINUOUS
 10
16.9387653121
 20
8.1526497607
  0
VERTEX
  8
0
 62
2
  6
CONTINUOUS
 10
16.9387994425
 20
8.1519723688
  0
VERTEX
  8
0
 62
2
  6
CONTINUOUS
 10
16.9388194049
 20
8.1512964003
  0
VERTEX
  8
0
 62
2
  6
CONTINUOUS
 10
16.9388251993
 20
8.1506218552
  0
VERTEX
  8
0
 62
2
  6
CONTINUOUS
 10
16.9388168256
 20
8.1499487335
  0
VERTEX
  8
0
 62
2
  6
CONTINUOUS
 10
16.9387942839
 20
8.1492770353
  0
VERTEX
  8
0
 62
2
  6
CONTINUOUS
 10
16.9387575743
 20
8.1486067605
  0
VERTEX
  8
0
 62
2
  6
CONTINUOUS
 10
16.9387066965
 20
8.1479379091
  0
VERTEX
  8
0
 62
2
  6
CONTINUOUS
 10
16.9386416508
 20
8.1472704811
  0
VERTEX
  8
0
 62
2
  6
CONTINUOUS
 10
16.9385624371
 20
8.1466044766
  0
VERTEX
  8
0
 62
2
  6
CONTINUOUS
 10
16.9384690553
 20
8.1459398954
  0
VERTEX
  8
0
 62
2
  6
CONTINUOUS
 10
16.9383615055
 20
8.1452767377
  0
VERTEX
  8
0
 62
2
  6
CONTINUOUS
 10
16.9382397877
 20
8.1446150035
  0
VERTEX
  8
0
 62
2
  6
CONTINUOUS
 10
16.9381039019
 20
8.1439546926
  0
VERTEX
  8
0
 62
2
  6
CONTINUOUS
 10
16.937953848
 20
8.1432958052
  0
VERTEX
  8
0
 62
2
  6
CONTINUOUS
 10
16.9377896261
 20
8.1426383412
  0
VERTEX
  8
0
 62
2
  6
CONTINUOUS
 10
16.9376022779
 20
8.1419507083
  0
VERTEX
  8
0
 62
2
  6
CONTINUOUS
 10
16.9373993626
 20
8.1412646393
  0
VERTEX
  8
0
 62
2
  6
CONTINUOUS
 10
16.9371808803
 20
8.1405801344
  0
VERTEX
  8
0
 62
2
  6
CONTINUOUS
 10
16.9369468309
 20
8.1398971934
  0
VERTEX
  8
0
 62
2
  6
CONTINUOUS
 10
16.9366972144
 20
8.1392158164
  0
VERTEX
  8
0
 62
2
  6
CONTINUOUS
 10
16.9364320309
 20
8.1385360034
  0
VERTEX
  8
0
 62
2
  6
CONTINUOUS
 10
16.9361512803
 20
8.1378577543
  0
VERTEX
  8
0
 62
2
  6
CONTINUOUS
 10
16.9358549627
 20
8.1371810693
  0
VERTEX
  8
0
 62
2
  6
CONTINUOUS
 10
16.935543078
 20
8.1365059482
  0
VERTEX
  8
0
 62
2
  6
CONTINUOUS
 10
16.9352156263
 20
8.1358323911
  0
VERTEX
  8
0
 62
2
  6
CONTINUOUS
 10
16.9348726075
 20
8.135160398
  0
VERTEX
  8
0
 62
2
  6
CONTINUOUS
 10
16.9345140216
 20
8.1344899688
  0
VERTEX
  8
0
 62
2
  6
CONTINUOUS
 10
16.9341398687
 20
8.1338211037
  0
VERTEX
  8
0
 62
2
  6
CONTINUOUS
 10
16.9337501487
 20
8.1331538025
  0
SEQEND
  0
LINE
  8
0
 62
2
  6
CONTINUOUS
 10
16.5768786443
 20
7.5525934891
 11
16.5796786443
 21
7.5416134891
  0
LINE
  8
0
 62
2
  6
CONTINUOUS
 10
16.6017782144
 20
7.5277157479
 11
16.6045182144
 21
7.5167357479
  0
LINE
  8
0
 62
2
  6
CONTINUOUS
 10
16.5243821625
 20
7.6189938025
 11
16.5271421625
 21
7.6078738025
  0
LINE
  8
0
 62
2
  6
CONTINUOUS
 10
16.4331421625
 20
8.6352838025
 11
16.4331421625
 21
8.2272038025
  0
LINE
  8
0
 62
2
  6
CONTINUOUS
 10
16.5243821625
 20
7.5968938025
 11
16.5243821625
 21
7.5857738025
  0
LINE
  8
0
 62
2
  6
CONTINUOUS
 10
16.5824421625
 20
7.5829738025
 11
16.5824421625
 21
7.5636938025
  0
LINE
  8
0
 62
2
  6
CONTINUOUS
 10
16.8008821625
 20
7.8484738025
 11
16.8008821625
 21
7.9092738025
  0
LINE
  8
0
 62
2
  6
CONTINUOUS
 10
17.1437221625
 20
8.8161338025
 11
17.1437221625
 21
8.1672038025
  0
LINE
  8
0
 62
2
  6
CONTINUOUS
 10
16.1710929251
 20
10.0342601475
 11
15.8498581194
 21
9.2789242529
  0
LINE
  8
0
 62
2
  6
CONTINUOUS
 10
16.3100052736
 20
10.0342601475
 11
16.1710929251
 21
10.0342601475
  0
LINE
  8
0
 62
2
  6
CONTINUOUS
 10
17.5777421625
 20
8.1672038025
 11
17.5500821625
 21
8.2115238025
  0
LINE
  8
0
 62
2
  6
CONTINUOUS
 10
17.5335421625
 20
8.2999038025
 11
17.5279821625
 21
8.3110038025
  0
LINE
  8
0
 62
2
  6
CONTINUOUS
 10
17.5169421625
 20
8.3331038025
 11
17.5086421625
 21
8.3551838025
  0
LINE
  8
0
 62
2
  6
CONTINUOUS
 10
17.2874421625
 20
8.3792338025
 11
17.2736621625
 21
8.4262338025
  0
LINE
  8
0
 62
2
  6
CONTINUOUS
 10
17.5500821625
 20
8.2115238025
 11
17.5390421625
 21
8.2585038025
  0
LINE
  8
0
 62
2
  6
CONTINUOUS
 10
17.5279821625
 20
8.3110038025
 11
17.5252421625
 21
8.3248038025
  0
LINE
  8
0
 62
2
  6
CONTINUOUS
 10
17.5390421625
 20
8.2695038025
 11
17.5335421625
 21
8.2999038025
  0
LINE
  8
0
 62
2
  6
CONTINUOUS
 10
17.1824021625
 20
7.9092738025
 11
17.1824021625
 21
7.8484738025
  0
LINE
  8
0
 62
2
  6
CONTINUOUS
 10
17.2045021625
 20
7.8484738025
 11
17.2045021625
 21
8.3792338025
  0
LINE
  8
0
 62
2
  6
CONTINUOUS
 10
17.2360095931
 20
7.822252525
 11
17.2360095931
 21
7.8080214863
  0
LINE
  8
DEFAULT_1
 62
2
  6
CENTER
 10
17.2446021625
 20
8.4781138025
 11
17.2446021625
 21
7.661933544
  0
LINE
  8
0
 62
2
  6
CONTINUOUS
 10
17.253194732
 20
7.808157739
 11
17.253194732
 21
7.822252525
  0
LINE
  8
0
 62
2
  6
CONTINUOUS
 10
17.2874421625
 20
7.8484738025
 11
17.2874421625
 21
8.3792338025
  0
LINE
  8
0
 62
2
  6
CONTINUOUS
 10
17.3095421625
 20
7.9092738025
 11
17.3095421625
 21
7.8484738025
  0
LINE
  8
0
 62
2
  6
CONTINUOUS
 10
17.3400021625
 20
8.1672038025
 11
17.3400021625
 21
8.8161338025
  0
LINE
  8
0
 62
2
  6
CONTINUOUS
 10
17.4533421625
 20
7.9592738025
 11
17.4533421625
 21
8.1672038025
  0
LINE
  8
0
 62
2
  6
CONTINUOUS
 10
17.5142021625
 20
8.1672038025
 11
17.5142021625
 21
7.9484738025
  0
LINE
  8
0
 62
2
  6
CONTINUOUS
 10
17.5362821625
 20
8.4519838025
 11
17.5362821625
 21
8.4631038025
  0
LINE
  8
0
 62
2
  6
CONTINUOUS
 10
17.5390421625
 20
8.2585038025
 11
17.5390421625
 21
8.2695038025
  0
LINE
  8
0
 62
2
  6
CONTINUOUS
 10
17.5583821625
 20
8.5210838025
 11
17.5583821625
 21
8.6344838025
  0
LINE
  8
0
 62
2
  6
CONTINUOUS
 10
17.5722421625
 20
8.6676838025
 11
17.5722421625
 21
8.6842838025
  0
LINE
  8
0
 62
2
  6
CONTINUOUS
 10
17.6579421625
 20
8.4603038025
 11
17.6579421625
 21
8.1700038025
  0
LINE
  8
0
 62
2
  6
CONTINUOUS
 10
17.5086421625
 20
8.3551838025
 11
17.5142021625
 21
8.3967038025
  0
LINE
  8
0
 62
2
  6
CONTINUOUS
 10
16.5271421625
 20
7.6078738025
 11
16.5243821625
 21
7.5968938025
  0
LINE
  8
0
 62
2
  6
CONTINUOUS
 10
17.5583821625
 20
8.6344838025
 11
17.5612021625
 21
8.6454838025
  0
LINE
  8
0
 62
2
  6
CONTINUOUS
 10
17.2045021625
 20
8.3792338025
 11
17.2183621625
 21
8.4262338025
  0
LINE
  8
0
 62
2
  6
CONTINUOUS
 10
16.6228276262
 20
8.0542745567
 11
16.4640558074
 21
7.6189938025
  0
LINE
  8
DEFAULT_3
 62
2
  6
PHANTOM
 10
16.6045182144
 20
7.5167493506
 11
16.7324840093
 21
7.8672768201
  0
LINE
  8
0
 62
2
  6
CONTINUOUS
 10
16.5824421625
 20
7.5636938025
 11
16.5768821625
 21
7.5525738025
  0
LINE
  8
0
 62
2
  6
CONTINUOUS
 10
17.5362821625
 20
8.4631038025
 11
17.5583821625
 21
8.5210838025
  0
LINE
  8
0
 62
2
  6
CONTINUOUS
 10
17.5142021625
 20
8.3967038025
 11
17.5362821625
 21
8.4519838025
  0
LINE
  8
0
 62
2
  6
CONTINUOUS
 10
17.5612021625
 20
8.6454838025
 11
17.5722421625
 21
8.6676838025
  0
LINE
  8
0
 62
2
  6
CONTINUOUS
 10
17.5722421625
 20
8.6842838025
 11
17.5777421625
 21
8.6952838025
  0
LINE
  8
DEFAULT_3
 62
2
  6
PHANTOM
 10
17.0616584868
 20
8.089670884
 11
16.9875195892
 21
7.9423079655
  0
LINE
  8
0
 62
2
  6
CONTINUOUS
 10
17.0724821625
 20
7.8510338025
 11
17.1409021625
 21
7.9082938025
  0
LINE
  8
0
 62
2
  6
CONTINUOUS
 10
16.8444021625
 20
7.8493338025
 11
16.9148821625
 21
7.9082938025
  0
LINE
  8
0
 62
2
  6
CONTINUOUS
 10
16.9646421625
 20
7.8504338025
 11
17.0351821625
 21
7.9093938025
  0
LINE
  8
0
 62
2
  6
CONTINUOUS
 10
17.3095421625
 20
7.8628738025
 11
17.3593421625
 21
7.9045138025
  0
LINE
  8
0
 62
2
  6
CONTINUOUS
 10
17.4125821625
 20
7.8538538025
 11
17.5121221625
 21
7.9370938025
  0
LINE
  8
0
 62
2
  6
CONTINUOUS
 10
17.4533421625
 20
8.0782138025
 11
17.5142021625
 21
8.1289938025
  0
LINE
  8
0
 62
2
  6
CONTINUOUS
 10
17.4533421625
 20
7.9831138025
 11
17.5142021625
 21
8.0338938025
  0
LINE
  8
0
 62
2
  6
CONTINUOUS
 10
16.5603421625
 20
7.5802938025
 11
16.5713821625
 21
7.5857738025
  0
LINE
  8
DRAFT_ENT
 62
2
  6
CONTINUOUS
 10
7.9728106402
 20
14.4034485374
 11
7.8637479775
 21
14.4034335352
  0
LINE
  8
DRAFT_ENT
 62
2
  6
CONTINUOUS
 10
9.6569458444
 20
14.403112444
 11
9.6417712584
 21
14.403112444
  0
LINE
  8
DRAFT_ENT
 62
2
  6
CONTINUOUS
 10
8.8097953046
 20
14.4034485374
 11
8.706836735
 21
14.4034485374
  0
LINE
  8
DRAFT_ENT
 62
2
  6
CONTINUOUS
 10
8.6143387104
 20
14.4034485374
 11
8.5113801409
 21
14.4034485374
  0
LINE
  8
DRAFT_ENT
 62
2
  6
CONTINUOUS
 10
8.0688968711
 20
14.4034485374
 11
8.2040796603
 21
14.4034485374
  0
LINE
  8
DRAFT_ENT
 62
2
  6
CONTINUOUS
 10
8.8379483376
 20
14.4034485374
 11
9.0334047078
 21
14.4034485374
  0
LINE
  8
DRAFT_ENT
 62
2
  6
CONTINUOUS
 10
9.051622048
 20
14.4034485374
 11
9.2448121944
 21
14.4034485374
  0
LINE
  8
DRAFT_ENT
 62
2
  6
CONTINUOUS
 10
9.272824834
 20
14.4034485374
 11
9.3669847411
 21
14.4034485374
  0
LINE
  8
DRAFT_ENT
 62
2
  6
CONTINUOUS
 10
9.4449993992
 20
14.4034485374
 11
9.563718759
 21
14.4034485374
  0
LINE
  8
DRAFT_ENT
 62
2
  6
CONTINUOUS
 10
9.6417712584
 20
14.4241519839
 11
9.6569458444
 21
14.4241519839
  0
LINE
  8
DRAFT_ENT
 62
2
  6
CONTINUOUS
 10
8.9317271447
 20
14.4917152775
 11
9.0334047078
 21
14.4917152775
  0
LINE
  8
DRAFT_ENT
 62
2
  6
CONTINUOUS
 10
9.1505262243
 20
14.4917152775
 11
9.2448121944
 21
14.4917152775
  0
LINE
  8
DRAFT_ENT
 62
2
  6
CONTINUOUS
 10
9.1505262243
 20
14.5416662439
 11
9.2448121944
 21
14.5416662439
  0
LINE
  8
DRAFT_ENT
 62
2
  6
CONTINUOUS
 10
8.6143387104
 20
14.5461514458
 11
8.706836735
 21
14.5461514458
  0
LINE
  8
DRAFT_ENT
 62
2
  6
CONTINUOUS
 10
9.3669847411
 20
14.6135933785
 11
9.3996970912
 21
14.6135933785
  0
LINE
  8
DRAFT_ENT
 62
2
  6
CONTINUOUS
 10
8.6143387104
 20
14.6319047621
 11
8.706836735
 21
14.6319047621
  0
LINE
  8
DRAFT_ENT
 62
2
  6
CONTINUOUS
 10
9.1505262243
 20
14.6319047621
 11
9.2448121944
 21
14.6319047621
  0
LINE
  8
DRAFT_ENT
 62
2
  6
CONTINUOUS
 10
9.1505262243
 20
14.6804199981
 11
9.2448121944
 21
14.6804199981
  0
LINE
  8
DRAFT_ENT
 62
2
  6
CONTINUOUS
 10
9.4019409236
 20
14.6805328503
 11
9.3669847411
 21
14.6805328503
  0
LINE
  8
DRAFT_ENT
 62
2
  6
CONTINUOUS
 10
7.8637479775
 20
14.7696446381
 11
7.9728106402
 21
14.7696446381
  0
LINE
  8
DRAFT_ENT
 62
2
  6
CONTINUOUS
 10
8.0589132608
 20
14.7696446381
 11
8.1789519163
 21
14.7696446381
  0
LINE
  8
DRAFT_ENT
 62
2
  6
CONTINUOUS
 10
8.5113801409
 20
14.7696446381
 11
8.6143387104
 21
14.7696446381
  0
LINE
  8
DRAFT_ENT
 62
2
  6
CONTINUOUS
 10
8.706836735
 20
14.7696446381
 11
8.8097953046
 21
14.7696446381
  0
LINE
  8
DRAFT_ENT
 62
2
  6
CONTINUOUS
 10
8.8379483376
 20
14.7696446381
 11
8.9317271447
 21
14.7696446381
  0
LINE
  8
DRAFT_ENT
 62
2
  6
CONTINUOUS
 10
9.051622048
 20
14.7696446381
 11
9.2448121944
 21
14.7696446381
  0
LINE
  8
DRAFT_ENT
 62
2
  6
CONTINUOUS
 10
9.272824834
 20
14.7696446381
 11
9.4187921747
 21
14.7696446381
  0
POLYLINE
  8
_CURVE
 62
8
  6
PHANTOM
 66
1
 70
0
  0
VERTEX
  8
_CURVE
 62
8
  6
PHANTOM
 10
2.7792588303
 20
9.7421117675
  0
VERTEX
  8
_CURVE
 62
8
  6
PHANTOM
 10
2.7867988558
 20
9.4182182875
  0
VERTEX
  8
_CURVE
 62
8
  6
PHANTOM
 10
2.8094073064
 20
9.0948242278
  0
VERTEX
  8
_CURVE
 62
8
  6
PHANTOM
 10
2.8470493213
 20
8.7724282385
  0
VERTEX
  8
_CURVE
 62
8
  6
PHANTOM
 10
2.8996668593
 20
8.4515274309
  0
VERTEX
  8
_CURVE
 62
8
  6
PHANTOM
 10
2.9671787879
 20
8.1326166109
  0
VERTEX
  8
_CURVE
 62
8
  6
PHANTOM
 10
3.0494810088
 20
7.8161875157
  0
VERTEX
  8
_CURVE
 62
8
  6
PHANTOM
 10
3.1464466178
 20
7.5027280561
  0
VERTEX
  8
_CURVE
 62
8
  6
PHANTOM
 10
3.2579261009
 20
7.1927215639
  0
VERTEX
  8
_CURVE
 62
8
  6
PHANTOM
 10
3.383747565
 20
6.8866460466
  0
VERTEX
  8
_CURVE
 62
8
  6
PHANTOM
 10
3.5237170023
 20
6.5849734505
  0
VERTEX
  8
_CURVE
 62
8
  6
PHANTOM
 10
3.6776185903
 20
6.2881689328
  0
VERTEX
  8
_CURVE
 62
8
  6
PHANTOM
 10
3.8452150237
 20
5.9966901447
  0
VERTEX
  8
_CURVE
 62
8
  6
PHANTOM
 10
4.0262478811
 20
5.7109865252
  0
VERTEX
  8
_CURVE
 62
8
  6
PHANTOM
 10
4.2204380229
 20
5.4314986086
  0
VERTEX
  8
_CURVE
 62
8
  6
PHANTOM
 10
4.427486022
 20
5.1586573451
  0
VERTEX
  8
_CURVE
 62
8
  6
PHANTOM
 10
4.6470726253
 20
4.8928834361
  0
VERTEX
  8
_CURVE
 62
8
  6
PHANTOM
 10
4.8788592463
 20
4.6345866857
  0
VERTEX
  8
_CURVE
 62
8
  6
PHANTOM
 10
5.1224884867
 20
4.3841653688
  0
VERTEX
  8
_CURVE
 62
8
  6
PHANTOM
 10
5.377584688
 20
4.1420056169
  0
VERTEX
  8
_CURVE
 62
8
  6
PHANTOM
 10
5.6437545103
 20
3.9084808227
  0
VERTEX
  8
_CURVE
 62
8
  6
PHANTOM
 10
5.920587539
 20
3.6839510647
  0
VERTEX
  8
_CURVE
 62
8
  6
PHANTOM
 10
6.2076569176
 20
3.4687625513
  0
VERTEX
  8
_CURVE
 62
8
  6
PHANTOM
 10
6.504520006
 20
3.2632470877
  0
VERTEX
  8
_CURVE
 62
8
  6
PHANTOM
 10
6.8107190629
 20
3.0677215639
  0
VERTEX
  8
_CURVE
 62
8
  6
PHANTOM
 10
7.1257819513
 20
2.882487466
  0
VERTEX
  8
_CURVE
 62
8
  6
PHANTOM
 10
7.4492228674
 20
2.7078304116
  0
VERTEX
  8
_CURVE
 62
8
  6
PHANTOM
 10
7.7805430884
 20
2.5440197092
  0
VERTEX
  8
_CURVE
 62
8
  6
PHANTOM
 10
8.1192317428
 20
2.391307943
  0
VERTEX
  8
_CURVE
 62
8
  6
PHANTOM
 10
8.4647665972
 20
2.2499305835
  0
VERTEX
  8
_CURVE
 62
8
  6
PHANTOM
 10
8.8166148617
 20
2.1201056243
  0
VERTEX
  8
_CURVE
 62
8
  6
PHANTOM
 10
9.1742340121
 20
2.0020332462
  0
VERTEX
  8
_CURVE
 62
8
  6
PHANTOM
 10
9.5370726253
 20
1.8958955081
  0
VERTEX
  8
_CURVE
 62
8
  6
PHANTOM
 10
9.9045712306
 20
1.8018560668
  0
VERTEX
  8
_CURVE
 62
8
  6
PHANTOM
 10
10.2761631718
 20
1.7200599242
  0
VERTEX
  8
_CURVE
 62
8
  6
PHANTOM
 10
10.651275481
 20
1.6506332042
  0
VERTEX
  8
_CURVE
 62
8
  6
PHANTOM
 10
11.0293297622
 20
1.5936829576
  0
VERTEX
  8
_CURVE
 62
8
  6
PHANTOM
 10
11.4097430831
 20
1.5492969976
  0
VERTEX
  8
_CURVE
 62
8
  6
PHANTOM
 10
11.7919288741
 20
1.5175437642
  0
VERTEX
  8
_CURVE
 62
8
  6
PHANTOM
 10
12.1752978322
 20
1.4984722185
  0
VERTEX
  8
_CURVE
 62
8
  6
PHANTOM
 10
12.5592588303
 20
1.4921117675
  0
VERTEX
  8
_CURVE
 62
8
  6
PHANTOM
 10
12.9432198284
 20
1.4984722185
  0
VERTEX
  8
_CURVE
 62
8
  6
PHANTOM
 10
13.3265887865
 20
1.5175437642
  0
VERTEX
  8
_CURVE
 62
8
  6
PHANTOM
 10
13.7087745774
 20
1.5492969976
  0
VERTEX
  8
_CURVE
 62
8
  6
PHANTOM
 10
14.0891878984
 20
1.5936829576
  0
VERTEX
  8
_CURVE
 62
8
  6
PHANTOM
 10
14.4672421796
 20
1.6506332042
  0
VERTEX
  8
_CURVE
 62
8
  6
PHANTOM
 10
14.8423544888
 20
1.7200599242
  0
VERTEX
  8
_CURVE
 62
8
  6
PHANTOM
 10
15.21394643
 20
1.8018560668
  0
VERTEX
  8
_CURVE
 62
8
  6
PHANTOM
 10
15.5814450353
 20
1.8958955081
  0
VERTEX
  8
_CURVE
 62
8
  6
PHANTOM
 10
15.9442836485
 20
2.0020332462
  0
VERTEX
  8
_CURVE
 62
8
  6
PHANTOM
 10
16.3019027988
 20
2.1201056243
  0
VERTEX
  8
_CURVE
 62
8
  6
PHANTOM
 10
16.6537510634
 20
2.2499305835
  0
VERTEX
  8
_CURVE
 62
8
  6
PHANTOM
 10
16.9992859177
 20
2.391307943
  0
VERTEX
  8
_CURVE
 62
8
  6
PHANTOM
 10
17.3379745721
 20
2.5440197092
  0
VERTEX
  8
_CURVE
 62
8
  6
PHANTOM
 10
17.6692947932
 20
2.7078304116
  0
VERTEX
  8
_CURVE
 62
8
  6
PHANTOM
 10
17.9927357092
 20
2.882487466
  0
VERTEX
  8
_CURVE
 62
8
  6
PHANTOM
 10
18.3077985977
 20
3.0677215639
  0
VERTEX
  8
_CURVE
 62
8
  6
PHANTOM
 10
18.6139976545
 20
3.2632470877
  0
VERTEX
  8
_CURVE
 62
8
  6
PHANTOM
 10
18.9108607429
 20
3.4687625513
  0
VERTEX
  8
_CURVE
 62
8
  6
PHANTOM
 10
19.1979301216
 20
3.6839510647
  0
VERTEX
  8
_CURVE
 62
8
  6
PHANTOM
 10
19.4747631503
 20
3.9084808227
  0
VERTEX
  8
_CURVE
 62
8
  6
PHANTOM
 10
19.7409329726
 20
4.1420056169
  0
VERTEX
  8
_CURVE
 62
8
  6
PHANTOM
 10
19.9960291738
 20
4.3841653688
  0
VERTEX
  8
_CURVE
 62
8
  6
PHANTOM
 10
20.2396584143
 20
4.6345866857
  0
VERTEX
  8
_CURVE
 62
8
  6
PHANTOM
 10
20.4714450353
 20
4.8928834361
  0
VERTEX
  8
_CURVE
 62
8
  6
PHANTOM
 10
20.6910316386
 20
5.1586573451
  0
VERTEX
  8
_CURVE
 62
8
  6
PHANTOM
 10
20.8980796377
 20
5.4314986086
  0
VERTEX
  8
_CURVE
 62
8
  6
PHANTOM
 10
21.0922697794
 20
5.7109865252
  0
VERTEX
  8
_CURVE
 62
8
  6
PHANTOM
 10
21.2733026368
 20
5.9966901447
  0
VERTEX
  8
_CURVE
 62
8
  6
PHANTOM
 10
21.4408990703
 20
6.2881689328
  0
VERTEX
  8
_CURVE
 62
8
  6
PHANTOM
 10
21.5948006582
 20
6.5849734505
  0
VERTEX
  8
_CURVE
 62
8
  6
PHANTOM
 10
21.7347700956
 20
6.8866460466
  0
VERTEX
  8
_CURVE
 62
8
  6
PHANTOM
 10
21.8605915596
 20
7.1927215639
  0
VERTEX
  8
_CURVE
 62
8
  6
PHANTOM
 10
21.9720710428
 20
7.5027280561
  0
VERTEX
  8
_CURVE
 62
8
  6
PHANTOM
 10
22.0690366518
 20
7.8161875157
  0
VERTEX
  8
_CURVE
 62
8
  6
PHANTOM
 10
22.1513388726
 20
8.1326166109
  0
VERTEX
  8
_CURVE
 62
8
  6
PHANTOM
 10
22.2188508013
 20
8.4515274309
  0
VERTEX
  8
_CURVE
 62
8
  6
PHANTOM
 10
22.2714683393
 20
8.7724282385
  0
VERTEX
  8
_CURVE
 62
8
  6
PHANTOM
 10
22.3091103542
 20
9.0948242278
  0
VERTEX
  8
_CURVE
 62
8
  6
PHANTOM
 10
22.3317188047
 20
9.4182182875
  0
VERTEX
  8
_CURVE
 62
8
  6
PHANTOM
 10
22.3392588303
 20
9.7421117675
  0
SEQEND
  0
POLYLINE
  8
_CURVE
 62
7
  6
CONTINUOUS
 66
1
 70
0
  0
VERTEX
  8
_CURVE
 62
7
  6
CONTINUOUS
 10
4.1846381019
 20
9.7421117675
  0
VERTEX
  8
_CURVE
 62
7
  6
CONTINUOUS
 10
4.1853955157
 20
9.6542194618
  0
VERTEX
  8
_CURVE
 62
7
  6
CONTINUOUS
 10
4.1875475776
 20
9.5663492208
  0
VERTEX
  8
_CURVE
 62
7
  6
CONTINUOUS
 10
4.1910863274
 20
9.4785217704
  0
VERTEX
  8
_CURVE
 62
7
  6
CONTINUOUS
 10
4.196003805
 20
9.3907578365
  0
VERTEX
  8
_CURVE
 62
7
  6
CONTINUOUS
 10
4.2022920503
 20
9.3030781451
  0
VERTEX
  8
_CURVE
 62
7
  6
CONTINUOUS
 10
4.209943103
 20
9.2155034221
  0
VERTEX
  8
_CURVE
 62
7
  6
CONTINUOUS
 10
4.2189490032
 20
9.1280543934
  0
VERTEX
  8
_CURVE
 62
7
  6
CONTINUOUS
 10
4.2293017905
 20
9.0407517851
  0
VERTEX
  8
_CURVE
 62
7
  6
CONTINUOUS
 10
4.2409935049
 20
8.9536163229
  0
VERTEX
  8
_CURVE
 62
7
  6
CONTINUOUS
 10
4.2540161862
 20
8.866668733
  0
VERTEX
  8
_CURVE
 62
7
  6
CONTINUOUS
 10
4.2683618744
 20
8.7799297411
  0
VERTEX
  8
_CURVE
 62
7
  6
CONTINUOUS
 10
4.2840226091
 20
8.6934200733
  0
VERTEX
  8
_CURVE
 62
7
  6
CONTINUOUS
 10
4.3009904303
 20
8.6071604554
  0
VERTEX
  8
_CURVE
 62
7
  6
CONTINUOUS
 10
4.3192651179
 20
8.5211357743
  0
VERTEX
  8
_CURVE
 62
7
  6
CONTINUOUS
 10
4.3388317965
 20
8.4353996493
  0
VERTEX
  8
_CURVE
 62
7
  6
CONTINUOUS
 10
4.3596822619
 20
8.3499696377
  0
VERTEX
  8
_CURVE
 62
7
  6
CONTINUOUS
 10
4.3818083102
 20
8.2648632969
  0
VERTEX
  8
_CURVE
 62
7
  6
CONTINUOUS
 10
4.4052017371
 20
8.1800981844
  0
VERTEX
  8
_CURVE
 62
7
  6
CONTINUOUS
 10
4.4298543386
 20
8.0956918574
  0
VERTEX
  8
_CURVE
 62
7
  6
CONTINUOUS
 10
4.4557579104
 20
8.0116618733
  0
VERTEX
  8
_CURVE
 62
7
  6
CONTINUOUS
 10
4.4829042485
 20
7.9280257895
  0
VERTEX
  8
_CURVE
 62
7
  6
CONTINUOUS
 10
4.5112851487
 20
7.8448011635
  0
VERTEX
  8
_CURVE
 62
7
  6
CONTINUOUS
 10
4.5408924069
 20
7.7620055525
  0
VERTEX
  8
_CURVE
 62
7
  6
CONTINUOUS
 10
4.571717819
 20
7.6796565139
  0
VERTEX
  8
_CURVE
 62
7
  6
CONTINUOUS
 10
4.6037531808
 20
7.5977716051
  0
VERTEX
  8
_CURVE
 62
7
  6
CONTINUOUS
 10
4.6369902882
 20
7.5163683835
  0
VERTEX
  8
_CURVE
 62
7
  6
CONTINUOUS
 10
4.673035178
 20
7.4317458108
  0
VERTEX
  8
_CURVE
 62
7
  6
CONTINUOUS
 10
4.7103669538
 20
7.3476819589
  0
VERTEX
  8
_CURVE
 62
7
  6
CONTINUOUS
 10
4.74896638
 20
7.2641892132
  0
VERTEX
  8
_CURVE
 62
7
  6
CONTINUOUS
 10
4.7888142213
 20
7.181279959
  0
VERTEX
  8
_CURVE
 62
7
  6
CONTINUOUS
 10
4.8298912421
 20
7.0989665817
  0
VERTEX
  8
_CURVE
 62
7
  6
CONTINUOUS
 10
4.8721782071
 20
7.0172614666
  0
VERTEX
  8
_CURVE
 62
7
  6
CONTINUOUS
 10
4.9156558807
 20
6.9361769992
  0
VERTEX
  8
_CURVE
 62
7
  6
CONTINUOUS
 10
4.9603050275
 20
6.8557255648
  0
VERTEX
  8
_CURVE
 62
7
  6
CONTINUOUS
 10
5.006106412
 20
6.7759195488
  0
VERTEX
  8
_CURVE
 62
7
  6
CONTINUOUS
 10
5.0530407989
 20
6.6967713365
  0
VERTEX
  8
_CURVE
 62
7
  6
CONTINUOUS
 10
5.1010889526
 20
6.6182933134
  0
VERTEX
  8
_CURVE
 62
7
  6
CONTINUOUS
 10
5.1502316377
 20
6.5404978647
  0
VERTEX
  8
_CURVE
 62
7
  6
CONTINUOUS
 10
5.2004496186
 20
6.4633973758
  0
VERTEX
  8
_CURVE
 62
7
  6
CONTINUOUS
 10
5.2517236601
 20
6.3870042322
  0
VERTEX
  8
_CURVE
 62
7
  6
CONTINUOUS
 10
5.3041148601
 20
6.3112162851
  0
VERTEX
  8
_CURVE
 62
7
  6
CONTINUOUS
 10
5.3575304233
 20
6.2361573351
  0
VERTEX
  8
_CURVE
 62
7
  6
CONTINUOUS
 10
5.4119547565
 20
6.161834475
  0
VERTEX
  8
_CURVE
 62
7
  6
CONTINUOUS
 10
5.4673722663
 20
6.0882547974
  0
VERTEX
  8
_CURVE
 62
7
  6
CONTINUOUS
 10
5.5237673596
 20
6.0154253951
  0
VERTEX
  8
_CURVE
 62
7
  6
CONTINUOUS
 10
5.581124443
 20
5.9433533607
  0
VERTEX
  8
_CURVE
 62
7
  6
CONTINUOUS
 10
5.6394279233
 20
5.8720457871
  0
VERTEX
  8
_CURVE
 62
7
  6
CONTINUOUS
 10
5.6986622071
 20
5.8015097669
  0
VERTEX
  8
_CURVE
 62
7
  6
CONTINUOUS
 10
5.7588117012
 20
5.7317523929
  0
VERTEX
  8
_CURVE
 62
7
  6
CONTINUOUS
 10
5.8198608122
 20
5.6627807577
  0
VERTEX
  8
_CURVE
 62
7
  6
CONTINUOUS
 10
5.881793947
 20
5.5946019542
  0
VERTEX
  8
_CURVE
 62
7
  6
CONTINUOUS
 10
5.9445955121
 20
5.5272230749
  0
VERTEX
  8
_CURVE
 62
7
  6
CONTINUOUS
 10
6.0082499144
 20
5.4606512127
  0
VERTEX
  8
_CURVE
 62
7
  6
CONTINUOUS
 10
6.0727415605
 20
5.3948934602
  0
VERTEX
  8
_CURVE
 62
7
  6
CONTINUOUS
 10
6.143243722
 20
5.3248665378
  0
VERTEX
  8
_CURVE
 62
7
  6
CONTINUOUS
 10
6.2146829966
 20
5.2557986375
  0
VERTEX
  8
_CURVE
 62
7
  6
CONTINUOUS
 10
6.2870400457
 20
5.1876928517
  0
VERTEX
  8
_CURVE
 62
7
  6
CONTINUOUS
 10
6.3602955312
 20
5.1205522729
  0
VERTEX
  8
_CURVE
 62
7
  6
CONTINUOUS
 10
6.4344301145
 20
5.0543799932
  0
VERTEX
  8
_CURVE
 62
7
  6
CONTINUOUS
 10
6.5094244573
 20
4.9891791051
  0
VERTEX
  8
_CURVE
 62
7
  6
CONTINUOUS
 10
6.5852592213
 20
4.924952701
  0
VERTEX
  8
_CURVE
 62
7
  6
CONTINUOUS
 10
6.6619150679
 20
4.8617038731
  0
VERTEX
  8
_CURVE
 62
7
  6
CONTINUOUS
 10
6.7393726589
 20
4.7994357139
  0
VERTEX
  8
_CURVE
 62
7
  6
CONTINUOUS
 10
6.8176126559
 20
4.7381513156
  0
VERTEX
  8
_CURVE
 62
7
  6
CONTINUOUS
 10
6.8966157204
 20
4.6778537707
  0
VERTEX
  8
_CURVE
 62
7
  6
CONTINUOUS
 10
6.9763625141
 20
4.6185461715
  0
VERTEX
  8
_CURVE
 62
7
  6
CONTINUOUS
 10
7.0568336986
 20
4.5602316103
  0
VERTEX
  8
_CURVE
 62
7
  6
CONTINUOUS
 10
7.1380099356
 20
4.5029131795
  0
VERTEX
  8
_CURVE
 62
7
  6
CONTINUOUS
 10
7.2263047534
 20
4.4422298808
  0
VERTEX
  8
_CURVE
 62
7
  6
CONTINUOUS
 10
7.3153775393
 20
4.3827077309
  0
VERTEX
  8
_CURVE
 62
7
  6
CONTINUOUS
 10
7.4052090709
 20
4.324346212
  0
VERTEX
  8
_CURVE
 62
7
  6
CONTINUOUS
 10
7.4957801258
 20
4.2671448067
  0
VERTEX
  8
_CURVE
 62
7
  6
CONTINUOUS
 10
7.5870714816
 20
4.2111029974
  0
VERTEX
  8
_CURVE
 62
7
  6
CONTINUOUS
 10
7.6790639161
 20
4.1562202666
  0
VERTEX
  8
_CURVE
 62
7
  6
CONTINUOUS
 10
7.7717382066
 20
4.1024960966
  0
VERTEX
  8
_CURVE
 62
7
  6
CONTINUOUS
 10
7.865075131
 20
4.0499299701
  0
VERTEX
  8
_CURVE
 62
7
  6
CONTINUOUS
 10
7.9590554668
 20
3.9985213693
  0
VERTEX
  8
_CURVE
 62
7
  6
CONTINUOUS
 10
8.0536599916
 20
3.9482697768
  0
VERTEX
  8
_CURVE
 62
7
  6
CONTINUOUS
 10
8.1488694831
 20
3.899174675
  0
VERTEX
  8
_CURVE
 62
7
  6
CONTINUOUS
 10
8.2446647188
 20
3.8512355463
  0
VERTEX
  8
_CURVE
 62
7
  6
CONTINUOUS
 10
8.3410264765
 20
3.8044518732
  0
VERTEX
  8
_CURVE
 62
7
  6
CONTINUOUS
 10
8.4379672634
 20
3.7588086012
  0
VERTEX
  8
_CURVE
 62
7
  6
CONTINUOUS
 10
8.5354398981
 20
3.7143199335
  0
VERTEX
  8
_CURVE
 62
7
  6
CONTINUOUS
 10
8.6334285781
 20
3.670984796
  0
VERTEX
  8
_CURVE
 62
7
  6
CONTINUOUS
 10
8.7319175007
 20
3.6288021142
  0
VERTEX
  8
_CURVE
 62
7
  6
CONTINUOUS
 10
8.8308908632
 20
3.5877708139
  0
VERTEX
  8
_CURVE
 62
7
  6
CONTINUOUS
 10
8.9303328631
 20
3.5478898208
  0
VERTEX
  8
_CURVE
 62
7
  6
CONTINUOUS
 10
9.0302276976
 20
3.5091580604
  0
VERTEX
  8
_CURVE
 62
7
  6
CONTINUOUS
 10
9.1305595641
 20
3.4715744585
  0
VERTEX
  8
_CURVE
 62
7
  6
CONTINUOUS
 10
9.23131266
 20
3.4351379408
  0
VERTEX
  8
_CURVE
 62
7
  6
CONTINUOUS
 10
9.3324711826
 20
3.3998474329
  0
VERTEX
  8
_CURVE
 62
7
  6
CONTINUOUS
 10
9.4340193293
 20
3.3657018604
  0
VERTEX
  8
_CURVE
 62
7
  6
CONTINUOUS
 10
9.5359412974
 20
3.3327001492
  0
VERTEX
  8
_CURVE
 62
7
  6
CONTINUOUS
 10
9.6382212843
 20
3.3008412248
  0
VERTEX
  8
_CURVE
 62
7
  6
CONTINUOUS
 10
9.7494299817
 20
3.2676099834
  0
VERTEX
  8
_CURVE
 62
7
  6
CONTINUOUS
 10
9.861024804
 20
3.235716406
  0
VERTEX
  8
_CURVE
 62
7
  6
CONTINUOUS
 10
9.9729901107
 20
3.205157774
  0
VERTEX
  8
_CURVE
 62
7
  6
CONTINUOUS
 10
10.0853102616
 20
3.1759313688
  0
VERTEX
  8
_CURVE
 62
7
  6
CONTINUOUS
 10
10.1979696161
 20
3.1480344719
  0
VERTEX
  8
_CURVE
 62
7
  6
CONTINUOUS
 10
10.3109525337
 20
3.1214643648
  0
VERTEX
  8
_CURVE
 62
7
  6
CONTINUOUS
 10
10.4242433742
 20
3.096218329
  0
VERTEX
  8
_CURVE
 62
7
  6
CONTINUOUS
 10
10.537826497
 20
3.0722936459
  0
VERTEX
  8
_CURVE
 62
7
  6
CONTINUOUS
 10
10.6516862618
 20
3.049687597
  0
VERTEX
  8
_CURVE
 62
7
  6
CONTINUOUS
 10
10.7658070281
 20
3.0283974638
  0
VERTEX
  8
_CURVE
 62
7
  6
CONTINUOUS
 10
10.8801731554
 20
3.0084205278
  0
VERTEX
  8
_CURVE
 62
7
  6
CONTINUOUS
 10
10.9947690034
 20
2.9897540704
  0
VERTEX
  8
_CURVE
 62
7
  6
CONTINUOUS
 10
11.1036789882
 20
2.9732555266
  0
VERTEX
  8
_CURVE
 62
7
  6
CONTINUOUS
 10
11.2127684586
 20
2.9579355618
  0
VERTEX
  8
_CURVE
 62
7
  6
CONTINUOUS
 10
11.3220242397
 20
2.9437958428
  0
VERTEX
  8
_CURVE
 62
7
  6
CONTINUOUS
 10
11.4314331567
 20
2.9308380366
  0
VERTEX
  8
_CURVE
 62
7
  6
CONTINUOUS
 10
11.5409820347
 20
2.9190638103
  0
VERTEX
  8
_CURVE
 62
7
  6
CONTINUOUS
 10
11.6506576989
 20
2.9084748307
  0
VERTEX
  8
_CURVE
 62
7
  6
CONTINUOUS
 10
11.7604469744
 20
2.899072765
  0
VERTEX
  8
_CURVE
 62
7
  6
CONTINUOUS
 10
11.8703366865
 20
2.89085928
  0
VERTEX
  8
_CURVE
 62
7
  6
CONTINUOUS
 10
11.9803136602
 20
2.8838360427
  0
VERTEX
  8
_CURVE
 62
7
  6
CONTINUOUS
 10
12.0903647208
 20
2.8780047202
  0
VERTEX
  8
_CURVE
 62
7
  6
CONTINUOUS
 10
12.2004766933
 20
2.8733669793
  0
VERTEX
  8
_CURVE
 62
7
  6
CONTINUOUS
 10
12.310636403
 20
2.8699244871
  0
VERTEX
  8
_CURVE
 62
7
  6
CONTINUOUS
 10
12.420830675
 20
2.8676789105
  0
VERTEX
  8
_CURVE
 62
7
  6
CONTINUOUS
 10
12.5310463345
 20
2.8666319166
  0
VERTEX
  8
_CURVE
 62
7
  6
CONTINUOUS
 10
12.6412702066
 20
2.8667851723
  0
VERTEX
  8
_CURVE
 62
7
  6
CONTINUOUS
 10
12.7514891166
 20
2.8681403445
  0
VERTEX
  8
_CURVE
 62
7
  6
CONTINUOUS
 10
12.8616898894
 20
2.8706991004
  0
VERTEX
  8
_CURVE
 62
7
  6
CONTINUOUS
 10
12.9718593504
 20
2.8744631067
  0
VERTEX
  8
_CURVE
 62
7
  6
CONTINUOUS
 10
13.0820482075
 20
2.8794369773
  0
VERTEX
  8
_CURVE
 62
7
  6
CONTINUOUS
 10
13.1921780194
 20
2.8856190449
  0
VERTEX
  8
_CURVE
 62
7
  6
CONTINUOUS
 10
13.3022342796
 20
2.8930091836
  0
VERTEX
  8
_CURVE
 62
7
  6
CONTINUOUS
 10
13.4122024815
 20
2.9016072669
  0
VERTEX
  8
_CURVE
 62
7
  6
CONTINUOUS
 10
13.5220681184
 20
2.9114131689
  0
VERTEX
  8
_CURVE
 62
7
  6
CONTINUOUS
 10
13.6318166838
 20
2.9224267633
  0
VERTEX
  8
_CURVE
 62
7
  6
CONTINUOUS
 10
13.741433671
 20
2.9346479239
  0
VERTEX
  8
_CURVE
 62
7
  6
CONTINUOUS
 10
13.8509045736
 20
2.9480765246
  0
VERTEX
  8
_CURVE
 62
7
  6
CONTINUOUS
 10
13.9602148848
 20
2.9627124392
  0
VERTEX
  8
_CURVE
 62
7
  6
CONTINUOUS
 10
14.069350098
 20
2.9785555414
  0
VERTEX
  8
_CURVE
 62
7
  6
CONTINUOUS
 10
14.1782957067
 20
2.9956057052
  0
VERTEX
  8
_CURVE
 62
7
  6
CONTINUOUS
 10
14.2870372043
 20
3.0138628043
  0
VERTEX
  8
_CURVE
 62
7
  6
CONTINUOUS
 10
14.3955600842
 20
3.0333267127
  0
VERTEX
  8
_CURVE
 62
7
  6
CONTINUOUS
 10
14.5038498398
 20
3.053997304
  0
VERTEX
  8
_CURVE
 62
7
  6
CONTINUOUS
 10
14.6118919644
 20
3.0758744521
  0
VERTEX
  8
_CURVE
 62
7
  6
CONTINUOUS
 10
14.7196719515
 20
3.0989580308
  0
VERTEX
  8
_CURVE
 62
7
  6
CONTINUOUS
 10
14.8271752945
 20
3.123247914
  0
VERTEX
  8
_CURVE
 62
7
  6
CONTINUOUS
 10
14.9343874868
 20
3.1487439755
  0
VERTEX
  8
_CURVE
 62
7
  6
CONTINUOUS
 10
15.0391850136
 20
3.1749069364
  0
VERTEX
  8
_CURVE
 62
7
  6
CONTINUOUS
 10
15.1436759395
 20
3.2022291707
  0
VERTEX
  8
_CURVE
 62
7
  6
CONTINUOUS
 10
15.2478473623
 20
3.2307110857
  0
VERTEX
  8
_CURVE
 62
7
  6
CONTINUOUS
 10
15.3516863798
 20
3.2603530886
  0
VERTEX
  8
_CURVE
 62
7
  6
CONTINUOUS
 10
15.4551800899
 20
3.2911555868
  0
VERTEX
  8
_CURVE
 62
7
  6
CONTINUOUS
 10
15.5583155903
 20
3.3231189874
  0
VERTEX
  8
_CURVE
 62
7
  6
CONTINUOUS
 10
15.6610799789
 20
3.3562436979
  0
VERTEX
  8
_CURVE
 62
7
  6
CONTINUOUS
 10
15.7634603534
 20
3.3905301253
  0
VERTEX
  8
_CURVE
 62
7
  6
CONTINUOUS
 10
15.8654438116
 20
3.4259786771
  0
VERTEX
  8
_CURVE
 62
7
  6
CONTINUOUS
 10
15.9670174514
 20
3.4625897605
  0
VERTEX
  8
_CURVE
 62
7
  6
CONTINUOUS
 10
16.0681683705
 20
3.5003637827
  0
VERTEX
  8
_CURVE
 62
7
  6
CONTINUOUS
 10
16.1687699776
 20
3.5392568741
  0
VERTEX
  8
_CURVE
 62
7
  6
CONTINUOUS
 10
16.2689194422
 20
3.579311865
  0
VERTEX
  8
_CURVE
 62
7
  6
CONTINUOUS
 10
16.3685992663
 20
3.6205299215
  0
VERTEX
  8
_CURVE
 62
7
  6
CONTINUOUS
 10
16.4677919516
 20
3.6629122097
  0
VERTEX
  8
_CURVE
 62
7
  6
CONTINUOUS
 10
16.5664800002
 20
3.706459896
  0
VERTEX
  8
_CURVE
 62
7
  6
CONTINUOUS
 10
16.6646459139
 20
3.7511741464
  0
VERTEX
  8
_CURVE
 62
7
  6
CONTINUOUS
 10
16.7622721947
 20
3.7970561271
  0
VERTEX
  8
_CURVE
 62
7
  6
CONTINUOUS
 10
16.8593413446
 20
3.8441070043
  0
VERTEX
  8
_CURVE
 62
7
  6
CONTINUOUS
 10
16.9558358654
 20
3.8923279441
  0
VERTEX
  8
_CURVE
 62
7
  6
CONTINUOUS
 10
17.051738259
 20
3.9417201128
  0
VERTEX
  8
_CURVE
 62
7
  6
CONTINUOUS
 10
17.1470310275
 20
3.9922846765
  0
VERTEX
  8
_CURVE
 62
7
  6
CONTINUOUS
 10
17.2414175337
 20
4.043868049
  0
VERTEX
  8
_CURVE
 62
7
  6
CONTINUOUS
 10
17.3351599674
 20
4.09661771
  0
VERTEX
  8
_CURVE
 62
7
  6
CONTINUOUS
 10
17.4282376812
 20
4.1505333069
  0
VERTEX
  8
_CURVE
 62
7
  6
CONTINUOUS
 10
17.5206300278
 20
4.2056144874
  0
VERTEX
  8
_CURVE
 62
7
  6
CONTINUOUS
 10
17.6123163598
 20
4.2618608989
  0
VERTEX
  8
_CURVE
 62
7
  6
CONTINUOUS
 10
17.70327603
 20
4.3192721892
  0
VERTEX
  8
_CURVE
 62
7
  6
CONTINUOUS
 10
17.7934883909
 20
4.3778480056
  0
VERTEX
  8
_CURVE
 62
7
  6
CONTINUOUS
 10
17.8829327953
 20
4.4375879959
  0
VERTEX
  8
_CURVE
 62
7
  6
CONTINUOUS
 10
17.9715885959
 20
4.4984918076
  0
VERTEX
  8
_CURVE
 62
7
  6
CONTINUOUS
 10
18.0594351452
 20
4.5605590882
  0
VERTEX
  8
_CURVE
 62
7
  6
CONTINUOUS
 10
18.1464517959
 20
4.6237894854
  0
VERTEX
  8
_CURVE
 62
7
  6
CONTINUOUS
 10
18.225404648
 20
4.6827219498
  0
VERTEX
  8
_CURVE
 62
7
  6
CONTINUOUS
 10
18.3036269058
 20
4.7426256514
  0
VERTEX
  8
_CURVE
 62
7
  6
CONTINUOUS
 10
18.3811014792
 20
4.8034964099
  0
VERTEX
  8
_CURVE
 62
7
  6
CONTINUOUS
 10
18.4578112785
 20
4.8653300448
  0
VERTEX
  8
_CURVE
 62
7
  6
CONTINUOUS
 10
18.5337392138
 20
4.928122376
  0
VERTEX
  8
_CURVE
 62
7
  6
CONTINUOUS
 10
18.608868195
 20
4.9918692229
  0
VERTEX
  8
_CURVE
 62
7
  6
CONTINUOUS
 10
18.6831811324
 20
5.0565664053
  0
VERTEX
  8
_CURVE
 62
7
  6
CONTINUOUS
 10
18.7566609359
 20
5.1222097429
  0
VERTEX
  8
_CURVE
 62
7
  6
CONTINUOUS
 10
18.8292905158
 20
5.1887950553
  0
VERTEX
  8
_CURVE
 62
7
  6
CONTINUOUS
 10
18.901052782
 20
5.2563181621
  0
VERTEX
  8
_CURVE
 62
7
  6
CONTINUOUS
 10
18.9719306447
 20
5.3247748831
  0
VERTEX
  8
_CURVE
 62
7
  6
CONTINUOUS
 10
19.041907014
 20
5.3941610379
  0
VERTEX
  8
_CURVE
 62
7
  6
CONTINUOUS
 10
19.1065939271
 20
5.4599664941
  0
VERTEX
  8
_CURVE
 62
7
  6
CONTINUOUS
 10
19.1704589387
 20
5.5265770157
  0
VERTEX
  8
_CURVE
 62
7
  6
CONTINUOUS
 10
19.2334854507
 20
5.593986517
  0
VERTEX
  8
_CURVE
 62
7
  6
CONTINUOUS
 10
19.2956568652
 20
5.6621889123
  0
VERTEX
  8
_CURVE
 62
7
  6
CONTINUOUS
 10
19.3569565841
 20
5.731178116
  0
VERTEX
  8
_CURVE
 62
7
  6
CONTINUOUS
 10
19.4173680095
 20
5.8009480423
  0
VERTEX
  8
_CURVE
 62
7
  6
CONTINUOUS
 10
19.4768745433
 20
5.8714926056
  0
VERTEX
  8
_CURVE
 62
7
  6
CONTINUOUS
 10
19.5354595875
 20
5.9428057202
  0
VERTEX
  8
_CURVE
 62
7
  6
CONTINUOUS
 10
19.5931065441
 20
6.0148813004
  0
VERTEX
  8
_CURVE
 62
7
  6
CONTINUOUS
 10
19.6497988152
 20
6.0877132604
  0
VERTEX
  8
_CURVE
 62
7
  6
CONTINUOUS
 10
19.7055198027
 20
6.1612955146
  0
VERTEX
  8
_CURVE
 62
7
  6
CONTINUOUS
 10
19.7602529086
 20
6.2356219774
  0
SEQEND
  0
LINE
  8
DEFAULT_1
 62
7
  6
CENTER
 10
4.7527588303
 20
15.2081117675
 11
4.7527588303
 21
15.1080117675
  0
LINE
  8
DEFAULT_1
 62
7
  6
CENTER
 10
4.7527588303
 20
4.2761117675
 11
4.7527588303
 21
4.1760117675
  0
LINE
  8
DEFAULT_1
 62
7
  6
CENTER
 10
4.7527588303
 20
4.2761117675
 11
4.7527588303
 21
4.3762117675
  0
LINE
  8
DEFAULT_1
 62
7
  6
CENTER
 10
4.7527588303
 20
15.2081117675
 11
4.7527588303
 21
15.3082117675
  0
POLYLINE
  8
_CURVE
 62
7
  6
CONTINUOUS
 66
1
 70
0
  0
VERTEX
  8
_CURVE
 62
7
  6
CONTINUOUS
 10
5.714089214
 20
13.6977361875
  0
VERTEX
  8
_CURVE
 62
7
  6
CONTINUOUS
 10
5.6563182711
 20
13.6296582345
  0
VERTEX
  8
_CURVE
 62
7
  6
CONTINUOUS
 10
5.5994005322
 20
13.560861208
  0
VERTEX
  8
_CURVE
 62
7
  6
CONTINUOUS
 10
5.5433542356
 20
13.4913548546
  0
VERTEX
  8
_CURVE
 62
7
  6
CONTINUOUS
 10
5.4881976194
 20
13.4211489206
  0
VERTEX
  8
_CURVE
 62
7
  6
CONTINUOUS
 10
5.4339489218
 20
13.3502531527
  0
VERTEX
  8
_CURVE
 62
7
  6
CONTINUOUS
 10
5.3806263813
 20
13.2786772973
  0
VERTEX
  8
_CURVE
 62
7
  6
CONTINUOUS
 10
5.3282482359
 20
13.2064311009
  0
VERTEX
  8
_CURVE
 62
7
  6
CONTINUOUS
 10
5.276832724
 20
13.1335243099
  0
VERTEX
  8
_CURVE
 62
7
  6
CONTINUOUS
 10
5.2263980838
 20
13.0599666708
  0
VERTEX
  8
_CURVE
 62
7
  6
CONTINUOUS
 10
5.1769625535
 20
12.9857679302
  0
VERTEX
  8
_CURVE
 62
7
  6
CONTINUOUS
 10
5.1285443713
 20
12.9109378345
  0
VERTEX
  8
_CURVE
 62
7
  6
CONTINUOUS
 10
5.0811617756
 20
12.8354861301
  0
VERTEX
  8
_CURVE
 62
7
  6
CONTINUOUS
 10
5.0348330045
 20
12.7594225637
  0
VERTEX
  8
_CURVE
 62
7
  6
CONTINUOUS
 10
4.9895762963
 20
12.6827568815
  0
VERTEX
  8
_CURVE
 62
7
  6
CONTINUOUS
 10
4.9454098893
 20
12.6054988302
  0
VERTEX
  8
_CURVE
 62
7
  6
CONTINUOUS
 10
4.9023520217
 20
12.5276581563
  0
VERTEX
  8
_CURVE
 62
7
  6
CONTINUOUS
 10
4.8604209317
 20
12.4492446061
  0
VERTEX
  8
_CURVE
 62
7
  6
CONTINUOUS
 10
4.8196348576
 20
12.3702679262
  0
VERTEX
  8
_CURVE
 62
7
  6
CONTINUOUS
 10
4.7800120376
 20
12.2907378631
  0
VERTEX
  8
_CURVE
 62
7
  6
CONTINUOUS
 10
4.7415707099
 20
12.2106641633
  0
VERTEX
  8
_CURVE
 62
7
  6
CONTINUOUS
 10
4.7043291129
 20
12.1300565731
  0
VERTEX
  8
_CURVE
 62
7
  6
CONTINUOUS
 10
4.6683054848
 20
12.0489248392
  0
VERTEX
  8
_CURVE
 62
7
  6
CONTINUOUS
 10
4.6335180637
 20
11.967278708
  0
VERTEX
  8
_CURVE
 62
7
  6
CONTINUOUS
 10
4.600284338
 20
11.8858840538
  0
VERTEX
  8
_CURVE
 62
7
  6
CONTINUOUS
 10
4.5682868061
 20
11.8040113067
  0
VERTEX
  8
_CURVE
 62
7
  6
CONTINUOUS
 10
4.5375300945
 20
11.721677821
  0
VERTEX
  8
_CURVE
 62
7
  6
CONTINUOUS
 10
4.5080188293
 20
11.6389009508
  0
VERTEX
  8
_CURVE
 62
7
  6
CONTINUOUS
 10
4.479757637
 20
11.5556980507
  0
VERTEX
  8
_CURVE
 62
7
  6
CONTINUOUS
 10
4.4527511439
 20
11.4720864749
  0
VERTEX
  8
_CURVE
 62
7
  6
CONTINUOUS
 10
4.4270039763
 20
11.3880835776
  0
VERTEX
  8
_CURVE
 62
7
  6
CONTINUOUS
 10
4.4025207606
 20
11.3037067134
  0
VERTEX
  8
_CURVE
 62
7
  6
CONTINUOUS
 10
4.379306123
 20
11.2189732364
  0
VERTEX
  8
_CURVE
 62
7
  6
CONTINUOUS
 10
4.3573646899
 20
11.133900501
  0
VERTEX
  8
_CURVE
 62
7
  6
CONTINUOUS
 10
4.3367010876
 20
11.0485058615
  0
VERTEX
  8
_CURVE
 62
7
  6
CONTINUOUS
 10
4.3173199425
 20
10.9628066722
  0
VERTEX
  8
_CURVE
 62
7
  6
CONTINUOUS
 10
4.2992258808
 20
10.8768202875
  0
VERTEX
  8
_CURVE
 62
7
  6
CONTINUOUS
 10
4.2824251438
 20
10.7905698606
  0
VERTEX
  8
_CURVE
 62
7
  6
CONTINUOUS
 10
4.2669244239
 20
10.7040704826
  0
VERTEX
  8
_CURVE
 62
7
  6
CONTINUOUS
 10
4.2527321841
 20
10.6173430109
  0
VERTEX
  8
_CURVE
 62
7
  6
CONTINUOUS
 10
4.2398568879
 20
10.5304083029
  0
VERTEX
  8
_CURVE
 62
7
  6
CONTINUOUS
 10
4.2283069982
 20
10.4432872159
  0
VERTEX
  8
_CURVE
 62
7
  6
CONTINUOUS
 10
4.2180909783
 20
10.3560006074
  0
VERTEX
  8
_CURVE
 62
7
  6
CONTINUOUS
 10
4.2092172915
 20
10.2685693348
  0
VERTEX
  8
_CURVE
 62
7
  6
CONTINUOUS
 10
4.2016944008
 20
10.1810142555
  0
VERTEX
  8
_CURVE
 62
7
  6
CONTINUOUS
 10
4.1955307695
 20
10.0933562268
  0
VERTEX
  8
_CURVE
 62
7
  6
CONTINUOUS
 10
4.1907348608
 20
10.0056161063
  0
VERTEX
  8
_CURVE
 62
7
  6
CONTINUOUS
 10
4.1873151378
 20
9.9178147513
  0
VERTEX
  8
_CURVE
 62
7
  6
CONTINUOUS
 10
4.1852800638
 20
9.8299730193
  0
VERTEX
  8
_CURVE
 62
7
  6
CONTINUOUS
 10
4.1846381019
 20
9.7421117675
  0
SEQEND
  0
LINE
  8
DEFAULT_1
 62
7
  6
CENTER
 10
20.3657588303
 20
4.2761117675
 11
20.2656588303
 21
4.2761117675
  0
LINE
  8
DEFAULT_1
 62
7
  6
CENTER
 10
4.7527588303
 20
4.2761117675
 11
4.6526588303
 21
4.2761117675
  0
LINE
  8
DEFAULT_1
 62
7
  6
CENTER
 10
4.7527588303
 20
4.2761117675
 11
4.8528588303
 21
4.2761117675
  0
LINE
  8
DEFAULT_1
 62
7
  6
CENTER
 10
20.3657588303
 20
4.2761117675
 11
20.4658588303
 21
4.2761117675
  0
LINE
  8
_CURVE
 62
2
  6
CENTER
 10
22.6637110869
 20
9.7421117675
 11
20.8911578499
 21
9.7421117675
  0
LINE
  8
_CURVE
 62
2
  6
CENTER
 10
4.4248831651
 20
9.7421117675
 11
2.6523299281
 21
9.7421117675
  0
LINE
  8
_CURVE
 62
2
  6
CENTER
 10
12.5592588303
 20
18.1538045433
 11
12.5592588303
 21
16.3812513063
  0
LINE
  8
_CURVE
 62
2
  6
CENTER
 10
12.5592588303
 20
3.0976619741
 11
12.5592588303
 21
1.3251087371
  0
LINE
  8
DEFAULT_1
 62
7
  6
CENTER
 10
20.3657588303
 20
15.2081117675
 11
20.2656588303
 21
15.2081117675
  0
LINE
  8
DEFAULT_1
 62
7
  6
CENTER
 10
4.7527588303
 20
15.2081117675
 11
4.6526588303
 21
15.2081117675
  0
LINE
  8
DEFAULT_1
 62
7
  6
CENTER
 10
4.7527588303
 20
15.2081117675
 11
4.8528588303
 21
15.2081117675
  0
LINE
  8
DEFAULT_1
 62
7
  6
CENTER
 10
20.3657588303
 20
15.2081117675
 11
20.4658588303
 21
15.2081117675
  0
LINE
  8
DEFAULT_1
 62
7
  6
CENTER
 10
20.3657588303
 20
15.2081117675
 11
20.3657588303
 21
15.1080117675
  0
LINE
  8
DEFAULT_1
 62
7
  6
CENTER
 10
20.3657588303
 20
4.2761117675
 11
20.3657588303
 21
4.1760117675
  0
LINE
  8
DEFAULT_1
 62
7
  6
CENTER
 10
20.3657588303
 20
4.2761117675
 11
20.3657588303
 21
4.3762117675
  0
LINE
  8
DEFAULT_1
 62
7
  6
CENTER
 10
20.3657588303
 20
15.2081117675
 11
20.3657588303
 21
15.3082117675
  0
POLYLINE
  8
_CURVE
 62
7
  6
CONTINUOUS
 66
1
 70
0
  0
VERTEX
  8
_CURVE
 62
7
  6
CONTINUOUS
 10
20.935250188
 20
9.7103563138
  0
VERTEX
  8
_CURVE
 62
7
  6
CONTINUOUS
 10
20.9353001897
 20
9.7418811901
  0
VERTEX
  8
_CURVE
 62
7
  6
CONTINUOUS
 10
20.9345423756
 20
9.8262682682
  0
VERTEX
  8
_CURVE
 62
7
  6
CONTINUOUS
 10
20.9324916623
 20
9.9106649192
  0
VERTEX
  8
_CURVE
 62
7
  6
CONTINUOUS
 10
20.9291553894
 20
9.9950520602
  0
VERTEX
  8
_CURVE
 62
7
  6
CONTINUOUS
 10
20.9245408968
 20
10.0794106087
  0
VERTEX
  8
_CURVE
 62
7
  6
CONTINUOUS
 10
20.9186555243
 20
10.1637214819
  0
VERTEX
  8
_CURVE
 62
7
  6
CONTINUOUS
 10
20.9115066115
 20
10.2479655972
  0
VERTEX
  8
_CURVE
 62
7
  6
CONTINUOUS
 10
20.9031014984
 20
10.3321238718
  0
VERTEX
  8
_CURVE
 62
7
  6
CONTINUOUS
 10
20.8934475246
 20
10.4161772232
  0
VERTEX
  8
_CURVE
 62
7
  6
CONTINUOUS
 10
20.88255203
 20
10.5001065685
  0
VERTEX
  8
_CURVE
 62
7
  6
CONTINUOUS
 10
20.8704223543
 20
10.5838928251
  0
VERTEX
  8
_CURVE
 62
7
  6
CONTINUOUS
 10
20.8570658374
 20
10.6675169104
  0
VERTEX
  8
_CURVE
 62
7
  6
CONTINUOUS
 10
20.8424898189
 20
10.7509597416
  0
VERTEX
  8
_CURVE
 62
7
  6
CONTINUOUS
 10
20.8267016388
 20
10.8342022361
  0
VERTEX
  8
_CURVE
 62
7
  6
CONTINUOUS
 10
20.8097086366
 20
10.9172253111
  0
VERTEX
  8
_CURVE
 62
7
  6
CONTINUOUS
 10
20.7915181524
 20
11.000009884
  0
VERTEX
  8
_CURVE
 62
7
  6
CONTINUOUS
 10
20.7721375257
 20
11.0825368721
  0
VERTEX
  8
_CURVE
 62
7
  6
CONTINUOUS
 10
20.7515740964
 20
11.1647871928
  0
VERTEX
  8
_CURVE
 62
7
  6
CONTINUOUS
 10
20.7298352043
 20
11.2467417632
  0
VERTEX
  8
_CURVE
 62
7
  6
CONTINUOUS
 10
20.7069281892
 20
11.3283815008
  0
VERTEX
  8
_CURVE
 62
7
  6
CONTINUOUS
 10
20.6828603908
 20
11.4096873229
  0
VERTEX
  8
_CURVE
 62
7
  6
CONTINUOUS
 10
20.6576391489
 20
11.4906401467
  0
VERTEX
  8
_CURVE
 62
7
  6
CONTINUOUS
 10
20.6312718033
 20
11.5712208897
  0
VERTEX
  8
_CURVE
 62
7
  6
CONTINUOUS
 10
20.6037656937
 20
11.651410469
  0
VERTEX
  8
_CURVE
 62
7
  6
CONTINUOUS
 10
20.5751281601
 20
11.731189802
  0
VERTEX
  8
_CURVE
 62
7
  6
CONTINUOUS
 10
20.545366542
 20
11.8105398061
  0
VERTEX
  8
_CURVE
 62
7
  6
CONTINUOUS
 10
20.5144881794
 20
11.8894413985
  0
VERTEX
  8
_CURVE
 62
7
  6
CONTINUOUS
 10
20.4825004119
 20
11.9678754966
  0
VERTEX
  8
_CURVE
 62
7
  6
CONTINUOUS
 10
20.4477269307
 20
12.0497133364
  0
VERTEX
  8
_CURVE
 62
7
  6
CONTINUOUS
 10
20.4117544594
 20
12.1310063153
  0
VERTEX
  8
_CURVE
 62
7
  6
CONTINUOUS
 10
20.3745991472
 20
12.2117460732
  0
VERTEX
  8
_CURVE
 62
7
  6
CONTINUOUS
 10
20.336277143
 20
12.29192425
  0
VERTEX
  8
_CURVE
 62
7
  6
CONTINUOUS
 10
20.2968045958
 20
12.3715324856
  0
VERTEX
  8
_CURVE
 62
7
  6
CONTINUOUS
 10
20.2561976546
 20
12.4505624198
  0
VERTEX
  8
_CURVE
 62
7
  6
CONTINUOUS
 10
20.2144724685
 20
12.5290056925
  0
VERTEX
  8
_CURVE
 62
7
  6
CONTINUOUS
 10
20.1716451864
 20
12.6068539436
  0
VERTEX
  8
_CURVE
 62
7
  6
CONTINUOUS
 10
20.1277319574
 20
12.6840988131
  0
VERTEX
  8
_CURVE
 62
7
  6
CONTINUOUS
 10
20.0827489305
 20
12.7607319407
  0
VERTEX
  8
_CURVE
 62
7
  6
CONTINUOUS
 10
20.0367122546
 20
12.8367449663
  0
VERTEX
  8
_CURVE
 62
7
  6
CONTINUOUS
 10
19.9896380787
 20
12.9121295298
  0
VERTEX
  8
_CURVE
 62
7
  6
CONTINUOUS
 10
19.9415425519
 20
12.9868772712
  0
VERTEX
  8
_CURVE
 62
7
  6
CONTINUOUS
 10
19.8924418232
 20
13.0609798302
  0
VERTEX
  8
_CURVE
 62
7
  6
CONTINUOUS
 10
19.8423520416
 20
13.1344288468
  0
VERTEX
  8
_CURVE
 62
7
  6
CONTINUOUS
 10
19.7912893561
 20
13.2072159608
  0
VERTEX
  8
_CURVE
 62
7
  6
CONTINUOUS
 10
19.7392699156
 20
13.2793328122
  0
VERTEX
  8
_CURVE
 62
7
  6
CONTINUOUS
 10
19.6863098693
 20
13.3507710407
  0
VERTEX
  8
_CURVE
 62
7
  6
CONTINUOUS
 10
19.632425366
 20
13.4215222863
  0
VERTEX
  8
_CURVE
 62
7
  6
CONTINUOUS
 10
19.5776325548
 20
13.4915781889
  0
VERTEX
  8
_CURVE
 62
7
  6
CONTINUOUS
 10
19.5219475848
 20
13.5609303883
  0
VERTEX
  8
_CURVE
 62
7
  6
CONTINUOUS
 10
19.4653866048
 20
13.6295705244
  0
VERTEX
  8
_CURVE
 62
7
  6
CONTINUOUS
 10
19.407965764
 20
13.6974902371
  0
VERTEX
  8
_CURVE
 62
7
  6
CONTINUOUS
 10
19.3497012113
 20
13.7646811663
  0
VERTEX
  8
_CURVE
 62
7
  6
CONTINUOUS
 10
19.2906090957
 20
13.8311349518
  0
VERTEX
  8
_CURVE
 62
7
  6
CONTINUOUS
 10
19.2307055663
 20
13.8968432336
  0
VERTEX
  8
_CURVE
 62
7
  6
CONTINUOUS
 10
19.170006772
 20
13.9617976515
  0
VERTEX
  8
_CURVE
 62
7
  6
CONTINUOUS
 10
19.1085288618
 20
14.0259898453
  0
VERTEX
  8
_CURVE
 62
7
  6
CONTINUOUS
 10
19.0462879848
 20
14.0894114551
  0
VERTEX
  8
_CURVE
 62
7
  6
CONTINUOUS
 10
18.9757110469
 20
14.1595010741
  0
VERTEX
  8
_CURVE
 62
7
  6
CONTINUOUS
 10
18.9042148875
 20
14.2286132524
  0
VERTEX
  8
_CURVE
 62
7
  6
CONTINUOUS
 10
18.8318165755
 20
14.2967471171
  0
VERTEX
  8
_CURVE
 62
7
  6
CONTINUOUS
 10
18.7585331801
 20
14.3639017953
  0
VERTEX
  8
_CURVE
 62
7
  6
CONTINUOUS
 10
18.6843817703
 20
14.4300764141
  0
VERTEX
  8
_CURVE
 62
7
  6
CONTINUOUS
 10
18.6093794153
 20
14.4952701005
  0
VERTEX
  8
_CURVE
 62
7
  6
CONTINUOUS
 10
18.5335431842
 20
14.5594819817
  0
VERTEX
  8
_CURVE
 62
7
  6
CONTINUOUS
 10
18.4568901459
 20
14.6227111848
  0
VERTEX
  8
_CURVE
 62
7
  6
CONTINUOUS
 10
18.3794373697
 20
14.6849568368
  0
VERTEX
  8
_CURVE
 62
7
  6
CONTINUOUS
 10
18.3012019246
 20
14.7462180648
  0
VERTEX
  8
_CURVE
 62
7
  6
CONTINUOUS
 10
18.2222008797
 20
14.806493996
  0
VERTEX
  8
_CURVE
 62
7
  6
CONTINUOUS
 10
18.1424513041
 20
14.8657837574
  0
VERTEX
  8
_CURVE
 62
7
  6
CONTINUOUS
 10
18.0619702669
 20
14.9240864761
  0
VERTEX
  8
_CURVE
 62
7
  6
CONTINUOUS
 10
17.9807748371
 20
14.9814012792
  0
VERTEX
  8
_CURVE
 62
7
  6
CONTINUOUS
 10
17.8988820838
 20
15.0377272937
  0
VERTEX
  8
_CURVE
 62
7
  6
CONTINUOUS
 10
17.8163090763
 20
15.0930636469
  0
VERTEX
  8
_CURVE
 62
7
  6
CONTINUOUS
 10
17.7330728834
 20
15.1474094658
  0
VERTEX
  8
_CURVE
 62
7
  6
CONTINUOUS
 10
17.6491905744
 20
15.2007638774
  0
VERTEX
  8
_CURVE
 62
7
  6
CONTINUOUS
 10
17.5646792183
 20
15.2531260089
  0
VERTEX
  8
_CURVE
 62
7
  6
CONTINUOUS
 10
17.4795558842
 20
15.3044949873
  0
VERTEX
  8
_CURVE
 62
7
  6
CONTINUOUS
 10
17.3938376412
 20
15.3548699398
  0
VERTEX
  8
_CURVE
 62
7
  6
CONTINUOUS
 10
17.3075415583
 20
15.4042499935
  0
VERTEX
  8
_CURVE
 62
7
  6
CONTINUOUS
 10
17.2206847047
 20
15.4526342753
  0
VERTEX
  8
_CURVE
 62
7
  6
CONTINUOUS
 10
17.1332841495
 20
15.5000219125
  0
VERTEX
  8
_CURVE
 62
7
  6
CONTINUOUS
 10
17.0453569618
 20
15.5464120321
  0
VERTEX
  8
_CURVE
 62
7
  6
CONTINUOUS
 10
16.9569202105
 20
15.5918037612
  0
VERTEX
  8
_CURVE
 62
7
  6
CONTINUOUS
 10
16.8679909649
 20
15.6361962268
  0
VERTEX
  8
_CURVE
 62
7
  6
CONTINUOUS
 10
16.7785862941
 20
15.6795885562
  0
VERTEX
  8
_CURVE
 62
7
  6
CONTINUOUS
 10
16.6815559205
 20
15.7253088546
  0
VERTEX
  8
_CURVE
 62
7
  6
CONTINUOUS
 10
16.5840058626
 20
15.7698644756
  0
VERTEX
  8
_CURVE
 62
7
  6
CONTINUOUS
 10
16.4859505996
 20
15.8132573079
  0
VERTEX
  8
_CURVE
 62
7
  6
CONTINUOUS
 10
16.3874046108
 20
15.8554892403
  0
VERTEX
  8
_CURVE
 62
7
  6
CONTINUOUS
 10
16.2883823756
 20
15.8965621615
  0
VERTEX
  8
_CURVE
 62
7
  6
CONTINUOUS
 10
16.1888983733
 20
15.9364779601
  0
VERTEX
  8
_CURVE
 62
7
  6
CONTINUOUS
 10
16.0889670831
 20
15.975238525
  0
VERTEX
  8
_CURVE
 62
7
  6
CONTINUOUS
 10
15.9886029845
 20
16.0128457447
  0
VERTEX
  8
_CURVE
 62
7
  6
CONTINUOUS
 10
15.8878205566
 20
16.0493015081
  0
VERTEX
  8
_CURVE
 62
7
  6
CONTINUOUS
 10
15.7866342789
 20
16.0846077038
  0
VERTEX
  8
_CURVE
 62
7
  6
CONTINUOUS
 10
15.6850586306
 20
16.1187662205
  0
VERTEX
  8
_CURVE
 62
7
  6
CONTINUOUS
 10
15.5831080911
 20
16.1517789471
  0
VERTEX
  8
_CURVE
 62
7
  6
CONTINUOUS
 10
15.4807971396
 20
16.1836477721
  0
VERTEX
  8
_CURVE
 62
7
  6
CONTINUOUS
 10
15.3781402555
 20
16.2143745843
  0
VERTEX
  8
_CURVE
 62
7
  6
CONTINUOUS
 10
15.2751519181
 20
16.2439612724
  0
VERTEX
  8
_CURVE
 62
7
  6
CONTINUOUS
 10
15.1718466068
 20
16.2724097251
  0
VERTEX
  8
_CURVE
 62
7
  6
CONTINUOUS
 10
15.0682388007
 20
16.2997218312
  0
VERTEX
  8
_CURVE
 62
7
  6
CONTINUOUS
 10
14.9643429793
 20
16.3258994793
  0
VERTEX
  8
_CURVE
 62
7
  6
CONTINUOUS
 10
14.8601736219
 20
16.3509445582
  0
VERTEX
  8
_CURVE
 62
7
  6
CONTINUOUS
 10
14.7557452077
 20
16.3748589565
  0
VERTEX
  8
_CURVE
 62
7
  6
CONTINUOUS
 10
14.6510722161
 20
16.3976445631
  0
VERTEX
  8
_CURVE
 62
7
  6
CONTINUOUS
 10
14.5461691264
 20
16.4193032665
  0
VERTEX
  8
_CURVE
 62
7
  6
CONTINUOUS
 10
14.4410504179
 20
16.4398369556
  0
VERTEX
  8
_CURVE
 62
7
  6
CONTINUOUS
 10
14.3357305699
 20
16.4592475191
  0
VERTEX
  8
_CURVE
 62
7
  6
CONTINUOUS
 10
14.2302240618
 20
16.4775368455
  0
VERTEX
  8
_CURVE
 62
7
  6
CONTINUOUS
 10
14.1245453729
 20
16.4947068238
  0
VERTEX
  8
_CURVE
 62
7
  6
CONTINUOUS
 10
14.0154692335
 20
16.5112321852
  0
VERTEX
  8
_CURVE
 62
7
  6
CONTINUOUS
 10
13.9062374028
 20
16.5265697955
  0
VERTEX
  8
_CURVE
 62
7
  6
CONTINUOUS
 10
13.7968616841
 20
16.5407187578
  0
VERTEX
  8
_CURVE
 62
7
  6
CONTINUOUS
 10
13.687353881
 20
16.5536781751
  0
VERTEX
  8
_CURVE
 62
7
  6
CONTINUOUS
 10
13.5777257967
 20
16.5654471505
  0
VERTEX
  8
_CURVE
 62
7
  6
CONTINUOUS
 10
13.4679892349
 20
16.576024787
  0
VERTEX
  8
_CURVE
 62
7
  6
CONTINUOUS
 10
13.358155999
 20
16.5854101877
  0
VERTEX
  8
_CURVE
 62
7
  6
CONTINUOUS
 10
13.2482378923
 20
16.5936024556
  0
VERTEX
  8
_CURVE
 62
7
  6
CONTINUOUS
 10
13.1382467184
 20
16.6006006939
  0
VERTEX
  8
_CURVE
 62
7
  6
CONTINUOUS
 10
13.0281942807
 20
16.6064040054
  0
VERTEX
  8
_CURVE
 62
7
  6
CONTINUOUS
 10
12.9180923827
 20
16.6110114933
  0
VERTEX
  8
_CURVE
 62
7
  6
CONTINUOUS
 10
12.8079528278
 20
16.6144222607
  0
VERTEX
  8
_CURVE
 62
7
  6
CONTINUOUS
 10
12.6977874194
 20
16.6166354106
  0
VERTEX
  8
_CURVE
 62
7
  6
CONTINUOUS
 10
12.5876079611
 20
16.617650046
  0
VERTEX
  8
_CURVE
 62
7
  6
CONTINUOUS
 10
12.4774262562
 20
16.61746527
  0
VERTEX
  8
_CURVE
 62
7
  6
CONTINUOUS
 10
12.3672541082
 20
16.6160801857
  0
VERTEX
  8
_CURVE
 62
7
  6
CONTINUOUS
 10
12.2571033205
 20
16.6134938961
  0
VERTEX
  8
_CURVE
 62
7
  6
CONTINUOUS
 10
12.1469856967
 20
16.6097055042
  0
VERTEX
  8
_CURVE
 62
7
  6
CONTINUOUS
 10
12.0368571236
 20
16.6047113435
  0
VERTEX
  8
_CURVE
 62
7
  6
CONTINUOUS
 10
11.92678659
 20
16.5985125543
  0
VERTEX
  8
_CURVE
 62
7
  6
CONTINUOUS
 10
11.8167871221
 20
16.5911087346
  0
VERTEX
  8
_CURVE
 62
7
  6
CONTINUOUS
 10
11.7068717464
 20
16.5824994823
  0
VERTEX
  8
_CURVE
 62
7
  6
CONTINUOUS
 10
11.5970534891
 20
16.5726843954
  0
VERTEX
  8
_CURVE
 62
7
  6
CONTINUOUS
 10
11.4873453766
 20
16.5616630718
  0
VERTEX
  8
_CURVE
 62
7
  6
CONTINUOUS
 10
11.3777604353
 20
16.5494351095
  0
VERTEX
  8
_CURVE
 62
7
  6
CONTINUOUS
 10
11.2683116913
 20
16.5360001064
  0
VERTEX
  8
_CURVE
 62
7
  6
CONTINUOUS
 10
11.1590121711
 20
16.5213576606
  0
VERTEX
  8
_CURVE
 62
7
  6
CONTINUOUS
 10
11.0498749011
 20
16.5055073698
  0
VERTEX
  8
_CURVE
 62
7
  6
CONTINUOUS
 10
10.9409129074
 20
16.4884488322
  0
VERTEX
  8
_CURVE
 62
7
  6
CONTINUOUS
 10
10.8321392166
 20
16.4701816456
  0
VERTEX
  8
_CURVE
 62
7
  6
CONTINUOUS
 10
10.7235668548
 20
16.4507054081
  0
VERTEX
  8
_CURVE
 62
7
  6
CONTINUOUS
 10
10.6152088484
 20
16.4300197174
  0
VERTEX
  8
_CURVE
 62
7
  6
CONTINUOUS
 10
10.5070782238
 20
16.4081241717
  0
VERTEX
  8
_CURVE
 62
7
  6
CONTINUOUS
 10
10.3991880073
 20
16.3850183688
  0
VERTEX
  8
_CURVE
 62
7
  6
CONTINUOUS
 10
10.2915512251
 20
16.3607019068
  0
VERTEX
  8
_CURVE
 62
7
  6
CONTINUOUS
 10
10.1841809037
 20
16.3351743835
  0
VERTEX
  8
_CURVE
 62
7
  6
CONTINUOUS
 10
10.0795330046
 20
16.3090594472
  0
VERTEX
  8
_CURVE
 62
7
  6
CONTINUOUS
 10
9.9751682496
 20
16.2817869829
  0
VERTEX
  8
_CURVE
 62
7
  6
CONTINUOUS
 10
9.8711029145
 20
16.2533562287
  0
VERTEX
  8
_CURVE
 62
7
  6
CONTINUOUS
 10
9.7673532749
 20
16.2237664232
  0
VERTEX
  8
_CURVE
 62
7
  6
CONTINUOUS
 10
9.6639356066
 20
16.1930168048
  0
VERTEX
  8
_CURVE
 62
7
  6
CONTINUOUS
 10
9.5608661854
 20
16.1611066117
  0
VERTEX
  8
_CURVE
 62
7
  6
CONTINUOUS
 10
9.4581612868
 20
16.1280350824
  0
VERTEX
  8
_CURVE
 62
7
  6
CONTINUOUS
 10
9.3558371868
 20
16.0938014553
  0
VERTEX
  8
_CURVE
 62
7
  6
CONTINUOUS
 10
9.253910161
 20
16.0584049687
  0
VERTEX
  8
_CURVE
 62
7
  6
CONTINUOUS
 10
9.152396485
 20
16.021844861
  0
VERTEX
  8
_CURVE
 62
7
  6
CONTINUOUS
 10
9.0513124347
 20
15.9841203706
  0
VERTEX
  8
_CURVE
 62
7
  6
CONTINUOUS
 10
8.9506742858
 20
15.9452307359
  0
VERTEX
  8
_CURVE
 62
7
  6
CONTINUOUS
 10
8.8504983139
 20
15.9051751953
  0
VERTEX
  8
_CURVE
 62
7
  6
CONTINUOUS
 10
8.7508007948
 20
15.8639529871
  0
VERTEX
  8
_CURVE
 62
7
  6
CONTINUOUS
 10
8.6515980043
 20
15.8215633498
  0
VERTEX
  8
_CURVE
 62
7
  6
CONTINUOUS
 10
8.552906218
 20
15.7780055217
  0
VERTEX
  8
_CURVE
 62
7
  6
CONTINUOUS
 10
8.4547417116
 20
15.7332787411
  0
VERTEX
  8
_CURVE
 62
7
  6
CONTINUOUS
 10
8.357120761
 20
15.6873822465
  0
VERTEX
  8
_CURVE
 62
7
  6
CONTINUOUS
 10
8.2600596418
 20
15.6403152763
  0
VERTEX
  8
_CURVE
 62
7
  6
CONTINUOUS
 10
8.1635746297
 20
15.5920770688
  0
VERTEX
  8
_CURVE
 62
7
  6
CONTINUOUS
 10
8.0676820005
 20
15.5426668625
  0
VERTEX
  8
_CURVE
 62
7
  6
CONTINUOUS
 10
7.9723980298
 20
15.4920838956
  0
VERTEX
  8
_CURVE
 62
7
  6
CONTINUOUS
 10
7.8859772053
 20
15.4448922759
  0
VERTEX
  8
_CURVE
 62
7
  6
CONTINUOUS
 10
7.8000924641
 20
15.3967234561
  0
VERTEX
  8
_CURVE
 62
7
  6
CONTINUOUS
 10
7.7147592971
 20
15.3475778212
  0
VERTEX
  8
_CURVE
 62
7
  6
CONTINUOUS
 10
7.6299931952
 20
15.2974557567
  0
VERTEX
  8
_CURVE
 62
7
  6
CONTINUOUS
 10
7.5458096493
 20
15.2463576478
  0
VERTEX
  8
_CURVE
 62
7
  6
CONTINUOUS
 10
7.4622241504
 20
15.1942838798
  0
VERTEX
  8
_CURVE
 62
7
  6
CONTINUOUS
 10
7.3792521892
 20
15.141234838
  0
VERTEX
  8
_CURVE
 62
7
  6
CONTINUOUS
 10
7.2969092567
 20
15.0872109075
  0
VERTEX
  8
_CURVE
 62
7
  6
CONTINUOUS
 10
7.2152108438
 20
15.0322124738
  0
VERTEX
  8
_CURVE
 62
7
  6
CONTINUOUS
 10
7.1341724414
 20
14.9762399221
  0
VERTEX
  8
_CURVE
 62
7
  6
CONTINUOUS
 10
7.0538095404
 20
14.9192936376
  0
VERTEX
  8
_CURVE
 62
7
  6
CONTINUOUS
 10
6.9741376317
 20
14.8613740056
  0
VERTEX
  8
_CURVE
 62
7
  6
CONTINUOUS
 10
6.8951722062
 20
14.8024814115
  0
VERTEX
  8
_CURVE
 62
7
  6
CONTINUOUS
 10
6.8169287548
 20
14.7426162404
  0
VERTEX
  8
_CURVE
 62
7
  6
CONTINUOUS
 10
6.7394227684
 20
14.6817788777
  0
VERTEX
  8
_CURVE
 62
7
  6
CONTINUOUS
 10
6.6626697378
 20
14.6199697087
  0
VERTEX
  8
_CURVE
 62
7
  6
CONTINUOUS
 10
6.586685154
 20
14.5571891185
  0
VERTEX
  8
_CURVE
 62
7
  6
CONTINUOUS
 10
6.5114845079
 20
14.4934374926
  0
VERTEX
  8
_CURVE
 62
7
  6
CONTINUOUS
 10
6.4370832904
 20
14.4287152161
  0
VERTEX
  8
_CURVE
 62
7
  6
CONTINUOUS
 10
6.3634969924
 20
14.3630226744
  0
VERTEX
  8
_CURVE
 62
7
  6
CONTINUOUS
 10
6.2907411047
 20
14.2963602527
  0
VERTEX
  8
_CURVE
 62
7
  6
CONTINUOUS
 10
6.2188311183
 20
14.2287283363
  0
VERTEX
  8
_CURVE
 62
7
  6
CONTINUOUS
 10
6.147782524
 20
14.1601273104
  0
VERTEX
  8
_CURVE
 62
7
  6
CONTINUOUS
 10
6.0776108129
 20
14.0905575604
  0
VERTEX
  8
_CURVE
 62
7
  6
CONTINUOUS
 10
6.0151036493
 20
14.0269987242
  0
VERTEX
  8
_CURVE
 62
7
  6
CONTINUOUS
 10
5.9533402602
 20
13.9626623356
  0
VERTEX
  8
_CURVE
 62
7
  6
CONTINUOUS
 10
5.8923388839
 20
13.8975581411
  0
VERTEX
  8
_CURVE
 62
7
  6
CONTINUOUS
 10
5.8321177586
 20
13.8316958873
  0
VERTEX
  8
_CURVE
 62
7
  6
CONTINUOUS
 10
5.7726951226
 20
13.7650853206
  0
VERTEX
  8
_CURVE
 62
7
  6
CONTINUOUS
 10
5.714089214
 20
13.6977361875
  0
SEQEND
  0
LINE
  8
_CURVE
 62
2
  6
CENTER
 10
22.9258462886
 20
19.1177217675
 11
2.192671372
 21
19.1177217675
  0
POLYLINE
  8
_CURVE
 62
7
  6
CONTINUOUS
 66
1
 70
0
  0
VERTEX
  8
_CURVE
 62
7
  6
CONTINUOUS
 10
19.7602529086
 20
6.2356219774
  0
VERTEX
  8
_CURVE
 62
7
  6
CONTINUOUS
 10
19.813981535
 20
6.310686563
  0
VERTEX
  8
_CURVE
 62
7
  6
CONTINUOUS
 10
19.8666890837
 20
6.3864831857
  0
VERTEX
  8
_CURVE
 62
7
  6
CONTINUOUS
 10
19.9182848212
 20
6.4628946325
  0
VERTEX
  8
_CURVE
 62
7
  6
CONTINUOUS
 10
19.96882442
 20
6.5400183925
  0
VERTEX
  8
_CURVE
 62
7
  6
CONTINUOUS
 10
20.0182864444
 20
6.6178429073
  0
VERTEX
  8
_CURVE
 62
7
  6
CONTINUOUS
 10
20.0666494585
 20
6.6963566183
  0
VERTEX
  8
_CURVE
 62
7
  6
CONTINUOUS
 10
20.1138920264
 20
6.7755479672
  0
VERTEX
  8
_CURVE
 62
7
  6
CONTINUOUS
 10
20.1599927123
 20
6.8554053955
  0
VERTEX
  8
_CURVE
 62
7
  6
CONTINUOUS
 10
20.2049300803
 20
6.9359173447
  0
VERTEX
  8
_CURVE
 62
7
  6
CONTINUOUS
 10
20.2486826946
 20
7.0170722564
  0
VERTEX
  8
_CURVE
 62
7
  6
CONTINUOUS
 10
20.2912291193
 20
7.0988585721
  0
VERTEX
  8
_CURVE
 62
7
  6
CONTINUOUS
 10
20.3325479185
 20
7.1812647333
  0
VERTEX
  8
_CURVE
 62
7
  6
CONTINUOUS
 10
20.3726176564
 20
7.2642791817
  0
VERTEX
  8
_CURVE
 62
7
  6
CONTINUOUS
 10
20.4114168972
 20
7.3478903588
  0
VERTEX
  8
_CURVE
 62
7
  6
CONTINUOUS
 10
20.4489242049
 20
7.4320867061
  0
VERTEX
  8
_CURVE
 62
7
  6
CONTINUOUS
 10
20.4851181437
 20
7.5168566651
  0
VERTEX
  8
_CURVE
 62
7
  6
CONTINUOUS
 10
20.5183917914
 20
7.5982158706
  0
VERTEX
  8
_CURVE
 62
7
  6
CONTINUOUS
 10
20.5504448798
 20
7.6800669168
  0
VERTEX
  8
_CURVE
 62
7
  6
CONTINUOUS
 10
20.5812706702
 20
7.7623905348
  0
VERTEX
  8
_CURVE
 62
7
  6
CONTINUOUS
 10
20.6108624241
 20
7.8451674553
  0
VERTEX
  8
_CURVE
 62
7
  6
CONTINUOUS
 10
20.6392134028
 20
7.9283784092
  0
VERTEX
  8
_CURVE
 62
7
  6
CONTINUOUS
 10
20.6663168677
 20
8.0120041275
  0
VERTEX
  8
_CURVE
 62
7
  6
CONTINUOUS
 10
20.6921660803
 20
8.0960253408
  0
VERTEX
  8
_CURVE
 62
7
  6
CONTINUOUS
 10
20.716754302
 20
8.1804227802
  0
VERTEX
  8
_CURVE
 62
7
  6
CONTINUOUS
 10
20.7400747941
 20
8.2651771765
  0
VERTEX
  8
_CURVE
 62
7
  6
CONTINUOUS
 10
20.7621208181
 20
8.3502692605
  0
VERTEX
  8
_CURVE
 62
7
  6
CONTINUOUS
 10
20.7828856353
 20
8.4356797632
  0
VERTEX
  8
_CURVE
 62
7
  6
CONTINUOUS
 10
20.8023625072
 20
8.5213894154
  0
VERTEX
  8
_CURVE
 62
7
  6
CONTINUOUS
 10
20.8205446952
 20
8.6073789479
  0
VERTEX
  8
_CURVE
 62
7
  6
CONTINUOUS
 10
20.8369682542
 20
8.6912002897
  0
VERTEX
  8
_CURVE
 62
7
  6
CONTINUOUS
 10
20.8521545428
 20
8.7752515802
  0
VERTEX
  8
_CURVE
 62
7
  6
CONTINUOUS
 10
20.866095541
 20
8.8595166093
  0
VERTEX
  8
_CURVE
 62
7
  6
CONTINUOUS
 10
20.878783229
 20
8.943979167
  0
VERTEX
  8
_CURVE
 62
7
  6
CONTINUOUS
 10
20.890209587
 20
9.0286230432
  0
VERTEX
  8
_CURVE
 62
7
  6
CONTINUOUS
 10
20.9003665951
 20
9.1134320279
  0
VERTEX
  8
_CURVE
 62
7
  6
CONTINUOUS
 10
20.9092462335
 20
9.198389911
  0
VERTEX
  8
_CURVE
 62
7
  6
CONTINUOUS
 10
20.9168404823
 20
9.2834804825
  0
VERTEX
  8
_CURVE
 62
7
  6
CONTINUOUS
 10
20.9231413217
 20
9.3686875324
  0
VERTEX
  8
_CURVE
 62
7
  6
CONTINUOUS
 10
20.9281407318
 20
9.4539948504
  0
VERTEX
  8
_CURVE
 62
7
  6
CONTINUOUS
 10
20.9318306928
 20
9.5393862268
  0
VERTEX
  8
_CURVE
 62
7
  6
CONTINUOUS
 10
20.9342031848
 20
9.6248454512
  0
VERTEX
  8
_CURVE
 62
7
  6
CONTINUOUS
 10
20.935250188
 20
9.7103563138
  0
SEQEND
  0
POLYLINE
  8
_CURVE
 62
8
  6
PHANTOM
 66
1
 70
0
  0
VERTEX
  8
_CURVE
 62
8
  6
PHANTOM
 10
22.3392588303
 20
9.7421117675
  0
VERTEX
  8
_CURVE
 62
8
  6
PHANTOM
 10
22.3317188047
 20
10.0660052475
  0
VERTEX
  8
_CURVE
 62
8
  6
PHANTOM
 10
22.3091103542
 20
10.3893993073
  0
VERTEX
  8
_CURVE
 62
8
  6
PHANTOM
 10
22.2714683393
 20
10.7117952965
  0
VERTEX
  8
_CURVE
 62
8
  6
PHANTOM
 10
22.2188508013
 20
11.0326961041
  0
VERTEX
  8
_CURVE
 62
8
  6
PHANTOM
 10
22.1513388726
 20
11.3516069241
  0
VERTEX
  8
_CURVE
 62
8
  6
PHANTOM
 10
22.0690366518
 20
11.6680360193
  0
VERTEX
  8
_CURVE
 62
8
  6
PHANTOM
 10
21.9720710428
 20
11.9814954789
  0
VERTEX
  8
_CURVE
 62
8
  6
PHANTOM
 10
21.8605915596
 20
12.2915019711
  0
VERTEX
  8
_CURVE
 62
8
  6
PHANTOM
 10
21.7347700956
 20
12.5975774884
  0
VERTEX
  8
_CURVE
 62
8
  6
PHANTOM
 10
21.5948006582
 20
12.8992500845
  0
VERTEX
  8
_CURVE
 62
8
  6
PHANTOM
 10
21.4408990703
 20
13.1960546022
  0
VERTEX
  8
_CURVE
 62
8
  6
PHANTOM
 10
21.2733026368
 20
13.4875333904
  0
VERTEX
  8
_CURVE
 62
8
  6
PHANTOM
 10
21.0922697794
 20
13.7732370099
  0
VERTEX
  8
_CURVE
 62
8
  6
PHANTOM
 10
20.8980796377
 20
14.0527249264
  0
VERTEX
  8
_CURVE
 62
8
  6
PHANTOM
 10
20.6910316386
 20
14.3255661899
  0
VERTEX
  8
_CURVE
 62
8
  6
PHANTOM
 10
20.4714450353
 20
14.5913400989
  0
VERTEX
  8
_CURVE
 62
8
  6
PHANTOM
 10
20.2396584143
 20
14.8496368493
  0
VERTEX
  8
_CURVE
 62
8
  6
PHANTOM
 10
19.9960291738
 20
15.1000581662
  0
VERTEX
  8
_CURVE
 62
8
  6
PHANTOM
 10
19.7409329726
 20
15.3422179182
  0
VERTEX
  8
_CURVE
 62
8
  6
PHANTOM
 10
19.4747631503
 20
15.5757427123
  0
VERTEX
  8
_CURVE
 62
8
  6
PHANTOM
 10
19.1979301216
 20
15.8002724704
  0
VERTEX
  8
_CURVE
 62
8
  6
PHANTOM
 10
18.9108607429
 20
16.0154609837
  0
VERTEX
  8
_CURVE
 62
8
  6
PHANTOM
 10
18.6139976545
 20
16.2209764473
  0
VERTEX
  8
_CURVE
 62
8
  6
PHANTOM
 10
18.3077985977
 20
16.4165019711
  0
VERTEX
  8
_CURVE
 62
8
  6
PHANTOM
 10
17.9927357092
 20
16.601736069
  0
VERTEX
  8
_CURVE
 62
8
  6
PHANTOM
 10
17.6692947932
 20
16.7763931234
  0
VERTEX
  8
_CURVE
 62
8
  6
PHANTOM
 10
17.3379745721
 20
16.9402038259
  0
VERTEX
  8
_CURVE
 62
8
  6
PHANTOM
 10
16.9992859177
 20
17.0929155921
  0
VERTEX
  8
_CURVE
 62
8
  6
PHANTOM
 10
16.6537510634
 20
17.2342929516
  0
VERTEX
  8
_CURVE
 62
8
  6
PHANTOM
 10
16.3019027988
 20
17.3641179107
  0
VERTEX
  8
_CURVE
 62
8
  6
PHANTOM
 10
15.9442836485
 20
17.4821902889
  0
VERTEX
  8
_CURVE
 62
8
  6
PHANTOM
 10
15.5814450353
 20
17.588328027
  0
VERTEX
  8
_CURVE
 62
8
  6
PHANTOM
 10
15.21394643
 20
17.6823674683
  0
VERTEX
  8
_CURVE
 62
8
  6
PHANTOM
 10
14.8423544888
 20
17.7641636108
  0
VERTEX
  8
_CURVE
 62
8
  6
PHANTOM
 10
14.4672421796
 20
17.8335903308
  0
VERTEX
  8
_CURVE
 62
8
  6
PHANTOM
 10
14.0891878984
 20
17.8905405774
  0
VERTEX
  8
_CURVE
 62
8
  6
PHANTOM
 10
13.7087745774
 20
17.9349265374
  0
VERTEX
  8
_CURVE
 62
8
  6
PHANTOM
 10
13.3265887865
 20
17.9666797708
  0
VERTEX
  8
_CURVE
 62
8
  6
PHANTOM
 10
12.9432198284
 20
17.9857513165
  0
VERTEX
  8
_CURVE
 62
8
  6
PHANTOM
 10
12.5592588303
 20
17.9921117675
  0
VERTEX
  8
_CURVE
 62
8
  6
PHANTOM
 10
12.1752978322
 20
17.9857513165
  0
VERTEX
  8
_CURVE
 62
8
  6
PHANTOM
 10
11.7919288741
 20
17.9666797708
  0
VERTEX
  8
_CURVE
 62
8
  6
PHANTOM
 10
11.4097430831
 20
17.9349265374
  0
VERTEX
  8
_CURVE
 62
8
  6
PHANTOM
 10
11.0293297622
 20
17.8905405774
  0
VERTEX
  8
_CURVE
 62
8
  6
PHANTOM
 10
10.651275481
 20
17.8335903308
  0
VERTEX
  8
_CURVE
 62
8
  6
PHANTOM
 10
10.2761631718
 20
17.7641636108
  0
VERTEX
  8
_CURVE
 62
8
  6
PHANTOM
 10
9.9045712306
 20
17.6823674683
  0
VERTEX
  8
_CURVE
 62
8
  6
PHANTOM
 10
9.5370726253
 20
17.588328027
  0
VERTEX
  8
_CURVE
 62
8
  6
PHANTOM
 10
9.1742340121
 20
17.4821902889
  0
VERTEX
  8
_CURVE
 62
8
  6
PHANTOM
 10
8.8166148617
 20
17.3641179107
  0
VERTEX
  8
_CURVE
 62
8
  6
PHANTOM
 10
8.4647665972
 20
17.2342929516
  0
VERTEX
  8
_CURVE
 62
8
  6
PHANTOM
 10
8.1192317428
 20
17.0929155921
  0
VERTEX
  8
_CURVE
 62
8
  6
PHANTOM
 10
7.7805430884
 20
16.9402038259
  0
VERTEX
  8
_CURVE
 62
8
  6
PHANTOM
 10
7.4492228674
 20
16.7763931234
  0
VERTEX
  8
_CURVE
 62
8
  6
PHANTOM
 10
7.1257819513
 20
16.601736069
  0
VERTEX
  8
_CURVE
 62
8
  6
PHANTOM
 10
6.8107190629
 20
16.4165019711
  0
VERTEX
  8
_CURVE
 62
8
  6
PHANTOM
 10
6.504520006
 20
16.2209764473
  0
VERTEX
  8
_CURVE
 62
8
  6
PHANTOM
 10
6.2076569176
 20
16.0154609837
  0
VERTEX
  8
_CURVE
 62
8
  6
PHANTOM
 10
5.920587539
 20
15.8002724704
  0
VERTEX
  8
_CURVE
 62
8
  6
PHANTOM
 10
5.6437545103
 20
15.5757427123
  0
VERTEX
  8
_CURVE
 62
8
  6
PHANTOM
 10
5.377584688
 20
15.3422179182
  0
VERTEX
  8
_CURVE
 62
8
  6
PHANTOM
 10
5.1224884867
 20
15.1000581662
  0
VERTEX
  8
_CURVE
 62
8
  6
PHANTOM
 10
4.8788592463
 20
14.8496368493
  0
VERTEX
  8
_CURVE
 62
8
  6
PHANTOM
 10
4.6470726253
 20
14.5913400989
  0
VERTEX
  8
_CURVE
 62
8
  6
PHANTOM
 10
4.427486022
 20
14.3255661899
  0
VERTEX
  8
_CURVE
 62
8
  6
PHANTOM
 10
4.2204380229
 20
14.0527249264
  0
VERTEX
  8
_CURVE
 62
8
  6
PHANTOM
 10
4.0262478811
 20
13.7732370099
  0
VERTEX
  8
_CURVE
 62
8
  6
PHANTOM
 10
3.8452150237
 20
13.4875333904
  0
VERTEX
  8
_CURVE
 62
8
  6
PHANTOM
 10
3.6776185903
 20
13.1960546022
  0
VERTEX
  8
_CURVE
 62
8
  6
PHANTOM
 10
3.5237170023
 20
12.8992500845
  0
VERTEX
  8
_CURVE
 62
8
  6
PHANTOM
 10
3.383747565
 20
12.5975774884
  0
VERTEX
  8
_CURVE
 62
8
  6
PHANTOM
 10
3.2579261009
 20
12.2915019711
  0
VERTEX
  8
_CURVE
 62
8
  6
PHANTOM
 10
3.1464466178
 20
11.9814954789
  0
VERTEX
  8
_CURVE
 62
8
  6
PHANTOM
 10
3.0494810088
 20
11.6680360193
  0
VERTEX
  8
_CURVE
 62
8
  6
PHANTOM
 10
2.9671787879
 20
11.3516069241
  0
VERTEX
  8
_CURVE
 62
8
  6
PHANTOM
 10
2.8996668593
 20
11.0326961041
  0
VERTEX
  8
_CURVE
 62
8
  6
PHANTOM
 10
2.8470493213
 20
10.7117952965
  0
VERTEX
  8
_CURVE
 62
8
  6
PHANTOM
 10
2.8094073064
 20
10.3893993073
  0
VERTEX
  8
_CURVE
 62
8
  6
PHANTOM
 10
2.7867988558
 20
10.0660052475
  0
VERTEX
  8
_CURVE
 62
8
  6
PHANTOM
 10
2.7792588303
 20
9.7421117675
  0
SEQEND
  0
LINE
  8
_CURVE
 62
2
  6
CENTER
 10
2.192671372
 20
21.1177217675
 11
22.9258462886
 21
21.1177217675
  0
CIRCLE
  8
DRAFT_ENT
 62
2
  6
CONTINUOUS
 10
8.3143977043
 20
14.5858458052
 40
0.1862854049
  0
ARC
  8
0
 62
2
  6
CONTINUOUS
 10
16.7355621975
 20
8.0131538025
 40
0.12
 50
90.0
 51
159.9601913116
  0
ARC
  8
DRAFT_ENT
 62
2
  6
CONTINUOUS
 10
9.4187921747
 20
14.6602636731
 40
0.1093854061
 50
294.4500166359
 51
90.0
  0
ARC
  8
0
 62
2
  6
CONTINUOUS
 10
17.4142021625
 20
7.9484738025
 40
0.1
 50
270.0
 51
360.0
  0
ARC
  8
0
 62
2
  6
CONTINUOUS
 10
17.2439035795
 20
7.8961997564
 40
0.0885309118
 50
212.3058638362
 51
264.8843450297
  0
ARC
  8
0
 62
2
  6
CONTINUOUS
 10
17.2439035795
 20
7.8961997564
 40
0.0885309118
 50
276.0241773206
 51
327.6941361638
  0
CIRCLE
  8
DRAFT_ENT
 62
2
  6
CONTINUOUS
 10
8.3143977043
 20
14.5858458052
 40
0.0779808993
  0
CIRCLE
  8
0
 62
7
  6
CONTINUOUS
 10
14.5898132906
 20
4.5100010887
 40
0.0755496224
  0
ARC
  8
0
 62
2
  6
CONTINUOUS
 10
16.5620010927
 20
8.0963948334
 40
0.0741554031
 50
343.9418139634
 51
72.7215708199
  0
ARC
  8
0
 62
2
  6
CONTINUOUS
 10
16.7926070773
 20
7.8452738025
 40
0.064
 50
90.0
 51
159.9445616853
  0
ARC
  8
0
 62
2
  6
CONTINUOUS
 10
16.9339206747
 20
7.9692738025
 40
0.06
 50
270.0
 51
333.2928412651
  0
ARC
  8
0
 62
2
  6
CONTINUOUS
 10
16.4931421625
 20
8.6352838025
 40
0.06
 50
90.0
 51
180.0
  0
ARC
  8
0
 62
2
  6
CONTINUOUS
 10
16.4931421625
 20
8.2272038025
 40
0.06
 50
180.0
 51
270.0
  0
ARC
  8
0
 62
2
  6
CONTINUOUS
 10
17.4033421625
 20
7.9592738025
 40
0.05
 50
270.0
 51
360.0
  0
CIRCLE
  8
DRAFT_ENT
 62
2
  6
CONTINUOUS
 10
9.65170001
 20
14.4034485374
 40
0.0408486778
  0
ARC
  8
DRAFT_ENT
 62
2
  6
CONTINUOUS
 10
9.4019408599
 20
14.6470255095
 40
0.0335073408
 50
266.1604009902
 51
89.9998910512
  0
ARC
  8
0
 62
2
  6
CONTINUOUS
 10
17.0348590296
 20
8.1031538025
 40
0.03
 50
333.2928412651
 51
90.0
  0
CIRCLE
  8
0
 62
7
  6
CONTINUOUS
 10
17.1437221625
 20
8.7746338025
 40
0.0298681023
  0
CIRCLE
  8
0
 62
7
  6
CONTINUOUS
 10
17.3400021625
 20
8.7746338025
 40
0.0298681023
  0
CIRCLE
  8
0
 62
7
  6
CONTINUOUS
 10
17.6579421625
 20
8.4603038025
 40
0.0298681023
  0
CIRCLE
  8
0
 62
7
  6
CONTINUOUS
 10
17.6579421625
 20
8.1700038025
 40
0.0298681023
  0
ARC
  8
DRAFT_ENT
 62
2
  6
CONTINUOUS
 10
9.6569458444
 20
14.4136323259
 40
0.010519658
 50
270.0
 51
90.0
  0
CIRCLE
  8
_CURVE
 62
7
  6
CONTINUOUS
 10
20.3657588303
 20
15.2081117675
 40
0.19
  0
CIRCLE
  8
_CURVE
 62
7
  6
CONTINUOUS
 10
20.3657588303
 20
4.2761117675
 40
0.19
  0
CIRCLE
  8
_CURVE
 62
7
  6
CONTINUOUS
 10
4.7527588303
 20
15.2081117675
 40
0.19
  0
CIRCLE
  8
_CURVE
 62
7
  6
CONTINUOUS
 10
4.7527588303
 20
4.2761117675
 40
0.19
  0
ENDSEC
  0
EOF
