999
DXF file: 1109226_7_a.dxf
999
Pro/ENGINEER 2008250 by Parametric Technology Corporation
  0
SECTION
  2
HEADER
  9
$EXTMAX
 10
34.0
 20
22.0
 30
0.0
  9
$EXTMIN
 10
0.0
 20
0.0
 30
0.0
  9
$LIMMIN
 10
0.0
 20
0.0
  9
$LIMMAX
 10
34.0
 20
22.0
  9
$VIEWCTR
 10
17.0
 20
11.0
  9
$VIEWSIZE
 40
22.0
  9
$CLAYER
  8
0
  9
$LTSCALE
 40
1.87
  9
$CELTYPE
  6
BYLAYER
  9
$DIMSCALE
 40
1.0
  9
$DIMASZ
 40
0.1875
  9
$DIMEXO
 40
0.2125
  9
$DIMDLI
 40
1.292
  9
$DIMEXE
 40
0.612
  9
$DIMCEN
 40
0.306
  9
$DIMLFAC
 40
1.0
  9
$DIMBLK
  1
_FILLED
  9
$DIMTXT
 40
0.15625
  9
$PDMODE
 70
3
  9
$PDSIZE
 40
0.3125
  0
ENDSEC
  0
SECTION
  2
TABLES
  0
TABLE
  2
LTYPE
 70
6
  0
LTYPE
  2
BYBLOCK
 70
0
  3

 72
65
 73
0
 40
0.0
  0
LTYPE
  2
BYLAYER
 70
0
  3

 72
65
 73
0
 40
0.0
  0
LTYPE
  2
CONTINUOUS
 70
64
  3
Solid line
 72
65
 73
0
 40
0.0
  0
LTYPE
  2
CENTER
 70
64
  3
____ _ ____ _ ____ _ ____ _ ____ _ ____ _ ____
 72
65
 73
4
 40
0.6
 49
0.375
 49
-0.075
 49
0.075
 49
-0.075
  0
LTYPE
  2
HIDDEN
 70
64
  3
- - - - - - - - - - - - - - - - - - - -
 72
65
 73
2
 40
0.2
 49
0.1
 49
-0.1
  0
LTYPE
  2
PHANTOM
 70
64
  3
_____ _ _ _____ _ _ _____ _ _ _____
 72
65
 73
6
 40
0.8
 49
0.45
 49
-0.05
 49
0.1
 49
-0.05
 49
0.1
 49
-0.05
  0
LTYPE
  2
DOT
 70
64
  3
. . . . . . . . . . . . . . . . . . . .
 72
65
 73
2
 40
0.2
 49
0.1
 49
-0.1
  0
LTYPE
  2
DASHED
 70
64
  3
- - - - - - - - - - - - - - - - - - - -
 72
65
 73
2
 40
0.2
 49
0.1
 49
-0.1
  0
ENDTAB
  0
TABLE
  2
LAYER
 70
36
  0
LAYER
  2
0
 70
0
 62
7
  6
CONTINUOUS
  0
LAYER
  2
DEFAULT_1
 70
0
 62
7
  6
CENTER
  0
LAYER
  2
DEFAULT_2
 70
0
 62
8
  6
HIDDEN
  0
LAYER
  2
DEFAULT_3
 70
0
 62
7
  6
PHANTOM
  0
LAYER
  2
_2D_DELETED_OBJS
 70
0
 62
7
  6
CONTINUOUS
  0
LAYER
  2
_BLACK_HOLE
 70
0
 62
7
  6
CONTINUOUS
  0
LAYER
  2
DATUMS
 70
0
 62
7
  6
CONTINUOUS
  0
LAYER
  2
DATUM_AXIS
 70
0
 62
7
  6
CONTINUOUS
  0
LAYER
  2
DATUM_CSYS
 70
0
 62
7
  6
CONTINUOUS
  0
LAYER
  2
DATUM_PLANE
 70
0
 62
7
  6
CONTINUOUS
  0
LAYER
  2
DATUM_POINT
 70
0
 62
7
  6
CONTINUOUS
  0
LAYER
  2
_CURVE
 70
0
 62
7
  6
CONTINUOUS
  0
LAYER
  2
_SURFACE
 70
0
 62
7
  6
CONTINUOUS
  0
LAYER
  2
__REF_CURVE
 70
0
 62
7
  6
CONTINUOUS
  0
LAYER
  2
__REF_SURFACE
 70
0
 62
7
  6
CONTINUOUS
  0
LAYER
  2
___NOTE
 70
0
 62
7
  6
CONTINUOUS
  0
LAYER
  2
___SYMBOL
 70
0
 62
7
  6
CONTINUOUS
  0
ENDTAB
  0
TABLE
  2
STYLE
 70
1
  0
STYLE
  2
STANDARD
 70
0
 40
0.0
 41
0.8
 50
0.0
 71
0
 42
0.2
  3
txt
  4

  0
STYLE
  2
TEXTSTYLE_1
 70
0
 40
0.0
 41
1.0
 50
0.0
 71
0
 42
0.2
  3
txt
  4

  0
STYLE
  2
TEXTSTYLE_2
 70
0
 40
0.0
 41
0.8258950223
 50
0.0
 71
0
 42
0.2
  3
txt
  4

  0
STYLE
  2
TEXTSTYLE_3
 70
0
 40
0.0
 41
0.6740211631
 50
0.0
 71
0
 42
0.2
  3
txt
  4

  0
ENDTAB
  0
ENDSEC
  0
SECTION
  2
BLOCKS
  0
BLOCK
  8
0
 62
2
  6
CONTINUOUS
  2
*D0
 70
65
 10
0.0
 20
0.0
  0
TEXT
  8
0
 62
2
  6
CONTINUOUS
 10
10.9971093926
 20
9.4383662131
  7
STANDARD
 40
0.15625
  1
12-9/16"
 41
0.8
 72
0
  0
TEXT
  8
0
 62
2
  6
CONTINUOUS
 10
10.9971093926
 20
9.2039912131
  7
STANDARD
 40
0.15625
  1
[319 mm]
 41
0.8
 72
0
  0
LINE
  8
0
 62
2
  6
CONTINUOUS
 10
10.8780795535
 20
15.7977412131
 11
11.6221093926
 21
15.7977412131
  0
LINE
  8
0
 62
2
  6
CONTINUOUS
 10
10.6986658727
 20
3.2352412131
 11
11.6221093926
 21
3.2352412131
  0
LINE
  8
0
 62
2
  6
CONTINUOUS
 10
11.4971093926
 20
15.7977412131
 11
11.4971093926
 21
9.6727412131
  0
LINE
  8
0
 62
2
  6
CONTINUOUS
 10
11.4971093926
 20
3.2352412131
 11
11.4971093926
 21
9.1258662131
  0
INSERT
  8
0
 62
2
  6
CONTINUOUS
  2
_FILLED
 10
11.4971093926
 20
15.7977412131
 41
0.1875
 42
0.1875
 43
0.1875
 50
90.0
  0
INSERT
  8
0
 62
2
  6
CONTINUOUS
  2
_FILLED
 10
11.4971093926
 20
3.2352412131
 41
0.1875
 42
0.1875
 43
0.1875
 50
270.0
  0
ENDBLK
  8
0
  6
BYBLOCK
 62
0
  0
BLOCK
  8
0
 62
2
  6
CONTINUOUS
  2
*D1
 70
65
 10
0.0
 20
0.0
  0
TEXT
  8
0
 62
2
  6
CONTINUOUS
 10
9.7550221209
 20
11.2550561437
  7
STANDARD
 40
0.15625
  1
17"
 41
0.8
 72
0
  0
TEXT
  8
0
 62
2
  6
CONTINUOUS
 10
9.4425221209
 20
11.0206811437
  7
STANDARD
 40
0.15625
  1
[432 mm]
 41
0.8
 72
0
  0
LINE
  8
0
 62
2
  6
CONTINUOUS
 10
3.2930745639
 20
11.4581811437
 11
3.2930745639
 21
11.1016183536
  0
LINE
  8
0
 62
2
  6
CONTINUOUS
 10
20.2930745639
 20
11.4581811437
 11
20.2930745639
 21
11.1265369204
  0
LINE
  8
0
 62
2
  6
CONTINUOUS
 10
3.2930745639
 20
11.3331811437
 11
9.3643971209
 21
11.3331811437
  0
LINE
  8
0
 62
2
  6
CONTINUOUS
 10
20.2930745639
 20
11.3331811437
 11
10.5206471209
 21
11.3331811437
  0
INSERT
  8
0
 62
2
  6
CONTINUOUS
  2
_FILLED
 10
3.2930745639
 20
11.3331811437
 41
0.1875
 42
0.1875
 43
0.1875
 50
180.0
  0
INSERT
  8
0
 62
2
  6
CONTINUOUS
  2
_FILLED
 10
20.2930745639
 20
11.3331811437
 41
0.1875
 42
0.1875
 43
0.1875
  0
ENDBLK
  8
0
  6
BYBLOCK
 62
0
  0
BLOCK
  8
0
 62
2
  6
CONTINUOUS
  2
*D2
 70
65
 10
0.0
 20
0.0
  0
TEXT
  8
0
 62
2
  6
CONTINUOUS
 10
0.6820496867
 20
17.2337907967
  7
STANDARD
 40
0.15625
  1
2-1/2"
 41
0.8
 72
0
  0
TEXT
  8
0
 62
2
  6
CONTINUOUS
 10
0.6195496867
 20
16.9994157967
  7
STANDARD
 40
0.15625
  1
[64 mm]
 41
0.8
 72
0
  0
LINE
  8
0
 62
2
  6
CONTINUOUS
 10
2.4938651822
 20
18.2999153103
 11
0.9320496867
 21
18.2999153103
  0
LINE
  8
0
 62
2
  6
CONTINUOUS
 10
3.6655745639
 20
15.7977412131
 11
0.9320496867
 21
15.7977412131
  0
LINE
  8
0
 62
2
  6
CONTINUOUS
 10
1.0570496867
 20
18.2999153103
 11
1.0570496867
 21
17.4681657967
  0
LINE
  8
0
 62
2
  6
CONTINUOUS
 10
1.0570496867
 20
15.7977412131
 11
1.0570496867
 21
16.9212907967
  0
INSERT
  8
0
 62
2
  6
CONTINUOUS
  2
_FILLED
 10
1.0570496867
 20
18.2999153103
 41
0.1875
 42
0.1875
 43
0.1875
 50
90.0
  0
INSERT
  8
0
 62
2
  6
CONTINUOUS
  2
_FILLED
 10
1.0570496867
 20
15.7977412131
 41
0.1875
 42
0.1875
 43
0.1875
 50
270.0
  0
ENDBLK
  8
0
  6
BYBLOCK
 62
0
  0
BLOCK
  8
0
 62
2
  6
CONTINUOUS
  2
*D3
 70
65
 10
0.0
 20
0.0
  0
TEXT
  8
0
 62
2
  6
CONTINUOUS
 10
0.6879202629
 20
19.2324152299
  7
STANDARD
 40
0.15625
  1
2" MIN
 41
0.8
 72
0
  0
TEXT
  8
0
 62
2
  6
CONTINUOUS
 10
0.6254202629
 20
18.9980402299
  7
STANDARD
 40
0.15625
  1
[51 mm]
 41
0.8
 72
0
  0
LINE
  8
0
 62
2
  6
CONTINUOUS
 10
2.3690997132
 20
20.3211651495
 11
0.9379202629
 21
20.3211651495
  0
LINE
  8
0
 62
2
  6
CONTINUOUS
 10
2.4938651822
 20
18.2999153103
 11
0.9379202629
 21
18.2999153103
  0
LINE
  8
0
 62
2
  6
CONTINUOUS
 10
1.0629202629
 20
20.3211651495
 11
1.0629202629
 21
19.4667902299
  0
LINE
  8
0
 62
2
  6
CONTINUOUS
 10
1.0629202629
 20
18.2999153103
 11
1.0629202629
 21
18.9199152299
  0
INSERT
  8
0
 62
2
  6
CONTINUOUS
  2
_FILLED
 10
1.0629202629
 20
20.3211651495
 41
0.1875
 42
0.1875
 43
0.1875
 50
90.0
  0
INSERT
  8
0
 62
2
  6
CONTINUOUS
  2
_FILLED
 10
1.0629202629
 20
18.2999153103
 41
0.1875
 42
0.1875
 43
0.1875
 50
270.0
  0
ENDBLK
  8
0
  6
BYBLOCK
 62
0
  0
BLOCK
  8
___SYMBOL
 62
2
  6
CONTINUOUS
  2
COPYRIGHT_YEAR_BL0
 70
64
 10
19.2071005307
 20
3.4481098194
  0
TEXT
  8
___SYMBOL
 62
2
  6
CONTINUOUS
 10
18.8334089051
 20
3.4128361946
  7
STANDARD
 40
0.0705
  1
2009
 41
0.8
 72
0
  0
TEXT
  8
___SYMBOL
 62
2
  6
CONTINUOUS
 10
19.0590089051
 20
3.4128361946
  7
STANDARD
 40
0.0705
  1
 KOHLER CO.
 41
0.8
 72
0
  0
TEXT
  8
___SYMBOL
 62
7
  6
CONTINUOUS
 10
18.753383156
 20
3.4293211949
  7
TEXTSTYLE_1
 40
0.0421874995
  1
C
 41
1.0
 72
0
  0
CIRCLE
  8
___SYMBOL
 62
7
  6
CONTINUOUS
 10
18.7676181559
 20
3.4505574446
 40
0.0328259996
  0
ENDBLK
  8
0
  6
BYBLOCK
 62
0
  0
BLOCK
  8
___SYMBOL
 62
2
  6
CONTINUOUS
  2
PACKAGING_UPC_NOTE_BL1
 70
64
 10
15.493585907
 20
5.7078682344
  0
TEXT
  8
___SYMBOL
 62
7
  6
CONTINUOUS
 10
13.6470851115
 20
6.2348715265
  7
TEXTSTYLE_2
 40
0.0593587493
  1
XXXXX-XX-X-XX
 41
0.8258950223
 72
0
  0
TEXT
  8
___SYMBOL
 62
7
  6
CONTINUOUS
 10
15.2810650924
 20
6.105706528
  7
TEXTSTYLE_3
 40
0.0445192495
  1
xxxxxx-xx
 41
0.6740211631
 72
0
  0
TEXT
  8
___SYMBOL
 62
2
  6
CONTINUOUS
 10
12.5167408162
 20
7.7785001883
  7
STANDARD
 40
0.1562500052
  1
PACKAGING/UPC LABEL ON BOX
 41
0.8
 72
0
  0
TEXT
  8
___SYMBOL
 62
2
  6
CONTINUOUS
 10
12.5167408162
 20
7.5441251804
  7
STANDARD
 40
0.1562500052
  1
EMBALLAGE/ÉTIQUETTE UPC SUR BOÎTE
 41
0.8
 72
0
  0
TEXT
  8
___SYMBOL
 62
2
  6
CONTINUOUS
 10
12.5167408162
 20
7.3097501726
  7
STANDARD
 40
0.1562500052
  1
ETIQUETA DE EMBALAJE/UPC EN LA CAJA
 41
0.8
 72
0
  0
TEXT
  8
___SYMBOL
 62
2
  6
CONTINUOUS
 10
12.493585907
 20
5.5903612754
  7
STANDARD
 40
0.15625
  1
The template and the label suffixes circled
 41
0.8
 72
0
  0
TEXT
  8
___SYMBOL
 62
2
  6
CONTINUOUS
 10
12.493585907
 20
5.3559862754
  7
STANDARD
 40
0.15625
  1
must match for proper cut-out.
 41
0.8
 72
0
  0
TEXT
  8
___SYMBOL
 62
2
  6
CONTINUOUS
 10
12.493585907
 20
5.1216112754
  7
STANDARD
 40
0.15625
  1
 
 41
0.8
 72
0
  0
TEXT
  8
___SYMBOL
 62
2
  6
CONTINUOUS
 10
12.493585907
 20
4.8872362754
  7
STANDARD
 40
0.15625
  1
Les suffixes du gabarit et de l'étiquette
 41
0.8
 72
0
  0
TEXT
  8
___SYMBOL
 62
2
  6
CONTINUOUS
 10
12.493585907
 20
4.6528612754
  7
STANDARD
 40
0.15625
  1
encerclés doivent correspondre pour une
 41
0.8
 72
0
  0
TEXT
  8
___SYMBOL
 62
2
  6
CONTINUOUS
 10
12.493585907
 20
4.4184862754
  7
STANDARD
 40
0.15625
  1
propre découpe.
 41
0.8
 72
0
  0
TEXT
  8
___SYMBOL
 62
2
  6
CONTINUOUS
 10
12.493585907
 20
4.1841112754
  7
STANDARD
 40
0.15625
  1
 
 41
0.8
 72
0
  0
TEXT
  8
___SYMBOL
 62
2
  6
CONTINUOUS
 10
12.493585907
 20
3.9497362754
  7
STANDARD
 40
0.15625
  1
A fin de realizar el corte correcto, los sufijos
 41
0.8
 72
0
  0
TEXT
  8
___SYMBOL
 62
2
  6
CONTINUOUS
 10
12.493585907
 20
3.7153612754
  7
STANDARD
 40
0.15625
  1
de la plantilla y de la etiqueta encerrados
 41
0.8
 72
0
  0
TEXT
  8
___SYMBOL
 62
2
  6
CONTINUOUS
 10
12.493585907
 20
3.4809862754
  7
STANDARD
 40
0.15625
  1
en un círculo deben ser iguales.
 41
0.8
 72
0
  0
LINE
  8
___SYMBOL
 62
7
  6
CONTINUOUS
 10
15.6358900883
 20
6.0789765283
 11
13.4508476138
 21
6.0789765283
  0
LINE
  8
___SYMBOL
 62
7
  6
CONTINUOUS
 10
13.4508476138
 20
6.0789765283
 11
13.4508476138
 21
7.0720065167
  0
LINE
  8
___SYMBOL
 62
7
  6
CONTINUOUS
 10
13.4508476138
 20
7.0720065167
 11
15.6358900883
 21
7.0720065167
  0
LINE
  8
___SYMBOL
 62
7
  6
CONTINUOUS
 10
15.6358900883
 20
7.0720065167
 11
15.6358900883
 21
6.0789765283
  0
LINE
  8
___SYMBOL
 62
7
  6
CONTINUOUS
 10
13.4174801142
 20
7.1044665163
 11
15.6700450879
 21
7.1044665163
  0
LINE
  8
___SYMBOL
 62
7
  6
CONTINUOUS
 10
15.6700450879
 20
7.1044665163
 11
15.6700450879
 21
6.0115590291
  0
LINE
  8
___SYMBOL
 62
7
  6
CONTINUOUS
 10
15.6700450879
 20
6.0115590291
 11
13.4174801142
 21
6.0115590291
  0
LINE
  8
___SYMBOL
 62
7
  6
CONTINUOUS
 10
13.4174801142
 20
6.0115590291
 11
13.4174801142
 21
7.1044665163
  0
LINE
  8
___SYMBOL
 62
7
  6
CONTINUOUS
 10
15.4307050907
 20
6.5106465232
 11
15.4307050907
 21
6.3890115247
  0
LINE
  8
___SYMBOL
 62
7
  6
CONTINUOUS
 10
15.4307050907
 20
6.3890115247
 11
15.0877525947
 21
6.3890115247
  0
LINE
  8
___SYMBOL
 62
7
  6
CONTINUOUS
 10
15.0877525947
 20
6.3890115247
 11
15.0877525947
 21
6.5106465232
  0
LINE
  8
___SYMBOL
 62
7
  6
CONTINUOUS
 10
15.0877525947
 20
6.5106465232
 11
15.4307050907
 21
6.5106465232
  0
SOLID
  8
___SYMBOL
 62
7
  6
CONTINUOUS
 10
15.0877525947
 20
6.3890115156
 11
15.0877525947
 21
6.5106465156
 12
15.4307050907
 22
6.5106465156
 13
15.4307050907
 23
6.5106465156
  0
SOLID
  8
___SYMBOL
 62
7
  6
CONTINUOUS
 10
15.4307050907
 20
6.5106465156
 11
15.4307050907
 21
6.3890115156
 12
15.0877525947
 22
6.3890115156
 13
15.0877525947
 23
6.3890115156
  0
LINE
  8
___SYMBOL
 62
7
  6
CONTINUOUS
 10
14.3552501033
 20
6.5106465232
 11
14.3552501033
 21
6.3890115247
  0
LINE
  8
___SYMBOL
 62
7
  6
CONTINUOUS
 10
14.3552501033
 20
6.3890115247
 11
13.4995451133
 21
6.3890115247
  0
LINE
  8
___SYMBOL
 62
7
  6
CONTINUOUS
 10
13.4995451133
 20
6.3890115247
 11
13.4995451133
 21
6.5106465232
  0
LINE
  8
___SYMBOL
 62
7
  6
CONTINUOUS
 10
13.4995451133
 20
6.5106465232
 11
14.3552501033
 21
6.5106465232
  0
SOLID
  8
___SYMBOL
 62
7
  6
CONTINUOUS
 10
13.4995451133
 20
6.3890115156
 11
13.4995451133
 21
6.5106465156
 12
14.3552501033
 22
6.5106465156
 13
14.3552501033
 23
6.5106465156
  0
SOLID
  8
___SYMBOL
 62
7
  6
CONTINUOUS
 10
14.3552501033
 20
6.5106465156
 11
14.3552501033
 21
6.3890115156
 12
13.4995451133
 22
6.3890115156
 13
13.4995451133
 23
6.3890115156
  0
LINE
  8
___SYMBOL
 62
7
  6
CONTINUOUS
 10
14.3552501033
 20
6.1373790276
 11
14.3552501033
 21
6.102399028
  0
LINE
  8
___SYMBOL
 62
7
  6
CONTINUOUS
 10
14.3552501033
 20
6.102399028
 11
13.4995451133
 21
6.102399028
  0
LINE
  8
___SYMBOL
 62
7
  6
CONTINUOUS
 10
13.4995451133
 20
6.102399028
 11
13.4995451133
 21
6.1373790276
  0
LINE
  8
___SYMBOL
 62
7
  6
CONTINUOUS
 10
13.4995451133
 20
6.1373790276
 11
14.3552501033
 21
6.1373790276
  0
SOLID
  8
___SYMBOL
 62
7
  6
CONTINUOUS
 10
13.4995451133
 20
6.1023990296
 11
13.4995451133
 21
6.1373790116
 12
14.3552501033
 22
6.1373790116
 13
14.3552501033
 23
6.1373790116
  0
SOLID
  8
___SYMBOL
 62
7
  6
CONTINUOUS
 10
14.3552501033
 20
6.1373790116
 11
14.3552501033
 21
6.1023990296
 12
13.4995451133
 22
6.1023990296
 13
13.4995451133
 23
6.1023990296
  0
POLYLINE
  8
___SYMBOL
 62
7
  6
CONTINUOUS
 66
1
 70
0
  0
VERTEX
  8
___SYMBOL
 62
7
  6
CONTINUOUS
 10
14.2212550569
 20
6.3491566454
  0
VERTEX
  8
___SYMBOL
 62
7
  6
CONTINUOUS
 10
14.2098167128
 20
6.3455686814
  0
VERTEX
  8
___SYMBOL
 62
7
  6
CONTINUOUS
 10
14.1990209781
 20
6.3403569778
  0
VERTEX
  8
___SYMBOL
 62
7
  6
CONTINUOUS
 10
14.1890969461
 20
6.3336321308
  0
VERTEX
  8
___SYMBOL
 62
7
  6
CONTINUOUS
 10
14.1802552119
 20
6.3255368466
  0
VERTEX
  8
___SYMBOL
 62
7
  6
CONTINUOUS
 10
14.1726834038
 20
6.316242913
  0
VERTEX
  8
___SYMBOL
 62
7
  6
CONTINUOUS
 10
14.1665422011
 20
6.3059475542
  0
VERTEX
  8
___SYMBOL
 62
7
  6
CONTINUOUS
 10
14.1619619245
 20
6.2948692452
  0
VERTEX
  8
___SYMBOL
 62
7
  6
CONTINUOUS
 10
14.159039771
 20
6.2832430759
  0
VERTEX
  8
___SYMBOL
 62
7
  6
CONTINUOUS
 10
14.1578377507
 20
6.271315762
  0
VERTEX
  8
___SYMBOL
 62
7
  6
CONTINUOUS
 10
14.1583813713
 20
6.25934041
  0
VERTEX
  8
___SYMBOL
 62
7
  6
CONTINUOUS
 10
14.160659097
 20
6.2475711457
  0
VERTEX
  8
___SYMBOL
 62
7
  6
CONTINUOUS
 10
14.1646225926
 20
6.2362577214
  0
VERTEX
  8
___SYMBOL
 62
7
  6
CONTINUOUS
 10
14.17018775
 20
6.2256402163
  0
VERTEX
  8
___SYMBOL
 62
7
  6
CONTINUOUS
 10
14.1772364722
 20
6.2159439416
  0
VERTEX
  8
___SYMBOL
 62
7
  6
CONTINUOUS
 10
14.1856191804
 20
6.2073746595
  0
VERTEX
  8
___SYMBOL
 62
7
  6
CONTINUOUS
 10
14.1951579872
 20
6.2001142164
  0
VERTEX
  8
___SYMBOL
 62
7
  6
CONTINUOUS
 10
14.2056504722
 20
6.1943166842
  0
VERTEX
  8
___SYMBOL
 62
7
  6
CONTINUOUS
 10
14.2168739772
 20
6.1901050909
  0
VERTEX
  8
___SYMBOL
 62
7
  6
CONTINUOUS
 10
14.2285903311
 20
6.1875688094
  0
VERTEX
  8
___SYMBOL
 62
7
  6
CONTINUOUS
 10
14.2405509044
 20
6.1867616616
  0
VERTEX
  8
___SYMBOL
 62
7
  6
CONTINUOUS
 10
14.2525018848
 20
6.1877007757
  0
VERTEX
  8
___SYMBOL
 62
7
  6
CONTINUOUS
 10
14.2641896638
 20
6.1903662231
  0
VERTEX
  8
___SYMBOL
 62
7
  6
CONTINUOUS
 10
14.2753662182
 20
6.194701441
  0
VERTEX
  8
___SYMBOL
 62
7
  6
CONTINUOUS
 10
14.2857943732
 20
6.2006144328
  0
VERTEX
  8
___SYMBOL
 62
7
  6
CONTINUOUS
 10
14.2952528357
 20
6.2079797206
  0
VERTEX
  8
___SYMBOL
 62
7
  6
CONTINUOUS
 10
14.3035408904
 20
6.2166410076
  0
VERTEX
  8
___SYMBOL
 62
7
  6
CONTINUOUS
 10
14.3104826584
 20
6.2264144948
  0
VERTEX
  8
___SYMBOL
 62
7
  6
CONTINUOUS
 10
14.3159308305
 20
6.2370927818
  0
VERTEX
  8
___SYMBOL
 62
7
  6
CONTINUOUS
 10
14.3197697923
 20
6.2484492674
  0
VERTEX
  8
___SYMBOL
 62
7
  6
CONTINUOUS
 10
14.3219180784
 20
6.2602429586
  0
VERTEX
  8
___SYMBOL
 62
7
  6
CONTINUOUS
 10
14.3223301006
 20
6.2722235847
  0
VERTEX
  8
___SYMBOL
 62
7
  6
CONTINUOUS
 10
14.3209971153
 20
6.284136908
  0
VERTEX
  8
___SYMBOL
 62
7
  6
CONTINUOUS
 10
14.3179474095
 20
6.2957301191
  0
VERTEX
  8
___SYMBOL
 62
7
  6
CONTINUOUS
 10
14.3132457003
 20
6.3067572014
  0
VERTEX
  8
___SYMBOL
 62
7
  6
CONTINUOUS
 10
14.3069917613
 20
6.3169841522
  0
VERTEX
  8
___SYMBOL
 62
7
  6
CONTINUOUS
 10
14.2993183058
 20
6.3261939482
  0
VERTEX
  8
___SYMBOL
 62
7
  6
CONTINUOUS
 10
14.29038817
 20
6.3341911506
  0
VERTEX
  8
___SYMBOL
 62
7
  6
CONTINUOUS
 10
14.280390858
 20
6.340806053
  0
VERTEX
  8
___SYMBOL
 62
7
  6
CONTINUOUS
 10
14.2695385202
 20
6.3458982822
  0
VERTEX
  8
___SYMBOL
 62
7
  6
CONTINUOUS
 10
14.258061451
 20
6.3493597775
  0
VERTEX
  8
___SYMBOL
 62
7
  6
CONTINUOUS
 10
14.2462032024
 20
6.3511170834
  0
VERTEX
  8
___SYMBOL
 62
7
  6
CONTINUOUS
 10
14.234215415
 20
6.3511329085
  0
VERTEX
  8
___SYMBOL
 62
7
  6
CONTINUOUS
 10
14.2223524785
 20
6.349406917
  0
SEQEND
  0
LINE
  8
___SYMBOL
 62
7
  6
CONTINUOUS
 10
14.4019001027
 20
7.043881517
 11
14.4019001027
 21
6.9822315177
  0
LINE
  8
___SYMBOL
 62
7
  6
CONTINUOUS
 10
14.4019001027
 20
6.9822315177
 11
13.5461951127
 21
6.9822315177
  0
LINE
  8
___SYMBOL
 62
7
  6
CONTINUOUS
 10
13.5461951127
 20
6.9822315177
 11
13.5461951127
 21
7.043881517
  0
LINE
  8
___SYMBOL
 62
7
  6
CONTINUOUS
 10
13.5461951127
 20
7.043881517
 11
14.4019001027
 21
7.043881517
  0
SOLID
  8
___SYMBOL
 62
7
  6
CONTINUOUS
 10
13.5461951127
 20
6.9822315136
 11
13.5461951127
 21
7.0438815036
 12
14.4019001027
 22
7.0438815036
 13
14.4019001027
 23
7.0438815036
  0
SOLID
  8
___SYMBOL
 62
7
  6
CONTINUOUS
 10
14.4019001027
 20
7.0438815036
 11
14.4019001027
 21
6.9822315136
 12
13.5461951127
 22
6.9822315136
 13
13.5461951127
 23
6.9822315136
  0
LINE
  8
___SYMBOL
 62
7
  6
CONTINUOUS
 10
14.4019001027
 20
6.9438990182
 11
14.4019001027
 21
6.8822490189
  0
LINE
  8
___SYMBOL
 62
7
  6
CONTINUOUS
 10
14.4019001027
 20
6.8822490189
 11
13.5461951127
 21
6.8822490189
  0
LINE
  8
___SYMBOL
 62
7
  6
CONTINUOUS
 10
13.5461951127
 20
6.8822490189
 11
13.5461951127
 21
6.9438990182
  0
LINE
  8
___SYMBOL
 62
7
  6
CONTINUOUS
 10
13.5461951127
 20
6.9438990182
 11
14.4019001027
 21
6.9438990182
  0
SOLID
  8
___SYMBOL
 62
7
  6
CONTINUOUS
 10
13.5461951127
 20
6.8822490056
 11
13.5461951127
 21
6.9438990296
 12
14.4019001027
 22
6.9438990296
 13
14.4019001027
 23
6.9438990296
  0
SOLID
  8
___SYMBOL
 62
7
  6
CONTINUOUS
 10
14.4019001027
 20
6.9438990296
 11
14.4019001027
 21
6.8822490056
 12
13.5461951127
 22
6.8822490056
 13
13.5461951127
 23
6.8822490056
  0
LINE
  8
___SYMBOL
 62
7
  6
CONTINUOUS
 10
14.4019001027
 20
6.8439165193
 11
14.4019001027
 21
6.7822740201
  0
LINE
  8
___SYMBOL
 62
7
  6
CONTINUOUS
 10
14.4019001027
 20
6.7822740201
 11
13.5461951127
 21
6.7822740201
  0
LINE
  8
___SYMBOL
 62
7
  6
CONTINUOUS
 10
13.5461951127
 20
6.7822740201
 11
13.5461951127
 21
6.8439165193
  0
LINE
  8
___SYMBOL
 62
7
  6
CONTINUOUS
 10
13.5461951127
 20
6.8439165193
 11
14.4019001027
 21
6.8439165193
  0
SOLID
  8
___SYMBOL
 62
7
  6
CONTINUOUS
 10
13.5461951127
 20
6.7822740116
 11
13.5461951127
 21
6.8439165216
 12
14.4019001027
 22
6.8439165216
 13
14.4019001027
 23
6.8439165216
  0
SOLID
  8
___SYMBOL
 62
7
  6
CONTINUOUS
 10
14.4019001027
 20
6.8439165216
 11
14.4019001027
 21
6.7822740116
 12
13.5461951127
 22
6.7822740116
 13
13.5461951127
 23
6.7822740116
  0
LINE
  8
___SYMBOL
 62
7
  6
CONTINUOUS
 10
14.4019001027
 20
6.7439340205
 11
14.4019001027
 21
6.6822915212
  0
LINE
  8
___SYMBOL
 62
7
  6
CONTINUOUS
 10
14.4019001027
 20
6.6822915212
 11
13.5461951127
 21
6.6822915212
  0
LINE
  8
___SYMBOL
 62
7
  6
CONTINUOUS
 10
13.5461951127
 20
6.6822915212
 11
13.5461951127
 21
6.7439340205
  0
LINE
  8
___SYMBOL
 62
7
  6
CONTINUOUS
 10
13.5461951127
 20
6.7439340205
 11
14.4019001027
 21
6.7439340205
  0
SOLID
  8
___SYMBOL
 62
7
  6
CONTINUOUS
 10
13.5461951127
 20
6.6822915376
 11
13.5461951127
 21
6.7439340136
 12
14.4019001027
 22
6.7439340136
 13
14.4019001027
 23
6.7439340136
  0
SOLID
  8
___SYMBOL
 62
7
  6
CONTINUOUS
 10
14.4019001027
 20
6.7439340136
 11
14.4019001027
 21
6.6822915376
 12
13.5461951127
 22
6.6822915376
 13
13.5461951127
 23
6.6822915376
  0
LINE
  8
___SYMBOL
 62
7
  6
CONTINUOUS
 10
14.4019001027
 20
6.617296522
 11
14.4019001027
 21
6.5556465227
  0
LINE
  8
___SYMBOL
 62
7
  6
CONTINUOUS
 10
14.4019001027
 20
6.5556465227
 11
13.5461951127
 21
6.5556465227
  0
LINE
  8
___SYMBOL
 62
7
  6
CONTINUOUS
 10
13.5461951127
 20
6.5556465227
 11
13.5461951127
 21
6.617296522
  0
LINE
  8
___SYMBOL
 62
7
  6
CONTINUOUS
 10
13.5461951127
 20
6.617296522
 11
14.4019001027
 21
6.617296522
  0
SOLID
  8
___SYMBOL
 62
7
  6
CONTINUOUS
 10
13.5461951127
 20
6.5556465356
 11
13.5461951127
 21
6.6172965256
 12
14.4019001027
 22
6.6172965256
 13
14.4019001027
 23
6.6172965256
  0
SOLID
  8
___SYMBOL
 62
7
  6
CONTINUOUS
 10
14.4019001027
 20
6.6172965256
 11
14.4019001027
 21
6.5556465356
 12
13.5461951127
 22
6.5556465356
 13
13.5461951127
 23
6.5556465356
  0
ENDBLK
  8
0
  6
BYBLOCK
 62
0
  0
BLOCK
  8
___SYMBOL
 62
2
  6
CONTINUOUS
  2
PLOTTING_TEMPLATE_NOTE_BL2
 70
64
 10
7.3209745122
 20
9.3488540291
  0
TEXT
  8
___SYMBOL
 62
2
  6
CONTINUOUS
 10
4.4459745122
 20
10.6769790291
  7
STANDARD
 40
0.15625
  1
WHEN PLOTTING TEMPLATE FULL SIZE:
 41
0.8
 72
0
  0
TEXT
  8
___SYMBOL
 62
2
  6
CONTINUOUS
 10
4.4459745122
 20
10.4426040291
  7
STANDARD
 40
0.15625
  1
Make sure horizontal and vertical dimensions
 41
0.8
 72
0
  0
TEXT
  8
___SYMBOL
 62
2
  6
CONTINUOUS
 10
4.4459745122
 20
10.2082290291
  7
STANDARD
 40
0.15625
  1
match the dimensions labeled on the template.
 41
0.8
 72
0
  0
TEXT
  8
___SYMBOL
 62
2
  6
CONTINUOUS
 10
4.4459745122
 20
9.9738540291
  7
STANDARD
 40
0.15625
  1
 
 41
0.8
 72
0
  0
TEXT
  8
___SYMBOL
 62
2
  6
CONTINUOUS
 10
4.4459745122
 20
9.7394790291
  7
STANDARD
 40
0.15625
  1
LORS DU TRACÉ DU GABARIT À L'ÉCHELLE: 
 41
0.8
 72
0
  0
TEXT
  8
___SYMBOL
 62
2
  6
CONTINUOUS
 10
4.4459745122
 20
9.5051040291
  7
STANDARD
 40
0.15625
  1
s'assurer que les dimensions horizontales et
 41
0.8
 72
0
  0
TEXT
  8
___SYMBOL
 62
2
  6
CONTINUOUS
 10
4.4459745122
 20
9.2707290291
  7
STANDARD
 40
0.15625
  1
verticales correspondent à celles marquées sur
 41
0.8
 72
0
  0
TEXT
  8
___SYMBOL
 62
2
  6
CONTINUOUS
 10
4.4459745122
 20
9.0363540291
  7
STANDARD
 40
0.15625
  1
le gabarit.
 41
0.8
 72
0
  0
TEXT
  8
___SYMBOL
 62
2
  6
CONTINUOUS
 10
4.4459745122
 20
8.8019790291
  7
STANDARD
 40
0.15625
  1
 
 41
0.8
 72
0
  0
TEXT
  8
___SYMBOL
 62
2
  6
CONTINUOUS
 10
4.4459745122
 20
8.5676040291
  7
STANDARD
 40
0.15625
  1
AL TRAZAR LA PLANTILLA A ESCALA COMPLETA:
 41
0.8
 72
0
  0
TEXT
  8
___SYMBOL
 62
2
  6
CONTINUOUS
 10
4.4459745122
 20
8.3332290291
  7
STANDARD
 40
0.15625
  1
asegúrese de que la dimensión horizontal y
 41
0.8
 72
0
  0
TEXT
  8
___SYMBOL
 62
2
  6
CONTINUOUS
 10
4.4459745122
 20
8.0988540291
  7
STANDARD
 40
0.15625
  1
la dimensión vertical sean iguales a las
 41
0.8
 72
0
  0
TEXT
  8
___SYMBOL
 62
2
  6
CONTINUOUS
 10
4.4459745122
 20
7.8644790291
  7
STANDARD
 40
0.15625
  1
dimensiones indicadas en la plantilla.
 41
0.8
 72
0
  0
ENDBLK
  8
0
  6
BYBLOCK
 62
0
  0
BLOCK
  8
___SYMBOL
 62
2
  6
CONTINUOUS
  2
TEMPLATE_NUMBER_BL3
 70
64
 10
9.938233188
 20
3.4309666979
  0
TEXT
  8
___SYMBOL
 62
2
  6
CONTINUOUS
 10
9.628033188
 20
3.3957166979
  7
STANDARD
 40
0.0705
  1
1109226-7
 41
0.8
 72
0
  0
TEXT
  8
___SYMBOL
 62
2
  6
CONTINUOUS
 10
10.135633188
 20
3.3957166979
  7
STANDARD
 40
0.0705
  1
-
 41
0.8
 72
0
  0
TEXT
  8
___SYMBOL
 62
2
  6
CONTINUOUS
 10
10.192033188
 20
3.3957166979
  7
STANDARD
 40
0.0705
  1
A
 41
0.8
 72
0
  0
ENDBLK
  8
0
  6
BYBLOCK
 62
0
  0
BLOCK
  8
___SYMBOL
 62
2
  6
CONTINUOUS
  2
TEMPLATE_NUMBER_BL4
 70
64
 10
9.8999582695
 20
1.2365380334
  0
TEXT
  8
___SYMBOL
 62
2
  6
CONTINUOUS
 10
9.5897582695
 20
1.2012880334
  7
STANDARD
 40
0.0705
  1
1109226-7
 41
0.8
 72
0
  0
TEXT
  8
___SYMBOL
 62
2
  6
CONTINUOUS
 10
10.0973582695
 20
1.2012880334
  7
STANDARD
 40
0.0705
  1
-
 41
0.8
 72
0
  0
TEXT
  8
___SYMBOL
 62
2
  6
CONTINUOUS
 10
10.1537582695
 20
1.2012880334
  7
STANDARD
 40
0.0705
  1
A
 41
0.8
 72
0
  0
ENDBLK
  8
0
  6
BYBLOCK
 62
0
  0
BLOCK
  8
___SYMBOL
 62
2
  6
CONTINUOUS
  2
SKU_LAV_KOHLER_BL5
 70
64
 10
6.3267607179
 20
13.5197366251
  0
TEXT
  8
___SYMBOL
 62
2
  6
CONTINUOUS
 10
4.2267607179
 20
14.3335602943
  7
STANDARD
 40
0.25
  1
CUT-OUT TEMPLATE
 41
0.8
 72
0
  0
TEXT
  8
___SYMBOL
 62
2
  6
CONTINUOUS
 10
4.2267607179
 20
13.9585602943
  7
STANDARD
 40
0.25
  1
UNDERCOUNTER LAVATORY
 41
0.8
 72
0
  0
TEXT
  8
___SYMBOL
 62
2
  6
CONTINUOUS
 10
4.2267607179
 20
13.5835602943
  7
STANDARD
 40
0.25
  1
GABARIT DE DÉCOUPE
 41
0.8
 72
0
  0
TEXT
  8
___SYMBOL
 62
2
  6
CONTINUOUS
 10
4.2267607179
 20
13.2085602943
  7
STANDARD
 40
0.25
  1
LAVABO SOUS COMPTOIR
 41
0.8
 72
0
  0
TEXT
  8
___SYMBOL
 62
2
  6
CONTINUOUS
 10
4.2267607179
 20
12.8335602943
  7
STANDARD
 40
0.25
  1
PLANTILLA DE CORTE
 41
0.8
 72
0
  0
TEXT
  8
___SYMBOL
 62
2
  6
CONTINUOUS
 10
4.2267607179
 20
12.4585602943
  7
STANDARD
 40
0.25
  1
LAVABO DE INSTALACIÓN
 41
0.8
 72
0
  0
TEXT
  8
___SYMBOL
 62
2
  6
CONTINUOUS
 10
4.2267607179
 20
12.0835602943
  7
STANDARD
 40
0.25
  1
 BAJO CUBIERTA
 41
0.8
 72
0
  0
TEXT
  8
___SYMBOL
 62
2
  6
CONTINUOUS
 10
4.2267607179
 20
11.7085602943
  7
STANDARD
 40
0.25
  1
   
 41
0.8
 72
0
  0
TEXT
  8
___SYMBOL
 62
2
  6
CONTINUOUS
 10
4.8267607179
 20
11.7085602943
  7
STANDARD
 40
0.25
  1
2882
 41
0.8
 72
0
  0
TEXT
  8
___SYMBOL
 62
2
  6
CONTINUOUS
 10
5.6267607179
 20
11.7085602943
  7
STANDARD
 40
0.25
  1
-**-
 41
0.8
 72
0
  0
TEXT
  8
___SYMBOL
 62
2
  6
CONTINUOUS
 10
6.4267607179
 20
11.7085602943
  7
STANDARD
 40
0.25
  1
AA
 41
0.8
 72
0
  0
LINE
  8
___SYMBOL
 62
2
  6
CONTINUOUS
 10
4.7335696792
 20
15.3269344414
 11
4.5202662273
 21
15.0732861684
  0
LINE
  8
___SYMBOL
 62
2
  6
CONTINUOUS
 10
4.5415078671
 20
15.3269344414
 11
4.7335696792
 21
15.3269344414
  0
LINE
  8
___SYMBOL
 62
2
  6
CONTINUOUS
 10
4.5415078671
 20
15.3269344414
 11
4.4037437004
 21
15.1631132517
  0
LINE
  8
___SYMBOL
 62
2
  6
CONTINUOUS
 10
4.4037437004
 20
15.3269344414
 11
4.4037437004
 21
15.1631132517
  0
LINE
  8
___SYMBOL
 62
2
  6
CONTINUOUS
 10
4.2292434735
 20
15.3269344414
 11
4.4037437004
 21
15.3269344414
  0
LINE
  8
___SYMBOL
 62
2
  6
CONTINUOUS
 10
4.2292434735
 20
15.3269344414
 11
4.2292434735
 21
14.7409967885
  0
LINE
  8
___SYMBOL
 62
2
  6
CONTINUOUS
 10
4.4037437004
 20
14.741020792
 11
4.2292434735
 21
14.7409967885
  0
LINE
  8
___SYMBOL
 62
2
  6
CONTINUOUS
 10
4.4037437004
 20
14.942520626
 11
4.4037437004
 21
14.741020792
  0
LINE
  8
___SYMBOL
 62
2
  6
CONTINUOUS
 10
4.5574816405
 20
14.741020792
 11
4.4037437004
 21
14.942520626
  0
LINE
  8
___SYMBOL
 62
2
  6
CONTINUOUS
 10
4.5574816405
 20
14.741020792
 11
4.773774062
 21
14.741020792
  0
LINE
  8
___SYMBOL
 62
2
  6
CONTINUOUS
 10
4.773774062
 20
14.741020792
 11
4.5202662273
 21
15.0732861684
  0
SOLID
  8
___SYMBOL
 62
2
  6
CONTINUOUS
 10
4.4037437004
 20
15.1631132517
 11
4.5415078671
 21
15.3269344414
 12
4.7335696792
 22
15.3269344414
 13
4.7335696792
 23
15.3269344414
  0
SOLID
  8
___SYMBOL
 62
2
  6
CONTINUOUS
 10
4.7335696792
 20
15.3269344414
 11
4.5202662273
 21
15.0732861684
 12
4.4037437004
 22
15.1631132517
 13
4.4037437004
 23
15.1631132517
  0
SOLID
  8
___SYMBOL
 62
2
  6
CONTINUOUS
 10
4.4037437004
 20
14.942520626
 11
4.5202662273
 21
15.0732861684
 12
4.5574816405
 22
14.741020792
 13
4.5574816405
 23
14.741020792
  0
SOLID
  8
___SYMBOL
 62
2
  6
CONTINUOUS
 10
4.5202662273
 20
15.0732861684
 11
4.773774062
 21
14.741020792
 12
4.5574816405
 22
14.741020792
 13
4.5574816405
 23
14.741020792
  0
SOLID
  8
___SYMBOL
 62
2
  6
CONTINUOUS
 10
4.4037437004
 20
14.741020792
 11
4.2292434735
 21
14.7409967885
 12
4.4037437004
 22
14.942520626
 13
4.4037437004
 23
14.942520626
  0
SOLID
  8
___SYMBOL
 62
2
  6
CONTINUOUS
 10
4.5202662273
 20
15.0732861684
 11
4.4037437004
 21
14.942520626
 12
4.4037437004
 22
15.1631132517
 13
4.4037437004
 23
15.1631132517
  0
SOLID
  8
___SYMBOL
 62
2
  6
CONTINUOUS
 10
4.4037437004
 20
14.942520626
 11
4.2292434735
 21
14.7409967885
 12
4.4037437004
 22
15.1631132517
 13
4.4037437004
 23
15.1631132517
  0
SOLID
  8
___SYMBOL
 62
2
  6
CONTINUOUS
 10
4.4037437004
 20
15.1631132517
 11
4.2292434735
 21
14.7409967885
 12
4.4037437004
 22
15.3269344414
 13
4.4037437004
 23
15.3269344414
  0
SOLID
  8
___SYMBOL
 62
2
  6
CONTINUOUS
 10
4.2292434735
 20
14.7409967885
 11
4.2292434735
 21
15.3269344414
 12
4.4037437004
 22
15.3269344414
 13
4.4037437004
 23
15.3269344414
  0
CIRCLE
  8
___SYMBOL
 62
2
  6
CONTINUOUS
 10
4.9502828987
 20
15.0328563648
 40
0.298056591
  0
CIRCLE
  8
___SYMBOL
 62
2
  6
CONTINUOUS
 10
4.9502828987
 20
15.0328563648
 40
0.1247694151
  0
SOLID
  8
___SYMBOL
 62
2
  6
CONTINUOUS
 10
4.8581783468
 20
15.3163250279
 11
4.9191275012
 21
15.3292801706
 12
4.9814382961
 22
15.3292801706
 13
4.9814382961
 23
15.3292801706
  0
SOLID
  8
___SYMBOL
 62
2
  6
CONTINUOUS
 10
4.9814382961
 20
15.3292801706
 11
5.0423874506
 21
15.3163250279
 12
4.8581783468
 22
15.3163250279
 13
4.8581783468
 23
15.3163250279
  0
SOLID
  8
___SYMBOL
 62
2
  6
CONTINUOUS
 10
4.8012546032
 20
15.2909809444
 11
4.8581783468
 21
15.3163250279
 12
5.0423874506
 22
15.3163250279
 13
5.0423874506
 23
15.3163250279
  0
SOLID
  8
___SYMBOL
 62
2
  6
CONTINUOUS
 10
5.0423874506
 20
15.3163250279
 11
5.0993111942
 21
15.2909809444
 12
4.8012546032
 22
15.2909809444
 13
4.8012546032
 23
15.2909809444
  0
SOLID
  8
___SYMBOL
 62
2
  6
CONTINUOUS
 10
4.7508441112
 20
15.2543555781
 11
4.8012546032
 21
15.2909809444
 12
5.0993111942
 22
15.2909809444
 13
5.0993111942
 23
15.2909809444
  0
SOLID
  8
___SYMBOL
 62
2
  6
CONTINUOUS
 10
5.0993111942
 20
15.2909809444
 11
5.1497216861
 21
15.2543555781
 12
4.7508441112
 22
15.2543555781
 13
4.7508441112
 23
15.2543555781
  0
SOLID
  8
___SYMBOL
 62
2
  6
CONTINUOUS
 10
4.7091500513
 20
15.2080496334
 11
4.7508441112
 21
15.2543555781
 12
5.1497216861
 22
15.2543555781
 13
5.1497216861
 23
15.2543555781
  0
SOLID
  8
___SYMBOL
 62
2
  6
CONTINUOUS
 10
5.1497216861
 20
15.2543555781
 11
5.1914157461
 21
15.2080496334
 12
4.7091500513
 22
15.2080496334
 13
4.7091500513
 23
15.2080496334
  0
SOLID
  8
___SYMBOL
 62
2
  6
CONTINUOUS
 10
4.9502828987
 20
15.1576257799
 11
4.6779946538
 21
15.1540869021
 12
5.1914157461
 22
15.2080496334
 13
5.1914157461
 23
15.2080496334
  0
SOLID
  8
___SYMBOL
 62
2
  6
CONTINUOUS
 10
4.6779946538
 20
15.1540869021
 11
4.7091500513
 21
15.2080496334
 12
5.1914157461
 22
15.2080496334
 13
5.1914157461
 23
15.2080496334
  0
SOLID
  8
___SYMBOL
 62
2
  6
CONTINUOUS
 10
5.1914157461
 20
15.2080496334
 11
5.2225711435
 21
15.1540869021
 12
4.9502828987
 22
15.1576257799
 13
4.9502828987
 23
15.1576257799
  0
SOLID
  8
___SYMBOL
 62
2
  6
CONTINUOUS
 10
4.9502828987
 20
15.1576257799
 11
4.911727029
 21
15.1515191301
 12
4.6779946538
 22
15.1540869021
 13
4.6779946538
 23
15.1540869021
  0
SOLID
  8
___SYMBOL
 62
2
  6
CONTINUOUS
 10
4.9888387683
 20
15.1515191301
 11
4.9502828987
 21
15.1576257799
 12
5.2225711435
 22
15.1540869021
 13
5.2225711435
 23
15.1540869021
  0
SOLID
  8
___SYMBOL
 62
2
  6
CONTINUOUS
 10
4.8493423215
 20
15.106193987
 11
4.6587395593
 21
15.0948258146
 12
4.8769452765
 22
15.133796942
 13
4.8769452765
 23
15.133796942
  0
SOLID
  8
___SYMBOL
 62
2
  6
CONTINUOUS
 10
4.8769452765
 20
15.133796942
 11
4.6587395593
 21
15.0948258146
 12
4.911727029
 22
15.1515191301
 13
4.911727029
 23
15.1515191301
  0
SOLID
  8
___SYMBOL
 62
2
  6
CONTINUOUS
 10
4.6587395593
 20
15.0948258146
 11
4.6779946538
 21
15.1540869021
 12
4.911727029
 22
15.1515191301
 13
4.911727029
 23
15.1515191301
  0
SOLID
  8
___SYMBOL
 62
2
  6
CONTINUOUS
 10
4.9888387683
 20
15.1515191301
 11
5.2225711435
 21
15.1540869021
 12
5.0236205208
 22
15.133796942
 13
5.0236205208
 23
15.133796942
  0
SOLID
  8
___SYMBOL
 62
2
  6
CONTINUOUS
 10
5.0236205208
 20
15.133796942
 11
5.2225711435
 21
15.1540869021
 12
5.0512234758
 22
15.106193987
 13
5.0512234758
 23
15.106193987
  0
SOLID
  8
___SYMBOL
 62
2
  6
CONTINUOUS
 10
5.2225711435
 20
15.1540869021
 11
5.241826238
 21
15.0948258146
 12
5.0512234758
 22
15.106193987
 13
5.0512234758
 23
15.106193987
  0
SOLID
  8
___SYMBOL
 62
2
  6
CONTINUOUS
 10
4.8493423215
 20
15.106193987
 11
4.8316201334
 21
15.0714122345
 12
4.6587395593
 22
15.0948258146
 13
4.6587395593
 23
15.0948258146
  0
SOLID
  8
___SYMBOL
 62
2
  6
CONTINUOUS
 10
5.0689456639
 20
15.0714122345
 11
5.0512234758
 21
15.106193987
 12
5.241826238
 22
15.0948258146
 13
5.241826238
 23
15.0948258146
  0
SOLID
  8
___SYMBOL
 62
2
  6
CONTINUOUS
 10
4.6522263077
 20
15.0328563648
 11
4.6587395593
 21
15.0948258146
 12
4.8316201334
 22
15.0714122345
 13
4.8316201334
 23
15.0714122345
  0
SOLID
  8
___SYMBOL
 62
2
  6
CONTINUOUS
 10
4.8316201334
 20
15.0714122345
 11
4.8255134836
 21
15.0328563648
 12
4.6522263077
 22
15.0328563648
 13
4.6522263077
 23
15.0328563648
  0
SOLID
  8
___SYMBOL
 62
2
  6
CONTINUOUS
 10
5.0689456639
 20
15.0714122345
 11
5.241826238
 21
15.0948258146
 12
5.0750523137
 22
15.0328563648
 13
5.0750523137
 23
15.0328563648
  0
SOLID
  8
___SYMBOL
 62
2
  6
CONTINUOUS
 10
5.241826238
 20
15.0948258146
 11
5.2483394897
 21
15.0328563648
 12
5.0750523137
 22
15.0328563648
 13
5.0750523137
 23
15.0328563648
  0
SOLID
  8
___SYMBOL
 62
2
  6
CONTINUOUS
 10
5.0689456639
 20
14.9943004952
 11
5.0750523137
 21
15.0328563648
 12
5.2483394897
 22
15.0328563648
 13
5.2483394897
 23
15.0328563648
  0
SOLID
  8
___SYMBOL
 62
2
  6
CONTINUOUS
 10
4.8316201334
 20
14.9943004952
 11
4.6587395593
 21
14.970886915
 12
4.8255134836
 22
15.0328563648
 13
4.8255134836
 23
15.0328563648
  0
SOLID
  8
___SYMBOL
 62
2
  6
CONTINUOUS
 10
4.6587395593
 20
14.970886915
 11
4.6522263077
 21
15.0328563648
 12
4.8255134836
 22
15.0328563648
 13
4.8255134836
 23
15.0328563648
  0
SOLID
  8
___SYMBOL
 62
2
  6
CONTINUOUS
 10
5.2483394897
 20
15.0328563648
 11
5.241826238
 21
14.970886915
 12
5.0689456639
 22
14.9943004952
 13
5.0689456639
 23
14.9943004952
  0
SOLID
  8
___SYMBOL
 62
2
  6
CONTINUOUS
 10
4.8316201334
 20
14.9943004952
 11
4.8493423215
 21
14.9595187427
 12
4.6587395593
 22
14.970886915
 13
4.6587395593
 23
14.970886915
  0
SOLID
  8
___SYMBOL
 62
2
  6
CONTINUOUS
 10
5.0512234758
 20
14.9595187427
 11
5.0689456639
 21
14.9943004952
 12
5.241826238
 22
14.970886915
 13
5.241826238
 23
14.970886915
  0
SOLID
  8
___SYMBOL
 62
2
  6
CONTINUOUS
 10
4.911727029
 20
14.9141935996
 11
4.6779946538
 21
14.9116258276
 12
4.8769452765
 22
14.9319157877
 13
4.8769452765
 23
14.9319157877
  0
SOLID
  8
___SYMBOL
 62
2
  6
CONTINUOUS
 10
4.8769452765
 20
14.9319157877
 11
4.6779946538
 21
14.9116258276
 12
4.8493423215
 22
14.9595187427
 13
4.8493423215
 23
14.9595187427
  0
SOLID
  8
___SYMBOL
 62
2
  6
CONTINUOUS
 10
4.6779946538
 20
14.9116258276
 11
4.6587395593
 21
14.970886915
 12
4.8493423215
 22
14.9595187427
 13
4.8493423215
 23
14.9595187427
  0
SOLID
  8
___SYMBOL
 62
2
  6
CONTINUOUS
 10
5.0512234758
 20
14.9595187427
 11
5.241826238
 21
14.970886915
 12
5.0236205208
 22
14.9319157877
 13
5.0236205208
 23
14.9319157877
  0
SOLID
  8
___SYMBOL
 62
2
  6
CONTINUOUS
 10
5.0236205208
 20
14.9319157877
 11
5.241826238
 21
14.970886915
 12
4.9888387683
 22
14.9141935996
 13
4.9888387683
 23
14.9141935996
  0
SOLID
  8
___SYMBOL
 62
2
  6
CONTINUOUS
 10
5.241826238
 20
14.970886915
 11
5.2225711435
 21
14.9116258276
 12
4.9888387683
 22
14.9141935996
 13
4.9888387683
 23
14.9141935996
  0
SOLID
  8
___SYMBOL
 62
2
  6
CONTINUOUS
 10
4.911727029
 20
14.9141935996
 11
4.9502828987
 21
14.9080869498
 12
4.6779946538
 22
14.9116258276
 13
4.6779946538
 23
14.9116258276
  0
SOLID
  8
___SYMBOL
 62
2
  6
CONTINUOUS
 10
4.9502828987
 20
14.9080869498
 11
4.9888387683
 21
14.9141935996
 12
5.2225711435
 22
14.9116258276
 13
5.2225711435
 23
14.9116258276
  0
SOLID
  8
___SYMBOL
 62
2
  6
CONTINUOUS
 10
4.7091500513
 20
14.8576630963
 11
4.6779946538
 21
14.9116258276
 12
4.9502828987
 22
14.9080869498
 13
4.9502828987
 23
14.9080869498
  0
SOLID
  8
___SYMBOL
 62
2
  6
CONTINUOUS
 10
4.9502828987
 20
14.9080869498
 11
5.2225711435
 21
14.9116258276
 12
4.7091500513
 22
14.8576630963
 13
4.7091500513
 23
14.8576630963
  0
SOLID
  8
___SYMBOL
 62
2
  6
CONTINUOUS
 10
5.2225711435
 20
14.9116258276
 11
5.1914157461
 21
14.8576630963
 12
4.7091500513
 22
14.8576630963
 13
4.7091500513
 23
14.8576630963
  0
SOLID
  8
___SYMBOL
 62
2
  6
CONTINUOUS
 10
4.7508441112
 20
14.8113571515
 11
4.7091500513
 21
14.8576630963
 12
5.1914157461
 22
14.8576630963
 13
5.1914157461
 23
14.8576630963
  0
SOLID
  8
___SYMBOL
 62
2
  6
CONTINUOUS
 10
5.1914157461
 20
14.8576630963
 11
5.1497216861
 21
14.8113571515
 12
4.7508441112
 22
14.8113571515
 13
4.7508441112
 23
14.8113571515
  0
SOLID
  8
___SYMBOL
 62
2
  6
CONTINUOUS
 10
4.8012546032
 20
14.7747317853
 11
4.7508441112
 21
14.8113571515
 12
5.1497216861
 22
14.8113571515
 13
5.1497216861
 23
14.8113571515
  0
SOLID
  8
___SYMBOL
 62
2
  6
CONTINUOUS
 10
5.1497216861
 20
14.8113571515
 11
5.0993111942
 21
14.7747317853
 12
4.8012546032
 22
14.7747317853
 13
4.8012546032
 23
14.7747317853
  0
SOLID
  8
___SYMBOL
 62
2
  6
CONTINUOUS
 10
4.8581783468
 20
14.7493877017
 11
4.8012546032
 21
14.7747317853
 12
5.0993111942
 22
14.7747317853
 13
5.0993111942
 23
14.7747317853
  0
SOLID
  8
___SYMBOL
 62
2
  6
CONTINUOUS
 10
5.0993111942
 20
14.7747317853
 11
5.0423874506
 21
14.7493877017
 12
4.8581783468
 22
14.7493877017
 13
4.8581783468
 23
14.7493877017
  0
SOLID
  8
___SYMBOL
 62
2
  6
CONTINUOUS
 10
4.9191275012
 20
14.736432559
 11
4.8581783468
 21
14.7493877017
 12
5.0423874506
 22
14.7493877017
 13
5.0423874506
 23
14.7493877017
  0
SOLID
  8
___SYMBOL
 62
2
  6
CONTINUOUS
 10
5.0423874506
 20
14.7493877017
 11
4.9814382961
 21
14.736432559
 12
4.9191275012
 22
14.736432559
 13
4.9191275012
 23
14.736432559
  0
LINE
  8
___SYMBOL
 62
2
  6
CONTINUOUS
 10
5.7429189079
 20
15.3269344414
 11
5.7429189079
 21
14.741020792
  0
LINE
  8
___SYMBOL
 62
2
  6
CONTINUOUS
 10
5.7429189079
 20
14.741020792
 11
5.578185228
 21
14.741020792
  0
LINE
  8
___SYMBOL
 62
2
  6
CONTINUOUS
 10
5.578185228
 20
14.9693454018
 11
5.578185228
 21
14.741020792
  0
LINE
  8
___SYMBOL
 62
2
  6
CONTINUOUS
 10
5.4301884169
 20
14.9693454018
 11
5.578185228
 21
14.9693454018
  0
LINE
  8
___SYMBOL
 62
2
  6
CONTINUOUS
 10
5.4301884169
 20
14.9693454018
 11
5.4301884169
 21
14.741020792
  0
LINE
  8
___SYMBOL
 62
2
  6
CONTINUOUS
 10
5.4301884169
 20
14.741020792
 11
5.2654547371
 21
14.741020792
  0
LINE
  8
___SYMBOL
 62
2
  6
CONTINUOUS
 10
5.2654547371
 20
15.3269344414
 11
5.2654547371
 21
14.741020792
  0
LINE
  8
___SYMBOL
 62
2
  6
CONTINUOUS
 10
5.2654547371
 20
15.3269344414
 11
5.4301884169
 21
15.3269344414
  0
LINE
  8
___SYMBOL
 62
2
  6
CONTINUOUS
 10
5.4301884169
 20
15.3269344414
 11
5.4301884169
 21
15.1065506817
  0
LINE
  8
___SYMBOL
 62
2
  6
CONTINUOUS
 10
5.4301884169
 20
15.1065506817
 11
5.578185228
 21
15.1065506817
  0
LINE
  8
___SYMBOL
 62
2
  6
CONTINUOUS
 10
5.578185228
 20
15.3269344414
 11
5.578185228
 21
15.1065506817
  0
LINE
  8
___SYMBOL
 62
2
  6
CONTINUOUS
 10
5.578185228
 20
15.3269344414
 11
5.7429189079
 21
15.3269344414
  0
SOLID
  8
___SYMBOL
 62
2
  6
CONTINUOUS
 10
5.578185228
 20
15.1065506817
 11
5.578185228
 21
15.3269344414
 12
5.7429189079
 22
15.3269344414
 13
5.7429189079
 23
15.3269344414
  0
SOLID
  8
___SYMBOL
 62
2
  6
CONTINUOUS
 10
5.578185228
 20
15.1065506817
 11
5.4301884169
 21
14.9693454018
 12
5.4301884169
 22
15.1065506817
 13
5.4301884169
 23
15.1065506817
  0
SOLID
  8
___SYMBOL
 62
2
  6
CONTINUOUS
 10
5.4301884169
 20
14.9693454018
 11
5.2654547371
 21
14.741020792
 12
5.4301884169
 22
15.1065506817
 13
5.4301884169
 23
15.1065506817
  0
SOLID
  8
___SYMBOL
 62
2
  6
CONTINUOUS
 10
5.4301884169
 20
15.1065506817
 11
5.2654547371
 21
14.741020792
 12
5.4301884169
 22
15.3269344414
 13
5.4301884169
 23
15.3269344414
  0
SOLID
  8
___SYMBOL
 62
2
  6
CONTINUOUS
 10
5.2654547371
 20
14.741020792
 11
5.2654547371
 21
15.3269344414
 12
5.4301884169
 22
15.3269344414
 13
5.4301884169
 23
15.3269344414
  0
SOLID
  8
___SYMBOL
 62
2
  6
CONTINUOUS
 10
5.4301884169
 20
14.9693454018
 11
5.4301884169
 21
14.741020792
 12
5.2654547371
 22
14.741020792
 13
5.2654547371
 23
14.741020792
  0
SOLID
  8
___SYMBOL
 62
2
  6
CONTINUOUS
 10
5.4301884169
 20
14.9693454018
 11
5.578185228
 21
15.1065506817
 12
5.578185228
 22
14.9693454018
 13
5.578185228
 23
14.9693454018
  0
SOLID
  8
___SYMBOL
 62
2
  6
CONTINUOUS
 10
5.578185228
 20
15.1065506817
 11
5.7429189079
 21
15.3269344414
 12
5.578185228
 22
14.9693454018
 13
5.578185228
 23
14.9693454018
  0
SOLID
  8
___SYMBOL
 62
2
  6
CONTINUOUS
 10
5.578185228
 20
14.9693454018
 11
5.7429189079
 21
15.3269344414
 12
5.578185228
 22
14.741020792
 13
5.578185228
 23
14.741020792
  0
SOLID
  8
___SYMBOL
 62
2
  6
CONTINUOUS
 10
5.7429189079
 20
15.3269344414
 11
5.7429189079
 21
14.741020792
 12
5.578185228
 22
14.741020792
 13
5.578185228
 23
14.741020792
  0
LINE
  8
___SYMBOL
 62
2
  6
CONTINUOUS
 10
5.9380098148
 20
14.741020792
 11
6.1006938848
 21
14.741020792
  0
LINE
  8
___SYMBOL
 62
2
  6
CONTINUOUS
 10
5.9380098148
 20
14.741020792
 11
5.7879637521
 21
14.741020792
  0
LINE
  8
___SYMBOL
 62
2
  6
CONTINUOUS
 10
5.7879637521
 20
14.741020792
 11
5.7879637521
 21
15.3269344414
  0
LINE
  8
___SYMBOL
 62
2
  6
CONTINUOUS
 10
5.7879637521
 20
15.3269344414
 11
5.9380098148
 21
15.3269344414
  0
LINE
  8
___SYMBOL
 62
2
  6
CONTINUOUS
 10
5.9380098148
 20
15.3269344414
 11
5.9380098148
 21
14.8822475492
  0
LINE
  8
___SYMBOL
 62
2
  6
CONTINUOUS
 10
5.9380098148
 20
14.8822475492
 11
6.1006938848
 21
14.8822475492
  0
LINE
  8
___SYMBOL
 62
2
  6
CONTINUOUS
 10
6.1006938848
 20
14.8822475492
 11
6.1006938848
 21
14.741020792
  0
SOLID
  8
___SYMBOL
 62
2
  6
CONTINUOUS
 10
6.1006938848
 20
14.8822475492
 11
5.7879637521
 21
14.741020792
 12
5.9380098148
 22
14.8822475492
 13
5.9380098148
 23
14.8822475492
  0
SOLID
  8
___SYMBOL
 62
2
  6
CONTINUOUS
 10
5.9380098148
 20
14.8822475492
 11
5.7879637521
 21
14.741020792
 12
5.9380098148
 22
15.3269344414
 13
5.9380098148
 23
15.3269344414
  0
SOLID
  8
___SYMBOL
 62
2
  6
CONTINUOUS
 10
5.7879637521
 20
14.741020792
 11
5.7879637521
 21
15.3269344414
 12
5.9380098148
 22
15.3269344414
 13
5.9380098148
 23
15.3269344414
  0
SOLID
  8
___SYMBOL
 62
2
  6
CONTINUOUS
 10
5.7879637521
 20
14.741020792
 11
6.1006938848
 21
14.8822475492
 12
5.9380098148
 22
14.741020792
 13
5.9380098148
 23
14.741020792
  0
SOLID
  8
___SYMBOL
 62
2
  6
CONTINUOUS
 10
6.1006938848
 20
14.8822475492
 11
6.1006938848
 21
14.741020792
 12
5.9380098148
 22
14.741020792
 13
5.9380098148
 23
14.741020792
  0
LINE
  8
___SYMBOL
 62
2
  6
CONTINUOUS
 10
6.4389457988
 20
14.9621690802
 11
6.4389457988
 21
15.1065506817
  0
LINE
  8
___SYMBOL
 62
2
  6
CONTINUOUS
 10
6.2880882754
 20
15.1065506817
 11
6.4389457988
 21
15.1065506817
  0
LINE
  8
___SYMBOL
 62
2
  6
CONTINUOUS
 10
6.2880882754
 20
15.1841750446
 11
6.2880882754
 21
15.1065506817
  0
LINE
  8
___SYMBOL
 62
2
  6
CONTINUOUS
 10
6.2880882754
 20
15.1841750446
 11
6.4389457988
 21
15.1841750446
  0
LINE
  8
___SYMBOL
 62
2
  6
CONTINUOUS
 10
6.4389457988
 20
15.1841750446
 11
6.4389457988
 21
15.3269344414
  0
LINE
  8
___SYMBOL
 62
2
  6
CONTINUOUS
 10
6.3022925988
 20
15.3269344414
 11
6.4389457988
 21
15.3269344414
  0
LINE
  8
___SYMBOL
 62
2
  6
CONTINUOUS
 10
6.1298416235
 20
15.3269344414
 11
6.3022925988
 21
15.3269344414
  0
LINE
  8
___SYMBOL
 62
2
  6
CONTINUOUS
 10
6.1298416235
 20
14.741020792
 11
6.1298416235
 21
15.3269344414
  0
LINE
  8
___SYMBOL
 62
2
  6
CONTINUOUS
 10
6.1298416235
 20
14.741020792
 11
6.4389457988
 21
14.741020792
  0
LINE
  8
___SYMBOL
 62
2
  6
CONTINUOUS
 10
6.4389457988
 20
14.741020792
 11
6.4389457988
 21
14.8822475492
  0
LINE
  8
___SYMBOL
 62
2
  6
CONTINUOUS
 10
6.2880882754
 20
14.8822475492
 11
6.4389457988
 21
14.8822475492
  0
LINE
  8
___SYMBOL
 62
2
  6
CONTINUOUS
 10
6.2880882754
 20
14.9621690802
 11
6.2880882754
 21
14.8822475492
  0
LINE
  8
___SYMBOL
 62
2
  6
CONTINUOUS
 10
6.2880882754
 20
14.9621690802
 11
6.4389457988
 21
14.9621690802
  0
SOLID
  8
___SYMBOL
 62
2
  6
CONTINUOUS
 10
6.4389457988
 20
15.3269344414
 11
6.4389457988
 21
15.1841750446
 12
6.2880882754
 22
15.1841750446
 13
6.2880882754
 23
15.1841750446
  0
SOLID
  8
___SYMBOL
 62
2
  6
CONTINUOUS
 10
6.4389457988
 20
15.1065506817
 11
6.4389457988
 21
14.9621690802
 12
6.2880882754
 22
14.9621690802
 13
6.2880882754
 23
14.9621690802
  0
SOLID
  8
___SYMBOL
 62
2
  6
CONTINUOUS
 10
6.4389457988
 20
14.8822475492
 11
6.1298416235
 21
14.741020792
 12
6.2880882754
 22
14.8822475492
 13
6.2880882754
 23
14.8822475492
  0
SOLID
  8
___SYMBOL
 62
2
  6
CONTINUOUS
 10
6.2880882754
 20
14.8822475492
 11
6.1298416235
 21
14.741020792
 12
6.2880882754
 22
14.9621690802
 13
6.2880882754
 23
14.9621690802
  0
SOLID
  8
___SYMBOL
 62
2
  6
CONTINUOUS
 10
6.4389457988
 20
15.1065506817
 11
6.2880882754
 21
14.9621690802
 12
6.2880882754
 22
15.1065506817
 13
6.2880882754
 23
15.1065506817
  0
SOLID
  8
___SYMBOL
 62
2
  6
CONTINUOUS
 10
6.2880882754
 20
14.9621690802
 11
6.1298416235
 21
14.741020792
 12
6.2880882754
 22
15.1065506817
 13
6.2880882754
 23
15.1065506817
  0
SOLID
  8
___SYMBOL
 62
2
  6
CONTINUOUS
 10
6.2880882754
 20
15.1065506817
 11
6.1298416235
 21
14.741020792
 12
6.2880882754
 22
15.1841750446
 13
6.2880882754
 23
15.1841750446
  0
SOLID
  8
___SYMBOL
 62
2
  6
CONTINUOUS
 10
6.4389457988
 20
15.3269344414
 11
6.2880882754
 21
15.1841750446
 12
6.3022925988
 22
15.3269344414
 13
6.3022925988
 23
15.3269344414
  0
SOLID
  8
___SYMBOL
 62
2
  6
CONTINUOUS
 10
6.2880882754
 20
15.1841750446
 11
6.1298416235
 21
14.741020792
 12
6.3022925988
 22
15.3269344414
 13
6.3022925988
 23
15.3269344414
  0
SOLID
  8
___SYMBOL
 62
2
  6
CONTINUOUS
 10
6.1298416235
 20
14.741020792
 11
6.1298416235
 21
15.3269344414
 12
6.3022925988
 22
15.3269344414
 13
6.3022925988
 23
15.3269344414
  0
SOLID
  8
___SYMBOL
 62
2
  6
CONTINUOUS
 10
6.4389457988
 20
14.8822475492
 11
6.4389457988
 21
14.741020792
 12
6.1298416235
 22
14.741020792
 13
6.1298416235
 23
14.741020792
  0
LINE
  8
___SYMBOL
 62
2
  6
CONTINUOUS
 10
6.9491962048
 20
14.741020792
 11
6.7897529618
 21
14.9926033333
  0
ARC
  8
___SYMBOL
 62
2
  6
CONTINUOUS
 10
6.7173137142
 20
15.1519249307
 40
0.1750166163
 50
294.4500166359
 51
90.0
  0
LINE
  8
___SYMBOL
 62
2
  6
CONTINUOUS
 10
6.4837660135
 20
15.3269344414
 11
6.7173137142
 21
15.3269344414
  0
LINE
  8
___SYMBOL
 62
2
  6
CONTINUOUS
 10
6.4837660135
 20
14.741020792
 11
6.4837660135
 21
15.3269344414
  0
LINE
  8
___SYMBOL
 62
2
  6
CONTINUOUS
 10
6.4837660135
 20
14.741020792
 11
6.6344218361
 21
14.741020792
  0
LINE
  8
___SYMBOL
 62
2
  6
CONTINUOUS
 10
6.6344218361
 20
14.9379771628
 11
6.6344218361
 21
14.741020792
  0
LINE
  8
___SYMBOL
 62
2
  6
CONTINUOUS
 10
6.7592452652
 20
14.741020792
 11
6.6344218361
 21
14.9379771628
  0
LINE
  8
___SYMBOL
 62
2
  6
CONTINUOUS
 10
6.7592452652
 20
14.741020792
 11
6.9491962048
 21
14.741020792
  0
LINE
  8
___SYMBOL
 62
2
  6
CONTINUOUS
 10
6.6344218361
 20
15.0772524735
 11
6.6867615863
 21
15.0772524735
  0
ARC
  8
___SYMBOL
 62
2
  6
CONTINUOUS
 10
6.6903516156
 20
15.130743873
 40
0.053611735
 50
266.1604009902
 51
89.9998910512
  0
LINE
  8
___SYMBOL
 62
2
  6
CONTINUOUS
 10
6.6903517175
 20
15.184355608
 11
6.6344218361
 21
15.184355608
  0
LINE
  8
___SYMBOL
 62
2
  6
CONTINUOUS
 10
6.6344218361
 20
15.184355608
 11
6.6344218361
 21
15.0772524735
  0
SOLID
  8
___SYMBOL
 62
2
  6
CONTINUOUS
 10
6.7173137142
 20
15.326941547
 11
6.7642467377
 21
15.3205312986
 12
6.4837660135
 22
15.3269344414
 13
6.4837660135
 23
15.3269344414
  0
SOLID
  8
___SYMBOL
 62
2
  6
CONTINUOUS
 10
6.6344218361
 20
15.184355608
 11
6.8883615772
 21
15.1889849436
 12
6.6903517175
 22
15.184355608
 13
6.6903517175
 23
15.184355608
  0
SOLID
  8
___SYMBOL
 62
2
  6
CONTINUOUS
 10
6.6903517175
 20
15.184355608
 11
6.8883615772
 21
15.1889849436
 12
6.7140742991
 22
15.1788214397
 13
6.7140742991
 23
15.1788214397
  0
SOLID
  8
___SYMBOL
 62
2
  6
CONTINUOUS
 10
6.7140742991
 20
15.1788214397
 11
6.8883615772
 21
15.1889849436
 12
6.7328992868
 22
15.1633615647
 13
6.7328992868
 23
15.1633615647
  0
SOLID
  8
___SYMBOL
 62
2
  6
CONTINUOUS
 10
6.8883615772
 20
15.1889849436
 11
6.8920348236
 21
15.1417588147
 12
6.7328992868
 22
15.1633615647
 13
6.7328992868
 23
15.1633615647
  0
SOLID
  8
___SYMBOL
 62
2
  6
CONTINUOUS
 10
6.7429402254
 20
15.141167704
 11
6.7328992868
 21
15.1633615647
 12
6.8920348236
 22
15.1417588147
 13
6.8920348236
 23
15.1417588147
  0
SOLID
  8
___SYMBOL
 62
2
  6
CONTINUOUS
 10
6.7429402254
 20
15.141167704
 11
6.8920348236
 21
15.1417588147
 12
6.7421241437
 22
15.1168218233
 13
6.7421241437
 23
15.1168218233
  0
SOLID
  8
___SYMBOL
 62
2
  6
CONTINUOUS
 10
6.7421241437
 20
15.1168218233
 11
6.8920348236
 21
15.1417588147
 12
6.7306195233
 22
15.0953501767
 13
6.7306195233
 23
15.0953501767
  0
SOLID
  8
___SYMBOL
 62
2
  6
CONTINUOUS
 10
6.8920348236
 20
15.1417588147
 11
6.8829092199
 21
15.0952773847
 12
6.7306195233
 22
15.0953501767
 13
6.7306195233
 23
15.0953501767
  0
SOLID
  8
___SYMBOL
 62
2
  6
CONTINUOUS
 10
6.7108015155
 20
15.0811856273
 11
6.7306195233
 21
15.0953501767
 12
6.8829092199
 22
15.0952773847
 13
6.8829092199
 23
15.0952773847
  0
SOLID
  8
___SYMBOL
 62
2
  6
CONTINUOUS
 10
6.7108015155
 20
15.0811856273
 11
6.8829092199
 21
15.0952773847
 12
6.6867615863
 22
15.0772524735
 13
6.6867615863
 23
15.0772524735
  0
SOLID
  8
___SYMBOL
 62
2
  6
CONTINUOUS
 10
6.8829092199
 20
15.0952773847
 11
6.8616532442
 21
15.0529455588
 12
6.6867615863
 22
15.0772524735
 13
6.6867615863
 23
15.0772524735
  0
SOLID
  8
___SYMBOL
 62
2
  6
CONTINUOUS
 10
6.7897529618
 20
14.9926033333
 11
6.6344218361
 21
14.9379771628
 12
6.8298239611
 22
15.0178642715
 13
6.8298239611
 23
15.0178642715
  0
SOLID
  8
___SYMBOL
 62
2
  6
CONTINUOUS
 10
6.8298239611
 20
15.0178642715
 11
6.6344218361
 21
14.9379771628
 12
6.8616532442
 22
15.0529455588
 13
6.8616532442
 23
15.0529455588
  0
SOLID
  8
___SYMBOL
 62
2
  6
CONTINUOUS
 10
6.8616532442
 20
15.0529455588
 11
6.6344218361
 21
14.9379771628
 12
6.6867615863
 22
15.0772524735
 13
6.6867615863
 23
15.0772524735
  0
SOLID
  8
___SYMBOL
 62
2
  6
CONTINUOUS
 10
6.6344218361
 20
14.9379771628
 11
6.4837660135
 21
14.741020792
 12
6.6867615863
 22
15.0772524735
 13
6.6867615863
 23
15.0772524735
  0
SOLID
  8
___SYMBOL
 62
2
  6
CONTINUOUS
 10
6.6867615863
 20
15.0772524735
 11
6.4837660135
 21
14.741020792
 12
6.6344218361
 22
15.0772524735
 13
6.6344218361
 23
15.0772524735
  0
SOLID
  8
___SYMBOL
 62
2
  6
CONTINUOUS
 10
6.6344218361
 20
15.0772524735
 11
6.4837660135
 21
14.741020792
 12
6.6344218361
 22
15.184355608
 13
6.6344218361
 23
15.184355608
  0
SOLID
  8
___SYMBOL
 62
2
  6
CONTINUOUS
 10
6.8883615772
 20
15.1889849436
 11
6.6344218361
 21
15.184355608
 12
6.872158557
 22
15.2334963143
 13
6.872158557
 23
15.2334963143
  0
SOLID
  8
___SYMBOL
 62
2
  6
CONTINUOUS
 10
6.872158557
 20
15.2334963143
 11
6.6344218361
 21
15.184355608
 12
6.8446126835
 22
15.2720323342
 13
6.8446126835
 23
15.2720323342
  0
SOLID
  8
___SYMBOL
 62
2
  6
CONTINUOUS
 10
6.8446126835
 20
15.2720323342
 11
6.6344218361
 21
15.184355608
 12
6.8077417752
 22
15.3017701233
 13
6.8077417752
 23
15.3017701233
  0
SOLID
  8
___SYMBOL
 62
2
  6
CONTINUOUS
 10
6.8077417752
 20
15.3017701233
 11
6.6344218361
 21
15.184355608
 12
6.7642467377
 22
15.3205312986
 13
6.7642467377
 23
15.3205312986
  0
SOLID
  8
___SYMBOL
 62
2
  6
CONTINUOUS
 10
6.7642467377
 20
15.3205312986
 11
6.6344218361
 21
15.184355608
 12
6.4837660135
 22
15.3269344414
 13
6.4837660135
 23
15.3269344414
  0
SOLID
  8
___SYMBOL
 62
2
  6
CONTINUOUS
 10
6.4837660135
 20
14.741020792
 11
6.4837660135
 21
15.3269344414
 12
6.6344218361
 22
15.184355608
 13
6.6344218361
 23
15.184355608
  0
SOLID
  8
___SYMBOL
 62
2
  6
CONTINUOUS
 10
6.6344218361
 20
14.9379771628
 11
6.6344218361
 21
14.741020792
 12
6.4837660135
 22
14.741020792
 13
6.4837660135
 23
14.741020792
  0
SOLID
  8
___SYMBOL
 62
2
  6
CONTINUOUS
 10
6.6344218361
 20
14.9379771628
 11
6.7897529618
 21
14.9926033333
 12
6.7592452652
 22
14.741020792
 13
6.7592452652
 23
14.741020792
  0
SOLID
  8
___SYMBOL
 62
2
  6
CONTINUOUS
 10
6.7897529618
 20
14.9926033333
 11
6.9491962048
 21
14.741020792
 12
6.7592452652
 22
14.741020792
 13
6.7592452652
 23
14.741020792
  0
CIRCLE
  8
___SYMBOL
 62
2
  6
CONTINUOUS
 10
7.0899661794
 20
14.741020792
 40
0.0653578721
  0
LINE
  8
___SYMBOL
 62
2
  6
CONTINUOUS
 10
7.0856781562
 20
14.7404830426
 11
7.1175461689
 21
14.7081801012
  0
LINE
  8
___SYMBOL
 62
2
  6
CONTINUOUS
 10
7.07408018
 20
14.7081801012
 11
7.07408018
 21
14.7741463001
  0
LINE
  8
___SYMBOL
 62
2
  6
CONTINUOUS
 10
7.07408018
 20
14.7741463001
 11
7.098359513
 21
14.7741463001
  0
ARC
  8
___SYMBOL
 62
2
  6
CONTINUOUS
 10
7.098359513
 20
14.7573148505
 40
0.0168314496
 50
270.0
 51
90.0
  0
LINE
  8
___SYMBOL
 62
2
  6
CONTINUOUS
 10
7.098359513
 20
14.7404830426
 11
7.07408018
 21
14.7404830426
  0
ENDBLK
  8
0
  6
BYBLOCK
 62
0
  0
BLOCK
  8
___SYMBOL
 62
2
  6
CONTINUOUS
  2
LAV_UC_INSTALLATION_BL6
 70
64
 10
15.0021825923
 20
13.4155235919
  0
TEXT
  8
___SYMBOL
 62
2
  6
CONTINUOUS
 10
15.8268496634
 20
12.6098322424
  7
STANDARD
 40
0.15625
  1
WOOD
 41
0.8
 72
0
  0
TEXT
  8
___SYMBOL
 62
2
  6
CONTINUOUS
 10
15.8268496634
 20
12.3754572424
  7
STANDARD
 40
0.15625
  1
BOIS
 41
0.8
 72
0
  0
TEXT
  8
___SYMBOL
 62
2
  6
CONTINUOUS
 10
15.7018496634
 20
12.1410822424
  7
STANDARD
 40
0.15625
  1
MADERA
 41
0.8
 72
0
  0
TEXT
  8
___SYMBOL
 62
2
  6
CONTINUOUS
 10
13.5471680882
 20
13.4277039349
  7
STANDARD
 40
0.15625
  1
20/32"
 41
0.8
 72
0
  0
TEXT
  8
___SYMBOL
 62
2
  6
CONTINUOUS
 10
13.5471680882
 20
13.1933289349
  7
STANDARD
 40
0.15625
  1
16mm
 41
0.8
 72
0
  0
TEXT
  8
___SYMBOL
 62
2
  6
CONTINUOUS
 10
12.6113818048
 20
12.5954893952
  7
STANDARD
 40
0.15625
  1
MARBLE
 41
0.8
 72
0
  0
TEXT
  8
___SYMBOL
 62
2
  6
CONTINUOUS
 10
12.6113818048
 20
12.3611143952
  7
STANDARD
 40
0.15625
  1
MARBRE
 41
0.8
 72
0
  0
TEXT
  8
___SYMBOL
 62
2
  6
CONTINUOUS
 10
12.6113818048
 20
12.1267393952
  7
STANDARD
 40
0.15625
  1
MÁRMOL
 41
0.8
 72
0
  0
TEXT
  8
___SYMBOL
 62
2
  6
CONTINUOUS
 10
12.6113818048
 20
11.8923643952
  7
STANDARD
 40
0.15625
  1
 
 41
0.8
 72
0
  0
TEXT
  8
___SYMBOL
 62
2
  6
CONTINUOUS
 10
13.7396736657
 20
12.0328688865
  7
STANDARD
 40
0.15625
  1
INSTALLATION
 41
0.8
 72
0
  0
TEXT
  8
___SYMBOL
 62
2
  6
CONTINUOUS
 10
13.7396736657
 20
11.7984938865
  7
STANDARD
 40
0.15625
  1
INSTALLATION
 41
0.8
 72
0
  0
TEXT
  8
___SYMBOL
 62
2
  6
CONTINUOUS
 10
13.7396736657
 20
11.5641188865
  7
STANDARD
 40
0.15625
  1
INSTALACIÓN
 41
0.8
 72
0
  0
TEXT
  8
___SYMBOL
 62
2
  6
CONTINUOUS
 10
13.7396736657
 20
11.3297438865
  7
STANDARD
 40
0.15625
  1
 
 41
0.8
 72
0
  0
TEXT
  8
___SYMBOL
 62
2
  6
CONTINUOUS
 10
15.9688749663
 20
15.1106782973
  7
STANDARD
 40
0.15625
  1
SEALANT
 41
0.8
 72
0
  0
TEXT
  8
___SYMBOL
 62
2
  6
CONTINUOUS
 10
15.9688749663
 20
14.8763032973
  7
STANDARD
 40
0.15625
  1
MASTIC D'ÉTANCHÉITÉ
 41
0.8
 72
0
  0
TEXT
  8
___SYMBOL
 62
2
  6
CONTINUOUS
 10
15.9688749663
 20
14.6419282973
  7
STANDARD
 40
0.15625
  1
SELLADOR
 41
0.8
 72
0
  0
TEXT
  8
___SYMBOL
 62
2
  6
CONTINUOUS
 10
12.1741529439
 20
15.100868636
  7
STANDARD
 40
0.15625
  1
SEALANT
 41
0.8
 72
0
  0
TEXT
  8
___SYMBOL
 62
2
  6
CONTINUOUS
 10
12.1741529439
 20
14.866493636
  7
STANDARD
 40
0.15625
  1
MASTIC D'ÉTANCHÉITÉ
 41
0.8
 72
0
  0
TEXT
  8
___SYMBOL
 62
2
  6
CONTINUOUS
 10
12.1741529439
 20
14.632118636
  7
STANDARD
 40
0.15625
  1
SELLADOR
 41
0.8
 72
0
  0
TEXT
  8
___SYMBOL
 62
2
  6
CONTINUOUS
 10
13.806058801
 20
14.1030474665
  7
STANDARD
 40
0.15625
  1
%%c12/32"
 41
0.8761904762
 72
0
  0
TEXT
  8
___SYMBOL
 62
2
  6
CONTINUOUS
 10
13.806058801
 20
13.8686724665
  7
STANDARD
 40
0.15625
  1
%%c10mm
 41
0.9066666667
 72
0
  0
LINE
  8
___SYMBOL
 62
2
  6
CONTINUOUS
 10
12.3903239159
 20
12.6886842481
 11
12.3986239159
 21
12.6803842481
  0
LINE
  8
___SYMBOL
 62
2
  6
CONTINUOUS
 10
12.2797142614
 20
12.7798495082
 11
12.2907742614
 21
12.7687495082
  0
LINE
  8
___SYMBOL
 62
2
  6
CONTINUOUS
 10
12.3875107432
 20
12.6996691948
 11
12.3903107432
 21
12.6886891948
  0
LINE
  8
___SYMBOL
 62
2
  6
CONTINUOUS
 10
12.4124103132
 20
12.6747914535
 11
12.4151503132
 21
12.6638114535
  0
LINE
  8
___SYMBOL
 62
2
  6
CONTINUOUS
 10
12.3350142614
 20
12.7660695082
 11
12.3377742614
 21
12.7549495082
  0
LINE
  8
___SYMBOL
 62
2
  6
CONTINUOUS
 10
12.2437742614
 20
13.7823595082
 11
12.2437742614
 21
13.3742795082
  0
LINE
  8
___SYMBOL
 62
2
  6
CONTINUOUS
 10
12.3350142614
 20
12.7439695082
 11
12.3350142614
 21
12.7328495082
  0
LINE
  8
___SYMBOL
 62
2
  6
CONTINUOUS
 10
12.3930742614
 20
12.7300495082
 11
12.3930742614
 21
12.7107695082
  0
LINE
  8
___SYMBOL
 62
2
  6
CONTINUOUS
 10
12.6115142614
 20
12.9955495082
 11
12.6115142614
 21
13.0563495082
  0
LINE
  8
___SYMBOL
 62
2
  6
CONTINUOUS
 10
12.9543542614
 20
13.9632095082
 11
12.9543542614
 21
13.6038295082
  0
LINE
  8
___SYMBOL
 62
2
  6
CONTINUOUS
 10
12.9543542614
 20
13.6045595082
 11
12.9543542614
 21
13.3142795082
  0
LINE
  8
___SYMBOL
 62
2
  6
CONTINUOUS
 10
12.9930342614
 20
13.0563495082
 11
12.9930342614
 21
12.9955495082
  0
LINE
  8
___SYMBOL
 62
2
  6
CONTINUOUS
 10
13.0151342614
 20
12.9955495082
 11
13.0151342614
 21
13.5263095082
  0
LINE
  8
___SYMBOL
 62
2
  6
CONTINUOUS
 10
13.046641692
 20
12.9693282307
 11
13.046641692
 21
12.955097192
  0
LINE
  8
___SYMBOL
 62
2
  6
CENTER
 10
13.0552342614
 20
13.6251895082
 11
13.0552342614
 21
12.8090092496
  0
LINE
  8
___SYMBOL
 62
2
  6
CONTINUOUS
 10
13.0638268309
 20
12.9552334447
 11
13.0638268309
 21
12.9693282307
  0
LINE
  8
___SYMBOL
 62
2
  6
CONTINUOUS
 10
13.0980742614
 20
12.9955495082
 11
13.0980742614
 21
13.5263095082
  0
LINE
  8
___SYMBOL
 62
2
  6
CONTINUOUS
 10
13.1201742614
 20
13.0563495082
 11
13.1201742614
 21
12.9955495082
  0
LINE
  8
___SYMBOL
 62
2
  6
CONTINUOUS
 10
13.1506342614
 20
13.9632095082
 11
13.1506342614
 21
13.6038295082
  0
LINE
  8
___SYMBOL
 62
2
  6
CONTINUOUS
 10
13.1506342614
 20
13.3142795082
 11
13.1506342614
 21
13.6045595082
  0
LINE
  8
___SYMBOL
 62
2
  6
CONTINUOUS
 10
12.3377742614
 20
12.7549495082
 11
12.3350142614
 21
12.7439695082
  0
LINE
  8
___SYMBOL
 62
2
  6
CONTINUOUS
 10
12.4334597251
 20
13.2013502624
 11
12.2746879062
 21
12.7660695082
  0
LINE
  8
___SYMBOL
 62
2
  6
CONTINUOUS
 10
12.2907742614
 20
12.7687495082
 11
12.3045542614
 21
12.7660695082
  0
LINE
  8
___SYMBOL
 62
2
  6
CONTINUOUS
 10
12.3820142614
 20
12.7328495082
 11
12.3930742614
 21
12.7300495082
  0
LINE
  8
___SYMBOL
 62
2
  6
CONTINUOUS
 10
12.3986239159
 20
12.6803842481
 11
12.4124239159
 21
12.6747642481
  0
LINE
  8
___SYMBOL
 62
2
  6
CONTINUOUS
 10
12.3350142614
 20
12.7328495082
 11
12.3460742614
 21
12.7273695082
  0
LINE
  8
___SYMBOL
 62
2
  6
CONTINUOUS
 10
13.3358742614
 20
13.4718795082
 11
13.3275742614
 21
13.4801795082
  0
LINE
  8
___SYMBOL
 62
2
  6
CONTINUOUS
 10
13.3883742614
 20
13.3142795082
 11
13.3607142614
 21
13.3585995082
  0
LINE
  8
___SYMBOL
 62
2
  6
CONTINUOUS
 10
13.3441742614
 20
13.4469795082
 11
13.3386142614
 21
13.4580795082
  0
LINE
  8
___SYMBOL
 62
2
  6
CONTINUOUS
 10
13.3275742614
 20
13.4801795082
 11
13.3192742614
 21
13.5022595082
  0
LINE
  8
___SYMBOL
 62
2
  6
CONTINUOUS
 10
13.0980742614
 20
13.5263095082
 11
13.0842942614
 21
13.5733095082
  0
LINE
  8
___SYMBOL
 62
2
  6
CONTINUOUS
 10
13.3607142614
 20
13.3585995082
 11
13.3496742614
 21
13.4055795082
  0
LINE
  8
___SYMBOL
 62
2
  6
CONTINUOUS
 10
13.3386142614
 20
13.4580795082
 11
13.3358742614
 21
13.4718795082
  0
LINE
  8
___SYMBOL
 62
2
  6
CONTINUOUS
 10
13.3496742614
 20
13.4165795082
 11
13.3441742614
 21
13.4469795082
  0
LINE
  8
___SYMBOL
 62
2
  6
CONTINUOUS
 10
13.2639742614
 20
13.1063495082
 11
13.2639742614
 21
13.3142795082
  0
LINE
  8
___SYMBOL
 62
2
  6
CONTINUOUS
 10
13.3248342614
 20
13.3142795082
 11
13.3248342614
 21
13.0955495082
  0
LINE
  8
___SYMBOL
 62
2
  6
CONTINUOUS
 10
13.3469142614
 20
13.5990595082
 11
13.3469142614
 21
13.6101795082
  0
LINE
  8
___SYMBOL
 62
2
  6
CONTINUOUS
 10
13.3496742614
 20
13.4055795082
 11
13.3496742614
 21
13.4165795082
  0
LINE
  8
___SYMBOL
 62
2
  6
CONTINUOUS
 10
13.3690142614
 20
13.6681595082
 11
13.3690142614
 21
13.7815595082
  0
LINE
  8
___SYMBOL
 62
2
  6
CONTINUOUS
 10
13.3828742614
 20
13.8147595082
 11
13.3828742614
 21
13.8313595082
  0
LINE
  8
___SYMBOL
 62
2
  6
CONTINUOUS
 10
13.4685742614
 20
13.6073795082
 11
13.4685742614
 21
13.3170795082
  0
LINE
  8
___SYMBOL
 62
2
  6
CONTINUOUS
 10
13.3192742614
 20
13.5022595082
 11
13.3248342614
 21
13.5437795082
  0
LINE
  8
___SYMBOL
 62
2
  6
CONTINUOUS
 10
13.3690142614
 20
13.7815595082
 11
13.3718342614
 21
13.7925595082
  0
LINE
  8
___SYMBOL
 62
2
  6
CONTINUOUS
 10
13.0151342614
 20
13.5263095082
 11
13.0289942614
 21
13.5733095082
  0
LINE
  8
___SYMBOL
 62
2
  6
PHANTOM
 10
12.4151503132
 20
12.6638250563
 11
12.5431161081
 21
13.0143525258
  0
LINE
  8
___SYMBOL
 62
2
  6
CONTINUOUS
 10
13.3469142614
 20
13.6101795082
 11
13.3690142614
 21
13.6681595082
  0
LINE
  8
___SYMBOL
 62
2
  6
CONTINUOUS
 10
13.3248342614
 20
13.5437795082
 11
13.3469142614
 21
13.5990595082
  0
LINE
  8
___SYMBOL
 62
2
  6
CONTINUOUS
 10
13.3718342614
 20
13.7925595082
 11
13.3828742614
 21
13.8147595082
  0
LINE
  8
___SYMBOL
 62
2
  6
CONTINUOUS
 10
12.3930742614
 20
12.7107695082
 11
12.3875142614
 21
12.6996495082
  0
LINE
  8
___SYMBOL
 62
2
  6
CONTINUOUS
 10
13.3828742614
 20
13.8313595082
 11
13.3883742614
 21
13.8423595082
  0
LINE
  8
___SYMBOL
 62
2
  6
PHANTOM
 10
12.8722905857
 20
13.2367465897
 11
12.7981516881
 21
13.0893836712
  0
LINE
  8
___SYMBOL
 62
2
  6
CONTINUOUS
 10
12.3460742614
 20
12.7273695082
 11
12.3709742614
 21
12.7273695082
  0
LINE
  8
___SYMBOL
 62
2
  6
CONTINUOUS
 10
15.2847082334
 20
12.7638388
 11
15.3095482334
 21
12.7638388
  0
LINE
  8
___SYMBOL
 62
2
  6
CONTINUOUS
 10
12.3045542614
 20
12.7660695082
 11
12.3350142614
 21
12.7660695082
  0
LINE
  8
___SYMBOL
 62
2
  6
CONTINUOUS
 10
15.2432082334
 20
12.8025388
 11
15.2736682334
 21
12.8025388
  0
LINE
  8
___SYMBOL
 62
2
  6
CONTINUOUS
 10
15.985295664
 20
13.0057268935
 11
16.0024808029
 21
13.0057268935
  0
LINE
  8
___SYMBOL
 62
2
  6
CONTINUOUS
 10
13.046641692
 20
12.9693282307
 11
13.0638268309
 21
12.9693282307
  0
LINE
  8
___SYMBOL
 62
2
  6
CONTINUOUS
 10
13.2248342614
 20
12.9955495082
 11
12.6115142614
 21
12.9955495082
  0
LINE
  8
___SYMBOL
 62
2
  6
CONTINUOUS
 10
15.5500882334
 20
13.0320188
 11
16.1534082334
 21
13.0320188
  0
LINE
  8
___SYMBOL
 62
2
  6
CONTINUOUS
 10
13.0303342614
 20
13.0023895082
 11
13.0814742614
 21
13.0023895082
  0
LINE
  8
___SYMBOL
 62
2
  6
CONTINUOUS
 10
13.0151342614
 20
13.0189895082
 11
13.0980742614
 21
13.0189895082
  0
LINE
  8
___SYMBOL
 62
2
  6
CONTINUOUS
 10
13.0303342614
 20
13.0369295082
 11
13.0814742614
 21
13.0369295082
  0
LINE
  8
___SYMBOL
 62
2
  6
CONTINUOUS
 10
16.1526282334
 20
13.0928188
 11
16.0367282334
 21
13.0928188
  0
LINE
  8
___SYMBOL
 62
2
  6
CONTINUOUS
 10
12.6032391762
 20
13.0563495082
 11
13.2139742614
 21
13.0563495082
  0
LINE
  8
___SYMBOL
 62
2
  6
PHANTOM
 10
15.5425045803
 20
13.0928188
 11
15.6832067456
 21
13.0928188
  0
LINE
  8
___SYMBOL
 62
2
  6
CONTINUOUS
 10
13.0303342614
 20
13.0729495082
 11
13.0814742614
 21
13.0729495082
  0
LINE
  8
___SYMBOL
 62
2
  6
CONTINUOUS
 10
13.0980742614
 20
13.0922295082
 11
13.0151342614
 21
13.0922295082
  0
LINE
  8
___SYMBOL
 62
2
  6
CONTINUOUS
 10
13.0303342614
 20
13.1088295082
 11
13.0814742614
 21
13.1088295082
  0
LINE
  8
___SYMBOL
 62
2
  6
CONTINUOUS
 10
13.0151342614
 20
13.1267695082
 11
13.0980742614
 21
13.1267695082
  0
LINE
  8
___SYMBOL
 62
2
  6
CONTINUOUS
 10
13.0303342614
 20
13.1448495082
 11
13.0814742614
 21
13.1448495082
  0
LINE
  8
___SYMBOL
 62
2
  6
CONTINUOUS
 10
13.0151342614
 20
13.1627895082
 11
13.0980742614
 21
13.1627895082
  0
LINE
  8
___SYMBOL
 62
2
  6
CONTINUOUS
 10
15.9537882334
 20
13.1992588
 11
16.0367282334
 21
13.1992588
  0
LINE
  8
___SYMBOL
 62
2
  6
CONTINUOUS
 10
13.0303342614
 20
13.1793895082
 11
13.0814742614
 21
13.1793895082
  0
LINE
  8
___SYMBOL
 62
2
  6
CONTINUOUS
 10
15.9689682334
 20
13.2158588
 11
16.0201282334
 21
13.2158588
  0
LINE
  8
___SYMBOL
 62
2
  6
CONTINUOUS
 10
13.0151342614
 20
13.2001495082
 11
13.0980742614
 21
13.2001495082
  0
LINE
  8
___SYMBOL
 62
2
  6
CONTINUOUS
 10
15.9537882334
 20
13.2366188
 11
16.0367282334
 21
13.2366188
  0
LINE
  8
___SYMBOL
 62
2
  6
CONTINUOUS
 10
13.0303342614
 20
13.2167495082
 11
13.0814742614
 21
13.2167495082
  0
LINE
  8
___SYMBOL
 62
2
  6
CONTINUOUS
 10
15.9689682334
 20
13.2532188
 11
16.0201282334
 21
13.2532188
  0
LINE
  8
___SYMBOL
 62
2
  6
CONTINUOUS
 10
13.0151342614
 20
13.2360295082
 11
13.0980742614
 21
13.2360295082
  0
LINE
  8
___SYMBOL
 62
2
  6
CONTINUOUS
 10
15.9537882334
 20
13.2724988
 11
16.0367282334
 21
13.2724988
  0
LINE
  8
___SYMBOL
 62
2
  6
CONTINUOUS
 10
13.0303342614
 20
13.2526295082
 11
13.0814742614
 21
13.2526295082
  0
LINE
  8
___SYMBOL
 62
2
  6
CONTINUOUS
 10
15.9689682334
 20
13.2890988
 11
16.0201282334
 21
13.2890988
  0
LINE
  8
___SYMBOL
 62
2
  6
CONTINUOUS
 10
13.0151342614
 20
13.2720495082
 11
13.0980742614
 21
13.2720495082
  0
LINE
  8
___SYMBOL
 62
2
  6
CONTINUOUS
 10
15.9537882334
 20
13.3085188
 11
16.0367282334
 21
13.3085188
  0
LINE
  8
___SYMBOL
 62
2
  6
CONTINUOUS
 10
15.4883467181
 20
13.3166988
 11
15.6944122246
 21
13.3166988
  0
LINE
  8
___SYMBOL
 62
2
  6
CONTINUOUS
 10
12.3037742614
 20
13.3142795082
 11
12.3946584884
 21
13.3142795082
  0
LINE
  8
___SYMBOL
 62
2
  6
CONTINUOUS
 10
15.1824082334
 20
13.3507488
 11
15.3386273805
 21
13.3507488
  0
LINE
  8
___SYMBOL
 62
2
  6
PHANTOM
 10
16.0367282334
 20
13.3507488
 11
16.2026282334
 21
13.3507488
  0
LINE
  8
___SYMBOL
 62
2
  6
CONTINUOUS
 10
13.4077142614
 20
13.3170795082
 11
13.5155542614
 21
13.3170795082
  0
LINE
  8
___SYMBOL
 62
2
  6
CONTINUOUS
 10
13.0303342614
 20
13.2899895082
 11
13.0814742614
 21
13.2899895082
  0
LINE
  8
___SYMBOL
 62
2
  6
CONTINUOUS
 10
15.9689682334
 20
13.3264588
 11
16.0201282334
 21
13.3264588
  0
LINE
  8
___SYMBOL
 62
2
  6
CONTINUOUS
 10
13.0151342614
 20
13.3079295082
 11
13.0980742614
 21
13.3079295082
  0
LINE
  8
___SYMBOL
 62
2
  6
CONTINUOUS
 10
15.9537882334
 20
13.3443988
 11
16.0367282334
 21
13.3443988
  0
LINE
  8
___SYMBOL
 62
2
  6
CONTINUOUS
 10
13.0303342614
 20
13.3273495082
 11
13.0814742614
 21
13.3273495082
  0
LINE
  8
___SYMBOL
 62
2
  6
CONTINUOUS
 10
15.9689682334
 20
13.3638188
 11
16.0201282334
 21
13.3638188
  0
LINE
  8
___SYMBOL
 62
2
  6
CONTINUOUS
 10
13.0151342614
 20
13.3466295082
 11
13.0980742614
 21
13.3466295082
  0
LINE
  8
___SYMBOL
 62
2
  6
CONTINUOUS
 10
15.9537882334
 20
13.3830988
 11
16.0367282334
 21
13.3830988
  0
LINE
  8
___SYMBOL
 62
2
  6
CONTINUOUS
 10
13.0303342614
 20
13.3632295082
 11
13.0814742614
 21
13.3632295082
  0
LINE
  8
___SYMBOL
 62
2
  6
CONTINUOUS
 10
15.9689682334
 20
13.3996988
 11
16.0201282334
 21
13.3996988
  0
LINE
  8
___SYMBOL
 62
2
  6
CONTINUOUS
 10
13.0151342614
 20
13.3826295082
 11
13.0980742614
 21
13.3826295082
  0
LINE
  8
___SYMBOL
 62
2
  6
CONTINUOUS
 10
15.9537882334
 20
13.4190988
 11
16.0367282334
 21
13.4190988
  0
LINE
  8
___SYMBOL
 62
2
  6
CONTINUOUS
 10
13.0303342614
 20
13.3991095082
 11
13.0814742614
 21
13.3991095082
  0
LINE
  8
___SYMBOL
 62
2
  6
CONTINUOUS
 10
15.9689682334
 20
13.4355788
 11
16.0201282334
 21
13.4355788
  0
LINE
  8
___SYMBOL
 62
2
  6
CONTINUOUS
 10
13.0151342614
 20
13.4171895082
 11
13.0980742614
 21
13.4171895082
  0
LINE
  8
___SYMBOL
 62
2
  6
CONTINUOUS
 10
15.9537882334
 20
13.4536588
 11
16.0367282334
 21
13.4536588
  0
LINE
  8
___SYMBOL
 62
2
  6
CONTINUOUS
 10
13.0303342614
 20
13.4351295082
 11
13.0814742614
 21
13.4351295082
  0
LINE
  8
___SYMBOL
 62
2
  6
CONTINUOUS
 10
15.9689682334
 20
13.4715988
 11
16.0201282334
 21
13.4715988
  0
LINE
  8
___SYMBOL
 62
2
  6
CONTINUOUS
 10
13.0151342614
 20
13.4530695082
 11
13.0980742614
 21
13.4530695082
  0
LINE
  8
___SYMBOL
 62
2
  6
CONTINUOUS
 10
15.9537882334
 20
13.4895388
 11
16.0367282334
 21
13.4895388
  0
LINE
  8
___SYMBOL
 62
2
  6
CONTINUOUS
 10
13.0303342614
 20
13.4710095082
 11
13.0814742614
 21
13.4710095082
  0
LINE
  8
___SYMBOL
 62
2
  6
CONTINUOUS
 10
15.9689682334
 20
13.5074788
 11
16.0201282334
 21
13.5074788
  0
LINE
  8
___SYMBOL
 62
2
  6
CONTINUOUS
 10
13.0151342614
 20
13.4904295082
 11
13.0980742614
 21
13.4904295082
  0
LINE
  8
___SYMBOL
 62
2
  6
CONTINUOUS
 10
15.9537882334
 20
13.5268988
 11
16.0367282334
 21
13.5268988
  0
LINE
  8
___SYMBOL
 62
2
  6
CONTINUOUS
 10
13.0303342614
 20
13.5083695082
 11
13.0814742614
 21
13.5083695082
  0
LINE
  8
___SYMBOL
 62
2
  6
CONTINUOUS
 10
15.9689682334
 20
13.5448388
 11
16.0201282334
 21
13.5448388
  0
LINE
  8
___SYMBOL
 62
2
  6
CONTINUOUS
 10
16.0367282334
 20
13.5627788
 11
15.9537882334
 21
13.5627788
  0
LINE
  8
___SYMBOL
 62
2
  6
CONTINUOUS
 10
13.0980742614
 20
13.5263095082
 11
13.0151342614
 21
13.5263095082
  0
LINE
  8
___SYMBOL
 62
2
  6
CONTINUOUS
 10
13.1506342614
 20
13.6045595082
 11
12.9543542614
 21
13.6045595082
  0
LINE
  8
___SYMBOL
 62
2
  6
CONTINUOUS
 10
13.1837742614
 20
13.6073795082
 11
13.5211142614
 21
13.6073795082
  0
LINE
  8
___SYMBOL
 62
2
  6
PHANTOM
 10
16.3270082334
 20
13.8788288
 11
15.1824082334
 21
13.8788288
  0
LINE
  8
___SYMBOL
 62
2
  6
PHANTOM
 10
13.3883742614
 20
13.8423595082
 11
12.3037742614
 21
13.8423595082
  0
LINE
  8
___SYMBOL
 62
2
  6
CONTINUOUS
 10
15.2294082334
 20
12.8052188
 11
15.2432082334
 21
12.8025388
  0
LINE
  8
___SYMBOL
 62
2
  6
CONTINUOUS
 10
15.3206682334
 20
12.7693188
 11
15.3317082334
 21
12.7665188
  0
LINE
  8
___SYMBOL
 62
2
  6
CONTINUOUS
 10
15.3372082334
 20
12.7168388
 11
15.3510482334
 21
12.7112188
  0
LINE
  8
___SYMBOL
 62
2
  6
CONTINUOUS
 10
15.2736682334
 20
12.7693188
 11
15.2847082334
 21
12.7638388
  0
LINE
  8
___SYMBOL
 62
2
  6
CONTINUOUS
 10
15.2183682334
 20
12.8163188
 11
15.2294082334
 21
12.8052188
  0
LINE
  8
___SYMBOL
 62
2
  6
CONTINUOUS
 10
15.3289682334
 20
12.7251388
 11
15.3372082334
 21
12.7168388
  0
LINE
  8
___SYMBOL
 62
2
  6
PHANTOM
 10
15.1824082334
 20
13.8788288
 11
15.1824082334
 21
13.3507488
  0
LINE
  8
___SYMBOL
 62
2
  6
CONTINUOUS
 10
15.2736682334
 20
12.7804388
 11
15.2736682334
 21
12.7693188
  0
LINE
  8
___SYMBOL
 62
2
  6
CONTINUOUS
 10
15.3317082334
 20
12.7665188
 11
15.3317082334
 21
12.7472388
  0
LINE
  8
___SYMBOL
 62
2
  6
CONTINUOUS
 10
15.5500882334
 20
13.0928188
 11
15.5500882334
 21
13.0320188
  0
LINE
  8
___SYMBOL
 62
2
  6
CONTINUOUS
 10
12.8831142614
 20
12.9981095082
 11
12.9515342614
 21
13.0553695082
  0
LINE
  8
___SYMBOL
 62
2
  6
CONTINUOUS
 10
12.6550342614
 20
12.9964095082
 11
12.7255142614
 21
13.0553695082
  0
LINE
  8
___SYMBOL
 62
2
  6
CONTINUOUS
 10
13.1201742614
 20
13.0099495082
 11
13.1699742614
 21
13.0515895082
  0
LINE
  8
___SYMBOL
 62
2
  6
CONTINUOUS
 10
13.2232142614
 20
13.0009295082
 11
13.3227542614
 21
13.0841695082
  0
LINE
  8
___SYMBOL
 62
2
  6
CONTINUOUS
 10
12.7752742614
 20
12.9975095082
 11
12.8458142614
 21
13.0564695082
  0
LINE
  8
___SYMBOL
 62
2
  6
CONTINUOUS
 10
13.2639742614
 20
13.2252895082
 11
13.3248342614
 21
13.2760695082
  0
LINE
  8
___SYMBOL
 62
2
  6
CONTINUOUS
 10
13.2639742614
 20
13.1301895082
 11
13.3248342614
 21
13.1809695082
  0
LINE
  8
___SYMBOL
 62
2
  6
CONTINUOUS
 10
12.9570942614
 20
13.9217095082
 11
13.7568342614
 21
13.9217095082
  0
LINE
  8
___SYMBOL
 62
2
  6
CONTINUOUS
 10
16.2745282334
 20
13.5083488
 11
16.2662082334
 21
13.5166488
  0
LINE
  8
___SYMBOL
 62
2
  6
CONTINUOUS
 10
15.9946682334
 20
13.6097788
 11
16.0367282334
 21
13.5627788
  0
LINE
  8
___SYMBOL
 62
2
  6
CONTINUOUS
 10
16.3270082334
 20
13.3507488
 11
16.2993682334
 21
13.3950688
  0
LINE
  8
___SYMBOL
 62
2
  6
CONTINUOUS
 10
16.2828282334
 20
13.4834488
 11
16.2772682334
 21
13.4945488
  0
LINE
  8
___SYMBOL
 62
2
  6
CONTINUOUS
 10
15.3261482334
 20
12.7361188
 11
15.3289682334
 21
12.7251388
  0
LINE
  8
___SYMBOL
 62
2
  6
CONTINUOUS
 10
15.3510482334
 20
12.7112188
 11
15.3538082334
 21
12.7002388
  0
LINE
  8
___SYMBOL
 62
2
  6
CONTINUOUS
 10
15.2736682334
 20
12.8025388
 11
15.2764082334
 21
12.7914188
  0
LINE
  8
___SYMBOL
 62
2
  6
CONTINUOUS
 10
15.9316882334
 20
13.0928188
 11
15.9316882334
 21
13.0320188
  0
LINE
  8
___SYMBOL
 62
2
  6
CONTINUOUS
 10
15.9537882334
 20
13.0320188
 11
15.9537882334
 21
13.5627788
  0
LINE
  8
___SYMBOL
 62
2
  6
CONTINUOUS
 10
15.985295664
 20
13.0057268935
 11
15.985295664
 21
12.9914958547
  0
LINE
  8
___SYMBOL
 62
2
  6
CENTER
 10
15.9938882334
 20
13.7328468102
 11
15.9938882334
 21
12.8528444605
  0
LINE
  8
___SYMBOL
 62
2
  6
CONTINUOUS
 10
16.0024808029
 20
12.9916321074
 11
16.0024808029
 21
13.0057268935
  0
LINE
  8
___SYMBOL
 62
2
  6
CONTINUOUS
 10
16.0367282334
 20
13.5627788
 11
16.0367282334
 21
13.0320188
  0
LINE
  8
___SYMBOL
 62
2
  6
CONTINUOUS
 10
16.0588282334
 20
13.0928188
 11
16.0588282334
 21
13.0320188
  0
LINE
  8
___SYMBOL
 62
2
  6
CONTINUOUS
 10
16.2026282334
 20
13.3507488
 11
16.2026282334
 21
13.1428188
  0
LINE
  8
___SYMBOL
 62
2
  6
CONTINUOUS
 10
16.2634082334
 20
13.1420188
 11
16.2634082334
 21
13.3507488
  0
LINE
  8
___SYMBOL
 62
2
  6
CONTINUOUS
 10
16.2883082334
 20
13.4420488
 11
16.2883082334
 21
13.4530488
  0
LINE
  8
___SYMBOL
 62
2
  6
CONTINUOUS
 10
16.3076682334
 20
13.7046288
 11
16.3076682334
 21
13.7737288
  0
LINE
  8
___SYMBOL
 62
2
  6
CONTINUOUS
 10
16.3076682334
 20
13.7959488
 11
16.3076682334
 21
13.8180288
  0
LINE
  8
___SYMBOL
 62
2
  6
CONTINUOUS
 10
16.3215082334
 20
13.8512288
 11
16.3215082334
 21
13.8678288
  0
LINE
  8
___SYMBOL
 62
2
  6
CONTINUOUS
 10
15.2764082334
 20
12.7914188
 11
15.2736682334
 21
12.7804388
  0
LINE
  8
___SYMBOL
 62
2
  6
CONTINUOUS
 10
16.3076682334
 20
13.7737288
 11
16.3104682334
 21
13.7848288
  0
LINE
  8
___SYMBOL
 62
2
  6
CONTINUOUS
 10
16.3076682334
 20
13.8180288
 11
16.3104682334
 21
13.8290288
  0
LINE
  8
___SYMBOL
 62
2
  6
CONTINUOUS
 10
16.2579082334
 20
13.5387288
 11
16.2855682334
 21
13.6466488
  0
LINE
  8
___SYMBOL
 62
2
  6
PHANTOM
 10
15.370914873
 20
13.234532919
 11
15.2183682334
 21
12.8163188
  0
LINE
  8
___SYMBOL
 62
2
  6
PHANTOM
 10
15.3538082334
 20
12.7002388
 11
15.4814411498
 21
13.0500956369
  0
LINE
  8
___SYMBOL
 62
2
  6
CONTINUOUS
 10
16.2855682334
 20
13.6466488
 11
16.3076682334
 21
13.7046288
  0
LINE
  8
___SYMBOL
 62
2
  6
CONTINUOUS
 10
16.3104682334
 20
13.8290288
 11
16.3215082334
 21
13.8512288
  0
LINE
  8
___SYMBOL
 62
2
  6
CONTINUOUS
 10
15.3317082334
 20
12.7472388
 11
15.3261482334
 21
12.7361188
  0
LINE
  8
___SYMBOL
 62
2
  6
PHANTOM
 10
16.3215082334
 20
13.8678288
 11
16.3270082334
 21
13.8788288
  0
LINE
  8
___SYMBOL
 62
2
  6
PHANTOM
 10
15.8109445577
 20
13.2732158815
 11
15.7368056601
 21
13.125852963
  0
LINE
  8
___SYMBOL
 62
2
  6
CONTINUOUS
 10
15.9537882334
 20
13.5627788
 11
15.9946682334
 21
13.6097788
  0
LINE
  8
___SYMBOL
 62
2
  6
CONTINUOUS
 10
12.3709742614
 20
12.7273695082
 11
12.3820142614
 21
12.7328495082
  0
LINE
  8
___SYMBOL
 62
2
  6
CONTINUOUS
 10
16.2662082334
 20
13.5166488
 11
16.2579082334
 21
13.5387288
  0
LINE
  8
___SYMBOL
 62
2
  6
CONTINUOUS
 10
16.3104682334
 20
13.7848288
 11
16.3076682334
 21
13.7959488
  0
LINE
  8
___SYMBOL
 62
2
  6
CONTINUOUS
 10
16.2993682334
 20
13.3950688
 11
16.2883082334
 21
13.4420488
  0
LINE
  8
___SYMBOL
 62
2
  6
CONTINUOUS
 10
16.2772682334
 20
13.4945488
 11
16.2745282334
 21
13.5083488
  0
LINE
  8
___SYMBOL
 62
2
  6
CONTINUOUS
 10
16.2883082334
 20
13.4530488
 11
16.2828282334
 21
13.4834488
  0
LINE
  8
___SYMBOL
 62
2
  6
CONTINUOUS
 10
15.8217682334
 20
13.0345788
 11
15.8901882334
 21
13.0918388
  0
LINE
  8
___SYMBOL
 62
2
  6
CONTINUOUS
 10
15.5936682334
 20
13.0328788
 11
15.6641682334
 21
13.0918388
  0
LINE
  8
___SYMBOL
 62
2
  6
CONTINUOUS
 10
15.7139082334
 20
13.0339788
 11
15.7844082334
 21
13.0929388
  0
LINE
  8
___SYMBOL
 62
2
  6
CONTINUOUS
 10
16.0588282334
 20
13.0464188
 11
16.1086282334
 21
13.0880588
  0
LINE
  8
___SYMBOL
 62
2
  6
CONTINUOUS
 10
16.1618482334
 20
13.0373988
 11
16.2613882334
 21
13.1206388
  0
LINE
  8
___SYMBOL
 62
2
  6
CONTINUOUS
 10
16.2026282334
 20
13.2617588
 11
16.2634082334
 21
13.3125388
  0
LINE
  8
___SYMBOL
 62
2
  6
CONTINUOUS
 10
16.2026282334
 20
13.1666588
 11
16.2634082334
 21
13.2174388
  0
LINE
  8
___SYMBOL
 62
2
  6
CONTINUOUS
 10
15.3095482334
 20
12.7638388
 11
15.3206682334
 21
12.7693188
  0
ARC
  8
___SYMBOL
 62
2
  6
CONTINUOUS
 10
16.1534082334
 20
13.1420188
 40
0.11
 50
270.0
 51
360.0
  0
ARC
  8
___SYMBOL
 62
2
  6
CONTINUOUS
 10
16.1526282334
 20
13.1428188
 40
0.05
 50
270.0
 51
360.0
  0
ARC
  8
___SYMBOL
 62
2
  6
CONTINUOUS
 10
15.7841451005
 20
13.2866988
 40
0.03
 50
333.2928412651
 51
90.0
  0
ARC
  8
___SYMBOL
 62
2
  6
CONTINUOUS
 10
15.6832067456
 20
13.1528188
 40
0.06
 50
270.0
 51
333.2928412651
  0
ARC
  8
___SYMBOL
 62
2
  6
CONTINUOUS
 10
15.5425045803
 20
13.0278188
 40
0.065
 50
90.0
 51
159.9572872547
  0
ARC
  8
___SYMBOL
 62
2
  6
PHANTOM
 10
15.4883467181
 20
13.1916988
 40
0.125
 50
90.0
 51
147.2441354802
  0
ARC
  8
___SYMBOL
 62
2
  6
PHANTOM
 10
15.3124215056
 20
13.2813782304
 40
0.0741554031
 50
342.7041210383
 51
69.305116482
  0
ARC
  8
___SYMBOL
 62
2
  6
CONTINUOUS
 10
12.3726331915
 20
13.2434705391
 40
0.0741554031
 50
343.9418139634
 51
72.7215708199
  0
ARC
  8
___SYMBOL
 62
2
  6
CONTINUOUS
 10
12.6032391762
 20
12.9923495082
 40
0.064
 50
90.0
 51
159.9445616853
  0
ARC
  8
___SYMBOL
 62
2
  6
CONTINUOUS
 10
12.7445527736
 20
13.1163495082
 40
0.06
 50
270.0
 51
333.2928412651
  0
ARC
  8
___SYMBOL
 62
2
  6
CONTINUOUS
 10
12.8454911285
 20
13.2502295082
 40
0.03
 50
333.2928412651
 51
90.0
  0
ARC
  8
___SYMBOL
 62
2
  6
CONTINUOUS
 10
12.5461942964
 20
13.1602295082
 40
0.12
 50
90.0
 51
148.4838575558
  0
ARC
  8
___SYMBOL
 62
2
  6
CONTINUOUS
 10
13.2248342614
 20
13.0955495082
 40
0.1
 50
270.0
 51
360.0
  0
ARC
  8
___SYMBOL
 62
2
  6
CONTINUOUS
 10
13.2139742614
 20
13.1063495082
 40
0.05
 50
270.0
 51
360.0
  0
ARC
  8
___SYMBOL
 62
2
  6
CONTINUOUS
 10
12.3037742614
 20
13.7823595082
 40
0.06
 50
90.0
 51
180.0
  0
ARC
  8
___SYMBOL
 62
2
  6
CONTINUOUS
 10
12.3037742614
 20
13.3742795082
 40
0.06
 50
180.0
 51
270.0
  0
ARC
  8
___SYMBOL
 62
2
  6
CONTINUOUS
 10
13.0545356784
 20
13.0432754621
 40
0.0885309118
 50
212.3058638362
 51
264.8843450297
  0
ARC
  8
___SYMBOL
 62
2
  6
CONTINUOUS
 10
13.0545356784
 20
13.0432754621
 40
0.0885309118
 50
276.0241773206
 51
327.6941361638
  0
ARC
  8
___SYMBOL
 62
2
  6
CONTINUOUS
 10
15.9931896504
 20
13.0796741248
 40
0.0885309118
 50
212.3058638362
 51
264.8843450297
  0
ARC
  8
___SYMBOL
 62
2
  6
CONTINUOUS
 10
15.9931896504
 20
13.0796741248
 40
0.0885309118
 50
276.0241773206
 51
327.6941361638
  0
CIRCLE
  8
___SYMBOL
 62
7
  6
CONTINUOUS
 10
12.9543542614
 20
13.9217095082
 40
0.0298681023
  0
CIRCLE
  8
___SYMBOL
 62
7
  6
CONTINUOUS
 10
13.1506342614
 20
13.9217095082
 40
0.0298681023
  0
CIRCLE
  8
___SYMBOL
 62
7
  6
CONTINUOUS
 10
13.4685742614
 20
13.6073795082
 40
0.0298681023
  0
CIRCLE
  8
___SYMBOL
 62
7
  6
CONTINUOUS
 10
13.4685742614
 20
13.3170795082
 40
0.0298681023
  0
LINE
  8
___SYMBOL
 62
2
  6
CONTINUOUS
 10
15.6832067456
 20
13.0928188
 11
15.9537882334
 21
13.0928188
  0
LINE
  8
___SYMBOL
 62
2
  6
PHANTOM
 10
16.2026282334
 20
13.3507488
 11
16.2634082334
 21
13.3507488
  0
LINE
  8
___SYMBOL
 62
2
  6
PHANTOM
 10
16.2634082334
 20
13.3507488
 11
16.3270082334
 21
13.3507488
  0
LINE
  8
___SYMBOL
 62
2
  6
CONTINUOUS
 10
12.1206373724
 20
15.1813358531
 11
11.981725024
 21
15.1813358531
  0
LINE
  8
___SYMBOL
 62
2
  6
CONTINUOUS
 10
11.981725024
 20
15.1813358531
 11
11.6604902182
 21
14.4259999586
  0
LINE
  8
___SYMBOL
 62
2
  6
CONTINUOUS
 10
11.6604902182
 20
14.4259999586
 11
12.5807845265
 21
13.2973371276
  0
LINE
  8
___SYMBOL
 62
2
  6
CONTINUOUS
 10
15.9494089758
 20
15.1813358531
 11
15.8104966274
 21
15.1813358531
  0
LINE
  8
___SYMBOL
 62
2
  6
CONTINUOUS
 10
15.8104966274
 20
15.1813358531
 11
15.6020005731
 21
13.3313619609
  0
LINE
  8
___SYMBOL
 62
2
  6
CONTINUOUS
 10
13.1506342614
 20
13.3142795082
 11
13.3883742614
 21
13.3142795082
  0
LINE
  8
___SYMBOL
 62
2
  6
CONTINUOUS
 10
12.5461942964
 20
13.2802295082
 11
12.7443822475
 21
13.2802295082
  0
LINE
  8
___SYMBOL
 62
2
  6
CONTINUOUS
 10
13.0289942614
 20
13.5733095082
 11
13.0842942614
 21
13.5733095082
  0
POLYLINE
  8
___SYMBOL
 62
2
  6
CONTINUOUS
 66
1
 70
0
  0
VERTEX
  8
___SYMBOL
 62
2
  6
CONTINUOUS
 10
12.7454078598
 20
13.3142795082
  0
VERTEX
  8
___SYMBOL
 62
2
  6
CONTINUOUS
 10
12.7458633071
 20
13.3133005711
  0
VERTEX
  8
___SYMBOL
 62
2
  6
CONTINUOUS
 10
12.7462915921
 20
13.3123243629
  0
VERTEX
  8
___SYMBOL
 62
2
  6
CONTINUOUS
 10
12.7466927148
 20
13.3113508837
  0
VERTEX
  8
___SYMBOL
 62
2
  6
CONTINUOUS
 10
12.7470666751
 20
13.3103801334
  0
VERTEX
  8
___SYMBOL
 62
2
  6
CONTINUOUS
 10
12.747413473
 20
13.3094121121
  0
VERTEX
  8
___SYMBOL
 62
2
  6
CONTINUOUS
 10
12.7477331086
 20
13.3084468196
  0
VERTEX
  8
___SYMBOL
 62
2
  6
CONTINUOUS
 10
12.7480255818
 20
13.3074842561
  0
VERTEX
  8
___SYMBOL
 62
2
  6
CONTINUOUS
 10
12.7482908927
 20
13.3065244216
  0
VERTEX
  8
___SYMBOL
 62
2
  6
CONTINUOUS
 10
12.7485290412
 20
13.3055673159
  0
VERTEX
  8
___SYMBOL
 62
2
  6
CONTINUOUS
 10
12.7487400273
 20
13.3046129392
  0
VERTEX
  8
___SYMBOL
 62
2
  6
CONTINUOUS
 10
12.7489238511
 20
13.3036612915
  0
VERTEX
  8
___SYMBOL
 62
2
  6
CONTINUOUS
 10
12.7490805125
 20
13.3027123726
  0
VERTEX
  8
___SYMBOL
 62
2
  6
CONTINUOUS
 10
12.7492100116
 20
13.3017661827
  0
VERTEX
  8
___SYMBOL
 62
2
  6
CONTINUOUS
 10
12.7493123483
 20
13.3008227218
  0
VERTEX
  8
___SYMBOL
 62
2
  6
CONTINUOUS
 10
12.7493875227
 20
13.2998819897
  0
VERTEX
  8
___SYMBOL
 62
2
  6
CONTINUOUS
 10
12.7494355347
 20
13.2989439866
  0
VERTEX
  8
___SYMBOL
 62
2
  6
CONTINUOUS
 10
12.7494563843
 20
13.2980087125
  0
VERTEX
  8
___SYMBOL
 62
2
  6
CONTINUOUS
 10
12.7494500716
 20
13.2970761672
  0
VERTEX
  8
___SYMBOL
 62
2
  6
CONTINUOUS
 10
12.7494165965
 20
13.2961463509
  0
VERTEX
  8
___SYMBOL
 62
2
  6
CONTINUOUS
 10
12.7493559591
 20
13.2952192635
  0
VERTEX
  8
___SYMBOL
 62
2
  6
CONTINUOUS
 10
12.7492681593
 20
13.2942949051
  0
VERTEX
  8
___SYMBOL
 62
2
  6
CONTINUOUS
 10
12.7491531971
 20
13.2933732756
  0
VERTEX
  8
___SYMBOL
 62
2
  6
CONTINUOUS
 10
12.7490110726
 20
13.292454375
  0
VERTEX
  8
___SYMBOL
 62
2
  6
CONTINUOUS
 10
12.7488417857
 20
13.2915382034
  0
VERTEX
  8
___SYMBOL
 62
2
  6
CONTINUOUS
 10
12.7486453365
 20
13.2906247606
  0
VERTEX
  8
___SYMBOL
 62
2
  6
CONTINUOUS
 10
12.7484217249
 20
13.2897140469
  0
VERTEX
  8
___SYMBOL
 62
2
  6
CONTINUOUS
 10
12.74818058
 20
13.2888391491
  0
VERTEX
  8
___SYMBOL
 62
2
  6
CONTINUOUS
 10
12.747914219
 20
13.2879667848
  0
VERTEX
  8
___SYMBOL
 62
2
  6
CONTINUOUS
 10
12.747622642
 20
13.2870969538
  0
VERTEX
  8
___SYMBOL
 62
2
  6
CONTINUOUS
 10
12.7473058489
 20
13.2862296562
  0
VERTEX
  8
___SYMBOL
 62
2
  6
CONTINUOUS
 10
12.7469638398
 20
13.285364892
  0
VERTEX
  8
___SYMBOL
 62
2
  6
CONTINUOUS
 10
12.7465966145
 20
13.2845026612
  0
VERTEX
  8
___SYMBOL
 62
2
  6
CONTINUOUS
 10
12.7462041733
 20
13.2836429638
  0
VERTEX
  8
___SYMBOL
 62
2
  6
CONTINUOUS
 10
12.7457865159
 20
13.2827857998
  0
VERTEX
  8
___SYMBOL
 62
2
  6
CONTINUOUS
 10
12.7453436425
 20
13.2819311692
  0
VERTEX
  8
___SYMBOL
 62
2
  6
CONTINUOUS
 10
12.744875553
 20
13.281079072
  0
VERTEX
  8
___SYMBOL
 62
2
  6
CONTINUOUS
 10
12.7443822475
 20
13.2802295082
  0
SEQEND
  0
LINE
  8
___SYMBOL
 62
2
  6
CONTINUOUS
 10
12.3946584884
 20
13.3142795082
 11
12.7454078598
 21
13.3142795082
  0
LINE
  8
___SYMBOL
 62
2
  6
CONTINUOUS
 10
12.7454078598
 20
13.3142795082
 11
12.9543542614
 21
13.3142795082
  0
ARC
  8
___SYMBOL
 62
2
  6
CONTINUOUS
 10
12.5461942964
 20
13.1602295082
 40
0.12
 50
148.4838575558
 51
159.9601913116
  0
LINE
  8
___SYMBOL
 62
2
  6
CONTINUOUS
 10
12.7443822475
 20
13.2802295082
 11
12.8454911285
 21
13.2802295082
  0
SOLID
  8
___SYMBOL
 62
2
  6
CONTINUOUS
 10
12.4018426385
 20
13.3116308796
 11
12.3946584884
 21
13.314279506
 12
12.7454078598
 22
13.314279506
 13
12.7454078598
 23
13.314279506
  0
SOLID
  8
___SYMBOL
 62
2
  6
CONTINUOUS
 10
12.7454078598
 20
13.314279506
 11
12.746649487
 21
13.3114589133
 12
12.4018426385
 22
13.3116308796
 13
12.4018426385
 23
13.3116308796
  0
SOLID
  8
___SYMBOL
 62
2
  6
CONTINUOUS
 10
12.7476644258
 20
13.3086610932
 11
12.4087153752
 21
13.3082555669
 12
12.746649487
 22
13.3114589133
 13
12.746649487
 23
13.3114589133
  0
SOLID
  8
___SYMBOL
 62
2
  6
CONTINUOUS
 10
12.4087153752
 20
13.3082555669
 11
12.4018426385
 21
13.3116308796
 12
12.746649487
 22
13.3114589133
 13
12.746649487
 23
13.3114589133
  0
SOLID
  8
___SYMBOL
 62
2
  6
CONTINUOUS
 10
12.7476644258
 20
13.3086610932
 11
12.7484526764
 21
13.3058860479
 12
12.4087153752
 22
13.3082555669
 13
12.4087153752
 23
13.3082555669
  0
SOLID
  8
___SYMBOL
 62
2
  6
CONTINUOUS
 10
12.4152034257
 20
13.3041895556
 11
12.4087153752
 21
13.3082555669
 12
12.7484526764
 22
13.3058860479
 13
12.7484526764
 23
13.3058860479
  0
SOLID
  8
___SYMBOL
 62
2
  6
CONTINUOUS
 10
12.7484526764
 20
13.3058860479
 11
12.7490142386
 21
13.3031337774
 12
12.4152034257
 22
13.3041895556
 13
12.4152034257
 23
13.3041895556
  0
SOLID
  8
___SYMBOL
 62
2
  6
CONTINUOUS
 10
12.7493491125
 20
13.3004042817
 11
12.4212376182
 21
13.2994761952
 12
12.7490142386
 22
13.3031337774
 13
12.7490142386
 23
13.3031337774
  0
SOLID
  8
___SYMBOL
 62
2
  6
CONTINUOUS
 10
12.4212376182
 20
13.2994761952
 11
12.4152034257
 21
13.3041895556
 12
12.7490142386
 22
13.3031337774
 13
12.7490142386
 23
13.3031337774
  0
SOLID
  8
___SYMBOL
 62
2
  6
CONTINUOUS
 10
12.7493491125
 20
13.3004042817
 11
12.7494572981
 21
13.2976975608
 12
12.4212376182
 22
13.2994761952
 13
12.4212376182
 23
13.2994761952
  0
SOLID
  8
___SYMBOL
 62
2
  6
CONTINUOUS
 10
12.7493387954
 20
13.2950136147
 11
12.4267536199
 21
13.2941657365
 12
12.7494572981
 22
13.2976975608
 13
12.7494572981
 23
13.2976975608
  0
SOLID
  8
___SYMBOL
 62
2
  6
CONTINUOUS
 10
12.4267536199
 20
13.2941657365
 11
12.4212376182
 21
13.2994761952
 12
12.7494572981
 22
13.2976975608
 13
12.7494572981
 23
13.2976975608
  0
SOLID
  8
___SYMBOL
 62
2
  6
CONTINUOUS
 10
12.7493387954
 20
13.2950136147
 11
12.7489936043
 21
13.2923524434
 12
12.4267536199
 22
13.2941657365
 13
12.4267536199
 23
13.2941657365
  0
SOLID
  8
___SYMBOL
 62
2
  6
CONTINUOUS
 10
12.7484217249
 20
13.2897140469
 11
12.4316926225
 21
13.2883147965
 12
12.7489936043
 22
13.2923524434
 13
12.7489936043
 23
13.2923524434
  0
SOLID
  8
___SYMBOL
 62
2
  6
CONTINUOUS
 10
12.4316926225
 20
13.2883147965
 11
12.4267536199
 21
13.2941657365
 12
12.7489936043
 22
13.2923524434
 13
12.7489936043
 23
13.2923524434
  0
SOLID
  8
___SYMBOL
 62
2
  6
CONTINUOUS
 10
12.7484217249
 20
13.2897140469
 11
12.7476979003
 21
13.287314174
 12
12.4316926225
 22
13.2883147965
 13
12.4316926225
 23
13.2883147965
  0
SOLID
  8
___SYMBOL
 62
2
  6
CONTINUOUS
 10
12.7456781616
 20
13.2825719047
 11
12.4360019693
 21
13.2819857543
 12
12.7467833791
 22
13.28493346
 13
12.7467833791
 23
13.28493346
  0
SOLID
  8
___SYMBOL
 62
2
  6
CONTINUOUS
 10
12.7467833791
 20
13.28493346
 11
12.4360019693
 21
13.2819857543
 12
12.7476979003
 22
13.287314174
 13
12.7476979003
 23
13.287314174
  0
SOLID
  8
___SYMBOL
 62
2
  6
CONTINUOUS
 10
12.4360019693
 20
13.2819857543
 11
12.4316926225
 21
13.2883147965
 12
12.7476979003
 22
13.287314174
 13
12.7476979003
 23
13.287314174
  0
SOLID
  8
___SYMBOL
 62
2
  6
CONTINUOUS
 10
12.4360019693
 20
13.2819857543
 11
12.7456781616
 21
13.2825719047
 12
12.5461942964
 22
13.2802295194
 13
12.5461942964
 23
13.2802295194
  0
SOLID
  8
___SYMBOL
 62
2
  6
CONTINUOUS
 10
12.7456781616
 20
13.2825719047
 11
12.7443822475
 21
13.2802295194
 12
12.5461942964
 22
13.2802295194
 13
12.5461942964
 23
13.2802295194
  0
SOLID
  8
___SYMBOL
 62
2
  6
CONTINUOUS
 10
12.5159034855
 20
13.2763435331
 11
12.4396357169
 21
13.2752460863
 12
12.5258779093
 22
13.2784971894
 13
12.5258779093
 23
13.2784971894
  0
SOLID
  8
___SYMBOL
 62
2
  6
CONTINUOUS
 10
12.5258779093
 20
13.2784971894
 11
12.4396357169
 21
13.2752460863
 12
12.5359992423
 22
13.2797956442
 13
12.5359992423
 23
13.2797956442
  0
SOLID
  8
___SYMBOL
 62
2
  6
CONTINUOUS
 10
12.5461942964
 20
13.2802295194
 11
12.5359992423
 21
13.2797956442
 12
12.4360019693
 22
13.2819857543
 13
12.4360019693
 23
13.2819857543
  0
SOLID
  8
___SYMBOL
 62
2
  6
CONTINUOUS
 10
12.4396357169
 20
13.2752460863
 11
12.4360019693
 21
13.2819857543
 12
12.5359992423
 22
13.2797956442
 13
12.5359992423
 23
13.2797956442
  0
SOLID
  8
___SYMBOL
 62
2
  6
CONTINUOUS
 10
12.5159034855
 20
13.2763435331
 11
12.5061480966
 21
13.2733502485
 12
12.4396357169
 22
13.2752460863
 13
12.4396357169
 23
13.2752460863
  0
SOLID
  8
___SYMBOL
 62
2
  6
CONTINUOUS
 10
12.4966822844
 20
13.2695389802
 11
12.4425551243
 21
13.2681676467
 12
12.5061480966
 22
13.2733502485
 13
12.5061480966
 23
13.2733502485
  0
SOLID
  8
___SYMBOL
 62
2
  6
CONTINUOUS
 10
12.4425551243
 20
13.2681676467
 11
12.4396357169
 21
13.2752460863
 12
12.5061480966
 22
13.2733502485
 13
12.5061480966
 23
13.2733502485
  0
SOLID
  8
___SYMBOL
 62
2
  6
CONTINUOUS
 10
12.4966822844
 20
13.2695389802
 11
12.4875744969
 21
13.2649372878
 12
12.4425551243
 22
13.2681676467
 13
12.4425551243
 23
13.2681676467
  0
SOLID
  8
___SYMBOL
 62
2
  6
CONTINUOUS
 10
12.4447290665
 20
13.2608259016
 11
12.4425551243
 21
13.2681676467
 12
12.4875744969
 22
13.2649372878
 13
12.4875744969
 23
13.2649372878
  0
SOLID
  8
___SYMBOL
 62
2
  6
CONTINUOUS
 10
12.4875744969
 20
13.2649372878
 11
12.4788905931
 21
13.2595784464
 12
12.4447290665
 22
13.2608259016
 13
12.4447290665
 23
13.2608259016
  0
SOLID
  8
___SYMBOL
 62
2
  6
CONTINUOUS
 10
12.4706933669
 20
13.2535012062
 11
12.4461343665
 21
13.2532991242
 12
12.4788905931
 22
13.2595784464
 13
12.4788905931
 23
13.2595784464
  0
SOLID
  8
___SYMBOL
 62
2
  6
CONTINUOUS
 10
12.4461343665
 20
13.2532991242
 11
12.4447290665
 21
13.2608259016
 12
12.4788905931
 22
13.2595784464
 13
12.4788905931
 23
13.2595784464
  0
SOLID
  8
___SYMBOL
 62
2
  6
CONTINUOUS
 10
12.4706933669
 20
13.2535012062
 11
12.463042093
 21
13.2467495121
 12
12.4461343665
 22
13.2532991242
 13
12.4461343665
 23
13.2532991242
  0
SOLID
  8
___SYMBOL
 62
2
  6
CONTINUOUS
 10
12.4467560416
 20
13.2456675604
 11
12.4461343665
 21
13.2532991242
 12
12.463042093
 22
13.2467495121
 13
12.463042093
 23
13.2467495121
  0
SOLID
  8
___SYMBOL
 62
2
  6
CONTINUOUS
 10
12.463042093
 20
13.2467495121
 11
12.4559920983
 21
13.2393721861
 12
12.4467560416
 22
13.2456675604
 13
12.4467560416
 23
13.2456675604
  0
SOLID
  8
___SYMBOL
 62
2
  6
CONTINUOUS
 10
12.446587464
 20
13.2380125733
 11
12.4467560416
 21
13.2456675604
 12
12.4559920983
 22
13.2393721861
 13
12.4559920983
 23
13.2393721861
  0
SOLID
  8
___SYMBOL
 62
2
  6
CONTINUOUS
 10
12.4559920983
 20
13.2393721861
 11
12.4495943617
 21
13.231422574
 12
12.446587464
 22
13.2380125733
 13
12.446587464
 23
13.2380125733
  0
SOLID
  8
___SYMBOL
 62
2
  6
CONTINUOUS
 10
12.4456304309
 20
13.2304157757
 11
12.446587464
 21
13.2380125733
 12
12.4495943617
 22
13.231422574
 13
12.4495943617
 23
13.231422574
  0
SOLID
  8
___SYMBOL
 62
2
  6
CONTINUOUS
 10
12.4495943617
 20
13.231422574
 11
12.4438951457
 21
13.2229581601
 12
12.4456304309
 22
13.2304157757
 13
12.4456304309
 23
13.2304157757
  0
ARC
  8
___SYMBOL
 62
2
  6
PHANTOM
 10
15.4883467181
 20
13.1916988
 40
0.125
 50
147.2441354802
 51
159.9601913116
  0
LINE
  8
___SYMBOL
 62
2
  6
CONTINUOUS
 10
15.6944122246
 20
13.3166988
 11
15.7841451005
 21
13.3166988
  0
LINE
  8
___SYMBOL
 62
2
  6
CONTINUOUS
 10
15.3386273805
 20
13.3507488
 11
15.6993423923
 21
13.3507488
  0
LINE
  8
___SYMBOL
 62
2
  6
CONTINUOUS
 10
15.6993423923
 20
13.3507488
 11
15.9537882334
 21
13.3507488
  0
POLYLINE
  8
___SYMBOL
 62
2
  6
CONTINUOUS
 66
1
 70
0
  0
VERTEX
  8
___SYMBOL
 62
2
  6
CONTINUOUS
 10
15.6993423923
 20
13.3507488
  0
VERTEX
  8
___SYMBOL
 62
2
  6
CONTINUOUS
 10
15.6995621964
 20
13.3495892227
  0
VERTEX
  8
___SYMBOL
 62
2
  6
CONTINUOUS
 10
15.6997575129
 20
13.3484351462
  0
VERTEX
  8
___SYMBOL
 62
2
  6
CONTINUOUS
 10
15.6999283418
 20
13.3472865706
  0
VERTEX
  8
___SYMBOL
 62
2
  6
CONTINUOUS
 10
15.7000746833
 20
13.346143496
  0
VERTEX
  8
___SYMBOL
 62
2
  6
CONTINUOUS
 10
15.7001965372
 20
13.3450059222
  0
VERTEX
  8
___SYMBOL
 62
2
  6
CONTINUOUS
 10
15.7002939035
 20
13.3438738492
  0
VERTEX
  8
___SYMBOL
 62
2
  6
CONTINUOUS
 10
15.7003667823
 20
13.3427472772
  0
VERTEX
  8
___SYMBOL
 62
2
  6
CONTINUOUS
 10
15.7004151736
 20
13.3416262061
  0
VERTEX
  8
___SYMBOL
 62
2
  6
CONTINUOUS
 10
15.7004390774
 20
13.3405106358
  0
VERTEX
  8
___SYMBOL
 62
2
  6
CONTINUOUS
 10
15.7004384936
 20
13.3394005664
  0
VERTEX
  8
___SYMBOL
 62
2
  6
CONTINUOUS
 10
15.7004134223
 20
13.3382959979
  0
VERTEX
  8
___SYMBOL
 62
2
  6
CONTINUOUS
 10
15.7003638634
 20
13.3371969303
  0
VERTEX
  8
___SYMBOL
 62
2
  6
CONTINUOUS
 10
15.700289817
 20
13.3361033636
  0
VERTEX
  8
___SYMBOL
 62
2
  6
CONTINUOUS
 10
15.7001912831
 20
13.3350152978
  0
VERTEX
  8
___SYMBOL
 62
2
  6
CONTINUOUS
 10
15.7000682616
 20
13.3339327328
  0
VERTEX
  8
___SYMBOL
 62
2
  6
CONTINUOUS
 10
15.6999207526
 20
13.3328556687
  0
VERTEX
  8
___SYMBOL
 62
2
  6
CONTINUOUS
 10
15.6997487561
 20
13.3317841056
  0
VERTEX
  8
___SYMBOL
 62
2
  6
CONTINUOUS
 10
15.699552272
 20
13.3307180433
  0
VERTEX
  8
___SYMBOL
 62
2
  6
CONTINUOUS
 10
15.6993313004
 20
13.3296574818
  0
VERTEX
  8
___SYMBOL
 62
2
  6
CONTINUOUS
 10
15.6990858413
 20
13.3286024213
  0
VERTEX
  8
___SYMBOL
 62
2
  6
CONTINUOUS
 10
15.6988158946
 20
13.3275528617
  0
VERTEX
  8
___SYMBOL
 62
2
  6
CONTINUOUS
 10
15.6985307132
 20
13.326540261
  0
VERTEX
  8
___SYMBOL
 62
2
  6
CONTINUOUS
 10
15.6982225014
 20
13.3255328338
  0
VERTEX
  8
___SYMBOL
 62
2
  6
CONTINUOUS
 10
15.6978912592
 20
13.3245305802
  0
VERTEX
  8
___SYMBOL
 62
2
  6
CONTINUOUS
 10
15.6975369864
 20
13.3235335002
  0
VERTEX
  8
___SYMBOL
 62
2
  6
CONTINUOUS
 10
15.6971596833
 20
13.3225415938
  0
VERTEX
  8
___SYMBOL
 62
2
  6
CONTINUOUS
 10
15.6967593496
 20
13.3215548609
  0
VERTEX
  8
___SYMBOL
 62
2
  6
CONTINUOUS
 10
15.6963359855
 20
13.3205733016
  0
VERTEX
  8
___SYMBOL
 62
2
  6
CONTINUOUS
 10
15.695889591
 20
13.3195969159
  0
VERTEX
  8
___SYMBOL
 62
2
  6
CONTINUOUS
 10
15.695420166
 20
13.3186257037
  0
VERTEX
  8
___SYMBOL
 62
2
  6
CONTINUOUS
 10
15.6949277105
 20
13.3176596651
  0
VERTEX
  8
___SYMBOL
 62
2
  6
CONTINUOUS
 10
15.6944122246
 20
13.3166988
  0
SEQEND
  0
SOLID
  8
___SYMBOL
 62
2
  6
CONTINUOUS
 10
15.3454727425
 20
13.3477607548
 11
15.3386273805
 21
13.3507487828
 12
15.6993423923
 22
13.3507487828
 13
15.6993423923
 23
13.3507487828
  0
SOLID
  8
___SYMBOL
 62
2
  6
CONTINUOUS
 10
15.6993423923
 20
13.3507487828
 11
15.6999283418
 21
13.3472865706
 12
15.3454727425
 22
13.3477607548
 13
15.3454727425
 23
13.3477607548
  0
SOLID
  8
___SYMBOL
 62
2
  6
CONTINUOUS
 10
15.351982801
 20
13.3440992613
 11
15.3454727425
 21
13.3477607548
 12
15.6999283418
 22
13.3472865706
 13
15.6999283418
 23
13.3472865706
  0
SOLID
  8
___SYMBOL
 62
2
  6
CONTINUOUS
 10
15.6999283418
 20
13.3472865706
 11
15.7002939035
 21
13.3438738492
 12
15.351982801
 22
13.3440992613
 13
15.351982801
 23
13.3440992613
  0
SOLID
  8
___SYMBOL
 62
2
  6
CONTINUOUS
 10
15.7004390774
 20
13.3405106358
 11
15.3580915115
 21
13.3398014653
 12
15.7002939035
 22
13.3438738492
 13
15.7002939035
 23
13.3438738492
  0
SOLID
  8
___SYMBOL
 62
2
  6
CONTINUOUS
 10
15.3580915115
 20
13.3398014653
 11
15.351982801
 21
13.3440992613
 12
15.7002939035
 22
13.3438738492
 13
15.7002939035
 23
13.3438738492
  0
SOLID
  8
___SYMBOL
 62
2
  6
CONTINUOUS
 10
15.7004390774
 20
13.3405106358
 11
15.7003638634
 21
13.3371969303
 12
15.3580915115
 22
13.3398014653
 13
15.3580915115
 23
13.3398014653
  0
SOLID
  8
___SYMBOL
 62
2
  6
CONTINUOUS
 10
15.3637369015
 20
13.3349109676
 11
15.3580915115
 21
13.3398014653
 12
15.7003638634
 22
13.3371969303
 13
15.7003638634
 23
13.3371969303
  0
SOLID
  8
___SYMBOL
 62
2
  6
CONTINUOUS
 10
15.7003638634
 20
13.3371969303
 11
15.7000682616
 21
13.3339327328
 12
15.3637369015
 22
13.3349109676
 13
15.3637369015
 23
13.3349109676
  0
SOLID
  8
___SYMBOL
 62
2
  6
CONTINUOUS
 10
15.699552272
 20
13.3307180433
 11
15.3688616987
 21
13.3294773823
 12
15.7000682616
 22
13.3339327328
 13
15.7000682616
 23
13.3339327328
  0
SOLID
  8
___SYMBOL
 62
2
  6
CONTINUOUS
 10
15.3688616987
 20
13.3294773823
 11
15.3637369015
 21
13.3349109676
 12
15.7000682616
 22
13.3339327328
 13
15.7000682616
 23
13.3339327328
  0
SOLID
  8
___SYMBOL
 62
2
  6
CONTINUOUS
 10
15.699552272
 20
13.3307180433
 11
15.6988158946
 21
13.3275528617
 12
15.3688616987
 22
13.3294773823
 13
15.3688616987
 23
13.3294773823
  0
SOLID
  8
___SYMBOL
 62
2
  6
CONTINUOUS
 10
15.6979762288
 20
13.3247806586
 11
15.3734139122
 21
13.3235558329
 12
15.6988158946
 22
13.3275528617
 13
15.6988158946
 23
13.3275528617
  0
SOLID
  8
___SYMBOL
 62
2
  6
CONTINUOUS
 10
15.3734139122
 20
13.3235558329
 11
15.3688616987
 21
13.3294773823
 12
15.6988158946
 22
13.3275528617
 13
15.6988158946
 23
13.3275528617
  0
SOLID
  8
___SYMBOL
 62
2
  6
CONTINUOUS
 10
15.6979762288
 20
13.3247806586
 11
15.6969623953
 21
13.3220475807
 12
15.3734139122
 22
13.3235558329
 13
15.3734139122
 23
13.3235558329
  0
SOLID
  8
___SYMBOL
 62
2
  6
CONTINUOUS
 10
15.6957743939
 20
13.3193536278
 11
15.3773473599
 21
13.3172063932
 12
15.6969623953
 22
13.3220475807
 13
15.6969623953
 23
13.3220475807
  0
SOLID
  8
___SYMBOL
 62
2
  6
CONTINUOUS
 10
15.3773473599
 20
13.3172063932
 11
15.3734139122
 21
13.3235558329
 12
15.6969623953
 22
13.3220475807
 13
15.6969623953
 23
13.3220475807
  0
SOLID
  8
___SYMBOL
 62
2
  6
CONTINUOUS
 10
15.3773473599
 20
13.3172063932
 11
15.6957743939
 21
13.3193536278
 12
15.4883467181
 22
13.3166988066
 13
15.4883467181
 23
13.3166988066
  0
SOLID
  8
___SYMBOL
 62
2
  6
CONTINUOUS
 10
15.6957743939
 20
13.3193536278
 11
15.6944122246
 21
13.3166988066
 12
15.4883467181
 22
13.3166988066
 13
15.4883467181
 23
13.3166988066
  0
SOLID
  8
___SYMBOL
 62
2
  6
CONTINUOUS
 10
15.4574485158
 20
13.3128198184
 11
15.3806221373
 21
13.3104934782
 12
15.4676282199
 22
13.3149698178
 13
15.4676282199
 23
13.3149698178
  0
SOLID
  8
___SYMBOL
 62
2
  6
CONTINUOUS
 10
15.4676282199
 20
13.3149698178
 11
15.3806221373
 21
13.3104934782
 12
15.4779514602
 22
13.3162658045
 13
15.4779514602
 23
13.3162658045
  0
SOLID
  8
___SYMBOL
 62
2
  6
CONTINUOUS
 10
15.4883467181
 20
13.3166988066
 11
15.4779514602
 21
13.3162658045
 12
15.3773473599
 22
13.3172063932
 13
15.3773473599
 23
13.3172063932
  0
SOLID
  8
___SYMBOL
 62
2
  6
CONTINUOUS
 10
15.3806221373
 20
13.3104934782
 11
15.3773473599
 21
13.3172063932
 12
15.4779514602
 22
13.3162658045
 13
15.4779514602
 23
13.3162658045
  0
SOLID
  8
___SYMBOL
 62
2
  6
CONTINUOUS
 10
15.4574485158
 20
13.3128198184
 11
15.4474828722
 21
13.3098307013
 12
15.3806221373
 22
13.3104934782
 13
15.3806221373
 23
13.3104934782
  0
SOLID
  8
___SYMBOL
 62
2
  6
CONTINUOUS
 10
15.4378003305
 20
13.3060231749
 11
15.3832050217
 21
13.30348519
 12
15.4474828722
 22
13.3098307013
 13
15.4474828722
 23
13.3098307013
  0
SOLID
  8
___SYMBOL
 62
2
  6
CONTINUOUS
 10
15.3832050217
 20
13.30348519
 11
15.3806221373
 21
13.3104934782
 12
15.4474828722
 22
13.3098307013
 13
15.4474828722
 23
13.3098307013
  0
SOLID
  8
___SYMBOL
 62
2
  6
CONTINUOUS
 10
15.4378003305
 20
13.3060231749
 11
15.4284679704
 21
13.3014236175
 12
15.3832050217
 22
13.30348519
 13
15.3832050217
 23
13.30348519
  0
SOLID
  8
___SYMBOL
 62
2
  6
CONTINUOUS
 10
15.3850698099
 20
13.2962526275
 11
15.3832050217
 21
13.30348519
 12
15.4284679704
 22
13.3014236175
 13
15.4284679704
 23
13.3014236175
  0
SOLID
  8
___SYMBOL
 62
2
  6
CONTINUOUS
 10
15.4284679704
 20
13.3014236175
 11
15.419550446
 21
13.2960638945
 12
15.3850698099
 22
13.2962526275
 13
15.3850698099
 23
13.2962526275
  0
SOLID
  8
___SYMBOL
 62
2
  6
CONTINUOUS
 10
15.4111095372
 20
13.2899811376
 11
15.3861975838
 21
13.2888691648
 12
15.419550446
 22
13.2960638945
 13
15.419550446
 23
13.2960638945
  0
SOLID
  8
___SYMBOL
 62
2
  6
CONTINUOUS
 10
15.3861975838
 20
13.2888691648
 11
15.3850698099
 21
13.2962526275
 12
15.419550446
 22
13.2960638945
 13
15.419550446
 23
13.2960638945
  0
SOLID
  8
___SYMBOL
 62
2
  6
CONTINUOUS
 10
15.4111095372
 20
13.2899811376
 11
15.403203722
 21
13.2832174878
 12
15.3861975838
 22
13.2888691648
 13
15.3861975838
 23
13.2888691648
  0
SOLID
  8
___SYMBOL
 62
2
  6
CONTINUOUS
 10
15.386576902
 20
13.2814097069
 11
15.3861975838
 21
13.2888691648
 12
15.403203722
 22
13.2832174878
 13
15.403203722
 23
13.2832174878
  0
SOLID
  8
___SYMBOL
 62
2
  6
CONTINUOUS
 10
15.403203722
 20
13.2832174878
 11
15.3958877714
 21
13.2758198031
 12
15.386576902
 22
13.2814097069
 13
15.386576902
 23
13.2814097069
  0
SOLID
  8
___SYMBOL
 62
2
  6
CONTINUOUS
 10
15.3862039165
 20
13.2739499296
 11
15.386576902
 21
13.2814097069
 12
15.3958877714
 22
13.2758198031
 13
15.3958877714
 23
13.2758198031
  0
SOLID
  8
___SYMBOL
 62
2
  6
CONTINUOUS
 10
15.3958877714
 20
13.2758198031
 11
15.3892123696
 21
13.2678393342
 12
15.3862039165
 22
13.2739499296
 13
15.3862039165
 23
13.2739499296
  0
SOLID
  8
___SYMBOL
 62
2
  6
CONTINUOUS
 10
15.3850824111
 20
13.2665655121
 11
15.3862039165
 21
13.2739499296
 12
15.3892123696
 22
13.2678393342
 13
15.3892123696
 23
13.2678393342
  0
SOLID
  8
___SYMBOL
 62
2
  6
CONTINUOUS
 10
15.3892123696
 20
13.2678393342
 11
15.3832237635
 21
13.2593313692
 12
15.3850824111
 22
13.2665655121
 13
15.3850824111
 23
13.2665655121
  0
ENDBLK
  8
0
  6
BYBLOCK
 62
0
  0
BLOCK
  8
0
  2
_FILLED
 70
64
 10
0.0
 20
0.0
  0
SOLID
  8
0
  6
BYBLOCK
 62
0
 10
0.0
 20
0.0
 11
-1.0
 21
0.1666666667
 12
-1.0
 22
-0.1666666667
 13
-1.0
 23
-0.1666666667
  0
ENDBLK
  8
0
  6
BYBLOCK
 62
0
  0
ENDSEC
  0
SECTION
  2
ENTITIES
  0
DIMENSION
  8
0
 62
2
  6
CONTINUOUS
  2
*D0
 10
11.4971093926
 20
3.2352412131
 11
11.4971093926
 21
9.3993037131
 70
128
 13
10.8780795535
 23
15.7977412131
 14
10.6986658727
 24
3.2352412131
 50
270.0
  0
DIMENSION
  8
0
 62
2
  6
CONTINUOUS
  2
*D1
 10
20.2930745639
 20
11.3331811437
 11
9.9425221209
 21
11.2159936437
 70
128
 13
3.2930745639
 23
11.1016183536
 14
20.2930745639
 24
11.1265369204
  0
DIMENSION
  8
0
 62
2
  6
CONTINUOUS
  2
*D2
 10
1.0570496867
 20
15.7977412131
 11
1.0570496867
 21
17.1947282967
 70
128
 13
2.4938651822
 23
18.2999153103
 14
3.6655745639
 24
15.7977412131
 50
270.0
  0
DIMENSION
  8
0
 62
2
  6
CONTINUOUS
  2
*D3
 10
1.0629202629
 20
18.2999153103
 11
1.0629202629
 21
19.1933527299
 70
128
 13
2.3690997132
 23
20.3211651495
 14
2.4938651822
 24
18.2999153103
 50
270.0
  0
TEXT
  8
___NOTE
 62
2
  6
CONTINUOUS
 10
10.7838222217
 20
19.9842078463
  7
STANDARD
 40
0.15625
  1
FINISHED WALL / BACK SPLASH
 41
0.8
 72
0
  0
TEXT
  8
___NOTE
 62
2
  6
CONTINUOUS
 10
10.7838222217
 20
19.7498328463
  7
STANDARD
 40
0.15625
  1
MUR FINI/DOSSERET
 41
0.8
 72
0
  0
TEXT
  8
___NOTE
 62
2
  6
CONTINUOUS
 10
10.7838222217
 20
19.5154578463
  7
STANDARD
 40
0.15625
  1
PARED ACABADA/PROTECTOR CONTRA SALPICADURAS
 41
0.8
 72
0
  0
TEXT
  8
___NOTE
 62
2
  6
CONTINUOUS
 10
2.8940051894
 20
19.7148411076
  7
STANDARD
 40
0.15625
  1
NOTE: BEFORE CUTTING COUNTERTOP ALLOW
 41
0.8
 72
0
  0
TEXT
  8
___NOTE
 62
2
  6
CONTINUOUS
 10
2.8940051894
 20
19.4804661076
  7
STANDARD
 40
0.15625
  1
      FOR HANDLE CLEARANCE
 41
0.8
 72
0
  0
TEXT
  8
___NOTE
 62
2
  6
CONTINUOUS
 10
2.8940051894
 20
19.2460911076
  7
STANDARD
 40
0.15625
  1
REMARQUE: AVANT LA DÉCOUPE DU COMPTOIR
 41
0.8
 72
0
  0
TEXT
  8
___NOTE
 62
2
  6
CONTINUOUS
 10
2.8940051894
 20
19.0117161076
  7
STANDARD
 40
0.15625
  1
      PRÉVOIR UN ESPACEMENT POUR LA POIGNÉE
 41
0.8
 72
0
  0
TEXT
  8
___NOTE
 62
2
  6
CONTINUOUS
 10
2.8940051894
 20
18.7773411076
  7
STANDARD
 40
0.15625
  1
NOTA: ANTES DE CORTAR LA CUBIERTA, TOME EN
 41
0.8
 72
0
  0
TEXT
  8
___NOTE
 62
2
  6
CONTINUOUS
 10
2.8940051894
 20
18.5429661076
  7
STANDARD
 40
0.15625
  1
      CUENTA EL ESPACIO LIBRE PARA LAS MANIJAS
 41
0.8
 72
0
  0
TEXT
  8
___NOTE
 62
2
  6
CONTINUOUS
 10
17.4377867678
 20
18.9637361177
  7
STANDARD
 40
0.15625
  1
CENTERLINE OF FITTING
 41
0.8
 72
0
  0
TEXT
  8
___NOTE
 62
2
  6
CONTINUOUS
 10
17.4377867678
 20
18.7293611177
  7
STANDARD
 40
0.15625
  1
LIGNE CENTRALE DE RACCORDEMENT
 41
0.8
 72
0
  0
TEXT
  8
___NOTE
 62
2
  6
CONTINUOUS
 10
17.4377867678
 20
18.4949861177
  7
STANDARD
 40
0.15625
  1
LÍNEA CENTRAL DE LA CONEXIÓN
 41
0.8
 72
0
  0
TEXT
  8
___NOTE
 62
2
  6
CONTINUOUS
 10
16.6683327131
 20
10.6875910735
  7
STANDARD
 40
0.15625
  1
RIM OF LAVATORY
 41
0.8
 72
0
  0
TEXT
  8
___NOTE
 62
2
  6
CONTINUOUS
 10
16.5433327131
 20
10.4532160735
  7
STANDARD
 40
0.15625
  1
REBORD DU LAVABO
 41
0.8
 72
0
  0
TEXT
  8
___NOTE
 62
2
  6
CONTINUOUS
 10
16.5433327131
 20
10.2188410735
  7
STANDARD
 40
0.15625
  1
BORDE DEL LAVABO
 41
0.8
 72
0
  0
LINE
  8
___NOTE
 62
2
  6
CONTINUOUS
 10
21.6344173244
 20
10.092317438
 11
18.7933327131
 21
10.7657160735
  0
LINE
  8
___NOTE
 62
2
  6
CONTINUOUS
 10
18.7933327131
 20
10.7657160735
 11
18.5433327131
 21
10.7657160735
  0
SOLID
  8
___NOTE
 62
2
  6
CONTINUOUS
 10
21.4447648757
 20
10.105153372
 11
21.6344173244
 21
10.092317438
 12
21.459179365
 22
10.16596844
 13
21.459179365
 23
10.16596844
  0
TEXT
  8
___NOTE
 62
2
  6
CONTINUOUS
 10
16.5884796838
 20
8.8018336794
  7
STANDARD
 40
0.15625
  1
CUT ALONG THIS LINE
 41
0.8
 72
0
  0
TEXT
  8
___NOTE
 62
2
  6
CONTINUOUS
 10
15.0884796838
 20
8.5674586794
  7
STANDARD
 40
0.15625
  1
DÉCOUPER LE LONG DE CETTE LIGNE
 41
0.8
 72
0
  0
TEXT
  8
___NOTE
 62
2
  6
CONTINUOUS
 10
16.4634796838
 20
8.3330836794
  7
STANDARD
 40
0.15625
  1
CORTE POR ESTA LÍNEA
 41
0.8
 72
0
  0
LINE
  8
___NOTE
 62
2
  6
CONTINUOUS
 10
20.2930745639
 20
8.5358033699
 11
19.2134796838
 21
8.8799586794
  0
LINE
  8
___NOTE
 62
2
  6
CONTINUOUS
 10
19.2134796838
 20
8.8799586794
 11
18.9634796838
 21
8.8799586794
  0
SOLID
  8
___NOTE
 62
2
  6
CONTINUOUS
 10
20.1049406431
 20
8.5629776286
 11
20.2930745639
 21
8.5358033699
 12
20.1239233173
 22
8.6225251565
 13
20.1239233173
 23
8.6225251565
  0
TEXT
  8
___NOTE
 62
2
  6
CONTINUOUS
 10
17.9903010518
 20
13.6867897706
  7
STANDARD
 40
0.15625
  1
CLIP LOCATIONS
 41
0.8
 72
0
  0
TEXT
  8
___NOTE
 62
2
  6
CONTINUOUS
 10
17.1153010518
 20
13.4524147706
  7
STANDARD
 40
0.15625
  1
EMPLACEMENT DES CLIPS
 41
0.8
 72
0
  0
TEXT
  8
___NOTE
 62
2
  6
CONTINUOUS
 10
16.9903010518
 20
13.2180397706
  7
STANDARD
 40
0.15625
  1
LUGARES PARA LOS CLIPS
 41
0.8
 72
0
  0
LINE
  8
___NOTE
 62
2
  6
CONTINUOUS
 10
21.838556152
 20
14.9437813609
 11
19.9903010518
 21
13.7649147706
  0
LINE
  8
___NOTE
 62
2
  6
CONTINUOUS
 10
19.9903010518
 20
13.7649147706
 11
19.7403010518
 21
13.7649147706
  0
SOLID
  8
___NOTE
 62
2
  6
CONTINUOUS
 10
21.69727926
 20
14.8166056861
 11
21.838556152
 21
14.9437813609
 12
21.663669684
 22
14.8692995794
 13
21.663669684
 23
14.8692995794
  0
TEXT
  8
___NOTE
 62
2
  6
CONTINUOUS
 10
3.5249993392
 20
6.9360947688
  7
STANDARD
 40
0.15625
  1
IMPORTANT: Basin clamp assembly supplied can only
 41
0.8
 72
0
  0
TEXT
  8
___NOTE
 62
2
  6
CONTINUOUS
 10
3.5249993392
 20
6.7017197688
  7
STANDARD
 40
0.15625
  1
           be used on countertops with a minimum
 41
0.8
 72
0
  0
TEXT
  8
___NOTE
 62
2
  6
CONTINUOUS
 10
3.5249993392
 20
6.4673447688
  7
STANDARD
 40
0.15625
  1
           thickness of 1".  Installer must supply
 41
0.8
 72
0
  0
TEXT
  8
___NOTE
 62
2
  6
CONTINUOUS
 10
3.5249993392
 20
6.2329697688
  7
STANDARD
 40
0.15625
  1
           anchors for thinner countertops.
 41
0.8
 72
0
  0
TEXT
  8
___NOTE
 62
2
  6
CONTINUOUS
 10
3.5249993392
 20
5.9985947688
  7
STANDARD
 40
0.15625
  1
 
 41
0.8
 72
0
  0
TEXT
  8
___NOTE
 62
2
  6
CONTINUOUS
 10
3.5249993392
 20
5.7642197688
  7
STANDARD
 40
0.15625
  1
IMPORTANT: Ensemble des attaches du bassin fournit ne peut
 41
0.8
 72
0
  0
TEXT
  8
___NOTE
 62
2
  6
CONTINUOUS
 10
3.5249993392
 20
5.5298447688
  7
STANDARD
 40
0.15625
  1
           être utilisé que sur des comptoirs à épaisseur
 41
0.8
 72
0
  0
TEXT
  8
___NOTE
 62
2
  6
CONTINUOUS
 10
3.5249993392
 20
5.2954697688
  7
STANDARD
 40
0.15625
  1
           minimum de 1" (25 mm).   L'installateur doit
 41
0.8
 72
0
  0
TEXT
  8
___NOTE
 62
2
  6
CONTINUOUS
 10
3.5249993392
 20
5.0610947688
  7
STANDARD
 40
0.15625
  1
           fournir les ancrages pour des comptoirs plus fins.
 41
0.8
 72
0
  0
TEXT
  8
___NOTE
 62
2
  6
CONTINUOUS
 10
3.5249993392
 20
4.8267197688
  7
STANDARD
 40
0.15625
  1
 
 41
0.8
 72
0
  0
TEXT
  8
___NOTE
 62
2
  6
CONTINUOUS
 10
3.5249993392
 20
4.5923447688
  7
STANDARD
 40
0.15625
  1
IMPORTANTE: El montaje de grapas provisto para fondos, sólo
 41
0.8
 72
0
  0
TEXT
  8
___NOTE
 62
2
  6
CONTINUOUS
 10
3.5249993392
 20
4.3579697688
  7
STANDARD
 40
0.15625
  1
           se puede utilizar con cubiertas de un espesor
 41
0.8
 72
0
  0
TEXT
  8
___NOTE
 62
2
  6
CONTINUOUS
 10
3.5249993392
 20
4.1235947688
  7
STANDARD
 40
0.15625
  1
           mínimo de 1" (25 mm).  El instalador debe proveer
 41
0.8
 72
0
  0
TEXT
  8
___NOTE
 62
2
  6
CONTINUOUS
 10
3.5249993392
 20
3.8892197688
  7
STANDARD
 40
0.15625
  1
           los anclajes para cubiertas más delgadas.
 41
0.8
 72
0
  0
TEXT
  8
___NOTE
 62
2
  6
CONTINUOUS
 10
3.5249993392
 20
3.6548447688
  7
STANDARD
 40
0.15625
  1
 
 41
0.8
 72
0
  0
TEXT
  8
___NOTE
 62
2
  6
CONTINUOUS
 10
3.5249993392
 20
3.4204697688
  7
STANDARD
 40
0.15625
  1
 
 41
0.8
 72
0
  0
TEXT
  8
___NOTE
 62
2
  6
CONTINUOUS
 10
3.5249993392
 20
3.1860947688
  7
STANDARD
 40
0.15625
  1
 
 41
0.8
 72
0
  0
TEXT
  8
___NOTE
 62
2
  6
CONTINUOUS
 10
3.5249993392
 20
2.9517197688
  7
STANDARD
 40
0.15625
  1
 
 41
0.8
 72
0
  0
INSERT
  8
___SYMBOL
 62
2
  6
CONTINUOUS
  2
COPYRIGHT_YEAR_BL0
 10
19.2071005307
 20
3.4481098194
  0
INSERT
  8
___SYMBOL
 62
2
  6
CONTINUOUS
  2
PACKAGING_UPC_NOTE_BL1
 10
15.493585907
 20
5.7078682344
  0
INSERT
  8
___SYMBOL
 62
2
  6
CONTINUOUS
  2
PLOTTING_TEMPLATE_NOTE_BL2
 10
7.3209745122
 20
9.3488540291
  0
INSERT
  8
___SYMBOL
 62
2
  6
CONTINUOUS
  2
TEMPLATE_NUMBER_BL3
 10
9.938233188
 20
3.4309666979
  0
INSERT
  8
___SYMBOL
 62
2
  6
CONTINUOUS
  2
TEMPLATE_NUMBER_BL4
 10
9.8999582695
 20
1.2365380334
  0
INSERT
  8
___SYMBOL
 62
2
  6
CONTINUOUS
  2
SKU_LAV_KOHLER_BL5
 10
6.3267607179
 20
13.5197366251
  0
INSERT
  8
___SYMBOL
 62
2
  6
CONTINUOUS
  2
LAV_UC_INSTALLATION_BL6
 10
15.0021825923
 20
13.4155235919
  0
LINE
  8
DEFAULT_1
 62
2
  6
CENTER
 10
21.3025261822
 20
18.2999153103
 11
2.5563651822
 21
18.2999153103
  0
LINE
  8
DEFAULT_1
 62
2
  6
CENTER
 10
21.1777607132
 20
20.3211651495
 11
2.4315997132
 21
20.3211651495
  0
LINE
  8
_CURVE
 62
7
  6
CENTER
 10
1.5720558647
 20
15.3164912131
 11
1.5720558647
 21
14.7164912131
  0
LINE
  8
_CURVE
 62
7
  6
CENTER
 10
1.5720558647
 20
3.7164912131
 11
1.5720558647
 21
4.3164912131
  0
POLYLINE
  8
_CURVE
 62
7
 66
1
 70
0
  0
VERTEX
  8
_CURVE
 62
7
 10
1.896459641
 20
1.9744510381
  0
VERTEX
  8
_CURVE
 62
7
 10
1.8964738693
 20
1.966462665
  0
VERTEX
  8
_CURVE
 62
7
 10
1.8967461043
 20
1.9584685142
  0
VERTEX
  8
_CURVE
 62
7
 10
1.8972751459
 20
1.9504782636
  0
VERTEX
  8
_CURVE
 62
7
 10
1.8980597941
 20
1.9425015916
  0
VERTEX
  8
_CURVE
 62
7
 10
1.8990988487
 20
1.9345481762
  0
VERTEX
  8
_CURVE
 62
7
 10
1.9003911097
 20
1.9266276958
  0
VERTEX
  8
_CURVE
 62
7
 10
1.9019353768
 20
1.9187498284
  0
VERTEX
  8
_CURVE
 62
7
 10
1.9037304502
 20
1.9109242522
  0
VERTEX
  8
_CURVE
 62
7
 10
1.9057751295
 20
1.9031606454
  0
VERTEX
  8
_CURVE
 62
7
 10
1.9080682148
 20
1.8954686862
  0
VERTEX
  8
_CURVE
 62
7
 10
1.9106083055
 20
1.8878569886
  0
VERTEX
  8
_CURVE
 62
7
 10
1.9133919369
 20
1.8803336238
  0
VERTEX
  8
_CURVE
 62
7
 10
1.9164154036
 20
1.8729055857
  0
VERTEX
  8
_CURVE
 62
7
 10
1.9196750001
 20
1.8655798683
  0
VERTEX
  8
_CURVE
 62
7
 10
1.9231670212
 20
1.8583634653
  0
VERTEX
  8
_CURVE
 62
7
 10
1.9268877613
 20
1.8512633706
  0
VERTEX
  8
_CURVE
 62
7
 10
1.930833515
 20
1.8442865781
  0
VERTEX
  8
_CURVE
 62
7
 10
1.935000577
 20
1.8374400817
  0
VERTEX
  8
_CURVE
 62
7
 10
1.9393852418
 20
1.8307308751
  0
VERTEX
  8
_CURVE
 62
7
 10
1.9439838039
 20
1.8241659523
  0
VERTEX
  8
_CURVE
 62
7
 10
1.9487923346
 20
1.8177519343
  0
VERTEX
  8
_CURVE
 62
7
 10
1.9538051007
 20
1.8114951509
  0
VERTEX
  8
_CURVE
 62
7
 10
1.9590161328
 20
1.8054015498
  0
VERTEX
  8
_CURVE
 62
7
 10
1.9644194613
 20
1.7994770784
  0
VERTEX
  8
_CURVE
 62
7
 10
1.9700091165
 20
1.7937276845
  0
VERTEX
  8
_CURVE
 62
7
 10
1.9757791289
 20
1.7881593155
  0
VERTEX
  8
_CURVE
 62
7
 10
1.9817235289
 20
1.782777919
  0
VERTEX
  8
_CURVE
 62
7
 10
1.9878363468
 20
1.7775894425
  0
VERTEX
  8
_CURVE
 62
7
 10
1.9941116131
 20
1.7725998338
  0
VERTEX
  8
_CURVE
 62
7
 10
2.0005433582
 20
1.7678150403
  0
VERTEX
  8
_CURVE
 62
7
 10
2.0071252311
 20
1.7632407715
  0
VERTEX
  8
_CURVE
 62
7
 10
2.0138505962
 20
1.7588809319
  0
VERTEX
  8
_CURVE
 62
7
 10
2.0207124462
 20
1.754739201
  0
VERTEX
  8
_CURVE
 62
7
 10
2.0277037733
 20
1.7508192583
  0
VERTEX
  8
_CURVE
 62
7
 10
2.0348175702
 20
1.7471247834
  0
VERTEX
  8
_CURVE
 62
7
 10
2.0420468294
 20
1.7436594559
  0
VERTEX
  8
_CURVE
 62
7
 10
2.0493845433
 20
1.7404269552
  0
VERTEX
  8
_CURVE
 62
7
 10
2.0568237044
 20
1.737430961
  0
VERTEX
  8
_CURVE
 62
7
 10
2.0643573053
 20
1.7346751527
  0
VERTEX
  8
_CURVE
 62
7
 10
2.0719783384
 20
1.7321632099
  0
VERTEX
  8
_CURVE
 62
7
 10
2.0796787196
 20
1.7298985674
  0
VERTEX
  8
_CURVE
 62
7
 10
2.0874498299
 20
1.727882594
  0
VERTEX
  8
_CURVE
 62
7
 10
2.0952819867
 20
1.7261164539
  0
VERTEX
  8
_CURVE
 62
7
 10
2.1031655074
 20
1.7246013115
  0
VERTEX
  8
_CURVE
 62
7
 10
2.1110907096
 20
1.7233383311
  0
VERTEX
  8
_CURVE
 62
7
 10
2.1190479107
 20
1.722328677
  0
VERTEX
  8
_CURVE
 62
7
 10
2.1270274281
 20
1.7215735136
  0
VERTEX
  8
_CURVE
 62
7
 10
2.1350195792
 20
1.7210740051
  0
VERTEX
  8
_CURVE
 62
7
 10
2.1430146816
 20
1.7208313159
  0
VERTEX
  8
_CURVE
 62
7
 10
2.1510030527
 20
1.7208466104
  0
SEQEND
  0
LINE
  8
_CURVE
 62
7
  6
CONTINUOUS
 10
3.2930745639
 20
3.6702412131
 11
3.2930745639
 21
15.3627412131
  0
POLYLINE
  8
_CURVE
 62
7
 66
1
 70
0
  0
VERTEX
  8
_CURVE
 62
7
 10
21.4351460752
 20
1.7208466104
  0
VERTEX
  8
_CURVE
 62
7
 10
21.4431344463
 20
1.7208313159
  0
VERTEX
  8
_CURVE
 62
7
 10
21.4511295487
 20
1.7210740051
  0
VERTEX
  8
_CURVE
 62
7
 10
21.4591216998
 20
1.7215735136
  0
VERTEX
  8
_CURVE
 62
7
 10
21.4671012172
 20
1.722328677
  0
VERTEX
  8
_CURVE
 62
7
 10
21.4750584183
 20
1.7233383311
  0
VERTEX
  8
_CURVE
 62
7
 10
21.4829836204
 20
1.7246013115
  0
VERTEX
  8
_CURVE
 62
7
 10
21.4908671412
 20
1.7261164539
  0
VERTEX
  8
_CURVE
 62
7
 10
21.498699298
 20
1.727882594
  0
VERTEX
  8
_CURVE
 62
7
 10
21.5064704083
 20
1.7298985674
  0
VERTEX
  8
_CURVE
 62
7
 10
21.5141707895
 20
1.7321632099
  0
VERTEX
  8
_CURVE
 62
7
 10
21.5217918226
 20
1.7346751527
  0
VERTEX
  8
_CURVE
 62
7
 10
21.5293254234
 20
1.737430961
  0
VERTEX
  8
_CURVE
 62
7
 10
21.5367645846
 20
1.7404269552
  0
VERTEX
  8
_CURVE
 62
7
 10
21.5441022985
 20
1.7436594559
  0
VERTEX
  8
_CURVE
 62
7
 10
21.5513315576
 20
1.7471247834
  0
VERTEX
  8
_CURVE
 62
7
 10
21.5584453546
 20
1.7508192583
  0
VERTEX
  8
_CURVE
 62
7
 10
21.5654366817
 20
1.754739201
  0
VERTEX
  8
_CURVE
 62
7
 10
21.5722985316
 20
1.7588809319
  0
VERTEX
  8
_CURVE
 62
7
 10
21.5790238968
 20
1.7632407715
  0
VERTEX
  8
_CURVE
 62
7
 10
21.5856057697
 20
1.7678150403
  0
VERTEX
  8
_CURVE
 62
7
 10
21.5920375148
 20
1.7725998338
  0
VERTEX
  8
_CURVE
 62
7
 10
21.5983127811
 20
1.7775894425
  0
VERTEX
  8
_CURVE
 62
7
 10
21.604425599
 20
1.782777919
  0
VERTEX
  8
_CURVE
 62
7
 10
21.610369999
 20
1.7881593155
  0
VERTEX
  8
_CURVE
 62
7
 10
21.6161400113
 20
1.7937276845
  0
VERTEX
  8
_CURVE
 62
7
 10
21.6217296666
 20
1.7994770784
  0
VERTEX
  8
_CURVE
 62
7
 10
21.627132995
 20
1.8054015498
  0
VERTEX
  8
_CURVE
 62
7
 10
21.6323440271
 20
1.8114951509
  0
VERTEX
  8
_CURVE
 62
7
 10
21.6373567933
 20
1.8177519343
  0
VERTEX
  8
_CURVE
 62
7
 10
21.6421653239
 20
1.8241659523
  0
VERTEX
  8
_CURVE
 62
7
 10
21.6467638861
 20
1.8307308751
  0
VERTEX
  8
_CURVE
 62
7
 10
21.6511485509
 20
1.8374400817
  0
VERTEX
  8
_CURVE
 62
7
 10
21.6553156128
 20
1.8442865781
  0
VERTEX
  8
_CURVE
 62
7
 10
21.6592613666
 20
1.8512633706
  0
VERTEX
  8
_CURVE
 62
7
 10
21.6629821067
 20
1.8583634653
  0
VERTEX
  8
_CURVE
 62
7
 10
21.6664741277
 20
1.8655798683
  0
VERTEX
  8
_CURVE
 62
7
 10
21.6697337243
 20
1.8729055857
  0
VERTEX
  8
_CURVE
 62
7
 10
21.672757191
 20
1.8803336238
  0
VERTEX
  8
_CURVE
 62
7
 10
21.6755408224
 20
1.8878569886
  0
VERTEX
  8
_CURVE
 62
7
 10
21.678080913
 20
1.8954686862
  0
VERTEX
  8
_CURVE
 62
7
 10
21.6803739984
 20
1.9031606454
  0
VERTEX
  8
_CURVE
 62
7
 10
21.6824186777
 20
1.9109242522
  0
VERTEX
  8
_CURVE
 62
7
 10
21.684213751
 20
1.9187498284
  0
VERTEX
  8
_CURVE
 62
7
 10
21.6857580182
 20
1.9266276958
  0
VERTEX
  8
_CURVE
 62
7
 10
21.6870502792
 20
1.9345481762
  0
VERTEX
  8
_CURVE
 62
7
 10
21.6880893338
 20
1.9425015916
  0
VERTEX
  8
_CURVE
 62
7
 10
21.6888739819
 20
1.9504782636
  0
VERTEX
  8
_CURVE
 62
7
 10
21.6894030236
 20
1.9584685142
  0
VERTEX
  8
_CURVE
 62
7
 10
21.6896752586
 20
1.966462665
  0
VERTEX
  8
_CURVE
 62
7
 10
21.6896894868
 20
1.9744510381
  0
SEQEND
  0
LINE
  8
_CURVE
 62
7
  6
CONTINUOUS
 10
19.8580745639
 20
3.2352412131
 11
3.7280745639
 21
3.2352412131
  0
LINE
  8
_CURVE
 62
7
  6
CENTER
 10
1.8720558647
 20
4.0164912131
 11
1.2720558647
 21
4.0164912131
  0
LINE
  8
_CURVE
 62
7
  6
CENTER
 10
21.7140932632
 20
4.0164912131
 11
22.3140932632
 21
4.0164912131
  0
LINE
  8
_CURVE
 62
7
  6
CENTER
 10
11.7930745639
 20
3.7664912131
 11
11.7930745639
 21
0.7664912131
  0
LINE
  8
_CURVE
 62
7
  6
CENTER
 10
11.7930745639
 20
15.2664912131
 11
11.7930745639
 21
18.2664912131
  0
LINE
  8
_CURVE
 62
7
  6
CENTER
 10
4.0430745639
 20
9.5164912131
 11
1.0430745639
 21
9.5164912131
  0
LINE
  8
_CURVE
 62
7
  6
CENTER
 10
19.5430745639
 20
9.5164912131
 11
22.5430745639
 21
9.5164912131
  0
LINE
  8
_CURVE
 62
7
  6
CENTER
 10
1.8720558647
 20
15.0164912131
 11
1.2720558647
 21
15.0164912131
  0
LINE
  8
_CURVE
 62
7
  6
CENTER
 10
21.7140932632
 20
15.0164912131
 11
22.3140932632
 21
15.0164912131
  0
LINE
  8
_CURVE
 62
7
  6
CONTINUOUS
 10
3.7280745639
 20
15.7977412131
 11
19.8580745639
 21
15.7977412131
  0
POLYLINE
  8
_CURVE
 62
7
 66
1
 70
0
  0
VERTEX
  8
_CURVE
 62
7
 10
2.1510125041
 20
17.3121257068
  0
VERTEX
  8
_CURVE
 62
7
 10
2.1430239498
 20
17.3121412959
  0
VERTEX
  8
_CURVE
 62
7
 10
2.1350286541
 20
17.3118988896
  0
VERTEX
  8
_CURVE
 62
7
 10
2.1270363004
 20
17.3113996519
  0
VERTEX
  8
_CURVE
 62
7
 10
2.119056572
 20
17.3106447471
  0
VERTEX
  8
_CURVE
 62
7
 10
2.111099152
 20
17.3096353391
  0
VERTEX
  8
_CURVE
 62
7
 10
2.1031737239
 20
17.308372592
  0
VERTEX
  8
_CURVE
 62
7
 10
2.0952899707
 20
17.30685767
  0
VERTEX
  8
_CURVE
 62
7
 10
2.0874575759
 20
17.3050917369
  0
VERTEX
  8
_CURVE
 62
7
 10
2.0796862226
 20
17.3030759571
  0
VERTEX
  8
_CURVE
 62
7
 10
2.0719855941
 20
17.3008114944
  0
VERTEX
  8
_CURVE
 62
7
 10
2.0643643101
 20
17.2982997175
  0
VERTEX
  8
_CURVE
 62
7
 10
2.0568304554
 20
17.2955440612
  0
VERTEX
  8
_CURVE
 62
7
 10
2.049391038
 20
17.2925482051
  0
VERTEX
  8
_CURVE
 62
7
 10
2.0420530661
 20
17.2893158288
  0
VERTEX
  8
_CURVE
 62
7
 10
2.0348235477
 20
17.2858506119
  0
VERTEX
  8
_CURVE
 62
7
 10
2.0277094909
 20
17.2821562341
  0
VERTEX
  8
_CURVE
 62
7
 10
2.0207179039
 20
17.278236375
  0
VERTEX
  8
_CURVE
 62
7
 10
2.0138557947
 20
17.2740947141
  0
VERTEX
  8
_CURVE
 62
7
 10
2.0071301714
 20
17.2697349312
  0
VERTEX
  8
_CURVE
 62
7
 10
2.0005480421
 20
17.2651607059
  0
VERTEX
  8
_CURVE
 62
7
 10
1.9941160429
 20
17.2603759426
  0
VERTEX
  8
_CURVE
 62
7
 10
1.9878405253
 20
17.2553863512
  0
VERTEX
  8
_CURVE
 62
7
 10
1.9817274594
 20
17.2501978795
  0
VERTEX
  8
_CURVE
 62
7
 10
1.9757828155
 20
17.2448164754
  0
VERTEX
  8
_CURVE
 62
7
 10
1.9700125635
 20
17.2392480868
  0
VERTEX
  8
_CURVE
 62
7
 10
1.9644226736
 20
17.2334986615
  0
VERTEX
  8
_CURVE
 62
7
 10
1.9590191159
 20
17.2275741474
  0
VERTEX
  8
_CURVE
 62
7
 10
1.9538078606
 20
17.2214804925
  0
VERTEX
  8
_CURVE
 62
7
 10
1.9487948778
 20
17.2152236445
  0
VERTEX
  8
_CURVE
 62
7
 10
1.9439861375
 20
17.2088095514
  0
VERTEX
  8
_CURVE
 62
7
 10
1.9393873733
 20
17.2022445433
  0
VERTEX
  8
_CURVE
 62
7
 10
1.9350025143
 20
17.1955352417
  0
VERTEX
  8
_CURVE
 62
7
 10
1.9308352664
 20
17.1886886409
  0
VERTEX
  8
_CURVE
 62
7
 10
1.9268893354
 20
17.1817117353
  0
VERTEX
  8
_CURVE
 62
7
 10
1.9231684269
 20
17.174611519
  0
VERTEX
  8
_CURVE
 62
7
 10
1.9196762467
 20
17.1673949865
  0
VERTEX
  8
_CURVE
 62
7
 10
1.9164165006
 20
17.160069132
  0
VERTEX
  8
_CURVE
 62
7
 10
1.9133928944
 20
17.1526409498
  0
VERTEX
  8
_CURVE
 62
7
 10
1.9106091338
 20
17.1451174343
  0
VERTEX
  8
_CURVE
 62
7
 10
1.9080689245
 20
17.1375055797
  0
VERTEX
  8
_CURVE
 62
7
 10
1.9057757316
 20
17.1298134581
  0
VERTEX
  8
_CURVE
 62
7
 10
1.9037309557
 20
17.1220496837
  0
VERTEX
  8
_CURVE
 62
7
 10
1.901935797
 20
17.1142239356
  0
VERTEX
  8
_CURVE
 62
7
 10
1.9003914559
 20
17.1063458925
  0
VERTEX
  8
_CURVE
 62
7
 10
1.8990991324
 20
17.0984252333
  0
VERTEX
  8
_CURVE
 62
7
 10
1.8980600268
 20
17.0904716369
  0
VERTEX
  8
_CURVE
 62
7
 10
1.8972753392
 20
17.0824947821
  0
VERTEX
  8
_CURVE
 62
7
 10
1.8967462701
 20
17.0745043477
  0
VERTEX
  8
_CURVE
 62
7
 10
1.8964740194
 20
17.0665100126
  0
VERTEX
  8
_CURVE
 62
7
 10
1.8964597875
 20
17.0585214557
  0
SEQEND
  0
LINE
  8
_CURVE
 62
7
  6
CONTINUOUS
 10
20.2930745639
 20
15.3627412131
 11
20.2930745639
 21
3.6702412131
  0
POLYLINE
  8
_CURVE
 62
7
 66
1
 70
0
  0
VERTEX
  8
_CURVE
 62
7
 10
21.6896893404
 20
17.0585214557
  0
VERTEX
  8
_CURVE
 62
7
 10
21.6896751085
 20
17.0665100126
  0
VERTEX
  8
_CURVE
 62
7
 10
21.6894028578
 20
17.0745043477
  0
VERTEX
  8
_CURVE
 62
7
 10
21.6888737886
 20
17.0824947821
  0
VERTEX
  8
_CURVE
 62
7
 10
21.6880891011
 20
17.0904716369
  0
VERTEX
  8
_CURVE
 62
7
 10
21.6870499955
 20
17.0984252333
  0
VERTEX
  8
_CURVE
 62
7
 10
21.685757672
 20
17.1063458925
  0
VERTEX
  8
_CURVE
 62
7
 10
21.6842133308
 20
17.1142239356
  0
VERTEX
  8
_CURVE
 62
7
 10
21.6824181722
 20
17.1220496837
  0
VERTEX
  8
_CURVE
 62
7
 10
21.6803733963
 20
17.1298134581
  0
VERTEX
  8
_CURVE
 62
7
 10
21.6780802033
 20
17.1375055797
  0
VERTEX
  8
_CURVE
 62
7
 10
21.6755399941
 20
17.1451174343
  0
VERTEX
  8
_CURVE
 62
7
 10
21.6727562335
 20
17.1526409498
  0
VERTEX
  8
_CURVE
 62
7
 10
21.6697326272
 20
17.160069132
  0
VERTEX
  8
_CURVE
 62
7
 10
21.6664728812
 20
17.1673949865
  0
VERTEX
  8
_CURVE
 62
7
 10
21.662980701
 20
17.174611519
  0
VERTEX
  8
_CURVE
 62
7
 10
21.6592597925
 20
17.1817117353
  0
VERTEX
  8
_CURVE
 62
7
 10
21.6553138614
 20
17.1886886409
  0
VERTEX
  8
_CURVE
 62
7
 10
21.6511466136
 20
17.1955352417
  0
VERTEX
  8
_CURVE
 62
7
 10
21.6467617546
 20
17.2022445433
  0
VERTEX
  8
_CURVE
 62
7
 10
21.6421629904
 20
17.2088095514
  0
VERTEX
  8
_CURVE
 62
7
 10
21.6373542501
 20
17.2152236445
  0
VERTEX
  8
_CURVE
 62
7
 10
21.6323412673
 20
17.2214804925
  0
VERTEX
  8
_CURVE
 62
7
 10
21.627130012
 20
17.2275741474
  0
VERTEX
  8
_CURVE
 62
7
 10
21.6217264543
 20
17.2334986615
  0
VERTEX
  8
_CURVE
 62
7
 10
21.6161365644
 20
17.2392480868
  0
VERTEX
  8
_CURVE
 62
7
 10
21.6103663124
 20
17.2448164754
  0
VERTEX
  8
_CURVE
 62
7
 10
21.6044216684
 20
17.2501978795
  0
VERTEX
  8
_CURVE
 62
7
 10
21.5983086026
 20
17.2553863512
  0
VERTEX
  8
_CURVE
 62
7
 10
21.592033085
 20
17.2603759426
  0
VERTEX
  8
_CURVE
 62
7
 10
21.5856010857
 20
17.2651607059
  0
VERTEX
  8
_CURVE
 62
7
 10
21.5790189564
 20
17.2697349312
  0
VERTEX
  8
_CURVE
 62
7
 10
21.5722933332
 20
17.2740947141
  0
VERTEX
  8
_CURVE
 62
7
 10
21.565431224
 20
17.278236375
  0
VERTEX
  8
_CURVE
 62
7
 10
21.5584396369
 20
17.2821562341
  0
VERTEX
  8
_CURVE
 62
7
 10
21.5513255802
 20
17.2858506119
  0
VERTEX
  8
_CURVE
 62
7
 10
21.5440960618
 20
17.2893158288
  0
VERTEX
  8
_CURVE
 62
7
 10
21.5367580899
 20
17.2925482051
  0
VERTEX
  8
_CURVE
 62
7
 10
21.5293186725
 20
17.2955440612
  0
VERTEX
  8
_CURVE
 62
7
 10
21.5217848178
 20
17.2982997175
  0
VERTEX
  8
_CURVE
 62
7
 10
21.5141635338
 20
17.3008114944
  0
VERTEX
  8
_CURVE
 62
7
 10
21.5064629053
 20
17.3030759571
  0
VERTEX
  8
_CURVE
 62
7
 10
21.498691552
 20
17.3050917369
  0
VERTEX
  8
_CURVE
 62
7
 10
21.4908591572
 20
17.30685767
  0
VERTEX
  8
_CURVE
 62
7
 10
21.482975404
 20
17.308372592
  0
VERTEX
  8
_CURVE
 62
7
 10
21.4750499758
 20
17.3096353391
  0
VERTEX
  8
_CURVE
 62
7
 10
21.4670925559
 20
17.3106447471
  0
VERTEX
  8
_CURVE
 62
7
 10
21.4591128275
 20
17.3113996519
  0
VERTEX
  8
_CURVE
 62
7
 10
21.4511204738
 20
17.3118988896
  0
VERTEX
  8
_CURVE
 62
7
 10
21.4431251781
 20
17.3121412959
  0
VERTEX
  8
_CURVE
 62
7
 10
21.4351366237
 20
17.3121257068
  0
SEQEND
  0
LINE
  8
_CURVE
 62
7
  6
CENTER
 10
22.0140932632
 20
15.3164912131
 11
22.0140932632
 21
14.7164912131
  0
LINE
  8
_CURVE
 62
7
  6
CENTER
 10
22.0140932632
 20
3.7164912131
 11
22.0140932632
 21
4.3164912131
  0
CIRCLE
  8
0
 62
7
  6
CONTINUOUS
 10
6.6343387104
 20
11.8088596618
 40
0.2143298231
  0
ARC
  8
_CURVE
 62
7
 10
11.7930745639
 20
-521.1524695964
 40
522.9622112009
 50
88.9435540539
 51
91.0564459461
  0
ARC
  8
_CURVE
 62
7
 10
11.7930745639
 20
539.1310071705
 40
521.9079558818
 50
268.9414208258
 51
271.0585791742
  0
ARC
  8
_CURVE
 62
7
 10
-509.6425923932
 20
9.5164912131
 40
511.5946482579
 50
359.1553024909
 51
0.8446963966
  0
ARC
  8
_CURVE
 62
7
 10
533.2287415207
 20
9.5164912131
 40
511.5946482575
 50
179.1553036034
 51
180.8446975091
  0
ARC
  8
_CURVE
 62
7
  6
CONTINUOUS
 10
3.7280745639
 20
15.3627412131
 40
0.435
 50
90.0
 51
180.0
  0
ARC
  8
_CURVE
 62
7
  6
CONTINUOUS
 10
3.7280745639
 20
3.6702412131
 40
0.435
 50
180.0
 51
270.0
  0
ARC
  8
_CURVE
 62
7
  6
CONTINUOUS
 10
19.8580745639
 20
3.6702412131
 40
0.435
 50
270.0
 51
360.0
  0
ARC
  8
_CURVE
 62
7
  6
CONTINUOUS
 10
19.8580745639
 20
15.3627412131
 40
0.435
 50
0.0
 51
90.0
  0
CIRCLE
  8
_CURVE
 62
7
  6
CONTINUOUS
 10
22.0140932632
 20
15.0164912131
 40
0.19
  0
CIRCLE
  8
_CURVE
 62
7
  6
CONTINUOUS
 10
22.0140932632
 20
4.0164912131
 40
0.19
  0
CIRCLE
  8
_CURVE
 62
7
  6
CONTINUOUS
 10
1.5720558647
 20
4.0164912131
 40
0.19
  0
CIRCLE
  8
_CURVE
 62
7
  6
CONTINUOUS
 10
1.5720558647
 20
15.0164912131
 40
0.19
  0
ENDSEC
  0
EOF
