999
DXF file: 1002973-7.dxf
999
Pro/ENGINEER 2001490 by Parametric Technology Corporation
0
SECTION
2
HEADER
9
$ACADVER
1
AC1014
9
$EXTMAX
10
25.0000000000
20
20.0000000000
9
$EXTMIN
10
0.0000000000
20
0.0000000000
9
$LIMMIN
10
0.0000000000
20
0.0000000000
9
$LIMMAX
10
25.0000000000
20
20.0000000000
9
$VIEWCTR
10
12.5000000000
20
10.0000000000
9
$VIEWSIZE
40
20.0000000000
9
$CLAYER
8
0
9
$LTSCALE
40
1.3750000000
9
$CELTYPE
6
BYLAYER
9
$DIMSCALE
40
1
9
$DIMASZ
40
0.1875000000
9
$DIMEXO
40
0.1562500000
9
$DIMDLI
40
0.9500000000
9
$DIMEXE
40
0.4500000000
9
$DIMCEN
40
0.2250000000
9
$DIMLFAC
40
1.0000000000
9
$DIMTXT
40
0.1562500000
9
$DIMTOL
70
1
9
$DIMLIM
70
0
9
$DIMTFAC
40
1.0000000000
9
$DIMTP
40
0.0050000000
9
$DIMTM
40
0.0050000000
9
$HANDSEED
5
33C
0
ENDSEC
0
SECTION
2
CLASSES
0
ENDSEC
0
SECTION
2
TABLES
0
TABLE
2
VPORT
5
8
100
AcDbSymbolTable
70
2
0
VPORT
5
1F4
100
AcDbSymbolTableRecord
100
AcDbViewportTableRecord
2
*ACTIVE
70
0
10
0.0
20
0.0
11
1.0
21
1.0
12
12.5000000000
22
10.0000000000
13
0.0
23
0.0
14
1.0
24
1.0
15
0.0
25
0.0
16
0.0
26
0.0
36
1.0
17
0.0
27
0.0
37
0.0
40
20.0000000000
41
1.2500000000
42
50.0
43
0.0
44
0.0
50
0.0
51
0.0
71
0
72
100
73
1
74
1
75
0
76
0
77
0
78
0
0
ENDTAB
0
TABLE
2
LTYPE
5
5
100
AcDbSymbolTable
70
6
0
LTYPE
5
14
100
AcDbSymbolTableRecord
100
AcDbLinetypeTableRecord
2
BYBLOCK
70
0
3

72
65
73
0
40
0.0
0
LTYPE
5
15
100
AcDbSymbolTableRecord
100
AcDbLinetypeTableRecord
2
BYLAYER
70
0
3

72
65
73
0
40
0.0
0
LTYPE
5
16
100
AcDbSymbolTableRecord
100
AcDbLinetypeTableRecord
2
CONTINUOUS
70
64
3
Solid line
72
65
73
0
40
0
0
LTYPE
5
1F5
100
AcDbSymbolTableRecord
100
AcDbLinetypeTableRecord
2
CENTER
70
64
3
____ _ ____ _ ____ _ ____ _ ____ _ ____ _ ____
72
65
73
4
40
0.6
49
0.375
74
0
49
-0.075
74
0
49
0.075
74
0
49
-0.075
74
0
0
LTYPE
5
1F6
100
AcDbSymbolTableRecord
100
AcDbLinetypeTableRecord
2
HIDDEN
70
64
3
- - - - - - - - - - - - - - - - - - - -
72
65
73
2
40
0.2
49
0.1
74
0
49
-0.1
74
0
0
LTYPE
5
1F7
100
AcDbSymbolTableRecord
100
AcDbLinetypeTableRecord
2
PHANTOM
70
64
3
_____ _ _ _____ _ _ _____ _ _ _____
72
65
73
6
40
0.8
49
0.45
74
0
49
-0.05
74
0
49
0.1
74
0
49
-0.05
74
0
49
0.1
74
0
49
-0.05
74
0
0
LTYPE
5
1F8
100
AcDbSymbolTableRecord
100
AcDbLinetypeTableRecord
2
DOT
70
64
3
. . . . . . . . . . . . . . . . . . . .
72
65
73
2
40
0.2
49
0.1
74
0
49
-0.1
74
0
0
LTYPE
5
1F9
100
AcDbSymbolTableRecord
100
AcDbLinetypeTableRecord
2
DASHED
70
64
3
- - - - - - - - - - - - - - - - - - - -
72
65
73
2
40
0.2
49
0.1
74
0
49
-0.1
74
0
0
ENDTAB
0
TABLE
2
LAYER
5
2
100
AcDbSymbolTable
70
36
0
LAYER
5
10
100
AcDbSymbolTableRecord
100
AcDbLayerTableRecord
2
0
70
0
62
7
6
CONTINUOUS
0
LAYER
5
1FA
100
AcDbSymbolTableRecord
100
AcDbLayerTableRecord
2
DEFAULT_1
70
0
62
7
6
CENTER
0
LAYER
5
1FB
100
AcDbSymbolTableRecord
100
AcDbLayerTableRecord
2
DEFAULT_2
70
0
62
8
6
HIDDEN
0
LAYER
5
1FC
100
AcDbSymbolTableRecord
100
AcDbLayerTableRecord
2
DEFAULT_3
70
0
62
7
6
PHANTOM
0
LAYER
5
1FD
100
AcDbSymbolTableRecord
100
AcDbLayerTableRecord
2
0
70
0
62
7
6
CONTINUOUS
0
LAYER
5
1FE
100
AcDbSymbolTableRecord
100
AcDbLayerTableRecord
2
DEFPOINTS
70
0
62
7
6
CONTINUOUS
0
LAYER
5
1FF
100
AcDbSymbolTableRecord
100
AcDbLayerTableRecord
2
DRAFT_ENT
70
0
62
7
6
CONTINUOUS
0
LAYER
5
200
100
AcDbSymbolTableRecord
100
AcDbLayerTableRecord
2
NOTE
70
0
62
7
6
CONTINUOUS
0
LAYER
5
201
100
AcDbSymbolTableRecord
100
AcDbLayerTableRecord
2
PSPTBK
70
0
62
7
6
CONTINUOUS
0
LAYER
5
202
100
AcDbSymbolTableRecord
100
AcDbLayerTableRecord
2
SYMBOL
70
0
62
7
6
CONTINUOUS
0
LAYER
5
203
100
AcDbSymbolTableRecord
100
AcDbLayerTableRecord
2
___NOTE
70
0
62
7
6
CONTINUOUS
0
LAYER
5
204
100
AcDbSymbolTableRecord
100
AcDbLayerTableRecord
2
___SYMBOL
70
0
62
7
6
CONTINUOUS
0
ENDTAB
0
TABLE
2
STYLE
5
3
100
AcDbSymbolTable
70
1
0
STYLE
5
11
100
AcDbSymbolTableRecord
100
AcDbTextStyleTableRecord
2
STANDARD
70
0
40
0.0
41
0.8000000000
50
0.0
71
0
42
0.0
3
txt
4

0
STYLE
5
205
100
AcDbSymbolTableRecord
100
AcDbTextStyleTableRecord
2
TEXTSTYLE_0
70
0
40
0.0
41
0.80
50
0.0
71
0
42
0.2
3
txt
4

0
ENDTAB
0
TABLE
2
VIEW
5
6
100
AcDbSymbolTable
70
0
0
ENDTAB
0
TABLE
2
UCS
5
7
100
AcDbSymbolTable
70
0
0
ENDTAB
0
TABLE
2
APPID
5
9
100
AcDbSymbolTable
70
1
0
APPID
5
206
100
AcDbSymbolTableRecord
100
AcDbRegAppTableRecord
2
ACAD
70
0
0
ENDTAB
0
TABLE
2
DIMSTYLE
5
A
100
AcDbSymbolTable
70
1
0
DIMSTYLE
105
207
100
AcDbSymbolTableRecord
100
AcDbDimStyleTableRecord
2
STANDARD
70
0
3

4

5

6

7

40
1.0
41
0.1875000000
42
0.0625
43
0.38
44
0.18
45
0.0
46
0.0
47
0.0050000000
48
0.0050000000
140
0.1562500000
141
0.09
142
0.0
143
25.4
144
1.0000000000
145
0.0
146
1.0000000000
147
0.09
71
1
72
0
73
1
74
1
75
0
76
0
77
0
78
0
170
0
171
2
172
0
173
0
174
0
175
0
176
0
177
0
178
0
270
2
271
3
272
3
273
2
274
2
340
11
275
0
280
0
281
0
282
0
283
1
284
0
285
0
286
0
287
3
288
0
0
DIMSTYLE
105
208
100
AcDbSymbolTableRecord
100
AcDbDimStyleTableRecord
2
DIMSTYLE_1
70
0
3

4

5

6

7

40
1.0
41
0.1875000000
42
0.0625
43
0.38
44
0.18
45
0.0
46
0.0
47
0.0312500000
48
0.0312500000
140
0.1562500000
141
0.09
142
0.0
143
25.4
144
1.0000000000
145
0.0
146
1.0000000000
147
0.09
71
0
72
0
73
1
74
1
75
0
76
0
77
0
78
0
170
0
171
2
172
0
173
0
174
0
175
0
176
0
177
0
178
0
270
2
271
5
272
5
273
2
274
2
340
11
275
0
280
0
281
0
282
0
283
1
284
0
285
0
286
0
287
3
288
0
0
ENDTAB
0
TABLE
2
BLOCK_RECORD
5
1
100
AcDbSymbolTable
70
0
0
BLOCK_RECORD
5
1B
100
AcDbSymbolTableRecord
100
AcDbBlockTableRecord
2
*MODEL_SPACE
0
BLOCK_RECORD
5
1C
100
AcDbSymbolTableRecord
100
AcDbBlockTableRecord
2
*PAPER_SPACE
0
BLOCK_RECORD
5
209
100
AcDbSymbolTableRecord
100
AcDbBlockTableRecord
2
*D0
0
BLOCK_RECORD
5
20A
100
AcDbSymbolTableRecord
100
AcDbBlockTableRecord
2
*D1
0
ENDTAB
0
ENDSEC
0
SECTION
2
BLOCKS
0
BLOCK
5
1E
100
AcDbEntity
8
0
100
AcDbBlockBegin
2
*MODEL_SPACE
70
0
10
0.0
20
0.0
30
0.0
3
*MODEL_SPACE
1

0
ENDBLK
5
1F
100
AcDbEntity
8
0
100
AcDbBlockEnd
0
BLOCK
5
20
100
AcDbEntity
8
0
100
AcDbBlockBegin
2
*PAPER_SPACE
70
0
10
0.0
20
0.0
30
0.0
3
*PAPER_SPACE
1

0
ENDBLK
5
21
100
AcDbEntity
8
0
100
AcDbBlockEnd
0
BLOCK
5
20B
100
AcDbEntity
8
0
100
AcDbBlockBegin
62
2
6
CONTINUOUS
2
*D0
70
65
10
0.0000000000
20
0.0000000000
3
*D0
1

0
TEXT
5
20C
100
AcDbEntity
8
0
100
AcDbText
62
2
6
CONTINUOUS
10
11.6629327990
20
12.8694464767
7
TEXTSTYLE_0
40
0.1562500000
1
[40 cm]
72
5
11
12.5379328121
21
12.8694464767
100
AcDbText
0
TEXT
5
20D
100
AcDbEntity
8
0
100
AcDbText
62
2
6
CONTINUOUS
10
11.7254327990
20
13.1038214767
7
TEXTSTYLE_0
40
0.1562500000
1
15-5/8
72
5
11
12.4754328102
21
13.1038214767
100
AcDbText
0
LINE
5
20E
100
AcDbEntity
8
0
100
AcDbLine
62
2
6
CONTINUOUS
10
12.0392710000
20
18.6493290000
11
11.9754327990
21
18.6493290000
0
LINE
5
20F
100
AcDbEntity
8
0
100
AcDbLine
62
2
6
CONTINUOUS
10
12.0392787821
20
3.0243127274
11
11.9754327990
21
3.0243127274
0
LINE
5
210
100
AcDbEntity
8
0
100
AcDbLine
62
2
6
CONTINUOUS
10
12.1004327990
20
18.6493290000
11
12.1004327990
21
13.3381964767
0
LINE
5
211
100
AcDbEntity
8
0
100
AcDbLine
62
2
6
CONTINUOUS
10
12.1004327990
20
3.0243127274
11
12.1004327990
21
12.7913214767
0
SOLID
5
212
100
AcDbEntity
8
0
100
AcDbTrace
62
2
6
CONTINUOUS
10
12.1316827990
20
18.4618290000
11
12.1004327990
21
18.6493290000
12
12.0691827990
22
18.4618290000
13
12.0691827990
23
18.4618290000
0
SOLID
5
213
100
AcDbEntity
8
0
100
AcDbTrace
62
2
6
CONTINUOUS
10
12.0691827990
20
3.2118127274
11
12.1004327990
21
3.0243127274
12
12.1316827990
22
3.2118127274
13
12.1316827990
23
3.2118127274
0
ENDBLK
5
214
100
AcDbEntity
8
0
100
AcDbBlockEnd
0
BLOCK
5
215
100
AcDbEntity
8
0
100
AcDbBlockBegin
62
2
6
CONTINUOUS
2
*D1
70
65
10
0.0000000000
20
0.0000000000
3
*D1
1

0
TEXT
5
216
100
AcDbEntity
8
0
100
AcDbText
62
2
6
CONTINUOUS
10
10.5356474721
20
10.9288710781
7
TEXTSTYLE_0
40
0.1562500000
1
[46 cm]
72
5
11
11.4106474852
21
10.9288710781
100
AcDbText
0
TEXT
5
217
100
AcDbEntity
8
0
100
AcDbText
62
2
6
CONTINUOUS
10
9.7856474721
20
10.9288710781
7
TEXTSTYLE_0
40
0.1562500000
1
18-1/4
72
5
11
10.5356474833
21
10.9288710781
100
AcDbText
0
LINE
5
218
100
AcDbEntity
8
0
100
AcDbLine
62
2
6
CONTINUOUS
10
2.9767781206
20
10.9618106451
11
2.9767781206
21
10.8819960781
0
LINE
5
219
100
AcDbEntity
8
0
100
AcDbLine
62
2
6
CONTINUOUS
10
21.2267779391
20
10.9618103506
11
21.2267779391
21
10.8819960781
0
LINE
5
21A
100
AcDbEntity
8
0
100
AcDbLine
62
2
6
CONTINUOUS
10
2.9767781206
20
11.0069960781
11
9.7075224721
21
11.0069960781
0
LINE
5
21B
100
AcDbEntity
8
0
100
AcDbLine
62
2
6
CONTINUOUS
10
21.2267779391
20
11.0069960781
11
11.4887724721
21
11.0069960781
0
SOLID
5
21C
100
AcDbEntity
8
0
100
AcDbTrace
62
2
6
CONTINUOUS
10
3.1642781206
20
11.0382460781
11
2.9767781206
21
11.0069960781
12
3.1642781206
22
10.9757460781
13
3.1642781206
23
10.9757460781
0
SOLID
5
21D
100
AcDbEntity
8
0
100
AcDbTrace
62
2
6
CONTINUOUS
10
21.0392779391
20
10.9757460781
11
21.2267779391
21
11.0069960781
12
21.0392779391
22
11.0382460781
13
21.0392779391
23
11.0382460781
0
ENDBLK
5
21E
100
AcDbEntity
8
0
100
AcDbBlockEnd
0
ENDSEC
0
SECTION
2
ENTITIES
0
SOLID
5
21F
100
AcDbEntity
8
0
100
AcDbTrace
62
2
6
CONTINUOUS
10
15.6512400000
20
12.9789279840
11
15.6512400000
21
13.1411079840
12
16.7921800000
22
13.1411079840
13
16.7921800000
23
13.1411079840
0
SOLID
5
220
100
AcDbEntity
8
0
100
AcDbTrace
62
2
6
CONTINUOUS
10
16.7921800000
20
13.1411079840
11
16.7921800000
21
12.9789279840
12
15.6512400000
22
12.9789279840
13
15.6512400000
23
12.9789279840
0
SOLID
5
221
100
AcDbEntity
8
0
100
AcDbTrace
62
2
6
CONTINUOUS
10
15.7134500000
20
13.2011079880
11
15.7134500000
21
13.2833079860
12
16.8543900000
22
13.2833079860
13
16.8543900000
23
13.2833079860
0
SOLID
5
222
100
AcDbEntity
8
0
100
AcDbTrace
62
2
6
CONTINUOUS
10
16.8543900000
20
13.2833079860
11
16.8543900000
21
13.2011079880
12
15.7134500000
22
13.2011079880
13
15.7134500000
23
13.2011079880
0
SOLID
5
223
100
AcDbEntity
8
0
100
AcDbTrace
62
2
6
CONTINUOUS
10
15.6512400000
20
12.5967780140
11
15.6512400000
21
12.6434279860
12
16.7921800000
22
12.6434279860
13
16.7921800000
23
12.6434279860
0
SOLID
5
224
100
AcDbEntity
8
0
100
AcDbTrace
62
2
6
CONTINUOUS
10
16.7921800000
20
12.6434279860
11
16.7921800000
21
12.5967780140
12
15.6512400000
22
12.5967780140
13
15.6512400000
23
12.5967780140
0
SOLID
5
225
100
AcDbEntity
8
0
100
AcDbTrace
62
2
6
CONTINUOUS
10
17.7688600000
20
12.9789279840
11
17.7688600000
21
13.1411079840
12
18.2261300000
22
13.1411079840
13
18.2261300000
23
13.1411079840
0
SOLID
5
226
100
AcDbEntity
8
0
100
AcDbTrace
62
2
6
CONTINUOUS
10
18.2261300000
20
13.1411079840
11
18.2261300000
21
12.9789279840
12
17.7688600000
22
12.9789279840
13
17.7688600000
23
12.9789279840
0
SOLID
5
227
100
AcDbEntity
8
0
100
AcDbTrace
62
2
6
CONTINUOUS
10
15.7134500000
20
13.7698880040
11
15.7134500000
21
13.8520880020
12
16.8543900000
22
13.8520880020
13
16.8543900000
23
13.8520880020
0
SOLID
5
228
100
AcDbEntity
8
0
100
AcDbTrace
62
2
6
CONTINUOUS
10
16.8543900000
20
13.8520880020
11
16.8543900000
21
13.7698880040
12
15.7134500000
22
13.7698880040
13
15.7134500000
23
13.7698880040
0
SOLID
5
229
100
AcDbEntity
8
0
100
AcDbTrace
62
2
6
CONTINUOUS
10
15.7134500000
20
13.6365880120
11
15.7134500000
21
13.7187780140
12
16.8543900000
22
13.7187780140
13
16.8543900000
23
13.7187780140
0
SOLID
5
22A
100
AcDbEntity
8
0
100
AcDbTrace
62
2
6
CONTINUOUS
10
16.8543900000
20
13.7187780140
11
16.8543900000
21
13.6365880120
12
15.7134500000
22
13.6365880120
13
15.7134500000
23
13.6365880120
0
SOLID
5
22B
100
AcDbEntity
8
0
100
AcDbTrace
62
2
6
CONTINUOUS
10
15.7134500000
20
13.3699680020
11
15.7134500000
21
13.4521580040
12
16.8543900000
22
13.4521580040
13
16.8543900000
23
13.4521580040
0
SOLID
5
22C
100
AcDbEntity
8
0
100
AcDbTrace
62
2
6
CONTINUOUS
10
16.8543900000
20
13.4521580040
11
16.8543900000
21
13.3699680020
12
15.7134500000
22
13.3699680020
13
15.7134500000
23
13.3699680020
0
SOLID
5
22D
100
AcDbEntity
8
0
100
AcDbTrace
62
2
6
CONTINUOUS
10
15.7134500000
20
13.5032779900
11
15.7134500000
21
13.5854679920
12
16.8543900000
22
13.5854679920
13
16.8543900000
23
13.5854679920
0
SOLID
5
22E
100
AcDbEntity
8
0
100
AcDbTrace
62
2
6
CONTINUOUS
10
16.8543900000
20
13.5854679920
11
16.8543900000
21
13.5032779900
12
15.7134500000
22
13.5032779900
13
15.7134500000
23
13.5032779900
0
SOLID
5
22F
100
AcDbEntity
8
DRAFT_ENT
100
AcDbTrace
62
2
6
CONTINUOUS
10
12.8516382746
20
17.7267128259
11
12.9377408952
21
17.8291010890
12
13.0577795507
22
17.8291010890
13
13.0577795507
23
17.8291010890
0
SOLID
5
230
100
AcDbEntity
8
DRAFT_ENT
100
AcDbTrace
62
2
6
CONTINUOUS
10
13.0577795507
20
17.8291010890
11
12.9244648678
21
17.6705708882
12
12.8516382746
22
17.7267128259
13
12.8516382746
23
17.7267128259
0
SOLID
5
231
100
AcDbEntity
8
DRAFT_ENT
100
AcDbTrace
62
2
6
CONTINUOUS
10
12.8516382746
20
17.5888424086
11
12.9244648678
21
17.6705708882
12
12.9477245055
22
17.4629049883
13
12.9477245055
23
17.4629049883
0
SOLID
5
232
100
AcDbEntity
8
DRAFT_ENT
100
AcDbTrace
62
2
6
CONTINUOUS
10
12.9244648678
20
17.6705708882
11
13.0829072947
21
17.4629049883
12
12.9477245055
22
17.4629049883
13
12.9477245055
23
17.4629049883
0
SOLID
5
233
100
AcDbEntity
8
DRAFT_ENT
100
AcDbTrace
62
2
6
CONTINUOUS
10
12.8516382746
20
17.4629049883
11
12.7425756119
21
17.4628899861
12
12.8516382746
22
17.5888424086
13
12.8516382746
23
17.5888424086
0
SOLID
5
234
100
AcDbEntity
8
DRAFT_ENT
100
AcDbTrace
62
2
6
CONTINUOUS
10
12.9244648678
20
17.6705708882
11
12.8516382746
21
17.5888424086
12
12.8516382746
22
17.7267128259
13
12.8516382746
23
17.7267128259
0
SOLID
5
235
100
AcDbEntity
8
DRAFT_ENT
100
AcDbTrace
62
2
6
CONTINUOUS
10
12.8516382746
20
17.5888424086
11
12.7425756119
21
17.4628899861
12
12.8516382746
22
17.7267128259
13
12.8516382746
23
17.7267128259
0
SOLID
5
236
100
AcDbEntity
8
DRAFT_ENT
100
AcDbTrace
62
2
6
CONTINUOUS
10
12.8516382746
20
17.7267128259
11
12.7425756119
21
17.4628899861
12
12.8516382746
22
17.8291010890
13
12.8516382746
23
17.8291010890
0
SOLID
5
237
100
AcDbEntity
8
DRAFT_ENT
100
AcDbTrace
62
2
6
CONTINUOUS
10
12.7425756119
20
17.4628899861
11
12.7425756119
21
17.8291010890
12
12.8516382746
22
17.8291010890
13
12.8516382746
23
17.8291010890
0
SOLID
5
238
100
AcDbEntity
8
DRAFT_ENT
100
AcDbTrace
62
2
6
CONTINUOUS
10
13.1356599828
20
17.8224702043
11
13.1737532116
21
17.8305671701
12
13.2126974658
22
17.8305671701
13
13.2126974658
23
17.8305671701
0
SOLID
5
239
100
AcDbEntity
8
DRAFT_ENT
100
AcDbTrace
62
2
6
CONTINUOUS
10
13.2126974658
20
17.8305671701
11
13.2507906946
21
17.8224702043
12
13.1356599828
22
17.8224702043
13
13.1356599828
23
17.8224702043
0
SOLID
5
23A
100
AcDbEntity
8
DRAFT_ENT
100
AcDbTrace
62
2
6
CONTINUOUS
10
13.1000826362
20
17.8066301491
11
13.1356599828
21
17.8224702043
12
13.2507906946
22
17.8224702043
13
13.2507906946
23
17.8224702043
0
SOLID
5
23B
100
AcDbEntity
8
DRAFT_ENT
100
AcDbTrace
62
2
6
CONTINUOUS
10
13.2507906946
20
17.8224702043
11
13.2863680412
21
17.8066301491
12
13.1000826362
22
17.8066301491
13
13.1000826362
23
17.8066301491
0
SOLID
5
23C
100
AcDbEntity
8
DRAFT_ENT
100
AcDbTrace
62
2
6
CONTINUOUS
10
13.0685760728
20
17.7837392908
11
13.1000826362
21
17.8066301491
12
13.2863680412
22
17.8066301491
13
13.2863680412
23
17.8066301491
0
SOLID
5
23D
100
AcDbEntity
8
DRAFT_ENT
100
AcDbTrace
62
2
6
CONTINUOUS
10
13.2863680412
20
17.8066301491
11
13.3178746047
21
17.7837392908
12
13.0685760728
22
17.7837392908
13
13.0685760728
23
17.7837392908
0
SOLID
5
23E
100
AcDbEntity
8
DRAFT_ENT
100
AcDbTrace
62
2
6
CONTINUOUS
10
13.0425172803
20
17.7547980698
11
13.0685760728
21
17.7837392908
12
13.3178746047
22
17.7837392908
13
13.3178746047
23
17.7837392908
0
SOLID
5
23F
100
AcDbEntity
8
DRAFT_ENT
100
AcDbTrace
62
2
6
CONTINUOUS
10
13.3178746047
20
17.7837392908
11
13.3439333971
21
17.7547980698
12
13.0425172803
22
17.7547980698
13
13.0425172803
23
17.7547980698
0
SOLID
5
240
100
AcDbEntity
8
DRAFT_ENT
100
AcDbTrace
62
2
6
CONTINUOUS
10
13.1932253387
20
17.7232831554
11
13.0230451532
21
17.7210713564
12
13.3439333971
22
17.7547980698
13
13.3439333971
23
17.7547980698
0
SOLID
5
241
100
AcDbEntity
8
DRAFT_ENT
100
AcDbTrace
62
2
6
CONTINUOUS
10
13.0230451532
20
17.7210713564
11
13.0425172803
21
17.7547980698
12
13.3439333971
22
17.7547980698
13
13.3439333971
23
17.7547980698
0
SOLID
5
242
100
AcDbEntity
8
DRAFT_ENT
100
AcDbTrace
62
2
6
CONTINUOUS
10
13.3439333971
20
17.7547980698
11
13.3634055242
21
17.7210713564
12
13.1932253387
22
17.7232831554
13
13.1932253387
23
17.7232831554
0
SOLID
5
243
100
AcDbEntity
8
DRAFT_ENT
100
AcDbTrace
62
2
6
CONTINUOUS
10
13.1932253387
20
17.7232831554
11
13.1691279156
21
17.7194664985
12
13.0230451532
22
17.7210713564
13
13.0230451532
23
17.7210713564
0
SOLID
5
244
100
AcDbEntity
8
DRAFT_ENT
100
AcDbTrace
62
2
6
CONTINUOUS
10
13.2173227618
20
17.7194664985
11
13.1932253387
21
17.7232831554
12
13.3634055242
22
17.7210713564
13
13.3634055242
23
17.7210713564
0
SOLID
5
245
100
AcDbEntity
8
DRAFT_ENT
100
AcDbTrace
62
2
6
CONTINUOUS
10
13.1301374659
20
17.6911382787
11
13.0110107168
21
17.6840331696
12
13.1473893161
22
17.7083901289
13
13.1473893161
23
17.7083901289
0
SOLID
5
246
100
AcDbEntity
8
DRAFT_ENT
100
AcDbTrace
62
2
6
CONTINUOUS
10
13.1473893161
20
17.7083901289
11
13.0110107168
21
17.6840331696
12
13.1691279156
22
17.7194664985
13
13.1691279156
23
17.7194664985
0
SOLID
5
247
100
AcDbEntity
8
DRAFT_ENT
100
AcDbTrace
62
2
6
CONTINUOUS
10
13.0110107168
20
17.6840331696
11
13.0230451532
21
17.7210713564
12
13.1691279156
22
17.7194664985
13
13.1691279156
23
17.7194664985
0
SOLID
5
248
100
AcDbEntity
8
DRAFT_ENT
100
AcDbTrace
62
2
6
CONTINUOUS
10
13.2173227618
20
17.7194664985
11
13.3634055242
21
17.7210713564
12
13.2390613613
22
17.7083901289
13
13.2390613613
23
17.7083901289
0
SOLID
5
249
100
AcDbEntity
8
DRAFT_ENT
100
AcDbTrace
62
2
6
CONTINUOUS
10
13.2390613613
20
17.7083901289
11
13.3634055242
21
17.7210713564
12
13.2563132115
22
17.6911382787
13
13.2563132115
23
17.6911382787
0
SOLID
5
24A
100
AcDbEntity
8
DRAFT_ENT
100
AcDbTrace
62
2
6
CONTINUOUS
10
13.3634055242
20
17.7210713564
11
13.3754399606
21
17.6840331696
12
13.2563132115
22
17.6911382787
13
13.2563132115
23
17.6911382787
0
SOLID
5
24B
100
AcDbEntity
8
DRAFT_ENT
100
AcDbTrace
62
2
6
CONTINUOUS
10
13.1301374659
20
17.6911382787
11
13.1190610963
21
17.6693996792
12
13.0110107168
22
17.6840331696
13
13.0110107168
23
17.6840331696
0
SOLID
5
24C
100
AcDbEntity
8
DRAFT_ENT
100
AcDbTrace
62
2
6
CONTINUOUS
10
13.2673895811
20
17.6693996792
11
13.2563132115
21
17.6911382787
12
13.3754399606
22
17.6840331696
13
13.3754399606
23
17.6840331696
0
SOLID
5
24D
100
AcDbEntity
8
DRAFT_ENT
100
AcDbTrace
62
2
6
CONTINUOUS
10
13.0069399338
20
17.6453022561
11
13.0110107168
21
17.6840331696
12
13.1190610963
22
17.6693996792
13
13.1190610963
23
17.6693996792
0
SOLID
5
24E
100
AcDbEntity
8
DRAFT_ENT
100
AcDbTrace
62
2
6
CONTINUOUS
10
13.1190610963
20
17.6693996792
11
13.1152444394
21
17.6453022561
12
13.0069399338
22
17.6453022561
13
13.0069399338
23
17.6453022561
0
SOLID
5
24F
100
AcDbEntity
8
DRAFT_ENT
100
AcDbTrace
62
2
6
CONTINUOUS
10
13.2673895811
20
17.6693996792
11
13.3754399606
21
17.6840331696
12
13.2712062380
22
17.6453022561
13
13.2712062380
23
17.6453022561
0
SOLID
5
250
100
AcDbEntity
8
DRAFT_ENT
100
AcDbTrace
62
2
6
CONTINUOUS
10
13.3754399606
20
17.6840331696
11
13.3795107436
21
17.6453022561
12
13.2712062380
22
17.6453022561
13
13.2712062380
23
17.6453022561
0
SOLID
5
251
100
AcDbEntity
8
DRAFT_ENT
100
AcDbTrace
62
2
6
CONTINUOUS
10
13.2673895811
20
17.6212048330
11
13.2712062380
21
17.6453022561
12
13.3795107436
22
17.6453022561
13
13.3795107436
23
17.6453022561
0
SOLID
5
252
100
AcDbEntity
8
DRAFT_ENT
100
AcDbTrace
62
2
6
CONTINUOUS
10
13.1190610963
20
17.6212048330
11
13.0110107168
21
17.6065713426
12
13.1152444394
22
17.6453022561
13
13.1152444394
23
17.6453022561
0
SOLID
5
253
100
AcDbEntity
8
DRAFT_ENT
100
AcDbTrace
62
2
6
CONTINUOUS
10
13.0110107168
20
17.6065713426
11
13.0069399338
21
17.6453022561
12
13.1152444394
22
17.6453022561
13
13.1152444394
23
17.6453022561
0
SOLID
5
254
100
AcDbEntity
8
DRAFT_ENT
100
AcDbTrace
62
2
6
CONTINUOUS
10
13.3795107436
20
17.6453022561
11
13.3754399606
21
17.6065713426
12
13.2673895811
22
17.6212048330
13
13.2673895811
23
17.6212048330
0
SOLID
5
255
100
AcDbEntity
8
DRAFT_ENT
100
AcDbTrace
62
2
6
CONTINUOUS
10
13.1190610963
20
17.6212048330
11
13.1301374659
21
17.5994662335
12
13.0110107168
22
17.6065713426
13
13.0110107168
23
17.6065713426
0
SOLID
5
256
100
AcDbEntity
8
DRAFT_ENT
100
AcDbTrace
62
2
6
CONTINUOUS
10
13.2563132115
20
17.5994662335
11
13.2673895811
21
17.6212048330
12
13.3754399606
22
17.6065713426
13
13.3754399606
23
17.6065713426
0
SOLID
5
257
100
AcDbEntity
8
DRAFT_ENT
100
AcDbTrace
62
2
6
CONTINUOUS
10
13.1691279156
20
17.5711380137
11
13.0230451532
21
17.5695331559
12
13.1473893161
22
17.5822143833
13
13.1473893161
23
17.5822143833
0
SOLID
5
258
100
AcDbEntity
8
DRAFT_ENT
100
AcDbTrace
62
2
6
CONTINUOUS
10
13.1473893161
20
17.5822143833
11
13.0230451532
21
17.5695331559
12
13.1301374659
22
17.5994662335
13
13.1301374659
23
17.5994662335
0
SOLID
5
259
100
AcDbEntity
8
DRAFT_ENT
100
AcDbTrace
62
2
6
CONTINUOUS
10
13.0230451532
20
17.5695331559
11
13.0110107168
21
17.6065713426
12
13.1301374659
22
17.5994662335
13
13.1301374659
23
17.5994662335
0
SOLID
5
25A
100
AcDbEntity
8
DRAFT_ENT
100
AcDbTrace
62
2
6
CONTINUOUS
10
13.2563132115
20
17.5994662335
11
13.3754399606
21
17.6065713426
12
13.2390613613
22
17.5822143833
13
13.2390613613
23
17.5822143833
0
SOLID
5
25B
100
AcDbEntity
8
DRAFT_ENT
100
AcDbTrace
62
2
6
CONTINUOUS
10
13.2390613613
20
17.5822143833
11
13.3754399606
21
17.6065713426
12
13.2173227618
22
17.5711380137
13
13.2173227618
23
17.5711380137
0
SOLID
5
25C
100
AcDbEntity
8
DRAFT_ENT
100
AcDbTrace
62
2
6
CONTINUOUS
10
13.3754399606
20
17.6065713426
11
13.3634055242
21
17.5695331559
12
13.2173227618
22
17.5711380137
13
13.2173227618
23
17.5711380137
0
SOLID
5
25D
100
AcDbEntity
8
DRAFT_ENT
100
AcDbTrace
62
2
6
CONTINUOUS
10
13.1691279156
20
17.5711380137
11
13.1932253387
21
17.5673213568
12
13.0230451532
22
17.5695331559
13
13.0230451532
23
17.5695331559
0
SOLID
5
25E
100
AcDbEntity
8
DRAFT_ENT
100
AcDbTrace
62
2
6
CONTINUOUS
10
13.1932253387
20
17.5673213568
11
13.2173227618
21
17.5711380137
12
13.3634055242
22
17.5695331559
13
13.3634055242
23
17.5695331559
0
SOLID
5
25F
100
AcDbEntity
8
DRAFT_ENT
100
AcDbTrace
62
2
6
CONTINUOUS
10
13.0425172803
20
17.5358064424
11
13.0230451532
21
17.5695331559
12
13.1932253387
22
17.5673213568
13
13.1932253387
23
17.5673213568
0
SOLID
5
260
100
AcDbEntity
8
DRAFT_ENT
100
AcDbTrace
62
2
6
CONTINUOUS
10
13.1932253387
20
17.5673213568
11
13.3634055242
21
17.5695331559
12
13.0425172803
22
17.5358064424
13
13.0425172803
23
17.5358064424
0
SOLID
5
261
100
AcDbEntity
8
DRAFT_ENT
100
AcDbTrace
62
2
6
CONTINUOUS
10
13.3634055242
20
17.5695331559
11
13.3439333971
21
17.5358064424
12
13.0425172803
22
17.5358064424
13
13.0425172803
23
17.5358064424
0
SOLID
5
262
100
AcDbEntity
8
DRAFT_ENT
100
AcDbTrace
62
2
6
CONTINUOUS
10
13.0685760728
20
17.5068652214
11
13.0425172803
21
17.5358064424
12
13.3439333971
22
17.5358064424
13
13.3439333971
23
17.5358064424
0
SOLID
5
263
100
AcDbEntity
8
DRAFT_ENT
100
AcDbTrace
62
2
6
CONTINUOUS
10
13.3439333971
20
17.5358064424
11
13.3178746047
21
17.5068652214
12
13.0685760728
22
17.5068652214
13
13.0685760728
23
17.5068652214
0
SOLID
5
264
100
AcDbEntity
8
DRAFT_ENT
100
AcDbTrace
62
2
6
CONTINUOUS
10
13.1000826362
20
17.4839743631
11
13.0685760728
21
17.5068652214
12
13.3178746047
22
17.5068652214
13
13.3178746047
23
17.5068652214
0
SOLID
5
265
100
AcDbEntity
8
DRAFT_ENT
100
AcDbTrace
62
2
6
CONTINUOUS
10
13.3178746047
20
17.5068652214
11
13.2863680412
21
17.4839743631
12
13.1000826362
22
17.4839743631
13
13.1000826362
23
17.4839743631
0
SOLID
5
266
100
AcDbEntity
8
DRAFT_ENT
100
AcDbTrace
62
2
6
CONTINUOUS
10
13.1356599828
20
17.4681343079
11
13.1000826362
21
17.4839743631
12
13.2863680412
22
17.4839743631
13
13.2863680412
23
17.4839743631
0
SOLID
5
267
100
AcDbEntity
8
DRAFT_ENT
100
AcDbTrace
62
2
6
CONTINUOUS
10
13.2863680412
20
17.4839743631
11
13.2507906946
21
17.4681343079
12
13.1356599828
22
17.4681343079
13
13.1356599828
23
17.4681343079
0
SOLID
5
268
100
AcDbEntity
8
DRAFT_ENT
100
AcDbTrace
62
2
6
CONTINUOUS
10
13.1737532116
20
17.4600373421
11
13.1356599828
21
17.4681343079
12
13.2507906946
22
17.4681343079
13
13.2507906946
23
17.4681343079
0
SOLID
5
269
100
AcDbEntity
8
DRAFT_ENT
100
AcDbTrace
62
2
6
CONTINUOUS
10
13.2507906946
20
17.4681343079
11
13.2126974658
21
17.4600373421
12
13.1737532116
22
17.4600373421
13
13.1737532116
23
17.4600373421
0
SOLID
5
26A
100
AcDbEntity
8
DRAFT_ENT
100
AcDbTrace
62
2
6
CONTINUOUS
10
13.5856643694
20
17.6913612130
11
13.5856643694
21
17.8291010890
12
13.6886229390
22
17.8291010890
13
13.6886229390
23
17.8291010890
0
SOLID
5
26B
100
AcDbEntity
8
DRAFT_ENT
100
AcDbTrace
62
2
6
CONTINUOUS
10
13.5856643694
20
17.6913612130
11
13.4931663449
21
17.6056078966
12
13.4931663449
22
17.6913612130
13
13.4931663449
23
17.6913612130
0
SOLID
5
26C
100
AcDbEntity
8
DRAFT_ENT
100
AcDbTrace
62
2
6
CONTINUOUS
10
13.4931663449
20
17.6056078966
11
13.3902077753
21
17.4629049883
12
13.4931663449
22
17.6913612130
13
13.4931663449
23
17.6913612130
0
SOLID
5
26D
100
AcDbEntity
8
DRAFT_ENT
100
AcDbTrace
62
2
6
CONTINUOUS
10
13.4931663449
20
17.6913612130
11
13.3902077753
21
17.4629049883
12
13.4931663449
22
17.8291010890
13
13.4931663449
23
17.8291010890
0
SOLID
5
26E
100
AcDbEntity
8
DRAFT_ENT
100
AcDbTrace
62
2
6
CONTINUOUS
10
13.3902077753
20
17.4629049883
11
13.3902077753
21
17.8291010890
12
13.4931663449
22
17.8291010890
13
13.4931663449
23
17.8291010890
0
SOLID
5
26F
100
AcDbEntity
8
DRAFT_ENT
100
AcDbTrace
62
2
6
CONTINUOUS
10
13.4931663449
20
17.6056078966
11
13.4931663449
21
17.4629049883
12
13.3902077753
22
17.4629049883
13
13.3902077753
23
17.4629049883
0
SOLID
5
270
100
AcDbEntity
8
DRAFT_ENT
100
AcDbTrace
62
2
6
CONTINUOUS
10
13.4931663449
20
17.6056078966
11
13.5856643694
21
17.6913612130
12
13.5856643694
22
17.6056078966
13
13.5856643694
23
17.6056078966
0
SOLID
5
271
100
AcDbEntity
8
DRAFT_ENT
100
AcDbTrace
62
2
6
CONTINUOUS
10
13.5856643694
20
17.6913612130
11
13.6886229390
21
17.8291010890
12
13.5856643694
22
17.6056078966
13
13.5856643694
23
17.6056078966
0
SOLID
5
272
100
AcDbEntity
8
DRAFT_ENT
100
AcDbTrace
62
2
6
CONTINUOUS
10
13.5856643694
20
17.6056078966
11
13.6886229390
21
17.8291010890
12
13.5856643694
22
17.4629049883
13
13.5856643694
23
17.4629049883
0
SOLID
5
273
100
AcDbEntity
8
DRAFT_ENT
100
AcDbTrace
62
2
6
CONTINUOUS
10
13.6886229390
20
17.8291010890
11
13.6886229390
21
17.4629049883
12
13.5856643694
22
17.4629049883
13
13.5856643694
23
17.4629049883
0
SOLID
5
274
100
AcDbEntity
8
DRAFT_ENT
100
AcDbTrace
62
2
6
CONTINUOUS
10
13.9122323422
20
17.5511717283
11
13.7167759720
21
17.4629049883
12
13.8105547791
22
17.5511717283
13
13.8105547791
23
17.5511717283
0
SOLID
5
275
100
AcDbEntity
8
DRAFT_ENT
100
AcDbTrace
62
2
6
CONTINUOUS
10
13.8105547791
20
17.5511717283
11
13.7167759720
21
17.4629049883
12
13.8105547791
22
17.8291010890
13
13.8105547791
23
17.8291010890
0
SOLID
5
276
100
AcDbEntity
8
DRAFT_ENT
100
AcDbTrace
62
2
6
CONTINUOUS
10
13.7167759720
20
17.4629049883
11
13.7167759720
21
17.8291010890
12
13.8105547791
22
17.8291010890
13
13.8105547791
23
17.8291010890
0
SOLID
5
277
100
AcDbEntity
8
DRAFT_ENT
100
AcDbTrace
62
2
6
CONTINUOUS
10
13.7167759720
20
17.4629049883
11
13.9122323422
21
17.5511717283
12
13.8105547791
22
17.4629049883
13
13.8105547791
23
17.4629049883
0
SOLID
5
278
100
AcDbEntity
8
DRAFT_ENT
100
AcDbTrace
62
2
6
CONTINUOUS
10
13.9122323422
20
17.5511717283
11
13.9122323422
21
17.4629049883
12
13.8105547791
22
17.4629049883
13
13.8105547791
23
17.4629049883
0
SOLID
5
279
100
AcDbEntity
8
DRAFT_ENT
100
AcDbTrace
62
2
6
CONTINUOUS
10
14.1236398289
20
17.8291010890
11
14.1236398289
21
17.7398764490
12
14.0293538587
22
17.7398764490
13
14.0293538587
23
17.7398764490
0
SOLID
5
27A
100
AcDbEntity
8
DRAFT_ENT
100
AcDbTrace
62
2
6
CONTINUOUS
10
14.1236398289
20
17.6913612130
11
14.1236398289
21
17.6011226948
12
14.0293538587
22
17.6011226948
13
14.0293538587
23
17.6011226948
0
SOLID
5
27B
100
AcDbEntity
8
DRAFT_ENT
100
AcDbTrace
62
2
6
CONTINUOUS
10
14.1236398289
20
17.5511717283
11
13.9304496824
21
17.4629049883
12
14.0293538587
22
17.5511717283
13
14.0293538587
23
17.5511717283
0
SOLID
5
27C
100
AcDbEntity
8
DRAFT_ENT
100
AcDbTrace
62
2
6
CONTINUOUS
10
14.0293538587
20
17.5511717283
11
13.9304496824
21
17.4629049883
12
14.0293538587
22
17.6011226948
13
14.0293538587
23
17.6011226948
0
SOLID
5
27D
100
AcDbEntity
8
DRAFT_ENT
100
AcDbTrace
62
2
6
CONTINUOUS
10
14.1236398289
20
17.6913612130
11
14.0293538587
21
17.6011226948
12
14.0293538587
22
17.6913612130
13
14.0293538587
23
17.6913612130
0
SOLID
5
27E
100
AcDbEntity
8
DRAFT_ENT
100
AcDbTrace
62
2
6
CONTINUOUS
10
14.0293538587
20
17.6011226948
11
13.9304496824
21
17.4629049883
12
14.0293538587
22
17.6913612130
13
14.0293538587
23
17.6913612130
0
SOLID
5
27F
100
AcDbEntity
8
DRAFT_ENT
100
AcDbTrace
62
2
6
CONTINUOUS
10
14.0293538587
20
17.6913612130
11
13.9304496824
21
17.4629049883
12
14.0293538587
22
17.7398764490
13
14.0293538587
23
17.7398764490
0
SOLID
5
280
100
AcDbEntity
8
DRAFT_ENT
100
AcDbTrace
62
2
6
CONTINUOUS
10
14.1236398289
20
17.8291010890
11
14.0293538587
21
17.7398764490
12
14.0382315625
22
17.8291010890
13
14.0382315625
23
17.8291010890
0
SOLID
5
281
100
AcDbEntity
8
DRAFT_ENT
100
AcDbTrace
62
2
6
CONTINUOUS
10
14.0293538587
20
17.7398764490
11
13.9304496824
21
17.4629049883
12
14.0382315625
22
17.8291010890
13
14.0382315625
23
17.8291010890
0
SOLID
5
282
100
AcDbEntity
8
DRAFT_ENT
100
AcDbTrace
62
2
6
CONTINUOUS
10
13.9304496824
20
17.4629049883
11
13.9304496824
21
17.8291010890
12
14.0382315625
22
17.8291010890
13
14.0382315625
23
17.8291010890
0
SOLID
5
283
100
AcDbEntity
8
DRAFT_ENT
100
AcDbTrace
62
2
6
CONTINUOUS
10
14.1236398289
20
17.5511717283
11
14.1236398289
21
17.4629049883
12
13.9304496824
22
17.4629049883
13
13.9304496824
23
17.4629049883
0
SOLID
5
284
100
AcDbEntity
8
DRAFT_ENT
100
AcDbTrace
62
2
6
CONTINUOUS
10
14.2976198092
20
17.8291055300
11
14.3269529545
21
17.8250991240
12
14.1516524684
22
17.8291010890
13
14.1516524684
23
17.8291010890
0
SOLID
5
285
100
AcDbEntity
8
DRAFT_ENT
100
AcDbTrace
62
2
6
CONTINUOUS
10
14.2458123755
20
17.7399893012
11
14.4045247439
21
17.7428826364
12
14.2807685580
22
17.7399893012
13
14.2807685580
23
17.7399893012
0
SOLID
5
286
100
AcDbEntity
8
DRAFT_ENT
100
AcDbTrace
62
2
6
CONTINUOUS
10
14.2807685580
20
17.7399893012
11
14.4045247439
21
17.7428826364
12
14.2955951744
22
17.7365304453
13
14.2955951744
23
17.7365304453
0
SOLID
5
287
100
AcDbEntity
8
DRAFT_ENT
100
AcDbTrace
62
2
6
CONTINUOUS
10
14.2955951744
20
17.7365304453
11
14.4045247439
21
17.7428826364
12
14.3073607939
22
17.7268680216
13
14.3073607939
23
17.7268680216
0
SOLID
5
288
100
AcDbEntity
8
DRAFT_ENT
100
AcDbTrace
62
2
6
CONTINUOUS
10
14.4045247439
20
17.7428826364
11
14.4068205234
21
17.7133663003
12
14.3073607939
22
17.7268680216
13
14.3073607939
23
17.7268680216
0
SOLID
5
289
100
AcDbEntity
8
DRAFT_ENT
100
AcDbTrace
62
2
6
CONTINUOUS
10
14.3136363817
20
17.7129968560
11
14.3073607939
21
17.7268680216
12
14.4068205234
22
17.7133663003
13
14.4068205234
23
17.7133663003
0
SOLID
5
28A
100
AcDbEntity
8
DRAFT_ENT
100
AcDbTrace
62
2
6
CONTINUOUS
10
14.3136363817
20
17.7129968560
11
14.4068205234
21
17.7133663003
12
14.3131263306
22
17.6977806777
13
14.3131263306
23
17.6977806777
0
SOLID
5
28B
100
AcDbEntity
8
DRAFT_ENT
100
AcDbTrace
62
2
6
CONTINUOUS
10
14.3131263306
20
17.6977806777
11
14.4068205234
21
17.7133663003
12
14.3059359415
22
17.6843608960
13
14.3059359415
23
17.6843608960
0
SOLID
5
28C
100
AcDbEntity
8
DRAFT_ENT
100
AcDbTrace
62
2
6
CONTINUOUS
10
14.4068205234
20
17.7133663003
11
14.4011170200
21
17.6843154010
12
14.3059359415
22
17.6843608960
13
14.3059359415
23
17.6843608960
0
SOLID
5
28D
100
AcDbEntity
8
DRAFT_ENT
100
AcDbTrace
62
2
6
CONTINUOUS
10
14.2935496842
20
17.6755080509
11
14.3059359415
21
17.6843608960
12
14.4011170200
22
17.6843154010
13
14.4011170200
23
17.6843154010
0
SOLID
5
28E
100
AcDbEntity
8
DRAFT_ENT
100
AcDbTrace
62
2
6
CONTINUOUS
10
14.2935496842
20
17.6755080509
11
14.4011170200
21
17.6843154010
12
14.2785247256
22
17.6730498293
13
14.2785247256
23
17.6730498293
0
SOLID
5
28F
100
AcDbEntity
8
DRAFT_ENT
100
AcDbTrace
62
2
6
CONTINUOUS
10
14.4011170200
20
17.6843154010
11
14.3878320327
21
17.6578580047
12
14.2785247256
22
17.6730498293
13
14.2785247256
23
17.6730498293
0
SOLID
5
290
100
AcDbEntity
8
DRAFT_ENT
100
AcDbTrace
62
2
6
CONTINUOUS
10
14.3428943476
20
17.6201441066
11
14.2458123755
21
17.5860027435
12
14.3679387269
22
17.6359321960
13
14.3679387269
23
17.6359321960
0
SOLID
5
291
100
AcDbEntity
8
DRAFT_ENT
100
AcDbTrace
62
2
6
CONTINUOUS
10
14.3679387269
20
17.6359321960
11
14.2458123755
21
17.5860027435
12
14.3878320327
22
17.6578580047
13
14.3878320327
23
17.6578580047
0
SOLID
5
292
100
AcDbEntity
8
DRAFT_ENT
100
AcDbTrace
62
2
6
CONTINUOUS
10
14.3878320327
20
17.6578580047
11
14.2458123755
21
17.5860027435
12
14.2785247256
22
17.6730498293
13
14.2785247256
23
17.6730498293
0
SOLID
5
293
100
AcDbEntity
8
DRAFT_ENT
100
AcDbTrace
62
2
6
CONTINUOUS
10
14.2458123755
20
17.5860027435
11
14.1516524684
21
17.4629049883
12
14.2785247256
22
17.6730498293
13
14.2785247256
23
17.6730498293
0
SOLID
5
294
100
AcDbEntity
8
DRAFT_ENT
100
AcDbTrace
62
2
6
CONTINUOUS
10
14.2785247256
20
17.6730498293
11
14.1516524684
21
17.4629049883
12
14.2458123755
22
17.6730498293
13
14.2458123755
23
17.6730498293
0
SOLID
5
295
100
AcDbEntity
8
DRAFT_ENT
100
AcDbTrace
62
2
6
CONTINUOUS
10
14.2458123755
20
17.6730498293
11
14.1516524684
21
17.4629049883
12
14.2458123755
22
17.7399893012
13
14.2458123755
23
17.7399893012
0
SOLID
5
296
100
AcDbEntity
8
DRAFT_ENT
100
AcDbTrace
62
2
6
CONTINUOUS
10
14.4045247439
20
17.7428826364
11
14.2458123755
21
17.7399893012
12
14.3943978544
22
17.7707022484
13
14.3943978544
23
17.7707022484
0
SOLID
5
297
100
AcDbEntity
8
DRAFT_ENT
100
AcDbTrace
62
2
6
CONTINUOUS
10
14.3943978544
20
17.7707022484
11
14.2458123755
21
17.7399893012
12
14.3771816802
22
17.7947872655
13
14.3771816802
23
17.7947872655
0
SOLID
5
298
100
AcDbEntity
8
DRAFT_ENT
100
AcDbTrace
62
2
6
CONTINUOUS
10
14.3771816802
20
17.7947872655
11
14.2458123755
21
17.7399893012
12
14.3541373581
22
17.8133733872
13
14.3541373581
23
17.8133733872
0
SOLID
5
299
100
AcDbEntity
8
DRAFT_ENT
100
AcDbTrace
62
2
6
CONTINUOUS
10
14.3541373581
20
17.8133733872
11
14.2458123755
21
17.7399893012
12
14.3269529545
22
17.8250991240
13
14.3269529545
23
17.8250991240
0
SOLID
5
29A
100
AcDbEntity
8
DRAFT_ENT
100
AcDbTrace
62
2
6
CONTINUOUS
10
14.3269529545
20
17.8250991240
11
14.2458123755
21
17.7399893012
12
14.1516524684
22
17.8291010890
13
14.1516524684
23
17.8291010890
0
SOLID
5
29B
100
AcDbEntity
8
DRAFT_ENT
100
AcDbTrace
62
2
6
CONTINUOUS
10
14.1516524684
20
17.4629049883
11
14.1516524684
21
17.8291010890
12
14.2458123755
22
17.7399893012
13
14.2458123755
23
17.7399893012
0
SOLID
5
29C
100
AcDbEntity
8
DRAFT_ENT
100
AcDbTrace
62
2
6
CONTINUOUS
10
14.2458123755
20
17.5860027435
11
14.2458123755
21
17.4629049883
12
14.1516524684
22
17.4629049883
13
14.1516524684
23
17.4629049883
0
SOLID
5
29D
100
AcDbEntity
8
DRAFT_ENT
100
AcDbTrace
62
2
6
CONTINUOUS
10
14.2458123755
20
17.5860027435
11
14.3428943476
21
17.6201441066
12
14.3238270336
22
17.4629049883
13
14.3238270336
23
17.4629049883
0
SOLID
5
29E
100
AcDbEntity
8
DRAFT_ENT
100
AcDbTrace
62
2
6
CONTINUOUS
10
14.3428943476
20
17.6201441066
11
14.4425463935
21
17.4629049883
12
14.3238270336
22
17.4629049883
13
14.3238270336
23
17.4629049883
0
DIMENSION
5
29F
100
AcDbEntity
8
0
100
AcDbDimension
62
2
6
CONTINUOUS
2
*D0
10
12.1004327990
20
3.0243127274
11
12.1004328056
21
13.0647589767
70
160
1
<>\P[40 cm]
3
DIMSTYLE_1
100
AcDbAlignedDimension
13
11.9754327990
23
18.6493290000
14
11.9754327990
24
3.0243127274
50
270.000000
100
AcDbRotatedDimension
0
DIMENSION
5
2A0
100
AcDbEntity
8
0
100
AcDbDimension
62
2
6
CONTINUOUS
2
*D1
10
21.2267779391
20
11.0069960781
11
10.5981474786
21
11.0069960781
70
160
1
<>[46 cm]
3
DIMSTYLE_1
100
AcDbAlignedDimension
13
2.9767781206
23
10.8819960781
14
21.2267779391
24
10.8819960781
100
AcDbRotatedDimension
0
TEXT
5
2A1
100
AcDbEntity
8
0
100
AcDbText
62
2
6
CONTINUOUS
10
13.3759884460
20
4.0774673620
7
TEXTSTYLE_0
40
0.1560000000
1
2002 KOHLER CO.
72
5
11
15.2479884460
21
4.0774673620
100
AcDbText
0
TEXT
5
2A2
100
AcDbEntity
8
0
100
AcDbText
62
2
6
CONTINUOUS
10
13.2194959241
20
4.1119628790
7
TEXTSTYLE_0
40
0.0900000000
1
C
72
5
11
13.2914959241
21
4.1119628790
100
AcDbText
0
TEXT
5
2A3
100
AcDbEntity
8
0
100
AcDbText
62
2
6
CONTINUOUS
10
15.8479600000
20
12.7734080000
7
TEXTSTYLE_0
40
0.0791450000
1
XXXXX-XX-X-XX
72
5
11
16.6710680000
21
12.7734080000
100
AcDbText
0
TEXT
5
2A4
100
AcDbEntity
8
0
100
AcDbText
62
2
6
CONTINUOUS
10
17.9599400000
20
12.6011880000
7
TEXTSTYLE_0
40
0.0593590000
1
XXXXXX-XX
72
5
11
18.3873248000
21
12.6011880000
100
AcDbText
0
TEXT
5
2A5
100
AcDbEntity
8
0
100
AcDbText
62
2
6
CONTINUOUS
10
10.0311230000
20
3.9600460000
7
TEXTSTYLE_0
40
0.1560000000
1
1002973-7
72
5
11
11.1543230000
21
3.9600460000
100
AcDbText
0
TEXT
5
2A6
100
AcDbEntity
8
0
100
AcDbText
62
2
6
CONTINUOUS
10
11.1543230000
20
3.9600460000
7
TEXTSTYLE_0
40
0.1560000000
1
-D
72
5
11
11.4039230000
21
3.9600460000
100
AcDbText
0
SOLID
5
2A7
100
AcDbEntity
8
NOTE
100
AcDbTrace
62
2
6
CONTINUOUS
10
20.6084384093
20
7.1377852934
11
20.4453744588
21
7.2354733711
12
20.4858713462
22
7.2830785401
13
20.4858713462
23
7.2830785401
0
TEXT
5
2A8
100
AcDbEntity
8
NOTE
100
AcDbText
62
2
6
CONTINUOUS
10
16.9118111279
20
8.3966162260
7
TEXTSTYLE_0
40
0.1562500000
1
RIM OF LAVATORY
72
5
11
18.7868111279
21
8.3966162260
100
AcDbText
0
TEXT
5
2A9
100
AcDbEntity
8
NOTE
100
AcDbText
62
2
6
CONTINUOUS
10
16.7900111279
20
8.1625537260
7
TEXTSTYLE_0
40
0.1560000000
1
BORDE DEL LAVABO
72
5
11
18.7868111279
21
8.1625537260
100
AcDbText
0
TEXT
5
2AA
100
AcDbEntity
8
NOTE
100
AcDbText
62
2
6
CONTINUOUS
10
16.7868111279
20
7.9282412260
7
TEXTSTYLE_0
40
0.1562500000
1
REBORD DE LAVABO
72
5
11
18.7868111279
21
7.9282412260
100
AcDbText
0
SOLID
5
2AB
100
AcDbEntity
8
NOTE
100
AcDbTrace
62
2
6
CONTINUOUS
10
18.6778366948
20
5.7136247481
11
18.5249411897
21
5.8265662242
12
18.5698354795
22
5.8700490109
13
18.5698354795
23
5.8700490109
0
TEXT
5
2AC
100
AcDbEntity
8
NOTE
100
AcDbText
62
2
6
CONTINUOUS
10
14.9404459293
20
6.7840000071
7
TEXTSTYLE_0
40
0.1562500000
1
CUT ALONG THIS LINE
72
5
11
17.3154459293
21
6.7840000071
100
AcDbText
0
TEXT
5
2AD
100
AcDbEntity
8
NOTE
100
AcDbText
62
2
6
CONTINUOUS
10
13.5714459646
20
6.5499375071
7
TEXTSTYLE_0
40
0.1560000000
1
CORTE A LO LARGO DE ESTA LÍNEA
72
5
11
17.3154459646
21
6.5499375071
100
AcDbText
0
TEXT
5
2AE
100
AcDbEntity
8
NOTE
100
AcDbText
62
2
6
CONTINUOUS
10
13.4404459646
20
6.3156250071
7
TEXTSTYLE_0
40
0.1562500000
1
DÉCOUPER AU LONG DE CETTE LIGNE
72
5
11
17.3154459646
21
6.3156250071
100
AcDbText
0
TEXT
5
2AF
100
AcDbEntity
8
NOTE
100
AcDbText
62
2
6
CONTINUOUS
10
14.9563764141
20
14.5441278199
7
TEXTSTYLE_0
40
0.1562500000
1
PACKAGING/UPC LABEL ON BOX
72
5
11
18.2063764141
21
14.5441278199
100
AcDbText
0
TEXT
5
2B0
100
AcDbEntity
8
NOTE
100
AcDbText
62
2
6
CONTINUOUS
10
14.9563764141
20
14.3097528199
7
TEXTSTYLE_0
40
0.1562500000
1
ETIQUETA DE EMBALAJE/UPC EN LA CAJA
72
5
11
19.3313764141
21
14.3097528199
100
AcDbText
0
TEXT
5
2B1
100
AcDbEntity
8
NOTE
100
AcDbText
62
2
6
CONTINUOUS
10
14.9563764141
20
14.0753778199
7
TEXTSTYLE_0
40
0.1562500000
1
ETIQUETTE D'EMBALLAGE / UPC SUR LA BOÎTE
72
5
11
19.9563764141
21
14.0753778199
100
AcDbText
0
TEXT
5
2B2
100
AcDbEntity
8
NOTE
100
AcDbText
62
2
6
CONTINUOUS
10
13.6535189344
20
12.1508352759
7
TEXTSTYLE_0
40
0.1562500000
1
The template and the label suffixes circled
72
5
11
19.0285189344
21
12.1508352759
100
AcDbText
0
TEXT
5
2B3
100
AcDbEntity
8
NOTE
100
AcDbText
62
2
6
CONTINUOUS
10
13.6535189344
20
11.9164602759
7
TEXTSTYLE_0
40
0.1562500000
1
must match for proper cut-out.
72
5
11
17.4035189344
21
11.9164602759
100
AcDbText
0
TEXT
5
2B4
100
AcDbEntity
8
NOTE
100
AcDbText
62
2
6
CONTINUOUS
10
13.6535189344
20
11.6820852759
7
TEXTSTYLE_0
40
0.1562500000
1
 
72
5
11
13.7785189344
21
11.6820852759
100
AcDbText
0
TEXT
5
2B5
100
AcDbEntity
8
NOTE
100
AcDbText
62
2
6
CONTINUOUS
10
13.6535189344
20
11.4477102759
7
TEXTSTYLE_0
40
0.1562500000
1
A fin de realizar el corte apropiado, la plantilla y
72
5
11
20.1535189344
21
11.4477102759
100
AcDbText
0
TEXT
5
2B6
100
AcDbEntity
8
NOTE
100
AcDbText
62
2
6
CONTINUOUS
10
13.6535189344
20
11.2133352759
7
TEXTSTYLE_0
40
0.1562500000
1
los sufijos de la etiqueta demarcados deben concordar
72
5
11
20.2785189344
21
11.2133352759
100
AcDbText
0
TEXT
5
2B7
100
AcDbEntity
8
NOTE
100
AcDbText
62
2
6
CONTINUOUS
10
13.6535189344
20
10.9789602759
7
TEXTSTYLE_0
40
0.1562500000
1
 
72
5
11
13.7785189344
21
10.9789602759
100
AcDbText
0
TEXT
5
2B8
100
AcDbEntity
8
NOTE
100
AcDbText
62
2
6
CONTINUOUS
10
13.6535189344
20
10.7445852759
7
TEXTSTYLE_0
40
0.1562500000
1
A fin de découper l'ouverture correctement, le gabarit et 
72
5
11
20.9035189344
21
10.7445852759
100
AcDbText
0
TEXT
5
2B9
100
AcDbEntity
8
NOTE
100
AcDbText
62
2
6
CONTINUOUS
10
13.6535189344
20
10.5102102759
7
TEXTSTYLE_0
40
0.1562500000
1
les suffixes encerclés doivent correspondre.
72
5
11
19.1535189344
21
10.5102102759
100
AcDbText
0
TEXT
5
2BA
100
AcDbEntity
8
NOTE
100
AcDbText
62
2
6
CONTINUOUS
10
4.0520257695
20
13.8218916084
7
TEXTSTYLE_0
40
0.1562500000
1
When plotting template full size: Make sure horizontal
72
5
11
10.8020257695
21
13.8218916084
100
AcDbText
0
TEXT
5
2BB
100
AcDbEntity
8
NOTE
100
AcDbText
62
2
6
CONTINUOUS
10
4.0520257695
20
13.5875166084
7
TEXTSTYLE_0
40
0.1562500000
1
and vertical dimensions match the dimensions labeled
72
5
11
10.5520257695
21
13.5875166084
100
AcDbText
0
TEXT
5
2BC
100
AcDbEntity
8
NOTE
100
AcDbText
62
2
6
CONTINUOUS
10
4.0520257695
20
13.3531416084
7
TEXTSTYLE_0
40
0.1562500000
1
on the template.
72
5
11
6.0520257695
21
13.3531416084
100
AcDbText
0
TEXT
5
2BD
100
AcDbEntity
8
NOTE
100
AcDbText
62
2
6
CONTINUOUS
10
4.0520257695
20
13.1187666084
7
TEXTSTYLE_0
40
0.1562500000
1
 
72
5
11
4.1770257695
21
13.1187666084
100
AcDbText
0
TEXT
5
2BE
100
AcDbEntity
8
NOTE
100
AcDbText
62
2
6
CONTINUOUS
10
4.0520257695
20
12.8843916084
7
TEXTSTYLE_0
40
0.1562500000
1
Al trazar una plantilla a escala, asegúrese de que
72
5
11
10.3020257695
21
12.8843916084
100
AcDbText
0
TEXT
5
2BF
100
AcDbEntity
8
NOTE
100
AcDbText
62
2
6
CONTINUOUS
10
4.0520257695
20
12.6500166084
7
TEXTSTYLE_0
40
0.1562500000
1
las dimensiones horizontales y verticales concuerden
72
5
11
10.5520257695
21
12.6500166084
100
AcDbText
0
TEXT
5
2C0
100
AcDbEntity
8
NOTE
100
AcDbText
62
2
6
CONTINUOUS
10
4.0520257695
20
12.4156416084
7
TEXTSTYLE_0
40
0.1562500000
1
con las dimensiones marcadas en la plantilla
72
5
11
9.5520257695
21
12.4156416084
100
AcDbText
0
TEXT
5
2C1
100
AcDbEntity
8
NOTE
100
AcDbText
62
2
6
CONTINUOUS
10
4.0520257695
20
12.1812666084
7
TEXTSTYLE_0
40
0.1562500000
1
 
72
5
11
4.1770257695
21
12.1812666084
100
AcDbText
0
TEXT
5
2C2
100
AcDbEntity
8
NOTE
100
AcDbText
62
2
6
CONTINUOUS
10
4.0520257695
20
11.9468916084
7
TEXTSTYLE_0
40
0.1562500000
1
Au moment de tracer un gabarit à l'échelle, s'assurer que 
72
5
11
11.3020257695
21
11.9468916084
100
AcDbText
0
TEXT
5
2C3
100
AcDbEntity
8
NOTE
100
AcDbText
62
2
6
CONTINUOUS
10
4.0520257695
20
11.7125166084
7
TEXTSTYLE_0
40
0.1562500000
1
les dimensions horizotales et verticales correspondent avec 
72
5
11
11.5520257695
21
11.7125166084
100
AcDbText
0
TEXT
5
2C4
100
AcDbEntity
8
NOTE
100
AcDbText
62
2
6
CONTINUOUS
10
4.0520257695
20
11.4781416084
7
TEXTSTYLE_0
40
0.1562500000
1
les dimensions sur le gabarit
72
5
11
7.6770257695
21
11.4781416084
100
AcDbText
0
TEXT
5
2C5
100
AcDbEntity
8
NOTE
100
AcDbText
62
2
6
CONTINUOUS
10
12.7573027152
20
17.1598599995
7
TEXTSTYLE_0
40
0.1562500384
1
CUT-OUT TEMPLATE
72
5
11
14.7573032065
21
17.1598599995
100
AcDbText
0
TEXT
5
2C6
100
AcDbEntity
8
NOTE
100
AcDbText
62
2
6
CONTINUOUS
10
12.7573027152
20
16.9254849420
7
TEXTSTYLE_0
40
0.1562500384
1
SELF-RIMMING LAVATORY
72
5
11
15.3823033600
21
16.9254849420
100
AcDbText
0
TEXT
5
2C7
100
AcDbEntity
8
NOTE
100
AcDbText
62
2
6
CONTINUOUS
10
12.7573027152
20
16.6911099324
7
TEXTSTYLE_0
40
0.1562500000
1
 
72
5
11
12.8823027152
21
16.6911099324
100
AcDbText
0
TEXT
5
2C8
100
AcDbEntity
8
NOTE
100
AcDbText
62
2
6
CONTINUOUS
10
12.7573027152
20
16.4567349324
7
TEXTSTYLE_0
40
0.1562500000
1
PLANTILLA DE RECORTE
72
5
11
15.2573027152
21
16.4567349324
100
AcDbText
0
TEXT
5
2C9
100
AcDbEntity
8
NOTE
100
AcDbText
62
2
6
CONTINUOUS
10
12.7573027152
20
16.2223599324
7
TEXTSTYLE_0
40
0.1562500000
1
LABABO CON BORDE TERMINADO
72
5
11
16.0073027152
21
16.2223599324
100
AcDbText
0
TEXT
5
2CA
100
AcDbEntity
8
NOTE
100
AcDbText
62
2
6
CONTINUOUS
10
12.7573027152
20
15.9879849324
7
TEXTSTYLE_0
40
0.1562500000
1
 
72
5
11
12.8823027152
21
15.9879849324
100
AcDbText
0
TEXT
5
2CB
100
AcDbEntity
8
NOTE
100
AcDbText
62
2
6
CONTINUOUS
10
12.7573027152
20
15.7536099324
7
TEXTSTYLE_0
40
0.1562500000
1
GABARIT
72
5
11
13.6323027152
21
15.7536099324
100
AcDbText
0
TEXT
5
2CC
100
AcDbEntity
8
NOTE
100
AcDbText
62
2
6
CONTINUOUS
10
12.7573027152
20
15.5192349324
7
TEXTSTYLE_0
40
0.1562500000
1
LAVABO À REBORD INTÉGRÉ
72
5
11
15.6323027152
21
15.5192349324
100
AcDbText
0
TEXT
5
2CD
100
AcDbEntity
8
NOTE
100
AcDbText
62
2
6
CONTINUOUS
10
12.7573027152
20
15.2848599324
7
TEXTSTYLE_0
40
0.1562500000
1
 
72
5
11
12.8823027152
21
15.2848599324
100
AcDbText
0
TEXT
5
2CE
100
AcDbEntity
8
NOTE
100
AcDbText
62
2
6
CONTINUOUS
10
12.7573027152
20
14.9989223717
7
TEXTSTYLE_0
40
0.1562500384
1
FARMINGTON
72
5
11
14.3198030990
21
14.9989223717
100
AcDbText
0
TEXT
5
2CF
100
AcDbEntity
8
NOTE
100
AcDbText
62
2
6
CONTINUOUS
10
14.3198030990
20
15.1379849059
7
TEXTSTYLE_0
40
0.0687500169
1
TM
72
5
11
14.4573031328
21
15.1379849059
100
AcDbText
0
TEXT
5
2D0
100
AcDbEntity
8
NOTE
100
AcDbText
62
2
6
CONTINUOUS
10
14.4573031328
20
14.9989223717
7
TEXTSTYLE_0
40
0.1562500384
1
 
72
5
11
14.6135531712
21
14.9989223717
100
AcDbText
0
TEXT
5
2D1
100
AcDbEntity
8
NOTE
100
AcDbText
62
2
6
CONTINUOUS
10
14.6135531712
20
14.9989223717
7
TEXTSTYLE_0
40
0.1562500384
1
2905
72
5
11
15.2385533247
21
14.9989223717
100
AcDbText
0
TEXT
5
2D2
100
AcDbEntity
8
NOTE
100
AcDbText
62
2
6
CONTINUOUS
10
15.2385533247
20
14.9989223717
7
TEXTSTYLE_0
40
0.1562500384
1
-**-
72
5
11
15.8635534782
21
14.9989223717
100
AcDbText
0
TEXT
5
2D3
100
AcDbEntity
8
___NOTE
100
AcDbText
62
2
6
CONTINUOUS
10
15.0510591588
20
15.5697391512
7
TEXTSTYLE_0
40
0.1562500000
1
BB
72
5
11
15.3010591588
21
15.5697391512
100
AcDbText
0
TEXT
5
2D4
100
AcDbEntity
8
___NOTE
100
AcDbText
62
2
6
CONTINUOUS
10
15.0510591588
20
15.5697391512
7
TEXTSTYLE_0
40
0.1562500000
1
BB
72
5
11
15.3010591588
21
15.5697391512
100
AcDbText
0
TEXT
5
2D5
100
AcDbEntity
8
___NOTE
100
AcDbText
62
2
6
CONTINUOUS
10
9.6476501252
20
2.1750662282
7
TEXTSTYLE_0
40
0.1562500000
1
1002973-7-D
72
5
11
11.0226501252
21
2.1750662282
100
AcDbText
0
LINE
5
2D6
100
AcDbEntity
8
0
100
AcDbLine
62
7
6
CONTINUOUS
10
0.0000000000
20
0.0000000000
11
0.0000000000
21
20.0000000000
0
LINE
5
2D7
100
AcDbEntity
8
0
100
AcDbLine
62
7
6
CONTINUOUS
10
0.0000000000
20
0.0000000000
11
25.0000000000
21
0.0000000000
0
LINE
5
2D8
100
AcDbEntity
8
DRAFT_ENT
100
AcDbLine
62
2
6
CONTINUOUS
10
12.9377408952
20
17.8291010890
11
12.8516382746
21
17.7267128259
0
LINE
5
2D9
100
AcDbEntity
8
DRAFT_ENT
100
AcDbLine
62
2
6
CONTINUOUS
10
13.0577795507
20
17.8291010890
11
12.9244648678
21
17.6705708882
0
LINE
5
2DA
100
AcDbEntity
8
NOTE
100
AcDbLine
62
2
6
CONTINUOUS
10
17.5654459646
20
6.8621250071
11
17.3154459646
21
6.8621250071
0
LINE
5
2DB
100
AcDbEntity
8
NOTE
100
AcDbLine
62
2
6
CONTINUOUS
10
19.0368111279
20
8.4747412260
11
18.7868111279
21
8.4747412260
0
LINE
5
2DC
100
AcDbEntity
8
DEFAULT_1
100
AcDbLine
62
2
6
CENTER
10
12.1017810000
20
19.6493110000
11
12.1017810000
21
18.6493290000
0
LINE
5
2DD
100
AcDbEntity
8
DEFAULT_1
100
AcDbLine
62
2
6
CENTER
10
12.1017810000
20
3.0243110000
11
12.1017810000
21
2.3992930000
0
LINE
5
2DE
100
AcDbEntity
8
DRAFT_ENT
100
AcDbLine
62
2
6
CONTINUOUS
10
12.7425756119
20
17.8291010890
11
12.7425756119
21
17.4628899861
0
LINE
5
2DF
100
AcDbEntity
8
DRAFT_ENT
100
AcDbLine
62
2
6
CONTINUOUS
10
12.8516382746
20
17.8291010890
11
12.8516382746
21
17.7267128259
0
LINE
5
2E0
100
AcDbEntity
8
DRAFT_ENT
100
AcDbLine
62
2
6
CONTINUOUS
10
12.8516382746
20
17.5888424086
11
12.8516382746
21
17.4629049883
0
LINE
5
2E1
100
AcDbEntity
8
DRAFT_ENT
100
AcDbLine
62
2
6
CONTINUOUS
10
13.3902077753
20
17.8291010890
11
13.3902077753
21
17.4629049883
0
LINE
5
2E2
100
AcDbEntity
8
DRAFT_ENT
100
AcDbLine
62
2
6
CONTINUOUS
10
13.4931663449
20
17.8291010890
11
13.4931663449
21
17.6913612130
0
LINE
5
2E3
100
AcDbEntity
8
DRAFT_ENT
100
AcDbLine
62
2
6
CONTINUOUS
10
13.4931663449
20
17.6056078966
11
13.4931663449
21
17.4629049883
0
LINE
5
2E4
100
AcDbEntity
8
DRAFT_ENT
100
AcDbLine
62
2
6
CONTINUOUS
10
13.5856643694
20
17.8291010890
11
13.5856643694
21
17.6913612130
0
LINE
5
2E5
100
AcDbEntity
8
DRAFT_ENT
100
AcDbLine
62
2
6
CONTINUOUS
10
13.5856643694
20
17.6056078966
11
13.5856643694
21
17.4629049883
0
LINE
5
2E6
100
AcDbEntity
8
DRAFT_ENT
100
AcDbLine
62
2
6
CONTINUOUS
10
13.6886229390
20
17.8291010890
11
13.6886229390
21
17.4629049883
0
LINE
5
2E7
100
AcDbEntity
8
DRAFT_ENT
100
AcDbLine
62
2
6
CONTINUOUS
10
13.7167759720
20
17.4629049883
11
13.7167759720
21
17.8291010890
0
LINE
5
2E8
100
AcDbEntity
8
DRAFT_ENT
100
AcDbLine
62
2
6
CONTINUOUS
10
13.8105547791
20
17.8291010890
11
13.8105547791
21
17.5511717283
0
LINE
5
2E9
100
AcDbEntity
8
DRAFT_ENT
100
AcDbLine
62
2
6
CONTINUOUS
10
13.9122323422
20
17.5511717283
11
13.9122323422
21
17.4629049883
0
LINE
5
2EA
100
AcDbEntity
8
DRAFT_ENT
100
AcDbLine
62
2
6
CONTINUOUS
10
13.9304496824
20
17.4629049883
11
13.9304496824
21
17.8291010890
0
LINE
5
2EB
100
AcDbEntity
8
DRAFT_ENT
100
AcDbLine
62
2
6
CONTINUOUS
10
14.0293538587
20
17.7398764490
11
14.0293538587
21
17.6913612130
0
LINE
5
2EC
100
AcDbEntity
8
DRAFT_ENT
100
AcDbLine
62
2
6
CONTINUOUS
10
14.0293538587
20
17.6011226948
11
14.0293538587
21
17.5511717283
0
LINE
5
2ED
100
AcDbEntity
8
DRAFT_ENT
100
AcDbLine
62
2
6
CONTINUOUS
10
14.1236398289
20
17.4629049883
11
14.1236398289
21
17.5511717283
0
LINE
5
2EE
100
AcDbEntity
8
DRAFT_ENT
100
AcDbLine
62
2
6
CONTINUOUS
10
14.1236398289
20
17.6011226948
11
14.1236398289
21
17.6913612130
0
LINE
5
2EF
100
AcDbEntity
8
DRAFT_ENT
100
AcDbLine
62
2
6
CONTINUOUS
10
14.1236398289
20
17.7398764490
11
14.1236398289
21
17.8291010890
0
LINE
5
2F0
100
AcDbEntity
8
DRAFT_ENT
100
AcDbLine
62
2
6
CONTINUOUS
10
14.1516524684
20
17.4629049883
11
14.1516524684
21
17.8291010890
0
LINE
5
2F1
100
AcDbEntity
8
DRAFT_ENT
100
AcDbLine
62
2
6
CONTINUOUS
10
14.2458123755
20
17.7399893012
11
14.2458123755
21
17.6730498293
0
LINE
5
2F2
100
AcDbEntity
8
DRAFT_ENT
100
AcDbLine
62
2
6
CONTINUOUS
10
14.2458123755
20
17.5860027435
11
14.2458123755
21
17.4629049883
0
LINE
5
2F3
100
AcDbEntity
8
DEFAULT_1
100
AcDbLine
62
2
6
CENTER
10
2.0484410000
20
11.0243150000
11
2.9767780000
21
11.0243150000
0
LINE
5
2F4
100
AcDbEntity
8
DEFAULT_1
100
AcDbLine
62
2
6
CENTER
10
21.2267780000
20
11.0243150000
11
22.1684410000
21
11.0243150000
0
LINE
5
2F5
100
AcDbEntity
8
NOTE
100
AcDbLine
62
2
6
CONTINUOUS
10
18.6778366948
20
5.7136247481
11
17.5654459646
21
6.8621250071
0
LINE
5
2F6
100
AcDbEntity
8
DRAFT_ENT
100
AcDbLine
62
2
6
CONTINUOUS
10
14.5205988929
20
17.4423795526
11
14.5205988929
21
17.4836084348
0
LINE
5
2F7
100
AcDbEntity
8
0
100
AcDbLine
62
2
6
CONTINUOUS
10
18.5452400000
20
12.4756580000
11
15.5418300000
21
12.4756580000
0
LINE
5
2F8
100
AcDbEntity
8
0
100
AcDbLine
62
2
6
CONTINUOUS
10
18.4997100000
20
12.5655480000
11
15.5863200000
21
12.5655480000
0
LINE
5
2F9
100
AcDbEntity
8
0
100
AcDbLine
62
2
6
CONTINUOUS
10
15.5418300000
20
12.4756580000
11
15.5418300000
21
13.9328780000
0
LINE
5
2FA
100
AcDbEntity
8
0
100
AcDbLine
62
2
6
CONTINUOUS
10
15.5863200000
20
12.5655480000
11
15.5863200000
21
13.8895880000
0
LINE
5
2FB
100
AcDbEntity
8
NOTE
100
AcDbLine
62
2
6
CONTINUOUS
10
20.6084384093
20
7.1377852934
11
19.0368111279
21
8.4747412260
0
LINE
5
2FC
100
AcDbEntity
8
0
100
AcDbLine
62
2
6
CONTINUOUS
10
15.5863200000
20
13.8895880000
11
18.4997100000
21
13.8895880000
0
LINE
5
2FD
100
AcDbEntity
8
0
100
AcDbLine
62
2
6
CONTINUOUS
10
15.5418300000
20
13.9328780000
11
18.5452400000
21
13.9328780000
0
LINE
5
2FE
100
AcDbEntity
8
DRAFT_ENT
100
AcDbLine
62
2
6
CONTINUOUS
10
12.9477245055
20
17.4629049883
11
12.8516382746
21
17.5888424086
0
LINE
5
2FF
100
AcDbEntity
8
DRAFT_ENT
100
AcDbLine
62
2
6
CONTINUOUS
10
13.0829072947
20
17.4629049883
11
12.9244648678
21
17.6705708882
0
LINE
5
300
100
AcDbEntity
8
0
100
AcDbLine
62
2
6
CONTINUOUS
10
18.4997100000
20
13.8895880000
11
18.4997100000
21
12.5655480000
0
LINE
5
301
100
AcDbEntity
8
0
100
AcDbLine
62
2
6
CONTINUOUS
10
18.5452400000
20
13.9328780000
11
18.5452400000
21
12.4756580000
0
LINE
5
302
100
AcDbEntity
8
DRAFT_ENT
100
AcDbLine
62
2
6
CONTINUOUS
10
14.3238270336
20
17.4629049883
11
14.2458123755
21
17.5860027435
0
LINE
5
303
100
AcDbEntity
8
DRAFT_ENT
100
AcDbLine
62
2
6
CONTINUOUS
10
14.4425463935
20
17.4629049883
11
14.3428943476
21
17.6201441066
0
LINE
5
304
100
AcDbEntity
8
DRAFT_ENT
100
AcDbLine
62
2
6
CONTINUOUS
10
14.5278476294
20
17.4625688948
11
14.5477651411
21
17.4423795526
0
LINE
5
305
100
AcDbEntity
8
DRAFT_ENT
100
AcDbLine
62
2
6
CONTINUOUS
10
12.8516382746
20
17.4629049883
11
12.7425756119
21
17.4628899861
0
LINE
5
306
100
AcDbEntity
8
DRAFT_ENT
100
AcDbLine
62
2
6
CONTINUOUS
10
14.5357734789
20
17.4625688948
11
14.5205988929
21
17.4625688948
0
LINE
5
307
100
AcDbEntity
8
DRAFT_ENT
100
AcDbLine
62
2
6
CONTINUOUS
10
13.6886229390
20
17.4629049883
11
13.5856643694
21
17.4629049883
0
LINE
5
308
100
AcDbEntity
8
DRAFT_ENT
100
AcDbLine
62
2
6
CONTINUOUS
10
13.4931663449
20
17.4629049883
11
13.3902077753
21
17.4629049883
0
LINE
5
309
100
AcDbEntity
8
DRAFT_ENT
100
AcDbLine
62
2
6
CONTINUOUS
10
12.9477245055
20
17.4629049883
11
13.0829072947
21
17.4629049883
0
LINE
5
30A
100
AcDbEntity
8
DRAFT_ENT
100
AcDbLine
62
2
6
CONTINUOUS
10
13.7167759720
20
17.4629049883
11
13.9122323422
21
17.4629049883
0
LINE
5
30B
100
AcDbEntity
8
DRAFT_ENT
100
AcDbLine
62
2
6
CONTINUOUS
10
13.9304496824
20
17.4629049883
11
14.1236398289
21
17.4629049883
0
LINE
5
30C
100
AcDbEntity
8
DRAFT_ENT
100
AcDbLine
62
2
6
CONTINUOUS
10
14.1516524684
20
17.4629049883
11
14.2458123755
21
17.4629049883
0
LINE
5
30D
100
AcDbEntity
8
DRAFT_ENT
100
AcDbLine
62
2
6
CONTINUOUS
10
14.3238270336
20
17.4629049883
11
14.4425463935
21
17.4629049883
0
LINE
5
30E
100
AcDbEntity
8
DRAFT_ENT
100
AcDbLine
62
2
6
CONTINUOUS
10
14.5205988929
20
17.4836084348
11
14.5357734789
21
17.4836084348
0
LINE
5
30F
100
AcDbEntity
8
DRAFT_ENT
100
AcDbLine
62
2
6
CONTINUOUS
10
13.8105547791
20
17.5511717283
11
13.9122323422
21
17.5511717283
0
LINE
5
310
100
AcDbEntity
8
DRAFT_ENT
100
AcDbLine
62
2
6
CONTINUOUS
10
14.0293538587
20
17.5511717283
11
14.1236398289
21
17.5511717283
0
LINE
5
311
100
AcDbEntity
8
DRAFT_ENT
100
AcDbLine
62
2
6
CONTINUOUS
10
14.0293538587
20
17.6011226948
11
14.1236398289
21
17.6011226948
0
LINE
5
312
100
AcDbEntity
8
DRAFT_ENT
100
AcDbLine
62
2
6
CONTINUOUS
10
13.4931663449
20
17.6056078966
11
13.5856643694
21
17.6056078966
0
LINE
5
313
100
AcDbEntity
8
DRAFT_ENT
100
AcDbLine
62
2
6
CONTINUOUS
10
14.2458123755
20
17.6730498293
11
14.2785247256
21
17.6730498293
0
LINE
5
314
100
AcDbEntity
8
DRAFT_ENT
100
AcDbLine
62
2
6
CONTINUOUS
10
13.4931663449
20
17.6913612130
11
13.5856643694
21
17.6913612130
0
LINE
5
315
100
AcDbEntity
8
DRAFT_ENT
100
AcDbLine
62
2
6
CONTINUOUS
10
14.0293538587
20
17.6913612130
11
14.1236398289
21
17.6913612130
0
LINE
5
316
100
AcDbEntity
8
DRAFT_ENT
100
AcDbLine
62
2
6
CONTINUOUS
10
14.0293538587
20
17.7398764490
11
14.1236398289
21
17.7398764490
0
LINE
5
317
100
AcDbEntity
8
DRAFT_ENT
100
AcDbLine
62
2
6
CONTINUOUS
10
14.2807685580
20
17.7399893012
11
14.2458123755
21
17.7399893012
0
LINE
5
318
100
AcDbEntity
8
DRAFT_ENT
100
AcDbLine
62
2
6
CONTINUOUS
10
12.7425756119
20
17.8291010890
11
12.8516382746
21
17.8291010890
0
LINE
5
319
100
AcDbEntity
8
DRAFT_ENT
100
AcDbLine
62
2
6
CONTINUOUS
10
12.9377408952
20
17.8291010890
11
13.0577795507
21
17.8291010890
0
LINE
5
31A
100
AcDbEntity
8
DRAFT_ENT
100
AcDbLine
62
2
6
CONTINUOUS
10
13.3902077753
20
17.8291010890
11
13.4931663449
21
17.8291010890
0
LINE
5
31B
100
AcDbEntity
8
DRAFT_ENT
100
AcDbLine
62
2
6
CONTINUOUS
10
13.5856643694
20
17.8291010890
11
13.6886229390
21
17.8291010890
0
LINE
5
31C
100
AcDbEntity
8
DRAFT_ENT
100
AcDbLine
62
2
6
CONTINUOUS
10
13.7167759720
20
17.8291010890
11
13.8105547791
21
17.8291010890
0
LINE
5
31D
100
AcDbEntity
8
DRAFT_ENT
100
AcDbLine
62
2
6
CONTINUOUS
10
13.9304496824
20
17.8291010890
11
14.1236398289
21
17.8291010890
0
LINE
5
31E
100
AcDbEntity
8
DRAFT_ENT
100
AcDbLine
62
2
6
CONTINUOUS
10
14.1516524684
20
17.8291010890
11
14.2976198092
21
17.8291010890
0
LINE
5
31F
100
AcDbEntity
8
0
100
AcDbLine
62
7
6
CONTINUOUS
10
0.0000000000
20
20.0000000000
11
25.0000000000
21
20.0000000000
0
LINE
5
320
100
AcDbEntity
8
0
100
AcDbLine
62
7
6
CONTINUOUS
10
25.0000000000
20
0.0000000000
11
25.0000000000
21
20.0000000000
0
ARC
5
321
100
AcDbEntity
8
DEFAULT_2
100
AcDbCircle
62
8
6
CONTINUOUS
10
12.1017610000
20
13.8992450000
40
10.9999510000
100
AcDbArc
50
229.6056700000
51
310.3944890000
0
ARC
5
322
100
AcDbEntity
8
DEFAULT_2
100
AcDbCircle
62
8
6
CONTINUOUS
10
9.7892910000
20
11.0243150000
40
7.3125090000
100
AcDbArc
50
131.2219760000
51
228.7780760000
0
CIRCLE
5
323
100
AcDbEntity
8
DRAFT_ENT
100
AcDbCircle
62
2
6
CONTINUOUS
10
13.2542512667
20
4.1552251118
40
0.0671462066
0
CIRCLE
5
324
100
AcDbEntity
8
DRAFT_ENT
100
AcDbCircle
62
2
6
CONTINUOUS
10
13.1932253387
20
17.6453022561
40
0.1862854049
0
CIRCLE
5
325
100
AcDbEntity
8
DRAFT_ENT
100
AcDbCircle
62
2
6
CONTINUOUS
10
13.1932253387
20
17.6453022561
40
0.0779808993
0
ARC
5
326
100
AcDbEntity
8
DRAFT_ENT
100
AcDbCircle
62
2
6
CONTINUOUS
10
14.2976198092
20
17.7197201239
40
0.1093854061
100
AcDbArc
50
294.4500166359
51
90.0000000000
0
ARC
5
327
100
AcDbEntity
8
DRAFT_ENT
100
AcDbCircle
62
2
6
CONTINUOUS
10
14.2807684943
20
17.7064819604
40
0.0335073408
100
AcDbArc
50
266.1604009902
51
89.9998910512
0
CIRCLE
5
328
100
AcDbEntity
8
DRAFT_ENT
100
AcDbCircle
62
2
6
CONTINUOUS
10
14.5305276444
20
17.4629049883
40
0.0408486778
0
ARC
5
329
100
AcDbEntity
8
DRAFT_ENT
100
AcDbCircle
62
2
6
CONTINUOUS
10
14.5357734789
20
17.4730887768
40
0.0105196580
100
AcDbArc
50
270.0000000000
51
90.0000000000
0
ARC
5
32A
100
AcDbEntity
8
0
100
AcDbCircle
62
7
6
CONTINUOUS
10
12.1017710000
20
8.1493750000
40
10.4999540000
100
AcDbArc
50
49.6055400000
51
130.3943770000
0
CIRCLE
5
32B
100
AcDbEntity
8
___NOTE
100
AcDbCircle
62
2
6
CONTINUOUS
10
15.1760591588
20
15.6478641512
40
0.2255309552
0
SPLINE
5
32C
100
AcDbEntity
8
DEFAULT_2
100
AcDbSpline
62
8
6
CONTINUOUS
70
0
71
3
72
39
73
35
74
33
42
0.0000001000
43
0.0000001000
44
0.0000000001
40
0.0000000000
40
0.0000000000
40
0.0000000000
40
0.0000000000
40
0.0312500000
40
0.0625000000
40
0.0937500000
40
0.1250000000
40
0.1562500000
40
0.1875000000
40
0.2187500000
40
0.2500000000
40
0.2812500000
40
0.3125000000
40
0.3437500000
40
0.3750000000
40
0.4062500000
40
0.4375000000
40
0.4687500000
40
0.5000000000
40
0.5312500000
40
0.5625000000
40
0.5937500000
40
0.6250000000
40
0.6562500000
40
0.6875000000
40
0.7187500000
40
0.7500000000
40
0.7812500000
40
0.8125000000
40
0.8437500000
40
0.8750000000
40
0.9062500000
40
0.9375000000
40
0.9687500000
40
1.0000000000
40
1.0000000000
40
1.0000000000
40
1.0000000000
10
19.2302490846
20
16.5269543559
30
0.0000000000
10
19.1072003249
20
16.6316555933
30
0.0000000000
10
18.8564886367
20
16.8356352401
30
0.0000000000
10
18.4673085987
20
17.1247422976
30
0.0000000000
10
18.0657715534
20
17.3964257103
30
0.0000000000
10
17.6526569754
20
17.6501580794
30
0.0000000000
10
17.2287668172
20
17.8854468506
30
0.0000000000
10
16.7949239483
20
18.1018352737
30
0.0000000000
10
16.3519705591
20
18.2989032882
30
0.0000000000
10
15.9007665252
20
18.4762683390
30
0.0000000000
10
15.4421877392
20
18.6335861194
30
0.0000000000
10
14.9771244093
20
18.7705512387
30
0.0000000000
10
14.5064793321
20
18.8868978157
30
0.0000000000
10
14.0311661394
20
18.9823999946
30
0.0000000000
10
13.5521075250
20
19.0568723833
30
0.0000000000
10
13.0702334535
20
19.1101704135
30
0.0000000000
10
12.5864793548
20
19.1421906214
30
0.0000000000
10
12.1017843087
20
19.1528708482
30
0.0000000000
10
11.6170892211
20
19.1421903612
30
0.0000000000
10
11.1333349985
20
19.1101698935
30
0.0000000000
10
10.6514607206
20
19.0568716046
30
0.0000000000
10
10.1724018178
20
18.9823989587
30
0.0000000000
10
9.6970882552
20
18.8868965247
30
0.0000000000
10
9.2264427273
20
18.7705496950
30
0.0000000000
10
8.7613788670
20
18.6335843260
30
0.0000000000
10
8.3027994716
20
18.4762662994
30
0.0000000000
10
7.8515947509
20
18.2989010062
30
0.0000000000
10
7.4086405983
20
18.1018327540
30
0.0000000000
10
6.9747968914
20
17.8854440979
30
0.0000000000
10
6.5509058219
20
17.6501550992
30
0.0000000000
10
6.1377902613
20
17.3964225083
30
0.0000000000
10
5.7362521637
20
17.1247388800
30
0.0000000000
10
5.3470710060
20
16.8356316135
30
0.0000000000
10
5.0963585277
20
16.6316518321
30
0.0000000000
10
4.9733093625
20
16.5269505287
30
0.0000000000
11
19.2302490846
21
16.5269543559
31
0.0000000000
11
18.8543032191
21
16.8328248380
31
0.0000000000
11
18.4652490975
21
17.1218383568
31
0.0000000000
11
18.0638419646
21
17.3934338697
31
0.0000000000
11
17.6508610454
21
17.6470841464
31
0.0000000000
11
17.2271080321
21
17.8822967926
31
0.0000000000
11
16.7934055283
21
18.0986152056
31
0.0000000000
11
16.3505954516
21
18.2956194609
31
0.0000000000
11
15.8995373999
21
18.4729271273
31
0.0000000000
11
15.4411069819
21
18.6301940092
31
0.0000000000
11
14.9761941181
21
18.7671148150
31
0.0000000000
11
14.5057013128
21
18.8834237494
31
0.0000000000
11
14.0305419024
21
18.9788950296
31
0.0000000000
11
13.5516382821
21
19.0533433235
31
0.0000000000
11
13.0699201156
21
19.1066241098
31
0.0000000000
11
12.5863225302
21
19.1386339579
31
0.0000000000
11
12.1017843018
21
19.1493107292
31
0.0000000000
11
11.6172460320
21
19.1386336977
31
0.0000000000
11
11.1336483226
21
19.1066235900
31
0.0000000000
11
10.6519299498
21
19.0533425451
31
0.0000000000
11
10.1730260411
21
18.9788939940
31
0.0000000000
11
9.6978662610
21
18.8834224587
31
0.0000000000
11
9.2273730052
21
18.7671132717
31
0.0000000000
11
8.7624596111
21
18.6301922164
31
0.0000000000
11
8.3040285841
21
18.4729250883
31
0.0000000000
11
7.8529698456
21
18.2956171797
31
0.0000000000
11
7.4101590059
21
18.0986126867
31
0.0000000000
11
6.9764556643
21
17.8822940408
31
0.0000000000
11
6.5527017401
21
17.6470811671
31
0.0000000000
11
6.1397198385
21
17.3934306687
31
0.0000000000
11
5.7383116537
21
17.1218349403
31
0.0000000000
11
5.3492564127
21
16.8328212126
31
0.0000000000
11
4.9733093625
21
16.5269505287
31
0.0000000000
0
SPLINE
5
32D
100
AcDbEntity
8
DEFAULT_2
100
AcDbSpline
62
8
6
CONTINUOUS
70
0
71
3
72
39
73
35
74
33
42
0.0000001000
43
0.0000001000
44
0.0000000001
40
0.0000000000
40
0.0000000000
40
0.0000000000
40
0.0000000000
40
0.0312500000
40
0.0625000000
40
0.0937500000
40
0.1250000000
40
0.1562500000
40
0.1875000000
40
0.2187500000
40
0.2500000000
40
0.2812500000
40
0.3125000000
40
0.3437500000
40
0.3750000000
40
0.4062500000
40
0.4375000000
40
0.4687500000
40
0.5000000000
40
0.5312500000
40
0.5625000000
40
0.5937500000
40
0.6250000000
40
0.6562500000
40
0.6875000000
40
0.7187500000
40
0.7500000000
40
0.7812500000
40
0.8125000000
40
0.8437500000
40
0.8750000000
40
0.9062500000
40
0.9375000000
40
0.9687500000
40
1.0000000000
40
1.0000000000
40
1.0000000000
40
1.0000000000
10
19.2330468997
20
5.5241137390
30
0.0000000000
10
19.3305994259
20
5.6095801333
30
0.0000000000
10
19.5211558449
20
5.7857048375
30
0.0000000000
10
19.7925355682
20
6.0647199024
30
0.0000000000
10
20.0486922242
20
6.3577732038
30
0.0000000000
10
20.2889007596
20
6.6640352507
30
0.0000000000
10
20.5124812571
20
6.9826391601
30
0.0000000000
10
20.7188008671
20
7.3126831163
30
0.0000000000
10
20.9072755968
20
7.6532329217
30
0.0000000000
10
21.0773719641
20
8.0033246420
30
0.0000000000
10
21.2286085070
20
8.3619673342
30
0.0000000000
10
21.3605571468
20
8.7281458513
30
0.0000000000
10
21.4728443998
20
9.1008237165
30
0.0000000000
10
21.5651524342
20
9.4789460558
30
0.0000000000
10
21.6372199699
20
9.8614425851
30
0.0000000000
10
21.6888430179
20
10.2472306386
30
0.0000000000
10
21.7198754580
20
10.6352182339
30
0.0000000000
10
21.7302294522
20
11.0243071628
30
0.0000000000
10
21.7198756932
20
11.4133960998
30
0.0000000000
10
21.6888434875
20
11.8013837192
30
0.0000000000
10
21.6372206725
20
12.1871718127
30
0.0000000000
10
21.5651533680
20
12.5696683979
30
0.0000000000
10
21.4728455621
20
12.9477908088
30
0.0000000000
10
21.3605585343
20
13.3204687611
30
0.0000000000
10
21.2286101157
20
13.6866473806
30
0.0000000000
10
21.0773737896
20
14.0452901900
30
0.0000000000
10
20.9072776339
20
14.3953820423
30
0.0000000000
10
20.7188031099
20
14.7359319939
30
0.0000000000
10
20.5124836994
20
15.0659761100
30
0.0000000000
10
20.2889033944
20
15.3845801929
30
0.0000000000
10
20.0486950441
20
15.6908424261
30
0.0000000000
10
19.7925385651
20
15.9838959261
30
0.0000000000
10
19.5211590104
20
16.2629112016
30
0.0000000000
10
19.3306026979
20
16.4390360535
30
0.0000000000
10
19.2330502233
20
16.5245025235
30
0.0000000000
11
19.2330468997
21
5.5241137390
31
0.0000000000
11
19.5187466940
21
5.7881761723
31
0.0000000000
11
19.7899983903
21
6.0670596085
31
0.0000000000
11
20.0460342041
21
6.3599746614
31
0.0000000000
11
20.2861294200
21
6.6660922278
31
0.0000000000
11
20.5096044425
21
6.9845458346
31
0.0000000000
11
20.7158267204
21
7.3144340912
31
0.0000000000
11
20.9042125364
21
7.6548232408
31
0.0000000000
11
21.0742286600
21
8.0047498040
31
0.0000000000
11
21.2253938565
21
8.3632233050
31
0.0000000000
11
21.3572802490
21
8.7292290760
31
0.0000000000
11
21.4695145300
21
9.1017311288
31
0.0000000000
11
21.5617790177
21
9.4796750875
31
0.0000000000
11
21.6338125553
21
9.8619911725
31
0.0000000000
11
21.6854112499
21
10.2475972289
31
0.0000000000
11
21.7164290504
21
10.6354017895
31
0.0000000000
11
21.7267781600
21
11.0243071642
31
0.0000000000
11
21.7164292854
21
11.4132125469
31
0.0000000000
11
21.6854117193
21
11.8010171316
31
0.0000000000
11
21.6338132576
21
12.1866232280
31
0.0000000000
11
21.5617799511
21
12.5689393688
31
0.0000000000
11
21.4695156918
21
12.9468833990
31
0.0000000000
11
21.3572816358
21
13.3193855389
31
0.0000000000
11
21.2253954645
21
13.6853914122
31
0.0000000000
11
21.0742304846
21
14.0438650305
31
0.0000000000
11
20.9042145725
21
14.3937917255
31
0.0000000000
11
20.7158289622
21
14.7341810213
31
0.0000000000
11
20.5096068836
21
15.0640694378
31
0.0000000000
11
20.2861320535
21
15.3825232179
31
0.0000000000
11
20.0460370226
21
15.6886409706
31
0.0000000000
11
19.7900013858
21
15.9815562220
31
0.0000000000
11
19.5187498580
21
16.2604398686
31
0.0000000000
11
19.2330502233
21
16.5245025235
31
0.0000000000
0
SPLINE
5
32E
100
AcDbEntity
8
0
100
AcDbSpline
62
2
6
CONTINUOUS
70
0
71
3
72
39
73
35
74
33
42
0.0000001000
43
0.0000001000
44
0.0000000001
40
0.0000000000
40
0.0000000000
40
0.0000000000
40
0.0000000000
40
0.0312500000
40
0.0625000000
40
0.0937500000
40
0.1250000000
40
0.1562500000
40
0.1875000000
40
0.2187500000
40
0.2500000000
40
0.2812500000
40
0.3125000000
40
0.3437500000
40
0.3750000000
40
0.4062500000
40
0.4375000000
40
0.4687500000
40
0.5000000000
40
0.5312500000
40
0.5625000000
40
0.5937500000
40
0.6250000000
40
0.6562500000
40
0.6875000000
40
0.7187500000
40
0.7500000000
40
0.7812500000
40
0.8125000000
40
0.8437500000
40
0.8750000000
40
0.9062500000
40
0.9375000000
40
0.9687500000
40
1.0000000000
40
1.0000000000
40
1.0000000000
40
1.0000000000
10
16.5816757016
20
12.9201636543
30
0.0000000000
10
16.5747011625
20
12.9185223259
30
0.0000000000
10
16.5610747456
20
12.9138688526
30
0.0000000000
10
16.5423844187
20
12.9030430943
30
0.0000000000
10
16.5261587252
20
12.8887860528
30
0.0000000000
10
16.5130184424
20
12.8716432217
30
0.0000000000
10
16.5034663613
20
12.8522705273
30
0.0000000000
10
16.4978679620
20
12.8314092112
30
0.0000000000
10
16.4964374527
20
12.8098574742
30
0.0000000000
10
16.4992295677
20
12.7884399338
30
0.0000000000
10
16.5061374744
20
12.7679760728
30
0.0000000000
10
16.5168968610
20
12.7492488843
30
0.0000000000
10
16.5310960492
20
12.7329749123
30
0.0000000000
10
16.5481917465
20
12.7197768353
30
0.0000000000
10
16.5675298334
20
12.7101596411
30
0.0000000000
10
16.5883703914
20
12.7044913051
30
0.0000000000
10
16.6099160143
20
12.7029887104
30
0.0000000000
10
16.6313423185
20
12.7057093497
30
0.0000000000
10
16.6518294858
20
12.7125491253
30
0.0000000000
10
16.6705936314
20
12.7232463320
30
0.0000000000
10
16.6869167973
20
12.7373916709
30
0.0000000000
10
16.7001744227
20
12.7544439098
30
0.0000000000
10
16.7098592413
20
12.7737505918
30
0.0000000000
10
16.7156006902
20
12.7945730004
30
0.0000000000
10
16.7171790889
20
12.8161144236
30
0.0000000000
10
16.7145340443
20
12.8375506385
30
0.0000000000
10
16.7077667616
20
12.8580614477
30
0.0000000000
10
16.6971361724
20
12.8768620620
30
0.0000000000
10
16.6830490263
20
12.8932331277
30
0.0000000000
10
16.6660443301
20
12.9065482516
30
0.0000000000
10
16.6467727175
20
12.9162979664
30
0.0000000000
10
16.6259715779
20
12.9221092297
30
0.0000000000
10
16.6044367553
20
12.9237596774
30
0.0000000000
10
16.5901405330
20
12.9220440287
30
0.0000000000
10
16.5831441291
20
12.9204986009
30
0.0000000000
11
16.5816757016
21
12.9201636543
31
0.0000000000
11
16.5613662953
21
12.9132279279
31
0.0000000000
11
16.5427951909
21
12.9024712138
31
0.0000000000
11
16.5266729603
21
12.8883050879
31
0.0000000000
11
16.5136164760
21
12.8712715778
31
0.0000000000
11
16.5041253083
21
12.8520224237
31
0.0000000000
11
16.4985626103
21
12.8312941411
31
0.0000000000
11
16.4971412234
21
12.8098798403
31
0.0000000000
11
16.4999155330
21
12.7885988804
31
0.0000000000
11
16.5067793877
21
12.7682655182
31
0.0000000000
11
16.5174701612
21
12.7496577537
31
0.0000000000
11
16.5315788007
21
12.7334875615
31
0.0000000000
11
16.5485654781
21
12.7203736491
31
0.0000000000
11
16.5677802452
21
12.7108177841
31
0.0000000000
11
16.5884879022
21
12.7051855953
31
0.0000000000
11
16.6098961278
21
12.7036925827
31
0.0000000000
11
16.6311857957
21
12.7063958724
31
0.0000000000
11
16.6515423155
21
12.7131920305
31
0.0000000000
11
16.6701868015
21
12.7238210207
31
0.0000000000
11
16.6864058739
21
12.7378761543
31
0.0000000000
11
16.6995789549
21
12.7548196503
31
0.0000000000
11
16.7092020130
21
12.7740032129
31
0.0000000000
11
16.7149068485
21
12.7946928361
31
0.0000000000
11
16.7164751817
21
12.8160968888
31
0.0000000000
11
16.7138470046
21
12.8373964042
31
0.0000000000
11
16.7071228772
21
12.8577764152
31
0.0000000000
11
16.6965600796
21
12.8764571372
31
0.0000000000
11
16.6825627679
21
12.8927238040
31
0.0000000000
11
16.6656665107
21
12.9059540167
31
0.0000000000
11
16.6465177963
21
12.9156415578
31
0.0000000000
11
16.6258492974
21
12.9214157604
31
0.0000000000
11
16.6044518368
21
12.9230556906
31
0.0000000000
11
16.5831441291
21
12.9204986009
31
0.0000000000
0
SPLINE
5
32F
100
AcDbEntity
8
0
100
AcDbSpline
62
7
6
CONTINUOUS
70
0
71
3
72
15
73
11
74
9
42
0.0000001000
43
0.0000001000
44
0.0000000001
40
0.0000000000
40
0.0000000000
40
0.0000000000
40
0.0000000000
40
0.1250000000
40
0.2500000000
40
0.3750000000
40
0.5000000000
40
0.6250000000
40
0.7500000000
40
0.8750000000
40
1.0000000000
40
1.0000000000
40
1.0000000000
40
1.0000000000
10
12.9368226215
20
3.0564149874
30
0.0000000000
10
12.9507487256
20
3.0574875041
30
0.0000000000
10
12.9784205012
20
3.0619720890
30
0.0000000000
10
13.0182243973
20
3.0755291587
30
0.0000000000
10
13.0552087862
20
3.0955364605
30
0.0000000000
10
13.0883372189
20
3.1214332830
30
0.0000000000
10
13.1166812393
20
3.1524938572
30
0.0000000000
10
13.1394464935
20
3.1878476797
30
0.0000000000
10
13.1559949812
20
3.2265039986
30
0.0000000000
10
13.1625735871
20
3.2537541577
30
0.0000000000
10
13.1647033885
20
3.2675582651
30
0.0000000000
11
12.9368226215
21
3.0564149874
31
0.0000000000
11
12.9781365400
21
3.0631104544
31
0.0000000000
11
13.0177544795
21
3.0766041974
31
0.0000000000
11
13.0545661269
21
3.0965180473
31
0.0000000000
11
13.0875398169
21
3.1222939083
31
0.0000000000
11
13.1157514449
21
3.1532093986
31
0.0000000000
11
13.1384103658
21
3.1883980958
31
0.0000000000
11
13.1548815514
21
3.2268738186
31
0.0000000000
11
13.1647033885
21
3.2675582651
31
0.0000000000
0
SPLINE
5
330
100
AcDbEntity
8
0
100
AcDbSpline
62
7
6
CONTINUOUS
70
0
71
3
72
39
73
35
74
33
42
0.0000001000
43
0.0000001000
44
0.0000000001
40
0.0000000000
40
0.0000000000
40
0.0000000000
40
0.0000000000
40
0.0312500000
40
0.0625000000
40
0.0937500000
40
0.1250000000
40
0.1562500000
40
0.1875000000
40
0.2187500000
40
0.2500000000
40
0.2812500000
40
0.3125000000
40
0.3437500000
40
0.3750000000
40
0.4062500000
40
0.4375000000
40
0.4687500000
40
0.5000000000
40
0.5312500000
40
0.5625000000
40
0.5937500000
40
0.6250000000
40
0.6562500000
40
0.6875000000
40
0.7187500000
40
0.7500000000
40
0.7812500000
40
0.8125000000
40
0.8437500000
40
0.8750000000
40
0.9062500000
40
0.9375000000
40
0.9687500000
40
1.0000000000
40
1.0000000000
40
1.0000000000
40
1.0000000000
10
5.2999991108
20
16.1484224914
30
0.0000000000
10
5.2091166163
20
16.0687993591
30
0.0000000000
10
5.0315892856
20
15.9047162726
30
0.0000000000
10
4.7787649411
20
15.6447777798
30
0.0000000000
10
4.5401228751
20
15.3717611856
30
0.0000000000
10
4.3163385539
20
15.0864392529
30
0.0000000000
10
4.1080453942
20
14.7896195789
30
0.0000000000
10
3.9158329639
20
14.4821423035
30
0.0000000000
10
3.7402453153
20
14.1648777333
30
0.0000000000
10
3.5817794448
20
13.8387238771
30
0.0000000000
10
3.4408838856
20
13.5046039049
30
0.0000000000
10
3.3179574392
20
13.1634635346
30
0.0000000000
10
3.2133480454
20
12.8162683549
30
0.0000000000
10
3.1273517984
20
12.4640010927
30
0.0000000000
10
3.0602121085
20
12.1076588312
30
0.0000000000
10
3.0121190126
20
11.7482501878
30
0.0000000000
10
2.9832086370
20
11.3867924592
30
0.0000000000
10
2.9735628118
20
11.0243087421
30
0.0000000000
10
2.9832088393
20
10.6618250370
30
0.0000000000
10
3.0121194166
20
10.3003673446
30
0.0000000000
10
3.0602127131
20
9.9409587613
30
0.0000000000
10
3.1273526019
20
9.5846165837
30
0.0000000000
10
3.2133490454
20
9.2323494289
30
0.0000000000
10
3.3179586330
20
8.8851543799
30
0.0000000000
10
3.4408852698
20
8.5440141632
30
0.0000000000
10
3.5817810154
20
8.2098943671
30
0.0000000000
10
3.7402470680
20
7.8837407089
30
0.0000000000
10
3.9158348936
20
7.5664763580
30
0.0000000000
10
4.1080474955
20
7.2589993228
30
0.0000000000
10
4.3163408209
20
6.9621799090
30
0.0000000000
10
4.5401253013
20
6.6768582559
30
0.0000000000
10
4.7787675197
20
6.4038419599
30
0.0000000000
10
5.0315920092
20
6.1439037830
30
0.0000000000
10
5.2091194315
20
5.9798209183
30
0.0000000000
10
5.3000019704
20
5.9001978995
30
0.0000000000
11
5.2999991108
21
16.1484224914
31
0.0000000000
11
5.0338337275
21
15.9024139621
31
0.0000000000
11
4.7811286542
21
15.6425980963
31
0.0000000000
11
4.5425991659
21
15.3697102959
31
0.0000000000
11
4.3189204142
21
15.0845229627
31
0.0000000000
11
4.1107255158
21
14.7878433120
31
0.0000000000
11
3.9186037608
21
14.4805110877
31
0.0000000000
11
3.7430989450
21
14.1633961856
31
0.0000000000
11
3.5847078300
21
13.8373961911
31
0.0000000000
11
3.4438787378
21
13.5034338386
31
0.0000000000
11
3.3210102813
21
13.1624543997
31
0.0000000000
11
3.2164502365
21
12.8154230078
31
0.0000000000
11
3.1304945579
21
12.4633219261
31
0.0000000000
11
3.0633865408
21
12.1071477675
31
0.0000000000
11
3.0153161326
21
11.7479086736
31
0.0000000000
11
2.9864193954
21
11.3866214612
31
0.0000000000
11
2.9767781206
21
11.0243087441
31
0.0000000000
11
2.9864195976
21
10.6619960391
31
0.0000000000
11
3.0153165365
21
10.3007088628
31
0.0000000000
11
3.0633871451
21
9.9414698289
31
0.0000000000
11
3.1304953610
21
9.5852957542
31
0.0000000000
11
3.2164512361
21
9.2331947799
31
0.0000000000
11
3.3210114745
21
8.8861635186
31
0.0000000000
11
3.4438801213
21
8.5451842333
31
0.0000000000
11
3.5847093999
21
8.2112220567
31
0.0000000000
11
3.7431006968
21
7.8852222601
31
0.0000000000
11
3.9186056896
21
7.5681075773
31
0.0000000000
11
4.1107276161
21
7.2607755930
31
0.0000000000
11
4.3189226801
21
6.9640962024
31
0.0000000000
11
4.5426015910
21
6.6789091487
31
0.0000000000
11
4.7811312315
21
6.4060216464
31
0.0000000000
11
5.0338364498
21
6.1462060963
31
0.0000000000
11
5.3000019704
21
5.9001978995
31
0.0000000000
0
SPLINE
5
331
100
AcDbEntity
8
0
100
AcDbSpline
62
7
6
CONTINUOUS
70
0
71
3
72
23
73
19
74
17
42
0.0000001000
43
0.0000001000
44
0.0000000001
40
0.0000000000
40
0.0000000000
40
0.0000000000
40
0.0000000000
40
0.0625000000
40
0.1250000000
40
0.1875000000
40
0.2500000000
40
0.3125000000
40
0.3750000000
40
0.4375000000
40
0.5000000000
40
0.5625000000
40
0.6250000000
40
0.6875000000
40
0.7500000000
40
0.8125000000
40
0.8750000000
40
0.9375000000
40
1.0000000000
40
1.0000000000
40
1.0000000000
40
1.0000000000
10
5.2973284366
20
5.9024702817
30
0.0000000000
10
5.3944316807
20
5.8198459449
30
0.0000000000
10
5.5916482353
20
5.6581349802
30
0.0000000000
10
5.8961107879
20
5.4265034787
30
0.0000000000
10
6.2088071073
20
5.2061142463
30
0.0000000000
10
6.5293223197
20
4.9972596873
30
0.0000000000
10
6.8572311759
20
4.8002169030
30
0.0000000000
10
7.1920986178
20
4.6152473231
30
0.0000000000
10
7.5334803545
20
4.4425963589
30
0.0000000000
10
7.8809234522
20
4.2824930779
30
0.0000000000
10
8.2339669353
20
4.1351498996
30
0.0000000000
10
8.5921423977
20
4.0007623141
30
0.0000000000
10
8.9549746242
20
3.8795086223
30
0.0000000000
10
9.3219822213
20
3.7715496993
30
0.0000000000
10
9.6926782559
20
3.6770287815
30
0.0000000000
10
10.0665709007
20
3.5960712760
30
0.0000000000
10
10.4431640888
20
3.5287845945
30
0.0000000000
10
10.6956934727
20
3.4931002055
30
0.0000000000
10
10.8222412202
20
3.4775631965
30
0.0000000000
11
5.2973284366
21
5.9024702817
31
0.0000000000
11
5.5930878554
21
5.6599574711
31
0.0000000000
11
5.8974830824
21
5.4283771902
31
0.0000000000
11
6.2101102562
21
5.2080366919
31
0.0000000000
11
6.5305545937
21
4.9992283165
31
0.0000000000
11
6.8583909402
21
4.8022291038
31
0.0000000000
11
7.1931843336
21
4.6173004257
31
0.0000000000
11
7.5344905813
21
4.4446876394
31
0.0000000000
11
7.8818568498
21
4.2846197617
31
0.0000000000
11
8.2348222652
21
4.1373091651
31
0.0000000000
11
8.5929185250
21
4.0029512964
31
0.0000000000
11
8.9556705193
21
3.8817244171
31
0.0000000000
11
9.3225969609
21
3.7737893668
31
0.0000000000
11
9.6932110242
21
3.6792893502
31
0.0000000000
11
10.0670209912
21
3.5983497467
31
0.0000000000
11
10.4435309034
21
3.5310779441
31
0.0000000000
11
10.8222412202
21
3.4775631965
31
0.0000000000
0
SPLINE
5
332
100
AcDbEntity
8
0
100
AcDbSpline
62
7
6
CONTINUOUS
70
0
71
3
72
15
73
11
74
9
42
0.0000001000
43
0.0000001000
44
0.0000000001
40
0.0000000000
40
0.0000000000
40
0.0000000000
40
0.0000000000
40
0.1250000000
40
0.2500000000
40
0.3750000000
40
0.5000000000
40
0.6250000000
40
0.7500000000
40
0.8750000000
40
1.0000000000
40
1.0000000000
40
1.0000000000
40
1.0000000000
10
11.0388533665
20
3.2675533504
30
0.0000000000
10
11.0367952209
20
3.2808908782
30
0.0000000000
10
11.0305145811
20
3.3072314192
30
0.0000000000
10
11.0148469246
20
3.3447057557
30
0.0000000000
10
10.9933424640
20
3.3791631102
30
0.0000000000
10
10.9665637488
20
3.4097021274
30
0.0000000000
10
10.9352113077
20
3.4355238954
30
0.0000000000
10
10.9001053322
20
3.4559529193
30
0.0000000000
10
10.8621641450
20
3.4704547815
30
0.0000000000
10
10.8356416928
20
3.4759183218
30
0.0000000000
10
10.8222467292
20
3.4775632823
30
0.0000000000
11
11.0388533665
21
3.2675533504
31
0.0000000000
11
11.0294734650
21
3.3068920067
31
0.0000000000
11
11.0138741239
21
3.3442029253
31
0.0000000000
11
10.9924634215
21
3.3785100540
31
0.0000000000
11
10.9658014611
21
3.4089159192
31
0.0000000000
11
10.9345857187
21
3.4346251047
31
0.0000000000
11
10.8996327969
21
3.4549650590
31
0.0000000000
11
10.8618570631
21
3.4694036895
31
0.0000000000
11
10.8222467292
21
3.4775632823
31
0.0000000000
0
SPLINE
5
333
100
AcDbEntity
8
0
100
AcDbSpline
62
7
6
CONTINUOUS
70
0
71
3
72
11
73
7
74
5
42
0.0000001000
43
0.0000001000
44
0.0000000001
40
0.0000000000
40
0.0000000000
40
0.0000000000
40
0.0000000000
40
0.2500000000
40
0.5000000000
40
0.7500000000
40
1.0000000000
40
1.0000000000
40
1.0000000000
40
1.0000000000
10
11.2667310599
20
3.0564174227
30
0.0000000000
10
11.4056141491
20
3.0457214840
30
0.0000000000
10
11.6838168920
20
3.0296670705
30
0.0000000000
10
12.1017763468
20
3.0216356028
30
0.0000000000
10
12.5197357320
20
3.0296668825
30
0.0000000000
10
12.7979383360
20
3.0457211707
30
0.0000000000
10
12.9368213326
20
3.0564170470
30
0.0000000000
11
11.2667310599
21
3.0564174227
31
0.0000000000
11
11.6839261154
21
3.0323420959
31
0.0000000000
11
12.1017763352
21
3.0243127274
31
0.0000000000
11
12.5196264855
21
3.0323419079
31
0.0000000000
11
12.9368213326
21
3.0564170470
31
0.0000000000
0
SPLINE
5
334
100
AcDbEntity
8
0
100
AcDbSpline
62
7
6
CONTINUOUS
70
0
71
3
72
15
73
11
74
9
42
0.0000001000
43
0.0000001000
44
0.0000000001
40
0.0000000000
40
0.0000000000
40
0.0000000000
40
0.0000000000
40
0.1250000000
40
0.2500000000
40
0.3750000000
40
0.5000000000
40
0.6250000000
40
0.7500000000
40
0.8750000000
40
1.0000000000
40
1.0000000000
40
1.0000000000
40
1.0000000000
10
11.0388524286
20
3.2675547508
30
0.0000000000
10
11.0409823178
20
3.2537509383
30
0.0000000000
10
11.0475610717
20
3.2265013690
30
0.0000000000
10
11.0641096955
20
3.1878458966
30
0.0000000000
10
11.0868750018
20
3.1524928448
30
0.0000000000
10
11.1152189971
20
3.1214329312
30
0.0000000000
10
11.1483473381
20
3.0955366299
30
0.0000000000
10
11.1853315831
20
3.0755296859
30
0.0000000000
10
11.2251353001
20
3.0619727937
30
0.0000000000
10
11.2528069458
20
3.0574882003
30
0.0000000000
10
11.2667329856
20
3.0564156473
30
0.0000000000
11
11.0388524286
21
3.2675547508
31
0.0000000000
11
11.0486744872
21
3.2268711826
31
0.0000000000
11
11.0651458092
21
3.1883963001
31
0.0000000000
11
11.0878047833
21
3.1532083678
31
0.0000000000
11
11.1160163880
21
3.1222935332
31
0.0000000000
11
11.1489899887
21
3.0965181894
31
0.0000000000
11
11.1858014951
21
3.0766046945
31
0.0000000000
11
11.2254192587
21
3.0631111274
31
0.0000000000
11
11.2667329856
21
3.0564156473
31
0.0000000000
0
SPLINE
5
335
100
AcDbEntity
8
0
100
AcDbSpline
62
7
6
CONTINUOUS
70
0
71
3
72
39
73
35
74
33
42
0.0000001000
43
0.0000001000
44
0.0000000001
40
0.0000000000
40
0.0000000000
40
0.0000000000
40
0.0000000000
40
0.0312500000
40
0.0625000000
40
0.0937500000
40
0.1250000000
40
0.1562500000
40
0.1875000000
40
0.2187500000
40
0.2500000000
40
0.2812500000
40
0.3125000000
40
0.3437500000
40
0.3750000000
40
0.4062500000
40
0.4375000000
40
0.4687500000
40
0.5000000000
40
0.5312500000
40
0.5625000000
40
0.5937500000
40
0.6250000000
40
0.6562500000
40
0.6875000000
40
0.7187500000
40
0.7500000000
40
0.7812500000
40
0.8125000000
40
0.8437500000
40
0.8750000000
40
0.9062500000
40
0.9375000000
40
0.9687500000
40
1.0000000000
40
1.0000000000
40
1.0000000000
40
1.0000000000
10
18.9035545543
20
5.9002013931
30
0.0000000000
10
18.9944370665
20
5.9798243629
30
0.0000000000
10
19.1719644359
20
6.1439071208
30
0.0000000000
10
19.4247888489
20
6.4038451123
30
0.0000000000
10
19.6634309946
20
6.6768611989
30
0.0000000000
10
19.8872154074
20
6.9621826202
30
0.0000000000
10
20.0955086709
20
7.2590017812
30
0.0000000000
10
20.2877212176
20
7.5664785445
30
0.0000000000
10
20.4633089955
20
7.8837426061
30
0.0000000000
10
20.6217750085
20
8.2098959594
30
0.0000000000
10
20.7626707232
20
8.5440154369
30
0.0000000000
10
20.8855973386
20
8.8851553234
30
0.0000000000
10
20.9902069144
20
9.2323500326
30
0.0000000000
10
21.0762033564
20
9.5846168400
30
0.0000000000
10
21.1433432541
20
9.9409586648
30
0.0000000000
10
21.1914365701
20
10.3003668921
30
0.0000000000
10
21.2203471776
20
10.6618242274
30
0.0000000000
10
21.2299932461
20
11.0243075765
30
0.0000000000
10
21.2203474725
20
11.3867909410
30
0.0000000000
10
21.1914371591
20
11.7482483223
30
0.0000000000
10
21.1433441356
20
12.1076566261
30
0.0000000000
10
21.0762045278
20
12.4639985578
30
0.0000000000
10
20.9902083725
20
12.8162655020
30
0.0000000000
10
20.8855990791
20
13.1634603776
30
0.0000000000
10
20.7626727414
20
13.5046004598
30
0.0000000000
10
20.6217772985
20
13.8387201616
30
0.0000000000
10
20.4633115509
20
14.1648737671
30
0.0000000000
10
20.2877240312
20
14.4821381081
30
0.0000000000
10
20.0955117347
20
14.7896151772
30
0.0000000000
10
19.8872187126
20
15.0864346698
30
0.0000000000
10
19.6634345321
20
15.3717564472
30
0.0000000000
10
19.4247926085
20
15.6447729136
30
0.0000000000
10
19.1719684069
20
15.9047113074
30
0.0000000000
10
18.9944411711
20
16.0687943479
30
0.0000000000
10
18.9035587237
20
16.1484174623
30
0.0000000000
11
18.9035545543
21
5.9002013931
31
0.0000000000
11
19.1697199957
21
6.1462094299
31
0.0000000000
11
19.4224251377
21
6.4060247948
31
0.0000000000
11
19.6609547058
21
6.6789120880
31
0.0000000000
11
19.8846335492
21
6.9640989101
31
0.0000000000
11
20.0928285515
21
7.2607780483
31
0.0000000000
11
20.2849504228
21
7.5681097609
31
0.0000000000
11
20.4604553680
21
7.8852241547
31
0.0000000000
11
20.6188466254
21
8.2112236467
31
0.0000000000
11
20.7596758733
21
8.5451855051
31
0.0000000000
11
20.8825444986
21
8.8861644606
31
0.0000000000
11
20.9871047254
21
9.2331953823
31
0.0000000000
11
21.0730605990
21
9.5852960095
31
0.0000000000
11
21.1401688238
21
9.9414697319
31
0.0000000000
11
21.1882394520
21
10.3007084101
31
0.0000000000
11
21.2171364211
21
10.6619952297
31
0.0000000000
11
21.2267779391
21
11.0243075791
31
0.0000000000
11
21.2171367159
21
11.3866199438
31
0.0000000000
11
21.1882400408
21
11.7479068094
31
0.0000000000
11
21.1401697049
21
12.1071455641
31
0.0000000000
11
21.0730617699
21
12.4633193932
31
0.0000000000
11
20.9871061828
21
12.8154201573
31
0.0000000000
11
20.8825462384
21
13.1624512454
31
0.0000000000
11
20.7596778905
21
13.5034303964
31
0.0000000000
11
20.6188489144
21
13.8373924789
31
0.0000000000
11
20.4604579222
21
14.1633922230
31
0.0000000000
11
20.2849532351
21
14.4805068961
31
0.0000000000
11
20.0928316138
21
14.7878389145
31
0.0000000000
11
19.8846368529
21
15.0845183840
31
0.0000000000
11
19.6609582416
21
15.3697055620
31
0.0000000000
11
19.4224288955
21
15.6425932349
31
0.0000000000
11
19.1697239649
21
15.9024090019
31
0.0000000000
11
18.9035587237
21
16.1484174623
31
0.0000000000
0
SPLINE
5
336
100
AcDbEntity
8
0
100
AcDbSpline
62
7
6
CONTINUOUS
70
0
71
3
72
23
73
19
74
17
42
0.0000001000
43
0.0000001000
44
0.0000000001
40
0.0000000000
40
0.0000000000
40
0.0000000000
40
0.0000000000
40
0.0625000000
40
0.1250000000
40
0.1875000000
40
0.2500000000
40
0.3125000000
40
0.3750000000
40
0.4375000000
40
0.5000000000
40
0.5625000000
40
0.6250000000
40
0.6875000000
40
0.7500000000
40
0.8125000000
40
0.8750000000
40
0.9375000000
40
1.0000000000
40
1.0000000000
40
1.0000000000
40
1.0000000000
10
13.3813156287
20
3.4775639883
30
0.0000000000
10
13.5078634421
20
3.4931009824
30
0.0000000000
10
13.7603929418
20
3.5287853346
30
0.0000000000
10
14.1369862553
20
3.5960719395
30
0.0000000000
10
14.5108789766
20
3.6770293468
30
0.0000000000
10
14.8815750384
20
3.7715501449
30
0.0000000000
10
15.2485826129
20
3.8795089268
30
0.0000000000
10
15.6114147666
20
4.0007624562
30
0.0000000000
10
15.9695901057
20
4.1351498580
30
0.0000000000
10
16.3226334149
20
4.2824928314
30
0.0000000000
10
16.6700762878
20
4.4425958865
30
0.0000000000
10
17.0114577487
20
4.6152466038
30
0.0000000000
10
17.3463248639
20
4.8002159161
30
0.0000000000
10
17.6742333426
20
4.9972584121
30
0.0000000000
10
17.9947481267
20
5.2061126624
30
0.0000000000
10
18.3074439674
20
5.4265015657
30
0.0000000000
10
18.6119059910
20
5.6581327181
30
0.0000000000
10
18.8091221597
20
5.8198434367
30
0.0000000000
10
18.9062252027
20
5.9024676473
30
0.0000000000
11
13.3813156287
21
3.4775639883
31
0.0000000000
11
13.7600261191
21
3.5310786807
31
0.0000000000
11
14.1365361566
21
3.5983504066
31
0.0000000000
11
14.5103462000
21
3.6792899119
31
0.0000000000
11
14.8809602905
21
3.7737898089
31
0.0000000000
11
15.2478867095
21
3.8817247181
31
0.0000000000
11
15.6106386309
21
4.0029514350
31
0.0000000000
11
15.9687347674
21
4.1373091199
31
0.0000000000
11
16.3217000088
21
4.2846195117
31
0.0000000000
11
16.6690660525
21
4.4446871635
31
0.0000000000
11
17.0103720245
21
4.6172997030
31
0.0000000000
11
17.3451650912
21
4.8022281134
31
0.0000000000
11
17.6730010602
21
4.9992270378
31
0.0000000000
11
17.9934449695
21
5.2080351045
31
0.0000000000
11
18.3060716646
21
5.4283752739
31
0.0000000000
11
18.6104663626
21
5.6599552057
31
0.0000000000
11
18.9062252027
21
5.9024676473
31
0.0000000000
0
SPLINE
5
337
100
AcDbEntity
8
0
100
AcDbSpline
62
7
6
CONTINUOUS
70
0
71
3
72
15
73
11
74
9
42
0.0000001000
43
0.0000001000
44
0.0000000001
40
0.0000000000
40
0.0000000000
40
0.0000000000
40
0.0000000000
40
0.1250000000
40
0.2500000000
40
0.3750000000
40
0.5000000000
40
0.6250000000
40
0.7500000000
40
0.8750000000
40
1.0000000000
40
1.0000000000
40
1.0000000000
40
1.0000000000
10
13.3813097472
20
3.4775633635
30
0.0000000000
10
13.3679148191
20
3.4759186567
30
0.0000000000
10
13.3413924590
20
3.4704555701
30
0.0000000000
10
13.3034514328
20
3.4559542017
30
0.0000000000
10
13.2683456010
20
3.4355254585
30
0.0000000000
10
13.2369932500
20
3.4097037314
30
0.0000000000
10
13.2102145392
20
3.3791644899
30
0.0000000000
10
13.1887099721
20
3.3447066233
30
0.0000000000
10
13.1730420808
20
3.3072314679
30
0.0000000000
10
13.1667611933
20
3.2808901672
30
0.0000000000
10
13.1647029012
20
3.2675522050
30
0.0000000000
11
13.3813097472
21
3.4775633635
31
0.0000000000
11
13.3416995447
21
3.4694044470
31
0.0000000000
11
13.3039239652
21
3.4549663059
31
0.0000000000
11
13.2689711812
21
3.4346266278
31
0.0000000000
11
13.2377555234
21
3.4089174790
31
0.0000000000
11
13.2110935631
21
3.3785113857
31
0.0000000000
11
13.1896827514
21
3.3442037418
31
0.0000000000
11
13.1740831741
21
3.3068920020
31
0.0000000000
11
13.1647029012
21
3.2675522050
31
0.0000000000
0
ENDSEC
0
SECTION
2
OBJECTS
0
DICTIONARY
5
338
100
AcDbDictionary
3
ACAD_GROUP
350
339
3
ACAD_MLINESTYLE
350
33A
0
DICTIONARY
5
339
102
{ACAD_REACTORS
330
338
102
}
100
AcDbDictionary
0
DICTIONARY
5
33A
102
{ACAD_REACTORS
330
338
102
}
100
AcDbDictionary
3
STANDARD
350
33B
0
MLINESTYLE
5
33B
102
{ACAD_REACTORS
330
33A
102
}
100
AcDbMlineStyle
2
STANDARD
70
0
3

62
256
51
90.0
52
90.0
71
2
49
0.5
62
256
6
BYLAYER
49
-0.5
62
256
6
BYLAYER
0
ENDSEC
0
EOF
