  0
SECTION
  2
HEADER
  9
$ACADVER
  1
AC1014
  9
$ACADMAINTVER
 70
     0
  9
$DWGCODEPAGE
  3
ANSI_932
  9
$INSBASE
 10
0.0
 20
0.0
 30
0.0
  9
$EXTMIN
 10
0.0
 20
13.5
 30
0.0
  9
$EXTMAX
 10
200.511229
 20
288.5
 30
0.0
  9
$LIMMIN
 10
0.0
 20
0.0
  9
$LIMMAX
 10
210.0
 20
297.0
  9
$ORTHOMODE
 70
     0
  9
$REGENMODE
 70
     1
  9
$FILLMODE
 70
     1
  9
$QTEXTMODE
 70
     0
  9
$MIRRTEXT
 70
     1
  9
$DRAGMODE
 70
     2
  9
$LTSCALE
 40
1.0
  9
$OSMODE
 70
     0
  9
$ATTMODE
 70
     1
  9
$TEXTSIZE
 40
0.2
  9
$TRACEWID
 40
0.05
  9
$TEXTSTYLE
  7
STANDARD
  9
$CLAYER
  8
図
  9
$CELTYPE
  6
CONTINUOUS
  9
$CECOLOR
 62
   256
  9
$CELTSCALE
 40
1.0
  9
$DELOBJ
 70
     1
  9
$DISPSILH
 70
     0
  9
$DIMSCALE
 40
1.0
  9
$DIMASZ
 40
0.18
  9
$DIMEXO
 40
0.0625
  9
$DIMDLI
 40
0.38
  9
$DIMRND
 40
0.0
  9
$DIMDLE
 40
0.0
  9
$DIMEXE
 40
0.18
  9
$DIMTP
 40
0.0
  9
$DIMTM
 40
0.0
  9
$DIMTXT
 40
0.18
  9
$DIMCEN
 40
0.09
  9
$DIMTSZ
 40
0.0
  9
$DIMTOL
 70
     0
  9
$DIMLIM
 70
     0
  9
$DIMTIH
 70
     1
  9
$DIMTOH
 70
     1
  9
$DIMSE1
 70
     0
  9
$DIMSE2
 70
     0
  9
$DIMTAD
 70
     0
  9
$DIMZIN
 70
     0
  9
$DIMBLK
  1

  9
$DIMASO
 70
     1
  9
$DIMSHO
 70
     1
  9
$DIMPOST
  1

  9
$DIMAPOST
  1

  9
$DIMALT
 70
     0
  9
$DIMALTD
 70
     2
  9
$DIMALTF
 40
25.4
  9
$DIMLFAC
 40
1.0
  9
$DIMTOFL
 70
     0
  9
$DIMTVP
 40
0.0
  9
$DIMTIX
 70
     0
  9
$DIMSOXD
 70
     0
  9
$DIMSAH
 70
     0
  9
$DIMBLK1
  1

  9
$DIMBLK2
  1

  9
$DIMSTYLE
  2
STANDARD
  9
$DIMCLRD
 70
     0
  9
$DIMCLRE
 70
     0
  9
$DIMCLRT
 70
     0
  9
$DIMTFAC
 40
1.0
  9
$DIMGAP
 40
0.09
  9
$DIMJUST
 70
     0
  9
$DIMSD1
 70
     0
  9
$DIMSD2
 70
     0
  9
$DIMTOLJ
 70
     1
  9
$DIMTZIN
 70
     0
  9
$DIMALTZ
 70
     0
  9
$DIMALTTZ
 70
     0
  9
$DIMFIT
 70
     3
  9
$DIMUPT
 70
     0
  9
$DIMUNIT
 70
     2
  9
$DIMDEC
 70
     4
  9
$DIMTDEC
 70
     4
  9
$DIMALTU
 70
     2
  9
$DIMALTTD
 70
     2
  9
$DIMTXSTY
  7
STANDARD
  9
$DIMAUNIT
 70
     0
  9
$LUNITS
 70
     2
  9
$LUPREC
 70
     4
  9
$SKETCHINC
 40
0.1
  9
$FILLETRAD
 40
0.0
  9
$AUNITS
 70
     0
  9
$AUPREC
 70
     0
  9
$MENU
  1
acad
  9
$ELEVATION
 40
0.0
  9
$PELEVATION
 40
0.0
  9
$THICKNESS
 40
0.0
  9
$LIMCHECK
 70
     0
  9
$BLIPMODE
 70
     1
  9
$CHAMFERA
 40
0.0
  9
$CHAMFERB
 40
0.0
  9
$CHAMFERC
 40
0.0
  9
$CHAMFERD
 40
0.0
  9
$SKPOLY
 70
     0
  9
$TDCREATE
 40
2455415.819856099
  9
$TDUPDATE
 40
2455415.819856099
  9
$TDINDWG
 40
0.0000000000
  9
$TDUSRTIMER
 40
0.0000000000
  9
$USRTIMER
 70
     1
  9
$ANGBASE
 50
0.0
  9
$ANGDIR
 70
     0
  9
$PDMODE
 70
     0
  9
$PDSIZE
 40
0.0
  9
$PLINEWID
 40
0.0
  9
$COORDS
 70
     1
  9
$SPLFRAME
 70
     0
  9
$SPLINETYPE
 70
     6
  9
$SPLINESEGS
 70
     8
  9
$ATTDIA
 70
     0
  9
$ATTREQ
 70
     1
  9
$HANDLING
 70
     1
  9
$HANDSEED
  5
308
  9
$SURFTAB1
 70
     6
  9
$SURFTAB2
 70
     6
  9
$SURFTYPE
 70
     6
  9
$SURFU
 70
     6
  9
$SURFV
 70
     6
  9
$UCSNAME
  2

  9
$UCSORG
 10
0.0
 20
0.0
 30
0.0
  9
$UCSXDIR
 10
1.0
 20
0.0
 30
0.0
  9
$UCSYDIR
 10
0.0
 20
1.0
 30
0.0
  9
$PUCSNAME
  2

  9
$PUCSORG
 10
0.0
 20
0.0
 30
0.0
  9
$PUCSXDIR
 10
1.0
 20
0.0
 30
0.0
  9
$PUCSYDIR
 10
0.0
 20
1.0
 30
0.0
  9
$USERI1
 70
     0
  9
$USERI2
 70
     0
  9
$USERI3
 70
     0
  9
$USERI4
 70
     0
  9
$USERI5
 70
     0
  9
$USERR1
 40
0.0
  9
$USERR2
 40
0.0
  9
$USERR3
 40
0.0
  9
$USERR4
 40
0.0
  9
$USERR5
 40
0.0
  9
$WORLDVIEW
 70
     1
  9
$SHADEDGE
 70
     3
  9
$SHADEDIF
 70
    70
  9
$TILEMODE
 70
     1
  9
$MAXACTVP
 70
    16
  9
$PINSBASE
 10
0.0
 20
0.0
 30
0.0
  9
$PLIMCHECK
 70
     0
  9
$PEXTMIN
 10
1.000000E+20
 20
1.000000E+20
 30
1.000000E+20
  9
$PEXTMAX
 10
-1.000000E+20
 20
-1.000000E+20
 30
-1.000000E+20
  9
$PLIMMIN
 10
0.0
 20
0.0
  9
$PLIMMAX
 10
12.0
 20
9.0
  9
$UNITMODE
 70
     0
  9
$VISRETAIN
 70
     0
  9
$PLINEGEN
 70
     1
  9
$PSLTSCALE
 70
     0
  9
$TREEDEPTH
 70
  3020
  9
$PICKSTYLE
 70
     1
  9
$CMLSTYLE
  2
Standard
  9
$CMLJUST
 70
     0
  9
$CMLSCALE
 40
1.0
  9
$PROXYGRAPHICS
 70
     0
  9
$MEASUREMENT
 70
     0
  0
ENDSEC
  0
SECTION
  2
CLASSES
  0
CLASS
  1
LWPOLYLINE
  2
AcDbPolyline
  3
"AutoCAD"
 90
        0
280
     0
281
     1
  0
CLASS
  1
IMAGE
  2
AcDbRasterImage
  3
ISM
 90
      127
280
     0
281
     1
  0
CLASS
  1
OLE2FRAME
  2
AcDbOle2Frame
  3
""
 90
        0
280
     0
281
     1
  0
CLASS
  1
HATCH
  2
AcDbHatch
  3
"ACAD_SEDONA"
 90
        0
280
     0
281
     1
  0
CLASS
  1
DICTIONARYVAR
  2
AcDbDictionaryVar
  3
"AutoCAD"
 90
        0
280
     0
281
     0
  0
CLASS
  1
RASTERVARIABLES
  2
AcDbRasterVariables
  3
ISM
 90
        0
280
     0
281
     0
  0
CLASS
  1
IMAGEDEF
  2
AcDbRasterImageDef
  3
ISM
 90
        0
280
     0
281
     0
  0
CLASS
  1
IMAGEDEF_REACTOR
  2
AcDbRasterImageDefReactor
  3
ISM
 90
        1
280
     0
281
     0
  0
CLASS
  1
IDBUFFER
  2
AcDbIdBuffer
  3
"Acad"
 90
        0
280
     0
281
     0
  0
CLASS
  1
SPATIAL_FILTER
  2
AcDbSpatialFilter
  3
"Acad"
 90
        0
280
     0
281
     0
  0
CLASS
  1
XRECORD
  2
AcDbXrecord
  3
"<Built In>"
 90
        0
280
     0
281
     0
  0
CLASS
  1
SORTENTSTABLE
  2
AcDbSortentsTable
  3
"AutoCAD"
 90
        0
280
     0
281
     0
  0
CLASS
  1
LAYER_INDEX
  2
AcDbLayerIndex
  3
"Acad"
 90
        0
280
     0
281
     0
  0
CLASS
  1
SPATIAL_INDEX
  2
AcDbSpatialIndex
  3
"Acad"
 90
        0
280
     0
281
     0
  0
CLASS
  1
OBJECT_PTR
  2
CAseDLPNTableRecord
  3
"ASE-LPNTableRecord"
 90
        1
280
     0
281
     0
  0
CLASS
  1
LAYOUT
  2
AcDbLayout
  3
"AutoCAD 2000"
 90
        1
280
     0
281
     0
  0
CLASS
  1
PLOTSETTINGS
  2
AcDbPlotSettings
  3
"AutoCAD 2000"
 90
        1
280
     0
281
     0
  0
CLASS
  1
ACDBDICTIONARYWDFLT
  2
AcDbDictionaryWithDefault
  3
"AutoCAD 2000"
 90
        1
280
     0
281
     0
  0
CLASS
  1
ACDBPLACEHOLDER
  2
AcDbPlaceHolder
  3
"AutoCAD 2000"
 90
        1
280
     0
281
     0
  0
CLASS
  1
VBA_PROJECT
  2
AcDbVbaProject
  3
"acadvba"
 90
        1
280
     0
281
     0
  0
CLASS
  1
WIPEOUT
  2
AcDbWipeout
  3
WipeOut|AutoCAD Express Tool|expresstools@autodesk.com
 90
      127
280
     0
281
     1
  0
CLASS
  1
WIPEOUTVARIABLES
  2
AcDbWipeoutVariables
  3
WipeOut|AutoCAD Express Tool|expresstools@autodesk.com
 90
        0
280
     0
281
     0
  0
CLASS
  1
RTEXT
  2
RText
  3
RText|AutoCAD Express Tool|expresstools@autodesk.com
 90
        0
280
     0
281
     1
  0
CLASS
  1
ARCALIGNEDTEXT
  2
AcDbArcAlignedText
  3
ATEXT|AutoCAD Express Tool|expresstools@autodesk.com
 90
        0
280
     0
281
     1
  0
ENDSEC
  0
SECTION
  2
TABLES
  0
TABLE
  2
VPORT
  5
7
100
AcDbSymbolTable
 70
     1
  0
VPORT
  5
15
100
AcDbSymbolTableRecord
100
AcDbViewportTableRecord
  2
*ACTIVE
 70
     0
 10
0.0
 20
0.0
 11
1.0
 21
1.0
 12
1002.556144
 22
1510.0
 13
0.0
 23
0.0
 14
1.0
 24
1.0
 15
0.0
 25
0.0
 16
0.0
 26
0.0
 36
1.0
 17
0.0
 27
0.0
 37
0.0
 40
2750.0
 41
1.722533
 42
50.0
 43
0.0
 44
0.0
 50
0.0
 51
0.0
 71
     0
 72
   100
 73
     1
 74
     1
 75
     0
 76
     0
 77
     0
 78
     0
  0
ENDTAB
  0
TABLE
  2
LTYPE
  5
4
100
AcDbSymbolTable
 70
     9
  0
LTYPE
  5
11
100
AcDbSymbolTableRecord
100
AcDbLinetypeTableRecord
  2
BYBLOCK
 70
    64
  3

 72
    65
 73
     0
 40
0.0
  0
LTYPE
  5
12
100
AcDbSymbolTableRecord
100
AcDbLinetypeTableRecord
  2
BYLAYER
 70
    64
  3

 72
    65
 73
     0
 40
0.0
  0
LTYPE
  5
13
100
AcDbSymbolTableRecord
100
AcDbLinetypeTableRecord
  2
CONTINUOUS
 70
    64
  3
実線
 72
    65
 73
     0
 40
0.0
  0
LTYPE
  5
1D
100
AcDbSymbolTableRecord
100
AcDbLinetypeTableRecord
  2
EXLTYPE1
 70
    64
  3
破線
 72
    65
 73
     2
 40
3.0
 49
2.0
 74
     0
 49
-1.0
 74
     0
  0
LTYPE
  5
1E
100
AcDbSymbolTableRecord
100
AcDbLinetypeTableRecord
  2
EXLTYPE2
 70
    64
  3
点線
 72
    65
 73
     2
 40
2.0
 49
1.0
 74
     0
 49
-1.0
 74
     0
  0
LTYPE
  5
1F
100
AcDbSymbolTableRecord
100
AcDbLinetypeTableRecord
  2
EXLTYPE3
 70
    64
  3
一点鎖線
 72
    65
 73
     4
 40
10.0
 49
7.0
 74
     0
 49
-1.0
 74
     0
 49
1.0
 74
     0
 49
-1.0
 74
     0
  0
LTYPE
  5
20
100
AcDbSymbolTableRecord
100
AcDbLinetypeTableRecord
  2
EXLTYPE4
 70
    64
  3
二点鎖線
 72
    65
 73
     6
 40
12.0
 49
7.0
 74
     0
 49
-1.0
 74
     0
 49
1.0
 74
     0
 49
-1.0
 74
     0
 49
1.0
 74
     0
 49
-1.0
 74
     0
  0
LTYPE
  5
21
100
AcDbSymbolTableRecord
100
AcDbLinetypeTableRecord
  2
EXLTYPE5
 70
    64
  3
三点鎖線
 72
    65
 73
     8
 40
37.0
 49
30.0
 74
     0
 49
-1.0
 74
     0
 49
1.0
 74
     0
 49
-1.0
 74
     0
 49
1.0
 74
     0
 49
-1.0
 74
     0
 49
1.0
 74
     0
 49
-1.0
 74
     0
  0
LTYPE
  5
22
100
AcDbSymbolTableRecord
100
AcDbLinetypeTableRecord
  2
EXLTYPE6
 70
    64
  3
四点鎖線
 72
    65
 73
    10
 40
39.0
 49
30.0
 74
     0
 49
-1.0
 74
     0
 49
1.0
 74
     0
 49
-1.0
 74
     0
 49
1.0
 74
     0
 49
-1.0
 74
     0
 49
1.0
 74
     0
 49
-1.0
 74
     0
 49
1.0
 74
     0
 49
-1.0
 74
     0
  0
ENDTAB
  0
TABLE
  2
LAYER
  5
2
100
AcDbSymbolTable
 70
     4
  0
LAYER
  5
14
100
AcDbSymbolTableRecord
100
AcDbLayerTableRecord
  2
0
 70
     0
 62
     7
  6
CONTINUOUS
  0
LAYER
  5
25
100
AcDbSymbolTableRecord
100
AcDbLayerTableRecord
  2
枠・表
 70
    64
 62
     7
  6
CONTINUOUS
  0
LAYER
  5
26
100
AcDbSymbolTableRecord
100
AcDbLayerTableRecord
  2
図
 70
    64
 62
     7
  6
CONTINUOUS
  0
LAYER
  5
27
100
AcDbSymbolTableRecord
100
AcDbLayerTableRecord
  2
寸法
 70
    64
 62
     7
  6
CONTINUOUS
  0
ENDTAB
  0
TABLE
  2
STYLE
  5
3
100
AcDbSymbolTable
 70
     5
  0
STYLE
  5
17
100
AcDbSymbolTableRecord
100
AcDbTextStyleTableRecord
  2
STANDARD
 70
     0
 40
0.0
 41
1.0
 50
0.0
 71
     0
 42
0.0
  3
monotxt
  4
extfont
  0
STYLE
  5
23
100
AcDbSymbolTableRecord
100
AcDbTextStyleTableRecord
  2
EXCADSTD
 70
    64
 40
0.0
 41
1.0
 50
0.0
 71
     0
 42
0.2
  3
monotxt
  4
extfont
  0
STYLE
  5
24
100
AcDbSymbolTableRecord
100
AcDbTextStyleTableRecord
  2
EXCADVERT
 70
    68
 40
0.0
 41
1.0
 50
0.0
 71
     0
 42
0.286885
  3
monotxt
  4
extfont
  0
STYLE
  5
AC
100
AcDbSymbolTableRecord
100
AcDbTextStyleTableRecord
  2
EXCADTTF1
 70
    64
 40
0.0
 41
1.0
 50
0.0
 71
     0
 42
0.2
  3
MS Gothic.ttf
  4

1001
ACAD
1000
MS Gothic
1071
    32817
  0
STYLE
  5
273
100
AcDbSymbolTableRecord
100
AcDbTextStyleTableRecord
  2
EXCADDIM1
 70
    64
 40
0.0
 41
0.84
 50
0.0
 71
     0
 42
0.2
  3
monotxt
  4
extfont
  0
ENDTAB
  0
TABLE
  2
VIEW
  5
5
100
AcDbSymbolTable
 70
     0
  0
ENDTAB
  0
TABLE
  2
UCS
  5
6
100
AcDbSymbolTable
 70
     0
  0
ENDTAB
  0
TABLE
  2
APPID
  5
8
100
AcDbSymbolTable
 70
     1
  0
APPID
  5
16
100
AcDbSymbolTableRecord
100
AcDbRegAppTableRecord
  2
ACAD
 70
     0
  0
ENDTAB
  0
TABLE
  2
DIMSTYLE
  5
9
100
AcDbSymbolTable
 70
     1
  0
DIMSTYLE
105
18
100
AcDbSymbolTableRecord
100
AcDbDimStyleTableRecord
  2
STANDARD
 70
     0
  3

  4

  5

  6

  7

 40
1.0
 41
0.18
 42
0.0625
 43
0.38
 44
0.18
 45
0.0
 46
0.0
 47
0.0
 48
0.0
 71
     0
 72
     0
 73
     1
 74
     1
 75
     0
 76
     0
 77
     0
 78
     0
140
0.18
141
0.09
142
0.0
143
25.4
144
1.0
145
0.0
146
1.0
147
0.09
170
     0
171
     2
172
     1
173
     0
174
     0
175
     0
176
     0
177
     0
178
     0
270
     2
271
     4
272
     4
273
     2
274
     2
275
     0
280
     0
281
     0
282
     0
283
     1
284
     0
285
     0
286
     0
287
     0
288
     0
340
17
  0
ENDTAB
  0
TABLE
  2
BLOCK_RECORD
  5
1
100
AcDbSymbolTable
 70
    27
  0
BLOCK_RECORD
  5
A
100
AcDbSymbolTableRecord
100
AcDbBlockTableRecord
  2
*MODEL_SPACE
  0
BLOCK_RECORD
  5
B
100
AcDbSymbolTableRecord
100
AcDbBlockTableRecord
  2
*PAPER_SPACE
  0
BLOCK_RECORD
  5
28
100
AcDbSymbolTableRecord
100
AcDbBlockTableRecord
  2
_EX_NORM
  0
BLOCK_RECORD
  5
29
100
AcDbSymbolTableRecord
100
AcDbBlockTableRecord
  2
_EX_BNORM
  0
BLOCK_RECORD
  5
2A
100
AcDbSymbolTableRecord
100
AcDbBlockTableRecord
  2
_EX_BCIR
  0
BLOCK_RECORD
  5
2B
100
AcDbSymbolTableRecord
100
AcDbBlockTableRecord
  2
_EX_RCIVIL
  0
BLOCK_RECORD
  5
2C
100
AcDbSymbolTableRecord
100
AcDbBlockTableRecord
  2
_EX_SLANT
  0
BLOCK_RECORD
  5
2D
100
AcDbSymbolTableRecord
100
AcDbBlockTableRecord
  2
_EX_NONE
  0
BLOCK_RECORD
  5
2E
100
AcDbSymbolTableRecord
100
AcDbBlockTableRecord
  2
_EX_CIVIL
  0
BLOCK_RECORD
  5
2F
100
AcDbSymbolTableRecord
100
AcDbBlockTableRecord
  2
_EX_WCIR
  0
BLOCK_RECORD
  5
30
100
AcDbSymbolTableRecord
100
AcDbBlockTableRecord
  2
_EX_WCIR2
  0
BLOCK_RECORD
  5
31
100
AcDbSymbolTableRecord
100
AcDbBlockTableRecord
  2
_EX_WNORM
  0
BLOCK_RECORD
  5
32
100
AcDbSymbolTableRecord
100
AcDbBlockTableRecord
  2
_EX_NNORM
  0
BLOCK_RECORD
  5
33
100
AcDbSymbolTableRecord
100
AcDbBlockTableRecord
  2
_EX_BBOX
  0
BLOCK_RECORD
  5
34
100
AcDbSymbolTableRecord
100
AcDbBlockTableRecord
  2
_EX_WBOX
  0
BLOCK_RECORD
  5
35
100
AcDbSymbolTableRecord
100
AcDbBlockTableRecord
  2
_EX_INTEGRAL
  0
BLOCK_RECORD
  5
268
100
AcDbSymbolTableRecord
100
AcDbBlockTableRecord
  2
*D14
  0
BLOCK_RECORD
  5
275
100
AcDbSymbolTableRecord
100
AcDbBlockTableRecord
  2
*D15
  0
BLOCK_RECORD
  5
285
100
AcDbSymbolTableRecord
100
AcDbBlockTableRecord
  2
*D16
  0
BLOCK_RECORD
  5
290
100
AcDbSymbolTableRecord
100
AcDbBlockTableRecord
  2
*D17
  0
BLOCK_RECORD
  5
29B
100
AcDbSymbolTableRecord
100
AcDbBlockTableRecord
  2
*D18
  0
BLOCK_RECORD
  5
2A7
100
AcDbSymbolTableRecord
100
AcDbBlockTableRecord
  2
*D19
  0
BLOCK_RECORD
  5
2B2
100
AcDbSymbolTableRecord
100
AcDbBlockTableRecord
  2
*D20
  0
BLOCK_RECORD
  5
2BD
100
AcDbSymbolTableRecord
100
AcDbBlockTableRecord
  2
*D21
  0
BLOCK_RECORD
  5
2C9
100
AcDbSymbolTableRecord
100
AcDbBlockTableRecord
  2
*D22
  0
BLOCK_RECORD
  5
2D5
100
AcDbSymbolTableRecord
100
AcDbBlockTableRecord
  2
*D23
  0
BLOCK_RECORD
  5
2E5
100
AcDbSymbolTableRecord
100
AcDbBlockTableRecord
  2
*D24
  0
BLOCK_RECORD
  5
2F1
100
AcDbSymbolTableRecord
100
AcDbBlockTableRecord
  2
*D25
  0
BLOCK_RECORD
  5
2FD
100
AcDbSymbolTableRecord
100
AcDbBlockTableRecord
  2
*D26
  0
ENDTAB
  0
ENDSEC
  0
SECTION
  2
BLOCKS
  0
BLOCK
  5
D
100
AcDbEntity
  8
0
100
AcDbBlockBegin
  2
*MODEL_SPACE
 70
     0
 10
0.0
 20
0.0
 30
0.0
  3
*MODEL_SPACE
  1

  0
ENDBLK
  5
E
100
AcDbEntity
  8
0
100
AcDbBlockEnd
  0
BLOCK
  5
F
100
AcDbEntity
 67
     1
  8
0
100
AcDbBlockBegin
  2
*PAPER_SPACE
 70
     0
 10
0.0
 20
0.0
 30
0.0
  3
*PAPER_SPACE
  1

  0
ENDBLK
  5
10
100
AcDbEntity
 67
     1
  8
0
100
AcDbBlockEnd
  0
BLOCK
  5
36
100
AcDbEntity
  8
0
100
AcDbBlockBegin
  2
_EX_NORM
 70
     0
 10
0.0
 20
0.0
 30
0.0
  3
_EX_NORM
  1

  0
LINE
  5
37
100
AcDbEntity
  8
0
  6
CONTINUOUS
 62
     0
100
AcDbLine
 10
0.0
 20
0.0
 30
0.0
 11
-1.0
 21
0.0
 31
0.0
  0
LINE
  5
38
100
AcDbEntity
  8
0
  6
CONTINUOUS
 62
     0
100
AcDbLine
 10
0.0
 20
0.0
 30
0.0
 11
-1.0
 21
0.166667
 31
0.0
  0
LINE
  5
39
100
AcDbEntity
  8
0
  6
CONTINUOUS
 62
     0
100
AcDbLine
 10
0.0
 20
0.0
 30
0.0
 11
-1.0
 21
-0.166667
 31
0.0
  0
ENDBLK
  5
3A
100
AcDbEntity
  8
0
100
AcDbBlockEnd
  0
BLOCK
  5
3B
100
AcDbEntity
  8
0
100
AcDbBlockBegin
  2
_EX_BNORM
 70
     0
 10
0.0
 20
0.0
 30
0.0
  3
_EX_BNORM
  1

  0
LINE
  5
3C
100
AcDbEntity
  8
0
  6
CONTINUOUS
 62
     0
100
AcDbLine
 10
0.0
 20
0.0
 30
0.0
 11
-1.0
 21
0.0
 31
0.0
  0
LINE
  5
3D
100
AcDbEntity
  8
0
  6
CONTINUOUS
 62
     0
100
AcDbLine
 10
0.0
 20
0.0
 30
0.0
 11
-1.0
 21
0.166667
 31
0.0
  0
LINE
  5
3E
100
AcDbEntity
  8
0
  6
CONTINUOUS
 62
     0
100
AcDbLine
 10
0.0
 20
0.0
 30
0.0
 11
-1.0
 21
-0.166667
 31
0.0
  0
LINE
  5
3F
100
AcDbEntity
  8
0
  6
CONTINUOUS
 62
     0
100
AcDbLine
 10
0.0
 20
0.0
 30
0.0
 11
-1.0
 21
0.083333
 31
0.0
  0
LINE
  5
40
100
AcDbEntity
  8
0
  6
CONTINUOUS
 62
     0
100
AcDbLine
 10
0.0
 20
0.0
 30
0.0
 11
-1.0
 21
-0.083333
 31
0.0
  0
LINE
  5
41
100
AcDbEntity
  8
0
  6
CONTINUOUS
 62
     0
100
AcDbLine
 10
-1.0
 20
0.166667
 30
0.0
 11
-1.0
 21
-0.166667
 31
0.0
  0
ENDBLK
  5
42
100
AcDbEntity
  8
0
100
AcDbBlockEnd
  0
BLOCK
  5
43
100
AcDbEntity
  8
0
100
AcDbBlockBegin
  2
_EX_BCIR
 70
     0
 10
0.0
 20
0.0
 30
0.0
  3
_EX_BCIR
  1

  0
LINE
  5
44
100
AcDbEntity
  8
0
  6
CONTINUOUS
 62
     0
100
AcDbLine
 10
0.0
 20
0.0
 30
0.0
 11
-1.0
 21
0.0
 31
0.0
  0
CIRCLE
  5
45
100
AcDbEntity
  8
0
  6
CONTINUOUS
 62
     0
100
AcDbCircle
 10
0.0
 20
0.0
 30
0.0
 40
0.5
  0
CIRCLE
  5
46
100
AcDbEntity
  8
0
  6
CONTINUOUS
 62
     0
100
AcDbCircle
 10
0.0
 20
0.0
 30
0.0
 40
0.25
  0
ENDBLK
  5
47
100
AcDbEntity
  8
0
100
AcDbBlockEnd
  0
BLOCK
  5
48
100
AcDbEntity
  8
0
100
AcDbBlockBegin
  2
_EX_RCIVIL
 70
     0
 10
0.0
 20
0.0
 30
0.0
  3
_EX_RCIVIL
  1

  0
LINE
  5
49
100
AcDbEntity
  8
0
  6
CONTINUOUS
 62
     0
100
AcDbLine
 10
0.0
 20
0.0
 30
0.0
 11
-1.0
 21
0.0
 31
0.0
  0
LINE
  5
4A
100
AcDbEntity
  8
0
  6
CONTINUOUS
 62
     0
100
AcDbLine
 10
-1.0
 20
-0.25
 30
0.0
 11
0.0
 21
-0.25
 31
0.0
  0
LINE
  5
4B
100
AcDbEntity
  8
0
  6
CONTINUOUS
 62
     0
100
AcDbLine
 10
-1.0
 20
-0.125
 30
0.0
 11
0.0
 21
-0.125
 31
0.0
  0
ENDBLK
  5
4C
100
AcDbEntity
  8
0
100
AcDbBlockEnd
  0
BLOCK
  5
4D
100
AcDbEntity
  8
0
100
AcDbBlockBegin
  2
_EX_SLANT
 70
     0
 10
0.0
 20
0.0
 30
0.0
  3
_EX_SLANT
  1

  0
LINE
  5
4E
100
AcDbEntity
  8
0
  6
CONTINUOUS
 62
     0
100
AcDbLine
 10
0.0
 20
0.0
 30
0.0
 11
-1.0
 21
0.0
 31
0.0
  0
LINE
  5
4F
100
AcDbEntity
  8
0
  6
CONTINUOUS
 62
     0
100
AcDbLine
 10
0.707107
 20
0.707107
 30
0.0
 11
-0.707107
 21
-0.707107
 31
0.0
  0
ENDBLK
  5
50
100
AcDbEntity
  8
0
100
AcDbBlockEnd
  0
BLOCK
  5
51
100
AcDbEntity
  8
0
100
AcDbBlockBegin
  2
_EX_NONE
 70
     0
 10
0.0
 20
0.0
 30
0.0
  3
_EX_NONE
  1

  0
LINE
  5
52
100
AcDbEntity
  8
0
  6
CONTINUOUS
 62
     0
100
AcDbLine
 10
0.0
 20
0.0
 30
0.0
 11
-1.0
 21
0.0
 31
0.0
  0
ENDBLK
  5
53
100
AcDbEntity
  8
0
100
AcDbBlockEnd
  0
BLOCK
  5
54
100
AcDbEntity
  8
0
100
AcDbBlockBegin
  2
_EX_CIVIL
 70
     0
 10
0.0
 20
0.0
 30
0.0
  3
_EX_CIVIL
  1

  0
LINE
  5
55
100
AcDbEntity
  8
0
  6
CONTINUOUS
 62
     0
100
AcDbLine
 10
0.0
 20
0.0
 30
0.0
 11
-1.0
 21
0.0
 31
0.0
  0
LINE
  5
56
100
AcDbEntity
  8
0
  6
CONTINUOUS
 62
     0
100
AcDbLine
 10
-1.0
 20
0.25
 30
0.0
 11
0.0
 21
0.25
 31
0.0
  0
LINE
  5
57
100
AcDbEntity
  8
0
  6
CONTINUOUS
 62
     0
100
AcDbLine
 10
-1.0
 20
0.125
 30
0.0
 11
0.0
 21
0.125
 31
0.0
  0
ENDBLK
  5
58
100
AcDbEntity
  8
0
100
AcDbBlockEnd
  0
BLOCK
  5
59
100
AcDbEntity
  8
0
100
AcDbBlockBegin
  2
_EX_WCIR
 70
     0
 10
0.0
 20
0.0
 30
0.0
  3
_EX_WCIR
  1

  0
LINE
  5
5A
100
AcDbEntity
  8
0
  6
CONTINUOUS
 62
     0
100
AcDbLine
 10
0.0
 20
0.0
 30
0.0
 11
-1.0
 21
0.0
 31
0.0
  0
CIRCLE
  5
5B
100
AcDbEntity
  8
0
  6
CONTINUOUS
 62
     0
100
AcDbCircle
 10
0.0
 20
0.0
 30
0.0
 40
0.5
  0
ENDBLK
  5
5C
100
AcDbEntity
  8
0
100
AcDbBlockEnd
  0
BLOCK
  5
5D
100
AcDbEntity
  8
0
100
AcDbBlockBegin
  2
_EX_WCIR2
 70
     0
 10
0.0
 20
0.0
 30
0.0
  3
_EX_WCIR2
  1

  0
LINE
  5
5E
100
AcDbEntity
  8
0
  6
CONTINUOUS
 62
     0
100
AcDbLine
 10
-0.5
 20
0.0
 30
0.0
 11
-1.0
 21
0.0
 31
0.0
  0
CIRCLE
  5
5F
100
AcDbEntity
  8
0
  6
CONTINUOUS
 62
     0
100
AcDbCircle
 10
0.0
 20
0.0
 30
0.0
 40
0.5
  0
ENDBLK
  5
60
100
AcDbEntity
  8
0
100
AcDbBlockEnd
  0
BLOCK
  5
61
100
AcDbEntity
  8
0
100
AcDbBlockBegin
  2
_EX_WNORM
 70
     0
 10
0.0
 20
0.0
 30
0.0
  3
_EX_WNORM
  1

  0
LINE
  5
62
100
AcDbEntity
  8
0
  6
CONTINUOUS
 62
     0
100
AcDbLine
 10
-1.0
 20
0.0
 30
0.0
 11
-1.0
 21
0.0
 31
0.0
  0
LINE
  5
63
100
AcDbEntity
  8
0
  6
CONTINUOUS
 62
     0
100
AcDbLine
 10
0.0
 20
0.0
 30
0.0
 11
-1.0
 21
0.166667
 31
0.0
  0
LINE
  5
64
100
AcDbEntity
  8
0
  6
CONTINUOUS
 62
     0
100
AcDbLine
 10
0.0
 20
0.0
 30
0.0
 11
-1.0
 21
-0.166667
 31
0.0
  0
LINE
  5
65
100
AcDbEntity
  8
0
  6
CONTINUOUS
 62
     0
100
AcDbLine
 10
-1.0
 20
0.166667
 30
0.0
 11
-1.0
 21
-0.166667
 31
0.0
  0
ENDBLK
  5
66
100
AcDbEntity
  8
0
100
AcDbBlockEnd
  0
BLOCK
  5
67
100
AcDbEntity
  8
0
100
AcDbBlockBegin
  2
_EX_NNORM
 70
     0
 10
0.0
 20
0.0
 30
0.0
  3
_EX_NNORM
  1

  0
LINE
  5
68
100
AcDbEntity
  8
0
  6
CONTINUOUS
 62
     0
100
AcDbLine
 10
0.0
 20
0.0
 30
0.0
 11
-1.0
 21
0.0
 31
0.0
  0
LINE
  5
69
100
AcDbEntity
  8
0
  6
CONTINUOUS
 62
     0
100
AcDbLine
 10
0.0
 20
0.0
 30
0.0
 11
-1.0
 21
0.166667
 31
0.0
  0
LINE
  5
6A
100
AcDbEntity
  8
0
  6
CONTINUOUS
 62
     0
100
AcDbLine
 10
0.0
 20
0.0
 30
0.0
 11
-1.0
 21
-0.166667
 31
0.0
  0
LINE
  5
6B
100
AcDbEntity
  8
0
  6
CONTINUOUS
 62
     0
100
AcDbLine
 10
-1.0
 20
0.166667
 30
0.0
 11
-1.0
 21
-0.166667
 31
0.0
  0
ENDBLK
  5
6C
100
AcDbEntity
  8
0
100
AcDbBlockEnd
  0
BLOCK
  5
6D
100
AcDbEntity
  8
0
100
AcDbBlockBegin
  2
_EX_BBOX
 70
     0
 10
0.0
 20
0.0
 30
0.0
  3
_EX_BBOX
  1

  0
LINE
  5
6E
100
AcDbEntity
  8
0
  6
CONTINUOUS
 62
     0
100
AcDbLine
 10
0.0
 20
0.0
 30
0.0
 11
-1.0
 21
0.0
 31
0.0
  0
LINE
  5
6F
100
AcDbEntity
  8
0
  6
CONTINUOUS
 62
     0
100
AcDbLine
 10
-0.5
 20
0.5
 30
0.0
 11
0.5
 21
0.5
 31
0.0
  0
LINE
  5
70
100
AcDbEntity
  8
0
  6
CONTINUOUS
 62
     0
100
AcDbLine
 10
0.5
 20
0.5
 30
0.0
 11
0.5
 21
-0.5
 31
0.0
  0
LINE
  5
71
100
AcDbEntity
  8
0
  6
CONTINUOUS
 62
     0
100
AcDbLine
 10
0.5
 20
-0.5
 30
0.0
 11
-0.5
 21
-0.5
 31
0.0
  0
LINE
  5
72
100
AcDbEntity
  8
0
  6
CONTINUOUS
 62
     0
100
AcDbLine
 10
-0.5
 20
-0.5
 30
0.0
 11
-0.5
 21
0.5
 31
0.0
  0
LINE
  5
73
100
AcDbEntity
  8
0
  6
CONTINUOUS
 62
     0
100
AcDbLine
 10
-0.25
 20
0.25
 30
0.0
 11
0.25
 21
0.25
 31
0.0
  0
LINE
  5
74
100
AcDbEntity
  8
0
  6
CONTINUOUS
 62
     0
100
AcDbLine
 10
0.25
 20
0.25
 30
0.0
 11
0.25
 21
-0.25
 31
0.0
  0
LINE
  5
75
100
AcDbEntity
  8
0
  6
CONTINUOUS
 62
     0
100
AcDbLine
 10
0.25
 20
-0.25
 30
0.0
 11
-0.25
 21
-0.25
 31
0.0
  0
LINE
  5
76
100
AcDbEntity
  8
0
  6
CONTINUOUS
 62
     0
100
AcDbLine
 10
-0.25
 20
-0.25
 30
0.0
 11
-0.25
 21
0.25
 31
0.0
  0
ENDBLK
  5
77
100
AcDbEntity
  8
0
100
AcDbBlockEnd
  0
BLOCK
  5
78
100
AcDbEntity
  8
0
100
AcDbBlockBegin
  2
_EX_WBOX
 70
     0
 10
0.0
 20
0.0
 30
0.0
  3
_EX_WBOX
  1

  0
LINE
  5
79
100
AcDbEntity
  8
0
  6
CONTINUOUS
 62
     0
100
AcDbLine
 10
-0.5
 20
0.0
 30
0.0
 11
-1.0
 21
0.0
 31
0.0
  0
LINE
  5
7A
100
AcDbEntity
  8
0
  6
CONTINUOUS
 62
     0
100
AcDbLine
 10
-0.5
 20
0.5
 30
0.0
 11
0.5
 21
0.5
 31
0.0
  0
LINE
  5
7B
100
AcDbEntity
  8
0
  6
CONTINUOUS
 62
     0
100
AcDbLine
 10
0.5
 20
0.5
 30
0.0
 11
0.5
 21
-0.5
 31
0.0
  0
LINE
  5
7C
100
AcDbEntity
  8
0
  6
CONTINUOUS
 62
     0
100
AcDbLine
 10
0.5
 20
-0.5
 30
0.0
 11
-0.5
 21
-0.5
 31
0.0
  0
LINE
  5
7D
100
AcDbEntity
  8
0
  6
CONTINUOUS
 62
     0
100
AcDbLine
 10
-0.5
 20
-0.5
 30
0.0
 11
-0.5
 21
0.5
 31
0.0
  0
ENDBLK
  5
7E
100
AcDbEntity
  8
0
100
AcDbBlockEnd
  0
BLOCK
  5
7F
100
AcDbEntity
  8
0
100
AcDbBlockBegin
  2
_EX_INTEGRAL
 70
     0
 10
0.0
 20
0.0
 30
0.0
  3
_EX_INTEGRAL
  1

  0
LINE
  5
80
100
AcDbEntity
  8
0
  6
CONTINUOUS
 62
     0
100
AcDbLine
 10
0.0
 20
0.0
 30
0.0
 11
-1.0
 21
0.0
 31
0.0
  0
ARC
  5
81
100
AcDbEntity
  8
0
  6
CONTINUOUS
 62
     0
100
AcDbCircle
 10
0.542115
 20
0.164992
 30
0.0
 40
0.56667
100
AcDbArc
 50
73.07249
 51
196.927513
  0
ARC
  5
82
100
AcDbEntity
  8
0
  6
CONTINUOUS
 62
     0
100
AcDbCircle
 10
-0.542115
 20
-0.164992
 30
0.0
 40
0.56667
100
AcDbArc
 50
253.072487
 51
16.927513
  0
ENDBLK
  5
83
100
AcDbEntity
  8
0
100
AcDbBlockEnd
  0
BLOCK
  5
269
100
AcDbEntity
  8
0
100
AcDbBlockBegin
  2
*D14
 70
    65
 10
0.0
 20
0.0
 30
0.0
  3
*D14
  1

  0
LINE
  5
26A
100
AcDbEntity
  8
寸法
  6
CONTINUOUS
 62
     3
100
AcDbLine
 10
667.0
 20
616.0
 30
0.0
 11
667.0
 21
393.0
 31
0.0
  0
LINE
  5
26B
100
AcDbEntity
  8
寸法
  6
CONTINUOUS
 62
     3
100
AcDbLine
 10
792.0
 20
609.0
 30
0.0
 11
792.0
 21
393.0
 31
0.0
  0
TEXT
  5
26C
100
AcDbEntity
  8
寸法
  6
CONTINUOUS
 62
     2
100
AcDbText
 10
324.2
 20
406.5
 30
0.0
 40
40.0
  1
125±10（床給水）
 41
0.84
  7
EXCADSTD
 72
     1
 11
467.0
 21
406.5
 31
0.0
100
AcDbText
  0
LINE
  5
26D
100
AcDbEntity
  8
寸法
  6
CONTINUOUS
 62
     3
100
AcDbLine
 10
293.500015
 20
403.0
 30
0.0
 11
822.0
 21
403.0
 31
0.0
  0
LINE
  5
26E
100
AcDbEntity
  8
寸法
  6
CONTINUOUS
 62
     3
100
AcDbLine
 10
637.0
 20
398.0
 30
0.0
 11
667.0
 21
403.0
 31
0.0
  0
LINE
  5
26F
100
AcDbEntity
  8
寸法
  6
CONTINUOUS
 62
     3
100
AcDbLine
 10
667.0
 20
403.0
 30
0.0
 11
637.0
 21
408.0
 31
0.0
  0
LINE
  5
270
100
AcDbEntity
  8
寸法
  6
CONTINUOUS
 62
     3
100
AcDbLine
 10
822.0
 20
408.0
 30
0.0
 11
792.0
 21
403.0
 31
0.0
  0
LINE
  5
271
100
AcDbEntity
  8
寸法
  6
CONTINUOUS
 62
     3
100
AcDbLine
 10
792.0
 20
403.0
 30
0.0
 11
822.0
 21
398.0
 31
0.0
  0
ENDBLK
  5
272
100
AcDbEntity
  8
0
100
AcDbBlockEnd
  0
BLOCK
  5
276
100
AcDbEntity
  8
0
100
AcDbBlockBegin
  2
*D15
 70
    65
 10
0.0
 20
0.0
 30
0.0
  3
*D15
  1

  0
LINE
  5
277
100
AcDbEntity
  8
寸法
  6
CONTINUOUS
 62
     3
100
AcDbLine
 10
667.0
 20
616.0
 30
0.0
 11
667.0
 21
463.0
 31
0.0
  0
LINE
  5
278
100
AcDbEntity
  8
寸法
  6
CONTINUOUS
 62
     3
100
AcDbLine
 10
697.0
 20
586.0
 30
0.0
 11
697.0
 21
463.0
 31
0.0
  0
TEXT
  5
279
100
AcDbEntity
  8
寸法
  6
CONTINUOUS
 62
     2
100
AcDbText
 10
351.8
 20
476.5
 30
0.0
 40
40.0
  1
30±10（床排水）
 41
0.84
  7
EXCADSTD
 72
     1
 11
482.0
 21
476.5
 31
0.0
100
AcDbText
  0
LINE
  5
27A
100
AcDbEntity
  8
寸法
  6
CONTINUOUS
 62
     3
100
AcDbLine
 10
323.500015
 20
473.0
 30
0.0
 11
727.0
 21
473.0
 31
0.0
  0
LINE
  5
27B
100
AcDbEntity
  8
寸法
  6
CONTINUOUS
 62
     3
100
AcDbLine
 10
637.0
 20
468.0
 30
0.0
 11
667.0
 21
473.0
 31
0.0
  0
LINE
  5
27C
100
AcDbEntity
  8
寸法
  6
CONTINUOUS
 62
     3
100
AcDbLine
 10
667.0
 20
473.0
 30
0.0
 11
637.0
 21
478.0
 31
0.0
  0
LINE
  5
27D
100
AcDbEntity
  8
寸法
  6
CONTINUOUS
 62
     3
100
AcDbLine
 10
727.0
 20
478.0
 30
0.0
 11
697.0
 21
473.0
 31
0.0
  0
LINE
  5
27E
100
AcDbEntity
  8
寸法
  6
CONTINUOUS
 62
     3
100
AcDbLine
 10
697.0
 20
473.0
 30
0.0
 11
727.0
 21
468.0
 31
0.0
  0
ENDBLK
  5
27F
100
AcDbEntity
  8
0
100
AcDbBlockEnd
  0
BLOCK
  5
286
100
AcDbEntity
  8
0
100
AcDbBlockBegin
  2
*D16
 70
    65
 10
0.0
 20
0.0
 30
0.0
  3
*D16
  1

  0
LINE
  5
287
100
AcDbEntity
  8
寸法
  6
CONTINUOUS
 62
     3
100
AcDbLine
 10
845.0
 20
1403.5
 30
0.0
 11
1005.0
 21
1403.5
 31
0.0
  0
TEXT
  5
288
100
AcDbEntity
  8
寸法
  6
CONTINUOUS
 62
     2
100
AcDbText
 10
991.5
 20
971.25
 30
0.0
 40
40.0
  1
780
 50
90.0
 41
0.84
  7
EXCADSTD
 72
     1
 11
991.5
 21
1013.25
 31
0.0
100
AcDbText
  0
LINE
  5
289
100
AcDbEntity
  8
寸法
  6
CONTINUOUS
 62
     3
100
AcDbLine
 10
995.0
 20
623.0
 30
0.0
 11
995.0
 21
1403.5
 31
0.0
  0
LINE
  5
28A
100
AcDbEntity
  8
寸法
  6
CONTINUOUS
 62
     3
100
AcDbLine
 10
990.0
 20
653.0
 30
0.0
 11
995.0
 21
623.0
 31
0.0
  0
LINE
  5
28B
100
AcDbEntity
  8
寸法
  6
CONTINUOUS
 62
     3
100
AcDbLine
 10
995.0
 20
623.0
 30
0.0
 11
1000.0
 21
653.0
 31
0.0
  0
LINE
  5
28C
100
AcDbEntity
  8
寸法
  6
CONTINUOUS
 62
     3
100
AcDbLine
 10
1000.0
 20
1373.5
 30
0.0
 11
995.0
 21
1403.5
 31
0.0
  0
LINE
  5
28D
100
AcDbEntity
  8
寸法
  6
CONTINUOUS
 62
     3
100
AcDbLine
 10
995.0
 20
1403.5
 30
0.0
 11
990.0
 21
1373.5
 31
0.0
  0
ENDBLK
  5
28E
100
AcDbEntity
  8
0
100
AcDbBlockEnd
  0
BLOCK
  5
291
100
AcDbEntity
  8
0
100
AcDbBlockBegin
  2
*D17
 70
    65
 10
0.0
 20
0.0
 30
0.0
  3
*D17
  1

  0
LINE
  5
292
100
AcDbEntity
  8
寸法
  6
CONTINUOUS
 62
     3
100
AcDbLine
 10
843.592719
 20
1463.5
 30
0.0
 11
1075.0
 21
1463.5
 31
0.0
  0
TEXT
  5
293
100
AcDbEntity
  8
寸法
  6
CONTINUOUS
 62
     2
100
AcDbText
 10
1061.5
 20
1001.25
 30
0.0
 40
40.0
  1
840
 50
90.0
 41
0.84
  7
EXCADSTD
 72
     1
 11
1061.5
 21
1043.25
 31
0.0
100
AcDbText
  0
LINE
  5
294
100
AcDbEntity
  8
寸法
  6
CONTINUOUS
 62
     3
100
AcDbLine
 10
1065.0
 20
623.0
 30
0.0
 11
1065.0
 21
1463.5
 31
0.0
  0
LINE
  5
295
100
AcDbEntity
  8
寸法
  6
CONTINUOUS
 62
     3
100
AcDbLine
 10
1060.0
 20
653.0
 30
0.0
 11
1065.0
 21
623.0
 31
0.0
  0
LINE
  5
296
100
AcDbEntity
  8
寸法
  6
CONTINUOUS
 62
     3
100
AcDbLine
 10
1065.0
 20
623.0
 30
0.0
 11
1070.0
 21
653.0
 31
0.0
  0
LINE
  5
297
100
AcDbEntity
  8
寸法
  6
CONTINUOUS
 62
     3
100
AcDbLine
 10
1070.0
 20
1433.5
 30
0.0
 11
1065.0
 21
1463.5
 31
0.0
  0
LINE
  5
298
100
AcDbEntity
  8
寸法
  6
CONTINUOUS
 62
     3
100
AcDbLine
 10
1065.0
 20
1463.5
 30
0.0
 11
1060.0
 21
1433.5
 31
0.0
  0
ENDBLK
  5
299
100
AcDbEntity
  8
0
100
AcDbBlockEnd
  0
BLOCK
  5
29C
100
AcDbEntity
  8
0
100
AcDbBlockBegin
  2
*D18
 70
    65
 10
0.0
 20
0.0
 30
0.0
  3
*D18
  1

  0
LINE
  5
29D
100
AcDbEntity
  8
寸法
  6
CONTINUOUS
 62
     3
100
AcDbLine
 10
839.0
 20
1283.5
 30
0.0
 11
935.0
 21
1283.5
 31
0.0
  0
LINE
  5
29E
100
AcDbEntity
  8
寸法
  6
CONTINUOUS
 62
     3
100
AcDbLine
 10
845.0
 20
1403.5
 30
0.0
 11
935.0
 21
1403.5
 31
0.0
  0
TEXT
  5
29F
100
AcDbEntity
  8
寸法
  6
CONTINUOUS
 62
     2
100
AcDbText
 10
921.5
 20
1301.5
 30
0.0
 40
40.0
  1
120
 50
90.0
 41
0.84
  7
EXCADSTD
 72
     1
 11
921.5
 21
1343.5
 31
0.0
100
AcDbText
  0
LINE
  5
2A0
100
AcDbEntity
  8
寸法
  6
CONTINUOUS
 62
     3
100
AcDbLine
 10
925.0
 20
1283.5
 30
0.0
 11
925.0
 21
1403.5
 31
0.0
  0
LINE
  5
2A1
100
AcDbEntity
  8
寸法
  6
CONTINUOUS
 62
     3
100
AcDbLine
 10
920.0
 20
1313.5
 30
0.0
 11
925.0
 21
1283.5
 31
0.0
  0
LINE
  5
2A2
100
AcDbEntity
  8
寸法
  6
CONTINUOUS
 62
     3
100
AcDbLine
 10
925.0
 20
1283.5
 30
0.0
 11
930.0
 21
1313.5
 31
0.0
  0
LINE
  5
2A3
100
AcDbEntity
  8
寸法
  6
CONTINUOUS
 62
     3
100
AcDbLine
 10
930.0
 20
1373.5
 30
0.0
 11
925.0
 21
1403.5
 31
0.0
  0
LINE
  5
2A4
100
AcDbEntity
  8
寸法
  6
CONTINUOUS
 62
     3
100
AcDbLine
 10
925.0
 20
1403.5
 30
0.0
 11
920.0
 21
1373.5
 31
0.0
  0
ENDBLK
  5
2A5
100
AcDbEntity
  8
0
100
AcDbBlockEnd
  0
BLOCK
  5
2A8
100
AcDbEntity
  8
0
100
AcDbBlockBegin
  2
*D19
 70
    65
 10
0.0
 20
0.0
 30
0.0
  3
*D19
  1

  0
LINE
  5
2A9
100
AcDbEntity
  8
寸法
  6
CONTINUOUS
 62
     3
100
AcDbLine
 10
687.0
 20
1146.0
 30
0.0
 11
687.0
 21
951.0
 31
0.0
  0
TEXT
  5
2AA
100
AcDbEntity
  8
寸法
  6
CONTINUOUS
 62
     2
100
AcDbText
 10
351.8
 20
964.5
 30
0.0
 40
40.0
  1
20±10（壁排水）
 41
0.84
  7
EXCADSTD
 72
     1
 11
482.0
 21
964.5
 31
0.0
100
AcDbText
  0
LINE
  5
2AB
100
AcDbEntity
  8
寸法
  6
CONTINUOUS
 62
     3
100
AcDbLine
 10
323.500015
 20
961.0
 30
0.0
 11
717.0
 21
961.0
 31
0.0
  0
LINE
  5
2AC
100
AcDbEntity
  8
寸法
  6
CONTINUOUS
 62
     3
100
AcDbLine
 10
637.0
 20
956.0
 30
0.0
 11
667.0
 21
961.0
 31
0.0
  0
LINE
  5
2AD
100
AcDbEntity
  8
寸法
  6
CONTINUOUS
 62
     3
100
AcDbLine
 10
667.0
 20
961.0
 30
0.0
 11
637.0
 21
966.0
 31
0.0
  0
LINE
  5
2AE
100
AcDbEntity
  8
寸法
  6
CONTINUOUS
 62
     3
100
AcDbLine
 10
717.0
 20
966.0
 30
0.0
 11
687.0
 21
961.0
 31
0.0
  0
LINE
  5
2AF
100
AcDbEntity
  8
寸法
  6
CONTINUOUS
 62
     3
100
AcDbLine
 10
687.0
 20
961.0
 30
0.0
 11
717.0
 21
956.0
 31
0.0
  0
ENDBLK
  5
2B0
100
AcDbEntity
  8
0
100
AcDbBlockEnd
  0
BLOCK
  5
2B3
100
AcDbEntity
  8
0
100
AcDbBlockBegin
  2
*D20
 70
    65
 10
0.0
 20
0.0
 30
0.0
  3
*D20
  1

  0
LINE
  5
2B4
100
AcDbEntity
  8
寸法
  6
CONTINUOUS
 62
     3
100
AcDbLine
 10
792.0
 20
1043.5
 30
0.0
 11
792.0
 21
881.0
 31
0.0
  0
TEXT
  5
2B5
100
AcDbEntity
  8
寸法
  6
CONTINUOUS
 62
     2
100
AcDbText
 10
324.2
 20
894.5
 30
0.0
 40
40.0
  1
125±10（壁給水）
 41
0.84
  7
EXCADSTD
 72
     1
 11
467.0
 21
894.5
 31
0.0
100
AcDbText
  0
LINE
  5
2B6
100
AcDbEntity
  8
寸法
  6
CONTINUOUS
 62
     3
100
AcDbLine
 10
293.500015
 20
891.0
 30
0.0
 11
822.0
 21
891.0
 31
0.0
  0
LINE
  5
2B7
100
AcDbEntity
  8
寸法
  6
CONTINUOUS
 62
     3
100
AcDbLine
 10
637.0
 20
886.0
 30
0.0
 11
667.0
 21
891.0
 31
0.0
  0
LINE
  5
2B8
100
AcDbEntity
  8
寸法
  6
CONTINUOUS
 62
     3
100
AcDbLine
 10
667.0
 20
891.0
 30
0.0
 11
637.0
 21
896.0
 31
0.0
  0
LINE
  5
2B9
100
AcDbEntity
  8
寸法
  6
CONTINUOUS
 62
     3
100
AcDbLine
 10
822.0
 20
896.0
 30
0.0
 11
792.0
 21
891.0
 31
0.0
  0
LINE
  5
2BA
100
AcDbEntity
  8
寸法
  6
CONTINUOUS
 62
     3
100
AcDbLine
 10
792.0
 20
891.0
 30
0.0
 11
822.0
 21
886.0
 31
0.0
  0
ENDBLK
  5
2BB
100
AcDbEntity
  8
0
100
AcDbBlockEnd
  0
BLOCK
  5
2BE
100
AcDbEntity
  8
0
100
AcDbBlockBegin
  2
*D21
 70
    65
 10
0.0
 20
0.0
 30
0.0
  3
*D21
  1

  0
LINE
  5
2BF
100
AcDbEntity
  8
寸法
  6
CONTINUOUS
 62
     3
100
AcDbLine
 10
1529.99999
 20
586.0
 30
0.0
 11
1529.99999
 21
533.0
 31
0.0
  0
LINE
  5
2C0
100
AcDbEntity
  8
寸法
  6
CONTINUOUS
 62
     3
100
AcDbLine
 10
1589.99999
 20
616.0
 30
0.0
 11
1589.99999
 21
533.0
 31
0.0
  0
TEXT
  5
2C1
100
AcDbEntity
  8
寸法
  6
CONTINUOUS
 62
     2
100
AcDbText
 10
1647.19999
 20
546.5
 30
0.0
 40
40.0
  1
60±10（床給排水）
 41
0.84
  7
EXCADSTD
 72
     1
 11
1789.99999
 21
546.5
 31
0.0
100
AcDbText
  0
LINE
  5
2C2
100
AcDbEntity
  8
寸法
  6
CONTINUOUS
 62
     3
100
AcDbLine
 10
1499.99999
 20
543.0
 30
0.0
 11
1963.499975
 21
543.0
 31
0.0
  0
LINE
  5
2C3
100
AcDbEntity
  8
寸法
  6
CONTINUOUS
 62
     3
100
AcDbLine
 10
1499.99999
 20
538.0
 30
0.0
 11
1529.99999
 21
543.0
 31
0.0
  0
LINE
  5
2C4
100
AcDbEntity
  8
寸法
  6
CONTINUOUS
 62
     3
100
AcDbLine
 10
1529.99999
 20
543.0
 30
0.0
 11
1499.99999
 21
548.0
 31
0.0
  0
LINE
  5
2C5
100
AcDbEntity
  8
寸法
  6
CONTINUOUS
 62
     3
100
AcDbLine
 10
1619.99999
 20
548.0
 30
0.0
 11
1589.99999
 21
543.0
 31
0.0
  0
LINE
  5
2C6
100
AcDbEntity
  8
寸法
  6
CONTINUOUS
 62
     3
100
AcDbLine
 10
1589.99999
 20
543.0
 30
0.0
 11
1619.99999
 21
538.0
 31
0.0
  0
ENDBLK
  5
2C7
100
AcDbEntity
  8
0
100
AcDbBlockEnd
  0
BLOCK
  5
2CA
100
AcDbEntity
  8
0
100
AcDbBlockBegin
  2
*D22
 70
    65
 10
0.0
 20
0.0
 30
0.0
  3
*D22
  1

  0
LINE
  5
2CB
100
AcDbEntity
  8
寸法
  6
CONTINUOUS
 62
     3
100
AcDbLine
 10
1596.99999
 20
623.0
 30
0.0
 11
1749.99999
 21
623.0
 31
0.0
  0
LINE
  5
2CC
100
AcDbEntity
  8
寸法
  6
CONTINUOUS
 62
     3
100
AcDbLine
 10
1626.99999
 20
1153.0
 30
0.0
 11
1749.99999
 21
1153.0
 31
0.0
  0
TEXT
  5
2CD
100
AcDbEntity
  8
寸法
  6
CONTINUOUS
 62
     2
100
AcDbText
 10
1736.49999
 20
745.2
 30
0.0
 40
40.0
  1
530±10（壁排水）
 50
90.0
 41
0.84
  7
EXCADSTD
 72
     1
 11
1736.49999
 21
888.0
 31
0.0
100
AcDbText
  0
LINE
  5
2CE
100
AcDbEntity
  8
寸法
  6
CONTINUOUS
 62
     3
100
AcDbLine
 10
1739.99999
 20
623.0
 30
0.0
 11
1739.99999
 21
1153.0
 31
0.0
  0
LINE
  5
2CF
100
AcDbEntity
  8
寸法
  6
CONTINUOUS
 62
     3
100
AcDbLine
 10
1734.99999
 20
653.0
 30
0.0
 11
1739.99999
 21
623.0
 31
0.0
  0
LINE
  5
2D0
100
AcDbEntity
  8
寸法
  6
CONTINUOUS
 62
     3
100
AcDbLine
 10
1739.99999
 20
623.0
 30
0.0
 11
1744.99999
 21
653.0
 31
0.0
  0
LINE
  5
2D1
100
AcDbEntity
  8
寸法
  6
CONTINUOUS
 62
     3
100
AcDbLine
 10
1744.99999
 20
1123.0
 30
0.0
 11
1739.99999
 21
1153.0
 31
0.0
  0
LINE
  5
2D2
100
AcDbEntity
  8
寸法
  6
CONTINUOUS
 62
     3
100
AcDbLine
 10
1739.99999
 20
1153.0
 30
0.0
 11
1734.99999
 21
1123.0
 31
0.0
  0
ENDBLK
  5
2D3
100
AcDbEntity
  8
0
100
AcDbBlockEnd
  0
BLOCK
  5
2D6
100
AcDbEntity
  8
0
100
AcDbBlockBegin
  2
*D23
 70
    65
 10
0.0
 20
0.0
 30
0.0
  3
*D23
  1

  0
LINE
  5
2D7
100
AcDbEntity
  8
寸法
  6
CONTINUOUS
 62
     3
100
AcDbLine
 10
1596.99999
 20
623.0
 30
0.0
 11
1819.99999
 21
623.0
 31
0.0
  0
LINE
  5
2D8
100
AcDbEntity
  8
寸法
  6
CONTINUOUS
 62
     3
100
AcDbLine
 10
1638.25182
 20
1438.5
 30
0.0
 11
1819.99999
 21
1438.5
 31
0.0
  0
TEXT
  5
2D9
100
AcDbEntity
  8
寸法
  6
CONTINUOUS
 62
     2
100
AcDbText
 10
1806.49999
 20
925.75
 30
0.0
 40
40.0
  1
815（壁固定）
 50
90.0
 41
0.84
  7
EXCADSTD
 72
     1
 11
1806.49999
 21
1030.75
 31
0.0
100
AcDbText
  0
LINE
  5
2DA
100
AcDbEntity
  8
寸法
  6
CONTINUOUS
 62
     3
100
AcDbLine
 10
1809.99999
 20
623.0
 30
0.0
 11
1809.99999
 21
1438.5
 31
0.0
  0
LINE
  5
2DB
100
AcDbEntity
  8
寸法
  6
CONTINUOUS
 62
     3
100
AcDbLine
 10
1804.99999
 20
653.0
 30
0.0
 11
1809.99999
 21
623.0
 31
0.0
  0
LINE
  5
2DC
100
AcDbEntity
  8
寸法
  6
CONTINUOUS
 62
     3
100
AcDbLine
 10
1809.99999
 20
623.0
 30
0.0
 11
1814.99999
 21
653.0
 31
0.0
  0
LINE
  5
2DD
100
AcDbEntity
  8
寸法
  6
CONTINUOUS
 62
     3
100
AcDbLine
 10
1814.99999
 20
1408.5
 30
0.0
 11
1809.99999
 21
1438.5
 31
0.0
  0
LINE
  5
2DE
100
AcDbEntity
  8
寸法
  6
CONTINUOUS
 62
     3
100
AcDbLine
 10
1809.99999
 20
1438.5
 30
0.0
 11
1804.99999
 21
1408.5
 31
0.0
  0
ENDBLK
  5
2DF
100
AcDbEntity
  8
0
100
AcDbBlockEnd
  0
BLOCK
  5
2E6
100
AcDbEntity
  8
0
100
AcDbBlockBegin
  2
*D24
 70
    65
 10
0.0
 20
0.0
 30
0.0
  3
*D24
  1

  0
LINE
  5
2E7
100
AcDbEntity
  8
寸法
  6
CONTINUOUS
 62
     3
100
AcDbLine
 10
1390.109305
 20
1403.571254
 30
0.0
 11
1390.109305
 21
1553.5
 31
0.0
  0
LINE
  5
2E8
100
AcDbEntity
  8
寸法
  6
CONTINUOUS
 62
     3
100
AcDbLine
 10
1589.99999
 20
1468.5
 30
0.0
 11
1589.99999
 21
1553.5
 31
0.0
  0
TEXT
  5
2E9
100
AcDbEntity
  8
寸法
  6
CONTINUOUS
 62
     2
100
AcDbText
 10
1448.054647
 20
1547.0
 30
0.0
 40
40.0
  1
200
 41
0.84
  7
EXCADSTD
 72
     1
 11
1490.054647
 21
1547.0
 31
0.0
100
AcDbText
  0
LINE
  5
2EA
100
AcDbEntity
  8
寸法
  6
CONTINUOUS
 62
     3
100
AcDbLine
 10
1390.109305
 20
1543.5
 30
0.0
 11
1589.99999
 21
1543.5
 31
0.0
  0
LINE
  5
2EB
100
AcDbEntity
  8
寸法
  6
CONTINUOUS
 62
     3
100
AcDbLine
 10
1420.109305
 20
1548.5
 30
0.0
 11
1390.109305
 21
1543.5
 31
0.0
  0
LINE
  5
2EC
100
AcDbEntity
  8
寸法
  6
CONTINUOUS
 62
     3
100
AcDbLine
 10
1390.109305
 20
1543.5
 30
0.0
 11
1420.109305
 21
1538.5
 31
0.0
  0
LINE
  5
2ED
100
AcDbEntity
  8
寸法
  6
CONTINUOUS
 62
     3
100
AcDbLine
 10
1559.99999
 20
1538.5
 30
0.0
 11
1589.99999
 21
1543.5
 31
0.0
  0
LINE
  5
2EE
100
AcDbEntity
  8
寸法
  6
CONTINUOUS
 62
     3
100
AcDbLine
 10
1589.99999
 20
1543.5
 30
0.0
 11
1559.99999
 21
1548.5
 31
0.0
  0
ENDBLK
  5
2EF
100
AcDbEntity
  8
0
100
AcDbBlockEnd
  0
BLOCK
  5
2F2
100
AcDbEntity
  8
0
100
AcDbBlockBegin
  2
*D25
 70
    65
 10
0.0
 20
0.0
 30
0.0
  3
*D25
  1

  0
LINE
  5
2F3
100
AcDbEntity
  8
寸法
  6
CONTINUOUS
 62
     3
100
AcDbLine
 10
489.5011
 20
1406.593793
 30
0.0
 11
489.5011
 21
1553.5
 31
0.0
  0
LINE
  5
2F4
100
AcDbEntity
  8
寸法
  6
CONTINUOUS
 62
     3
100
AcDbLine
 10
844.491647
 20
1406.903037
 30
0.0
 11
844.491647
 21
1553.5
 31
0.0
  0
LINE
  5
2F5
100
AcDbEntity
  8
寸法
  6
CONTINUOUS
 62
     3
100
AcDbLine
 10
489.5011
 20
1543.5
 30
0.0
 11
844.491647
 21
1543.5
 31
0.0
  0
LINE
  5
2F6
100
AcDbEntity
  8
寸法
  6
CONTINUOUS
 62
     3
100
AcDbLine
 10
519.5011
 20
1548.5
 30
0.0
 11
489.5011
 21
1543.5
 31
0.0
  0
LINE
  5
2F7
100
AcDbEntity
  8
寸法
  6
CONTINUOUS
 62
     3
100
AcDbLine
 10
489.5011
 20
1543.5
 30
0.0
 11
519.5011
 21
1538.5
 31
0.0
  0
LINE
  5
2F8
100
AcDbEntity
  8
寸法
  6
CONTINUOUS
 62
     3
100
AcDbLine
 10
814.491647
 20
1538.5
 30
0.0
 11
844.491647
 21
1543.5
 31
0.0
  0
LINE
  5
2F9
100
AcDbEntity
  8
寸法
  6
CONTINUOUS
 62
     3
100
AcDbLine
 10
844.491647
 20
1543.5
 30
0.0
 11
814.491647
 21
1548.5
 31
0.0
  0
TEXT
  5
2FA
100
AcDbEntity
  8
寸法
  6
CONTINUOUS
 62
     2
100
AcDbText
 10
624.996373
 20
1547.0
 30
0.0
 40
40.0
  1
355
 41
0.84
  7
EXCADSTD
 72
     1
 11
666.996373
 21
1547.0
 31
0.0
100
AcDbText
  0
ENDBLK
  5
2FB
100
AcDbEntity
  8
0
100
AcDbBlockEnd
  0
BLOCK
  5
2FE
100
AcDbEntity
  8
0
100
AcDbBlockBegin
  2
*D26
 70
    65
 10
0.0
 20
0.0
 30
0.0
  3
*D26
  1

  0
LINE
  5
2FF
100
AcDbEntity
  8
寸法
  6
CONTINUOUS
 62
     3
100
AcDbLine
 10
1612.99999
 20
1088.0
 30
0.0
 11
1679.99999
 21
1088.0
 31
0.0
  0
TEXT
  5
300
100
AcDbEntity
  8
寸法
  6
CONTINUOUS
 62
     2
100
AcDbText
 10
1666.49999
 20
712.7
 30
0.0
 40
40.0
  1
465±10（壁給水）
 50
90.0
 41
0.84
  7
EXCADSTD
 72
     1
 11
1666.49999
 21
855.5
 31
0.0
100
AcDbText
  0
LINE
  5
301
100
AcDbEntity
  8
寸法
  6
CONTINUOUS
 62
     3
100
AcDbLine
 10
1669.99999
 20
1088.0
 30
0.0
 11
1669.99999
 21
623.0
 31
0.0
  0
LINE
  5
302
100
AcDbEntity
  8
寸法
  6
CONTINUOUS
 62
     3
100
AcDbLine
 10
1674.99999
 20
1058.0
 30
0.0
 11
1669.99999
 21
1088.0
 31
0.0
  0
LINE
  5
303
100
AcDbEntity
  8
寸法
  6
CONTINUOUS
 62
     3
100
AcDbLine
 10
1669.99999
 20
1088.0
 30
0.0
 11
1664.99999
 21
1058.0
 31
0.0
  0
LINE
  5
304
100
AcDbEntity
  8
寸法
  6
CONTINUOUS
 62
     3
100
AcDbLine
 10
1664.99999
 20
653.0
 30
0.0
 11
1669.99999
 21
623.0
 31
0.0
  0
LINE
  5
305
100
AcDbEntity
  8
寸法
  6
CONTINUOUS
 62
     3
100
AcDbLine
 10
1669.99999
 20
623.0
 30
0.0
 11
1674.99999
 21
653.0
 31
0.0
  0
ENDBLK
  5
306
100
AcDbEntity
  8
0
100
AcDbBlockEnd
  0
ENDSEC
  0
SECTION
  2
ENTITIES
  0
LINE
  5
84
100
AcDbEntity
  8
枠・表
  6
CONTINUOUS
 62
     7
100
AcDbLine
 10
180.0
 20
135.0
 30
0.0
 11
2000.0
 21
135.0
 31
0.0
  0
LINE
  5
85
100
AcDbEntity
  8
枠・表
  6
CONTINUOUS
 62
     7
100
AcDbLine
 10
2000.0
 20
135.0
 30
0.0
 11
2000.0
 21
2885.0
 31
0.0
  0
LINE
  5
86
100
AcDbEntity
  8
枠・表
  6
CONTINUOUS
 62
     7
100
AcDbLine
 10
180.0
 20
135.0
 30
0.0
 11
180.0
 21
2885.0
 31
0.0
  0
LINE
  5
87
100
AcDbEntity
  8
枠・表
  6
CONTINUOUS
 62
     7
100
AcDbLine
 10
180.0
 20
2885.0
 30
0.0
 11
2000.0
 21
2885.0
 31
0.0
  0
LINE
  5
88
100
AcDbEntity
  8
枠・表
  6
CONTINUOUS
 62
     7
100
AcDbLine
 10
180.0
 20
355.0
 30
0.0
 11
2000.0
 21
355.0
 31
0.0
  0
LINE
  5
89
100
AcDbEntity
  8
枠・表
  6
CONTINUOUS
 62
     6
100
AcDbLine
 10
2000.0
 20
235.0
 30
0.0
 11
750.0
 21
235.0
 31
0.0
  0
LINE
  5
8A
100
AcDbEntity
  8
枠・表
  6
CONTINUOUS
 62
     6
100
AcDbLine
 10
1860.0
 20
355.0
 30
0.0
 11
1860.0
 21
235.0
 31
0.0
  0
LINE
  5
8B
100
AcDbEntity
  8
枠・表
  6
CONTINUOUS
 62
     6
100
AcDbLine
 10
1810.0
 20
355.0
 30
0.0
 11
1810.0
 21
235.0
 31
0.0
  0
LINE
  5
8C
100
AcDbEntity
  8
枠・表
  6
CONTINUOUS
 62
     6
100
AcDbLine
 10
1440.0
 20
355.0
 30
0.0
 11
1440.0
 21
135.0
 31
0.0
  0
LINE
  5
8D
100
AcDbEntity
  8
枠・表
  6
CONTINUOUS
 62
     6
100
AcDbLine
 10
1390.0
 20
355.0
 30
0.0
 11
1390.0
 21
135.0
 31
0.0
  0
LINE
  5
8E
100
AcDbEntity
  8
枠・表
  6
CONTINUOUS
 62
     6
100
AcDbLine
 10
800.0
 20
355.0
 30
0.0
 11
800.0
 21
235.0
 31
0.0
  0
LINE
  5
8F
100
AcDbEntity
  8
枠・表
  6
CONTINUOUS
 62
     6
100
AcDbLine
 10
750.0
 20
355.0
 30
0.0
 11
750.0
 21
135.0
 31
0.0
  0
LINE
  5
90
100
AcDbEntity
  8
枠・表
  6
CONTINUOUS
 62
     6
100
AcDbLine
 10
620.0
 20
355.0
 30
0.0
 11
620.0
 21
135.0
 31
0.0
  0
LINE
  5
91
100
AcDbEntity
  8
枠・表
  6
CONTINUOUS
 62
     6
100
AcDbLine
 10
490.0
 20
355.0
 30
0.0
 11
490.0
 21
135.0
 31
0.0
  0
LINE
  5
92
100
AcDbEntity
  8
枠・表
  6
CONTINUOUS
 62
     6
100
AcDbLine
 10
335.0
 20
355.0
 30
0.0
 11
335.0
 21
135.0
 31
0.0
  0
LINE
  5
93
100
AcDbEntity
  8
枠・表
  6
CONTINUOUS
 62
     6
100
AcDbLine
 10
180.0
 20
305.0
 30
0.0
 11
750.0
 21
305.0
 31
0.0
  0
LINE
  5
94
100
AcDbEntity
  8
枠・表
  6
CONTINUOUS
 62
     6
100
AcDbLine
 10
1892.653809
 20
258.00293
 30
0.0
 11
1969.993897
 21
336.699829
 31
0.0
  0
LINE
  5
95
100
AcDbEntity
  8
枠・表
  6
EXLTYPE2
 62
     6
100
AcDbLine
 10
180.0
 20
185.0
 30
0.0
 11
490.0
 21
185.0
 31
0.0
  0
CIRCLE
  5
96
100
AcDbEntity
  8
枠・表
  6
CONTINUOUS
 62
     6
100
AcDbCircle
 10
230.0
 20
160.0
 30
0.0
 40
1.0
  0
CIRCLE
  5
97
100
AcDbEntity
  8
枠・表
  6
CONTINUOUS
 62
     6
100
AcDbCircle
 10
280.0
 20
160.0
 30
0.0
 40
1.0
  0
CIRCLE
  5
98
100
AcDbEntity
  8
枠・表
  6
CONTINUOUS
 62
     6
100
AcDbCircle
 10
385.0
 20
160.0
 30
0.0
 40
1.0
  0
CIRCLE
  5
99
100
AcDbEntity
  8
枠・表
  6
CONTINUOUS
 62
     6
100
AcDbCircle
 10
435.0
 20
160.0
 30
0.0
 40
1.0
  0
TEXT
  5
9A
100
AcDbEntity
  8
枠・表
  6
CONTINUOUS
 62
     2
100
AcDbText
 10
1890.537109
 20
302.722778
 30
0.0
 40
30.0
  1
１
 41
0.826
  7
EXCADSTD
 72
     5
 11
1914.13711
 21
302.722778
 31
0.0
100
AcDbText
  0
TEXT
  5
9B
100
AcDbEntity
  8
枠・表
  6
CONTINUOUS
 62
     2
100
AcDbText
 10
202.5
 20
308.75
 30
0.0
 40
42.5
  1
製図
 41
1.087059
  7
EXCADSTD
 72
     5
 11
303.326
 21
308.75
 31
0.0
100
AcDbText
  0
TEXT
  5
9C
100
AcDbEntity
  8
枠・表
  6
CONTINUOUS
 62
     2
100
AcDbText
 10
357.5
 20
308.75
 30
0.0
 40
42.5
  1
写図
 41
1.087059
  7
EXCADSTD
 72
     5
 11
458.326
 21
308.75
 31
0.0
100
AcDbText
  0
TEXT
  5
9D
100
AcDbEntity
  8
枠・表
  6
CONTINUOUS
 62
     2
100
AcDbText
 10
507.5
 20
308.75
 30
0.0
 40
42.5
  1
検図
 41
0.938824
  7
EXCADSTD
 72
     5
 11
594.577
 21
308.75
 31
0.0
100
AcDbText
  0
TEXT
  5
9E
100
AcDbEntity
  8
枠・表
  6
CONTINUOUS
 62
     2
100
AcDbText
 10
637.5
 20
308.75
 30
0.0
 40
42.5
  1
承認
 41
0.938824
  7
EXCADSTD
 72
     5
 11
724.577
 21
308.75
 31
0.0
100
AcDbText
  0
TEXT
  5
9F
100
AcDbEntity
  8
枠・表
  6
CONTINUOUS
 62
     2
100
AcDbText
 10
755.75
 20
298.75
 30
0.0
 40
42.5
  1
品
 41
0.84
  7
EXCADSTD
 72
     5
 11
789.75
 21
298.75
 31
0.0
100
AcDbText
  0
TEXT
  5
A0
100
AcDbEntity
  8
枠・表
  6
CONTINUOUS
 62
     2
100
AcDbText
 10
755.75
 20
248.75
 30
0.0
 40
42.5
  1
名
 41
0.84
  7
EXCADSTD
 72
     5
 11
789.75
 21
248.75
 31
0.0
100
AcDbText
  0
TEXT
  5
A1
100
AcDbEntity
  8
枠・表
  6
CONTINUOUS
 62
     2
100
AcDbText
 10
1395.75
 20
298.75
 30
0.0
 40
42.5
  1
品
 41
0.84
  7
EXCADSTD
 72
     5
 11
1429.75
 21
298.75
 31
0.0
100
AcDbText
  0
TEXT
  5
A2
100
AcDbEntity
  8
枠・表
  6
CONTINUOUS
 62
     2
100
AcDbText
 10
1395.75
 20
248.75
 30
0.0
 40
42.5
  1
番
 41
0.84
  7
EXCADSTD
 72
     5
 11
1429.75
 21
248.75
 31
0.0
100
AcDbText
  0
TEXT
  5
A3
100
AcDbEntity
  8
枠・表
  6
CONTINUOUS
 62
     2
100
AcDbText
 10
1816.75
 20
298.75
 30
0.0
 40
42.5
  1
尺
 41
0.84
  7
EXCADSTD
 72
     5
 11
1850.75
 21
298.75
 31
0.0
100
AcDbText
  0
TEXT
  5
A4
100
AcDbEntity
  8
枠・表
  6
CONTINUOUS
 62
     2
100
AcDbText
 10
1816.75
 20
248.75
 30
0.0
 40
42.5
  1
度
 41
0.84
  7
EXCADSTD
 72
     5
 11
1850.75
 21
248.75
 31
0.0
100
AcDbText
  0
TEXT
  5
A5
100
AcDbEntity
  8
枠・表
  6
CONTINUOUS
 62
     2
100
AcDbText
 10
1395.75
 20
185.75
 30
0.0
 40
42.5
  1
図
 41
0.84
  7
EXCADSTD
 72
     5
 11
1429.75
 21
185.75
 31
0.0
100
AcDbText
  0
TEXT
  5
A6
100
AcDbEntity
  8
枠・表
  6
CONTINUOUS
 62
     2
100
AcDbText
 10
1395.75
 20
142.75
 30
0.0
 40
42.5
  1
番
 41
0.84
  7
EXCADSTD
 72
     5
 11
1429.75
 21
142.75
 31
0.0
100
AcDbText
  0
TEXT
  5
A7
100
AcDbEntity
  8
枠・表
  6
CONTINUOUS
 62
     2
100
AcDbText
 10
944.5
 20
265.0
 30
0.0
 40
60.0
  1
壁付手洗器
 41
0.8428
  7
EXCADSTD
 72
     5
 11
1245.5
 21
265.0
 31
0.0
100
AcDbText
  0
TEXT
  5
A8
100
AcDbEntity
  8
枠・表
  6
CONTINUOUS
 62
     2
100
AcDbText
 10
1931.279297
 20
258.348846
 30
0.0
 40
30.0
  1
１０
 41
0.791
  7
EXCADSTD
 72
     5
 11
1983.067198
 21
258.348846
 31
0.0
100
AcDbText
  0
TEXT
  5
A9
100
AcDbEntity
  8
枠・表
  6
CONTINUOUS
 62
     2
100
AcDbText
 10
207.5
 20
220.0
 30
0.0
 40
50.0
  1
間瀬
 41
0.882
  7
EXCADSTD
 72
     5
 11
303.743
 21
220.0
 31
0.0
100
AcDbText
  0
TEXT
  5
AA
100
AcDbEntity
  8
枠・表
  6
CONTINUOUS
 62
     2
100
AcDbText
 10
633.833333
 20
220.0
 30
0.0
 40
50.0
  1
古林
 41
0.882
  7
EXCADSTD
 72
     5
 11
730.076333
 21
220.0
 31
0.0
100
AcDbText
  0
LINE
  5
AB
100
AcDbEntity
  8
枠・表
  6
EXLTYPE2
 62
     6
100
AcDbLine
 10
0.0
 20
1510.0
 30
0.0
 11
180.0
 21
1510.0
 31
0.0
  0
TEXT
  5
AD
100
AcDbEntity
  8
枠・表
  6
CONTINUOUS
 62
     2
100
AcDbText
 10
770.0
 20
155.0
 30
0.0
 40
45.0
  1
ジャニス工業株式会社
  7
EXCADTTF1
 72
     5
 11
1370.0
 21
155.0
 31
0.0
100
AcDbText
  0
TEXT
  5
AE
100
AcDbEntity
  8
枠・表
  6
CONTINUOUS
 62
     2
100
AcDbText
 10
1503.0
 20
265.0
 30
0.0
 40
60.0
  1
Ｌ３５３
 41
0.847
  7
EXCADSTD
 72
     5
 11
1745.0
 21
265.0
 31
0.0
100
AcDbText
  0
TEXT
  5
AF
100
AcDbEntity
  8
枠・表
  6
CONTINUOUS
 62
     2
100
AcDbText
 10
1889.00293
 20
2535.249023
 30
0.0
 40
47.5
  1
１
 41
1.043368
  7
EXCADSTD
 72
     5
 11
1936.20293
 21
2535.249023
 31
0.0
100
AcDbText
  0
LINE
  5
B0
100
AcDbEntity
  8
枠・表
  6
CONTINUOUS
 62
     6
100
AcDbLine
 10
1124.00293
 20
2526.635742
 30
0.0
 11
1959.00293
 21
2526.635742
 31
0.0
  0
LINE
  5
B1
100
AcDbEntity
  8
枠・表
  6
CONTINUOUS
 62
     6
100
AcDbLine
 10
1124.00293
 20
2591.635742
 30
0.0
 11
1959.00293
 21
2591.635742
 31
0.0
  0
TEXT
  5
B2
100
AcDbEntity
  8
枠・表
  6
CONTINUOUS
 62
     2
100
AcDbText
 10
1874.00293
 20
2726.635742
 30
0.0
 40
55.0
  1
個数
 41
0.664364
  7
EXCADSTD
 72
     5
 11
1953.74713
 21
2726.635742
 31
0.0
100
AcDbText
  0
TEXT
  5
B3
100
AcDbEntity
  8
枠・表
  6
CONTINUOUS
 62
     2
100
AcDbText
 10
1889.00293
 20
2666.396484
 30
0.0
 40
47.5
  1
１
 41
1.043368
  7
EXCADSTD
 72
     5
 11
1936.20293
 21
2666.396484
 31
0.0
100
AcDbText
  0
TEXT
  5
B4
100
AcDbEntity
  8
枠・表
  6
CONTINUOUS
 62
     2
100
AcDbText
 10
1174.40332
 20
2726.635742
 30
0.0
 40
55.0
  1
品　　番
 41
0.887727
  7
EXCADSTD
 72
     5
 11
1406.90332
 21
2726.635742
 31
0.0
100
AcDbText
  0
TEXT
  5
B5
100
AcDbEntity
  8
枠・表
  6
CONTINUOUS
 62
     2
100
AcDbText
 10
1141.053711
 20
2798.640137
 30
0.0
 40
60.0
  1
器　具　明　細
 41
0.91
  7
EXCADSTD
 72
     5
 11
1596.053711
 21
2798.640137
 31
0.0
100
AcDbText
  0
LINE
  5
B6
100
AcDbEntity
  8
枠・表
  6
CONTINUOUS
 62
     6
100
AcDbLine
 10
1124.00293
 20
2786.635742
 30
0.0
 11
1959.00293
 21
2786.635742
 31
0.0
  0
LINE
  5
B7
100
AcDbEntity
  8
枠・表
  6
CONTINUOUS
 62
     6
100
AcDbLine
 10
1124.00293
 20
2656.635742
 30
0.0
 11
1959.00293
 21
2656.635742
 31
0.0
  0
TEXT
  5
B8
100
AcDbEntity
  8
枠・表
  6
CONTINUOUS
 62
     2
100
AcDbText
 10
1889.00293
 20
2601.396484
 30
0.0
 40
47.5
  1
１
 41
1.043368
  7
EXCADSTD
 72
     5
 11
1936.20293
 21
2601.396484
 31
0.0
100
AcDbText
  0
LINE
  5
B9
100
AcDbEntity
  8
枠・表
  6
CONTINUOUS
 62
     6
100
AcDbLine
 10
1124.00293
 20
2721.635742
 30
0.0
 11
1959.00293
 21
2721.635742
 31
0.0
  0
TEXT
  5
BA
100
AcDbEntity
  8
枠・表
  6
CONTINUOUS
 62
     2
100
AcDbText
 10
1889.00293
 20
2470.016937
 30
0.0
 40
47.5
  1
１
 41
1.043368
  7
EXCADSTD
 72
     5
 11
1936.20293
 21
2470.016937
 31
0.0
100
AcDbText
  0
TEXT
  5
BB
100
AcDbEntity
  8
枠・表
  6
CONTINUOUS
 62
     2
100
AcDbText
 10
1889.00293
 20
2406.847992
 30
0.0
 40
47.5
  1
１
 41
1.043368
  7
EXCADSTD
 72
     5
 11
1936.20293
 21
2406.847992
 31
0.0
100
AcDbText
  0
LINE
  5
BC
100
AcDbEntity
  8
枠・表
  6
CONTINUOUS
 62
     6
100
AcDbLine
 10
1124.00293
 20
2461.635742
 30
0.0
 11
1959.00293
 21
2461.635742
 31
0.0
  0
LINE
  5
BD
100
AcDbEntity
  8
枠・表
  6
CONTINUOUS
 62
     6
100
AcDbLine
 10
1124.00293
 20
2396.635742
 30
0.0
 11
1959.00293
 21
2396.635742
 31
0.0
  0
LINE
  5
BE
100
AcDbEntity
  8
枠・表
  6
CONTINUOUS
 62
     6
100
AcDbLine
 10
1124.00293
 20
2786.635742
 30
0.0
 11
1124.00293
 21
2396.635742
 31
0.0
  0
LINE
  5
BF
100
AcDbEntity
  8
枠・表
  6
CONTINUOUS
 62
     6
100
AcDbLine
 10
1869.00293
 20
2786.635742
 30
0.0
 11
1869.00293
 21
2396.635742
 31
0.0
  0
LINE
  5
C0
100
AcDbEntity
  8
枠・表
  6
CONTINUOUS
 62
     6
100
AcDbLine
 10
1959.00293
 20
2786.635742
 30
0.0
 11
1959.00293
 21
2396.635742
 31
0.0
  0
TEXT
  5
C1
100
AcDbEntity
  8
枠・表
  6
CONTINUOUS
 62
     2
100
AcDbText
 10
1154.50293
 20
2002.0
 30
0.0
 40
80.0
  1
参考図
 41
1.05
  7
EXCADSTD
 72
     5
 11
1454.50293
 21
2002.0
 31
0.0
100
AcDbText
  0
POLYLINE
  5
C2
100
AcDbEntity
  8
枠・表
  6
CONTINUOUS
 62
     2
100
AcDb2dPolyline
 66
     1
 10
0.0
 20
0.0
 30
0.0
 70
   128
  0
VERTEX
  5
C3
100
AcDbEntity
  8
枠・表
  6
CONTINUOUS
 62
     2
100
AcDbVertex
100
AcDb2dVertex
 10
1124.00293
 20
2092.0
 30
0.0
  0
VERTEX
  5
C4
100
AcDbEntity
  8
枠・表
  6
CONTINUOUS
 62
     2
100
AcDbVertex
100
AcDb2dVertex
 10
1471.00293
 20
2092.0
 30
0.0
  0
VERTEX
  5
C5
100
AcDbEntity
  8
枠・表
  6
CONTINUOUS
 62
     2
100
AcDbVertex
100
AcDb2dVertex
 10
1471.00293
 20
1990.0
 30
0.0
  0
VERTEX
  5
C6
100
AcDbEntity
  8
枠・表
  6
CONTINUOUS
 62
     2
100
AcDbVertex
100
AcDb2dVertex
 10
1124.00293
 20
1990.0
 30
0.0
  0
VERTEX
  5
C7
100
AcDbEntity
  8
枠・表
  6
CONTINUOUS
 62
     2
100
AcDbVertex
100
AcDb2dVertex
 10
1124.00293
 20
2092.0
 30
0.0
  0
SEQEND
  5
C8
100
AcDbEntity
  8
枠・表
  6
CONTINUOUS
 62
     2
  0
TEXT
  5
C9
100
AcDbEntity
  8
枠・表
  6
CONTINUOUS
 62
     2
100
AcDbText
 10
1129.082581
 20
2664.816895
 30
0.0
 40
50.0
  1
Ｌ３５３
 41
0.6426
  7
EXCADSTD
 72
     5
 11
1282.08259
 21
2664.816895
 31
0.0
100
AcDbText
  0
TEXT
  5
CA
100
AcDbEntity
  8
枠・表
  6
CONTINUOUS
 62
     2
100
AcDbText
 10
1129.082581
 20
2599.816895
 30
0.0
 40
50.0
  1
Ｐ６９１１９
 41
0.6244
  7
EXCADSTD
 72
     5
 11
1352.082594
 21
2599.816895
 31
0.0
100
AcDbText
  0
TEXT
  5
CB
100
AcDbEntity
  8
枠・表
  6
CONTINUOUS
 62
     2
100
AcDbText
 10
1130.049988
 20
2469.75708
 30
0.0
 40
50.0
  1
ＮＬ２２１Ｆ６０ＷＹ
 41
0.60984
  7
EXCADSTD
 72
     5
 11
1493.050011
 21
2469.75708
 31
0.0
100
AcDbText
  0
TEXT
  5
CC
100
AcDbEntity
  8
枠・表
  6
CONTINUOUS
 62
     2
100
AcDbText
 10
1128.115173
 20
2404.346619
 30
0.0
 40
50.0
  1
ＮＬ８１ＤＰ
 41
0.6244
  7
EXCADSTD
 72
     5
 11
1351.115187
 21
2404.346619
 31
0.0
100
AcDbText
  0
TEXT
  5
CD
100
AcDbEntity
  8
枠・表
  6
CONTINUOUS
 62
     2
100
AcDbText
 10
1564.530335
 20
2531.635742
 30
0.0
 40
50.0
  1
水栓金具
 41
0.7056
  7
EXCADSTD
 72
     5
 11
1732.530342
 21
2531.635742
 31
0.0
100
AcDbText
  0
TEXT
  5
CE
100
AcDbEntity
  8
枠・表
  6
CONTINUOUS
 62
     2
100
AcDbText
 10
1564.530335
 20
2661.635742
 30
0.0
 40
50.0
  1
洗面器
 41
0.7168
  7
EXCADSTD
 72
     5
 11
1692.53034
 21
2661.635742
 31
0.0
100
AcDbText
  0
TEXT
  5
CF
100
AcDbEntity
  8
枠・表
  6
CONTINUOUS
 62
     2
100
AcDbText
 10
1564.530335
 20
2596.635742
 30
0.0
 40
50.0
  1
固定金具
 41
0.7056
  7
EXCADSTD
 72
     5
 11
1732.530342
 21
2596.635742
 31
0.0
100
AcDbText
  0
LINE
  5
D0
100
AcDbEntity
  8
枠・表
  6
CONTINUOUS
 62
     6
100
AcDbLine
 10
1561.005859
 20
2786.635742
 30
0.0
 11
1561.005859
 21
2396.635742
 31
0.0
  0
TEXT
  5
D1
100
AcDbEntity
  8
枠・表
  6
CONTINUOUS
 62
     2
100
AcDbText
 10
1629.02002
 20
2726.635742
 30
0.0
 40
55.0
  1
品　　名
 41
0.687273
  7
EXCADSTD
 72
     5
 11
1809.02002
 21
2726.635742
 31
0.0
100
AcDbText
  0
TEXT
  5
D2
100
AcDbEntity
  8
枠・表
  6
CONTINUOUS
 62
     2
100
AcDbText
 10
1566.527405
 20
2401.635742
 30
0.0
 40
50.0
  1
Ｐトラップ
 41
0.69888
  7
EXCADSTD
 72
     5
 11
1774.527414
 21
2401.635742
 31
0.0
100
AcDbText
  0
TEXT
  5
D3
100
AcDbEntity
  8
枠・表
  6
CONTINUOUS
 62
     2
100
AcDbText
 10
1889.00293
 20
2146.847992
 30
0.0
 40
47.5
  1
１
 41
1.043368
  7
EXCADSTD
 72
     5
 11
1936.20293
 21
2146.847992
 31
0.0
100
AcDbText
  0
LINE
  5
D4
100
AcDbEntity
  8
枠・表
  6
CONTINUOUS
 62
     6
100
AcDbLine
 10
1124.00293
 20
2136.635742
 30
0.0
 11
1959.00293
 21
2136.635742
 31
0.0
  0
LINE
  5
D5
100
AcDbEntity
  8
枠・表
  6
CONTINUOUS
 62
     6
100
AcDbLine
 10
1124.00293
 20
2201.635742
 30
0.0
 11
1959.00293
 21
2201.635742
 31
0.0
  0
LINE
  5
D6
100
AcDbEntity
  8
枠・表
  6
CONTINUOUS
 62
     6
100
AcDbLine
 10
1124.00293
 20
2201.635742
 30
0.0
 11
1124.00293
 21
2136.635742
 31
0.0
  0
LINE
  5
D7
100
AcDbEntity
  8
枠・表
  6
CONTINUOUS
 62
     6
100
AcDbLine
 10
1869.00293
 20
2201.635742
 30
0.0
 11
1869.00293
 21
2136.635742
 31
0.0
  0
LINE
  5
D8
100
AcDbEntity
  8
枠・表
  6
CONTINUOUS
 62
     6
100
AcDbLine
 10
1959.00293
 20
2201.635742
 30
0.0
 11
1959.00293
 21
2136.635742
 31
0.0
  0
TEXT
  5
D9
100
AcDbEntity
  8
枠・表
  6
CONTINUOUS
 62
     2
100
AcDbText
 10
1128.115173
 20
2209.346619
 30
0.0
 40
50.0
  1
Ｓトラップの場合
 41
0.6153
  7
EXCADSTD
 72
     5
 11
1421.115192
 21
2209.346619
 31
0.0
100
AcDbText
  0
TEXT
  5
DA
100
AcDbEntity
  8
枠・表
  6
CONTINUOUS
 62
     2
100
AcDbText
 10
1889.00293
 20
2276.847992
 30
0.0
 40
47.5
  1
１
 41
1.043368
  7
EXCADSTD
 72
     5
 11
1936.20293
 21
2276.847992
 31
0.0
100
AcDbText
  0
LINE
  5
DB
100
AcDbEntity
  8
枠・表
  6
CONTINUOUS
 62
     6
100
AcDbLine
 10
1124.00293
 20
2266.635742
 30
0.0
 11
1959.00293
 21
2266.635742
 31
0.0
  0
LINE
  5
DC
100
AcDbEntity
  8
枠・表
  6
CONTINUOUS
 62
     6
100
AcDbLine
 10
1124.00293
 20
2331.635742
 30
0.0
 11
1959.00293
 21
2331.635742
 31
0.0
  0
LINE
  5
DD
100
AcDbEntity
  8
枠・表
  6
CONTINUOUS
 62
     6
100
AcDbLine
 10
1124.00293
 20
2331.635742
 30
0.0
 11
1124.00293
 21
2266.635742
 31
0.0
  0
LINE
  5
DE
100
AcDbEntity
  8
枠・表
  6
CONTINUOUS
 62
     6
100
AcDbLine
 10
1869.00293
 20
2331.635742
 30
0.0
 11
1869.00293
 21
2266.635742
 31
0.0
  0
LINE
  5
DF
100
AcDbEntity
  8
枠・表
  6
CONTINUOUS
 62
     6
100
AcDbLine
 10
1959.00293
 20
2331.635742
 30
0.0
 11
1959.00293
 21
2266.635742
 31
0.0
  0
TEXT
  5
E0
100
AcDbEntity
  8
枠・表
  6
CONTINUOUS
 62
     2
100
AcDbText
 10
1128.115173
 20
2339.346619
 30
0.0
 40
50.0
  1
ストレート形止水栓の場合
 41
0.6062
  7
EXCADSTD
 72
     5
 11
1561.115202
 21
2339.346619
 31
0.0
100
AcDbText
  0
TEXT
  5
E1
100
AcDbEntity
  8
枠・表
  6
CONTINUOUS
 62
     2
100
AcDbText
 10
1562.527405
 20
2466.635742
 30
0.0
 40
50.0
  1
アングル形止水栓
 41
0.6384
  7
EXCADSTD
 72
     5
 11
1866.527404
 21
2466.635742
 31
0.0
100
AcDbText
  0
LINE
  5
E2
100
AcDbEntity
  8
枠・表
  6
CONTINUOUS
 62
     6
100
AcDbLine
 10
1561.005859
 20
2331.635742
 30
0.0
 11
1561.005859
 21
2266.635742
 31
0.0
  0
TEXT
  5
E3
100
AcDbEntity
  8
枠・表
  6
CONTINUOUS
 62
     2
100
AcDbText
 10
1562.527405
 20
2271.635742
 30
0.0
 40
50.0
  1
ストレート形止水栓
 41
0.573067
  7
EXCADSTD
 72
     5
 11
1869.527422
 21
2271.635742
 31
0.0
100
AcDbText
  0
LINE
  5
E4
100
AcDbEntity
  8
枠・表
  6
CONTINUOUS
 62
     6
100
AcDbLine
 10
1561.005859
 20
2201.635742
 30
0.0
 11
1561.005859
 21
2136.635742
 31
0.0
  0
TEXT
  5
E5
100
AcDbEntity
  8
枠・表
  6
CONTINUOUS
 62
     2
100
AcDbText
 10
1128.115173
 20
2144.346619
 30
0.0
 40
50.0
  1
ＮＬ８１ＤＳ７
 41
0.6192
  7
EXCADSTD
 72
     5
 11
1386.11519
 21
2144.346619
 31
0.0
100
AcDbText
  0
TEXT
  5
E6
100
AcDbEntity
  8
枠・表
  6
CONTINUOUS
 62
     2
100
AcDbText
 10
1566.527405
 20
2141.635742
 30
0.0
 40
50.0
  1
Ｓトラップ
 41
0.69888
  7
EXCADSTD
 72
     5
 11
1774.527414
 21
2141.635742
 31
0.0
100
AcDbText
  0
TEXT
  5
E7
100
AcDbEntity
  8
枠・表
  6
CONTINUOUS
 62
     2
100
AcDbText
 10
1121.112244
 20
1919.346619
 30
0.0
 40
50.0
  1
本図は上記器具を組み合わせた場合の一例を示す。
 41
0.645704
  7
EXCADSTD
 72
     5
 11
2005.112288
 21
1919.346619
 31
0.0
100
AcDbText
  0
TEXT
  5
E8
100
AcDbEntity
  8
枠・表
  6
CONTINUOUS
 62
     2
100
AcDbText
 10
1121.112244
 20
1869.346619
 30
0.0
 40
50.0
  1
止水栓、排水トラップは手洗器の取付位置に
 41
0.6468
  7
EXCADSTD
 72
     5
 11
1891.112282
 21
1869.346619
 31
0.0
100
AcDbText
  0
TEXT
  5
E9
100
AcDbEntity
  8
枠・表
  6
CONTINUOUS
 62
     2
100
AcDbText
 10
1121.112244
 20
1819.346619
 30
0.0
 40
50.0
  1
応じ、適当なものを選択してください。
 41
0.647733
  7
EXCADSTD
 72
     5
 11
1815.112278
 21
1819.346619
 31
0.0
100
AcDbText
  0
TEXT
  5
EA
100
AcDbEntity
  8
枠・表
  6
CONTINUOUS
 62
     7
100
AcDbText
 10
1472.5
 20
153.5
 30
0.0
 40
65.0
  1
Ｌ０３５３００５
 41
0.791538
  7
EXCADSTD
 72
     5
 11
1962.5
 21
153.5
 31
0.0
100
AcDbText
  0
TEXT
  5
EB
100
AcDbEntity
  8
枠・表
  6
CONTINUOUS
 62
     2
100
AcDbText
 10
1128.115173
 20
2535.673828
 30
0.0
 40
50.0
  1
３６１７３(グローエ)
 41
0.553058
  7
EXCADSTD
 72
     5
 11
1478.115197
 21
2535.673828
 31
0.0
100
AcDbText
  0
TEXT
  5
EC
100
AcDbEntity
  8
枠・表
  6
CONTINUOUS
 62
     2
100
AcDbText
 10
1130.049988
 20
2274.75708
 30
0.0
 40
50.0
  1
ＮＬ２１１Ｆ４２０ＷＹ３０
 41
0.5544
  7
EXCADSTD
 72
     5
 11
1559.049994
 21
2274.75708
 31
0.0
100
AcDbText
  0
TEXT
  5
ED
100
AcDbEntity
  8
枠・表
  6
CONTINUOUS
 62
     2
100
AcDbText
 10
184.5
 20
140.0
 30
0.0
 40
40.0
  1
21
 41
0.5
  7
EXCADSTD
 72
     5
 11
216.5
 21
140.0
 31
0.0
100
AcDbText
  0
TEXT
  5
EE
100
AcDbEntity
  8
枠・表
  6
CONTINUOUS
 62
     2
100
AcDbText
 10
243.75
 20
140.0
 30
0.0
 40
40.0
  1
7
 41
0.5625
  7
EXCADSTD
 72
     5
 11
258.375
 21
140.0
 31
0.0
100
AcDbText
  0
TEXT
  5
EF
100
AcDbEntity
  8
枠・表
  6
CONTINUOUS
 62
     2
100
AcDbText
 10
296.75
 20
140.0
 30
0.0
 40
40.0
  1
1
 41
0.5625
  7
EXCADSTD
 72
     5
 11
311.375
 21
140.0
 31
0.0
100
AcDbText
  0
LINE
  5
F0
100
AcDbEntity
  8
図
  6
CONTINUOUS
 62
     6
100
AcDbLine
 10
727.553312
 20
1534.771879
 30
0.0
 11
732.813812
 21
1525.659691
 31
0.0
  0
LINE
  5
F1
100
AcDbEntity
  8
図
  6
CONTINUOUS
 62
     6
100
AcDbLine
 10
697.180688
 20
1517.236879
 30
0.0
 11
702.441188
 21
1508.124691
 31
0.0
  0
LINE
  5
F2
100
AcDbEntity
  8
図
  6
CONTINUOUS
 62
     6
100
AcDbLine
 10
703.126556
 20
1507.942327
 30
0.0
 11
732.629444
 21
1524.976327
 31
0.0
  0
LINE
  5
F3
100
AcDbEntity
  8
図
  6
CONTINUOUS
 62
     6
100
AcDbLine
 10
705.729752
 20
1509.445327
 30
0.0
 11
710.739752
 21
1500.766003
 31
0.0
  0
LINE
  5
F4
100
AcDbEntity
  8
図
  6
CONTINUOUS
 62
     6
100
AcDbLine
 10
730.026248
 20
1523.473327
 30
0.0
 11
735.036248
 21
1514.794003
 31
0.0
  0
LINE
  5
F5
100
AcDbEntity
  8
図
  6
CONTINUOUS
 62
     6
100
AcDbLine
 10
650.349212
 20
1461.273175
 30
0.0
 11
708.405092
 21
1494.790075
 31
0.0
  0
LINE
  5
F6
100
AcDbEntity
  8
図
  6
CONTINUOUS
 62
     6
100
AcDbLine
 10
656.361212
 20
1453.788235
 30
0.0
 11
657.164816
 21
1456.790227
 31
0.0
  0
LINE
  5
F7
100
AcDbEntity
  8
図
  6
CONTINUOUS
 62
     6
100
AcDbLine
 10
656.621732
 20
1452.820303
 30
0.0
 11
657.234956
 21
1452.207079
 31
0.0
  0
LINE
  5
F8
100
AcDbEntity
  8
図
  6
CONTINUOUS
 62
     6
100
AcDbLine
 10
679.589576
 20
1447.563811
 30
0.0
 11
680.395184
 21
1450.565803
 31
0.0
  0
LINE
  5
F9
100
AcDbEntity
  8
図
  6
CONTINUOUS
 62
     6
100
AcDbLine
 10
650.711936
 20
1458.519679
 30
0.0
 11
692.012372
 21
1447.453591
 31
0.0
  0
LINE
  5
FA
100
AcDbEntity
  8
図
  6
CONTINUOUS
 62
     6
100
AcDbLine
 10
678.882164
 20
1446.856399
 30
0.0
 11
678.042488
 21
1446.631951
 31
0.0
  0
LINE
  5
FB
100
AcDbEntity
  8
図
  6
CONTINUOUS
 62
     6
100
AcDbLine
 10
657.234956
 20
1452.207079
 30
0.0
 11
678.042488
 21
1446.631951
 31
0.0
  0
LINE
  5
FC
100
AcDbEntity
  8
図
  6
CONTINUOUS
 62
     6
100
AcDbLine
 10
708.352988
 20
1499.389255
 30
0.0
 11
737.423012
 21
1516.172755
 31
0.0
  0
LINE
  5
FD
100
AcDbEntity
  8
図
  6
CONTINUOUS
 62
     6
100
AcDbLine
 10
708.170624
 20
1498.703887
 30
0.0
 11
708.922124
 21
1497.403291
 31
0.0
  0
LINE
  5
FE
100
AcDbEntity
  8
図
  6
CONTINUOUS
 62
     6
100
AcDbLine
 10
708.922124
 20
1497.403291
 30
0.0
 11
738.857876
 21
1514.687791
 31
0.0
  0
LINE
  5
FF
100
AcDbEntity
  8
図
  6
CONTINUOUS
 62
     6
100
AcDbLine
 10
738.106376
 20
1515.988387
 30
0.0
 11
738.857876
 21
1514.687791
 31
0.0
  0
LINE
  5
100
100
AcDbEntity
  8
図
  6
CONTINUOUS
 62
     6
100
AcDbLine
 10
663.776012
 20
1453.565791
 30
0.0
 11
673.05854
 21
1451.078827
 31
0.0
  0
LINE
  5
101
100
AcDbEntity
  8
図
  6
CONTINUOUS
 62
     6
100
AcDbLine
 10
663.776012
 20
1453.565791
 30
0.0
 11
662.996456
 21
1450.663999
 31
0.0
  0
LINE
  5
102
100
AcDbEntity
  8
図
  6
CONTINUOUS
 62
     6
100
AcDbLine
 10
673.05854
 20
1451.078827
 30
0.0
 11
672.280988
 21
1448.175031
 31
0.0
  0
LINE
  5
103
100
AcDbEntity
  8
図
  6
CONTINUOUS
 62
     6
100
AcDbLine
 10
709.737752
 20
1502.501467
 30
0.0
 11
734.034248
 21
1516.529467
 31
0.0
  0
LINE
  5
104
100
AcDbEntity
  8
図
  6
CONTINUOUS
 62
     6
100
AcDbLine
 10
673.643708
 20
1458.018679
 30
0.0
 11
720.691616
 21
1490.381275
 31
0.0
  0
LINE
  5
105
100
AcDbEntity
  8
図
  6
CONTINUOUS
 62
     6
100
AcDbLine
 10
713.67962
 20
1512.106639
 30
0.0
 11
716.519288
 21
1507.188823
 31
0.0
  0
LINE
  5
106
100
AcDbEntity
  8
図
  6
CONTINUOUS
 62
     6
100
AcDbLine
 10
723.745712
 20
1517.918239
 30
0.0
 11
726.58538
 21
1513.000423
 31
0.0
  0
LINE
  5
107
100
AcDbEntity
  8
図
  6
CONTINUOUS
 62
     6
100
AcDbLine
 10
725.499212
 20
1535.320975
 30
0.0
 11
697.731788
 21
1519.288975
 31
0.0
  0
LINE
  5
108
100
AcDbEntity
  8
図
  6
CONTINUOUS
 62
     6
100
AcDbLine
 10
706.230752
 20
1508.577595
 30
0.0
 11
730.527248
 21
1522.605595
 31
0.0
  0
ARC
  5
109
100
AcDbEntity
  8
図
  6
CONTINUOUS
 62
     6
100
AcDbCircle
 10
726.251097
 20
1534.019773
 30
0.0
 40
1.503
100
AcDbArc
 50
30.000026
 51
120.000105
  0
ARC
  5
10A
100
AcDbEntity
  8
図
  6
CONTINUOUS
 62
     6
100
AcDbCircle
 10
732.379357
 20
1525.409295
 30
0.0
 40
0.501
100
AcDbArc
 50
299.999948
 51
30.000026
  0
ARC
  5
10B
100
AcDbEntity
  8
図
  6
CONTINUOUS
 62
     6
100
AcDbCircle
 10
698.482903
 20
1517.987743
 30
0.0
 40
1.503
100
AcDbArc
 50
120.000105
 51
210.000176
  0
ARC
  5
10C
100
AcDbEntity
  8
図
  6
CONTINUOUS
 62
     6
100
AcDbCircle
 10
702.875643
 20
1508.375295
 30
0.0
 40
0.501
100
AcDbArc
 50
209.999876
 51
299.999948
  0
ARC
  5
10D
100
AcDbEntity
  8
図
  6
CONTINUOUS
 62
     6
100
AcDbCircle
 10
651.101037
 20
1459.971094
 30
0.0
 40
1.503
100
AcDbArc
 50
120.000105
 51
255.000219
  0
ARC
  5
10E
100
AcDbEntity
  8
図
  6
CONTINUOUS
 62
     6
100
AcDbCircle
 10
678.622277
 20
1447.824014
 30
0.0
 40
1.002
100
AcDbArc
 50
284.999938
 51
344.999987
  0
ARC
  5
10F
100
AcDbEntity
  8
図
  6
CONTINUOUS
 62
     6
100
AcDbCircle
 10
657.329411
 20
1453.529434
 30
0.0
 40
1.002
100
AcDbArc
 50
165.000134
 51
225.0002
  0
ARC
  5
110
100
AcDbEntity
  8
図
  6
CONTINUOUS
 62
     6
100
AcDbCircle
 10
708.603568
 20
1498.955216
 30
0.0
 40
0.501
100
AcDbArc
 50
120.000105
 51
210.000176
  0
ARC
  5
111
100
AcDbEntity
  8
図
  6
CONTINUOUS
 62
     6
100
AcDbCircle
 10
707.653123
 20
1496.092446
 30
0.0
 40
1.503
100
AcDbArc
 50
299.999948
 51
30.000064
  0
ARC
  5
112
100
AcDbEntity
  8
図
  6
CONTINUOUS
 62
     6
100
AcDbCircle
 10
709.388643
 20
1497.094446
 30
0.0
 40
0.501
100
AcDbArc
 50
120.000105
 51
210.000217
  0
ARC
  5
113
100
AcDbEntity
  8
図
  6
CONTINUOUS
 62
     6
100
AcDbCircle
 10
738.892357
 20
1514.128446
 30
0.0
 40
0.501
100
AcDbArc
 50
30.000026
 51
120.000105
  0
ARC
  5
114
100
AcDbEntity
  8
図
  6
CONTINUOUS
 62
     6
100
AcDbCircle
 10
737.673432
 20
1515.738716
 30
0.0
 40
0.501
100
AcDbArc
 50
30.000026
 51
120.000105
  0
ARC
  5
115
100
AcDbEntity
  8
図
  6
CONTINUOUS
 62
     6
100
AcDbCircle
 10
665.564231
 20
1441.676582
 30
0.0
 40
12.024006
100
AcDbArc
 50
51.443584
 51
98.556544
  0
ARC
  5
116
100
AcDbEntity
  8
図
  6
CONTINUOUS
 62
     6
100
AcDbCircle
 10
664.837376
 20
1470.820936
 30
0.0
 40
15.538355
100
AcDbArc
 50
254.999912
 51
304.52251
  0
ARC
  5
117
100
AcDbEntity
  8
図
  6
CONTINUOUS
 62
     6
100
AcDbCircle
 10
709.070135
 20
1531.714147
 30
0.0
 40
25.631795
100
AcDbArc
 50
286.897393
 51
313.102505
  0
ARC
  5
118
100
AcDbEntity
  8
図
  6
CONTINUOUS
 62
     6
100
AcDbCircle
 10
706.804261
 20
1515.800089
 30
0.0
 40
12.982724
100
AcDbArc
 50
281.550061
 51
318.449841
  0
ARC
  5
119
100
AcDbEntity
  8
図
  6
CONTINUOUS
 62
     6
100
AcDbCircle
 10
723.984978
 20
1525.719394
 30
0.0
 40
12.982724
100
AcDbArc
 50
281.550061
 51
318.449841
  0
ARC
  5
11A
100
AcDbEntity
  8
図
  6
CONTINUOUS
 62
     6
100
AcDbCircle
 10
716.280022
 20
1499.387659
 30
0.0
 40
12.982724
100
AcDbArc
 50
101.550211
 51
138.449991
  0
ARC
  5
11B
100
AcDbEntity
  8
図
  6
CONTINUOUS
 62
     6
100
AcDbCircle
 10
731.194925
 20
1493.392876
 30
0.0
 40
25.631795
100
AcDbArc
 50
106.897544
 51
133.102659
  0
ARC
  5
11C
100
AcDbEntity
  8
図
  6
CONTINUOUS
 62
     6
100
AcDbCircle
 10
733.460739
 20
1509.306934
 30
0.0
 40
12.982724
100
AcDbArc
 50
101.550211
 51
138.449991
  0
LINE
  5
11D
100
AcDbEntity
  8
図
  6
CONTINUOUS
 62
     6
100
AcDbLine
 10
709.706233
 20
1495.542308
 30
0.0
 11
710.144658
 21
1494.831678
 31
0.0
  0
LINE
  5
11E
100
AcDbEntity
  8
図
  6
CONTINUOUS
 62
     6
100
AcDbLine
 10
710.144658
 20
1494.831678
 30
0.0
 11
710.623973
 21
1494.148067
 31
0.0
  0
LINE
  5
11F
100
AcDbEntity
  8
図
  6
CONTINUOUS
 62
     6
100
AcDbLine
 10
710.623973
 20
1494.148067
 30
0.0
 11
711.143299
 21
1493.494142
 31
0.0
  0
LINE
  5
120
100
AcDbEntity
  8
図
  6
CONTINUOUS
 62
     6
100
AcDbLine
 10
711.143299
 20
1493.494142
 30
0.0
 11
711.701983
 21
1492.873036
 31
0.0
  0
LINE
  5
121
100
AcDbEntity
  8
図
  6
CONTINUOUS
 62
     6
100
AcDbLine
 10
711.701983
 20
1492.873036
 30
0.0
 11
712.299491
 21
1492.288477
 31
0.0
  0
LINE
  5
122
100
AcDbEntity
  8
図
  6
CONTINUOUS
 62
     6
100
AcDbLine
 10
712.299491
 20
1492.288477
 30
0.0
 11
712.935334
 21
1491.744953
 31
0.0
  0
LINE
  5
123
100
AcDbEntity
  8
図
  6
CONTINUOUS
 62
     6
100
AcDbLine
 10
712.935334
 20
1491.744953
 30
0.0
 11
713.608903
 21
1491.24788
 31
0.0
  0
LINE
  5
124
100
AcDbEntity
  8
図
  6
CONTINUOUS
 62
     6
100
AcDbLine
 10
713.608903
 20
1491.24788
 30
0.0
 11
714.319263
 21
1490.80384
 31
0.0
  0
LINE
  5
125
100
AcDbEntity
  8
図
  6
CONTINUOUS
 62
     6
100
AcDbLine
 10
714.319263
 20
1490.80384
 30
0.0
 11
715.06262
 21
1490.421832
 31
0.0
  0
LINE
  5
126
100
AcDbEntity
  8
図
  6
CONTINUOUS
 62
     6
100
AcDbLine
 10
715.06262
 20
1490.421832
 30
0.0
 11
715.838026
 21
1490.110087
 31
0.0
  0
LINE
  5
127
100
AcDbEntity
  8
図
  6
CONTINUOUS
 62
     6
100
AcDbLine
 10
715.838026
 20
1490.110087
 30
0.0
 11
716.641288
 21
1489.879663
 31
0.0
  0
LINE
  5
128
100
AcDbEntity
  8
図
  6
CONTINUOUS
 62
     6
100
AcDbLine
 10
716.641288
 20
1489.879663
 30
0.0
 11
717.465627
 21
1489.743237
 31
0.0
  0
LINE
  5
129
100
AcDbEntity
  8
図
  6
CONTINUOUS
 62
     6
100
AcDbLine
 10
717.465627
 20
1489.743237
 30
0.0
 11
718.300539
 21
1489.714446
 31
0.0
  0
LINE
  5
12A
100
AcDbEntity
  8
図
  6
CONTINUOUS
 62
     6
100
AcDbLine
 10
718.300539
 20
1489.714446
 30
0.0
 11
719.132117
 21
1489.806489
 31
0.0
  0
LINE
  5
12B
100
AcDbEntity
  8
図
  6
CONTINUOUS
 62
     6
100
AcDbLine
 10
719.132117
 20
1489.806489
 30
0.0
 11
719.937765
 21
1490.028625
 31
0.0
  0
LINE
  5
12C
100
AcDbEntity
  8
図
  6
CONTINUOUS
 62
     6
100
AcDbLine
 10
719.937765
 20
1490.028625
 30
0.0
 11
720.691111
 21
1490.381096
 31
0.0
  0
ARC
  5
12D
100
AcDbEntity
  8
図
  6
CONTINUOUS
 62
     6
100
AcDbCircle
 10
666.078931
 20
1350.667106
 30
0.0
 40
100.2
100
AcDbArc
 50
31.821481
 51
75.000062
  0
ARC
  5
12E
100
AcDbEntity
  8
図
  6
CONTINUOUS
 62
     6
100
AcDbCircle
 10
656.751413
 20
1315.856406
 30
0.0
 40
136.238686
100
AcDbArc
 50
40.03902
 51
75.000062
  0
LINE
  5
12F
100
AcDbEntity
  8
図
  6
CONTINUOUS
 62
     6
100
AcDbLine
 10
739.326812
 20
1514.379175
 30
0.0
 11
803.341851
 21
1403.5
 31
0.0
  0
LINE
  5
130
100
AcDbEntity
  8
図
  6
CONTINUOUS
 62
     6
100
AcDbLine
 10
1497.46499
 20
1527.305383
 30
0.0
 11
1499.948249
 21
1531.803197
 31
0.0
  0
LINE
  5
131
100
AcDbEntity
  8
図
  6
CONTINUOUS
 62
     6
100
AcDbLine
 10
1499.948249
 20
1531.803197
 30
0.0
 11
1504.573717
 21
1534.354658
 31
0.0
  0
LINE
  5
132
100
AcDbEntity
  8
図
  6
CONTINUOUS
 62
     6
100
AcDbLine
 10
1504.573717
 20
1534.354658
 30
0.0
 11
1509.709729
 21
1535.66435
 31
0.0
  0
LINE
  5
133
100
AcDbEntity
  8
図
  6
CONTINUOUS
 62
     6
100
AcDbLine
 10
1509.709729
 20
1535.66435
 30
0.0
 11
1514.99999
 21
1536.072883
 31
0.0
  0
LINE
  5
134
100
AcDbEntity
  8
図
  6
CONTINUOUS
 62
     6
100
AcDbLine
 10
1514.99999
 20
1536.072883
 30
0.0
 11
1520.287841
 21
1535.664733
 31
0.0
  0
LINE
  5
135
100
AcDbEntity
  8
図
  6
CONTINUOUS
 62
     6
100
AcDbLine
 10
1520.287841
 20
1535.664733
 30
0.0
 11
1525.424209
 21
1534.355417
 31
0.0
  0
LINE
  5
136
100
AcDbEntity
  8
図
  6
CONTINUOUS
 62
     6
100
AcDbLine
 10
1525.424209
 20
1534.355417
 30
0.0
 11
1530.051278
 21
1531.803576
 31
0.0
  0
LINE
  5
137
100
AcDbEntity
  8
図
  6
CONTINUOUS
 62
     6
100
AcDbLine
 10
1530.051278
 20
1531.803576
 30
0.0
 11
1532.53499
 21
1527.305383
 31
0.0
  0
ELLIPSE
  5
138
100
AcDbEntity
  8
図
  6
CONTINUOUS
 62
     6
100
AcDbEllipse
 10
1514.99999
 20
1515.742863
 30
0.0
 11
-17.391561318943445
 21
-0.1664872980582446
 31
0.0
210
0.0
220
0.0
230
1.0
 40
0.431224
 41
2.5187395955482863
 42
3.1490532915210276
  0
LINE
  5
139
100
AcDbEntity
  8
図
  6
CONTINUOUS
 62
     6
100
AcDbLine
 10
1532.53499
 20
1527.304975
 30
0.0
 11
1532.53499
 21
1515.965297
 31
0.0
  0
LINE
  5
13A
100
AcDbEntity
  8
図
  6
CONTINUOUS
 62
     6
100
AcDbLine
 10
1497.46499
 20
1527.304975
 30
0.0
 11
1497.46499
 21
1515.742863
 31
0.0
  0
ELLIPSE
  5
13B
100
AcDbEntity
  8
図
  6
CONTINUOUS
 62
     6
100
AcDbEllipse
 10
1514.99999
 20
1515.742863
 30
0.0
 11
-17.391561318943445
 21
-0.1664872980582446
 31
0.0
210
0.0
220
0.0
230
1.0
 40
0.431224
 41
3.2106067793681592
 42
0.6145969977808439
  0
ELLIPSE
  5
13C
100
AcDbEntity
  8
図
  6
CONTINUOUS
 62
     6
100
AcDbEllipse
 10
1514.99999
 20
1507.042583
 30
0.0
 11
-17.391561318943445
 21
-0.1664872980582446
 31
0.0
210
0.0
220
0.0
230
1.0
 40
0.431224
 41
3.1415926535897922
 42
0.0
  0
LINE
  5
13D
100
AcDbEntity
  8
図
  6
CONTINUOUS
 62
     6
100
AcDbLine
 10
1492.615643
 20
1403.5
 30
0.0
 11
1497.498676
 21
1506.88128
 31
0.0
  0
LINE
  5
13E
100
AcDbEntity
  8
図
  6
CONTINUOUS
 62
     6
100
AcDbLine
 10
1537.384337
 20
1403.5
 30
0.0
 11
1532.485612
 21
1507.213513
 31
0.0
  0
LINE
  5
13F
100
AcDbEntity
  8
図
  6
EXLTYPE3
 62
     6
100
AcDbLine
 10
697.0
 20
583.0
 30
0.0
 11
697.0
 21
793.0
 31
0.0
  0
LINE
  5
140
100
AcDbEntity
  8
図
  6
EXLTYPE3
 62
     6
100
AcDbLine
 10
792.0
 20
793.0
 30
0.0
 11
792.0
 21
606.0
 31
0.0
  0
LINE
  5
141
100
AcDbEntity
  8
図
  6
CONTINUOUS
 62
     6
100
AcDbLine
 10
616.5
 20
1282.5
 30
0.0
 11
667.5
 21
1282.5
 31
0.0
  0
LINE
  5
142
100
AcDbEntity
  8
図
  6
CONTINUOUS
 62
     6
100
AcDbLine
 10
629.525364
 20
1276.5
 30
0.0
 11
633.607295
 21
1276.5
 31
0.0
  0
LINE
  5
143
100
AcDbEntity
  8
図
  6
CONTINUOUS
 62
     6
100
AcDbLine
 10
650.392705
 20
1276.5
 30
0.0
 11
654.474636
 21
1276.5
 31
0.0
  0
ARC
  5
144
100
AcDbEntity
  8
図
  6
CONTINUOUS
 62
     6
100
AcDbCircle
 10
625.262682
 20
1280.042614
 30
0.0
 40
5.542614
100
AcDbArc
 50
219.729169
 51
320.270831
  0
ARC
  5
145
100
AcDbEntity
  8
図
  6
CONTINUOUS
 62
     6
100
AcDbCircle
 10
658.737318
 20
1280.042614
 30
0.0
 40
5.542614
100
AcDbArc
 50
219.729169
 51
320.270831
  0
ARC
  5
146
100
AcDbEntity
  8
図
  6
CONTINUOUS
 62
     6
100
AcDbCircle
 10
642.0
 20
1293.109375
 30
0.0
 40
18.609375
100
AcDbArc
 50
243.192563
 51
296.807437
  0
LINE
  5
147
100
AcDbEntity
  8
図
  6
CONTINUOUS
 62
     6
100
AcDbLine
 10
654.474636
 20
1276.5
 30
0.0
 11
654.474636
 21
1280.5
 31
0.0
  0
LINE
  5
148
100
AcDbEntity
  8
図
  6
CONTINUOUS
 62
     6
100
AcDbLine
 10
650.392705
 20
1276.5
 30
0.0
 11
650.392705
 21
1280.5
 31
0.0
  0
LINE
  5
149
100
AcDbEntity
  8
図
  6
CONTINUOUS
 62
     6
100
AcDbLine
 10
633.607295
 20
1276.5
 30
0.0
 11
633.607295
 21
1280.5
 31
0.0
  0
LINE
  5
14A
100
AcDbEntity
  8
図
  6
CONTINUOUS
 62
     6
100
AcDbLine
 10
629.525364
 20
1276.5
 30
0.0
 11
629.525364
 21
1280.5
 31
0.0
  0
LINE
  5
14B
100
AcDbEntity
  8
図
  6
CONTINUOUS
 62
     6
100
AcDbLine
 10
621.0
 20
1276.5
 30
0.0
 11
622.75
 21
1274.5
 31
0.0
  0
LINE
  5
14C
100
AcDbEntity
  8
図
  6
CONTINUOUS
 62
     6
100
AcDbLine
 10
663.0
 20
1276.5
 30
0.0
 11
661.25
 21
1274.5
 31
0.0
  0
LINE
  5
14D
100
AcDbEntity
  8
図
  6
CONTINUOUS
 62
     6
100
AcDbLine
 10
621.0
 20
1276.5
 30
0.0
 11
621.0
 21
1280.5
 31
0.0
  0
LINE
  5
14E
100
AcDbEntity
  8
図
  6
CONTINUOUS
 62
     6
100
AcDbLine
 10
663.0
 20
1276.5
 30
0.0
 11
663.0
 21
1280.5
 31
0.0
  0
LINE
  5
14F
100
AcDbEntity
  8
図
  6
CONTINUOUS
 62
     6
100
AcDbLine
 10
622.75
 20
1274.5
 30
0.0
 11
661.25
 21
1274.5
 31
0.0
  0
LINE
  5
150
100
AcDbEntity
  8
図
  6
CONTINUOUS
 62
     6
100
AcDbLine
 10
617.5
 20
1280.5
 30
0.0
 11
617.5
 21
1282.5
 31
0.0
  0
LINE
  5
151
100
AcDbEntity
  8
図
  6
CONTINUOUS
 62
     6
100
AcDbLine
 10
617.5
 20
1280.5
 30
0.0
 11
666.5
 21
1280.5
 31
0.0
  0
LINE
  5
152
100
AcDbEntity
  8
図
  6
CONTINUOUS
 62
     6
100
AcDbLine
 10
666.5
 20
1280.5
 30
0.0
 11
666.5
 21
1282.5
 31
0.0
  0
ELLIPSE
  5
153
100
AcDbEntity
  8
図
  6
CONTINUOUS
 62
     6
100
AcDbEllipse
 10
642.0
 20
1263.3
 30
0.0
 11
-8.0195074661700083
 21
0.000000000000001
 31
0.0
210
0.0
220
0.0
230
1.0
 40
0.642063
 41
0.0
 42
6.2831853071796004
  0
ELLIPSE
  5
154
100
AcDbEntity
  8
図
  6
CONTINUOUS
 62
     6
100
AcDbEllipse
 10
626.802155
 20
1263.3
 30
0.0
 11
-0.0000000000000009
 21
-5.1490290346800043
 31
0.0
210
0.0
220
0.0
230
1.0
 40
0.786975
 41
0.0
 42
6.2831853071796004
  0
ELLIPSE
  5
155
100
AcDbEntity
  8
図
  6
CONTINUOUS
 62
     6
100
AcDbEllipse
 10
657.197845
 20
1263.3
 30
0.0
 11
0.0000000000000003
 21
5.1490290346800043
 31
0.0
210
0.0
220
0.0
230
1.0
 40
0.786975
 41
0.0
 42
6.2831853071796004
  0
ARC
  5
156
100
AcDbEntity
  8
図
  6
CONTINUOUS
 62
     6
100
AcDbCircle
 10
631.2
 20
1263.3
 30
0.0
 40
8.45
100
AcDbArc
 50
134.76027
 51
225.23973
  0
ARC
  5
157
100
AcDbEntity
  8
図
  6
CONTINUOUS
 62
     6
100
AcDbCircle
 10
652.8
 20
1263.3
 30
0.0
 40
8.45
100
AcDbArc
 50
314.76027
 51
45.23973
  0
LINE
  5
158
100
AcDbEntity
  8
図
  6
CONTINUOUS
 62
     6
100
AcDbLine
 10
625.25
 20
1269.3
 30
0.0
 11
658.75
 21
1269.3
 31
0.0
  0
LINE
  5
159
100
AcDbEntity
  8
図
  6
CONTINUOUS
 62
     6
100
AcDbLine
 10
626.0
 20
1274.5
 30
0.0
 11
626.0
 21
1269.3
 31
0.0
  0
LINE
  5
15A
100
AcDbEntity
  8
図
  6
CONTINUOUS
 62
     6
100
AcDbLine
 10
658.0
 20
1274.5
 30
0.0
 11
658.0
 21
1269.3
 31
0.0
  0
LINE
  5
15B
100
AcDbEntity
  8
図
  6
CONTINUOUS
 62
     6
100
AcDbLine
 10
616.5
 20
1283.5
 30
0.0
 11
616.5
 21
1282.5
 31
0.0
  0
LINE
  5
15C
100
AcDbEntity
  8
図
  6
CONTINUOUS
 62
     6
100
AcDbLine
 10
667.5
 20
1283.5
 30
0.0
 11
667.5
 21
1282.5
 31
0.0
  0
LINE
  5
15D
100
AcDbEntity
  8
図
  6
CONTINUOUS
 62
     6
100
AcDbLine
 10
727.0
 20
1153.0
 30
0.0
 11
647.0
 21
1153.0
 31
0.0
  0
LINE
  5
15E
100
AcDbEntity
  8
図
  6
CONTINUOUS
 62
     6
100
AcDbLine
 10
625.25
 20
1257.3
 30
0.0
 11
658.75
 21
1257.3
 31
0.0
  0
LINE
  5
15F
100
AcDbEntity
  8
図
  6
CONTINUOUS
 62
     6
100
AcDbLine
 10
654.7
 20
1132.340192
 30
0.0
 11
655.55
 21
1133.812436
 31
0.0
  0
LINE
  5
160
100
AcDbEntity
  8
図
  6
CONTINUOUS
 62
     6
100
AcDbLine
 10
655.55
 20
1133.812436
 30
0.0
 11
655.55
 21
1180.0
 31
0.0
  0
LINE
  5
161
100
AcDbEntity
  8
図
  6
CONTINUOUS
 62
     6
100
AcDbLine
 10
629.3
 20
1132.340192
 30
0.0
 11
628.45
 21
1133.812436
 31
0.0
  0
LINE
  5
162
100
AcDbEntity
  8
図
  6
CONTINUOUS
 62
     6
100
AcDbLine
 10
628.45
 20
1133.812436
 30
0.0
 11
628.45
 21
1180.0
 31
0.0
  0
LINE
  5
163
100
AcDbEntity
  8
図
  6
CONTINUOUS
 62
     6
100
AcDbLine
 10
629.3
 20
1257.3
 30
0.0
 11
629.3
 21
1192.0
 31
0.0
  0
LINE
  5
164
100
AcDbEntity
  8
図
  6
CONTINUOUS
 62
     6
100
AcDbLine
 10
654.7
 20
1257.3
 30
0.0
 11
654.7
 21
1192.0
 31
0.0
  0
ELLIPSE
  5
165
100
AcDbEntity
  8
図
  6
CONTINUOUS
 62
     6
100
AcDbEllipse
 10
642.0
 20
1186.0
 30
0.0
 11
8.0195074661700083
 21
0.0
 31
0.0
210
0.0
220
0.0
230
1.0
 40
0.642063
 41
0.0
 42
6.2831853071796004
  0
ELLIPSE
  5
166
100
AcDbEntity
  8
図
  6
CONTINUOUS
 62
     6
100
AcDbEllipse
 10
626.802155
 20
1186.0
 30
0.0
 11
0.0000000000000003
 21
5.1490290346800043
 31
0.0
210
0.0
220
0.0
230
1.0
 40
0.786975
 41
0.0
 42
6.2831853071796004
  0
ELLIPSE
  5
167
100
AcDbEntity
  8
図
  6
CONTINUOUS
 62
     6
100
AcDbEllipse
 10
657.197845
 20
1186.0
 30
0.0
 11
-0.0000000000000009
 21
-5.1490290346800043
 31
0.0
210
0.0
220
0.0
230
1.0
 40
0.786975
 41
0.0
 42
6.2831853071796004
  0
ARC
  5
168
100
AcDbEntity
  8
図
  6
CONTINUOUS
 62
     6
100
AcDbCircle
 10
631.2
 20
1186.0
 30
0.0
 40
8.45
100
AcDbArc
 50
134.76027
 51
225.23973
  0
ARC
  5
169
100
AcDbEntity
  8
図
  6
CONTINUOUS
 62
     6
100
AcDbCircle
 10
652.8
 20
1186.0
 30
0.0
 40
8.45
100
AcDbArc
 50
314.76027
 51
45.23973
  0
LINE
  5
16A
100
AcDbEntity
  8
図
  6
CONTINUOUS
 62
     6
100
AcDbLine
 10
625.25
 20
1180.0
 30
0.0
 11
658.75
 21
1180.0
 31
0.0
  0
LINE
  5
16B
100
AcDbEntity
  8
図
  6
CONTINUOUS
 62
     6
100
AcDbLine
 10
625.25
 20
1192.0
 30
0.0
 11
658.75
 21
1192.0
 31
0.0
  0
LINE
  5
16C
100
AcDbEntity
  8
図
  6
CONTINUOUS
 62
     6
100
AcDbLine
 10
674.3
 20
1153.0
 30
0.0
 11
674.3
 21
1115.7
 31
0.0
  0
LINE
  5
16D
100
AcDbEntity
  8
図
  6
CONTINUOUS
 62
     6
100
AcDbLine
 10
699.7
 20
1115.7
 30
0.0
 11
699.7
 21
1153.0
 31
0.0
  0
ARC
  5
16E
100
AcDbEntity
  8
図
  6
CONTINUOUS
 62
     6
100
AcDbCircle
 10
687.0
 20
1153.0
 30
0.0
 40
12.7
100
AcDbArc
 50
0.0
 51
180.0
  0
ARC
  5
16F
100
AcDbEntity
  8
図
  6
CONTINUOUS
 62
     6
100
AcDbCircle
 10
687.0
 20
1153.0
 30
0.0
 40
30.0
100
AcDbArc
 50
295.045214
 51
244.954786
  0
ELLIPSE
  5
170
100
AcDbEntity
  8
図
  6
CONTINUOUS
 62
     6
100
AcDbEllipse
 10
687.0
 20
1109.7
 30
0.0
 11
8.0195074661700083
 21
0.0
 31
0.0
210
0.0
220
0.0
230
1.0
 40
0.642063
 41
0.0
 42
6.2831853071796004
  0
ELLIPSE
  5
171
100
AcDbEntity
  8
図
  6
CONTINUOUS
 62
     6
100
AcDbEllipse
 10
671.802155
 20
1109.7
 30
0.0
 11
0.0000000000000003
 21
5.1490290346800043
 31
0.0
210
0.0
220
0.0
230
1.0
 40
0.786975
 41
0.0
 42
6.2831853071796004
  0
ELLIPSE
  5
172
100
AcDbEntity
  8
図
  6
CONTINUOUS
 62
     6
100
AcDbEllipse
 10
702.197845
 20
1109.7
 30
0.0
 11
-0.0000000000000009
 21
-5.1490290346800043
 31
0.0
210
0.0
220
0.0
230
1.0
 40
0.786975
 41
0.0
 42
6.2831853071796004
  0
ARC
  5
173
100
AcDbEntity
  8
図
  6
CONTINUOUS
 62
     6
100
AcDbCircle
 10
676.2
 20
1109.7
 30
0.0
 40
8.45
100
AcDbArc
 50
134.76027
 51
225.23973
  0
ARC
  5
174
100
AcDbEntity
  8
図
  6
CONTINUOUS
 62
     6
100
AcDbCircle
 10
697.8
 20
1109.7
 30
0.0
 40
8.45
100
AcDbArc
 50
314.76027
 51
45.23973
  0
LINE
  5
175
100
AcDbEntity
  8
図
  6
CONTINUOUS
 62
     6
100
AcDbLine
 10
670.25
 20
1103.7
 30
0.0
 11
703.75
 21
1103.7
 31
0.0
  0
LINE
  5
176
100
AcDbEntity
  8
図
  6
CONTINUOUS
 62
     6
100
AcDbLine
 10
670.25
 20
1115.7
 30
0.0
 11
703.75
 21
1115.7
 31
0.0
  0
LINE
  5
177
100
AcDbEntity
  8
図
  6
CONTINUOUS
 62
     6
100
AcDbLine
 10
629.3
 20
1132.340192
 30
0.0
 11
629.3
 21
1093.5
 31
0.0
  0
LINE
  5
178
100
AcDbEntity
  8
図
  6
CONTINUOUS
 62
     6
100
AcDbLine
 10
654.7
 20
1093.5
 30
0.0
 11
654.7
 21
1132.340192
 31
0.0
  0
LINE
  5
179
100
AcDbEntity
  8
図
  6
CONTINUOUS
 62
     6
100
AcDbLine
 10
674.3
 20
1103.7
 30
0.0
 11
674.3
 21
1093.5
 31
0.0
  0
LINE
  5
17A
100
AcDbEntity
  8
図
  6
CONTINUOUS
 62
     6
100
AcDbLine
 10
699.7
 20
1093.5
 30
0.0
 11
699.7
 21
1103.7
 31
0.0
  0
ARC
  5
17B
100
AcDbEntity
  8
図
  6
CONTINUOUS
 62
     6
100
AcDbCircle
 10
664.5
 20
1093.5
 30
0.0
 40
9.8
100
AcDbArc
 50
180.0
 51
0.0
  0
ARC
  5
17C
100
AcDbEntity
  8
図
  6
CONTINUOUS
 62
     6
100
AcDbCircle
 10
664.5
 20
1093.5
 30
0.0
 40
35.2
100
AcDbArc
 50
180.0
 51
0.0
  0
LINE
  5
17D
100
AcDbEntity
  8
図
  6
CONTINUOUS
 62
     6
100
AcDbLine
 10
687.0
 20
1113.0
 30
0.0
 11
687.0
 21
1193.0
 31
0.0
  0
LINE
  5
17E
100
AcDbEntity
  8
図
  6
CONTINUOUS
 62
     6
100
AcDbLine
 10
629.3
 20
1132.340192
 30
0.0
 11
654.7
 21
1132.340192
 31
0.0
  0
LINE
  5
17F
100
AcDbEntity
  8
図
  6
CONTINUOUS
 62
     6
100
AcDbLine
 10
684.3
 20
593.0
 30
0.0
 11
709.7
 21
593.0
 31
0.0
  0
LINE
  5
180
100
AcDbEntity
  8
図
  6
CONTINUOUS
 62
     6
100
AcDbLine
 10
684.3
 20
793.0
 30
0.0
 11
684.3
 21
593.0
 31
0.0
  0
LINE
  5
181
100
AcDbEntity
  8
図
  6
CONTINUOUS
 62
     6
100
AcDbLine
 10
709.7
 20
593.0
 30
0.0
 11
709.7
 21
793.0
 31
0.0
  0
LINE
  5
182
100
AcDbEntity
  8
図
  6
CONTINUOUS
 62
     6
100
AcDbLine
 10
802.5
 20
616.0
 30
0.0
 11
781.5
 21
616.0
 31
0.0
  0
LINE
  5
183
100
AcDbEntity
  8
図
  6
CONTINUOUS
 62
     6
100
AcDbLine
 10
781.5
 20
793.0
 30
0.0
 11
781.5
 21
616.0
 31
0.0
  0
LINE
  5
184
100
AcDbEntity
  8
図
  6
CONTINUOUS
 62
     6
100
AcDbLine
 10
802.5
 20
793.0
 30
0.0
 11
802.5
 21
616.0
 31
0.0
  0
LINE
  5
185
100
AcDbEntity
  8
図
  6
EXLTYPE4
 62
     6
100
AcDbLine
 10
257.0
 20
623.0
 30
0.0
 11
1135.0
 21
623.0
 31
0.0
  0
LINE
  5
186
100
AcDbEntity
  8
図
  6
CONTINUOUS
 62
     6
100
AcDbLine
 10
1508.64999
 20
1112.7
 30
0.0
 11
1508.64999
 21
1283.5
 31
0.0
  0
LINE
  5
187
100
AcDbEntity
  8
図
  6
CONTINUOUS
 62
     6
100
AcDbLine
 10
1521.34999
 20
1112.7
 30
0.0
 11
1521.34999
 21
1283.5
 31
0.0
  0
LINE
  5
188
100
AcDbEntity
  8
図
  6
EXLTYPE3
 62
     6
100
AcDbLine
 10
1529.99999
 20
583.0
 30
0.0
 11
1529.99999
 21
793.0
 31
0.0
  0
LINE
  5
189
100
AcDbEntity
  8
図
  6
CONTINUOUS
 62
     2
100
AcDbLine
 10
1589.99999
 20
1463.5
 30
0.0
 11
1589.99999
 21
1283.5
 31
0.0
  0
LINE
  5
18A
100
AcDbEntity
  8
図
  6
CONTINUOUS
 62
     2
100
AcDbLine
 10
1419.99999
 20
1283.5
 30
0.0
 11
1589.99999
 21
1283.5
 31
0.0
  0
LINE
  5
18B
100
AcDbEntity
  8
図
  6
CONTINUOUS
 62
     2
100
AcDbLine
 10
1573.73005
 20
1463.5
 30
0.0
 11
1589.99999
 21
1463.5
 31
0.0
  0
ARC
  5
18C
100
AcDbEntity
  8
図
  6
CONTINUOUS
 62
     2
100
AcDbCircle
 10
1573.73005
 20
1459.5
 30
0.0
 40
4.0
100
AcDbArc
 50
90.0
 51
176.0
  0
ARC
  5
18D
100
AcDbEntity
  8
図
  6
CONTINUOUS
 62
     2
100
AcDbCircle
 10
1562.074321
 20
1407.5
 30
0.0
 40
4.0
100
AcDbArc
 50
270.0
 51
356.0
  0
ARC
  5
18E
100
AcDbEntity
  8
図
  6
CONTINUOUS
 62
     2
100
AcDbCircle
 10
4308.123092
 20
2095.13104
 30
0.0
 40
3000.0
100
AcDbArc
 50
193.42584
 51
195.696622
  0
ARC
  5
18F
100
AcDbEntity
  8
図
  6
CONTINUOUS
 62
     2
100
AcDbCircle
 10
1393.99999
 20
1399.5
 30
0.0
 40
4.0
100
AcDbArc
 50
90.0
 51
193.42584
  0
LINE
  5
190
100
AcDbEntity
  8
図
  6
CONTINUOUS
 62
     2
100
AcDbLine
 10
1569.739794
 20
1459.779026
 30
0.0
 11
1566.064577
 21
1407.220974
 31
0.0
  0
LINE
  5
191
100
AcDbEntity
  8
図
  6
CONTINUOUS
 62
     6
100
AcDbLine
 10
1498.106694
 20
1276.5
 30
0.0
 11
1498.106694
 21
1280.5
 31
0.0
  0
LINE
  5
192
100
AcDbEntity
  8
図
  6
CONTINUOUS
 62
     6
100
AcDbLine
 10
1531.893286
 20
1276.5
 30
0.0
 11
1531.893286
 21
1280.5
 31
0.0
  0
LINE
  5
193
100
AcDbEntity
  8
図
  6
CONTINUOUS
 62
     6
100
AcDbLine
 10
1498.106694
 20
1276.5
 30
0.0
 11
1495.74999
 21
1276.5
 31
0.0
  0
LINE
  5
194
100
AcDbEntity
  8
図
  6
CONTINUOUS
 62
     6
100
AcDbLine
 10
1531.893286
 20
1276.5
 30
0.0
 11
1534.24999
 21
1276.5
 31
0.0
  0
LINE
  5
195
100
AcDbEntity
  8
図
  6
CONTINUOUS
 62
     6
100
AcDbLine
 10
1495.74999
 20
1274.5
 30
0.0
 11
1495.74999
 21
1280.5
 31
0.0
  0
LINE
  5
196
100
AcDbEntity
  8
図
  6
CONTINUOUS
 62
     6
100
AcDbLine
 10
1534.24999
 20
1274.5
 30
0.0
 11
1534.24999
 21
1280.5
 31
0.0
  0
LINE
  5
197
100
AcDbEntity
  8
図
  6
CONTINUOUS
 62
     6
100
AcDbLine
 10
1490.49999
 20
1280.5
 30
0.0
 11
1490.49999
 21
1282.5
 31
0.0
  0
LINE
  5
198
100
AcDbEntity
  8
図
  6
CONTINUOUS
 62
     6
100
AcDbLine
 10
1539.49999
 20
1280.5
 30
0.0
 11
1539.49999
 21
1282.5
 31
0.0
  0
LINE
  5
199
100
AcDbEntity
  8
図
  6
CONTINUOUS
 62
     6
100
AcDbLine
 10
1497.49999
 20
1258.150971
 30
0.0
 11
1497.49999
 21
1268.449029
 31
0.0
  0
LINE
  5
19A
100
AcDbEntity
  8
図
  6
CONTINUOUS
 62
     6
100
AcDbLine
 10
1532.49999
 20
1258.150971
 30
0.0
 11
1532.49999
 21
1268.449029
 31
0.0
  0
ARC
  5
19B
100
AcDbEntity
  8
図
  6
CONTINUOUS
 62
     6
100
AcDbCircle
 10
1525.79999
 20
1263.3
 30
0.0
 40
8.45
100
AcDbArc
 50
37.542703
 51
45.23973
  0
ARC
  5
19C
100
AcDbEntity
  8
図
  6
CONTINUOUS
 62
     6
100
AcDbCircle
 10
1504.19999
 20
1263.3
 30
0.0
 40
8.45
100
AcDbArc
 50
134.76027
 51
142.457297
  0
LINE
  5
19D
100
AcDbEntity
  8
図
  6
CONTINUOUS
 62
     6
100
AcDbLine
 10
1498.99999
 20
1274.5
 30
0.0
 11
1498.99999
 21
1269.3
 31
0.0
  0
LINE
  5
19E
100
AcDbEntity
  8
図
  6
CONTINUOUS
 62
     6
100
AcDbLine
 10
1530.99999
 20
1274.5
 30
0.0
 11
1530.99999
 21
1269.3
 31
0.0
  0
LINE
  5
19F
100
AcDbEntity
  8
図
  6
CONTINUOUS
 62
     6
100
AcDbLine
 10
1489.49999
 20
1283.5
 30
0.0
 11
1489.49999
 21
1282.5
 31
0.0
  0
LINE
  5
1A0
100
AcDbEntity
  8
図
  6
CONTINUOUS
 62
     6
100
AcDbLine
 10
1540.49999
 20
1283.5
 30
0.0
 11
1540.49999
 21
1282.5
 31
0.0
  0
ARC
  5
1A1
100
AcDbEntity
  8
図
  6
CONTINUOUS
 62
     6
100
AcDbCircle
 10
1525.79999
 20
1263.3
 30
0.0
 40
8.45
100
AcDbArc
 50
314.76027
 51
322.457297
  0
ARC
  5
1A2
100
AcDbEntity
  8
図
  6
CONTINUOUS
 62
     6
100
AcDbCircle
 10
1504.19999
 20
1263.3
 30
0.0
 40
8.45
100
AcDbArc
 50
217.542703
 51
225.23973
  0
LINE
  5
1A3
100
AcDbEntity
  8
図
  6
CONTINUOUS
 62
     6
100
AcDbLine
 10
1527.69999
 20
1132.340192
 30
0.0
 11
1528.54999
 21
1133.812436
 31
0.0
  0
LINE
  5
1A4
100
AcDbEntity
  8
図
  6
CONTINUOUS
 62
     6
100
AcDbLine
 10
1502.29999
 20
1132.340192
 30
0.0
 11
1501.44999
 21
1133.812436
 31
0.0
  0
LINE
  5
1A5
100
AcDbEntity
  8
図
  6
CONTINUOUS
 62
     6
100
AcDbLine
 10
1502.29999
 20
1257.3
 30
0.0
 11
1502.29999
 21
1192.0
 31
0.0
  0
LINE
  5
1A6
100
AcDbEntity
  8
図
  6
CONTINUOUS
 62
     6
100
AcDbLine
 10
1527.69999
 20
1257.3
 30
0.0
 11
1527.69999
 21
1192.0
 31
0.0
  0
LINE
  5
1A7
100
AcDbEntity
  8
図
  6
CONTINUOUS
 62
     6
100
AcDbLine
 10
1497.49999
 20
1191.149029
 30
0.0
 11
1497.49999
 21
1180.850971
 31
0.0
  0
LINE
  5
1A8
100
AcDbEntity
  8
図
  6
CONTINUOUS
 62
     6
100
AcDbLine
 10
1532.49999
 20
1191.149029
 30
0.0
 11
1532.49999
 21
1180.850971
 31
0.0
  0
ARC
  5
1A9
100
AcDbEntity
  8
図
  6
CONTINUOUS
 62
     6
100
AcDbCircle
 10
1525.79999
 20
1186.0
 30
0.0
 40
8.45
100
AcDbArc
 50
314.76027
 51
322.457297
  0
ARC
  5
1AA
100
AcDbEntity
  8
図
  6
CONTINUOUS
 62
     6
100
AcDbCircle
 10
1525.79999
 20
1186.0
 30
0.0
 40
8.45
100
AcDbArc
 50
37.542703
 51
45.23973
  0
ARC
  5
1AB
100
AcDbEntity
  8
図
  6
CONTINUOUS
 62
     6
100
AcDbCircle
 10
1504.19999
 20
1186.0
 30
0.0
 40
8.45
100
AcDbArc
 50
134.76027
 51
142.457297
  0
ARC
  5
1AC
100
AcDbEntity
  8
図
  6
CONTINUOUS
 62
     6
100
AcDbCircle
 10
1504.19999
 20
1186.0
 30
0.0
 40
8.45
100
AcDbArc
 50
217.542703
 51
225.23973
  0
LINE
  5
1AD
100
AcDbEntity
  8
図
  6
CONTINUOUS
 62
     6
100
AcDbLine
 10
1456.791749
 20
1121.0
 30
0.0
 11
1456.791749
 21
1115.7
 31
0.0
  0
LINE
  5
1AE
100
AcDbEntity
  8
図
  6
CONTINUOUS
 62
     6
100
AcDbLine
 10
1482.191749
 20
1115.7
 30
0.0
 11
1482.191749
 21
1121.0
 31
0.0
  0
ARC
  5
1AF
100
AcDbEntity
  8
図
  6
CONTINUOUS
 62
     6
100
AcDbCircle
 10
1501.491749
 20
1121.0
 30
0.0
 40
44.7
100
AcDbArc
 50
90.0
 51
180.0
  0
ARC
  5
1B0
100
AcDbEntity
  8
図
  6
CONTINUOUS
 62
     6
100
AcDbCircle
 10
1501.491749
 20
1121.0
 30
0.0
 40
19.3
100
AcDbArc
 50
90.0
 51
180.0
  0
ELLIPSE
  5
1B1
100
AcDbEntity
  8
図
  6
CONTINUOUS
 62
     6
100
AcDbEllipse
 10
1460.741749
 20
1109.7
 30
0.0
 11
6.9450971915400004
 21
0.0
 31
0.0
210
0.0
220
0.0
230
1.0
 40
0.74139
 41
0.0
 42
6.2831853071796004
  0
LINE
  5
1B2
100
AcDbEntity
  8
図
  6
CONTINUOUS
 62
     6
100
AcDbLine
 10
1452.741749
 20
1115.7
 30
0.0
 11
1486.241749
 21
1115.7
 31
0.0
  0
LINE
  5
1B3
100
AcDbEntity
  8
図
  6
CONTINUOUS
 62
     6
100
AcDbLine
 10
1451.991749
 20
1114.849029
 30
0.0
 11
1451.991749
 21
1104.550971
 31
0.0
  0
LINE
  5
1B4
100
AcDbEntity
  8
図
  6
CONTINUOUS
 62
     6
100
AcDbLine
 10
1486.991749
 20
1114.849029
 30
0.0
 11
1486.991749
 21
1104.550971
 31
0.0
  0
ARC
  5
1B5
100
AcDbEntity
  8
図
  6
CONTINUOUS
 62
     6
100
AcDbCircle
 10
1480.291749
 20
1109.7
 30
0.0
 40
8.45
100
AcDbArc
 50
314.76027
 51
322.457297
  0
ARC
  5
1B6
100
AcDbEntity
  8
図
  6
CONTINUOUS
 62
     6
100
AcDbCircle
 10
1480.291749
 20
1109.7
 30
0.0
 40
8.45
100
AcDbArc
 50
37.542703
 51
45.23973
  0
ARC
  5
1B7
100
AcDbEntity
  8
図
  6
CONTINUOUS
 62
     6
100
AcDbCircle
 10
1458.691749
 20
1109.7
 30
0.0
 40
8.45
100
AcDbArc
 50
134.76027
 51
142.457297
  0
ARC
  5
1B8
100
AcDbEntity
  8
図
  6
CONTINUOUS
 62
     6
100
AcDbCircle
 10
1458.691749
 20
1109.7
 30
0.0
 40
8.45
100
AcDbArc
 50
217.542703
 51
225.23973
  0
LINE
  5
1B9
100
AcDbEntity
  8
図
  6
CONTINUOUS
 62
     6
100
AcDbLine
 10
1456.791749
 20
1103.7
 30
0.0
 11
1456.791749
 21
1093.754121
 31
0.0
  0
LINE
  5
1BA
100
AcDbEntity
  8
図
  6
CONTINUOUS
 62
     6
100
AcDbLine
 10
1482.191749
 20
1093.754121
 30
0.0
 11
1482.191749
 21
1103.7
 31
0.0
  0
ARC
  5
1BB
100
AcDbEntity
  8
図
  6
CONTINUOUS
 62
     6
100
AcDbCircle
 10
1586.999959
 20
1169.000061
 30
0.0
 40
13.999996
100
AcDbArc
 50
90.0
 51
180.0
  0
ARC
  5
1BC
100
AcDbEntity
  8
図
  6
CONTINUOUS
 62
     6
100
AcDbCircle
 10
1586.999959
 20
1136.999939
 30
0.0
 40
13.999996
100
AcDbArc
 50
180.0
 51
270.0
  0
LINE
  5
1BD
100
AcDbEntity
  8
図
  6
CONTINUOUS
 62
     6
100
AcDbLine
 10
1586.999959
 20
1183.0
 30
0.0
 11
1589.99999
 21
1183.0
 31
0.0
  0
LINE
  5
1BE
100
AcDbEntity
  8
図
  6
CONTINUOUS
 62
     6
100
AcDbLine
 10
1586.999959
 20
1123.0
 30
0.0
 11
1589.99999
 21
1123.0
 31
0.0
  0
LINE
  5
1BF
100
AcDbEntity
  8
図
  6
CONTINUOUS
 62
     6
100
AcDbLine
 10
1573.000021
 20
1136.999939
 30
0.0
 11
1573.000021
 21
1169.000061
 31
0.0
  0
LINE
  5
1C0
100
AcDbEntity
  8
図
  6
CONTINUOUS
 62
     6
100
AcDbLine
 10
1589.99999
 20
1183.0
 30
0.0
 11
1589.99999
 21
1123.0
 31
0.0
  0
LINE
  5
1C1
100
AcDbEntity
  8
図
  6
CONTINUOUS
 62
     6
100
AcDbLine
 10
1619.99999
 20
1165.7
 30
0.0
 11
1619.99999
 21
1140.3
 31
0.0
  0
LINE
  5
1C2
100
AcDbEntity
  8
図
  6
CONTINUOUS
 62
     6
100
AcDbLine
 10
1589.99999
 20
1165.7
 30
0.0
 11
1619.99999
 21
1165.7
 31
0.0
  0
LINE
  5
1C3
100
AcDbEntity
  8
図
  6
CONTINUOUS
 62
     6
100
AcDbLine
 10
1589.99999
 20
1140.3
 30
0.0
 11
1619.99999
 21
1140.3
 31
0.0
  0
LINE
  5
1C4
100
AcDbEntity
  8
図
  6
CONTINUOUS
 62
     6
100
AcDbLine
 10
1501.44999
 20
1133.812436
 30
0.0
 11
1501.44999
 21
1140.299955
 31
0.0
  0
LINE
  5
1C5
100
AcDbEntity
  8
図
  6
CONTINUOUS
 62
     6
100
AcDbLine
 10
1501.44999
 20
1165.69998
 30
0.0
 11
1501.44999
 21
1180.0
 31
0.0
  0
LINE
  5
1C6
100
AcDbEntity
  8
図
  6
CONTINUOUS
 62
     6
100
AcDbLine
 10
1528.54999
 20
1133.812436
 30
0.0
 11
1528.54999
 21
1140.3
 31
0.0
  0
LINE
  5
1C7
100
AcDbEntity
  8
図
  6
CONTINUOUS
 62
     6
100
AcDbLine
 10
1528.54999
 20
1165.7
 30
0.0
 11
1528.54999
 21
1180.0
 31
0.0
  0
LINE
  5
1C8
100
AcDbEntity
  8
図
  6
CONTINUOUS
 62
     6
100
AcDbLine
 10
1553.000021
 20
1153.0
 30
0.0
 11
1629.99999
 21
1153.0
 31
0.0
  0
LINE
  5
1C9
100
AcDbEntity
  8
図
  6
CONTINUOUS
 62
     6
100
AcDbLine
 10
1501.491749
 20
1165.7
 30
0.0
 11
1508.64999
 21
1165.7
 31
0.0
  0
LINE
  5
1CA
100
AcDbEntity
  8
図
  6
CONTINUOUS
 62
     6
100
AcDbLine
 10
1521.34999
 20
1165.7
 30
0.0
 11
1573.000021
 21
1165.7
 31
0.0
  0
LINE
  5
1CB
100
AcDbEntity
  8
図
  6
CONTINUOUS
 62
     6
100
AcDbLine
 10
1521.34999
 20
1140.3
 30
0.0
 11
1573.000021
 21
1140.3
 31
0.0
  0
LINE
  5
1CC
100
AcDbEntity
  8
図
  6
CONTINUOUS
 62
     6
100
AcDbLine
 10
1501.491749
 20
1140.3
 30
0.0
 11
1508.64999
 21
1140.3
 31
0.0
  0
LINE
  5
1CD
100
AcDbEntity
  8
図
  6
CONTINUOUS
 62
     6
100
AcDbLine
 10
1502.29999
 20
1132.340192
 30
0.0
 11
1508.64999
 21
1132.340192
 31
0.0
  0
LINE
  5
1CE
100
AcDbEntity
  8
図
  6
CONTINUOUS
 62
     6
100
AcDbLine
 10
1521.34999
 20
1132.340192
 30
0.0
 11
1527.69999
 21
1132.340192
 31
0.0
  0
LINE
  5
1CF
100
AcDbEntity
  8
図
  6
CONTINUOUS
 62
     6
100
AcDbLine
 10
1498.24999
 20
1180.0
 30
0.0
 11
1508.64999
 21
1180.0
 31
0.0
  0
LINE
  5
1D0
100
AcDbEntity
  8
図
  6
CONTINUOUS
 62
     6
100
AcDbLine
 10
1521.34999
 20
1180.0
 30
0.0
 11
1531.74999
 21
1180.0
 31
0.0
  0
LINE
  5
1D1
100
AcDbEntity
  8
図
  6
CONTINUOUS
 62
     6
100
AcDbLine
 10
1521.34999
 20
1192.0
 30
0.0
 11
1531.74999
 21
1192.0
 31
0.0
  0
LINE
  5
1D2
100
AcDbEntity
  8
図
  6
CONTINUOUS
 62
     6
100
AcDbLine
 10
1498.24999
 20
1192.0
 30
0.0
 11
1508.64999
 21
1192.0
 31
0.0
  0
ELLIPSE
  5
1D3
100
AcDbEntity
  8
図
  6
CONTINUOUS
 62
     6
100
AcDbEllipse
 10
1506.24999
 20
1186.0
 30
0.0
 11
6.9450971915400004
 21
0.0
 31
0.0
210
0.0
220
0.0
230
1.0
 40
0.74139
 41
1.2179528329088276
 42
5.0652324742707613
  0
ELLIPSE
  5
1D4
100
AcDbEntity
  8
図
  6
CONTINUOUS
 62
     6
100
AcDbEllipse
 10
1523.74999
 20
1186.0
 30
0.0
 11
-6.9450971915400004
 21
0.0000000000000009
 31
0.0
210
0.0
220
0.0
230
1.0
 40
0.74139
 41
1.2179528329081213
 42
5.0652324742714656
  0
LINE
  5
1D5
100
AcDbEntity
  8
図
  6
CONTINUOUS
 62
     6
100
AcDbLine
 10
1498.24999
 20
1257.3
 30
0.0
 11
1508.64999
 21
1257.3
 31
0.0
  0
ELLIPSE
  5
1D6
100
AcDbEntity
  8
図
  6
CONTINUOUS
 62
     6
100
AcDbEllipse
 10
1506.24999
 20
1263.3
 30
0.0
 11
-6.9450971915400004
 21
0.0000000000000009
 31
0.0
210
0.0
220
0.0
230
1.0
 40
0.74139
 41
4.3595454864986234
 42
1.9236398206810268
  0
ELLIPSE
  5
1D7
100
AcDbEntity
  8
図
  6
CONTINUOUS
 62
     6
100
AcDbEllipse
 10
1523.74999
 20
1263.3
 30
0.0
 11
6.9450971915400004
 21
0.0
 31
0.0
210
0.0
220
0.0
230
1.0
 40
0.74139
 41
4.3595454864986234
 42
1.9236398206809646
  0
LINE
  5
1D8
100
AcDbEntity
  8
図
  6
CONTINUOUS
 62
     6
100
AcDbLine
 10
1521.34999
 20
1257.3
 30
0.0
 11
1531.74999
 21
1257.3
 31
0.0
  0
LINE
  5
1D9
100
AcDbEntity
  8
図
  6
CONTINUOUS
 62
     6
100
AcDbLine
 10
1521.34999
 20
1269.3
 30
0.0
 11
1531.74999
 21
1269.3
 31
0.0
  0
LINE
  5
1DA
100
AcDbEntity
  8
図
  6
CONTINUOUS
 62
     6
100
AcDbLine
 10
1498.24999
 20
1269.3
 30
0.0
 11
1508.64999
 21
1269.3
 31
0.0
  0
LINE
  5
1DB
100
AcDbEntity
  8
図
  6
CONTINUOUS
 62
     6
100
AcDbLine
 10
1521.34999
 20
1274.5
 30
0.0
 11
1534.24999
 21
1274.5
 31
0.0
  0
LINE
  5
1DC
100
AcDbEntity
  8
図
  6
CONTINUOUS
 62
     6
100
AcDbLine
 10
1495.74999
 20
1274.5
 30
0.0
 11
1508.64999
 21
1274.5
 31
0.0
  0
LINE
  5
1DD
100
AcDbEntity
  8
図
  6
CONTINUOUS
 62
     6
100
AcDbLine
 10
1490.49999
 20
1280.5
 30
0.0
 11
1508.64999
 21
1280.5
 31
0.0
  0
LINE
  5
1DE
100
AcDbEntity
  8
図
  6
CONTINUOUS
 62
     6
100
AcDbLine
 10
1521.34999
 20
1280.5
 30
0.0
 11
1539.49999
 21
1280.5
 31
0.0
  0
LINE
  5
1DF
100
AcDbEntity
  8
図
  6
CONTINUOUS
 62
     6
100
AcDbLine
 10
1489.49999
 20
1282.5
 30
0.0
 11
1508.64999
 21
1282.5
 31
0.0
  0
LINE
  5
1E0
100
AcDbEntity
  8
図
  6
CONTINUOUS
 62
     6
100
AcDbLine
 10
1521.34999
 20
1282.5
 30
0.0
 11
1540.49999
 21
1282.5
 31
0.0
  0
ARC
  5
1E1
100
AcDbEntity
  8
図
  6
CONTINUOUS
 62
     6
100
AcDbCircle
 10
1505.37499
 20
1288.707031
 30
0.0
 40
14.207031
100
AcDbArc
 50
239.229636
 51
270.0
  0
ARC
  5
1E2
100
AcDbEntity
  8
図
  6
CONTINUOUS
 62
     6
100
AcDbCircle
 10
1524.62499
 20
1288.707031
 30
0.0
 40
14.207031
100
AcDbArc
 50
270.0
 51
300.770364
  0
LINE
  5
1E3
100
AcDbEntity
  8
図
  6
CONTINUOUS
 62
     6
100
AcDbLine
 10
1517.29999
 20
593.0
 30
0.0
 11
1542.69999
 21
593.0
 31
0.0
  0
LINE
  5
1E4
100
AcDbEntity
  8
図
  6
CONTINUOUS
 62
     6
100
AcDbLine
 10
1517.29999
 20
793.0
 30
0.0
 11
1517.29999
 21
593.0
 31
0.0
  0
LINE
  5
1E5
100
AcDbEntity
  8
図
  6
CONTINUOUS
 62
     6
100
AcDbLine
 10
1542.69999
 20
593.0
 30
0.0
 11
1542.69999
 21
793.0
 31
0.0
  0
LINE
  5
1E6
100
AcDbEntity
  8
図
  6
CONTINUOUS
 62
     2
100
AcDbLine
 10
1561.073507
 20
1450.530038
 30
0.0
 11
1569.054019
 21
1449.971987
 31
0.0
  0
LINE
  5
1E7
100
AcDbEntity
  8
図
  6
CONTINUOUS
 62
     2
100
AcDbLine
 10
1561.073507
 20
1450.530038
 30
0.0
 11
1559.469108
 21
1427.586065
 31
0.0
  0
LINE
  5
1E8
100
AcDbEntity
  8
図
  6
CONTINUOUS
 62
     2
100
AcDbLine
 10
1559.469108
 20
1427.586065
 30
0.0
 11
1567.44962
 21
1427.028013
 31
0.0
  0
LINE
  5
1E9
100
AcDbEntity
  8
図
  6
CONTINUOUS
 62
     6
100
AcDbLine
 10
1540.49999
 20
616.0
 30
0.0
 11
1519.49999
 21
616.0
 31
0.0
  0
LINE
  5
1EA
100
AcDbEntity
  8
図
  6
CONTINUOUS
 62
     6
100
AcDbLine
 10
1519.49999
 20
793.0
 30
0.0
 11
1519.49999
 21
616.0
 31
0.0
  0
LINE
  5
1EB
100
AcDbEntity
  8
図
  6
CONTINUOUS
 62
     6
100
AcDbLine
 10
1540.49999
 20
793.0
 30
0.0
 11
1540.49999
 21
616.0
 31
0.0
  0
LINE
  5
1EC
100
AcDbEntity
  8
図
  6
CONTINUOUS
 62
     6
100
AcDbLine
 10
1563.25182
 20
1438.5
 30
0.0
 11
1641.25182
 21
1438.5
 31
0.0
  0
LINE
  5
1ED
100
AcDbEntity
  8
図
  6
CONTINUOUS
 62
     6
100
AcDbLine
 10
1589.99999
 20
1440.464373
 30
0.0
 11
1631.25182
 21
1438.5
 31
0.0
  0
LINE
  5
1EE
100
AcDbEntity
  8
図
  6
CONTINUOUS
 62
     6
100
AcDbLine
 10
1589.99999
 20
1436.535627
 30
0.0
 11
1631.25182
 21
1438.5
 31
0.0
  0
ELLIPSE
  5
1EF
100
AcDbEntity
  8
図
  6
CONTINUOUS
 62
     6
100
AcDbEllipse
 10
1478.241749
 20
1109.7
 30
0.0
 11
-6.9450971915400004
 21
0.0000000000000009
 31
0.0
210
0.0
220
0.0
230
1.0
 40
0.74139
 41
0.0
 42
6.2831853071796004
  0
LINE
  5
1F0
100
AcDbEntity
  8
図
  6
CONTINUOUS
 62
     6
100
AcDbLine
 10
1452.741749
 20
1103.7
 30
0.0
 11
1486.241749
 21
1103.7
 31
0.0
  0
TEXT
  5
1F1
100
AcDbEntity
  8
図
  6
CONTINUOUS
 62
     2
100
AcDbText
 10
1266.5
 20
623.0
 30
0.0
 40
40.0
  1
F.L.
 41
0.4125
  7
EXCADSTD
 72
     5
 11
1326.9956
 21
623.0
 31
0.0
100
AcDbText
  0
LINE
  5
1F2
100
AcDbEntity
  8
図
  6
EXLTYPE4
 62
     6
100
AcDbLine
 10
1240.0
 20
623.0
 30
0.0
 11
1589.99999
 21
623.0
 31
0.0
  0
LINE
  5
1F3
100
AcDbEntity
  8
図
  6
CONTINUOUS
 62
     2
100
AcDbLine
 10
490.908381
 20
1459.593793
 30
0.0
 11
489.5011
 21
1399.593793
 31
0.0
  0
ARC
  5
1F4
100
AcDbEntity
  8
図
  6
CONTINUOUS
 62
     2
100
AcDbCircle
 10
494.907281
 20
1459.5
 30
0.0
 40
4.0
100
AcDbArc
 50
90.0
 51
178.656392
  0
ARC
  5
1F5
100
AcDbEntity
  8
図
  6
CONTINUOUS
 62
     2
100
AcDbCircle
 10
493.5
 20
1399.5
 30
0.0
 40
4.0
100
AcDbArc
 50
90.0
 51
183.703437
  0
LINE
  5
1F6
100
AcDbEntity
  8
図
  6
CONTINUOUS
 62
     2
100
AcDbLine
 10
843.091619
 20
1459.593793
 30
0.0
 11
844.4989
 21
1399.593793
 31
0.0
  0
ARC
  5
1F7
100
AcDbEntity
  8
図
  6
CONTINUOUS
 62
     2
100
AcDbCircle
 10
839.092719
 20
1459.5
 30
0.0
 40
4.0
100
AcDbArc
 50
1.343608
 51
90.0
  0
LINE
  5
1F8
100
AcDbEntity
  8
図
  6
CONTINUOUS
 62
     2
100
AcDbLine
 10
489.508353
 20
1399.241631
 30
0.0
 11
496.697268
 21
1288.177039
 31
0.0
  0
LINE
  5
1F9
100
AcDbEntity
  8
図
  6
CONTINUOUS
 62
     2
100
AcDbLine
 10
844.491647
 20
1399.241631
 30
0.0
 11
837.302732
 21
1288.177039
 31
0.0
  0
ARC
  5
1FA
100
AcDbEntity
  8
図
  6
CONTINUOUS
 62
     2
100
AcDbCircle
 10
501.686826
 20
1288.5
 30
0.0
 40
5.0
100
AcDbArc
 50
183.703437
 51
270.0
  0
ARC
  5
1FB
100
AcDbEntity
  8
図
  6
CONTINUOUS
 62
     2
100
AcDbCircle
 10
832.313174
 20
1288.5
 30
0.0
 40
5.0
100
AcDbArc
 50
270.0
 51
356.296563
  0
ARC
  5
1FC
100
AcDbEntity
  8
図
  6
CONTINUOUS
 62
     2
100
AcDbCircle
 10
840.5
 20
1399.5
 30
0.0
 40
4.0
100
AcDbArc
 50
356.296563
 51
90.0
  0
LINE
  5
1FD
100
AcDbEntity
  8
図
  6
CONTINUOUS
 62
     2
100
AcDbLine
 10
840.5
 20
1403.5
 30
0.0
 11
493.5
 21
1403.5
 31
0.0
  0
LINE
  5
1FE
100
AcDbEntity
  8
図
  6
CONTINUOUS
 62
     2
100
AcDbLine
 10
832.313174
 20
1283.5
 30
0.0
 11
501.686826
 21
1283.5
 31
0.0
  0
LINE
  5
1FF
100
AcDbEntity
  8
図
  6
CONTINUOUS
 62
     6
100
AcDbLine
 10
507.5
 20
1438.5
 30
0.0
 11
529.5
 21
1438.5
 31
0.0
  0
LINE
  5
200
100
AcDbEntity
  8
図
  6
CONTINUOUS
 62
     6
100
AcDbLine
 10
518.5
 20
1427.5
 30
0.0
 11
518.5
 21
1449.5
 31
0.0
  0
CIRCLE
  5
201
100
AcDbEntity
  8
図
  6
CONTINUOUS
 62
     2
100
AcDbCircle
 10
518.5
 20
1438.5
 30
0.0
 40
11.5
  0
LINE
  5
202
100
AcDbEntity
  8
図
  6
CONTINUOUS
 62
     6
100
AcDbLine
 10
826.5
 20
1438.5
 30
0.0
 11
804.5
 21
1438.5
 31
0.0
  0
LINE
  5
203
100
AcDbEntity
  8
図
  6
CONTINUOUS
 62
     6
100
AcDbLine
 10
815.5
 20
1427.5
 30
0.0
 11
815.5
 21
1449.5
 31
0.0
  0
CIRCLE
  5
204
100
AcDbEntity
  8
図
  6
CONTINUOUS
 62
     2
100
AcDbCircle
 10
815.5
 20
1438.5
 30
0.0
 40
11.5
  0
LINE
  5
205
100
AcDbEntity
  8
図
  6
CONTINUOUS
 62
     6
100
AcDbLine
 10
792.0
 20
1132.7
 30
0.0
 11
792.0
 21
1050.5
 31
0.0
  0
LINE
  5
206
100
AcDbEntity
  8
図
  6
CONTINUOUS
 62
     6
100
AcDbLine
 10
829.5
 20
1088.0
 30
0.0
 11
754.5
 21
1088.0
 31
0.0
  0
LINE
  5
207
100
AcDbEntity
  8
図
  6
CONTINUOUS
 62
     6
100
AcDbLine
 10
805.0
 20
1082.163691
 30
0.0
 11
805.0
 21
1093.836309
 31
0.0
  0
LINE
  5
208
100
AcDbEntity
  8
図
  6
CONTINUOUS
 62
     6
100
AcDbLine
 10
803.554392
 20
1096.340176
 30
0.0
 11
793.445608
 21
1102.176485
 31
0.0
  0
LINE
  5
209
100
AcDbEntity
  8
図
  6
CONTINUOUS
 62
     6
100
AcDbLine
 10
790.554392
 20
1102.176485
 30
0.0
 11
780.445608
 21
1096.340176
 31
0.0
  0
LINE
  5
20A
100
AcDbEntity
  8
図
  6
CONTINUOUS
 62
     6
100
AcDbLine
 10
779.0
 20
1093.836309
 30
0.0
 11
779.0
 21
1082.163691
 31
0.0
  0
LINE
  5
20B
100
AcDbEntity
  8
図
  6
CONTINUOUS
 62
     6
100
AcDbLine
 10
780.445608
 20
1079.659824
 30
0.0
 11
790.554392
 21
1073.823515
 31
0.0
  0
LINE
  5
20C
100
AcDbEntity
  8
図
  6
CONTINUOUS
 62
     6
100
AcDbLine
 10
793.445608
 20
1073.823515
 30
0.0
 11
803.554392
 21
1079.659824
 31
0.0
  0
ARC
  5
20D
100
AcDbEntity
  8
図
  6
CONTINUOUS
 62
     6
100
AcDbCircle
 10
792.0
 20
1088.0
 30
0.0
 40
14.25
100
AcDbArc
 50
264.177545
 51
275.822455
  0
ARC
  5
20E
100
AcDbEntity
  8
図
  6
CONTINUOUS
 62
     6
100
AcDbCircle
 10
792.0
 20
1088.0
 30
0.0
 40
14.25
100
AcDbArc
 50
324.177545
 51
335.822455
  0
ARC
  5
20F
100
AcDbEntity
  8
図
  6
CONTINUOUS
 62
     6
100
AcDbCircle
 10
792.0
 20
1088.0
 30
0.0
 40
14.25
100
AcDbArc
 50
24.177545
 51
35.822455
  0
ARC
  5
210
100
AcDbEntity
  8
図
  6
CONTINUOUS
 62
     6
100
AcDbCircle
 10
792.0
 20
1088.0
 30
0.0
 40
14.25
100
AcDbArc
 50
84.177545
 51
95.822455
  0
ARC
  5
211
100
AcDbEntity
  8
図
  6
CONTINUOUS
 62
     6
100
AcDbCircle
 10
792.0
 20
1088.0
 30
0.0
 40
14.25
100
AcDbArc
 50
144.177545
 51
155.822455
  0
ARC
  5
212
100
AcDbEntity
  8
図
  6
CONTINUOUS
 62
     6
100
AcDbCircle
 10
792.0
 20
1088.0
 30
0.0
 40
14.25
100
AcDbArc
 50
204.177545
 51
215.822455
  0
CIRCLE
  5
213
100
AcDbEntity
  8
図
  6
CONTINUOUS
 62
     6
100
AcDbCircle
 10
792.0
 20
1088.0
 30
0.0
 40
4.75
  0
CIRCLE
  5
214
100
AcDbEntity
  8
図
  6
CONTINUOUS
 62
     6
100
AcDbCircle
 10
792.0
 20
1088.0
 30
0.0
 40
12.074349
  0
LINE
  5
215
100
AcDbEntity
  8
図
  6
CONTINUOUS
 62
     6
100
AcDbLine
 10
802.5
 20
1110.7
 30
0.0
 11
802.5
 21
1096.948929
 31
0.0
  0
LINE
  5
216
100
AcDbEntity
  8
図
  6
CONTINUOUS
 62
     6
100
AcDbLine
 10
781.5
 20
1110.7
 30
0.0
 11
781.5
 21
1096.948929
 31
0.0
  0
LINE
  5
217
100
AcDbEntity
  8
図
  6
CONTINUOUS
 62
     6
100
AcDbLine
 10
781.030456
 20
1110.7
 30
0.0
 11
802.969544
 21
1110.7
 31
0.0
  0
LINE
  5
218
100
AcDbEntity
  8
図
  6
CONTINUOUS
 62
     6
100
AcDbLine
 10
781.030456
 20
1122.7
 30
0.0
 11
802.969544
 21
1122.7
 31
0.0
  0
LINE
  5
219
100
AcDbEntity
  8
図
  6
CONTINUOUS
 62
     6
100
AcDbLine
 10
780.5
 20
1121.792887
 30
0.0
 11
780.5
 21
1111.607113
 31
0.0
  0
LINE
  5
21A
100
AcDbEntity
  8
図
  6
CONTINUOUS
 62
     6
100
AcDbLine
 10
803.5
 20
1121.792887
 30
0.0
 11
803.5
 21
1111.607113
 31
0.0
  0
ARC
  5
21B
100
AcDbEntity
  8
図
  6
CONTINUOUS
 62
     6
100
AcDbCircle
 10
790.25
 20
1116.7
 30
0.0
 40
11.0
100
AcDbArc
 50
146.944269
 51
152.419801
  0
ARC
  5
21C
100
AcDbEntity
  8
図
  6
CONTINUOUS
 62
     6
100
AcDbCircle
 10
790.25
 20
1116.7
 30
0.0
 40
11.0
100
AcDbArc
 50
207.580199
 51
213.055731
  0
ARC
  5
21D
100
AcDbEntity
  8
図
  6
CONTINUOUS
 62
     6
100
AcDbCircle
 10
793.75
 20
1116.7
 30
0.0
 40
11.0
100
AcDbArc
 50
326.944269
 51
332.419801
  0
ARC
  5
21E
100
AcDbEntity
  8
図
  6
CONTINUOUS
 62
     6
100
AcDbCircle
 10
793.75
 20
1116.7
 30
0.0
 40
11.0
100
AcDbArc
 50
27.580199
 51
33.055731
  0
ELLIPSE
  5
21F
100
AcDbEntity
  8
図
  6
CONTINUOUS
 62
     6
100
AcDbEllipse
 10
786.249029
 20
1116.7
 30
0.0
 11
-0.0000000000000009
 21
-5.0928871968700005
 31
0.0
210
0.0
220
0.0
230
1.0
 40
0.93641
 41
0.0
 42
6.2831853071796004
  0
ELLIPSE
  5
220
100
AcDbEntity
  8
図
  6
CONTINUOUS
 62
     6
100
AcDbEllipse
 10
797.750971
 20
1116.7
 30
0.0
 11
0.0000000000000003
 21
5.0928871968700005
 31
0.0
210
0.0
220
0.0
230
1.0
 40
0.93641
 41
0.0
 42
6.2831853071796004
  0
ARC
  5
221
100
AcDbEntity
  8
図
  6
CONTINUOUS
 62
     6
100
AcDbCircle
 10
792.0
 20
1088.0
 30
0.0
 40
27.5
100
AcDbArc
 50
114.719851
 51
65.280149
  0
LINE
  5
222
100
AcDbEntity
  8
図
  6
CONTINUOUS
 62
     6
100
AcDbLine
 10
785.5
 20
1162.7
 30
0.0
 11
772.5
 21
1283.5
 31
0.0
  0
LINE
  5
223
100
AcDbEntity
  8
図
  6
CONTINUOUS
 62
     6
100
AcDbLine
 10
785.5
 20
1122.7
 30
0.0
 11
785.5
 21
1162.7
 31
0.0
  0
LINE
  5
224
100
AcDbEntity
  8
図
  6
CONTINUOUS
 62
     6
100
AcDbLine
 10
798.5
 20
1122.7
 30
0.0
 11
798.5
 21
1163.39749
 31
0.0
  0
LINE
  5
225
100
AcDbEntity
  8
図
  6
CONTINUOUS
 62
     6
100
AcDbLine
 10
798.5
 20
1163.39749
 30
0.0
 11
785.575061
 21
1283.5
 31
0.0
  0
ARC
  5
226
100
AcDbEntity
  8
図
  6
CONTINUOUS
 62
     6
100
AcDbCircle
 10
1531.10587
 20
1107.0
 30
0.0
 40
6.5
100
AcDbArc
 50
270.0
 51
318.84583
  0
ARC
  5
227
100
AcDbEntity
  8
図
  6
CONTINUOUS
 62
     6
100
AcDbCircle
 10
1531.10587
 20
1069.0
 30
0.0
 40
6.5
100
AcDbArc
 50
41.15417
 51
90.0
  0
LINE
  5
228
100
AcDbEntity
  8
図
  6
CONTINUOUS
 62
     6
100
AcDbLine
 10
1542.99999
 20
1100.25
 30
0.0
 11
1541.572531
 21
1102.722432
 31
0.0
  0
LINE
  5
229
100
AcDbEntity
  8
図
  6
CONTINUOUS
 62
     6
100
AcDbLine
 10
1542.99999
 20
1075.75
 30
0.0
 11
1541.572531
 21
1073.277568
 31
0.0
  0
LINE
  5
22A
100
AcDbEntity
  8
図
  6
CONTINUOUS
 62
     6
100
AcDbLine
 10
1542.99999
 20
1100.25
 30
0.0
 11
1542.99999
 21
1075.75
 31
0.0
  0
LINE
  5
22B
100
AcDbEntity
  8
図
  6
CONTINUOUS
 62
     6
100
AcDbLine
 10
1541.572531
 20
1102.722432
 30
0.0
 11
1535.99999
 21
1102.722432
 31
0.0
  0
LINE
  5
22C
100
AcDbEntity
  8
図
  6
CONTINUOUS
 62
     6
100
AcDbLine
 10
1541.572531
 20
1073.277568
 30
0.0
 11
1535.99999
 21
1073.277568
 31
0.0
  0
ARC
  5
22D
100
AcDbEntity
  8
図
  6
CONTINUOUS
 62
     6
100
AcDbCircle
 10
1500.99999
 20
1104.0
 30
0.0
 40
3.5
100
AcDbArc
 50
270.0
 51
0.0
  0
ARC
  5
22E
100
AcDbEntity
  8
図
  6
CONTINUOUS
 62
     6
100
AcDbCircle
 10
1528.99999
 20
1104.0
 30
0.0
 40
3.5
100
AcDbArc
 50
180.0
 51
270.0
  0
LINE
  5
22F
100
AcDbEntity
  8
図
  6
CONTINUOUS
 62
     6
100
AcDbLine
 10
1528.99999
 20
1100.5
 30
0.0
 11
1531.10587
 21
1100.5
 31
0.0
  0
LINE
  5
230
100
AcDbEntity
  8
図
  6
CONTINUOUS
 62
     6
100
AcDbLine
 10
1500.49999
 20
1075.25
 30
0.0
 11
1500.49999
 21
1100.75
 31
0.0
  0
ARC
  5
231
100
AcDbEntity
  8
図
  6
CONTINUOUS
 62
     6
100
AcDbCircle
 10
1496.725073
 20
1079.25
 30
0.0
 40
5.5
100
AcDbArc
 50
217.187626
 51
313.341758
  0
ARC
  5
232
100
AcDbEntity
  8
図
  6
CONTINUOUS
 62
     6
100
AcDbCircle
 10
1496.725073
 20
1096.75
 30
0.0
 40
5.5
100
AcDbArc
 50
46.658242
 51
142.812374
  0
LINE
  5
233
100
AcDbEntity
  8
図
  6
CONTINUOUS
 62
     6
100
AcDbLine
 10
1492.34344
 20
1075.925651
 30
0.0
 11
1492.34344
 21
1100.074349
 31
0.0
  0
ELLIPSE
  5
234
100
AcDbEntity
  8
図
  6
CONTINUOUS
 62
     6
100
AcDbEllipse
 10
1496.725073
 20
1076.704912
 30
0.0
 11
-3.4910600109400001
 21
-0.0000000000000027
 31
0.0
210
0.0
220
0.0
230
1.0
 40
0.846423
 41
0.0
 42
6.2831853071796004
  0
ELLIPSE
  5
235
100
AcDbEntity
  8
図
  6
CONTINUOUS
 62
     6
100
AcDbEllipse
 10
1496.725073
 20
1088.0
 30
0.0
 11
-0.0000000000000035
 21
5.8363087649600063
 31
0.0
210
0.0
220
0.0
230
1.0
 40
0.598162
 41
0.0
 42
6.2831853071796004
  0
ELLIPSE
  5
236
100
AcDbEntity
  8
図
  6
CONTINUOUS
 62
     6
100
AcDbEllipse
 10
1496.725073
 20
1099.295088
 30
0.0
 11
-3.4910600109400001
 21
-0.0000000000000027
 31
0.0
210
0.0
220
0.0
230
1.0
 40
0.846423
 41
0.0
 42
6.2831853071796004
  0
LINE
  5
237
100
AcDbEntity
  8
図
  6
CONTINUOUS
 62
     6
100
AcDbLine
 10
1500.49999
 20
1100.5
 30
0.0
 11
1500.99999
 21
1100.5
 31
0.0
  0
LINE
  5
238
100
AcDbEntity
  8
図
  6
CONTINUOUS
 62
     6
100
AcDbLine
 10
1500.49999
 20
1075.5
 30
0.0
 11
1531.10587
 21
1075.5
 31
0.0
  0
ARC
  5
239
100
AcDbEntity
  8
図
  6
CONTINUOUS
 62
     6
100
AcDbCircle
 10
1536.609954
 20
1099.041824
 30
0.0
 40
3.730808
100
AcDbArc
 50
149.92776
 51
260.59025
  0
ARC
  5
23A
100
AcDbEntity
  8
図
  6
CONTINUOUS
 62
     6
100
AcDbCircle
 10
1543.160892
 20
1088.0
 30
0.0
 40
10.269665
100
AcDbArc
 50
134.209728
 51
225.790272
  0
ARC
  5
23B
100
AcDbEntity
  8
図
  6
CONTINUOUS
 62
     6
100
AcDbCircle
 10
1536.609954
 20
1076.958176
 30
0.0
 40
3.730808
100
AcDbArc
 50
99.40975
 51
210.07224
  0
LINE
  5
23C
100
AcDbEntity
  8
図
  6
CONTINUOUS
 62
     6
100
AcDbLine
 10
1541.572531
 20
1080.638784
 30
0.0
 11
1535.99999
 21
1080.638784
 31
0.0
  0
ARC
  5
23D
100
AcDbEntity
  8
図
  6
CONTINUOUS
 62
     6
100
AcDbCircle
 10
1518.350099
 20
1088.0
 30
0.0
 40
24.361216
100
AcDbArc
 50
342.412046
 51
17.587954
  0
LINE
  5
23E
100
AcDbEntity
  8
図
  6
CONTINUOUS
 62
     6
100
AcDbLine
 10
1541.572531
 20
1095.361216
 30
0.0
 11
1535.99999
 21
1095.361216
 31
0.0
  0
ARC
  5
23F
100
AcDbEntity
  8
図
  6
CONTINUOUS
 62
     6
100
AcDbCircle
 10
1513.24999
 20
1116.7
 30
0.0
 40
11.0
100
AcDbArc
 50
146.944269
 51
213.055731
  0
LINE
  5
240
100
AcDbEntity
  8
図
  6
CONTINUOUS
 62
     6
100
AcDbLine
 10
1504.030446
 20
1110.7
 30
0.0
 11
1525.969534
 21
1110.7
 31
0.0
  0
LINE
  5
241
100
AcDbEntity
  8
図
  6
CONTINUOUS
 62
     6
100
AcDbLine
 10
1504.030446
 20
1122.7
 30
0.0
 11
1525.969534
 21
1122.7
 31
0.0
  0
ARC
  5
242
100
AcDbEntity
  8
図
  6
CONTINUOUS
 62
     6
100
AcDbCircle
 10
1516.74999
 20
1116.7
 30
0.0
 40
11.0
100
AcDbArc
 50
326.944269
 51
33.055731
  0
ELLIPSE
  5
243
100
AcDbEntity
  8
図
  6
CONTINUOUS
 62
     6
100
AcDbEllipse
 10
1505.021764
 20
1116.7
 30
0.0
 11
0.0000000000000003
 21
5.0928871968700005
 31
0.0
210
0.0
220
0.0
230
1.0
 40
0.544244
 41
0.0
 42
6.2831853071796004
  0
ELLIPSE
  5
244
100
AcDbEntity
  8
図
  6
CONTINUOUS
 62
     6
100
AcDbEllipse
 10
1514.99999
 20
1116.7
 30
0.0
 11
5.5056788863900001
 21
0.0
 31
0.0
210
0.0
220
0.0
230
1.0
 40
0.925024
 41
0.0
 42
6.2831853071796004
  0
ELLIPSE
  5
245
100
AcDbEntity
  8
図
  6
CONTINUOUS
 62
     6
100
AcDbEllipse
 10
1524.978216
 20
1116.7
 30
0.0
 11
-0.0000000000000009
 21
-5.0928871968700005
 31
0.0
210
0.0
220
0.0
230
1.0
 40
0.544244
 41
0.0
 42
6.2831853071796004
  0
LINE
  5
246
100
AcDbEntity
  8
図
  6
CONTINUOUS
 62
     6
100
AcDbLine
 10
1504.49999
 20
1104.0
 30
0.0
 11
1504.49999
 21
1110.7
 31
0.0
  0
LINE
  5
247
100
AcDbEntity
  8
図
  6
CONTINUOUS
 62
     6
100
AcDbLine
 10
1525.49999
 20
1104.0
 30
0.0
 11
1525.49999
 21
1110.7
 31
0.0
  0
ARC
  5
248
100
AcDbEntity
  8
図
  6
CONTINUOUS
 62
     6
100
AcDbCircle
 10
1536.233483
 20
1099.041824
 30
0.0
 40
6.484775
100
AcDbArc
 50
325.418579
 51
25.418579
  0
ARC
  5
249
100
AcDbEntity
  8
図
  6
CONTINUOUS
 62
     6
100
AcDbCircle
 10
1536.233483
 20
1076.958176
 30
0.0
 40
6.484775
100
AcDbArc
 50
334.581421
 51
34.581421
  0
LINE
  5
24A
100
AcDbEntity
  8
図
  6
CONTINUOUS
 62
     6
100
AcDbLine
 10
1597.99999
 20
1098.5
 30
0.0
 11
1597.99999
 21
1077.5
 31
0.0
  0
LINE
  5
24B
100
AcDbEntity
  8
図
  6
CONTINUOUS
 62
     6
100
AcDbLine
 10
1589.99999
 20
1060.5
 30
0.0
 11
1589.99999
 21
1115.5
 31
0.0
  0
ARC
  5
24C
100
AcDbEntity
  8
図
  6
CONTINUOUS
 62
     6
100
AcDbCircle
 10
1599.272898
 20
1097.579477
 30
0.0
 40
25.3
100
AcDbArc
 50
156.419163
 51
177.348222
  0
ARC
  5
24D
100
AcDbEntity
  8
図
  6
CONTINUOUS
 62
     6
100
AcDbCircle
 10
1587.99999
 20
1102.5
 30
0.0
 40
13.0
100
AcDbArc
 50
90.0
 51
156.419163
  0
LINE
  5
24E
100
AcDbEntity
  8
図
  6
CONTINUOUS
 62
     6
100
AcDbLine
 10
1587.99999
 20
1115.5
 30
0.0
 11
1589.99999
 21
1115.5
 31
0.0
  0
ARC
  5
24F
100
AcDbEntity
  8
図
  6
CONTINUOUS
 62
     6
100
AcDbCircle
 10
1599.272898
 20
1078.420523
 30
0.0
 40
25.3
100
AcDbArc
 50
182.651778
 51
203.580837
  0
ARC
  5
250
100
AcDbEntity
  8
図
  6
CONTINUOUS
 62
     6
100
AcDbCircle
 10
1587.99999
 20
1073.5
 30
0.0
 40
13.0
100
AcDbArc
 50
203.580837
 51
270.0
  0
LINE
  5
251
100
AcDbEntity
  8
図
  6
CONTINUOUS
 62
     6
100
AcDbLine
 10
1587.99999
 20
1060.5
 30
0.0
 11
1589.99999
 21
1060.5
 31
0.0
  0
LINE
  5
252
100
AcDbEntity
  8
図
  6
CONTINUOUS
 62
     6
100
AcDbLine
 10
1573.99999
 20
1077.25
 30
0.0
 11
1573.99999
 21
1098.75
 31
0.0
  0
LINE
  5
253
100
AcDbEntity
  8
図
  6
CONTINUOUS
 62
     6
100
AcDbLine
 10
1542.99999
 20
1098.5
 30
0.0
 11
1573.99999
 21
1098.5
 31
0.0
  0
LINE
  5
254
100
AcDbEntity
  8
図
  6
CONTINUOUS
 62
     6
100
AcDbLine
 10
1589.99999
 20
1098.5
 30
0.0
 11
1597.99999
 21
1098.5
 31
0.0
  0
LINE
  5
255
100
AcDbEntity
  8
図
  6
CONTINUOUS
 62
     6
100
AcDbLine
 10
1542.99999
 20
1077.5
 30
0.0
 11
1573.99999
 21
1077.5
 31
0.0
  0
LINE
  5
256
100
AcDbEntity
  8
図
  6
CONTINUOUS
 62
     6
100
AcDbLine
 10
1589.99999
 20
1077.5
 30
0.0
 11
1597.99999
 21
1077.5
 31
0.0
  0
LINE
  5
257
100
AcDbEntity
  8
図
  6
CONTINUOUS
 62
     6
100
AcDbLine
 10
1487.59999
 20
1093.3
 30
0.0
 11
1492.34344
 21
1100.074349
 31
0.0
  0
LINE
  5
258
100
AcDbEntity
  8
図
  6
CONTINUOUS
 62
     6
100
AcDbLine
 10
1487.59999
 20
1082.7
 30
0.0
 11
1492.34344
 21
1075.925651
 31
0.0
  0
LINE
  5
259
100
AcDbEntity
  8
図
  6
CONTINUOUS
 62
     6
100
AcDbLine
 10
1487.59999
 20
1082.7
 30
0.0
 11
1487.59999
 21
1093.3
 31
0.0
  0
LINE
  5
25A
100
AcDbEntity
  8
図
  6
CONTINUOUS
 62
     6
100
AcDbLine
 10
1478.49999
 20
1092.75
 30
0.0
 11
1487.59999
 21
1092.75
 31
0.0
  0
LINE
  5
25B
100
AcDbEntity
  8
図
  6
CONTINUOUS
 62
     6
100
AcDbLine
 10
1478.49999
 20
1083.25
 30
0.0
 11
1487.59999
 21
1083.25
 31
0.0
  0
LINE
  5
25C
100
AcDbEntity
  8
図
  6
CONTINUOUS
 62
     6
100
AcDbLine
 10
1478.49999
 20
1092.75
 30
0.0
 11
1478.49999
 21
1083.25
 31
0.0
  0
LINE
  5
25D
100
AcDbEntity
  8
図
  6
CONTINUOUS
 62
     6
100
AcDbLine
 10
1473.49999
 20
1088.0
 30
0.0
 11
1607.99999
 21
1088.0
 31
0.0
  0
ARC
  5
25E
100
AcDbEntity
  8
図
  6
CONTINUOUS
 62
     6
100
AcDbCircle
 10
1492.245869
 20
1093.754121
 30
0.0
 40
10.054121
100
AcDbArc
 50
180.0
 51
185.731773
  0
LINE
  5
25F
100
AcDbEntity
  8
図
  6
CONTINUOUS
 62
     6
100
AcDbLine
 10
1502.29999
 20
1132.340192
 30
0.0
 11
1502.29999
 21
1100.750385
 31
0.0
  0
LINE
  5
260
100
AcDbEntity
  8
図
  6
CONTINUOUS
 62
     6
100
AcDbLine
 10
1527.69999
 20
1100.750385
 30
0.0
 11
1527.69999
 21
1132.340192
 31
0.0
  0
ARC
  5
261
100
AcDbEntity
  8
図
  6
CONTINUOUS
 62
     6
100
AcDbCircle
 10
1492.245869
 20
1093.754121
 30
0.0
 40
35.454121
100
AcDbArc
 50
180.0
 51
329.011503
  0
LINE
  5
262
100
AcDbEntity
  8
図
  6
CONTINUOUS
 62
     2
100
AcDbLine
 10
494.907281
 20
1463.5
 30
0.0
 11
654.20638
 21
1463.5
 31
0.0
  0
LINE
  5
263
100
AcDbEntity
  8
図
  6
CONTINUOUS
 62
     2
100
AcDbLine
 10
768.701421
 20
1463.5
 30
0.0
 11
839.092719
 21
1463.5
 31
0.0
  0
LINE
  5
264
100
AcDbEntity
  8
図
  6
EXLTYPE3
 62
     6
100
AcDbLine
 10
667.0
 20
1446.0
 30
0.0
 11
667.0
 21
613.0
 31
0.0
  0
LINE
  5
265
100
AcDbEntity
  8
図
  6
CONTINUOUS
 62
     2
100
AcDbLine
 10
1393.99999
 20
1403.5
 30
0.0
 11
1562.074321
 21
1403.5
 31
0.0
  0
TEXT
  5
266
100
AcDbEntity
  8
図
  6
CONTINUOUS
 62
     2
100
AcDbText
 10
1589.99999
 20
1696.00001
 30
0.0
 40
40.0
  1
W.L.
 50
90.0
 41
0.4125
  7
EXCADSTD
 72
     5
 11
1589.99999
 21
1756.49561
 31
0.0
100
AcDbText
  0
LINE
  5
267
100
AcDbEntity
  8
図
  6
EXLTYPE4
 62
     6
100
AcDbLine
 10
1589.99999
 20
623.0
 30
0.0
 11
1589.99999
 21
1761.0
 31
0.0
  0
DIMENSION
  5
274
100
AcDbEntity
  8
寸法
  6
CONTINUOUS
 62
     3
100
AcDbDimension
  2
*D14
 10
792.0
 20
403.0
 30
0.0
 11
467.0
 21
426.5
 31
0.0
 70
   160
  1
125±10（床給水）
  3
STANDARD
100
AcDbAlignedDimension
 13
667.0
 23
623.0
 33
0.0
 14
792.0
 24
616.0
 34
0.0
100
AcDbRotatedDimension
1001
ACAD
1000
DSTYLE
1002
{
1070
     6
1000
_EX_NORM
1070
     7
1000
_EX_NORM
1070
    41
1040
30.0
1070
    42
1040
7.0
1070
    44
1040
10.0
1070
    73
1070
     0
1070
    74
1070
     0
1070
    75
1070
     0
1070
    76
1070
     0
1070
    77
1070
     1
1070
    78
1070
     8
1070
   140
1040
40.0
1070
   147
1040
3.5
1070
   173
1070
     1
1070
   176
1070
     3
1070
   177
1070
     3
1070
   178
1070
     2
1070
   271
1070
     2
1070
   279
1070
     2
1070
   280
1070
     1
1070
   287
1070
     5
1070
   340
1005
273
1002
}
  0
DIMENSION
  5
280
100
AcDbEntity
  8
寸法
  6
CONTINUOUS
 62
     3
100
AcDbDimension
  2
*D15
 10
697.0
 20
473.0
 30
0.0
 11
482.0
 21
496.5
 31
0.0
 70
   160
  1
30±10（床排水）
  3
STANDARD
100
AcDbAlignedDimension
 13
667.0
 23
623.0
 33
0.0
 14
697.0
 24
593.0
 34
0.0
100
AcDbRotatedDimension
1001
ACAD
1000
DSTYLE
1002
{
1070
     6
1000
_EX_NORM
1070
     7
1000
_EX_NORM
1070
    41
1040
30.0
1070
    42
1040
7.0
1070
    44
1040
10.0
1070
    73
1070
     0
1070
    74
1070
     0
1070
    75
1070
     0
1070
    76
1070
     0
1070
    77
1070
     1
1070
    78
1070
     8
1070
   140
1040
40.0
1070
   147
1040
3.5
1070
   173
1070
     1
1070
   176
1070
     3
1070
   177
1070
     3
1070
   178
1070
     2
1070
   271
1070
     2
1070
   279
1070
     2
1070
   280
1070
     1
1070
   287
1070
     5
1070
   340
1005
273
1002
}
  0
LEADER
  5
281
100
AcDbEntity
  8
寸法
  6
CONTINUOUS
 62
     3
100
AcDbLeader
  3
STANDARD
 73
     3
 74
     1
 75
     0
 40
0.0
 76
     3
 10
684.3
 20
593.0
 30
0.0
 10
603.0
 20
543.0
 30
0.0
 10
503.0
 20
543.0
 30
0.0
 77
     3
1001
ACAD
1000
DSTYLE
1002
{
1070
    41
1040
30.0
1070
     5
1000
_EX_NORM
1070
     6
1000
_EX_NORM
1070
     7
1000
_EX_NORM
1070
   341
1005
28
1002
}
  0
TEXT
  5
282
100
AcDbEntity
  8
寸法
  6
CONTINUOUS
 62
     2
100
AcDbText
 10
510.1
 20
546.5
 30
0.0
 40
40.0
  1
φ２５
 41
0.728
  7
EXCADSTD
 72
     5
 11
614.1
 21
546.5
 31
0.0
100
AcDbText
  0
LEADER
  5
283
100
AcDbEntity
  8
寸法
  6
CONTINUOUS
 62
     3
100
AcDbLeader
  3
STANDARD
 73
     3
 74
     1
 75
     0
 40
0.0
 76
     3
 10
802.5
 20
616.0
 30
0.0
 10
859.0
 20
543.0
 30
0.0
 10
974.0
 20
543.0
 30
0.0
 77
     3
1001
ACAD
1000
DSTYLE
1002
{
1070
    41
1040
30.0
1070
     5
1000
_EX_NORM
1070
     6
1000
_EX_NORM
1070
     7
1000
_EX_NORM
1070
   341
1005
28
1002
}
  0
TEXT
  5
284
100
AcDbEntity
  8
寸法
  6
CONTINUOUS
 62
     2
100
AcDbText
 10
864.0
 20
546.5
 30
0.0
 40
40.0
  1
Ｒ１/２
 41
0.638
  7
EXCADSTD
 72
     5
 11
980.0
 21
546.5
 31
0.0
100
AcDbText
  0
DIMENSION
  5
28F
100
AcDbEntity
  8
寸法
  6
CONTINUOUS
 62
     3
100
AcDbDimension
  2
*D16
 10
995.0
 20
1403.5
 30
0.0
 11
971.5
 21
1013.25
 31
0.0
 70
   160
  1
780
  3
STANDARD
100
AcDbAlignedDimension
 13
802.5
 23
623.0
 33
0.0
 14
838.0
 24
1403.5
 34
0.0
 50
90.0
100
AcDbRotatedDimension
1001
ACAD
1000
DSTYLE
1002
{
1070
     6
1000
_EX_NORM
1070
     7
1000
_EX_NORM
1070
    41
1040
30.0
1070
    42
1040
7.0
1070
    44
1040
10.0
1070
    73
1070
     0
1070
    74
1070
     0
1070
    75
1070
     1
1070
    76
1070
     0
1070
    77
1070
     1
1070
    78
1070
     8
1070
   140
1040
40.0
1070
   147
1040
3.5
1070
   173
1070
     1
1070
   176
1070
     3
1070
   177
1070
     3
1070
   178
1070
     2
1070
   271
1070
     2
1070
   279
1070
     2
1070
   280
1070
     0
1070
   287
1070
     5
1070
   340
1005
273
1002
}
  0
DIMENSION
  5
29A
100
AcDbEntity
  8
寸法
  6
CONTINUOUS
 62
     3
100
AcDbDimension
  2
*D17
 10
1065.0
 20
1463.5
 30
0.0
 11
1041.5
 21
1043.25
 31
0.0
 70
   160
  1
840
  3
STANDARD
100
AcDbAlignedDimension
 13
802.5
 23
623.0
 33
0.0
 14
836.592719
 24
1463.5
 34
0.0
 50
90.0
100
AcDbRotatedDimension
1001
ACAD
1000
DSTYLE
1002
{
1070
     6
1000
_EX_NORM
1070
     7
1000
_EX_NORM
1070
    41
1040
30.0
1070
    42
1040
7.0
1070
    44
1040
10.0
1070
    73
1070
     0
1070
    74
1070
     0
1070
    75
1070
     1
1070
    76
1070
     0
1070
    77
1070
     1
1070
    78
1070
     8
1070
   140
1040
40.0
1070
   147
1040
3.5
1070
   173
1070
     1
1070
   176
1070
     3
1070
   177
1070
     3
1070
   178
1070
     2
1070
   271
1070
     2
1070
   279
1070
     2
1070
   280
1070
     0
1070
   287
1070
     5
1070
   340
1005
273
1002
}
  0
DIMENSION
  5
2A6
100
AcDbEntity
  8
寸法
  6
CONTINUOUS
 62
     3
100
AcDbDimension
  2
*D18
 10
925.0
 20
1403.5
 30
0.0
 11
901.5
 21
1343.5
 31
0.0
 70
   160
  1
120
  3
STANDARD
100
AcDbAlignedDimension
 13
832.0
 23
1283.5
 33
0.0
 14
838.0
 24
1403.5
 34
0.0
 50
90.0
100
AcDbRotatedDimension
1001
ACAD
1000
DSTYLE
1002
{
1070
     6
1000
_EX_NORM
1070
     7
1000
_EX_NORM
1070
    41
1040
30.0
1070
    42
1040
7.0
1070
    44
1040
10.0
1070
    73
1070
     0
1070
    74
1070
     0
1070
    75
1070
     0
1070
    76
1070
     0
1070
    77
1070
     1
1070
    78
1070
     8
1070
   140
1040
40.0
1070
   147
1040
3.5
1070
   173
1070
     1
1070
   176
1070
     3
1070
   177
1070
     3
1070
   178
1070
     2
1070
   271
1070
     2
1070
   279
1070
     2
1070
   280
1070
     0
1070
   287
1070
     5
1070
   340
1005
273
1002
}
  0
DIMENSION
  5
2B1
100
AcDbEntity
  8
寸法
  6
CONTINUOUS
 62
     3
100
AcDbDimension
  2
*D19
 10
687.0
 20
961.0
 30
0.0
 11
482.0
 21
984.5
 31
0.0
 70
   160
  1
20±10（壁排水）
  3
STANDARD
100
AcDbAlignedDimension
 13
667.0
 23
1153.0
 33
0.0
 14
687.0
 24
1153.0
 34
0.0
100
AcDbRotatedDimension
1001
ACAD
1000
DSTYLE
1002
{
1070
     6
1000
_EX_NORM
1070
     7
1000
_EX_NORM
1070
    41
1040
30.0
1070
    42
1040
7.0
1070
    44
1040
10.0
1070
    73
1070
     0
1070
    74
1070
     0
1070
    75
1070
     1
1070
    76
1070
     0
1070
    77
1070
     1
1070
    78
1070
     8
1070
   140
1040
40.0
1070
   147
1040
3.5
1070
   173
1070
     1
1070
   176
1070
     3
1070
   177
1070
     3
1070
   178
1070
     2
1070
   271
1070
     2
1070
   279
1070
     2
1070
   280
1070
     1
1070
   287
1070
     5
1070
   340
1005
273
1002
}
  0
DIMENSION
  5
2BC
100
AcDbEntity
  8
寸法
  6
CONTINUOUS
 62
     3
100
AcDbDimension
  2
*D20
 10
792.0
 20
891.0
 30
0.0
 11
467.0
 21
914.5
 31
0.0
 70
   160
  1
125±10（壁給水）
  3
STANDARD
100
AcDbAlignedDimension
 13
667.0
 23
1153.0
 33
0.0
 14
792.0
 24
1050.5
 34
0.0
100
AcDbRotatedDimension
1001
ACAD
1000
DSTYLE
1002
{
1070
     6
1000
_EX_NORM
1070
     7
1000
_EX_NORM
1070
    41
1040
30.0
1070
    42
1040
7.0
1070
    44
1040
10.0
1070
    73
1070
     0
1070
    74
1070
     0
1070
    75
1070
     1
1070
    76
1070
     0
1070
    77
1070
     1
1070
    78
1070
     8
1070
   140
1040
40.0
1070
   147
1040
3.5
1070
   173
1070
     1
1070
   176
1070
     3
1070
   177
1070
     3
1070
   178
1070
     2
1070
   271
1070
     2
1070
   279
1070
     2
1070
   280
1070
     1
1070
   287
1070
     5
1070
   340
1005
273
1002
}
  0
DIMENSION
  5
2C8
100
AcDbEntity
  8
寸法
  6
CONTINUOUS
 62
     3
100
AcDbDimension
  2
*D21
 10
1589.99999
 20
543.0
 30
0.0
 11
1789.99999
 21
566.5
 31
0.0
 70
   160
  1
60±10（床給排水）
  3
STANDARD
100
AcDbAlignedDimension
 13
1529.99999
 23
593.0
 33
0.0
 14
1589.99999
 24
623.0
 34
0.0
100
AcDbRotatedDimension
1001
ACAD
1000
DSTYLE
1002
{
1070
     6
1000
_EX_NORM
1070
     7
1000
_EX_NORM
1070
    41
1040
30.0
1070
    42
1040
7.0
1070
    44
1040
10.0
1070
    73
1070
     0
1070
    74
1070
     0
1070
    75
1070
     0
1070
    76
1070
     0
1070
    77
1070
     1
1070
    78
1070
     8
1070
   140
1040
40.0
1070
   147
1040
3.5
1070
   173
1070
     1
1070
   176
1070
     3
1070
   177
1070
     3
1070
   178
1070
     2
1070
   271
1070
     2
1070
   279
1070
     2
1070
   280
1070
     2
1070
   287
1070
     5
1070
   340
1005
273
1002
}
  0
DIMENSION
  5
2D4
100
AcDbEntity
  8
寸法
  6
CONTINUOUS
 62
     3
100
AcDbDimension
  2
*D22
 10
1739.99999
 20
1153.0
 30
0.0
 11
1716.49999
 21
888.0
 31
0.0
 70
   160
  1
530±10（壁排水）
  3
STANDARD
100
AcDbAlignedDimension
 13
1589.99999
 23
623.0
 33
0.0
 14
1619.99999
 24
1153.0
 34
0.0
 50
90.0
100
AcDbRotatedDimension
1001
ACAD
1000
DSTYLE
1002
{
1070
     6
1000
_EX_NORM
1070
     7
1000
_EX_NORM
1070
    41
1040
30.0
1070
    42
1040
7.0
1070
    44
1040
10.0
1070
    73
1070
     0
1070
    74
1070
     0
1070
    75
1070
     0
1070
    76
1070
     0
1070
    77
1070
     1
1070
    78
1070
     8
1070
   140
1040
40.0
1070
   147
1040
3.5
1070
   173
1070
     1
1070
   176
1070
     3
1070
   177
1070
     3
1070
   178
1070
     2
1070
   271
1070
     2
1070
   279
1070
     2
1070
   280
1070
     0
1070
   287
1070
     5
1070
   340
1005
273
1002
}
  0
DIMENSION
  5
2E0
100
AcDbEntity
  8
寸法
  6
CONTINUOUS
 62
     3
100
AcDbDimension
  2
*D23
 10
1809.99999
 20
1438.5
 30
0.0
 11
1786.49999
 21
1030.75
 31
0.0
 70
   160
  1
815（壁固定）
  3
STANDARD
100
AcDbAlignedDimension
 13
1589.99999
 23
623.0
 33
0.0
 14
1631.25182
 24
1438.5
 34
0.0
 50
90.0
100
AcDbRotatedDimension
1001
ACAD
1000
DSTYLE
1002
{
1070
     6
1000
_EX_NORM
1070
     7
1000
_EX_NORM
1070
    41
1040
30.0
1070
    42
1040
7.0
1070
    44
1040
10.0
1070
    73
1070
     0
1070
    74
1070
     0
1070
    75
1070
     0
1070
    76
1070
     0
1070
    77
1070
     1
1070
    78
1070
     8
1070
   140
1040
40.0
1070
   147
1040
3.5
1070
   173
1070
     1
1070
   176
1070
     3
1070
   177
1070
     3
1070
   178
1070
     2
1070
   271
1070
     2
1070
   279
1070
     2
1070
   280
1070
     0
1070
   287
1070
     5
1070
   340
1005
273
1002
}
  0
LEADER
  5
2E1
100
AcDbEntity
  8
寸法
  6
CONTINUOUS
 62
     3
100
AcDbLeader
  3
STANDARD
 73
     3
 74
     1
 75
     0
 40
0.0
 76
     3
 10
1597.99999
 20
1088.5
 30
0.0
 10
1677.99999
 20
1204.0
 30
0.0
 10
1789.99999
 20
1204.0
 30
0.0
 77
     3
1001
ACAD
1000
DSTYLE
1002
{
1070
    41
1040
30.0
1070
     5
1000
_EX_NORM
1070
     6
1000
_EX_NORM
1070
     7
1000
_EX_NORM
1070
   341
1005
28
1002
}
  0
TEXT
  5
2E2
100
AcDbEntity
  8
寸法
  6
CONTINUOUS
 62
     2
100
AcDbText
 10
1682.99999
 20
1207.5
 30
0.0
 40
40.0
  1
Ｒ１/２
 41
0.605
  7
EXCADSTD
 72
     5
 11
1792.99999
 21
1207.5
 31
0.0
100
AcDbText
  0
LEADER
  5
2E3
100
AcDbEntity
  8
寸法
  6
CONTINUOUS
 62
     3
100
AcDbLeader
  3
STANDARD
 73
     3
 74
     1
 75
     0
 40
0.0
 76
     3
 10
1619.99999
 20
1165.7
 30
0.0
 10
1677.99999
 20
1288.0
 30
0.0
 10
1784.99999
 20
1288.0
 30
0.0
 77
     3
1001
ACAD
1000
DSTYLE
1002
{
1070
    41
1040
30.0
1070
     5
1000
_EX_NORM
1070
     6
1000
_EX_NORM
1070
     7
1000
_EX_NORM
1070
   341
1005
28
1002
}
  0
TEXT
  5
2E4
100
AcDbEntity
  8
寸法
  6
CONTINUOUS
 62
     2
100
AcDbText
 10
1682.99999
 20
1291.5
 30
0.0
 40
40.0
  1
φ２５
 41
0.7
  7
EXCADSTD
 72
     5
 11
1782.99999
 21
1291.5
 31
0.0
100
AcDbText
  0
DIMENSION
  5
2F0
100
AcDbEntity
  8
寸法
  6
CONTINUOUS
 62
     3
100
AcDbDimension
  2
*D24
 10
1589.99999
 20
1543.5
 30
0.0
 11
1490.054647
 21
1567.0
 31
0.0
 70
   160
  1
200
  3
STANDARD
100
AcDbAlignedDimension
 13
1390.109305
 23
1398.571254
 33
0.0
 14
1589.99999
 24
1463.5
 34
0.0
100
AcDbRotatedDimension
1001
ACAD
1000
DSTYLE
1002
{
1070
     6
1000
_EX_NORM
1070
     7
1000
_EX_NORM
1070
    41
1040
30.0
1070
    42
1040
5.0
1070
    44
1040
10.0
1070
    73
1070
     0
1070
    74
1070
     0
1070
    75
1070
     0
1070
    76
1070
     0
1070
    77
1070
     1
1070
    78
1070
     8
1070
   140
1040
40.0
1070
   147
1040
3.5
1070
   173
1070
     1
1070
   176
1070
     3
1070
   177
1070
     3
1070
   178
1070
     2
1070
   271
1070
     2
1070
   279
1070
     2
1070
   280
1070
     0
1070
   287
1070
     5
1070
   340
1005
273
1002
}
  0
DIMENSION
  5
2FC
100
AcDbEntity
  8
寸法
  6
CONTINUOUS
 62
     2
100
AcDbDimension
  2
*D25
 10
844.491647
 20
1543.5
 30
0.0
 11
666.996373
 21
1567.0
 31
0.0
 70
   160
  1
355
  3
STANDARD
100
AcDbAlignedDimension
 13
489.5011
 23
1399.593793
 33
0.0
 14
844.491647
 24
1399.903037
 34
0.0
100
AcDbRotatedDimension
1001
ACAD
1000
DSTYLE
1002
{
1070
     6
1000
_EX_NORM
1070
     7
1000
_EX_NORM
1070
    41
1040
30.0
1070
    42
1040
7.0
1070
    44
1040
10.0
1070
    73
1070
     0
1070
    74
1070
     0
1070
    75
1070
     0
1070
    76
1070
     0
1070
    77
1070
     1
1070
    78
1070
     0
1070
   140
1040
40.0
1070
   147
1040
3.5
1070
   173
1070
     1
1070
   176
1070
     3
1070
   177
1070
     3
1070
   178
1070
     2
1070
   271
1070
     0
1070
   279
1070
     2
1070
   280
1070
     0
1070
   287
1070
     5
1070
   340
1005
273
1002
}
  0
DIMENSION
  5
307
100
AcDbEntity
  8
寸法
  6
CONTINUOUS
 62
     3
100
AcDbDimension
  2
*D26
 10
1669.99999
 20
623.0
 30
0.0
 11
1646.49999
 21
855.5
 31
0.0
 70
   160
  1
465±10（壁給水）
  3
STANDARD
100
AcDbAlignedDimension
 13
1607.99999
 23
1088.0
 33
0.0
 14
1669.99999
 24
623.0
 34
0.0
 50
90.0
100
AcDbRotatedDimension
1001
ACAD
1000
DSTYLE
1002
{
1070
     6
1000
_EX_NORM
1070
     7
1000
_EX_NORM
1070
    41
1040
30.0
1070
    42
1040
5.0
1070
    44
1040
10.0
1070
    73
1070
     0
1070
    74
1070
     0
1070
    75
1070
     0
1070
    76
1070
     1
1070
    77
1070
     1
1070
    78
1070
     8
1070
   140
1040
40.0
1070
   147
1040
3.5
1070
   173
1070
     1
1070
   176
1070
     3
1070
   177
1070
     3
1070
   178
1070
     2
1070
   271
1070
     2
1070
   279
1070
     2
1070
   280
1070
     0
1070
   287
1070
     5
1070
   340
1005
273
1002
}
  0
ENDSEC
  0
SECTION
  2
OBJECTS
  0
DICTIONARY
  5
19
100
AcDbDictionary
  3
ACAD_GROUP
350
1A
  3
ACAD_MLINESTYLE
350
1B
  0
DICTIONARY
  5
1A
102
{ACAD_REACTORS
330
19
102
}
100
AcDbDictionary
  0
DICTIONARY
  5
1B
102
{ACAD_REACTORS
330
19
102
}
100
AcDbDictionary
  3
STANDARD
350
1C
  0
MLINESTYLE
  5
1C
102
{ACAD_REACTORS
330
1B
102
}
100
AcDbMlineStyle
  2
Standard
 70
     0
  3

 62
     0
 51
90.0
 52
90.0
 71
     2
 49
0.5
 62
   256
  6
ByLayer
 49
-0.5
 62
   256
  6
ByLayer
  0
ENDSEC
  0
EOF
