  0
SECTION
  2
HEADER
  9
$ACADVER
  1
AC1018
  9
$ACADMAINTVER
 70
     0
  9
$DWGCODEPAGE
  3
ANSI_932
  9
$LASTSAVEDBY
  1
小谷 浩和
  9
$INSBASE
 10
0.0
 20
0.0
 30
0.0
  9
$EXTMIN
 10
3.637261060755463
 20
4.596383379700228
 30
0.0
  9
$EXTMAX
 10
1803.692920303302
 20
1206.144871287193
 30
0.0
  9
$LIMMIN
 10
0.0
 20
0.0
  9
$LIMMAX
 10
420.0
 20
297.0
  9
$ORTHOMODE
 70
     0
  9
$REGENMODE
 70
     1
  9
$FILLMODE
 70
     1
  9
$QTEXTMODE
 70
     0
  9
$MIRRTEXT
 70
     0
  9
$LTSCALE
 40
1.0
  9
$ATTMODE
 70
     1
  9
$TEXTSIZE
 40
2.5
  9
$TRACEWID
 40
1.0
  9
$TEXTSTYLE
  7
Standard
  9
$CLAYER
  8
0
  9
$CELTYPE
  6
ByLayer
  9
$CECOLOR
 62
   256
  9
$CELTSCALE
 40
1.0
  9
$DISPSILH
 70
     0
  9
$DIMSCALE
 40
1.0
  9
$DIMASZ
 40
2.5
  9
$DIMEXO
 40
0.625
  9
$DIMDLI
 40
3.75
  9
$DIMRND
 40
0.0
  9
$DIMDLE
 40
0.0
  9
$DIMEXE
 40
1.25
  9
$DIMTP
 40
0.0
  9
$DIMTM
 40
0.0
  9
$DIMTXT
 40
2.5
  9
$DIMCEN
 40
2.5
  9
$DIMTSZ
 40
0.0
  9
$DIMTOL
 70
     0
  9
$DIMLIM
 70
     0
  9
$DIMTIH
 70
     0
  9
$DIMTOH
 70
     0
  9
$DIMSE1
 70
     0
  9
$DIMSE2
 70
     0
  9
$DIMTAD
 70
     1
  9
$DIMZIN
 70
     8
  9
$DIMBLK
  1
OPEN
  9
$DIMASO
 70
     1
  9
$DIMSHO
 70
     1
  9
$DIMPOST
  1

  9
$DIMAPOST
  1

  9
$DIMALT
 70
     0
  9
$DIMALTD
 70
     3
  9
$DIMALTF
 40
0.03937007874016
  9
$DIMLFAC
 40
1.0
  9
$DIMTOFL
 70
     1
  9
$DIMTVP
 40
0.0
  9
$DIMTIX
 70
     0
  9
$DIMSOXD
 70
     0
  9
$DIMSAH
 70
     0
  9
$DIMBLK1
  1

  9
$DIMBLK2
  1

  9
$DIMSTYLE
  2
JIS-1
  9
$DIMCLRD
 70
     0
  9
$DIMCLRE
 70
     0
  9
$DIMCLRT
 70
     0
  9
$DIMTFAC
 40
1.0
  9
$DIMGAP
 40
0.625
  9
$DIMJUST
 70
     0
  9
$DIMSD1
 70
     0
  9
$DIMSD2
 70
     0
  9
$DIMTOLJ
 70
     0
  9
$DIMTZIN
 70
     8
  9
$DIMALTZ
 70
     0
  9
$DIMALTTZ
 70
     0
  9
$DIMUPT
 70
     0
  9
$DIMDEC
 70
     2
  9
$DIMTDEC
 70
     2
  9
$DIMALTU
 70
     2
  9
$DIMALTTD
 70
     3
  9
$DIMTXSTY
  7
Standard
  9
$DIMAUNIT
 70
     0
  9
$DIMADEC
 70
     0
  9
$DIMALTRND
 40
0.0
  9
$DIMAZIN
 70
     0
  9
$DIMDSEP
 70
    44
  9
$DIMATFIT
 70
     3
  9
$DIMFRAC
 70
     0
  9
$DIMLDRBLK
  1
OPEN
  9
$DIMLUNIT
 70
     2
  9
$DIMLWD
 70
    -2
  9
$DIMLWE
 70
    -2
  9
$DIMTMOVE
 70
     0
  9
$LUNITS
 70
     2
  9
$LUPREC
 70
     3
  9
$SKETCHINC
 40
1.0
  9
$FILLETRAD
 40
10.0
  9
$AUNITS
 70
     0
  9
$AUPREC
 70
     0
  9
$MENU
  1
.
  9
$ELEVATION
 40
0.0
  9
$PELEVATION
 40
0.0
  9
$THICKNESS
 40
0.0
  9
$LIMCHECK
 70
     0
  9
$CHAMFERA
 40
10.0
  9
$CHAMFERB
 40
10.0
  9
$CHAMFERC
 40
20.0
  9
$CHAMFERD
 40
0.0
  9
$SKPOLY
 70
     0
  9
$TDCREATE
 40
2455023.012359514
  9
$TDUCREATE
 40
2455022.637359514
  9
$TDUPDATE
 40
2457240.914933437
  9
$TDUUPDATE
 40
2457240.539933437
  9
$TDINDWG
 40
0.0066353588
  9
$TDUSRTIMER
 40
2457240.539825995
  9
$USRTIMER
 70
     1
  9
$ANGBASE
 50
0.0
  9
$ANGDIR
 70
     0
  9
$PDMODE
 70
     0
  9
$PDSIZE
 40
0.0
  9
$PLINEWID
 40
0.0
  9
$SPLFRAME
 70
     0
  9
$SPLINETYPE
 70
     6
  9
$SPLINESEGS
 70
     8
  9
$HANDSEED
  5
366
  9
$SURFTAB1
 70
     6
  9
$SURFTAB2
 70
     6
  9
$SURFTYPE
 70
     6
  9
$SURFU
 70
     6
  9
$SURFV
 70
     6
  9
$UCSBASE
  2

  9
$UCSNAME
  2

  9
$UCSORG
 10
0.0
 20
0.0
 30
0.0
  9
$UCSXDIR
 10
1.0
 20
0.0
 30
0.0
  9
$UCSYDIR
 10
0.0
 20
1.0
 30
0.0
  9
$UCSORTHOREF
  2

  9
$UCSORTHOVIEW
 70
     0
  9
$UCSORGTOP
 10
0.0
 20
0.0
 30
0.0
  9
$UCSORGBOTTOM
 10
0.0
 20
0.0
 30
0.0
  9
$UCSORGLEFT
 10
0.0
 20
0.0
 30
0.0
  9
$UCSORGRIGHT
 10
0.0
 20
0.0
 30
0.0
  9
$UCSORGFRONT
 10
0.0
 20
0.0
 30
0.0
  9
$UCSORGBACK
 10
0.0
 20
0.0
 30
0.0
  9
$PUCSBASE
  2

  9
$PUCSNAME
  2

  9
$PUCSORG
 10
0.0
 20
0.0
 30
0.0
  9
$PUCSXDIR
 10
1.0
 20
0.0
 30
0.0
  9
$PUCSYDIR
 10
0.0
 20
1.0
 30
0.0
  9
$PUCSORTHOREF
  2

  9
$PUCSORTHOVIEW
 70
     0
  9
$PUCSORGTOP
 10
0.0
 20
0.0
 30
0.0
  9
$PUCSORGBOTTOM
 10
0.0
 20
0.0
 30
0.0
  9
$PUCSORGLEFT
 10
0.0
 20
0.0
 30
0.0
  9
$PUCSORGRIGHT
 10
0.0
 20
0.0
 30
0.0
  9
$PUCSORGFRONT
 10
0.0
 20
0.0
 30
0.0
  9
$PUCSORGBACK
 10
0.0
 20
0.0
 30
0.0
  9
$USERI1
 70
     0
  9
$USERI2
 70
     0
  9
$USERI3
 70
     0
  9
$USERI4
 70
     0
  9
$USERI5
 70
     0
  9
$USERR1
 40
0.0
  9
$USERR2
 40
0.0
  9
$USERR3
 40
0.0
  9
$USERR4
 40
0.0
  9
$USERR5
 40
0.0
  9
$WORLDVIEW
 70
     1
  9
$SHADEDGE
 70
     3
  9
$SHADEDIF
 70
    70
  9
$TILEMODE
 70
     1
  9
$MAXACTVP
 70
    64
  9
$PINSBASE
 10
0.0
 20
0.0
 30
0.0
  9
$PLIMCHECK
 70
     0
  9
$PEXTMIN
 10
1.000000000000000E+20
 20
1.000000000000000E+20
 30
1.000000000000000E+20
  9
$PEXTMAX
 10
-1.000000000000000E+20
 20
-1.000000000000000E+20
 30
-1.000000000000000E+20
  9
$PLIMMIN
 10
0.0
 20
0.0
  9
$PLIMMAX
 10
0.0
 20
0.0
  9
$UNITMODE
 70
     0
  9
$VISRETAIN
 70
     1
  9
$PLINEGEN
 70
     0
  9
$PSLTSCALE
 70
     1
  9
$TREEDEPTH
 70
  3020
  9
$CMLSTYLE
  2
Standard
  9
$CMLJUST
 70
     0
  9
$CMLSCALE
 40
20.0
  9
$PROXYGRAPHICS
 70
     1
  9
$MEASUREMENT
 70
     1
  9
$CELWEIGHT
370
    -1
  9
$ENDCAPS
280
     0
  9
$JOINSTYLE
280
     0
  9
$LWDISPLAY
290
     0
  9
$INSUNITS
 70
     4
  9
$HYPERLINKBASE
  1

  9
$STYLESHEET
  1

  9
$XEDIT
290
     1
  9
$CEPSNTYPE
380
     0
  9
$PSTYLEMODE
290
     0
  9
$FINGERPRINTGUID
  2
{EC6BB858-51AA-46EC-B484-6C9CC7AB3E2E}
  9
$VERSIONGUID
  2
{FAEB1C32-E019-11D5-929B-00C0DF256EC4}
  9
$EXTNAMES
290
     1
  9
$PSVPSCALE
 40
0.0
  9
$OLESTARTUP
290
     0
  9
$SORTENTS
280
   127
  9
$INDEXCTL
280
     0
  9
$HIDETEXT
280
     1
  9
$XCLIPFRAME
290
     0
  9
$HALOGAP
280
     0
  9
$OBSCOLOR
 70
   257
  9
$OBSLTYPE
280
     0
  9
$INTERSECTIONDISPLAY
280
     0
  9
$INTERSECTIONCOLOR
 70
   257
  9
$DIMASSOC
280
     2
  9
$PROJECTNAME
  1

  0
ENDSEC
  0
SECTION
  2
CLASSES
  0
CLASS
  1
ACDBDICTIONARYWDFLT
  2
AcDbDictionaryWithDefault
  3
ObjectDBX Classes
 90
        0
 91
        5
280
     0
281
     0
  0
CLASS
  1
VISUALSTYLE
  2
AcDbVisualStyle
  3
ObjectDBX Classes
 90
     4095
 91
        5
280
     0
281
     0
  0
CLASS
  1
TABLESTYLE
  2
AcDbTableStyle
  3
ObjectDBX Classes
 90
     4095
 91
        5
280
     0
281
     0
  0
CLASS
  1
DICTIONARYVAR
  2
AcDbDictionaryVar
  3
ObjectDBX Classes
 90
        0
 91
        5
280
     0
281
     0
  0
CLASS
  1
SCALE
  2
AcDbScale
  3
ObjectDBX Classes
 90
     1153
 91
        5
280
     0
281
     0
  0
CLASS
  1
CELLSTYLEMAP
  2
AcDbCellStyleMap
  3
ObjectDBX Classes
 90
     1152
 91
        5
280
     0
281
     0
  0
CLASS
  1
RASTERVARIABLES
  2
AcDbRasterVariables
  3
ISM
 90
        0
 91
        5
280
     0
281
     0
  0
CLASS
  1
DIMASSOC
  2
AcDbDimAssoc
  3
"AcDbDimAssoc|Product Desc:     AcDim ARX App For Dimension|Company:          Autodesk, Inc.|WEB Address:      www.autodesk.com"
 90
        0
 91
        5
280
     0
281
     0
  0
CLASS
  1
MATERIAL
  2
AcDbMaterial
  3
ObjectDBX Classes
 90
     1153
 91
        5
280
     0
281
     0
  0
CLASS
  1
SUN
  2
AcDbSun
  3
SCENEOE
 90
     1153
 91
        5
280
     0
281
     0
  0
CLASS
  1
MLEADERSTYLE
  2
AcDbMLeaderStyle
  3
ACDB_MLEADERSTYLE_CLASS
 90
     4095
 91
        5
280
     0
281
     0
  0
CLASS
  1
SORTENTSTABLE
  2
AcDbSortentsTable
  3
ObjectDBX Classes
 90
        0
 91
        5
280
     0
281
     0
  0
ENDSEC
  0
SECTION
  2
TABLES
  0
TABLE
  2
VPORT
  5
8
330
0
100
AcDbSymbolTable
 70
     1
  0
VPORT
  5
29
330
8
100
AcDbSymbolTableRecord
100
AcDbViewportTableRecord
  2
*Active
 70
     0
 10
0.0
 20
0.0
 11
1.0
 21
1.0
 12
1151.984244027677
 22
386.1985537141188
 13
0.0
 23
0.0
 14
10.0
 24
10.0
 15
10.0
 25
10.0
 16
0.0
 26
0.0
 36
1.0
 17
-134.1869158878503
 27
0.0
 37
0.0
 40
1840.106591302808
 41
1.664884135472371
 42
50.0
 43
0.0
 44
0.0
 50
0.0
 51
0.0
 71
    16
 72
  1000
 73
     1
 74
     3
 75
     0
 76
     0
 77
     0
 78
     0
281
     0
 65
     1
110
0.0
120
0.0
130
0.0
111
1.0
121
0.0
131
0.0
112
0.0
122
1.0
132
0.0
 79
     0
146
0.0
  0
ENDTAB
  0
TABLE
  2
LTYPE
  5
5
330
0
100
AcDbSymbolTable
 70
     2
  0
LTYPE
  5
14
330
5
100
AcDbSymbolTableRecord
100
AcDbLinetypeTableRecord
  2
ByBlock
 70
     0
  3

 72
    65
 73
     0
 40
0.0
  0
LTYPE
  5
15
330
5
100
AcDbSymbolTableRecord
100
AcDbLinetypeTableRecord
  2
ByLayer
 70
     0
  3

 72
    65
 73
     0
 40
0.0
  0
LTYPE
  5
16
330
5
100
AcDbSymbolTableRecord
100
AcDbLinetypeTableRecord
  2
Continuous
 70
     0
  3
Solid line
 72
    65
 73
     0
 40
0.0
  0
LTYPE
  5
E2
330
5
100
AcDbSymbolTableRecord
100
AcDbLinetypeTableRecord
  2
CENTER
 70
     0
  3
 Center ____ _ ____ _ ____ _ ____ _ ____ _ ____
 72
    65
 73
     4
 40
2.0
 49
1.25
 74
     0
 49
-0.25
 74
     0
 49
0.25
 74
     0
 49
-0.25
 74
     0
  0
ENDTAB
  0
TABLE
  2
LAYER
  5
2
102
{ACAD_XDICTIONARY
360
212
102
}
330
0
100
AcDbSymbolTable
 70
     5
  0
LAYER
  5
10
330
2
100
AcDbSymbolTableRecord
100
AcDbLayerTableRecord
  2
0
 70
     0
 62
     7
  6
Continuous
370
    -3
390
F
  0
LAYER
  5
7E
330
2
100
AcDbSymbolTableRecord
100
AcDbLayerTableRecord
  2
Defpoints
 70
     0
 62
     7
  6
Continuous
290
     0
370
    -3
390
F
  0
LAYER
  5
DE
330
2
100
AcDbSymbolTableRecord
100
AcDbLayerTableRecord
  2
C2
 70
     0
 62
     1
  6
CENTER
370
    -3
390
F
  0
LAYER
  5
E3
330
2
100
AcDbSymbolTableRecord
100
AcDbLayerTableRecord
  2
C4
 70
     0
 62
     3
  6
Continuous
370
    -3
390
F
  0
LAYER
  5
E4
330
2
100
AcDbSymbolTableRecord
100
AcDbLayerTableRecord
  2
C寸法
 70
     0
 62
     4
  6
Continuous
370
    -3
390
F
  0
ENDTAB
  0
TABLE
  2
STYLE
  5
3
330
0
100
AcDbSymbolTable
 70
     2
  0
STYLE
  5
11
330
3
100
AcDbSymbolTableRecord
100
AcDbTextStyleTableRecord
  2
Standard
 70
     0
 40
0.138
 41
1.0
 50
0.0
 71
     0
 42
2.5
  3
arial.ttf
  4

1001
ACAD
1000
Arial
1071
        0
  0
STYLE
  5
F3
330
3
100
AcDbSymbolTableRecord
100
AcDbTextStyleTableRecord
  2
KANJI
 70
     0
 40
0.0
 41
1.0
 50
0.0
 71
     0
 42
2.5
  3
romans
  4
bigfont
  0
ENDTAB
  0
TABLE
  2
VIEW
  5
6
330
0
100
AcDbSymbolTable
 70
     0
  0
ENDTAB
  0
TABLE
  2
UCS
  5
7
330
0
100
AcDbSymbolTable
 70
     0
  0
ENDTAB
  0
TABLE
  2
APPID
  5
9
330
0
100
AcDbSymbolTable
 70
    10
  0
APPID
  5
12
330
9
100
AcDbSymbolTableRecord
100
AcDbRegAppTableRecord
  2
ACAD
 70
     0
  0
APPID
  5
EE
330
9
100
AcDbSymbolTableRecord
100
AcDbRegAppTableRecord
  2
ACAD_DSTYLE_DIMBREAK
 70
     0
  0
APPID
  5
EF
330
9
100
AcDbSymbolTableRecord
100
AcDbRegAppTableRecord
  2
ACAD_DSTYLE_DIMJAG
 70
     0
  0
APPID
  5
F0
330
9
100
AcDbSymbolTableRecord
100
AcDbRegAppTableRecord
  2
ACAD_DSTYLE_DIMTALN
 70
     0
  0
APPID
  5
F1
330
9
100
AcDbSymbolTableRecord
100
AcDbRegAppTableRecord
  2
ACAD_NAV_VCDISPLAY
 70
     0
  0
APPID
  5
F2
330
9
100
AcDbSymbolTableRecord
100
AcDbRegAppTableRecord
  2
PLOTTRANSPARENCY
 70
     0
  0
APPID
  5
31E
330
9
100
AcDbSymbolTableRecord
100
AcDbRegAppTableRecord
  2
ACAD_DSTYLE_DIMRADIAL_EXTENSION
 70
     0
  0
APPID
  5
340
330
9
100
AcDbSymbolTableRecord
100
AcDbRegAppTableRecord
  2
ACAD_DSTYLE_DIMFLIPARROW_SYMBOL
 70
     0
  0
APPID
  5
341
330
9
100
AcDbSymbolTableRecord
100
AcDbRegAppTableRecord
  2
ACAD_DSTYLE_DIMFLIPARROW_WHICH_SYMBOL
 70
     0
  0
APPID
  5
345
330
9
100
AcDbSymbolTableRecord
100
AcDbRegAppTableRecord
  2
ACAD_MLEADERVER
 70
     0
  0
ENDTAB
  0
TABLE
  2
DIMSTYLE
  5
A
330
0
100
AcDbSymbolTable
 70
     5
100
AcDbDimStyleTable
  0
DIMSTYLE
105
27
330
A
100
AcDbSymbolTableRecord
100
AcDbDimStyleTableRecord
  2
ISO-25
 70
     0
 41
2.5
 42
0.625
 43
3.75
 44
1.25
 73
     0
 74
     0
 77
     1
 78
     8
140
2.5
141
2.5
143
0.03937007874016
147
0.625
171
     3
172
     1
178
     0
271
     2
272
     2
274
     3
278
    44
283
     0
284
     8
340
11
  0
DIMSTYLE
105
72
330
A
100
AcDbSymbolTableRecord
100
AcDbDimStyleTableRecord
  2
GB-1
 70
     0
 41
2.5
 42
0.625
 43
3.75
 44
1.25
 73
     0
 74
     0
 77
     1
 78
     8
140
2.5
141
2.5
143
0.03937007874016
147
0.625
171
     3
172
     1
178
     0
271
     2
272
     2
274
     3
278
    44
283
     0
284
     8
340
11
341
76
342
76
  0
DIMSTYLE
105
8E
102
{ACAD_REACTORS
330
29B
330
29C
330
29D
330
29E
330
29F
330
31F
330
32A
102
}
330
A
100
AcDbSymbolTableRecord
100
AcDbDimStyleTableRecord
  2
JIS-1
 70
     0
 41
2.5
 42
0.625
 43
3.75
 44
1.25
 73
     0
 74
     0
 77
     1
 78
     8
140
2.5
141
2.5
143
0.03937007874016
147
0.625
171
     3
172
     1
178
     0
271
     2
272
     2
274
     3
278
    44
283
     0
284
     8
340
11
341
90
342
90
  0
DIMSTYLE
105
E5
330
A
100
AcDbSymbolTableRecord
100
AcDbDimStyleTableRecord
  2
Standard
 70
     0
178
     0
340
11
  0
DIMSTYLE
105
E7
102
{ACAD_REACTORS
330
29A
330
2A0
330
2A1
330
2A4
102
}
330
A
100
AcDbSymbolTableRecord
100
AcDbDimStyleTableRecord
  2
実寸
 70
     0
 41
25.0
 42
10.0
 43
6.0
 44
0.0
 47
5.0
 73
     0
 74
     0
 77
     1
 78
     8
140
25.0
141
0.0
144
5.0
147
5.0
178
     0
271
     1
272
     1
284
     8
340
11
341
90
342
90
1001
ACAD_DSTYLE_DIMBREAK
1070
   391
1040
0.125
1001
ACAD_DSTYLE_DIMJAG
1070
   388
1040
1.5
1001
ACAD_DSTYLE_DIMTALN
1070
   392
1070
     0
  0
ENDTAB
  0
TABLE
  2
BLOCK_RECORD
  5
1
330
0
100
AcDbSymbolTable
 70
    23
  0
BLOCK_RECORD
  5
1F
330
1
100
AcDbSymbolTableRecord
100
AcDbBlockTableRecord
  2
*Model_Space
340
22
  0
BLOCK_RECORD
  5
1B
330
1
100
AcDbSymbolTableRecord
100
AcDbBlockTableRecord
  2
*Paper_Space
340
1E
  0
BLOCK_RECORD
  5
23
330
1
100
AcDbSymbolTableRecord
100
AcDbBlockTableRecord
  2
*Paper_Space0
340
26
  0
BLOCK_RECORD
  5
76
330
1
100
AcDbSymbolTableRecord
100
AcDbBlockTableRecord
  2
_CLOSED
340
0
  0
BLOCK_RECORD
  5
90
330
1
100
AcDbSymbolTableRecord
100
AcDbBlockTableRecord
  2
_OPEN
340
0
102
{BLKREFS
331
19B
331
19C
331
1A8
331
1A9
331
1B5
331
1B6
331
1C2
331
1C3
331
1D2
331
1D3
331
1E1
331
1E2
331
1ED
331
1EE
331
1FD
331
1FE
331
20B
331
20C
331
2AB
331
2AC
331
2B7
331
2B8
331
2C3
331
2C4
331
2CF
331
2D0
331
2DE
331
2DF
331
2ED
331
2EE
331
2F9
331
2FA
331
308
331
309
331
314
331
315
331
327
331
335
102
}
  0
BLOCK_RECORD
  5
196
330
1
100
AcDbSymbolTableRecord
100
AcDbBlockTableRecord
  2
*D3
340
0
  0
BLOCK_RECORD
  5
1A3
330
1
100
AcDbSymbolTableRecord
100
AcDbBlockTableRecord
  2
*D4
340
0
  0
BLOCK_RECORD
  5
1B0
330
1
100
AcDbSymbolTableRecord
100
AcDbBlockTableRecord
  2
*D5
340
0
  0
BLOCK_RECORD
  5
1BD
330
1
100
AcDbSymbolTableRecord
100
AcDbBlockTableRecord
  2
*D6
340
0
  0
BLOCK_RECORD
  5
1CA
330
1
100
AcDbSymbolTableRecord
100
AcDbBlockTableRecord
  2
*D7
340
0
  0
BLOCK_RECORD
  5
1D9
330
1
100
AcDbSymbolTableRecord
100
AcDbBlockTableRecord
  2
*D8
340
0
  0
BLOCK_RECORD
  5
1E8
330
1
100
AcDbSymbolTableRecord
100
AcDbBlockTableRecord
  2
*D9
340
0
  0
BLOCK_RECORD
  5
1F5
330
1
100
AcDbSymbolTableRecord
100
AcDbBlockTableRecord
  2
*D10
340
0
  0
BLOCK_RECORD
  5
206
330
1
100
AcDbSymbolTableRecord
100
AcDbBlockTableRecord
  2
*D11
340
0
  0
BLOCK_RECORD
  5
2A5
330
1
100
AcDbSymbolTableRecord
100
AcDbBlockTableRecord
  2
*D12
340
0
  0
BLOCK_RECORD
  5
2B1
330
1
100
AcDbSymbolTableRecord
100
AcDbBlockTableRecord
  2
*D13
340
0
  0
BLOCK_RECORD
  5
2BD
330
1
100
AcDbSymbolTableRecord
100
AcDbBlockTableRecord
  2
*D14
340
0
  0
BLOCK_RECORD
  5
2C9
330
1
100
AcDbSymbolTableRecord
100
AcDbBlockTableRecord
  2
*D15
340
0
  0
BLOCK_RECORD
  5
2D5
330
1
100
AcDbSymbolTableRecord
100
AcDbBlockTableRecord
  2
*D16
340
0
  0
BLOCK_RECORD
  5
2E4
330
1
100
AcDbSymbolTableRecord
100
AcDbBlockTableRecord
  2
*D17
340
0
  0
BLOCK_RECORD
  5
2F3
330
1
100
AcDbSymbolTableRecord
100
AcDbBlockTableRecord
  2
*D18
340
0
  0
BLOCK_RECORD
  5
2FF
330
1
100
AcDbSymbolTableRecord
100
AcDbBlockTableRecord
  2
*D19
340
0
  0
BLOCK_RECORD
  5
30E
330
1
100
AcDbSymbolTableRecord
100
AcDbBlockTableRecord
  2
*D20
340
0
  0
BLOCK_RECORD
  5
322
330
1
100
AcDbSymbolTableRecord
100
AcDbBlockTableRecord
  2
*D21
340
0
  0
BLOCK_RECORD
  5
32D
330
1
100
AcDbSymbolTableRecord
100
AcDbBlockTableRecord
  2
*D22
340
0
  0
ENDTAB
  0
ENDSEC
  0
SECTION
  2
BLOCKS
  0
BLOCK
  5
20
330
1F
100
AcDbEntity
  8
0
100
AcDbBlockBegin
  2
*Model_Space
 70
     0
 10
0.0
 20
0.0
 30
0.0
  3
*Model_Space
  1
*Model_Space
  0
ENDBLK
  5
21
330
1F
100
AcDbEntity
  8
0
100
AcDbBlockEnd
  0
BLOCK
  5
1C
330
1B
100
AcDbEntity
 67
     1
  8
0
100
AcDbBlockBegin
  2
*Paper_Space
 70
     0
 10
0.0
 20
0.0
 30
0.0
  3
*Paper_Space
  1
*Paper_Space
  0
ENDBLK
  5
1D
330
1B
100
AcDbEntity
 67
     1
  8
0
100
AcDbBlockEnd
  0
BLOCK
  5
24
330
23
100
AcDbEntity
  8
0
100
AcDbBlockBegin
  2
*Paper_Space0
 70
     0
 10
0.0
 20
0.0
 30
0.0
  3
*Paper_Space0
  1
*Paper_Space0
  0
ENDBLK
  5
25
330
23
100
AcDbEntity
  8
0
100
AcDbBlockEnd
  0
BLOCK
  5
77
330
76
100
AcDbEntity
  8
0
100
AcDbBlockBegin
  2
_CLOSED
 70
     0
 10
0.0
 20
0.0
 30
0.0
  3
_CLOSED
  1
_CLOSED
  0
LINE
  5
78
330
76
100
AcDbEntity
  8
0
  6
ByBlock
 62
     0
370
    -2
100
AcDbLine
 10
-1.0
 20
0.166667
 30
0.0
 11
0.0
 21
0.0
 31
0.0
  0
LINE
  5
79
330
76
100
AcDbEntity
  8
0
  6
ByBlock
 62
     0
370
    -2
100
AcDbLine
 10
0.0
 20
0.0
 30
0.0
 11
-1.0
 21
-0.166667
 31
0.0
  0
LINE
  5
7A
330
76
100
AcDbEntity
  8
0
  6
ByBlock
 62
     0
370
    -2
100
AcDbLine
 10
-1.0
 20
0.166667
 30
0.0
 11
-1.0
 21
-0.166667
 31
0.0
  0
LINE
  5
7B
330
76
100
AcDbEntity
  8
0
  6
ByBlock
 62
     0
370
    -2
100
AcDbLine
 10
0.0
 20
0.0
 30
0.0
 11
-1.0
 21
0.0
 31
0.0
  0
ENDBLK
  5
7C
330
76
100
AcDbEntity
  8
0
100
AcDbBlockEnd
  0
BLOCK
  5
91
330
90
100
AcDbEntity
  8
0
100
AcDbBlockBegin
  2
_OPEN
 70
     0
 10
0.0
 20
0.0
 30
0.0
  3
_OPEN
  1
_OPEN
  0
LINE
  5
92
330
90
100
AcDbEntity
  8
0
  6
ByBlock
 62
     0
370
    -2
100
AcDbLine
 10
-1.0
 20
0.166667
 30
0.0
 11
0.0
 21
0.0
 31
0.0
  0
LINE
  5
93
330
90
100
AcDbEntity
  8
0
  6
ByBlock
 62
     0
370
    -2
100
AcDbLine
 10
-1.0
 20
-0.166667
 30
0.0
 11
0.0
 21
0.0
 31
0.0
  0
LINE
  5
94
330
90
100
AcDbEntity
  8
0
  6
ByBlock
 62
     0
370
    -2
100
AcDbLine
 10
0.0
 20
0.0
 30
0.0
 11
-1.0
 21
0.0
 31
0.0
  0
ENDBLK
  5
95
330
90
100
AcDbEntity
  8
0
100
AcDbBlockEnd
  0
BLOCK
  5
197
330
196
100
AcDbEntity
  8
0
100
AcDbBlockBegin
  2
*D3
 70
     1
 10
0.0
 20
0.0
 30
0.0
  3
*D3
  1
*D5
  0
LINE
  5
198
330
196
100
AcDbEntity
  8
C寸法
 62
     0
370
    -2
100
AcDbLine
 10
210.2762027588747
 20
628.9042697610284
 30
0.0
 11
210.2762027588747
 21
428.9038891671712
 31
0.0
  0
LINE
  5
199
330
196
100
AcDbEntity
  8
C寸法
 62
     0
370
    -2
100
AcDbLine
 10
860.2710320524127
 20
628.9042697610284
 30
0.0
 11
860.2710320524127
 21
428.9038891671712
 31
0.0
  0
LINE
  5
19A
330
196
100
AcDbEntity
  8
C寸法
 62
     0
370
    -2
100
AcDbLine
 10
235.2762027588747
 20
428.9038891671712
 30
0.0
 11
835.2710320524127
 21
428.9038891671712
 31
0.0
  0
INSERT
  5
19B
330
196
100
AcDbEntity
  8
C寸法
 62
     0
370
    -2
100
AcDbBlockReference
  2
_OPEN
 10
210.2762027588747
 20
428.9038891671712
 30
0.0
 41
25.0
 42
25.0
 43
25.0
 50
180.0
  0
INSERT
  5
19C
330
196
100
AcDbEntity
  8
C寸法
 62
     0
370
    -2
100
AcDbBlockReference
  2
_OPEN
 10
860.2710320524127
 20
428.9038891671712
 30
0.0
 41
25.0
 42
25.0
 43
25.0
  0
MTEXT
  5
19D
330
196
100
AcDbEntity
  8
C寸法
 62
     0
100
AcDbMText
 10
535.2736174056437
 20
433.9743381671712
 30
0.0
 40
0.138
 41
0.0
 71
     5
 72
     1
  1
\A1;650
 73
     1
 44
1.0
  0
POINT
  5
19E
330
196
100
AcDbEntity
  8
Defpoints
 62
     0
100
AcDbPoint
 10
210.2762027588747
 20
638.9042697610284
 30
0.0
  0
POINT
  5
19F
330
196
100
AcDbEntity
  8
Defpoints
 62
     0
100
AcDbPoint
 10
860.2710320524127
 20
638.9042697610284
 30
0.0
  0
POINT
  5
1A0
330
196
100
AcDbEntity
  8
Defpoints
 62
     0
100
AcDbPoint
 10
860.2710320524127
 20
428.9038891671712
 30
0.0
  0
ENDBLK
  5
1A1
330
196
100
AcDbEntity
  8
0
100
AcDbBlockEnd
  0
BLOCK
  5
1A4
330
1A3
100
AcDbEntity
  8
0
100
AcDbBlockBegin
  2
*D4
 70
     1
 10
0.0
 20
0.0
 30
0.0
  3
*D4
  1
*D6
  0
LINE
  5
1A5
330
1A3
100
AcDbEntity
  8
C寸法
 62
     0
370
    -2
100
AcDbLine
 10
900.2762027588747
 20
578.9044161017782
 30
0.0
 11
1090.271032052412
 21
578.9044161017782
 31
0.0
  0
LINE
  5
1A6
330
1A3
100
AcDbEntity
  8
C寸法
 62
     0
370
    -2
100
AcDbLine
 10
900.2762027588747
 20
1018.904416101778
 30
0.0
 11
1090.271032052412
 21
1018.904416101778
 31
0.0
  0
LINE
  5
1A7
330
1A3
100
AcDbEntity
  8
C寸法
 62
     0
370
    -2
100
AcDbLine
 10
1090.271032052412
 20
603.9044161017782
 30
0.0
 11
1090.271032052412
 21
993.9044161017782
 31
0.0
  0
INSERT
  5
1A8
330
1A3
100
AcDbEntity
  8
C寸法
 62
     0
370
    -2
100
AcDbBlockReference
  2
_OPEN
 10
1090.271032052412
 20
578.9044161017782
 30
0.0
 41
25.0
 42
25.0
 43
25.0
 50
270.0
  0
INSERT
  5
1A9
330
1A3
100
AcDbEntity
  8
C寸法
 62
     0
370
    -2
100
AcDbBlockReference
  2
_OPEN
 10
1090.271032052412
 20
1018.904416101778
 30
0.0
 41
25.0
 42
25.0
 43
25.0
 50
90.0
  0
MTEXT
  5
1AA
330
1A3
100
AcDbEntity
  8
C寸法
 62
     0
100
AcDbMText
 10
1085.200583052412
 20
798.9044161017782
 30
0.0
 40
0.138
 41
0.0
 71
     5
 72
     1
  1
\A1;440
 11
0.0
 21
1.0
 31
0.0
 73
     1
 44
1.0
  0
POINT
  5
1AB
330
1A3
100
AcDbEntity
  8
Defpoints
 62
     0
100
AcDbPoint
 10
890.2762027588747
 20
578.9044161017782
 30
0.0
  0
POINT
  5
1AC
330
1A3
100
AcDbEntity
  8
Defpoints
 62
     0
100
AcDbPoint
 10
890.2762027588747
 20
1018.904416101778
 30
0.0
  0
POINT
  5
1AD
330
1A3
100
AcDbEntity
  8
Defpoints
 62
     0
100
AcDbPoint
 10
1090.271032052412
 20
1018.904416101778
 30
0.0
  0
ENDBLK
  5
1AE
330
1A3
100
AcDbEntity
  8
0
100
AcDbBlockEnd
  0
BLOCK
  5
1B1
330
1B0
100
AcDbEntity
  8
0
100
AcDbBlockBegin
  2
*D5
 70
     1
 10
0.0
 20
0.0
 30
0.0
  3
*D5
  1
*D7
  0
LINE
  5
1B2
330
1B0
100
AcDbEntity
  8
C寸法
 62
     0
370
    -2
100
AcDbLine
 10
900.2762027588747
 20
593.9044161017782
 30
0.0
 11
1040.271032052415
 21
593.9044161017782
 31
0.0
  0
LINE
  5
1B3
330
1B0
100
AcDbEntity
  8
C寸法
 62
     0
370
    -2
100
AcDbLine
 10
900.2762027588747
 20
1003.904416101778
 30
0.0
 11
1040.271032052415
 21
1003.904416101778
 31
0.0
  0
LINE
  5
1B4
330
1B0
100
AcDbEntity
  8
C寸法
 62
     0
370
    -2
100
AcDbLine
 10
1040.271032052415
 20
618.9044161017782
 30
0.0
 11
1040.271032052415
 21
978.9044161017782
 31
0.0
  0
INSERT
  5
1B5
330
1B0
100
AcDbEntity
  8
C寸法
 62
     0
370
    -2
100
AcDbBlockReference
  2
_OPEN
 10
1040.271032052415
 20
593.9044161017782
 30
0.0
 41
25.0
 42
25.0
 43
25.0
 50
270.0
  0
INSERT
  5
1B6
330
1B0
100
AcDbEntity
  8
C寸法
 62
     0
370
    -2
100
AcDbBlockReference
  2
_OPEN
 10
1040.271032052415
 20
1003.904416101778
 30
0.0
 41
25.0
 42
25.0
 43
25.0
 50
90.0
  0
MTEXT
  5
1B7
330
1B0
100
AcDbEntity
  8
C寸法
 62
     0
100
AcDbMText
 10
1035.200583052415
 20
798.9044161017782
 30
0.0
 40
0.138
 41
0.0
 71
     5
 72
     1
  1
\A1;410
 11
0.0
 21
1.0
 31
0.0
 73
     1
 44
1.0
  0
POINT
  5
1B8
330
1B0
100
AcDbEntity
  8
Defpoints
 62
     0
100
AcDbPoint
 10
890.2762027588747
 20
593.9044161017782
 30
0.0
  0
POINT
  5
1B9
330
1B0
100
AcDbEntity
  8
Defpoints
 62
     0
100
AcDbPoint
 10
890.2762027588747
 20
1003.904416101778
 30
0.0
  0
POINT
  5
1BA
330
1B0
100
AcDbEntity
  8
Defpoints
 62
     0
100
AcDbPoint
 10
1040.271032052415
 20
1003.904416101778
 30
0.0
  0
ENDBLK
  5
1BB
330
1B0
100
AcDbEntity
  8
0
100
AcDbBlockEnd
  0
BLOCK
  5
1BE
330
1BD
100
AcDbEntity
  8
0
100
AcDbBlockBegin
  2
*D6
 70
     1
 10
0.0
 20
0.0
 30
0.0
  3
*D6
  1
*D8
  0
LINE
  5
1BF
330
1BD
100
AcDbEntity
  8
C寸法
 62
     0
370
    -2
100
AcDbLine
 10
645.2746174007611
 20
853.9032209856606
 30
0.0
 11
990.2710320524116
 21
853.9032209856606
 31
0.0
  0
LINE
  5
1C0
330
1BD
100
AcDbEntity
  8
C寸法
 62
     0
370
    -2
100
AcDbLine
 10
900.2762027588747
 20
1003.904416101778
 30
0.0
 11
990.2710320524116
 21
1003.904416101778
 31
0.0
  0
LINE
  5
1C1
330
1BD
100
AcDbEntity
  8
C寸法
 62
     0
370
    -2
100
AcDbLine
 10
990.2710320524116
 20
878.9032209856606
 30
0.0
 11
990.2710320524116
 21
978.9044161017782
 31
0.0
  0
INSERT
  5
1C2
330
1BD
100
AcDbEntity
  8
C寸法
 62
     0
370
    -2
100
AcDbBlockReference
  2
_OPEN
 10
990.2710320524116
 20
853.9032209856606
 30
0.0
 41
25.0
 42
25.0
 43
25.0
 50
270.0
  0
INSERT
  5
1C3
330
1BD
100
AcDbEntity
  8
C寸法
 62
     0
370
    -2
100
AcDbBlockReference
  2
_OPEN
 10
990.2710320524116
 20
1003.904416101778
 30
0.0
 41
25.0
 42
25.0
 43
25.0
 50
90.0
  0
MTEXT
  5
1C4
330
1BD
100
AcDbEntity
  8
C寸法
 62
     0
100
AcDbMText
 10
985.2005830524115
 20
928.9038185437194
 30
0.0
 40
0.138
 41
0.0
 71
     5
 72
     1
  1
\A1;150
 11
0.0
 21
1.0
 31
0.0
 73
     1
 44
1.0
  0
POINT
  5
1C5
330
1BD
100
AcDbEntity
  8
Defpoints
 62
     0
100
AcDbPoint
 10
635.2746174007611
 20
853.9032209856606
 30
0.0
  0
POINT
  5
1C6
330
1BD
100
AcDbEntity
  8
Defpoints
 62
     0
100
AcDbPoint
 10
890.2762027588747
 20
1003.904416101778
 30
0.0
  0
POINT
  5
1C7
330
1BD
100
AcDbEntity
  8
Defpoints
 62
     0
100
AcDbPoint
 10
990.2710320524116
 20
1003.904416101778
 30
0.0
  0
ENDBLK
  5
1C8
330
1BD
100
AcDbEntity
  8
0
100
AcDbBlockEnd
  0
BLOCK
  5
1CB
330
1CA
100
AcDbEntity
  8
0
100
AcDbBlockBegin
  2
*D7
 70
     1
 10
0.0
 20
0.0
 30
0.0
  3
*D7
  1
*D9
  0
LINE
  5
1CC
330
1CA
100
AcDbEntity
  8
C寸法
 62
     0
370
    -2
100
AcDbLine
 10
545.2746174007611
 20
593.904489272154
 30
0.0
 11
1040.271032052415
 21
593.904489272154
 31
0.0
  0
LINE
  5
1CD
330
1CA
100
AcDbEntity
  8
C寸法
 62
     0
370
    -2
100
AcDbLine
 10
545.2746174007611
 20
578.9044161017782
 30
0.0
 11
1040.271032052415
 21
578.9044161017782
 31
0.0
  0
LINE
  5
1CE
330
1CA
100
AcDbEntity
  8
C寸法
 62
     0
370
    -2
100
AcDbLine
 10
1040.271032052415
 20
578.9044161017782
 30
0.0
 11
1040.271032052415
 21
501.9886923800865
 31
0.0
  0
LINE
  5
1CF
330
1CA
100
AcDbEntity
  8
C寸法
 62
     0
370
    -2
100
AcDbLine
 10
1040.271032052415
 20
593.904489272154
 30
0.0
 11
1040.271032052415
 21
578.9044161017782
 31
0.0
  0
LINE
  5
1D0
330
1CA
100
AcDbEntity
  8
C寸法
 62
     0
370
    -2
100
AcDbLine
 10
1040.271032052415
 20
618.904489272154
 30
0.0
 11
1040.271032052415
 21
643.904489272154
 31
0.0
  0
LINE
  5
1D1
330
1CA
100
AcDbEntity
  8
C寸法
 62
     0
370
    -2
100
AcDbLine
 10
1040.271032052415
 20
553.9044161017782
 30
0.0
 11
1040.271032052415
 21
528.9044161017782
 31
0.0
  0
INSERT
  5
1D2
330
1CA
100
AcDbEntity
  8
C寸法
 62
     0
370
    -2
100
AcDbBlockReference
  2
_OPEN
 10
1040.271032052415
 20
593.904489272154
 30
0.0
 41
25.0
 42
25.0
 43
25.0
 50
270.0
  0
INSERT
  5
1D3
330
1CA
100
AcDbEntity
  8
C寸法
 62
     0
370
    -2
100
AcDbBlockReference
  2
_OPEN
 10
1040.271032052415
 20
578.9044161017782
 30
0.0
 41
25.0
 42
25.0
 43
25.0
 50
90.0
  0
MTEXT
  5
1D4
330
1CA
100
AcDbEntity
  8
C寸法
 62
     0
100
AcDbMText
 10
1035.200583052415
 20
507.0814283800865
 30
0.0
 40
0.138
 41
0.0
 71
     5
 72
     1
  1
\A1;15
 11
0.0
 21
1.0
 31
0.0
 73
     1
 44
1.0
  0
POINT
  5
1D5
330
1CA
100
AcDbEntity
  8
Defpoints
 62
     0
100
AcDbPoint
 10
535.2746174007611
 20
593.904489272154
 30
0.0
  0
POINT
  5
1D6
330
1CA
100
AcDbEntity
  8
Defpoints
 62
     0
100
AcDbPoint
 10
535.2746174007611
 20
578.9044161017782
 30
0.0
  0
POINT
  5
216
330
1CA
100
AcDbEntity
  8
Defpoints
 62
     0
100
AcDbPoint
 10
1040.271032052415
 20
578.9044161017782
 30
0.0
  0
ENDBLK
  5
1D7
330
1CA
100
AcDbEntity
  8
0
100
AcDbBlockEnd
  0
BLOCK
  5
1DA
330
1D9
100
AcDbEntity
  8
0
100
AcDbBlockBegin
  2
*D8
 70
     1
 10
0.0
 20
0.0
 30
0.0
  3
*D8
  1
*D10
  0
LINE
  5
1DB
330
1D9
100
AcDbEntity
  8
C寸法
 62
     0
370
    -2
100
AcDbLine
 10
545.2746174007614
 20
1003.904489272154
 30
0.0
 11
1040.271032052415
 21
1003.904489272154
 31
0.0
  0
LINE
  5
1DC
330
1D9
100
AcDbEntity
  8
C寸法
 62
     0
370
    -2
100
AcDbLine
 10
810.2713247339111
 20
1018.904416101776
 30
0.0
 11
1040.271032052415
 21
1018.904416101776
 31
0.0
  0
LINE
  5
1DD
330
1D9
100
AcDbEntity
  8
C寸法
 62
     0
370
    -2
100
AcDbLine
 10
1040.271032052415
 20
1018.904416101776
 30
0.0
 11
1040.271032052415
 21
1095.82013982347
 31
0.0
  0
LINE
  5
1DE
330
1D9
100
AcDbEntity
  8
C寸法
 62
     0
370
    -2
100
AcDbLine
 10
1040.271032052415
 20
1003.904489272154
 30
0.0
 11
1040.271032052415
 21
1018.904416101776
 31
0.0
  0
LINE
  5
1DF
330
1D9
100
AcDbEntity
  8
C寸法
 62
     0
370
    -2
100
AcDbLine
 10
1040.271032052415
 20
978.904489272154
 30
0.0
 11
1040.271032052415
 21
953.904489272154
 31
0.0
  0
LINE
  5
1E0
330
1D9
100
AcDbEntity
  8
C寸法
 62
     0
370
    -2
100
AcDbLine
 10
1040.271032052415
 20
1043.904416101776
 30
0.0
 11
1040.271032052415
 21
1068.904416101776
 31
0.0
  0
INSERT
  5
1E1
330
1D9
100
AcDbEntity
  8
C寸法
 62
     0
370
    -2
100
AcDbBlockReference
  2
_OPEN
 10
1040.271032052415
 20
1003.904489272154
 30
0.0
 41
25.0
 42
25.0
 43
25.0
 50
90.0
  0
INSERT
  5
1E2
330
1D9
100
AcDbEntity
  8
C寸法
 62
     0
370
    -2
100
AcDbBlockReference
  2
_OPEN
 10
1040.271032052415
 20
1018.904416101776
 30
0.0
 41
25.0
 42
25.0
 43
25.0
 50
270.0
  0
MTEXT
  5
1E3
330
1D9
100
AcDbEntity
  8
C寸法
 62
     0
100
AcDbMText
 10
1035.200583052415
 20
1090.72740382347
 30
0.0
 40
0.138
 41
0.0
 71
     5
 72
     1
  1
\A1;15
 11
0.0
 21
1.0
 31
0.0
 73
     1
 44
1.0
  0
POINT
  5
1E4
330
1D9
100
AcDbEntity
  8
Defpoints
 62
     0
100
AcDbPoint
 10
535.2746174007614
 20
1003.904489272154
 30
0.0
  0
POINT
  5
1E5
330
1D9
100
AcDbEntity
  8
Defpoints
 62
     0
100
AcDbPoint
 10
800.2713247339111
 20
1018.904416101776
 30
0.0
  0
POINT
  5
217
330
1D9
100
AcDbEntity
  8
Defpoints
 62
     0
100
AcDbPoint
 10
1040.271032052415
 20
1018.904416101776
 30
0.0
  0
ENDBLK
  5
1E6
330
1D9
100
AcDbEntity
  8
0
100
AcDbBlockEnd
  0
BLOCK
  5
1E9
330
1E8
100
AcDbEntity
  8
0
100
AcDbBlockBegin
  2
*D9
 70
     1
 10
0.0
 20
0.0
 30
0.0
  3
*D9
  1
*D11
  0
LINE
  5
1EA
330
1E8
100
AcDbEntity
  8
C寸法
 62
     0
370
    -2
100
AcDbLine
 10
624.7752295928935
 20
154.6041086782941
 30
0.0
 11
1040.271032052415
 21
154.6041086782941
 31
0.0
  0
LINE
  5
1EB
330
1E8
100
AcDbEntity
  8
C寸法
 62
     0
370
    -2
100
AcDbLine
 10
900.2720320475223
 20
344.6041086782973
 30
0.0
 11
1040.271032052415
 21
344.6041086782973
 31
0.0
  0
LINE
  5
1EC
330
1E8
100
AcDbEntity
  8
C寸法
 62
     0
370
    -2
100
AcDbLine
 10
1040.271032052415
 20
179.6041086782941
 30
0.0
 11
1040.271032052415
 21
319.6041086782973
 31
0.0
  0
INSERT
  5
1ED
330
1E8
100
AcDbEntity
  8
C寸法
 62
     0
370
    -2
100
AcDbBlockReference
  2
_OPEN
 10
1040.271032052415
 20
154.6041086782941
 30
0.0
 41
25.0
 42
25.0
 43
25.0
 50
270.0
  0
INSERT
  5
1EE
330
1E8
100
AcDbEntity
  8
C寸法
 62
     0
370
    -2
100
AcDbBlockReference
  2
_OPEN
 10
1040.271032052415
 20
344.6041086782973
 30
0.0
 41
25.0
 42
25.0
 43
25.0
 50
90.0
  0
MTEXT
  5
1EF
330
1E8
100
AcDbEntity
  8
C寸法
 62
     0
100
AcDbMText
 10
1035.200583052415
 20
249.6041086782957
 30
0.0
 40
0.138
 41
0.0
 71
     5
 72
     1
  1
\A1;190
 11
0.0
 21
1.0
 31
0.0
 73
     1
 44
1.0
  0
POINT
  5
1F0
330
1E8
100
AcDbEntity
  8
Defpoints
 62
     0
100
AcDbPoint
 10
614.7752295928935
 20
154.6041086782941
 30
0.0
  0
POINT
  5
1F1
330
1E8
100
AcDbEntity
  8
Defpoints
 62
     0
100
AcDbPoint
 10
890.2720320475223
 20
344.6041086782973
 30
0.0
  0
POINT
  5
1F2
330
1E8
100
AcDbEntity
  8
Defpoints
 62
     0
100
AcDbPoint
 10
1040.271032052415
 20
344.6041086782973
 30
0.0
  0
ENDBLK
  5
1F3
330
1E8
100
AcDbEntity
  8
0
100
AcDbBlockEnd
  0
BLOCK
  5
1F6
330
1F5
100
AcDbEntity
  8
0
100
AcDbBlockBegin
  2
*D10
 70
     1
 10
0.0
 20
0.0
 30
0.0
  3
*D10
  1
*D12
  0
LINE
  5
1F7
330
1F5
100
AcDbEntity
  8
C寸法
 62
     0
370
    -2
100
AcDbLine
 10
867.2242616714058
 20
329.604562442528
 30
0.0
 11
990.2710320524152
 21
329.604562442528
 31
0.0
  0
LINE
  5
1F8
330
1F5
100
AcDbEntity
  8
C寸法
 62
     0
370
    -2
100
AcDbLine
 10
885.2719588771565
 20
344.6041086782941
 30
0.0
 11
990.2710320524152
 21
344.6041086782941
 31
0.0
  0
LINE
  5
1F9
330
1F5
100
AcDbEntity
  8
C寸法
 62
     0
370
    -2
100
AcDbLine
 10
990.2710320524152
 20
329.604562442528
 30
0.0
 11
990.2710320524152
 21
252.6888387208365
 31
0.0
  0
LINE
  5
1FA
330
1F5
100
AcDbEntity
  8
C寸法
 62
     0
370
    -2
100
AcDbLine
 10
990.2710320524152
 20
329.604562442528
 30
0.0
 11
990.2710320524152
 21
344.6041086782941
 31
0.0
  0
LINE
  5
1FB
330
1F5
100
AcDbEntity
  8
C寸法
 62
     0
370
    -2
100
AcDbLine
 10
990.2710320524152
 20
304.604562442528
 30
0.0
 11
990.2710320524152
 21
279.604562442528
 31
0.0
  0
LINE
  5
1FC
330
1F5
100
AcDbEntity
  8
C寸法
 62
     0
370
    -2
100
AcDbLine
 10
990.2710320524152
 20
369.6041086782941
 30
0.0
 11
990.2710320524152
 21
394.6041086782941
 31
0.0
  0
INSERT
  5
1FD
330
1F5
100
AcDbEntity
  8
C寸法
 62
     0
370
    -2
100
AcDbBlockReference
  2
_OPEN
 10
990.2710320524152
 20
329.604562442528
 30
0.0
 41
25.0
 42
25.0
 43
25.0
 50
90.0
  0
INSERT
  5
1FE
330
1F5
100
AcDbEntity
  8
C寸法
 62
     0
370
    -2
100
AcDbBlockReference
  2
_OPEN
 10
990.2710320524152
 20
344.6041086782941
 30
0.0
 41
25.0
 42
25.0
 43
25.0
 50
270.0
  0
MTEXT
  5
1FF
330
1F5
100
AcDbEntity
  8
C寸法
 62
     0
100
AcDbMText
 10
985.2005830524151
 20
257.7815747208365
 30
0.0
 40
0.138
 41
0.0
 71
     5
 72
     1
  1
\A1;15
 11
0.0
 21
1.0
 31
0.0
 73
     1
 44
1.0
  0
POINT
  5
200
330
1F5
100
AcDbEntity
  8
Defpoints
 62
     0
100
AcDbPoint
 10
857.2242616714058
 20
329.604562442528
 30
0.0
  0
POINT
  5
201
330
1F5
100
AcDbEntity
  8
Defpoints
 62
     0
100
AcDbPoint
 10
875.2719588771565
 20
344.6041086782941
 30
0.0
  0
POINT
  5
218
330
1F5
100
AcDbEntity
  8
Defpoints
 62
     0
100
AcDbPoint
 10
990.2710320524152
 20
344.6041086782941
 30
0.0
  0
ENDBLK
  5
202
330
1F5
100
AcDbEntity
  8
0
100
AcDbBlockEnd
  0
BLOCK
  5
207
330
206
100
AcDbEntity
  8
0
100
AcDbBlockBegin
  2
*D11
 70
     1
 10
0.0
 20
0.0
 30
0.0
  3
*D11
  1
*D13
  0
LINE
  5
208
330
206
100
AcDbEntity
  8
C寸法
 62
     0
370
    -2
100
AcDbLine
 10
625.7741759395011
 20
843.8962210198015
 30
0.0
 11
625.7741759395011
 21
693.9248597966412
 31
0.0
  0
LINE
  5
209
330
206
100
AcDbEntity
  8
C寸法
 62
     0
370
    -2
100
AcDbLine
 10
444.9638441686928
 20
843.6503937339323
 30
0.0
 11
444.9638441686928
 21
693.9248597966412
 31
0.0
  0
LINE
  5
20A
330
206
100
AcDbEntity
  8
C寸法
 62
     0
370
    -2
100
AcDbLine
 10
600.7741759395011
 20
693.9248597966412
 30
0.0
 11
469.9638441686928
 21
693.9248597966412
 31
0.0
  0
INSERT
  5
20B
330
206
100
AcDbEntity
  8
C寸法
 62
     0
370
    -2
100
AcDbBlockReference
  2
_OPEN
 10
625.7741759395011
 20
693.9248597966412
 30
0.0
 41
25.0
 42
25.0
 43
25.0
  0
INSERT
  5
20C
330
206
100
AcDbEntity
  8
C寸法
 62
     0
370
    -2
100
AcDbBlockReference
  2
_OPEN
 10
444.9638441686928
 20
693.9248597966412
 30
0.0
 41
25.0
 42
25.0
 43
25.0
 50
180.0
  0
MTEXT
  5
20D
330
206
100
AcDbEntity
  8
C寸法
 62
     0
100
AcDbMText
 10
549.4504331639836
 20
711.4248597966412
 30
0.0
 40
25.0
 41
0.0
 71
     5
 72
     1
  1
\A1;Φ181
  7
KANJI
 73
     1
 44
1.0
  0
POINT
  5
20E
330
206
100
AcDbEntity
  8
Defpoints
 62
     0
100
AcDbPoint
 10
625.7741759395011
 20
853.8962210198015
 30
0.0
  0
POINT
  5
20F
330
206
100
AcDbEntity
  8
Defpoints
 62
     0
100
AcDbPoint
 10
444.9638441686928
 20
853.6503937339323
 30
0.0
  0
POINT
  5
210
330
206
100
AcDbEntity
  8
Defpoints
 62
     0
100
AcDbPoint
 10
444.9638441686928
 20
693.9248597966412
 30
0.0
  0
ENDBLK
  5
211
330
206
100
AcDbEntity
  8
0
100
AcDbBlockEnd
  0
BLOCK
  5
2A6
330
2A5
100
AcDbEntity
  8
0
100
AcDbBlockBegin
  2
*D12
 70
     1
 10
0.0
 20
0.0
 30
0.0
  3
*D12
  1
*D14
  0
LINE
  5
2A8
330
2A5
100
AcDbEntity
  8
C寸法
 62
     0
370
    -2
100
AcDbLine
 10
213.9134638196302
 20
633.5006531407287
 30
0.0
 11
213.9134638196302
 21
433.5002725468714
 31
0.0
  0
LINE
  5
2A9
330
2A5
100
AcDbEntity
  8
C寸法
 62
     0
370
    -2
100
AcDbLine
 10
863.9082931131683
 20
633.5006531407287
 30
0.0
 11
863.9082931131683
 21
433.5002725468714
 31
0.0
  0
LINE
  5
2AA
330
2A5
100
AcDbEntity
  8
C寸法
 62
     0
370
    -2
100
AcDbLine
 10
238.9134638196302
 20
433.5002725468714
 30
0.0
 11
838.9082931131683
 21
433.5002725468714
 31
0.0
  0
INSERT
  5
2AB
330
2A5
100
AcDbEntity
  8
C寸法
 62
     0
370
    -2
100
AcDbBlockReference
  2
_OPEN
 10
213.9134638196302
 20
433.5002725468714
 30
0.0
 41
25.0
 42
25.0
 43
25.0
 50
180.0
  0
INSERT
  5
2AC
330
2A5
100
AcDbEntity
  8
C寸法
 62
     0
370
    -2
100
AcDbBlockReference
  2
_OPEN
 10
863.9082931131683
 20
433.5002725468714
 30
0.0
 41
25.0
 42
25.0
 43
25.0
  0
MTEXT
  5
2AD
330
2A5
100
AcDbEntity
  8
C寸法
 62
     0
370
    13
100
AcDbMText
 10
538.9108784663993
 20
438.5707215468714
 30
0.0
 40
0.138
 41
0.0
 71
     5
 72
     1
  1
\A1;650
 73
     1
 44
1.0
  0
POINT
  5
2AE
330
2A5
100
AcDbEntity
  8
Defpoints
 62
     0
100
AcDbPoint
 10
213.9134638196302
 20
643.5006531407287
 30
0.0
  0
POINT
  5
2AF
330
2A5
100
AcDbEntity
  8
Defpoints
 62
     0
100
AcDbPoint
 10
863.9082931131683
 20
643.5006531407287
 30
0.0
  0
POINT
  5
2B0
330
2A5
100
AcDbEntity
  8
Defpoints
 62
     0
100
AcDbPoint
 10
863.9082931131683
 20
433.5002725468714
 30
0.0
  0
ENDBLK
  5
2A7
330
2A5
100
AcDbEntity
  8
0
100
AcDbBlockEnd
  0
BLOCK
  5
2B2
330
2B1
100
AcDbEntity
  8
0
100
AcDbBlockBegin
  2
*D13
 70
     1
 10
0.0
 20
0.0
 30
0.0
  3
*D13
  1
*D15
  0
LINE
  5
2B4
330
2B1
100
AcDbEntity
  8
C寸法
 62
     0
370
    -2
100
AcDbLine
 10
898.9134638196302
 20
583.5007994814785
 30
0.0
 11
1095.158293113167
 21
583.5007994814785
 31
0.0
  0
LINE
  5
2B5
330
2B1
100
AcDbEntity
  8
C寸法
 62
     0
370
    -2
100
AcDbLine
 10
898.9134638196302
 20
1023.500799481478
 30
0.0
 11
1095.158293113167
 21
1023.500799481478
 31
0.0
  0
LINE
  5
2B6
330
2B1
100
AcDbEntity
  8
C寸法
 62
     0
370
    -2
100
AcDbLine
 10
1093.908293113167
 20
608.5007994814785
 30
0.0
 11
1093.908293113167
 21
998.5007994814785
 31
0.0
  0
INSERT
  5
2B7
330
2B1
100
AcDbEntity
  8
C寸法
 62
     0
370
    -2
100
AcDbBlockReference
  2
_OPEN
 10
1093.908293113167
 20
583.5007994814785
 30
0.0
 41
25.0
 42
25.0
 43
25.0
 50
270.0
  0
INSERT
  5
2B8
330
2B1
100
AcDbEntity
  8
C寸法
 62
     0
370
    -2
100
AcDbBlockReference
  2
_OPEN
 10
1093.908293113167
 20
1023.500799481478
 30
0.0
 41
25.0
 42
25.0
 43
25.0
 50
90.0
  0
MTEXT
  5
2B9
330
2B1
100
AcDbEntity
  8
C寸法
 62
     0
370
    13
100
AcDbMText
 10
1076.408293113167
 20
803.5007994814785
 30
0.0
 40
25.0
 41
0.0
 71
     5
 72
     1
  1
440
  7
KANJI
 11
0.0
 21
1.0
 31
0.0
 73
     1
 44
1.0
  0
POINT
  5
2BA
330
2B1
100
AcDbEntity
  8
Defpoints
 62
     0
100
AcDbPoint
 10
893.9134638196302
 20
583.5007994814785
 30
0.0
  0
POINT
  5
2BB
330
2B1
100
AcDbEntity
  8
Defpoints
 62
     0
100
AcDbPoint
 10
893.9134638196302
 20
1023.500799481478
 30
0.0
  0
POINT
  5
2BC
330
2B1
100
AcDbEntity
  8
Defpoints
 62
     0
100
AcDbPoint
 10
1093.908293113167
 20
1023.500799481478
 30
0.0
  0
ENDBLK
  5
2B3
330
2B1
100
AcDbEntity
  8
0
100
AcDbBlockEnd
  0
BLOCK
  5
2BE
330
2BD
100
AcDbEntity
  8
0
100
AcDbBlockBegin
  2
*D14
 70
     1
 10
0.0
 20
0.0
 30
0.0
  3
*D14
  1
*D16
  0
LINE
  5
2C0
330
2BD
100
AcDbEntity
  8
C寸法
 62
     0
370
    -2
100
AcDbLine
 10
898.9134638196302
 20
598.5007994814785
 30
0.0
 11
1045.158293113171
 21
598.5007994814785
 31
0.0
  0
LINE
  5
2C1
330
2BD
100
AcDbEntity
  8
C寸法
 62
     0
370
    -2
100
AcDbLine
 10
898.9134638196302
 20
1008.500799481478
 30
0.0
 11
1045.158293113171
 21
1008.500799481478
 31
0.0
  0
LINE
  5
2C2
330
2BD
100
AcDbEntity
  8
C寸法
 62
     0
370
    -2
100
AcDbLine
 10
1043.908293113171
 20
623.5007994814785
 30
0.0
 11
1043.908293113171
 21
983.5007994814785
 31
0.0
  0
INSERT
  5
2C3
330
2BD
100
AcDbEntity
  8
C寸法
 62
     0
370
    -2
100
AcDbBlockReference
  2
_OPEN
 10
1043.908293113171
 20
598.5007994814785
 30
0.0
 41
25.0
 42
25.0
 43
25.0
 50
270.0
  0
INSERT
  5
2C4
330
2BD
100
AcDbEntity
  8
C寸法
 62
     0
370
    -2
100
AcDbBlockReference
  2
_OPEN
 10
1043.908293113171
 20
1008.500799481478
 30
0.0
 41
25.0
 42
25.0
 43
25.0
 50
90.0
  0
MTEXT
  5
2C5
330
2BD
100
AcDbEntity
  8
C寸法
 62
     0
370
    13
100
AcDbMText
 10
1026.408293113171
 20
803.5007994814785
 30
0.0
 40
25.0
 41
0.0
 71
     5
 72
     1
  1
410
  7
KANJI
 11
0.0
 21
1.0
 31
0.0
 73
     1
 44
1.0
  0
POINT
  5
2C6
330
2BD
100
AcDbEntity
  8
Defpoints
 62
     0
100
AcDbPoint
 10
893.9134638196302
 20
598.5007994814785
 30
0.0
  0
POINT
  5
2C7
330
2BD
100
AcDbEntity
  8
Defpoints
 62
     0
100
AcDbPoint
 10
893.9134638196302
 20
1008.500799481478
 30
0.0
  0
POINT
  5
2C8
330
2BD
100
AcDbEntity
  8
Defpoints
 62
     0
100
AcDbPoint
 10
1043.908293113171
 20
1008.500799481478
 30
0.0
  0
ENDBLK
  5
2BF
330
2BD
100
AcDbEntity
  8
0
100
AcDbBlockEnd
  0
BLOCK
  5
2CA
330
2C9
100
AcDbEntity
  8
0
100
AcDbBlockBegin
  2
*D15
 70
     1
 10
0.0
 20
0.0
 30
0.0
  3
*D15
  1
*D17
  0
LINE
  5
2CC
330
2C9
100
AcDbEntity
  8
C寸法
 62
     0
370
    -2
100
AcDbLine
 10
895.2411392307174
 20
858.4996043653608
 30
0.0
 11
995.1582931131671
 21
858.4996043653608
 31
0.0
  0
LINE
  5
2CD
330
2C9
100
AcDbEntity
  8
C寸法
 62
     0
370
    -2
100
AcDbLine
 10
898.9134638196302
 20
1008.500799481478
 30
0.0
 11
995.1582931131671
 21
1008.500799481478
 31
0.0
  0
LINE
  5
2CE
330
2C9
100
AcDbEntity
  8
C寸法
 62
     0
370
    -2
100
AcDbLine
 10
993.9082931131671
 20
883.4996043653608
 30
0.0
 11
993.9082931131671
 21
983.5007994814785
 31
0.0
  0
INSERT
  5
2CF
330
2C9
100
AcDbEntity
  8
C寸法
 62
     0
370
    -2
100
AcDbBlockReference
  2
_OPEN
 10
993.9082931131671
 20
858.4996043653608
 30
0.0
 41
25.0
 42
25.0
 43
25.0
 50
270.0
  0
INSERT
  5
2D0
330
2C9
100
AcDbEntity
  8
C寸法
 62
     0
370
    -2
100
AcDbBlockReference
  2
_OPEN
 10
993.9082931131671
 20
1008.500799481478
 30
0.0
 41
25.0
 42
25.0
 43
25.0
 50
90.0
  0
MTEXT
  5
2D1
330
2C9
100
AcDbEntity
  8
C寸法
 62
     0
370
    13
100
AcDbMText
 10
976.4082931131671
 20
933.5002019234196
 30
0.0
 40
25.0
 41
0.0
 71
     5
 72
     1
  1
150
  7
KANJI
 11
0.0
 21
1.0
 31
0.0
 73
     1
 44
1.0
  0
POINT
  5
2D2
330
2C9
100
AcDbEntity
  8
Defpoints
 62
     0
100
AcDbPoint
 10
890.2411392307174
 20
858.4996043653608
 30
0.0
  0
POINT
  5
2D3
330
2C9
100
AcDbEntity
  8
Defpoints
 62
     0
100
AcDbPoint
 10
893.9134638196302
 20
1008.500799481478
 30
0.0
  0
POINT
  5
2D4
330
2C9
100
AcDbEntity
  8
Defpoints
 62
     0
100
AcDbPoint
 10
993.9082931131671
 20
1008.500799481478
 30
0.0
  0
ENDBLK
  5
2CB
330
2C9
100
AcDbEntity
  8
0
100
AcDbBlockEnd
  0
BLOCK
  5
2D6
330
2D5
100
AcDbEntity
  8
0
100
AcDbBlockBegin
  2
*D16
 70
     1
 10
0.0
 20
0.0
 30
0.0
  3
*D16
  1
*D18
  0
LINE
  5
2D8
330
2D5
100
AcDbEntity
  8
C寸法
 62
     0
370
    -2
100
AcDbLine
 10
543.9118784615167
 20
598.5008726518543
 30
0.0
 11
1045.158293113171
 21
598.5008726518543
 31
0.0
  0
LINE
  5
2D9
330
2D5
100
AcDbEntity
  8
C寸法
 62
     0
370
    -2
100
AcDbLine
 10
543.9118784615167
 20
583.5007994814785
 30
0.0
 11
1045.158293113171
 21
583.5007994814785
 31
0.0
  0
LINE
  5
2DA
330
2D5
100
AcDbEntity
  8
C寸法
 62
     0
370
    -2
100
AcDbLine
 10
1043.908293113171
 20
583.5007994814785
 30
0.0
 11
1043.908293113171
 21
486.4100256719546
 31
0.0
  0
LINE
  5
2DB
330
2D5
100
AcDbEntity
  8
C寸法
 62
     0
370
    -2
100
AcDbLine
 10
1043.908293113171
 20
598.5008726518543
 30
0.0
 11
1043.908293113171
 21
583.5007994814785
 31
0.0
  0
LINE
  5
2DC
330
2D5
100
AcDbEntity
  8
C寸法
 62
     0
370
    -2
100
AcDbLine
 10
1043.908293113171
 20
623.5008726518543
 30
0.0
 11
1043.908293113171
 21
648.5008726518543
 31
0.0
  0
LINE
  5
2DD
330
2D5
100
AcDbEntity
  8
C寸法
 62
     0
370
    -2
100
AcDbLine
 10
1043.908293113171
 20
558.5007994814785
 30
0.0
 11
1043.908293113171
 21
533.5007994814785
 31
0.0
  0
INSERT
  5
2DE
330
2D5
100
AcDbEntity
  8
C寸法
 62
     0
370
    -2
100
AcDbBlockReference
  2
_OPEN
 10
1043.908293113171
 20
598.5008726518543
 30
0.0
 41
25.0
 42
25.0
 43
25.0
 50
270.0
  0
INSERT
  5
2DF
330
2D5
100
AcDbEntity
  8
C寸法
 62
     0
370
    -2
100
AcDbBlockReference
  2
_OPEN
 10
1043.908293113171
 20
583.5007994814785
 30
0.0
 41
25.0
 42
25.0
 43
25.0
 50
90.0
  0
MTEXT
  5
2E0
330
2D5
100
AcDbEntity
  8
C寸法
 62
     0
370
    13
100
AcDbMText
 10
1026.408293113171
 20
509.9554125767165
 30
0.0
 40
25.0
 41
0.0
 71
     5
 72
     1
  1
15
  7
KANJI
 11
0.0
 21
1.0
 31
0.0
 73
     1
 44
1.0
  0
POINT
  5
2E1
330
2D5
100
AcDbEntity
  8
Defpoints
 62
     0
100
AcDbPoint
 10
538.9118784615167
 20
598.5008726518543
 30
0.0
  0
POINT
  5
31A
330
2D5
100
AcDbEntity
  8
Defpoints
 62
     0
100
AcDbPoint
 10
538.9118784615167
 20
583.5007994814785
 30
0.0
  0
POINT
  5
31B
330
2D5
100
AcDbEntity
  8
Defpoints
 62
     0
100
AcDbPoint
 10
1043.908293113171
 20
583.5007994814785
 30
0.0
  0
ENDBLK
  5
2D7
330
2D5
100
AcDbEntity
  8
0
100
AcDbBlockEnd
  0
BLOCK
  5
2E5
330
2E4
100
AcDbEntity
  8
0
100
AcDbBlockBegin
  2
*D17
 70
     1
 10
0.0
 20
0.0
 30
0.0
  3
*D17
  1
*D19
  0
LINE
  5
2E7
330
2E4
100
AcDbEntity
  8
C寸法
 62
     0
370
    -2
100
AcDbLine
 10
543.911878461517
 20
1008.500872651854
 30
0.0
 11
1045.158293113171
 21
1008.500872651854
 31
0.0
  0
LINE
  5
2E8
330
2E4
100
AcDbEntity
  8
C寸法
 62
     0
370
    -2
100
AcDbLine
 10
808.9085857946667
 20
1023.500799481476
 30
0.0
 11
1045.158293113171
 21
1023.500799481476
 31
0.0
  0
LINE
  5
2E9
330
2E4
100
AcDbEntity
  8
C寸法
 62
     0
370
    -2
100
AcDbLine
 10
1043.908293113171
 20
1023.500799481476
 30
0.0
 11
1043.908293113171
 21
1120.591573291
 31
0.0
  0
LINE
  5
2EA
330
2E4
100
AcDbEntity
  8
C寸法
 62
     0
370
    -2
100
AcDbLine
 10
1043.908293113171
 20
1008.500872651854
 30
0.0
 11
1043.908293113171
 21
1023.500799481476
 31
0.0
  0
LINE
  5
2EB
330
2E4
100
AcDbEntity
  8
C寸法
 62
     0
370
    -2
100
AcDbLine
 10
1043.908293113171
 20
983.5008726518543
 30
0.0
 11
1043.908293113171
 21
958.5008726518543
 31
0.0
  0
LINE
  5
2EC
330
2E4
100
AcDbEntity
  8
C寸法
 62
     0
370
    -2
100
AcDbLine
 10
1043.908293113171
 20
1048.500799481476
 30
0.0
 11
1043.908293113171
 21
1073.500799481476
 31
0.0
  0
INSERT
  5
2ED
330
2E4
100
AcDbEntity
  8
C寸法
 62
     0
370
    -2
100
AcDbBlockReference
  2
_OPEN
 10
1043.908293113171
 20
1008.500872651854
 30
0.0
 41
25.0
 42
25.0
 43
25.0
 50
90.0
  0
INSERT
  5
2EE
330
2E4
100
AcDbEntity
  8
C寸法
 62
     0
370
    -2
100
AcDbBlockReference
  2
_OPEN
 10
1043.908293113171
 20
1023.500799481476
 30
0.0
 41
25.0
 42
25.0
 43
25.0
 50
270.0
  0
MTEXT
  5
2EF
330
2E4
100
AcDbEntity
  8
C寸法
 62
     0
370
    13
100
AcDbMText
 10
1026.408293113171
 20
1097.046186386238
 30
0.0
 40
25.0
 41
0.0
 71
     5
 72
     1
  1
15
  7
KANJI
 11
0.0
 21
1.0
 31
0.0
 73
     1
 44
1.0
  0
POINT
  5
2F0
330
2E4
100
AcDbEntity
  8
Defpoints
 62
     0
100
AcDbPoint
 10
538.911878461517
 20
1008.500872651854
 30
0.0
  0
POINT
  5
31C
330
2E4
100
AcDbEntity
  8
Defpoints
 62
     0
100
AcDbPoint
 10
803.9085857946667
 20
1023.500799481476
 30
0.0
  0
POINT
  5
31D
330
2E4
100
AcDbEntity
  8
Defpoints
 62
     0
100
AcDbPoint
 10
1043.908293113171
 20
1023.500799481476
 30
0.0
  0
ENDBLK
  5
2E6
330
2E4
100
AcDbEntity
  8
0
100
AcDbBlockEnd
  0
BLOCK
  5
2F4
330
2F3
100
AcDbEntity
  8
0
100
AcDbBlockBegin
  2
*D18
 70
     1
 10
0.0
 20
0.0
 30
0.0
  3
*D18
  1
*D20
  0
LINE
  5
2F6
330
2F3
100
AcDbEntity
  8
C寸法
 62
     0
370
    -2
100
AcDbLine
 10
628.4124906536491
 20
159.2004920579943
 30
0.0
 11
1043.908293113171
 21
159.2004920579943
 31
0.0
  0
LINE
  5
2F7
330
2F3
100
AcDbEntity
  8
C寸法
 62
     0
370
    -2
100
AcDbLine
 10
903.9092931082779
 20
349.2004920579975
 30
0.0
 11
1043.908293113171
 21
349.2004920579975
 31
0.0
  0
LINE
  5
2F8
330
2F3
100
AcDbEntity
  8
C寸法
 62
     0
370
    -2
100
AcDbLine
 10
1043.908293113171
 20
184.2004920579943
 30
0.0
 11
1043.908293113171
 21
324.2004920579975
 31
0.0
  0
INSERT
  5
2F9
330
2F3
100
AcDbEntity
  8
C寸法
 62
     0
370
    -2
100
AcDbBlockReference
  2
_OPEN
 10
1043.908293113171
 20
159.2004920579943
 30
0.0
 41
25.0
 42
25.0
 43
25.0
 50
270.0
  0
INSERT
  5
2FA
330
2F3
100
AcDbEntity
  8
C寸法
 62
     0
370
    -2
100
AcDbBlockReference
  2
_OPEN
 10
1043.908293113171
 20
349.2004920579975
 30
0.0
 41
25.0
 42
25.0
 43
25.0
 50
90.0
  0
MTEXT
  5
2FB
330
2F3
100
AcDbEntity
  8
C寸法
 62
     0
370
    13
100
AcDbMText
 10
1026.408293113171
 20
254.2004920579959
 30
0.0
 40
25.0
 41
0.0
 71
     5
 72
     1
  1
\A1;190
  7
KANJI
 11
0.0
 21
1.0
 31
0.0
 73
     1
 44
1.0
  0
POINT
  5
2FC
330
2F3
100
AcDbEntity
  8
Defpoints
 62
     0
100
AcDbPoint
 10
618.4124906536491
 20
159.2004920579943
 30
0.0
  0
POINT
  5
2FD
330
2F3
100
AcDbEntity
  8
Defpoints
 62
     0
100
AcDbPoint
 10
893.9092931082779
 20
349.2004920579975
 30
0.0
  0
POINT
  5
2FE
330
2F3
100
AcDbEntity
  8
Defpoints
 62
     0
100
AcDbPoint
 10
1043.908293113171
 20
349.2004920579975
 30
0.0
  0
ENDBLK
  5
2F5
330
2F3
100
AcDbEntity
  8
0
100
AcDbBlockEnd
  0
BLOCK
  5
300
330
2FF
100
AcDbEntity
  8
0
100
AcDbBlockBegin
  2
*D19
 70
     1
 10
0.0
 20
0.0
 30
0.0
  3
*D19
  1
*D21
  0
LINE
  5
302
330
2FF
100
AcDbEntity
  8
C寸法
 62
     0
370
    -2
100
AcDbLine
 10
861.0348476438305
 20
334.2009458222283
 30
0.0
 11
993.9082931131708
 21
334.2009458222283
 31
0.0
  0
LINE
  5
303
330
2FF
100
AcDbEntity
  8
C寸法
 62
     0
370
    -2
100
AcDbLine
 10
881.0393764062823
 20
349.2004920579943
 30
0.0
 11
993.9082931131708
 21
349.2004920579943
 31
0.0
  0
LINE
  5
304
330
2FF
100
AcDbEntity
  8
C寸法
 62
     0
370
    -2
100
AcDbLine
 10
993.9082931131708
 20
334.2009458222283
 30
0.0
 11
993.9082931131708
 21
237.1101720127044
 31
0.0
  0
LINE
  5
305
330
2FF
100
AcDbEntity
  8
C寸法
 62
     0
370
    -2
100
AcDbLine
 10
993.9082931131708
 20
334.2009458222283
 30
0.0
 11
993.9082931131708
 21
349.2004920579943
 31
0.0
  0
LINE
  5
306
330
2FF
100
AcDbEntity
  8
C寸法
 62
     0
370
    -2
100
AcDbLine
 10
993.9082931131708
 20
309.2009458222283
 30
0.0
 11
993.9082931131708
 21
284.2009458222283
 31
0.0
  0
LINE
  5
307
330
2FF
100
AcDbEntity
  8
C寸法
 62
     0
370
    -2
100
AcDbLine
 10
993.9082931131708
 20
374.2004920579943
 30
0.0
 11
993.9082931131708
 21
399.2004920579943
 31
0.0
  0
INSERT
  5
308
330
2FF
100
AcDbEntity
  8
C寸法
 62
     0
370
    -2
100
AcDbBlockReference
  2
_OPEN
 10
993.9082931131708
 20
334.2009458222283
 30
0.0
 41
25.0
 42
25.0
 43
25.0
 50
90.0
  0
INSERT
  5
309
330
2FF
100
AcDbEntity
  8
C寸法
 62
     0
370
    -2
100
AcDbBlockReference
  2
_OPEN
 10
993.9082931131708
 20
349.2004920579943
 30
0.0
 41
25.0
 42
25.0
 43
25.0
 50
270.0
  0
MTEXT
  5
30A
330
2FF
100
AcDbEntity
  8
C寸法
 62
     0
370
    13
100
AcDbMText
 10
976.4082931131708
 20
260.6555589174664
 30
0.0
 40
25.0
 41
0.0
 71
     5
 72
     1
  1
\A1;15
  7
KANJI
 11
0.0
 21
1.0
 31
0.0
 73
     1
 44
1.0
  0
POINT
  5
30B
330
2FF
100
AcDbEntity
  8
Defpoints
 62
     0
100
AcDbPoint
 10
851.0348476438305
 20
334.2009458222283
 30
0.0
  0
POINT
  5
30C
330
2FF
100
AcDbEntity
  8
Defpoints
 62
     0
100
AcDbPoint
 10
871.0393764062823
 20
349.2004920579943
 30
0.0
  0
POINT
  5
30D
330
2FF
100
AcDbEntity
  8
Defpoints
 62
     0
100
AcDbPoint
 10
993.9082931131708
 20
349.2004920579943
 30
0.0
  0
ENDBLK
  5
301
330
2FF
100
AcDbEntity
  8
0
100
AcDbBlockEnd
  0
BLOCK
  5
30F
330
30E
100
AcDbEntity
  8
0
100
AcDbBlockBegin
  2
*D20
 70
     1
 10
0.0
 20
0.0
 30
0.0
  3
*D20
  1
*D22
  0
LINE
  5
311
330
30E
100
AcDbEntity
  8
C寸法
 62
     0
370
    -2
100
AcDbLine
 10
629.4114370002567
 20
848.4926043995017
 30
0.0
 11
629.4114370002567
 21
698.5212431763414
 31
0.0
  0
LINE
  5
312
330
30E
100
AcDbEntity
  8
C寸法
 62
     0
370
    -2
100
AcDbLine
 10
448.6011052294484
 20
848.2467771136326
 30
0.0
 11
448.6011052294484
 21
698.5212431763414
 31
0.0
  0
LINE
  5
313
330
30E
100
AcDbEntity
  8
C寸法
 62
     0
370
    -2
100
AcDbLine
 10
604.4114370002567
 20
698.5212431763414
 30
0.0
 11
473.6011052294484
 21
698.5212431763414
 31
0.0
  0
INSERT
  5
314
330
30E
100
AcDbEntity
  8
C寸法
 62
     0
370
    -2
100
AcDbBlockReference
  2
_OPEN
 10
629.4114370002567
 20
698.5212431763414
 30
0.0
 41
25.0
 42
25.0
 43
25.0
  0
INSERT
  5
315
330
30E
100
AcDbEntity
  8
C寸法
 62
     0
370
    -2
100
AcDbBlockReference
  2
_OPEN
 10
448.6011052294484
 20
698.5212431763414
 30
0.0
 41
25.0
 42
25.0
 43
25.0
 50
180.0
  0
MTEXT
  5
316
330
30E
100
AcDbEntity
  8
C寸法
 62
     0
370
    13
100
AcDbMText
 10
553.0876942247392
 20
716.0212431763414
 30
0.0
 40
25.0
 41
0.0
 71
     5
 72
     1
  1
\A1;Φ181
  7
KANJI
 73
     1
 44
1.0
  0
POINT
  5
317
330
30E
100
AcDbEntity
  8
Defpoints
 62
     0
100
AcDbPoint
 10
629.4114370002567
 20
858.4926043995017
 30
0.0
  0
POINT
  5
318
330
30E
100
AcDbEntity
  8
Defpoints
 62
     0
100
AcDbPoint
 10
448.6011052294484
 20
858.2467771136326
 30
0.0
  0
POINT
  5
319
330
30E
100
AcDbEntity
  8
Defpoints
 62
     0
100
AcDbPoint
 10
448.6011052294484
 20
698.5212431763414
 30
0.0
  0
ENDBLK
  5
310
330
30E
100
AcDbEntity
  8
0
100
AcDbBlockEnd
  0
BLOCK
  5
323
330
322
100
AcDbEntity
  8
0
100
AcDbBlockBegin
  2
*D21
 70
     1
 10
0.0
 20
0.0
 30
0.0
  3
*D21
  1
*D23
  0
LINE
  5
325
330
322
100
AcDbEntity
  8
C寸法
 62
     0
370
    -2
100
AcDbLine
 10
263.6372060304034
 20
652.0354759119342
 30
0.0
 11
360.9021298948717
 21
750.1045500251525
 31
0.0
  0
MTEXT
  5
326
330
322
100
AcDbEntity
  8
C寸法
 62
     0
370
    13
100
AcDbMText
 10
294.2375427813134
 20
707.7400594872164
 30
0.0
 40
25.0
 41
0.0
 71
     5
 72
     1
  1
4-R100
  7
KANJI
 11
0.7041897994369232
 21
0.7100117790353804
 31
0.0
 73
     1
 44
1.0
  0
INSERT
  5
327
330
322
100
AcDbEntity
  8
C寸法
 62
     0
370
    -2
100
AcDbBlockReference
  2
_OPEN
 10
246.0324610444803
 20
634.2851814360497
 30
0.0
 41
25.0
 42
25.0
 43
25.0
 50
225.235873711374
  0
POINT
  5
328
330
322
100
AcDbEntity
  8
Defpoints
 62
     0
100
AcDbPoint
 10
246.0324610444803
 20
634.2851814360497
 30
0.0
  0
POINT
  5
329
330
322
100
AcDbEntity
  8
Defpoints
 62
     0
100
AcDbPoint
 10
316.45109748263
 20
705.2860129940689
 30
0.0
  0
ENDBLK
  5
324
330
322
100
AcDbEntity
  8
0
100
AcDbBlockEnd
  0
BLOCK
  5
32E
330
32D
100
AcDbEntity
  8
0
100
AcDbBlockBegin
  2
*D22
 70
     1
 10
0.0
 20
0.0
 30
0.0
  3
*D22
  1
*D24
  0
LINE
  5
330
330
32D
100
AcDbEntity
  8
C寸法
 62
     0
370
    -2
100
AcDbLine
 10
231.4152691160637
 20
601.1462767195293
 30
0.0
 11
103.7522978383592
 21
473.9144538936156
 31
0.0
  0
LINE
  5
331
330
32D
100
AcDbEntity
  8
C寸法
 62
     0
370
    -2
100
AcDbLine
 10
249.1228146697744
 20
618.7940196478264
 30
0.0
 11
266.8303602234851
 21
636.4417625761236
 31
0.0
  0
LINE
  5
332
330
32D
100
AcDbEntity
  8
C寸法
 62
     0
370
    -2
100
AcDbLine
 10
249.1228146697744
 20
618.7940196478264
 30
0.0
 11
266.8303602234851
 21
636.4417625761236
 31
0.0
  0
MTEXT
  5
333
330
32D
100
AcDbEntity
  8
C寸法
 62
     0
370
    13
100
AcDbMText
 10
137.5228178736928
 20
532.2779042658727
 30
0.0
 40
25.0
 41
0.0
 71
     5
 72
     1
  1
4-R60
  7
KANJI
 11
0.7083018221484265
 21
0.7059097171318856
 31
0.0
 73
     1
 44
1.0
  0
LINE
  5
334
330
32D
100
AcDbEntity
  8
C寸法
 62
     0
370
    -2
100
AcDbLine
 10
273.9131711381307
 20
643.5006531407287
 30
0.0
 11
231.4152691160637
 21
601.1462767195293
 31
0.0
  0
INSERT
  5
335
330
32D
100
AcDbEntity
  8
C寸法
 62
     0
370
    -2
100
AcDbBlockReference
  2
_OPEN
 10
231.4152691160637
 20
601.1462767195293
 30
0.0
 41
25.0
 42
25.0
 43
25.0
 50
224.9030856508507
  0
POINT
  5
336
330
32D
100
AcDbEntity
  8
Defpoints
 62
     0
100
AcDbPoint
 10
231.4152691160637
 20
601.1462767195293
 30
0.0
  0
POINT
  5
337
330
32D
100
AcDbEntity
  8
Defpoints
 62
     0
100
AcDbPoint
 10
273.9131711381307
 20
643.5006531407287
 30
0.0
  0
ENDBLK
  5
32F
330
32D
100
AcDbEntity
  8
0
100
AcDbBlockEnd
  0
ENDSEC
  0
SECTION
  2
ENTITIES
  0
TEXT
  5
21A
330
1F
100
AcDbEntity
  8
C寸法
 62
     7
100
AcDbText
 10
1243.843479139357
 20
141.0826031716782
 30
0.0
 40
30.0
  1
品　番　：N650BIW 寸法図
  7
KANJI
100
AcDbText
  0
LINE
  5
21B
330
1F
100
AcDbEntity
  8
0
100
AcDbLine
 10
1239.292506694206
 20
129.2889710391914
 30
0.0
 11
1729.966503545413
 21
129.2889710391914
 31
0.0
  0
TEXT
  5
21C
330
1F
100
AcDbEntity
  8
C寸法
 62
     7
100
AcDbText
 10
1334.385642511701
 20
92.40444124616198
 30
0.0
 40
25.0
  1
※詳細はお問合せください
  7
KANJI
100
AcDbText
  0
LWPOLYLINE
  5
21D
330
1F
100
AcDbEntity
  8
0
100
AcDbPolyline
 90
        4
 70
     1
 43
0.0
 10
3.637261060755577
 20
1206.144871287193
 10
3.637261060755577
 20
4.596383379700228
 10
1803.692920303302
 20
4.596383379700228
 10
1803.692920303302
 20
1206.144871287193
  0
LINE
  5
21E
330
1F
100
AcDbEntity
  8
C2
  6
CENTER
 62
     0
 48
20.0
370
    13
100
AcDbLine
 10
538.9118784615167
 20
1055.593883423196
 30
0.0
 11
538.9118784615167
 21
548.5011165531012
 31
0.0
  0
LINE
  5
21F
330
1F
100
AcDbEntity
  8
C2
  6
CENTER
 62
     0
 48
20.0
370
    13
100
AcDbLine
 10
177.6448063311397
 20
858.4996043653608
 30
0.0
 11
884.8671095708412
 21
858.4996043653606
 31
0.0
  0
LINE
  5
220
330
1F
100
AcDbEntity
  8
C4
 62
     0
100
AcDbLine
 10
803.9085857946667
 20
1023.500799481478
 30
0.0
 11
273.9131711381307
 21
1023.500799481478
 31
0.0
  0
LINE
  5
221
330
1F
100
AcDbEntity
  8
C4
 62
     0
100
AcDbLine
 10
863.9082931131671
 20
963.5010921629744
 30
0.0
 11
863.9082931131671
 21
643.5006531407287
 31
0.0
  0
LINE
  5
222
330
1F
100
AcDbEntity
  8
C4
 62
     0
100
AcDbLine
 10
803.9085857946667
 20
583.5009458222282
 30
0.0
 11
273.9131711381307
 21
583.5009458222282
 31
0.0
  0
LINE
  5
223
330
1F
100
AcDbEntity
  8
C4
 62
     0
100
AcDbLine
 10
213.9134638196302
 20
643.5006531407287
 30
0.0
 11
213.9134638196302
 21
963.5010921629744
 31
0.0
  0
LINE
  5
224
330
1F
100
AcDbEntity
  8
C4
 62
     0
100
AcDbLine
 10
803.9085857946667
 20
1038.500726311102
 30
0.0
 11
273.9111711479019
 21
1038.500726311102
 31
0.0
  0
LINE
  5
225
330
1F
100
AcDbEntity
  8
C4
 62
     0
100
AcDbLine
 10
878.9082199427977
 20
963.5010921629744
 30
0.0
 11
878.9082199427977
 21
643.5006531407287
 31
0.0
  0
LINE
  5
226
330
1F
100
AcDbEntity
  8
C4
 62
     0
100
AcDbLine
 10
803.9085857946667
 20
568.5010189926013
 30
0.0
 11
273.9111711479019
 21
568.5010189926013
 31
0.0
  0
LINE
  5
227
330
1F
100
AcDbEntity
  8
C4
 62
     0
100
AcDbLine
 10
198.9115369997781
 20
643.5006531407287
 30
0.0
 11
198.9115369997781
 21
963.5010921629744
 31
0.0
  0
LINE
  5
228
330
1F
100
AcDbEntity
  8
C4
 62
     0
100
AcDbLine
 10
834.6946538037483
 20
164.5765492356563
 30
0.0
 11
631.8474251173794
 21
159.265418570541
 31
0.0
  0
LINE
  5
229
330
1F
100
AcDbEntity
  8
C4
 62
     0
100
AcDbLine
 10
834.7601036306406
 20
162.0776687883204
 30
0.0
 11
631.9124248003028
 21
156.7664307607279
 31
0.0
  0
LINE
  5
22A
330
1F
100
AcDbEntity
  8
C4
 62
     0
100
AcDbLine
 10
878.9092199379121
 20
349.2004920579943
 30
0.0
 11
878.9092199379121
 21
346.7005042530595
 31
0.0
  0
LINE
  5
22B
330
1F
100
AcDbEntity
  8
C4
 62
     0
100
AcDbLine
 10
866.4092809132236
 20
346.7005042530595
 30
0.0
 11
878.9092199379121
 21
346.7005042530595
 31
0.0
  0
LINE
  5
22C
330
1F
100
AcDbEntity
  8
C4
 62
     0
100
AcDbLine
 10
198.9145369851213
 20
349.2004920579943
 30
0.0
 11
878.9092199379121
 21
349.2004920579943
 31
0.0
  0
LINE
  5
22D
330
1F
100
AcDbEntity
  8
C4
 62
     0
100
AcDbLine
 10
211.4167398112442
 20
346.7005042530595
 30
0.0
 11
198.9145369851213
 21
346.7005042530595
 31
0.0
  0
LINE
  5
22E
330
1F
100
AcDbEntity
  8
C4
 62
     0
100
AcDbLine
 10
198.9145369851213
 20
349.2004920579943
 30
0.0
 11
198.9145369851213
 21
346.7005042530595
 31
0.0
  0
LINE
  5
22F
330
1F
100
AcDbEntity
  8
C4
 62
     0
100
AcDbLine
 10
213.9144341988905
 20
194.5666686770869
 30
0.0
 11
213.9167276156114
 21
346.7004665657455
 31
0.0
  0
LINE
  5
230
330
1F
100
AcDbEntity
  8
C4
 62
     0
100
AcDbLine
 10
629.4124369953607
 20
156.7664307607279
 30
0.0
 11
629.4124369953607
 21
152.2014530289064
 31
0.0
  0
LINE
  5
231
330
1F
100
AcDbEntity
  8
C4
 62
     0
100
AcDbLine
 10
618.4124906536491
 20
149.7014652239714
 30
0.0
 11
459.4132662596058
 21
149.7014652239714
 31
0.0
  0
LINE
  5
232
330
1F
100
AcDbEntity
  8
C4
 62
     0
100
AcDbLine
 10
618.4124906536491
 20
152.2014530289064
 30
0.0
 11
618.4124906536491
 21
149.7014652239716
 31
0.0
  0
LINE
  5
233
330
1F
100
AcDbEntity
  8
C4
 62
     0
100
AcDbLine
 10
618.4124906536491
 20
152.2014530289064
 30
0.0
 11
629.4124369953607
 21
152.2014530289064
 31
0.0
  0
LINE
  5
234
330
1F
100
AcDbEntity
  8
C4
 62
     0
100
AcDbLine
 10
629.4124369953607
 20
149.7014652239716
 30
0.0
 11
618.4124906536491
 21
149.7014652239716
 31
0.0
  0
LINE
  5
235
330
1F
100
AcDbEntity
  8
C4
 62
     0
100
AcDbLine
 10
631.9124248003028
 20
152.2014530289064
 30
0.0
 11
631.9124248003028
 21
156.7664307607279
 31
0.0
  0
LINE
  5
236
330
1F
100
AcDbEntity
  8
C4
 62
     0
100
AcDbLine
 10
866.4092809132236
 20
194.5663755284745
 30
0.0
 11
866.4092809132236
 21
346.7005042530595
 31
0.0
  0
LINE
  5
237
330
1F
100
AcDbEntity
  8
C4
 62
     0
100
AcDbLine
 10
211.4144463968588
 20
194.5668612586683
 30
0.0
 11
211.4167398112442
 21
346.7005042530595
 31
0.0
  0
LINE
  5
238
330
1F
100
AcDbEntity
  8
C4
 62
     0
100
AcDbLine
 10
618.4124906536491
 20
152.2014530289061
 30
0.0
 11
459.4132662596058
 21
152.2014530289064
 31
0.0
  0
LINE
  5
239
330
1F
100
AcDbEntity
  8
C4
 62
     0
100
AcDbLine
 10
631.3460575426872
 20
159.2014188827393
 30
0.0
 11
446.4796993705751
 21
159.2014188827393
 31
0.0
  0
LINE
  5
23A
330
1F
100
AcDbEntity
  8
C4
 62
     0
100
AcDbLine
 10
243.1290678518163
 20
164.5766407550705
 30
0.0
 11
445.9783317958828
 21
159.265418570541
 31
0.0
  0
LINE
  5
23B
330
1F
100
AcDbEntity
  8
C4
 62
     0
100
AcDbLine
 10
243.0636328541842
 20
162.0776643431432
 30
0.0
 11
445.9133321129594
 21
156.7664307607279
 31
0.0
  0
LINE
  5
23C
330
1F
100
AcDbEntity
  8
C4
 62
     0
100
AcDbLine
 10
448.4133199178942
 20
156.7664307607279
 30
0.0
 11
448.4133199178942
 21
152.2014530289064
 31
0.0
  0
LINE
  5
23D
330
1F
100
AcDbEntity
  8
C4
 62
     0
100
AcDbLine
 10
459.4132662596058
 20
152.2014530289064
 30
0.0
 11
459.4132662596058
 21
149.7014652239716
 31
0.0
  0
LINE
  5
23E
330
1F
100
AcDbEntity
  8
C4
 62
     0
100
AcDbLine
 10
459.4132662596058
 20
152.2014530289064
 30
0.0
 11
448.4133199178942
 21
152.2014530289064
 31
0.0
  0
LINE
  5
23F
330
1F
100
AcDbEntity
  8
C4
 62
     0
100
AcDbLine
 10
448.4133199178942
 20
149.7014652239716
 30
0.0
 11
459.4132662596058
 21
149.7014652239716
 31
0.0
  0
LINE
  5
240
330
1F
100
AcDbEntity
  8
C4
 62
     0
100
AcDbLine
 10
445.9133321129594
 20
152.2014530289064
 30
0.0
 11
445.9133321129594
 21
156.7664307607279
 31
0.0
  0
LINE
  5
241
330
1F
100
AcDbEntity
  8
C4
 62
     0
100
AcDbLine
 10
216.9165697706522
 20
334.200565228371
 30
0.0
 11
860.9093077423496
 21
334.200565228371
 31
0.0
  0
LINE
  5
242
330
1F
100
AcDbEntity
  8
C4
 62
     0
100
AcDbLine
 10
863.9092931082815
 20
194.566125057821
 30
0.0
 11
863.9092931082815
 21
346.7005042530595
 31
0.0
  0
CIRCLE
  5
243
330
1F
100
AcDbEntity
  8
C4
 62
     0
100
AcDbCircle
 10
538.9118784615167
 20
858.4926043995017
 30
0.0
 40
90.49955853873996
  0
CIRCLE
  5
244
330
1F
100
AcDbEntity
  8
C4
 62
     0
100
AcDbCircle
 10
538.9118784615167
 20
858.4926043995017
 30
0.0
 40
79.49961219701466
  0
ARC
  5
245
330
1F
100
AcDbEntity
  8
C4
 62
     0
100
AcDbCircle
 10
2213.901707779438
 20
803.4998726567335
 30
0.0
 40
1999.990243950054
100
AcDbArc
 50
177.0368993317199
 51
182.9630400849923
  0
ARC
  5
246
330
1F
100
AcDbEntity
  8
C4
 62
     0
100
AcDbCircle
 10
-1136.079950846655
 20
803.4998726567335
 30
0.0
 40
1999.990243950054
100
AcDbArc
 50
357.0369562157136
 51
2.963104367846555
  0
ARC
  5
247
330
1F
100
AcDbEntity
  8
C4
 62
     0
100
AcDbCircle
 10
273.9131711381307
 20
963.5010921629744
 30
0.0
 40
59.99970731850162
100
AcDbArc
 50
90.0
 51
180.0
  0
ARC
  5
248
330
1F
100
AcDbEntity
  8
C4
 62
     0
100
AcDbCircle
 10
273.9111711479019
 20
963.5010921629744
 30
0.0
 40
74.99963414812703
100
AcDbArc
 50
90.0
 51
180.0
  0
ARC
  5
249
102
{ACAD_REACTORS
330
32C
102
}
330
1F
100
AcDbEntity
  8
C4
 62
     0
100
AcDbCircle
 10
273.9131711381307
 20
643.5006531407287
 30
0.0
 40
59.99970731850162
100
AcDbArc
 50
180.0
 51
270.0
  0
ARC
  5
24A
330
1F
100
AcDbEntity
  8
C4
 62
     0
100
AcDbCircle
 10
273.9111711479019
 20
643.5006531407287
 30
0.0
 40
74.99963414812703
100
AcDbArc
 50
180.0
 51
270.0
  0
ARC
  5
24B
330
1F
100
AcDbEntity
  8
C4
 62
     0
100
AcDbCircle
 10
803.9085857946667
 20
643.5006531407287
 30
0.0
 40
59.99970731850162
100
AcDbArc
 50
270.0
 51
0.0
  0
ARC
  5
24C
330
1F
100
AcDbEntity
  8
C4
 62
     0
100
AcDbCircle
 10
803.9085857946667
 20
643.5006531407287
 30
0.0
 40
74.99963414812703
100
AcDbArc
 50
270.0
 51
0.0
  0
ARC
  5
24D
330
1F
100
AcDbEntity
  8
C4
 62
     0
100
AcDbCircle
 10
803.9085857946667
 20
963.5010921629744
 30
0.0
 40
59.99970731850162
100
AcDbArc
 50
0.0
 51
90.0
  0
ARC
  5
24E
330
1F
100
AcDbEntity
  8
C4
 62
     0
100
AcDbCircle
 10
803.9085857946667
 20
963.5010921629744
 30
0.0
 40
74.99963414812703
100
AcDbArc
 50
0.0
 51
90.0
  0
ARC
  5
24F
330
1F
100
AcDbEntity
  8
C4
 62
     0
100
AcDbCircle
 10
631.9124248003028
 20
156.7664307607279
 30
0.0
 40
2.499987804937568
100
AcDbArc
 50
91.50021396675653
 51
179.9998479603916
  0
ARC
  5
250
330
1F
100
AcDbEntity
  8
C4
 62
     0
100
AcDbCircle
 10
629.4124369953607
 20
152.2014530289064
 30
0.0
 40
2.499987804937568
100
AcDbArc
 50
270.0000584190875
 51
0.0
  0
ARC
  5
251
330
1F
100
AcDbEntity
  8
C4
 62
     0
100
AcDbCircle
 10
445.9133321129594
 20
156.7664307607279
 30
0.0
 40
2.499987804937568
100
AcDbArc
 50
0.0
 51
88.50020695115204
  0
ARC
  5
252
330
1F
100
AcDbEntity
  8
C4
 62
     0
100
AcDbCircle
 10
448.4133199178942
 20
152.2014530289064
 30
0.0
 40
2.499987804937568
100
AcDbArc
 50
180.0004209183805
 51
270.0000584190875
  0
ARC
  5
253
330
1F
100
AcDbEntity
  8
C4
 62
     0
100
AcDbCircle
 10
866.4092809132236
 20
346.7005042530595
 30
0.0
 40
2.499987804937568
100
AcDbArc
 50
90.0
 51
180.0
  0
ARC
  5
254
330
1F
100
AcDbEntity
  8
C4
 62
     0
100
AcDbCircle
 10
211.4167398109531
 20
346.7005042530595
 30
0.0
 40
2.499987804937568
100
AcDbArc
 50
359.9991362662689
 51
90.0
  0
ARC
  5
255
330
1F
100
AcDbEntity
  8
C4
 62
     0
100
AcDbCircle
 10
216.9165697706522
 20
337.2005505942884
 30
0.0
 40
2.999985365925081
100
AcDbArc
 50
179.9991362662691
 51
270.0
  0
ARC
  5
256
330
1F
100
AcDbEntity
  8
C4
 62
     0
100
AcDbCircle
 10
860.9093077423496
 20
337.2005505942884
 30
0.0
 40
2.999985365925081
100
AcDbArc
 50
270.0
 51
0.0
  0
ARC
  5
257
330
1F
100
AcDbEntity
  8
C4
 62
     0
100
AcDbCircle
 10
833.909439449035
 20
194.566125057821
 30
0.0
 40
29.99985365925081
100
AcDbArc
 50
271.4998275490782
 51
0.0
  0
ARC
  5
258
330
1F
100
AcDbEntity
  8
C4
 62
     0
100
AcDbCircle
 10
833.909439449035
 20
194.5663755284745
 30
0.0
 40
32.49984146418838
100
AcDbArc
 50
271.4998545266041
 51
0.0
  0
ARC
  5
259
330
1F
100
AcDbEntity
  8
C4
 62
     0
100
AcDbCircle
 10
243.9142878547392
 20
194.5662164293512
 30
0.0
 40
29.99985365925081
100
AcDbArc
 50
179.9991362662691
 51
268.5001616597863
  0
ARC
  5
25A
330
1F
100
AcDbEntity
  8
C4
 62
     0
100
AcDbCircle
 10
243.9142878573585
 20
194.5663713236186
 30
0.0
 40
32.49984146418838
100
AcDbArc
 50
179.9991362662691
 51
268.5001616597863
  0
ARC
  5
25B
330
1F
100
AcDbEntity
  8
C4
 62
     0
100
AcDbCircle
 10
538.9118784615167
 20
4348.482580058207
 30
0.0
 40
3749.981707406352
100
AcDbArc
 50
266.5057450350708
 51
273.4942234121113
  0
ARC
  5
25C
330
1F
100
AcDbEntity
  8
C4
 62
     0
100
AcDbCircle
 10
538.9118784615167
 20
-2741.480834754498
 30
0.0
 40
3749.981707406352
100
AcDbArc
 50
86.5057782209319
 51
93.49425333188597
  0
ARC
  5
25D
102
{ACAD_REACTORS
330
321
102
}
330
1F
100
AcDbEntity
  8
C4
 62
     0
100
AcDbCircle
 10
316.45109748263
 20
705.2860129940689
 30
0.0
 40
99.99951219750271
100
AcDbArc
 50
182.9630400849923
 51
266.5057450350708
  0
ARC
  5
25E
330
1F
100
AcDbEntity
  8
C4
 62
     0
100
AcDbCircle
 10
316.4512013333407
 20
901.7157386509659
 30
0.0
 40
99.99951219750271
100
AcDbArc
 50
93.49425333188597
 51
177.0368993317199
  0
ARC
  5
25F
330
1F
100
AcDbEntity
  8
C4
 62
     0
100
AcDbCircle
 10
761.3705492580958
 20
901.7158611609209
 30
0.0
 40
99.99951219750271
100
AcDbArc
 50
2.963104367846529
 51
86.50577822093192
  0
ARC
  5
260
330
1F
100
AcDbEntity
  8
C4
 62
     0
100
AcDbCircle
 10
761.3706531089157
 20
705.2858904840557
 30
0.0
 40
99.99951219750271
100
AcDbArc
 50
273.4942234121113
 51
357.0369562157136
  0
LINE
  5
262
330
1F
100
AcDbEntity
  8
C4
 62
     0
100
AcDbLine
 10
1253.408219942798
 20
568.5041832404274
 30
0.0
 11
1254.408204153569
 21
568.5041832404274
 31
0.0
  0
LINE
  5
263
330
1F
100
AcDbEntity
  8
C4
 62
     0
100
AcDbLine
 10
1254.408204153569
 20
1024.499983314186
 30
0.0
 11
1254.408204153569
 21
1038.498762273393
 31
0.0
  0
LINE
  5
264
330
1F
100
AcDbEntity
  8
C4
 62
     0
100
AcDbLine
 10
1254.408204153569
 20
1024.499983314186
 30
0.0
 11
1265.409084995943
 21
1024.496983346678
 31
0.0
  0
LINE
  5
265
330
1F
100
AcDbEntity
  8
C4
 62
     0
100
AcDbLine
 10
1269.407967315212
 20
1020.497046511013
 30
0.0
 11
1269.407967315212
 21
1013.497157035584
 31
0.0
  0
LINE
  5
266
330
1F
100
AcDbEntity
  8
C4
 62
     0
100
AcDbLine
 10
1268.407983104426
 20
1020.497046511013
 30
0.0
 11
1268.407983104426
 21
1013.497157035584
 31
0.0
  0
LINE
  5
267
330
1F
100
AcDbEntity
  8
C4
 62
     0
100
AcDbLine
 10
1253.408219942798
 20
1038.498762273393
 30
0.0
 11
1254.208207311411
 21
1038.498762273393
 31
0.0
  0
LINE
  5
268
330
1F
100
AcDbEntity
  8
C4
 62
     0
100
AcDbLine
 10
1254.408204153569
 20
1023.499999095971
 30
0.0
 11
1265.408030472103
 21
1023.496999143339
 31
0.0
  0
LINE
  5
269
330
1F
100
AcDbEntity
  8
C4
 62
     0
100
AcDbLine
 10
1254.408204153569
 20
582.502962207074
 30
0.0
 11
1254.408204153569
 21
568.5041832404274
 31
0.0
  0
LINE
  5
26A
330
1F
100
AcDbEntity
  8
C4
 62
     0
100
AcDbLine
 10
1254.408258693202
 20
582.50296221451
 30
0.0
 11
1265.409084995943
 21
582.5059621671423
 31
0.0
  0
LINE
  5
26B
330
1F
100
AcDbEntity
  8
C4
 62
     0
100
AcDbLine
 10
1269.407967315212
 20
586.5058990028081
 30
0.0
 11
1269.407967315212
 21
593.5057884782361
 31
0.0
  0
LINE
  5
26C
330
1F
100
AcDbEntity
  8
C4
 62
     0
100
AcDbLine
 10
1273.407904158306
 20
597.5057253213397
 30
0.0
 11
1409.738751565983
 21
597.5057253213397
 31
0.0
  0
LINE
  5
26D
330
1F
100
AcDbEntity
  8
C4
 62
     0
100
AcDbLine
 10
1273.407904158306
 20
598.505709532117
 30
0.0
 11
1409.738751565983
 21
598.505709532117
 31
0.0
  0
LINE
  5
26E
330
1F
100
AcDbEntity
  8
C4
 62
     0
100
AcDbLine
 10
1268.407983104426
 20
586.5058990028081
 30
0.0
 11
1268.407983104426
 21
593.5057884782361
 31
0.0
  0
LINE
  5
26F
330
1F
100
AcDbEntity
  8
C4
 62
     0
100
AcDbLine
 10
1450.208112576063
 20
949.9981596513333
 30
0.0
 11
1445.838181574978
 21
949.9981596513333
 31
0.0
  0
LINE
  5
270
330
1F
100
AcDbEntity
  8
C4
 62
     0
100
AcDbLine
 10
1442.608232574177
 20
979.2836972481052
 30
0.0
 11
1443.350740854392
 21
950.9554806558151
 31
0.0
  0
LINE
  5
271
330
1F
100
AcDbEntity
  8
C4
 62
     0
100
AcDbLine
 10
1443.608148125171
 20
979.308937043377
 30
0.0
 11
1444.338136599039
 21
951.4573768048556
 31
0.0
  0
LINE
  5
272
330
1F
100
AcDbEntity
  8
C4
 62
     0
100
AcDbLine
 10
1450.208112576063
 20
948.998175440556
 30
0.0
 11
1445.360021047021
 21
948.998175440556
 31
0.0
  0
ARC
  5
273
330
1F
100
AcDbEntity
  8
C4
 62
     0
100
AcDbCircle
 10
1445.360021047021
 20
951.0081457141821
 30
0.0
 40
2.009970273629303
100
AcDbArc
 50
181.5014306377434
 51
270.0
  0
LINE
  5
274
330
1F
100
AcDbEntity
  8
C4
 62
     0
100
AcDbLine
 10
1412.618706093013
 20
1008.497235981704
 30
0.0
 11
1273.407904158306
 21
1008.497235981704
 31
0.0
  0
LINE
  5
275
330
1F
100
AcDbEntity
  8
C4
 62
     0
100
AcDbLine
 10
1253.408219942798
 20
568.5041832404274
 30
0.0
 11
1253.408219942798
 21
1038.498762273393
 31
0.0
  0
LINE
  5
276
330
1F
100
AcDbEntity
  8
C4
 62
     0
100
AcDbLine
 10
1412.618706093013
 20
1009.497220192481
 30
0.0
 11
1273.407904158306
 21
1009.497220192481
 31
0.0
  0
LINE
  5
277
330
1F
100
AcDbEntity
  8
C4
 62
     0
100
AcDbLine
 10
1254.408204153569
 20
583.5029464178494
 30
0.0
 11
1265.408030472103
 21
583.5059463704818
 31
0.0
  0
LINE
  5
278
330
1F
100
AcDbEntity
  8
C4
 62
     0
100
AcDbLine
 10
1440.728193711733
 20
627.6900128693921
 30
0.0
 11
1444.338136712631
 21
765.5358363563935
 31
0.0
  0
LINE
  5
279
330
1F
100
AcDbEntity
  8
C4
 62
     0
100
AcDbLine
 10
1450.208112576063
 20
767.0010490793882
 30
0.0
 11
1445.838181574978
 21
767.0010490793882
 31
0.0
  0
LINE
  5
27A
330
1F
100
AcDbEntity
  8
C4
 62
     0
100
AcDbLine
 10
1443.408219942798
 20
950.5280905606608
 30
0.0
 11
1443.408219942798
 21
766.0885156135423
 31
0.0
  0
LINE
  5
27B
330
1F
100
AcDbEntity
  8
C4
 62
     0
100
AcDbLine
 10
1439.72827804714
 20
627.7192482657154
 30
0.0
 11
1443.338221048038
 21
765.5670717211376
 31
0.0
  0
LINE
  5
27C
330
1F
100
AcDbEntity
  8
C4
 62
     0
100
AcDbLine
 10
1450.208112576063
 20
768.0010332901654
 30
0.0
 11
1445.838181574978
 21
768.0010332901654
 31
0.0
  0
LINE
  5
27D
330
1F
100
AcDbEntity
  8
C4
 62
     0
100
AcDbLine
 10
1451.408093629001
 20
948.7981785983991
 30
0.0
 11
1451.408093629001
 21
937.498357016633
 31
0.0
  0
LINE
  5
27E
330
1F
100
AcDbEntity
  8
C4
 62
     0
100
AcDbLine
 10
1450.408109418229
 20
937.498357016633
 30
0.0
 11
1451.408093629001
 21
937.498357016633
 31
0.0
  0
LINE
  5
27F
330
1F
100
AcDbEntity
  8
C4
 62
     0
100
AcDbLine
 10
1450.408109418229
 20
948.7981785983991
 30
0.0
 11
1450.408109418229
 21
937.498357016633
 31
0.0
  0
LINE
  5
280
330
1F
100
AcDbEntity
  8
C4
 62
     0
100
AcDbLine
 10
1450.408109418229
 20
779.500851714083
 30
0.0
 11
1451.408093629001
 21
779.500851714083
 31
0.0
  0
LINE
  5
281
330
1F
100
AcDbEntity
  8
C4
 62
     0
100
AcDbLine
 10
1450.408109418229
 20
768.2010301323187
 30
0.0
 11
1450.408109418229
 21
779.500851714083
 31
0.0
  0
LINE
  5
282
330
1F
100
AcDbEntity
  8
C4
 62
     0
100
AcDbLine
 10
1450.408109418233
 20
937.4983570166328
 30
0.0
 11
1450.408109418226
 21
779.500851714083
 31
0.0
  0
LINE
  5
283
330
1F
100
AcDbEntity
  8
C4
 62
     0
100
AcDbLine
 10
1451.408093629001
 20
937.4983570166328
 30
0.0
 11
1451.408093629001
 21
768.2010301323187
 31
0.0
  0
LINE
  5
284
330
1F
100
AcDbEntity
  8
C4
 62
     0
100
AcDbLine
 10
1451.408093629001
 20
768.2010301323187
 30
0.0
 11
1451.408093629001
 21
779.500851714083
 31
0.0
  0
ARC
  5
285
330
1F
100
AcDbEntity
  8
C4
 62
     0
100
AcDbCircle
 10
1265.408030472103
 20
1020.497046511013
 30
0.0
 40
2.999952632326908
100
AcDbArc
 50
0.0
 51
90.00021045978612
  0
ARC
  5
286
330
1F
100
AcDbEntity
  8
C4
 62
     0
100
AcDbCircle
 10
1273.407904158306
 20
1013.497157035584
 30
0.0
 40
4.999921053878179
100
AcDbArc
 50
179.9998479603905
 51
270.000058419295
  0
ARC
  5
287
330
1F
100
AcDbEntity
  8
C4
 62
     0
100
AcDbCircle
 10
1273.407904158306
 20
1013.497157035584
 30
0.0
 40
3.999936843102541
100
AcDbArc
 50
179.9998479603911
 51
270.000058419299
  0
ARC
  5
288
330
1F
100
AcDbEntity
  8
C4
 62
     0
100
AcDbCircle
 10
1254.408204153569
 20
1024.499983306748
 30
0.0
 40
0.9999842107756365
100
AcDbArc
 50
179.9998479603879
 51
269.9857344748444
  0
ARC
  5
289
330
1F
100
AcDbEntity
  8
C4
 62
     0
100
AcDbCircle
 10
1265.408030472103
 20
1020.497046511013
 30
0.0
 40
3.999936843102541
100
AcDbArc
 50
0.0
 51
90.00021045979048
  0
ARC
  5
28A
330
1F
100
AcDbEntity
  8
C4
 62
     0
100
AcDbCircle
 10
1412.618706093013
 20
978.497709658435
 30
0.0
 40
30.9995105340447
100
AcDbArc
 50
1.500301445487486
 51
90.00021045978922
  0
ARC
  5
28B
330
1F
100
AcDbEntity
  8
C4
 62
     0
100
AcDbCircle
 10
1412.618706093013
 20
978.497709658435
 30
0.0
 40
29.99952632326908
100
AcDbArc
 50
1.500301445487379
 51
90.0002104597896
  0
ARC
  5
28C
330
1F
100
AcDbEntity
  8
C4
 62
     0
100
AcDbCircle
 10
1445.838181574978
 20
765.501072763225
 30
0.0
 40
1.499976316163453
100
AcDbArc
 50
90.00021045977745
 51
178.4998444529159
  0
ARC
  5
28D
330
1F
100
AcDbEntity
  8
C4
 62
     0
100
AcDbCircle
 10
1265.408030472103
 20
586.5058990028081
 30
0.0
 40
2.999952632326908
100
AcDbArc
 50
270.0000584192967
 51
0.0
  0
ARC
  5
28E
330
1F
100
AcDbEntity
  8
C4
 62
     0
100
AcDbCircle
 10
1273.407904158306
 20
593.5057884782361
 30
0.0
 40
4.999921053878179
100
AcDbArc
 50
90.00021045978788
 51
179.9998479603918
  0
ARC
  5
28F
330
1F
100
AcDbEntity
  8
C4
 62
     0
100
AcDbCircle
 10
1450.208112576063
 20
768.2010301323187
 30
0.0
 40
0.1999968421551273
100
AcDbArc
 50
270.0000584193315
 51
0.0
  0
ARC
  5
290
330
1F
100
AcDbEntity
  8
C4
 62
     0
100
AcDbCircle
 10
1409.738751565983
 20
628.5052358553874
 30
0.0
 40
30.9995105340447
100
AcDbArc
 50
270.0000584192954
 51
358.4996924133005
  0
ARC
  5
291
330
1F
100
AcDbEntity
  8
C4
 62
     0
100
AcDbCircle
 10
1409.738751565983
 20
628.5052358553874
 30
0.0
 40
29.99952632326908
100
AcDbArc
 50
270.000058419295
 51
358.4996924133006
  0
ARC
  5
292
330
1F
100
AcDbEntity
  8
C4
 62
     0
100
AcDbCircle
 10
1445.838181574978
 20
951.4981359674964
 30
0.0
 40
1.499976316163453
100
AcDbArc
 50
181.5004244260519
 51
270.0000584192967
  0
ARC
  5
293
330
1F
100
AcDbEntity
  8
C4
 62
     0
100
AcDbCircle
 10
1450.208112576063
 20
768.2010301323187
 30
0.0
 40
1.199981052930763
100
AcDbArc
 50
270.0000584193098
 51
0.0
  0
ARC
  5
294
330
1F
100
AcDbEntity
  8
C4
 62
     0
100
AcDbCircle
 10
1445.838181574978
 20
765.501072763225
 30
0.0
 40
2.499960526939089
100
AcDbArc
 50
90.00021045978788
 51
178.4998444529145
  0
ARC
  5
295
330
1F
100
AcDbEntity
  8
C4
 62
     0
100
AcDbCircle
 10
1450.208112576063
 20
948.7981785983991
 30
0.0
 40
1.199981052930763
100
AcDbArc
 50
0.0
 51
90.00021045977745
  0
ARC
  5
296
330
1F
100
AcDbEntity
  8
C4
 62
     0
100
AcDbCircle
 10
1450.208112576063
 20
948.7981785983991
 30
0.0
 40
0.1999968421551273
100
AcDbArc
 50
0.0
 51
90.00021045977745
  0
ARC
  5
297
330
1F
100
AcDbEntity
  8
C4
 62
     0
100
AcDbCircle
 10
1273.407904158306
 20
593.5057884782361
 30
0.0
 40
3.999936843102541
100
AcDbArc
 50
90.00021045979048
 51
179.9998479603911
  0
ARC
  5
298
330
1F
100
AcDbEntity
  8
C4
 62
     0
100
AcDbCircle
 10
1265.408030472103
 20
586.5058990028081
 30
0.0
 40
3.999936843102541
100
AcDbArc
 50
270.000058419299
 51
0.0
  0
ARC
  5
299
330
1F
100
AcDbEntity
  8
C4
 62
     0
100
AcDbCircle
 10
1254.408204153569
 20
582.502962207074
 30
0.0
 40
0.9999842107756365
100
AcDbArc
 50
90.01396144623472
 51
179.9998479603944
  0
DIMENSION
  5
29A
330
1F
100
AcDbEntity
  8
C寸法
 62
     0
370
    13
100
AcDbDimension
  2
*D12
 10
863.9082931131683
 20
433.5002725468714
 30
0.0
 11
538.9108784663993
 21
438.5707215468714
 31
0.0
 70
    32
 71
     5
 42
649.994829293538
  3
実寸
100
AcDbAlignedDimension
 13
213.9134638196302
 23
643.5006531407287
 33
0.0
 14
863.9082931131683
 24
643.5006531407287
 34
0.0
100
AcDbRotatedDimension
1001
ACAD
1000
DSTYLE
1002
{
1070
   144
1040
1.0
1002
}
  0
DIMENSION
  5
29B
330
1F
100
AcDbEntity
  8
C寸法
 62
     0
370
    13
100
AcDbDimension
  2
*D13
 10
1093.908293113167
 20
1023.500799481478
 30
0.0
 11
1076.408293113167
 21
803.5007994814785
 31
0.0
 70
    32
 71
     5
 42
440.0
  3
JIS-1
100
AcDbAlignedDimension
 13
893.9134638196302
 23
583.5007994814785
 33
0.0
 14
893.9134638196302
 24
1023.500799481478
 34
0.0
 50
90.0
100
AcDbRotatedDimension
1001
ACAD
1000
DSTYLE
1002
{
1070
   140
1040
25.0
1070
   340
1005
F3
1070
   147
1040
5.0
1070
    41
1040
25.0
1070
    42
1040
5.0
1002
}
  0
DIMENSION
  5
29C
330
1F
100
AcDbEntity
  8
C寸法
 62
     0
370
    13
100
AcDbDimension
  2
*D14
 10
1043.908293113171
 20
1008.500799481478
 30
0.0
 11
1026.408293113171
 21
803.5007994814785
 31
0.0
 70
    32
 71
     5
 42
410.0
  3
JIS-1
100
AcDbAlignedDimension
 13
893.9134638196302
 23
598.5007994814785
 33
0.0
 14
893.9134638196302
 24
1008.500799481478
 34
0.0
 50
90.0
100
AcDbRotatedDimension
1001
ACAD
1000
DSTYLE
1002
{
1070
   140
1040
25.0
1070
   340
1005
F3
1070
   147
1040
5.0
1070
    41
1040
25.0
1070
    42
1040
5.0
1002
}
  0
DIMENSION
  5
29D
330
1F
100
AcDbEntity
  8
C寸法
 62
     0
370
    13
100
AcDbDimension
  2
*D15
 10
993.9082931131671
 20
1008.500799481478
 30
0.0
 11
976.4082931131671
 21
933.5002019234196
 31
0.0
 70
    32
 71
     5
 42
150.0011951161176
  3
JIS-1
100
AcDbAlignedDimension
 13
890.2411392307174
 23
858.4996043653608
 33
0.0
 14
893.9134638196302
 24
1008.500799481478
 34
0.0
 50
90.0
100
AcDbRotatedDimension
1001
ACAD
1000
DSTYLE
1002
{
1070
   140
1040
25.0
1070
   340
1005
F3
1070
   147
1040
5.0
1070
    41
1040
25.0
1070
    42
1040
5.0
1002
}
  0
DIMENSION
  5
29E
330
1F
100
AcDbEntity
  8
C寸法
 62
     0
370
    13
100
AcDbDimension
  2
*D16
 10
1043.908293113171
 20
583.5007994814785
 30
0.0
 11
1043.908293113171
 21
509.9554125767165
 31
0.0
 70
   160
 71
     5
 42
15.0000731703758
  3
JIS-1
100
AcDbAlignedDimension
 13
538.9118784615167
 23
598.5008726518543
 33
0.0
 14
538.9118784615167
 24
583.5007994814785
 34
0.0
 50
90.0
100
AcDbRotatedDimension
1001
ACAD
1000
DSTYLE
1002
{
1070
   140
1040
25.0
1070
   340
1005
F3
1070
   147
1040
5.0
1070
    41
1040
25.0
1070
    42
1040
5.0
1002
}
  0
DIMENSION
  5
29F
330
1F
100
AcDbEntity
  8
C寸法
 62
     0
370
    13
100
AcDbDimension
  2
*D17
 10
1043.908293113171
 20
1023.500799481476
 30
0.0
 11
1043.908293113171
 21
1097.046186386238
 31
0.0
 70
   160
 71
     5
 42
14.99992682962172
  3
JIS-1
100
AcDbAlignedDimension
 13
538.911878461517
 23
1008.500872651854
 33
0.0
 14
803.9085857946667
 24
1023.500799481476
 34
0.0
 50
90.0
100
AcDbRotatedDimension
1001
ACAD
1000
DSTYLE
1002
{
1070
   140
1040
25.0
1070
   340
1005
F3
1070
   147
1040
5.0
1070
    41
1040
25.0
1070
    42
1040
5.0
1002
}
  0
DIMENSION
  5
2A0
330
1F
100
AcDbEntity
  8
C寸法
 62
     0
370
    13
100
AcDbDimension
  2
*D18
 10
1043.908293113171
 20
349.2004920579975
 30
0.0
 11
1026.408293113171
 21
254.2004920579959
 31
0.0
 70
    32
 71
     5
 42
190.0000000000032
  3
実寸
100
AcDbAlignedDimension
 13
618.4124906536491
 23
159.2004920579943
 33
0.0
 14
893.9092931082779
 24
349.2004920579975
 34
0.0
 50
90.0
100
AcDbRotatedDimension
1001
ACAD
1000
DSTYLE
1002
{
1070
   340
1005
F3
1070
   144
1040
1.0
1002
}
  0
DIMENSION
  5
2A1
330
1F
100
AcDbEntity
  8
C寸法
 62
     0
370
    13
100
AcDbDimension
  2
*D19
 10
993.9082931131708
 20
349.2004920579943
 30
0.0
 11
993.9082931131708
 21
260.6555589174664
 31
0.0
 70
   160
 71
     5
 42
14.99954623576605
  3
実寸
100
AcDbAlignedDimension
 13
851.0348476438305
 23
334.2009458222283
 33
0.0
 14
871.0393764062823
 24
349.2004920579943
 34
0.0
 50
90.0
100
AcDbRotatedDimension
1001
ACAD
1000
DSTYLE
1002
{
1070
   340
1005
F3
1070
   172
1070
     1
1070
   144
1040
1.0
1002
}
  0
LINE
  5
2A2
330
1F
100
AcDbEntity
  8
C4
 62
     0
100
AcDbLine
 10
1268.407983104447
 20
1013.497170303334
 30
0.0
 11
1268.407983104444
 21
906.8851237137726
 31
0.0
  0
LINE
  5
2A3
330
1F
100
AcDbEntity
  8
C4
 62
     0
100
AcDbLine
 10
1268.407983104436
 20
700.1167335275986
 30
0.0
 11
1268.407983104426
 21
593.5057884782361
 31
0.0
  0
DIMENSION
  5
2A4
330
1F
100
AcDbEntity
  8
C寸法
 62
     0
370
    13
100
AcDbDimension
  2
*D20
 10
448.6011052294484
 20
698.5212431763414
 30
0.0
 11
553.0876942247392
 21
698.5212431763414
 31
0.0
 70
   160
  1
Φ<>
 71
     5
 42
180.8103317708083
 52
-270.0
  3
実寸
100
AcDbAlignedDimension
 13
629.4114370002567
 23
858.4926043995017
 33
0.0
 14
448.6011052294484
 24
858.2467771136326
 34
0.0
 50
180.0
100
AcDbRotatedDimension
1001
ACAD
1000
DSTYLE
1002
{
1070
   271
1070
     0
1070
   340
1005
F3
1070
   144
1040
1.0
1002
}
  0
DIMENSION
  5
31F
102
{ACAD_REACTORS
330
321
102
}
102
{ACAD_XDICTIONARY
360
320
102
}
330
1F
100
AcDbEntity
  8
C寸法
 62
     7
370
    13
100
AcDbDimension
  2
*D21
 10
316.45109748263
 20
705.2860129940689
 30
0.0
 11
306.6627489144325
 21
695.4167379970703
 31
0.0
 70
   164
  1
4-<>
 71
     5
 42
99.99951219750278
  3
JIS-1
100
AcDbRadialDimension
 15
246.0324610444803
 25
634.2851814360497
 35
0.0
 40
0.0
1001
ACAD_DSTYLE_DIMRADIAL_EXTENSION
1070
   387
1070
     1
1070
   388
1040
3.193307458941481
1070
   390
1040
4.651402726342517
1001
ACAD
1000
DSTYLE
1002
{
1070
   147
1040
5.0
1070
   140
1040
25.0
1070
   340
1005
F3
1070
    41
1040
25.0
1070
   344
1005
90
1070
   173
1070
     1
1002
}
  0
DIMENSION
  5
32A
102
{ACAD_REACTORS
330
32C
102
}
102
{ACAD_XDICTIONARY
360
32B
102
}
330
1F
100
AcDbEntity
  8
C寸法
 62
     7
370
    13
100
AcDbDimension
  2
*D22
 10
273.9131711381307
 20
643.5006531407287
 30
0.0
 11
149.8762379235008
 21
519.8826223782753
 31
0.0
 70
   164
  1
4-<>
 71
     5
 42
59.9997073185016
  3
JIS-1
100
AcDbRadialDimension
 15
231.4152691160637
 25
601.1462767195293
 35
0.0
 40
0.0
1001
ACAD_DSTYLE_DIMRADIAL_EXTENSION
1070
   387
1070
     1
1070
   388
1040
3.141592653589793
1070
   390
1040
4.71238898038469
1001
ACAD
1000
DSTYLE
1002
{
1070
   147
1040
5.0
1070
   140
1040
25.0
1070
   340
1005
F3
1070
    41
1040
25.0
1070
   344
1005
90
1070
   173
1070
     1
1002
}
1001
ACAD_DSTYLE_DIMFLIPARROW_SYMBOL
1070
   385
1070
     0
1001
ACAD_DSTYLE_DIMFLIPARROW_WHICH_SYMBOL
1070
   386
1070
     3
  0
ENDSEC
  0
SECTION
  2
OBJECTS
  0
DICTIONARY
  5
C
330
0
100
AcDbDictionary
281
     1
  3
ACAD_COLOR
350
F5
  3
ACAD_DETAILVIEWSTYLE
350
DA
  3
ACAD_GROUP
350
D
  3
ACAD_IMAGE_VARS
350
6A
  3
ACAD_LAYOUT
350
1A
  3
ACAD_MATERIAL
350
97
  3
ACAD_MLEADERSTYLE
350
3F
  3
ACAD_MLINESTYLE
350
17
  3
ACAD_PLOTSETTINGS
350
19
  3
ACAD_PLOTSTYLENAME
350
E
  3
ACAD_SCALELIST
350
40
  3
ACAD_SECTIONVIEWSTYLE
350
DB
  3
ACAD_TABLESTYLE
350
3B
  3
ACDB_RECOMPOSE_DATA
350
364
  3
AcDbVariableDictionary
350
3D
  3
APPDATA
350
96
  0
DICTIONARY
  5
212
330
2
100
AcDbDictionary
280
     1
281
     1
  3
ACAD_LAYERSTATES
360
213
  0
DICTIONARY
  5
320
330
31F
100
AcDbDictionary
280
     1
281
     1
  3
ACAD_DIMASSOC
360
321
  0
DICTIONARY
  5
32B
330
32A
100
AcDbDictionary
280
     1
281
     1
  3
ACAD_DIMASSOC
360
32C
  0
DICTIONARY
  5
F5
102
{ACAD_REACTORS
330
C
102
}
330
C
100
AcDbDictionary
281
     1
  0
DICTIONARY
  5
DA
102
{ACAD_REACTORS
330
C
102
}
330
C
100
AcDbDictionary
281
     1
  0
DICTIONARY
  5
D
102
{ACAD_REACTORS
330
C
102
}
330
C
100
AcDbDictionary
281
     1
  0
RASTERVARIABLES
  5
6A
102
{ACAD_REACTORS
330
C
102
}
330
C
100
AcDbRasterVariables
 90
        0
 70
     1
 71
     1
 72
     1
  0
DICTIONARY
  5
1A
102
{ACAD_REACTORS
330
C
102
}
330
C
100
AcDbDictionary
281
     1
  3
Model
350
22
  3
Sheet1
350
1E
  3
Sheet2
350
26
  0
DICTIONARY
  5
97
102
{ACAD_REACTORS
330
C
102
}
330
C
100
AcDbDictionary
281
     1
  3
ByBlock
350
99
  3
ByLayer
350
98
  3
Global
350
9A
  0
DICTIONARY
  5
3F
102
{ACAD_REACTORS
330
C
102
}
330
C
100
AcDbDictionary
281
     1
  3
Standard
350
DC
  0
DICTIONARY
  5
17
102
{ACAD_REACTORS
330
C
102
}
330
C
100
AcDbDictionary
281
     1
  3
Standard
350
18
  0
DICTIONARY
  5
19
102
{ACAD_REACTORS
330
C
102
}
330
C
100
AcDbDictionary
281
     1
  0
ACDBDICTIONARYWDFLT
  5
E
102
{ACAD_REACTORS
330
C
102
}
330
C
100
AcDbDictionary
281
     1
  3
Normal
350
F
100
AcDbDictionaryWithDefault
340
F
  0
DICTIONARY
  5
40
102
{ACAD_REACTORS
330
C
102
}
330
C
100
AcDbDictionary
281
     1
  3
A0
350
41
  3
A1
350
42
  3
A2
350
43
  3
A3
350
44
  3
A4
350
45
  3
A5
350
46
  3
A6
350
47
  3
A7
350
48
  3
A8
350
49
  3
A9
350
4A
  3
B0
350
4B
  3
B1
350
4C
  3
B2
350
4D
  3
B3
350
4E
  3
B4
350
4F
  3
B5
350
50
  3
B6
350
51
  3
B7
350
52
  3
B8
350
53
  3
B9
350
54
  3
C0
350
55
  3
C1
350
56
  3
C2
350
57
  3
C3
350
58
  3
C4
350
59
  3
C5
350
5A
  3
C6
350
5B
  3
C7
350
5C
  3
C8
350
5D
  3
C9
350
5E
  3
D0
350
5F
  3
D1
350
60
  3
D2
350
61
  0
DICTIONARY
  5
DB
102
{ACAD_REACTORS
330
C
102
}
330
C
100
AcDbDictionary
281
     1
  0
DICTIONARY
  5
3B
102
{ACAD_REACTORS
330
C
102
}
330
C
100
AcDbDictionary
281
     1
  3
Standard
350
3C
  0
XRECORD
  5
364
102
{ACAD_REACTORS
330
C
102
}
330
C
100
AcDbXrecord
280
     1
 90
        1
330
3C
  0
DICTIONARY
  5
3D
102
{ACAD_REACTORS
330
C
102
}
330
C
100
AcDbDictionary
281
     1
  3
CANNOSCALE
350
62
  3
CMLEADERSTYLE
350
338
  3
CTABLESTYLE
350
3E
  3
LIGHTSINBLOCKS
350
6F
  3
MSLTSCALE
350
365
  3
XCLIPFRAME
350
70
  0
DICTIONARY
  5
96
102
{ACAD_REACTORS
330
C
102
}
330
C
100
AcDbDictionary
281
     1
  0
DICTIONARY
  5
213
102
{ACAD_REACTORS
330
212
102
}
330
212
100
AcDbDictionary
281
     1
  0
DIMASSOC
  5
321
102
{ACAD_REACTORS
330
320
102
}
330
320
100
AcDbDimAssoc
330
31F
 90
        2
 70
     0
 71
     1
  1
AcDbOsnapPointRef
 72
     3
331
25D
 73
     0
 91
        0
 40
0.0
 10
0.0
 20
0.0
 30
0.0
 75
     0
  0
DIMASSOC
  5
32C
102
{ACAD_REACTORS
330
32B
102
}
330
32B
100
AcDbDimAssoc
330
32A
 90
        2
 70
     0
 71
     1
  1
AcDbOsnapPointRef
 72
     3
331
249
 73
     0
 91
        0
 40
0.0
 10
0.0
 20
0.0
 30
0.0
 75
     0
  0
LAYOUT
  5
22
102
{ACAD_REACTORS
330
1A
102
}
330
1A
100
AcDbPlotSettings
  1

  2
none_device
  4
ISO_A3_(420.00_x_297.00_MM)
  6

 40
7.5
 41
20.0
 42
7.5
 43
20.0
 44
420.0
 45
297.0
 46
20.78282828282826
 47
0.0
 48
0.0
 49
0.0
140
0.0
141
0.0
142
1.0
143
1.155642023346303
 70
  1204
 72
     1
 73
     0
 74
     1
  7
monochrome.ctb
 75
     0
 76
     0
 77
     2
 78
   300
147
0.8653198653198654
148
-134.1869158878504
149
0.0
100
AcDbLayout
  1
Model
 70
     1
 71
     0
 10
0.0
 20
0.0
 11
420.0
 21
297.0
 12
0.0
 22
0.0
 32
0.0
 14
3.637261060755463
 24
4.596383379700228
 34
0.0
 15
1803.692920303302
 25
1206.144871287193
 35
0.0
146
0.0
 13
0.0
 23
0.0
 33
0.0
 16
1.0
 26
0.0
 36
0.0
 17
0.0
 27
1.0
 37
0.0
 76
     0
330
1F
331
29
  0
LAYOUT
  5
1E
102
{ACAD_REACTORS
330
1A
102
}
330
1A
100
AcDbPlotSettings
  1

  2
none_device
  4

  6

 40
0.0
 41
0.0
 42
0.0
 43
0.0
 44
0.0
 45
0.0
 46
0.0
 47
0.0
 48
0.0
 49
0.0
140
0.0
141
0.0
142
1.0
143
1.0
 70
   688
 72
     0
 73
     0
 74
     5
  7

 75
    16
 76
     0
 77
     2
 78
   300
147
1.0
148
0.0
149
0.0
100
AcDbLayout
  1
Sheet1
 70
     1
 71
     1
 10
0.0
 20
0.0
 11
420.0
 21
297.0
 12
0.0
 22
0.0
 32
0.0
 14
1.000000000000000E+20
 24
1.000000000000000E+20
 34
1.000000000000000E+20
 15
-1.000000000000000E+20
 25
-1.000000000000000E+20
 35
-1.000000000000000E+20
146
0.0
 13
0.0
 23
0.0
 33
0.0
 16
1.0
 26
0.0
 36
0.0
 17
0.0
 27
1.0
 37
0.0
 76
     0
330
1B
  0
LAYOUT
  5
26
102
{ACAD_REACTORS
330
1A
102
}
330
1A
100
AcDbPlotSettings
  1

  2
none_device
  4

  6

 40
0.0
 41
0.0
 42
0.0
 43
0.0
 44
0.0
 45
0.0
 46
0.0
 47
0.0
 48
0.0
 49
0.0
140
0.0
141
0.0
142
1.0
143
1.0
 70
   688
 72
     0
 73
     0
 74
     5
  7

 75
    16
 76
     0
 77
     2
 78
   300
147
1.0
148
0.0
149
0.0
100
AcDbLayout
  1
Sheet2
 70
     1
 71
     2
 10
0.0
 20
0.0
 11
0.0
 21
0.0
 12
0.0
 22
0.0
 32
0.0
 14
0.0
 24
0.0
 34
0.0
 15
0.0
 25
0.0
 35
0.0
146
0.0
 13
0.0
 23
0.0
 33
0.0
 16
1.0
 26
0.0
 36
0.0
 17
0.0
 27
1.0
 37
0.0
 76
     0
330
23
  0
MATERIAL
  5
99
102
{ACAD_REACTORS
330
97
102
}
330
97
100
AcDbMaterial
  1
ByBlock
  0
MATERIAL
  5
98
102
{ACAD_REACTORS
330
97
102
}
330
97
100
AcDbMaterial
  1
ByLayer
  0
MATERIAL
  5
9A
102
{ACAD_REACTORS
330
97
102
}
330
97
100
AcDbMaterial
  1
Global
  0
MLEADERSTYLE
  5
DC
102
{ACAD_REACTORS
330
3F
102
}
330
3F
100
AcDbMLeaderStyle
170
     2
171
     1
172
     0
 90
        2
 40
0.0
 41
0.0
173
     1
 91
-1056964608
340
14
 92
       -2
290
     1
 42
2.0
291
     1
 43
8.0
  3
Standard
341
0
 44
4.0
300

342
11
174
     1
178
     6
175
     1
176
     0
 93
-1056964608
 45
4.0
292
     0
297
     0
 46
4.0
343
0
 94
-1056964608
 47
1.0
 49
1.0
140
1.0
293
     1
141
0.0
294
     1
177
     0
142
1.0
295
     0
296
     0
143
3.75
1001
ACAD_MLEADERVER
1070
     2
  0
MLINESTYLE
  5
18
102
{ACAD_REACTORS
330
17
102
}
330
17
100
AcDbMlineStyle
  2
Standard
 70
     0
  3

 62
   256
 51
90.0
 52
90.0
 71
     2
 49
0.5
 62
   256
  6
BYLAYER
 49
-0.5
 62
   256
  6
BYLAYER
  0
ACDBPLACEHOLDER
  5
F
102
{ACAD_REACTORS
330
E
102
}
330
E
  0
SCALE
  5
41
102
{ACAD_REACTORS
330
40
102
}
330
40
100
AcDbScale
 70
     0
300
1:1
140
1.0
141
1.0
290
     1
  0
SCALE
  5
42
102
{ACAD_REACTORS
330
40
102
}
330
40
100
AcDbScale
 70
     0
300
1:2
140
1.0
141
2.0
290
     0
  0
SCALE
  5
43
102
{ACAD_REACTORS
330
40
102
}
330
40
100
AcDbScale
 70
     0
300
1:4
140
1.0
141
4.0
290
     0
  0
SCALE
  5
44
102
{ACAD_REACTORS
330
40
102
}
330
40
100
AcDbScale
 70
     0
300
1:5
140
1.0
141
5.0
290
     0
  0
SCALE
  5
45
102
{ACAD_REACTORS
330
40
102
}
330
40
100
AcDbScale
 70
     0
300
1:8
140
1.0
141
8.0
290
     0
  0
SCALE
  5
46
102
{ACAD_REACTORS
330
40
102
}
330
40
100
AcDbScale
 70
     0
300
1:10
140
1.0
141
10.0
290
     0
  0
SCALE
  5
47
102
{ACAD_REACTORS
330
40
102
}
330
40
100
AcDbScale
 70
     0
300
1:16
140
1.0
141
16.0
290
     0
  0
SCALE
  5
48
102
{ACAD_REACTORS
330
40
102
}
330
40
100
AcDbScale
 70
     0
300
1:20
140
1.0
141
20.0
290
     0
  0
SCALE
  5
49
102
{ACAD_REACTORS
330
40
102
}
330
40
100
AcDbScale
 70
     0
300
1:30
140
1.0
141
30.0
290
     0
  0
SCALE
  5
4A
102
{ACAD_REACTORS
330
40
102
}
330
40
100
AcDbScale
 70
     0
300
1:40
140
1.0
141
40.0
290
     0
  0
SCALE
  5
4B
102
{ACAD_REACTORS
330
40
102
}
330
40
100
AcDbScale
 70
     0
300
1:50
140
1.0
141
50.0
290
     0
  0
SCALE
  5
4C
102
{ACAD_REACTORS
330
40
102
}
330
40
100
AcDbScale
 70
     0
300
1:100
140
1.0
141
100.0
290
     0
  0
SCALE
  5
4D
102
{ACAD_REACTORS
330
40
102
}
330
40
100
AcDbScale
 70
     0
300
2:1
140
2.0
141
1.0
290
     0
  0
SCALE
  5
4E
102
{ACAD_REACTORS
330
40
102
}
330
40
100
AcDbScale
 70
     0
300
4:1
140
4.0
141
1.0
290
     0
  0
SCALE
  5
4F
102
{ACAD_REACTORS
330
40
102
}
330
40
100
AcDbScale
 70
     0
300
8:1
140
8.0
141
1.0
290
     0
  0
SCALE
  5
50
102
{ACAD_REACTORS
330
40
102
}
330
40
100
AcDbScale
 70
     0
300
10:1
140
10.0
141
1.0
290
     0
  0
SCALE
  5
51
102
{ACAD_REACTORS
330
40
102
}
330
40
100
AcDbScale
 70
     0
300
100:1
140
100.0
141
1.0
290
     0
  0
SCALE
  5
52
102
{ACAD_REACTORS
330
40
102
}
330
40
100
AcDbScale
 70
     0
300
1/128" = 1'-0"
140
0.0078125
141
12.0
290
     0
  0
SCALE
  5
53
102
{ACAD_REACTORS
330
40
102
}
330
40
100
AcDbScale
 70
     0
300
1/64" = 1'-0"
140
0.015625
141
12.0
290
     0
  0
SCALE
  5
54
102
{ACAD_REACTORS
330
40
102
}
330
40
100
AcDbScale
 70
     0
300
1/32" = 1'-0"
140
0.03125
141
12.0
290
     0
  0
SCALE
  5
55
102
{ACAD_REACTORS
330
40
102
}
330
40
100
AcDbScale
 70
     0
300
1/16" = 1'-0"
140
0.0625
141
12.0
290
     0
  0
SCALE
  5
56
102
{ACAD_REACTORS
330
40
102
}
330
40
100
AcDbScale
 70
     0
300
3/32" = 1'-0"
140
0.09375
141
12.0
290
     0
  0
SCALE
  5
57
102
{ACAD_REACTORS
330
40
102
}
330
40
100
AcDbScale
 70
     0
300
1/8" = 1'-0"
140
0.125
141
12.0
290
     0
  0
SCALE
  5
58
102
{ACAD_REACTORS
330
40
102
}
330
40
100
AcDbScale
 70
     0
300
3/16" = 1'-0"
140
0.1875
141
12.0
290
     0
  0
SCALE
  5
59
102
{ACAD_REACTORS
330
40
102
}
330
40
100
AcDbScale
 70
     0
300
1/4" = 1'-0"
140
0.25
141
12.0
290
     0
  0
SCALE
  5
5A
102
{ACAD_REACTORS
330
40
102
}
330
40
100
AcDbScale
 70
     0
300
3/8" = 1'-0"
140
0.375
141
12.0
290
     0
  0
SCALE
  5
5B
102
{ACAD_REACTORS
330
40
102
}
330
40
100
AcDbScale
 70
     0
300
1/2" = 1'-0"
140
0.5
141
12.0
290
     0
  0
SCALE
  5
5C
102
{ACAD_REACTORS
330
40
102
}
330
40
100
AcDbScale
 70
     0
300
3/4" = 1'-0"
140
0.75
141
12.0
290
     0
  0
SCALE
  5
5D
102
{ACAD_REACTORS
330
40
102
}
330
40
100
AcDbScale
 70
     0
300
1" = 1'-0"
140
1.0
141
12.0
290
     0
  0
SCALE
  5
5E
102
{ACAD_REACTORS
330
40
102
}
330
40
100
AcDbScale
 70
     0
300
1-1/2" = 1'-0"
140
1.5
141
12.0
290
     0
  0
SCALE
  5
5F
102
{ACAD_REACTORS
330
40
102
}
330
40
100
AcDbScale
 70
     0
300
3" = 1'-0"
140
3.0
141
12.0
290
     0
  0
SCALE
  5
60
102
{ACAD_REACTORS
330
40
102
}
330
40
100
AcDbScale
 70
     0
300
6" = 1'-0"
140
6.0
141
12.0
290
     0
  0
SCALE
  5
61
102
{ACAD_REACTORS
330
40
102
}
330
40
100
AcDbScale
 70
     0
300
1'-0" = 1'-0"
140
12.0
141
12.0
290
     0
  0
TABLESTYLE
  5
3C
102
{ACAD_REACTORS
330
3B
102
}
102
{ACAD_XDICTIONARY
360
361
102
}
330
3B
100
AcDbTableStyle
  3
Standard
 70
     0
 71
     0
 40
1.5
 41
1.5
280
     0
281
     0
  7
Standard
140
4.5
170
     2
 62
     0
 63
   257
283
     0
274
    -2
284
     1
 64
     0
275
    -2
285
     1
 65
     0
276
    -2
286
     1
 66
     0
277
    -2
287
     1
 67
     0
278
    -2
288
     1
 68
     0
279
    -2
289
     1
 69
     0
  7
Standard
140
6.0
170
     5
 62
     0
 63
   257
283
     0
274
    -2
284
     1
 64
     0
275
    -2
285
     1
 65
     0
276
    -2
286
     1
 66
     0
277
    -2
287
     1
 67
     0
278
    -2
288
     1
 68
     0
279
    -2
289
     1
 69
     0
  7
Standard
140
4.5
170
     5
 62
     0
 63
   257
283
     0
274
    -2
284
     1
 64
     0
275
    -2
285
     1
 65
     0
276
    -2
286
     1
 66
     0
277
    -2
287
     1
 67
     0
278
    -2
288
     1
 68
     0
279
    -2
289
     1
 69
     0
  0
DICTIONARYVAR
  5
62
102
{ACAD_REACTORS
330
3D
102
}
330
3D
100
DictionaryVariables
280
     0
  1
1:1
  0
DICTIONARYVAR
  5
338
102
{ACAD_REACTORS
330
3D
102
}
330
3D
100
DictionaryVariables
280
     0
  1
Standard
  0
DICTIONARYVAR
  5
3E
102
{ACAD_REACTORS
330
3D
102
}
330
3D
100
DictionaryVariables
280
     0
  1
Standard
  0
DICTIONARYVAR
  5
6F
102
{ACAD_REACTORS
330
3D
102
}
330
3D
100
DictionaryVariables
280
     0
  1
0
  0
DICTIONARYVAR
  5
365
102
{ACAD_REACTORS
330
3D
102
}
330
3D
100
DictionaryVariables
280
     0
  1
0
  0
DICTIONARYVAR
  5
70
102
{ACAD_REACTORS
330
3D
102
}
330
3D
100
DictionaryVariables
280
     0
  1
0
  0
DICTIONARY
  5
361
330
3C
100
AcDbDictionary
280
     1
281
     1
  3
ACAD_ROUNDTRIP_2008_TABLESTYLE_CELLSTYLEMAP
360
363
  3
ACAD_XREC_ROUNDTRIP
360
362
  0
CELLSTYLEMAP
  5
363
102
{ACAD_REACTORS
330
361
102
}
330
361
100
AcDbCellStyleMap
 90
        3
300
CELLSTYLE
  1
TABLEFORMAT_BEGIN
 90
        5
170
     1
 91
        0
 92
    32768
 62
   257
 93
        1
300
CONTENTFORMAT
  1
CONTENTFORMAT_BEGIN
 90
        0
 91
        0
 92
      512
 93
        0
300

 40
0.0
140
1.0
 94
        5
 62
     0
340
11
144
6.0
309
CONTENTFORMAT_END
171
     1
301
MARGIN
  1
CELLMARGIN_BEGIN
 40
1.5
 40
1.5
 40
1.5
 40
1.5
 40
0.18
 40
0.18
309
CELLMARGIN_END
 94
        6
 95
        1
302
GRIDFORMAT
  1
GRIDFORMAT_BEGIN
 90
        0
 91
        1
 62
     0
 92
       -2
340
0
 93
        0
 40
0.045
309
GRIDFORMAT_END
 95
        2
302
GRIDFORMAT
  1
GRIDFORMAT_BEGIN
 90
        0
 91
        1
 62
     0
 92
       -2
340
0
 93
        0
 40
0.045
309
GRIDFORMAT_END
 95
        4
302
GRIDFORMAT
  1
GRIDFORMAT_BEGIN
 90
        0
 91
        1
 62
     0
 92
       -2
340
0
 93
        0
 40
0.045
309
GRIDFORMAT_END
 95
        8
302
GRIDFORMAT
  1
GRIDFORMAT_BEGIN
 90
        0
 91
        1
 62
     0
 92
       -2
340
0
 93
        0
 40
0.045
309
GRIDFORMAT_END
 95
       16
302
GRIDFORMAT
  1
GRIDFORMAT_BEGIN
 90
        0
 91
        1
 62
     0
 92
       -2
340
0
 93
        0
 40
0.045
309
GRIDFORMAT_END
 95
       32
302
GRIDFORMAT
  1
GRIDFORMAT_BEGIN
 90
        0
 91
        1
 62
     0
 92
       -2
340
0
 93
        0
 40
0.045
309
GRIDFORMAT_END
309
TABLEFORMAT_END
  1
CELLSTYLE_BEGIN
 90
        1
 91
        1
300
_TITLE
309
CELLSTYLE_END
300
CELLSTYLE
  1
TABLEFORMAT_BEGIN
 90
        5
170
     1
 91
        0
 92
        0
 62
   257
 93
        1
300
CONTENTFORMAT
  1
CONTENTFORMAT_BEGIN
 90
        0
 91
        0
 92
      512
 93
        0
300

 40
0.0
140
1.0
 94
        5
 62
     0
340
11
144
4.5
309
CONTENTFORMAT_END
171
     1
301
MARGIN
  1
CELLMARGIN_BEGIN
 40
1.5
 40
1.5
 40
1.5
 40
1.5
 40
0.18
 40
0.18
309
CELLMARGIN_END
 94
        6
 95
        1
302
GRIDFORMAT
  1
GRIDFORMAT_BEGIN
 90
        0
 91
        1
 62
     0
 92
       -2
340
0
 93
        0
 40
0.045
309
GRIDFORMAT_END
 95
        2
302
GRIDFORMAT
  1
GRIDFORMAT_BEGIN
 90
        0
 91
        1
 62
     0
 92
       -2
340
0
 93
        0
 40
0.045
309
GRIDFORMAT_END
 95
        4
302
GRIDFORMAT
  1
GRIDFORMAT_BEGIN
 90
        0
 91
        1
 62
     0
 92
       -2
340
0
 93
        0
 40
0.045
309
GRIDFORMAT_END
 95
        8
302
GRIDFORMAT
  1
GRIDFORMAT_BEGIN
 90
        0
 91
        1
 62
     0
 92
       -2
340
0
 93
        0
 40
0.045
309
GRIDFORMAT_END
 95
       16
302
GRIDFORMAT
  1
GRIDFORMAT_BEGIN
 90
        0
 91
        1
 62
     0
 92
       -2
340
0
 93
        0
 40
0.045
309
GRIDFORMAT_END
 95
       32
302
GRIDFORMAT
  1
GRIDFORMAT_BEGIN
 90
        0
 91
        1
 62
     0
 92
       -2
340
0
 93
        0
 40
0.045
309
GRIDFORMAT_END
309
TABLEFORMAT_END
  1
CELLSTYLE_BEGIN
 90
        2
 91
        1
300
_HEADER
309
CELLSTYLE_END
300
CELLSTYLE
  1
TABLEFORMAT_BEGIN
 90
        5
170
     1
 91
        0
 92
        0
 62
   257
 93
        1
300
CONTENTFORMAT
  1
CONTENTFORMAT_BEGIN
 90
        0
 91
        0
 92
      512
 93
        0
300

 40
0.0
140
1.0
 94
        2
 62
     0
340
11
144
4.5
309
CONTENTFORMAT_END
171
     1
301
MARGIN
  1
CELLMARGIN_BEGIN
 40
1.5
 40
1.5
 40
1.5
 40
1.5
 40
0.18
 40
0.18
309
CELLMARGIN_END
 94
        6
 95
        1
302
GRIDFORMAT
  1
GRIDFORMAT_BEGIN
 90
        0
 91
        1
 62
     0
 92
       -2
340
0
 93
        0
 40
0.045
309
GRIDFORMAT_END
 95
        2
302
GRIDFORMAT
  1
GRIDFORMAT_BEGIN
 90
        0
 91
        1
 62
     0
 92
       -2
340
0
 93
        0
 40
0.045
309
GRIDFORMAT_END
 95
        4
302
GRIDFORMAT
  1
GRIDFORMAT_BEGIN
 90
        0
 91
        1
 62
     0
 92
       -2
340
0
 93
        0
 40
0.045
309
GRIDFORMAT_END
 95
        8
302
GRIDFORMAT
  1
GRIDFORMAT_BEGIN
 90
        0
 91
        1
 62
     0
 92
       -2
340
0
 93
        0
 40
0.045
309
GRIDFORMAT_END
 95
       16
302
GRIDFORMAT
  1
GRIDFORMAT_BEGIN
 90
        0
 91
        1
 62
     0
 92
       -2
340
0
 93
        0
 40
0.045
309
GRIDFORMAT_END
 95
       32
302
GRIDFORMAT
  1
GRIDFORMAT_BEGIN
 90
        0
 91
        1
 62
     0
 92
       -2
340
0
 93
        0
 40
0.045
309
GRIDFORMAT_END
309
TABLEFORMAT_END
  1
CELLSTYLE_BEGIN
 90
        3
 91
        2
300
_DATA
309
CELLSTYLE_END
  0
XRECORD
  5
362
102
{ACAD_REACTORS
330
361
102
}
330
361
100
AcDbXrecord
280
     1
102
ACAD_ROUNDTRIP_PRE2007_TABLESTYLE
 90
      512
 91
        0
  1

 92
      512
 93
        0
  2

 94
      512
 95
        0
  3

  0
ENDSEC
  0
EOF
