  0
SECTION
  2
HEADER
  9
$ACADVER
  1
AC1018
  9
$ACADMAINTVER
 70
     0
  9
$DWGCODEPAGE
  3
ANSI_932
  9
$LASTSAVEDBY
  1
小谷 浩和
  9
$INSBASE
 10
0.0
 20
0.0
 30
0.0
  9
$EXTMIN
 10
41.54695940740885
 20
38.5688002080642
 30
0.0
  9
$EXTMAX
 10
1841.602618649955
 20
1240.117288115557
 30
0.0
  9
$LIMMIN
 10
0.0
 20
0.0
  9
$LIMMAX
 10
420.0
 20
297.0
  9
$ORTHOMODE
 70
     0
  9
$REGENMODE
 70
     1
  9
$FILLMODE
 70
     1
  9
$QTEXTMODE
 70
     0
  9
$MIRRTEXT
 70
     0
  9
$LTSCALE
 40
1.0
  9
$ATTMODE
 70
     1
  9
$TEXTSIZE
 40
2.5
  9
$TRACEWID
 40
1.0
  9
$TEXTSTYLE
  7
Standard
  9
$CLAYER
  8
C寸法
  9
$CELTYPE
  6
ByLayer
  9
$CECOLOR
 62
     7
  9
$CELTSCALE
 40
1.0
  9
$DISPSILH
 70
     0
  9
$DIMSCALE
 40
1.0
  9
$DIMASZ
 40
2.5
  9
$DIMEXO
 40
0.625
  9
$DIMDLI
 40
3.75
  9
$DIMRND
 40
0.0
  9
$DIMDLE
 40
0.0
  9
$DIMEXE
 40
1.25
  9
$DIMTP
 40
0.0
  9
$DIMTM
 40
0.0
  9
$DIMTXT
 40
2.5
  9
$DIMCEN
 40
2.5
  9
$DIMTSZ
 40
0.0
  9
$DIMTOL
 70
     0
  9
$DIMLIM
 70
     0
  9
$DIMTIH
 70
     0
  9
$DIMTOH
 70
     0
  9
$DIMSE1
 70
     0
  9
$DIMSE2
 70
     0
  9
$DIMTAD
 70
     1
  9
$DIMZIN
 70
     8
  9
$DIMBLK
  1
OPEN
  9
$DIMASO
 70
     1
  9
$DIMSHO
 70
     1
  9
$DIMPOST
  1

  9
$DIMAPOST
  1

  9
$DIMALT
 70
     0
  9
$DIMALTD
 70
     3
  9
$DIMALTF
 40
0.03937007874016
  9
$DIMLFAC
 40
1.0
  9
$DIMTOFL
 70
     1
  9
$DIMTVP
 40
0.0
  9
$DIMTIX
 70
     0
  9
$DIMSOXD
 70
     0
  9
$DIMSAH
 70
     0
  9
$DIMBLK1
  1

  9
$DIMBLK2
  1

  9
$DIMSTYLE
  2
JIS-1
  9
$DIMCLRD
 70
     0
  9
$DIMCLRE
 70
     0
  9
$DIMCLRT
 70
     0
  9
$DIMTFAC
 40
1.0
  9
$DIMGAP
 40
0.625
  9
$DIMJUST
 70
     0
  9
$DIMSD1
 70
     0
  9
$DIMSD2
 70
     0
  9
$DIMTOLJ
 70
     0
  9
$DIMTZIN
 70
     8
  9
$DIMALTZ
 70
     0
  9
$DIMALTTZ
 70
     0
  9
$DIMUPT
 70
     0
  9
$DIMDEC
 70
     2
  9
$DIMTDEC
 70
     2
  9
$DIMALTU
 70
     2
  9
$DIMALTTD
 70
     3
  9
$DIMTXSTY
  7
Standard
  9
$DIMAUNIT
 70
     0
  9
$DIMADEC
 70
     0
  9
$DIMALTRND
 40
0.0
  9
$DIMAZIN
 70
     0
  9
$DIMDSEP
 70
    44
  9
$DIMATFIT
 70
     3
  9
$DIMFRAC
 70
     0
  9
$DIMLDRBLK
  1
OPEN
  9
$DIMLUNIT
 70
     2
  9
$DIMLWD
 70
    -2
  9
$DIMLWE
 70
    -2
  9
$DIMTMOVE
 70
     0
  9
$LUNITS
 70
     2
  9
$LUPREC
 70
     3
  9
$SKETCHINC
 40
1.0
  9
$FILLETRAD
 40
10.0
  9
$AUNITS
 70
     0
  9
$AUPREC
 70
     0
  9
$MENU
  1
.
  9
$ELEVATION
 40
0.0
  9
$PELEVATION
 40
0.0
  9
$THICKNESS
 40
0.0
  9
$LIMCHECK
 70
     0
  9
$CHAMFERA
 40
10.0
  9
$CHAMFERB
 40
10.0
  9
$CHAMFERC
 40
20.0
  9
$CHAMFERD
 40
0.0
  9
$SKPOLY
 70
     0
  9
$TDCREATE
 40
2455023.012359514
  9
$TDUCREATE
 40
2455022.637359514
  9
$TDUPDATE
 40
2457241.74215213
  9
$TDUUPDATE
 40
2457241.36715213
  9
$TDINDWG
 40
0.0391799074
  9
$TDUSRTIMER
 40
2457241.366521562
  9
$USRTIMER
 70
     1
  9
$ANGBASE
 50
0.0
  9
$ANGDIR
 70
     0
  9
$PDMODE
 70
     0
  9
$PDSIZE
 40
0.0
  9
$PLINEWID
 40
0.0
  9
$SPLFRAME
 70
     0
  9
$SPLINETYPE
 70
     6
  9
$SPLINESEGS
 70
     8
  9
$HANDSEED
  5
411
  9
$SURFTAB1
 70
     6
  9
$SURFTAB2
 70
     6
  9
$SURFTYPE
 70
     6
  9
$SURFU
 70
     6
  9
$SURFV
 70
     6
  9
$UCSBASE
  2

  9
$UCSNAME
  2

  9
$UCSORG
 10
0.0
 20
0.0
 30
0.0
  9
$UCSXDIR
 10
1.0
 20
0.0
 30
0.0
  9
$UCSYDIR
 10
0.0
 20
1.0
 30
0.0
  9
$UCSORTHOREF
  2

  9
$UCSORTHOVIEW
 70
     0
  9
$UCSORGTOP
 10
0.0
 20
0.0
 30
0.0
  9
$UCSORGBOTTOM
 10
0.0
 20
0.0
 30
0.0
  9
$UCSORGLEFT
 10
0.0
 20
0.0
 30
0.0
  9
$UCSORGRIGHT
 10
0.0
 20
0.0
 30
0.0
  9
$UCSORGFRONT
 10
0.0
 20
0.0
 30
0.0
  9
$UCSORGBACK
 10
0.0
 20
0.0
 30
0.0
  9
$PUCSBASE
  2

  9
$PUCSNAME
  2

  9
$PUCSORG
 10
0.0
 20
0.0
 30
0.0
  9
$PUCSXDIR
 10
1.0
 20
0.0
 30
0.0
  9
$PUCSYDIR
 10
0.0
 20
1.0
 30
0.0
  9
$PUCSORTHOREF
  2

  9
$PUCSORTHOVIEW
 70
     0
  9
$PUCSORGTOP
 10
0.0
 20
0.0
 30
0.0
  9
$PUCSORGBOTTOM
 10
0.0
 20
0.0
 30
0.0
  9
$PUCSORGLEFT
 10
0.0
 20
0.0
 30
0.0
  9
$PUCSORGRIGHT
 10
0.0
 20
0.0
 30
0.0
  9
$PUCSORGFRONT
 10
0.0
 20
0.0
 30
0.0
  9
$PUCSORGBACK
 10
0.0
 20
0.0
 30
0.0
  9
$USERI1
 70
     0
  9
$USERI2
 70
     0
  9
$USERI3
 70
     0
  9
$USERI4
 70
     0
  9
$USERI5
 70
     0
  9
$USERR1
 40
0.0
  9
$USERR2
 40
0.0
  9
$USERR3
 40
0.0
  9
$USERR4
 40
0.0
  9
$USERR5
 40
0.0
  9
$WORLDVIEW
 70
     1
  9
$SHADEDGE
 70
     3
  9
$SHADEDIF
 70
    70
  9
$TILEMODE
 70
     1
  9
$MAXACTVP
 70
    64
  9
$PINSBASE
 10
0.0
 20
0.0
 30
0.0
  9
$PLIMCHECK
 70
     0
  9
$PEXTMIN
 10
1.000000000000000E+20
 20
1.000000000000000E+20
 30
1.000000000000000E+20
  9
$PEXTMAX
 10
-1.000000000000000E+20
 20
-1.000000000000000E+20
 30
-1.000000000000000E+20
  9
$PLIMMIN
 10
0.0
 20
0.0
  9
$PLIMMAX
 10
0.0
 20
0.0
  9
$UNITMODE
 70
     0
  9
$VISRETAIN
 70
     1
  9
$PLINEGEN
 70
     0
  9
$PSLTSCALE
 70
     1
  9
$TREEDEPTH
 70
  3020
  9
$CMLSTYLE
  2
Standard
  9
$CMLJUST
 70
     0
  9
$CMLSCALE
 40
20.0
  9
$PROXYGRAPHICS
 70
     1
  9
$MEASUREMENT
 70
     1
  9
$CELWEIGHT
370
    13
  9
$ENDCAPS
280
     0
  9
$JOINSTYLE
280
     0
  9
$LWDISPLAY
290
     0
  9
$INSUNITS
 70
     4
  9
$HYPERLINKBASE
  1

  9
$STYLESHEET
  1

  9
$XEDIT
290
     1
  9
$CEPSNTYPE
380
     0
  9
$PSTYLEMODE
290
     0
  9
$FINGERPRINTGUID
  2
{EC6BB858-51AA-46EC-B484-6C9CC7AB3E2E}
  9
$VERSIONGUID
  2
{FAEB1C32-E019-11D5-929B-00C0DF256EC4}
  9
$EXTNAMES
290
     1
  9
$PSVPSCALE
 40
0.0
  9
$OLESTARTUP
290
     0
  9
$SORTENTS
280
   127
  9
$INDEXCTL
280
     0
  9
$HIDETEXT
280
     1
  9
$XCLIPFRAME
290
     0
  9
$HALOGAP
280
     0
  9
$OBSCOLOR
 70
   257
  9
$OBSLTYPE
280
     0
  9
$INTERSECTIONDISPLAY
280
     0
  9
$INTERSECTIONCOLOR
 70
   257
  9
$DIMASSOC
280
     2
  9
$PROJECTNAME
  1

  0
ENDSEC
  0
SECTION
  2
CLASSES
  0
CLASS
  1
ACDBDICTIONARYWDFLT
  2
AcDbDictionaryWithDefault
  3
ObjectDBX Classes
 90
        0
 91
        4
280
     0
281
     0
  0
CLASS
  1
VISUALSTYLE
  2
AcDbVisualStyle
  3
ObjectDBX Classes
 90
     4095
 91
        4
280
     0
281
     0
  0
CLASS
  1
TABLESTYLE
  2
AcDbTableStyle
  3
ObjectDBX Classes
 90
     4095
 91
        4
280
     0
281
     0
  0
CLASS
  1
DICTIONARYVAR
  2
AcDbDictionaryVar
  3
ObjectDBX Classes
 90
        0
 91
        4
280
     0
281
     0
  0
CLASS
  1
SCALE
  2
AcDbScale
  3
ObjectDBX Classes
 90
     1153
 91
        4
280
     0
281
     0
  0
CLASS
  1
CELLSTYLEMAP
  2
AcDbCellStyleMap
  3
ObjectDBX Classes
 90
     1152
 91
        4
280
     0
281
     0
  0
CLASS
  1
RASTERVARIABLES
  2
AcDbRasterVariables
  3
ISM
 90
        0
 91
        4
280
     0
281
     0
  0
CLASS
  1
DIMASSOC
  2
AcDbDimAssoc
  3
"AcDbDimAssoc|Product Desc:     AcDim ARX App For Dimension|Company:          Autodesk, Inc.|WEB Address:      www.autodesk.com"
 90
        0
 91
        4
280
     0
281
     0
  0
CLASS
  1
MATERIAL
  2
AcDbMaterial
  3
ObjectDBX Classes
 90
     1153
 91
        4
280
     0
281
     0
  0
CLASS
  1
SUN
  2
AcDbSun
  3
SCENEOE
 90
     1153
 91
        4
280
     0
281
     0
  0
CLASS
  1
MLEADERSTYLE
  2
AcDbMLeaderStyle
  3
ACDB_MLEADERSTYLE_CLASS
 90
     4095
 91
        4
280
     0
281
     0
  0
CLASS
  1
SORTENTSTABLE
  2
AcDbSortentsTable
  3
ObjectDBX Classes
 90
        0
 91
        4
280
     0
281
     0
  0
ENDSEC
  0
SECTION
  2
TABLES
  0
TABLE
  2
VPORT
  5
8
330
0
100
AcDbSymbolTable
 70
     1
  0
VPORT
  5
29
330
8
100
AcDbSymbolTableRecord
100
AcDbViewportTableRecord
  2
*Active
 70
     0
 10
0.0
 20
0.0
 11
1.0
 21
1.0
 12
1081.441357352012
 22
791.1348134934217
 13
0.0
 23
0.0
 14
10.0
 24
10.0
 15
10.0
 25
10.0
 16
0.0
 26
0.0
 36
1.0
 17
-134.1869158878503
 27
0.0
 37
0.0
 40
2300.133239128506
 41
1.664884135472371
 42
50.0
 43
0.0
 44
0.0
 50
0.0
 51
0.0
 71
    16
 72
  1000
 73
     1
 74
     3
 75
     0
 76
     0
 77
     0
 78
     0
281
     0
 65
     1
110
0.0
120
0.0
130
0.0
111
1.0
121
0.0
131
0.0
112
0.0
122
1.0
132
0.0
 79
     0
146
0.0
  0
ENDTAB
  0
TABLE
  2
LTYPE
  5
5
330
0
100
AcDbSymbolTable
 70
     2
  0
LTYPE
  5
14
330
5
100
AcDbSymbolTableRecord
100
AcDbLinetypeTableRecord
  2
ByBlock
 70
     0
  3

 72
    65
 73
     0
 40
0.0
  0
LTYPE
  5
15
330
5
100
AcDbSymbolTableRecord
100
AcDbLinetypeTableRecord
  2
ByLayer
 70
     0
  3

 72
    65
 73
     0
 40
0.0
  0
LTYPE
  5
16
330
5
100
AcDbSymbolTableRecord
100
AcDbLinetypeTableRecord
  2
Continuous
 70
     0
  3
Solid line
 72
    65
 73
     0
 40
0.0
  0
LTYPE
  5
E2
330
5
100
AcDbSymbolTableRecord
100
AcDbLinetypeTableRecord
  2
CENTER
 70
     0
  3
 Center ____ _ ____ _ ____ _ ____ _ ____ _ ____
 72
    65
 73
     4
 40
2.0
 49
1.25
 74
     0
 49
-0.25
 74
     0
 49
0.25
 74
     0
 49
-0.25
 74
     0
  0
ENDTAB
  0
TABLE
  2
LAYER
  5
2
102
{ACAD_XDICTIONARY
360
24F
102
}
330
0
100
AcDbSymbolTable
 70
     5
  0
LAYER
  5
10
330
2
100
AcDbSymbolTableRecord
100
AcDbLayerTableRecord
  2
0
 70
     0
 62
     7
  6
Continuous
370
    -3
390
F
  0
LAYER
  5
7E
330
2
100
AcDbSymbolTableRecord
100
AcDbLayerTableRecord
  2
Defpoints
 70
     0
 62
     7
  6
Continuous
290
     0
370
    -3
390
F
  0
LAYER
  5
DE
330
2
100
AcDbSymbolTableRecord
100
AcDbLayerTableRecord
  2
C2
 70
     0
 62
     1
  6
CENTER
370
    -3
390
F
  0
LAYER
  5
E3
330
2
100
AcDbSymbolTableRecord
100
AcDbLayerTableRecord
  2
C4
 70
     0
 62
     3
  6
Continuous
370
    -3
390
F
  0
LAYER
  5
E4
330
2
100
AcDbSymbolTableRecord
100
AcDbLayerTableRecord
  2
C寸法
 70
     0
 62
     4
  6
Continuous
370
    -3
390
F
  0
ENDTAB
  0
TABLE
  2
STYLE
  5
3
330
0
100
AcDbSymbolTable
 70
     2
  0
STYLE
  5
11
330
3
100
AcDbSymbolTableRecord
100
AcDbTextStyleTableRecord
  2
Standard
 70
     0
 40
0.138
 41
1.0
 50
0.0
 71
     0
 42
2.5
  3
arial.ttf
  4

1001
ACAD
1000
Arial
1071
        0
  0
STYLE
  5
F3
330
3
100
AcDbSymbolTableRecord
100
AcDbTextStyleTableRecord
  2
KANJI
 70
     0
 40
0.0
 41
1.0
 50
0.0
 71
     0
 42
2.5
  3
romans
  4
bigfont
  0
ENDTAB
  0
TABLE
  2
VIEW
  5
6
330
0
100
AcDbSymbolTable
 70
     0
  0
ENDTAB
  0
TABLE
  2
UCS
  5
7
330
0
100
AcDbSymbolTable
 70
     0
  0
ENDTAB
  0
TABLE
  2
APPID
  5
9
330
0
100
AcDbSymbolTable
 70
    10
  0
APPID
  5
12
330
9
100
AcDbSymbolTableRecord
100
AcDbRegAppTableRecord
  2
ACAD
 70
     0
  0
APPID
  5
EE
330
9
100
AcDbSymbolTableRecord
100
AcDbRegAppTableRecord
  2
ACAD_DSTYLE_DIMBREAK
 70
     0
  0
APPID
  5
EF
330
9
100
AcDbSymbolTableRecord
100
AcDbRegAppTableRecord
  2
ACAD_DSTYLE_DIMJAG
 70
     0
  0
APPID
  5
F0
330
9
100
AcDbSymbolTableRecord
100
AcDbRegAppTableRecord
  2
ACAD_DSTYLE_DIMTALN
 70
     0
  0
APPID
  5
F1
330
9
100
AcDbSymbolTableRecord
100
AcDbRegAppTableRecord
  2
ACAD_NAV_VCDISPLAY
 70
     0
  0
APPID
  5
F2
330
9
100
AcDbSymbolTableRecord
100
AcDbRegAppTableRecord
  2
PLOTTRANSPARENCY
 70
     0
  0
APPID
  5
3A0
330
9
100
AcDbSymbolTableRecord
100
AcDbRegAppTableRecord
  2
ACAD_DSTYLE_DIMRADIAL_EXTENSION
 70
     0
  0
APPID
  5
40A
330
9
100
AcDbSymbolTableRecord
100
AcDbRegAppTableRecord
  2
ACAD_DSTYLE_DIMFLIPARROW_SYMBOL
 70
     0
  0
APPID
  5
40B
330
9
100
AcDbSymbolTableRecord
100
AcDbRegAppTableRecord
  2
ACAD_DSTYLE_DIMFLIPARROW_WHICH_SYMBOL
 70
     0
  0
APPID
  5
40F
330
9
100
AcDbSymbolTableRecord
100
AcDbRegAppTableRecord
  2
ACAD_MLEADERVER
 70
     0
  0
ENDTAB
  0
TABLE
  2
DIMSTYLE
  5
A
330
0
100
AcDbSymbolTable
 70
     5
100
AcDbDimStyleTable
  0
DIMSTYLE
105
27
330
A
100
AcDbSymbolTableRecord
100
AcDbDimStyleTableRecord
  2
ISO-25
 70
     0
 41
2.5
 42
0.625
 43
3.75
 44
1.25
 73
     0
 74
     0
 77
     1
 78
     8
140
2.5
141
2.5
143
0.03937007874016
147
0.625
171
     3
172
     1
178
     0
271
     2
272
     2
274
     3
278
    44
283
     0
284
     8
340
11
  0
DIMSTYLE
105
72
330
A
100
AcDbSymbolTableRecord
100
AcDbDimStyleTableRecord
  2
GB-1
 70
     0
 41
2.5
 42
0.625
 43
3.75
 44
1.25
 73
     0
 74
     0
 77
     1
 78
     8
140
2.5
141
2.5
143
0.03937007874016
147
0.625
171
     3
172
     1
178
     0
271
     2
272
     2
274
     3
278
    44
283
     0
284
     8
340
11
341
76
342
76
  0
DIMSTYLE
105
8E
102
{ACAD_REACTORS
330
38F
330
3A1
330
3AC
330
3F4
102
}
330
A
100
AcDbSymbolTableRecord
100
AcDbDimStyleTableRecord
  2
JIS-1
 70
     0
 41
2.5
 42
0.625
 43
3.75
 44
1.25
 73
     0
 74
     0
 77
     1
 78
     8
140
2.5
141
2.5
143
0.03937007874016
147
0.625
171
     3
172
     1
178
     0
271
     2
272
     2
274
     3
278
    44
283
     0
284
     8
340
11
341
90
342
90
  0
DIMSTYLE
105
E5
330
A
100
AcDbSymbolTableRecord
100
AcDbDimStyleTableRecord
  2
Standard
 70
     0
178
     0
340
11
  0
DIMSTYLE
105
E7
102
{ACAD_REACTORS
330
2A4
330
2A5
330
2A6
330
2A7
330
2A8
330
2A9
330
2AA
330
2AB
330
2AC
330
2AF
330
2B0
330
2F3
102
}
330
A
100
AcDbSymbolTableRecord
100
AcDbDimStyleTableRecord
  2
実寸
 70
     0
 41
25.0
 42
10.0
 43
6.0
 44
0.0
 47
5.0
 73
     0
 74
     0
 77
     1
 78
     8
140
25.0
141
0.0
144
5.0
147
5.0
178
     0
271
     1
272
     1
284
     8
340
11
341
90
342
90
1001
ACAD_DSTYLE_DIMBREAK
1070
   391
1040
0.125
1001
ACAD_DSTYLE_DIMJAG
1070
   388
1040
1.5
1001
ACAD_DSTYLE_DIMTALN
1070
   392
1070
     0
  0
ENDTAB
  0
TABLE
  2
BLOCK_RECORD
  5
1
330
0
100
AcDbSymbolTable
 70
    37
  0
BLOCK_RECORD
  5
1F
330
1
100
AcDbSymbolTableRecord
100
AcDbBlockTableRecord
  2
*Model_Space
340
22
  0
BLOCK_RECORD
  5
1B
330
1
100
AcDbSymbolTableRecord
100
AcDbBlockTableRecord
  2
*Paper_Space
340
1E
  0
BLOCK_RECORD
  5
23
330
1
100
AcDbSymbolTableRecord
100
AcDbBlockTableRecord
  2
*Paper_Space0
340
26
  0
BLOCK_RECORD
  5
76
330
1
100
AcDbSymbolTableRecord
100
AcDbBlockTableRecord
  2
_CLOSED
340
0
  0
BLOCK_RECORD
  5
90
330
1
100
AcDbSymbolTableRecord
100
AcDbBlockTableRecord
  2
_OPEN
340
0
102
{BLKREFS
331
2FA
331
2FB
331
306
331
307
331
312
331
313
331
31E
331
31F
331
32A
331
32B
331
336
331
337
331
345
331
346
331
351
331
352
331
360
331
361
331
36E
331
36F
331
37C
331
37D
331
388
331
389
331
398
331
399
331
3A9
331
3B4
331
3C2
331
3CE
331
3DA
331
3F0
331
3FF
331
16B
331
16C
331
178
331
179
331
185
331
186
331
192
331
193
331
19F
331
1A0
331
1AC
331
1AD
331
1BC
331
1BD
331
1C9
331
1CA
331
1D9
331
1DA
331
1EA
331
1EB
331
1F9
331
1FA
331
248
331
249
102
}
  0
BLOCK_RECORD
  5
2F4
330
1
100
AcDbSymbolTableRecord
100
AcDbBlockTableRecord
  2
*D17
340
0
  0
BLOCK_RECORD
  5
300
330
1
100
AcDbSymbolTableRecord
100
AcDbBlockTableRecord
  2
*D18
340
0
  0
BLOCK_RECORD
  5
30C
330
1
100
AcDbSymbolTableRecord
100
AcDbBlockTableRecord
  2
*D19
340
0
  0
BLOCK_RECORD
  5
318
330
1
100
AcDbSymbolTableRecord
100
AcDbBlockTableRecord
  2
*D20
340
0
  0
BLOCK_RECORD
  5
324
330
1
100
AcDbSymbolTableRecord
100
AcDbBlockTableRecord
  2
*D21
340
0
  0
BLOCK_RECORD
  5
330
330
1
100
AcDbSymbolTableRecord
100
AcDbBlockTableRecord
  2
*D22
340
0
  0
BLOCK_RECORD
  5
33C
330
1
100
AcDbSymbolTableRecord
100
AcDbBlockTableRecord
  2
*D23
340
0
  0
BLOCK_RECORD
  5
34B
330
1
100
AcDbSymbolTableRecord
100
AcDbBlockTableRecord
  2
*D24
340
0
  0
BLOCK_RECORD
  5
357
330
1
100
AcDbSymbolTableRecord
100
AcDbBlockTableRecord
  2
*D25
340
0
  0
BLOCK_RECORD
  5
366
330
1
100
AcDbSymbolTableRecord
100
AcDbBlockTableRecord
  2
*D26
340
0
  0
BLOCK_RECORD
  5
374
330
1
100
AcDbSymbolTableRecord
100
AcDbBlockTableRecord
  2
*D27
340
0
  0
BLOCK_RECORD
  5
382
330
1
100
AcDbSymbolTableRecord
100
AcDbBlockTableRecord
  2
*D28
340
0
  0
BLOCK_RECORD
  5
390
330
1
100
AcDbSymbolTableRecord
100
AcDbBlockTableRecord
  2
*D29
340
0
  0
BLOCK_RECORD
  5
3A4
330
1
100
AcDbSymbolTableRecord
100
AcDbBlockTableRecord
  2
*D30
340
0
  0
BLOCK_RECORD
  5
3AF
330
1
100
AcDbSymbolTableRecord
100
AcDbBlockTableRecord
  2
*D31
340
0
  0
BLOCK_RECORD
  5
3F7
330
1
100
AcDbSymbolTableRecord
100
AcDbBlockTableRecord
  2
*D36
340
0
  0
ENDTAB
  0
ENDSEC
  0
SECTION
  2
BLOCKS
  0
BLOCK
  5
20
330
1F
100
AcDbEntity
  8
0
100
AcDbBlockBegin
  2
*Model_Space
 70
     0
 10
0.0
 20
0.0
 30
0.0
  3
*Model_Space
  1
*Model_Space
  0
ENDBLK
  5
21
330
1F
100
AcDbEntity
  8
0
100
AcDbBlockEnd
  0
BLOCK
  5
1C
330
1B
100
AcDbEntity
 67
     1
  8
0
100
AcDbBlockBegin
  2
*Paper_Space
 70
     0
 10
0.0
 20
0.0
 30
0.0
  3
*Paper_Space
  1
*Paper_Space
  0
ENDBLK
  5
1D
330
1B
100
AcDbEntity
 67
     1
  8
0
100
AcDbBlockEnd
  0
BLOCK
  5
24
330
23
100
AcDbEntity
  8
0
100
AcDbBlockBegin
  2
*Paper_Space0
 70
     0
 10
0.0
 20
0.0
 30
0.0
  3
*Paper_Space0
  1
*Paper_Space0
  0
ENDBLK
  5
25
330
23
100
AcDbEntity
  8
0
100
AcDbBlockEnd
  0
BLOCK
  5
77
330
76
100
AcDbEntity
  8
0
100
AcDbBlockBegin
  2
_CLOSED
 70
     0
 10
0.0
 20
0.0
 30
0.0
  3
_CLOSED
  1
_CLOSED
  0
LINE
  5
78
330
76
100
AcDbEntity
  8
0
  6
ByBlock
 62
     0
370
    -2
100
AcDbLine
 10
-1.0
 20
0.166667
 30
0.0
 11
0.0
 21
0.0
 31
0.0
  0
LINE
  5
79
330
76
100
AcDbEntity
  8
0
  6
ByBlock
 62
     0
370
    -2
100
AcDbLine
 10
0.0
 20
0.0
 30
0.0
 11
-1.0
 21
-0.166667
 31
0.0
  0
LINE
  5
7A
330
76
100
AcDbEntity
  8
0
  6
ByBlock
 62
     0
370
    -2
100
AcDbLine
 10
-1.0
 20
0.166667
 30
0.0
 11
-1.0
 21
-0.166667
 31
0.0
  0
LINE
  5
7B
330
76
100
AcDbEntity
  8
0
  6
ByBlock
 62
     0
370
    -2
100
AcDbLine
 10
0.0
 20
0.0
 30
0.0
 11
-1.0
 21
0.0
 31
0.0
  0
ENDBLK
  5
7C
330
76
100
AcDbEntity
  8
0
100
AcDbBlockEnd
  0
BLOCK
  5
91
330
90
100
AcDbEntity
  8
0
100
AcDbBlockBegin
  2
_OPEN
 70
     0
 10
0.0
 20
0.0
 30
0.0
  3
_OPEN
  1
_OPEN
  0
LINE
  5
92
330
90
100
AcDbEntity
  8
0
  6
ByBlock
 62
     0
370
    -2
100
AcDbLine
 10
-1.0
 20
0.166667
 30
0.0
 11
0.0
 21
0.0
 31
0.0
  0
LINE
  5
93
330
90
100
AcDbEntity
  8
0
  6
ByBlock
 62
     0
370
    -2
100
AcDbLine
 10
-1.0
 20
-0.166667
 30
0.0
 11
0.0
 21
0.0
 31
0.0
  0
LINE
  5
94
330
90
100
AcDbEntity
  8
0
  6
ByBlock
 62
     0
370
    -2
100
AcDbLine
 10
0.0
 20
0.0
 30
0.0
 11
-1.0
 21
0.0
 31
0.0
  0
ENDBLK
  5
95
330
90
100
AcDbEntity
  8
0
100
AcDbBlockEnd
  0
BLOCK
  5
2F5
330
2F4
100
AcDbEntity
  8
0
100
AcDbBlockBegin
  2
*D17
 70
     1
 10
0.0
 20
0.0
 30
0.0
  3
*D17
  1
*D17
  0
LINE
  5
2F7
330
2F4
100
AcDbEntity
  8
C寸法
 62
     0
370
    -2
100
AcDbLine
 10
231.668102921964
 20
629.5197173377715
 30
0.0
 11
231.6681029219641
 21
429.5197173377496
 31
0.0
  0
LINE
  5
2F8
330
2F4
100
AcDbEntity
  8
C寸法
 62
     0
370
    -2
100
AcDbLine
 10
881.6661029221917
 20
629.5197173377715
 30
0.0
 11
881.6661029221917
 21
429.5197173377496
 31
0.0
  0
LINE
  5
2F9
330
2F4
100
AcDbEntity
  8
C寸法
 62
     0
370
    -2
100
AcDbLine
 10
256.6681029219641
 20
429.5197173377496
 30
0.0
 11
856.6661029221917
 21
429.5197173377496
 31
0.0
  0
INSERT
  5
2FA
330
2F4
100
AcDbEntity
  8
C寸法
 62
     0
370
    -2
100
AcDbBlockReference
  2
_OPEN
 10
231.6681029219641
 20
429.5197173377496
 30
0.0
 41
25.0
 42
25.0
 43
25.0
 50
180.0
  0
INSERT
  5
2FB
330
2F4
100
AcDbEntity
  8
C寸法
 62
     0
370
    -2
100
AcDbBlockReference
  2
_OPEN
 10
881.6661029221917
 20
429.5197173377496
 30
0.0
 41
25.0
 42
25.0
 43
25.0
  0
MTEXT
  5
2FC
330
2F4
100
AcDbEntity
  8
C寸法
 62
     0
370
    13
100
AcDbMText
 10
556.6671029220779
 20
447.0197173377496
 30
0.0
 40
25.0
 41
0.0
 71
     5
 72
     1
  1
\A1;650
  7
KANJI
 73
     1
 44
1.0
  0
POINT
  5
2FD
330
2F4
100
AcDbEntity
  8
Defpoints
 62
     0
100
AcDbPoint
 10
231.668102921964
 20
639.5197173377715
 30
0.0
  0
POINT
  5
2FE
330
2F4
100
AcDbEntity
  8
Defpoints
 62
     0
100
AcDbPoint
 10
881.6661029221917
 20
639.5197173377715
 30
0.0
  0
POINT
  5
2FF
330
2F4
100
AcDbEntity
  8
Defpoints
 62
     0
100
AcDbPoint
 10
881.6661029221917
 20
429.5197173377496
 30
0.0
  0
ENDBLK
  5
2F6
330
2F4
100
AcDbEntity
  8
0
100
AcDbBlockEnd
  0
BLOCK
  5
301
330
300
100
AcDbEntity
  8
0
100
AcDbBlockBegin
  2
*D18
 70
     1
 10
0.0
 20
0.0
 30
0.0
  3
*D18
  1
*D18
  0
LINE
  5
303
330
300
100
AcDbEntity
  8
C寸法
 62
     0
370
    -2
100
AcDbLine
 10
921.6681029221963
 20
1099.51971733775
 30
0.0
 11
1161.668102922193
 21
1099.51971733775
 31
0.0
  0
LINE
  5
304
330
300
100
AcDbEntity
  8
C寸法
 62
     0
370
    -2
100
AcDbLine
 10
921.6681029221963
 20
579.5197173377496
 30
0.0
 11
1161.668102922193
 21
579.5197173377496
 31
0.0
  0
LINE
  5
305
330
300
100
AcDbEntity
  8
C寸法
 62
     0
370
    -2
100
AcDbLine
 10
1161.668102922193
 20
1074.51971733775
 30
0.0
 11
1161.668102922193
 21
604.5197173377496
 31
0.0
  0
INSERT
  5
306
330
300
100
AcDbEntity
  8
C寸法
 62
     0
370
    -2
100
AcDbBlockReference
  2
_OPEN
 10
1161.668102922193
 20
1099.51971733775
 30
0.0
 41
25.0
 42
25.0
 43
25.0
 50
90.0
  0
INSERT
  5
307
330
300
100
AcDbEntity
  8
C寸法
 62
     0
370
    -2
100
AcDbBlockReference
  2
_OPEN
 10
1161.668102922193
 20
579.5197173377496
 30
0.0
 41
25.0
 42
25.0
 43
25.0
 50
270.0
  0
MTEXT
  5
308
330
300
100
AcDbEntity
  8
C寸法
 62
     0
370
    13
100
AcDbMText
 10
1144.168102922193
 20
839.5197173377496
 30
0.0
 40
25.0
 41
0.0
 71
     5
 72
     1
  1
\A1;520
  7
KANJI
 11
0.0
 21
1.0
 31
0.0
 73
     1
 44
1.0
  0
POINT
  5
309
330
300
100
AcDbEntity
  8
Defpoints
 62
     0
100
AcDbPoint
 10
911.6681029221963
 20
1099.51971733775
 30
0.0
  0
POINT
  5
30A
330
300
100
AcDbEntity
  8
Defpoints
 62
     0
100
AcDbPoint
 10
911.6681029221963
 20
579.5197173377496
 30
0.0
  0
POINT
  5
30B
330
300
100
AcDbEntity
  8
Defpoints
 62
     0
100
AcDbPoint
 10
1161.668102922193
 20
579.5197173377496
 30
0.0
  0
ENDBLK
  5
302
330
300
100
AcDbEntity
  8
0
100
AcDbBlockEnd
  0
BLOCK
  5
30D
330
30C
100
AcDbEntity
  8
0
100
AcDbBlockBegin
  2
*D19
 70
     1
 10
0.0
 20
0.0
 30
0.0
  3
*D19
  1
*D19
  0
LINE
  5
30F
330
30C
100
AcDbEntity
  8
C寸法
 62
     0
370
    -2
100
AcDbLine
 10
921.6681029221963
 20
1004.51971733775
 30
0.0
 11
1011.668102922196
 21
1004.51971733775
 31
0.0
  0
LINE
  5
310
330
30C
100
AcDbEntity
  8
C寸法
 62
     0
370
    -2
100
AcDbLine
 10
913.3283302055903
 20
854.5607806955035
 30
0.0
 11
1011.668102922196
 21
854.5607806955035
 31
0.0
  0
LINE
  5
311
330
30C
100
AcDbEntity
  8
C寸法
 62
     0
370
    -2
100
AcDbLine
 10
1011.668102922196
 20
979.5197173377496
 30
0.0
 11
1011.668102922196
 21
879.5607806955035
 31
0.0
  0
INSERT
  5
312
330
30C
100
AcDbEntity
  8
C寸法
 62
     0
370
    -2
100
AcDbBlockReference
  2
_OPEN
 10
1011.668102922196
 20
1004.51971733775
 30
0.0
 41
25.0
 42
25.0
 43
25.0
 50
90.0
  0
INSERT
  5
313
330
30C
100
AcDbEntity
  8
C寸法
 62
     0
370
    -2
100
AcDbBlockReference
  2
_OPEN
 10
1011.668102922196
 20
854.5607806955035
 30
0.0
 41
25.0
 42
25.0
 43
25.0
 50
270.0
  0
MTEXT
  5
314
330
30C
100
AcDbEntity
  8
C寸法
 62
     0
370
    13
100
AcDbMText
 10
994.1681029221963
 20
929.5402490166266
 30
0.0
 40
25.0
 41
0.0
 71
     5
 72
     1
  1
\A1;150
  7
KANJI
 11
0.0
 21
1.0
 31
0.0
 73
     1
 44
1.0
  0
POINT
  5
315
330
30C
100
AcDbEntity
  8
Defpoints
 62
     0
100
AcDbPoint
 10
911.6681029221963
 20
1004.51971733775
 30
0.0
  0
POINT
  5
316
330
30C
100
AcDbEntity
  8
Defpoints
 62
     0
100
AcDbPoint
 10
903.3283302055903
 20
854.5607806955035
 30
0.0
  0
POINT
  5
317
330
30C
100
AcDbEntity
  8
Defpoints
 62
     0
100
AcDbPoint
 10
1011.668102922196
 20
854.5607806955035
 30
0.0
  0
ENDBLK
  5
30E
330
30C
100
AcDbEntity
  8
0
100
AcDbBlockEnd
  0
BLOCK
  5
319
330
318
100
AcDbEntity
  8
0
100
AcDbBlockBegin
  2
*D20
 70
     1
 10
0.0
 20
0.0
 30
0.0
  3
*D20
  1
*D20
  0
LINE
  5
31B
330
318
100
AcDbEntity
  8
C寸法
 62
     0
370
    -2
100
AcDbLine
 10
921.6681029221963
 20
1019.51971733775
 30
0.0
 11
1111.668102922196
 21
1019.51971733775
 31
0.0
  0
LINE
  5
31C
330
318
100
AcDbEntity
  8
C寸法
 62
     0
370
    -2
100
AcDbLine
 10
844.9445674262453
 20
1099.51971733775
 30
0.0
 11
1111.668102922196
 21
1099.51971733775
 31
0.0
  0
LINE
  5
31D
330
318
100
AcDbEntity
  8
C寸法
 62
     0
370
    -2
100
AcDbLine
 10
1111.668102922196
 20
1044.51971733775
 30
0.0
 11
1111.668102922196
 21
1074.51971733775
 31
0.0
  0
INSERT
  5
31E
330
318
100
AcDbEntity
  8
C寸法
 62
     0
370
    -2
100
AcDbBlockReference
  2
_OPEN
 10
1111.668102922196
 20
1019.51971733775
 30
0.0
 41
25.0
 42
25.0
 43
25.0
 50
270.0
  0
INSERT
  5
31F
330
318
100
AcDbEntity
  8
C寸法
 62
     0
370
    -2
100
AcDbBlockReference
  2
_OPEN
 10
1111.668102922196
 20
1099.51971733775
 30
0.0
 41
25.0
 42
25.0
 43
25.0
 50
90.0
  0
MTEXT
  5
320
330
318
100
AcDbEntity
  8
C寸法
 62
     0
370
    13
100
AcDbMText
 10
1094.168102922196
 20
1059.51971733775
 30
0.0
 40
25.0
 41
0.0
 71
     5
 72
     1
  1
\A1;80
  7
KANJI
 11
0.0
 21
1.0
 31
0.0
 73
     1
 44
1.0
  0
POINT
  5
321
330
318
100
AcDbEntity
  8
Defpoints
 62
     0
100
AcDbPoint
 10
911.6681029221963
 20
1019.51971733775
 30
0.0
  0
POINT
  5
322
330
318
100
AcDbEntity
  8
Defpoints
 62
     0
100
AcDbPoint
 10
834.9445674262453
 20
1099.51971733775
 30
0.0
  0
POINT
  5
323
330
318
100
AcDbEntity
  8
Defpoints
 62
     0
100
AcDbPoint
 10
1111.668102922196
 20
1099.51971733775
 30
0.0
  0
ENDBLK
  5
31A
330
318
100
AcDbEntity
  8
0
100
AcDbBlockEnd
  0
BLOCK
  5
325
330
324
100
AcDbEntity
  8
0
100
AcDbBlockBegin
  2
*D21
 70
     1
 10
0.0
 20
0.0
 30
0.0
  3
*D21
  1
*D21
  0
LINE
  5
327
330
324
100
AcDbEntity
  8
C寸法
 62
     0
370
    -2
100
AcDbLine
 10
921.6681029221963
 20
1019.51971733775
 30
0.0
 11
1111.668102922196
 21
1019.51971733775
 31
0.0
  0
LINE
  5
328
330
324
100
AcDbEntity
  8
C寸法
 62
     0
370
    -2
100
AcDbLine
 10
921.6681029221963
 20
579.5197173377496
 30
0.0
 11
1111.668102922196
 21
579.5197173377496
 31
0.0
  0
LINE
  5
329
330
324
100
AcDbEntity
  8
C寸法
 62
     0
370
    -2
100
AcDbLine
 10
1111.668102922196
 20
994.5197173377496
 30
0.0
 11
1111.668102922196
 21
604.5197173377496
 31
0.0
  0
INSERT
  5
32A
330
324
100
AcDbEntity
  8
C寸法
 62
     0
370
    -2
100
AcDbBlockReference
  2
_OPEN
 10
1111.668102922196
 20
1019.51971733775
 30
0.0
 41
25.0
 42
25.0
 43
25.0
 50
90.0
  0
INSERT
  5
32B
330
324
100
AcDbEntity
  8
C寸法
 62
     0
370
    -2
100
AcDbBlockReference
  2
_OPEN
 10
1111.668102922196
 20
579.5197173377496
 30
0.0
 41
25.0
 42
25.0
 43
25.0
 50
270.0
  0
MTEXT
  5
32C
330
324
100
AcDbEntity
  8
C寸法
 62
     0
370
    13
100
AcDbMText
 10
1094.168102922196
 20
799.5197173377496
 30
0.0
 40
25.0
 41
0.0
 71
     5
 72
     1
  1
\A1;440
  7
KANJI
 11
0.0
 21
1.0
 31
0.0
 73
     1
 44
1.0
  0
POINT
  5
32D
330
324
100
AcDbEntity
  8
Defpoints
 62
     0
100
AcDbPoint
 10
911.6681029221963
 20
1019.51971733775
 30
0.0
  0
POINT
  5
32E
330
324
100
AcDbEntity
  8
Defpoints
 62
     0
100
AcDbPoint
 10
911.6681029221963
 20
579.5197173377496
 30
0.0
  0
POINT
  5
32F
330
324
100
AcDbEntity
  8
Defpoints
 62
     0
100
AcDbPoint
 10
1111.668102922196
 20
579.5197173377496
 30
0.0
  0
ENDBLK
  5
326
330
324
100
AcDbEntity
  8
0
100
AcDbBlockEnd
  0
BLOCK
  5
331
330
330
100
AcDbEntity
  8
0
100
AcDbBlockBegin
  2
*D22
 70
     1
 10
0.0
 20
0.0
 30
0.0
  3
*D22
  1
*D22
  0
LINE
  5
333
330
330
100
AcDbEntity
  8
C寸法
 62
     0
370
    -2
100
AcDbLine
 10
921.6681029221963
 20
1004.51971733775
 30
0.0
 11
1061.668102922196
 21
1004.51971733775
 31
0.0
  0
LINE
  5
334
330
330
100
AcDbEntity
  8
C寸法
 62
     0
370
    -2
100
AcDbLine
 10
921.6681029221963
 20
594.5197173377496
 30
0.0
 11
1061.668102922196
 21
594.5197173377496
 31
0.0
  0
LINE
  5
335
330
330
100
AcDbEntity
  8
C寸法
 62
     0
370
    -2
100
AcDbLine
 10
1061.668102922196
 20
979.5197173377496
 30
0.0
 11
1061.668102922196
 21
619.5197173377496
 31
0.0
  0
INSERT
  5
336
330
330
100
AcDbEntity
  8
C寸法
 62
     0
370
    -2
100
AcDbBlockReference
  2
_OPEN
 10
1061.668102922196
 20
1004.51971733775
 30
0.0
 41
25.0
 42
25.0
 43
25.0
 50
90.0
  0
INSERT
  5
337
330
330
100
AcDbEntity
  8
C寸法
 62
     0
370
    -2
100
AcDbBlockReference
  2
_OPEN
 10
1061.668102922196
 20
594.5197173377496
 30
0.0
 41
25.0
 42
25.0
 43
25.0
 50
270.0
  0
MTEXT
  5
338
330
330
100
AcDbEntity
  8
C寸法
 62
     0
370
    13
100
AcDbMText
 10
1044.168102922196
 20
799.5197173377496
 30
0.0
 40
25.0
 41
0.0
 71
     5
 72
     1
  1
\A1;410
  7
KANJI
 11
0.0
 21
1.0
 31
0.0
 73
     1
 44
1.0
  0
POINT
  5
339
330
330
100
AcDbEntity
  8
Defpoints
 62
     0
100
AcDbPoint
 10
911.6681029221963
 20
1004.51971733775
 30
0.0
  0
POINT
  5
33A
330
330
100
AcDbEntity
  8
Defpoints
 62
     0
100
AcDbPoint
 10
911.6681029221963
 20
594.5197173377496
 30
0.0
  0
POINT
  5
33B
330
330
100
AcDbEntity
  8
Defpoints
 62
     0
100
AcDbPoint
 10
1061.668102922196
 20
594.5197173377496
 30
0.0
  0
ENDBLK
  5
332
330
330
100
AcDbEntity
  8
0
100
AcDbBlockEnd
  0
BLOCK
  5
33D
330
33C
100
AcDbEntity
  8
0
100
AcDbBlockBegin
  2
*D23
 70
     1
 10
0.0
 20
0.0
 30
0.0
  3
*D23
  1
*D23
  0
LINE
  5
33F
330
33C
100
AcDbEntity
  8
C寸法
 62
     0
370
    -2
100
AcDbLine
 10
566.6681029220802
 20
1004.519717337902
 30
0.0
 11
1061.668102922196
 21
1004.519717337902
 31
0.0
  0
LINE
  5
340
330
33C
100
AcDbEntity
  8
C寸法
 62
     0
370
    -2
100
AcDbLine
 10
566.668102922077
 20
1019.519717337906
 30
0.0
 11
1061.668102922196
 21
1019.519717337906
 31
0.0
  0
LINE
  5
341
330
33C
100
AcDbEntity
  8
C寸法
 62
     0
370
    -2
100
AcDbLine
 10
1061.668102922196
 20
1004.519717337902
 30
0.0
 11
1061.668102922196
 21
907.4289435283781
 31
0.0
  0
LINE
  5
342
330
33C
100
AcDbEntity
  8
C寸法
 62
     0
370
    -2
100
AcDbLine
 10
1061.668102922196
 20
1004.519717337902
 30
0.0
 11
1061.668102922196
 21
1019.519717337906
 31
0.0
  0
LINE
  5
343
330
33C
100
AcDbEntity
  8
C寸法
 62
     0
370
    -2
100
AcDbLine
 10
1061.668102922196
 20
979.519717337902
 30
0.0
 11
1061.668102922196
 21
954.519717337902
 31
0.0
  0
LINE
  5
344
330
33C
100
AcDbEntity
  8
C寸法
 62
     0
370
    -2
100
AcDbLine
 10
1061.668102922196
 20
1044.519717337906
 30
0.0
 11
1061.668102922196
 21
1069.519717337906
 31
0.0
  0
INSERT
  5
345
330
33C
100
AcDbEntity
  8
C寸法
 62
     0
370
    -2
100
AcDbBlockReference
  2
_OPEN
 10
1061.668102922196
 20
1004.519717337902
 30
0.0
 41
25.0
 42
25.0
 43
25.0
 50
90.0
  0
INSERT
  5
346
330
33C
100
AcDbEntity
  8
C寸法
 62
     0
370
    -2
100
AcDbBlockReference
  2
_OPEN
 10
1061.668102922196
 20
1019.519717337906
 30
0.0
 41
25.0
 42
25.0
 43
25.0
 50
270.0
  0
MTEXT
  5
347
330
33C
100
AcDbEntity
  8
C寸法
 62
     0
370
    13
100
AcDbMText
 10
1044.168102922196
 20
930.97433043314
 30
0.0
 40
25.0
 41
0.0
 71
     5
 72
     1
  1
\A1;15
  7
KANJI
 11
0.0
 21
1.0
 31
0.0
 73
     1
 44
1.0
  0
POINT
  5
348
330
33C
100
AcDbEntity
  8
Defpoints
 62
     0
100
AcDbPoint
 10
556.6681029220802
 20
1004.519717337902
 30
0.0
  0
POINT
  5
349
330
33C
100
AcDbEntity
  8
Defpoints
 62
     0
100
AcDbPoint
 10
556.668102922077
 20
1019.519717337906
 30
0.0
  0
POINT
  5
34A
330
33C
100
AcDbEntity
  8
Defpoints
 62
     0
100
AcDbPoint
 10
1061.668102922196
 20
1019.519717337906
 30
0.0
  0
ENDBLK
  5
33E
330
33C
100
AcDbEntity
  8
0
100
AcDbBlockEnd
  0
BLOCK
  5
34C
330
34B
100
AcDbEntity
  8
0
100
AcDbBlockBegin
  2
*D24
 70
     1
 10
0.0
 20
0.0
 30
0.0
  3
*D24
  1
*D24
  0
LINE
  5
34E
330
34B
100
AcDbEntity
  8
C寸法
 62
     0
370
    -2
100
AcDbLine
 10
921.6681029222
 20
345.2197173377459
 30
0.0
 11
1061.668102922196
 21
345.2197173377459
 31
0.0
  0
LINE
  5
34F
330
34B
100
AcDbEntity
  8
C寸法
 62
     0
370
    -2
100
AcDbLine
 10
659.1034216467542
 20
155.2197173376804
 30
0.0
 11
1061.668102922196
 21
155.2197173376804
 31
0.0
  0
LINE
  5
350
330
34B
100
AcDbEntity
  8
C寸法
 62
     0
370
    -2
100
AcDbLine
 10
1061.668102922196
 20
320.2197173377459
 30
0.0
 11
1061.668102922196
 21
180.2197173376804
 31
0.0
  0
INSERT
  5
351
330
34B
100
AcDbEntity
  8
C寸法
 62
     0
370
    -2
100
AcDbBlockReference
  2
_OPEN
 10
1061.668102922196
 20
345.2197173377459
 30
0.0
 41
25.0
 42
25.0
 43
25.0
 50
90.0
  0
INSERT
  5
352
330
34B
100
AcDbEntity
  8
C寸法
 62
     0
370
    -2
100
AcDbBlockReference
  2
_OPEN
 10
1061.668102922196
 20
155.2197173376804
 30
0.0
 41
25.0
 42
25.0
 43
25.0
 50
270.0
  0
MTEXT
  5
353
330
34B
100
AcDbEntity
  8
C寸法
 62
     0
370
    13
100
AcDbMText
 10
1044.168102922196
 20
250.2197173377132
 30
0.0
 40
25.0
 41
0.0
 71
     5
 72
     1
  1
\A1;190
  7
KANJI
 11
0.0
 21
1.0
 31
0.0
 73
     1
 44
1.0
  0
POINT
  5
354
330
34B
100
AcDbEntity
  8
Defpoints
 62
     0
100
AcDbPoint
 10
911.6681029222
 20
345.2197173377459
 30
0.0
  0
POINT
  5
355
330
34B
100
AcDbEntity
  8
Defpoints
 62
     0
100
AcDbPoint
 10
649.1034216467542
 20
155.2197173376804
 30
0.0
  0
POINT
  5
356
330
34B
100
AcDbEntity
  8
Defpoints
 62
     0
100
AcDbPoint
 10
1061.668102922196
 20
155.2197173376804
 30
0.0
  0
ENDBLK
  5
34D
330
34B
100
AcDbEntity
  8
0
100
AcDbBlockEnd
  0
BLOCK
  5
358
330
357
100
AcDbEntity
  8
0
100
AcDbBlockBegin
  2
*D25
 70
     1
 10
0.0
 20
0.0
 30
0.0
  3
*D25
  1
*D25
  0
LINE
  5
35A
330
357
100
AcDbEntity
  8
C寸法
 62
     0
370
    -2
100
AcDbLine
 10
566.6670703448622
 20
594.5197173378956
 30
0.0
 11
1061.668102922196
 21
594.5197173378956
 31
0.0
  0
LINE
  5
35B
330
357
100
AcDbEntity
  8
C寸法
 62
     0
370
    -2
100
AcDbLine
 10
566.6681029220797
 20
579.5197173377475
 30
0.0
 11
1061.668102922196
 21
579.5197173377475
 31
0.0
  0
LINE
  5
35C
330
357
100
AcDbEntity
  8
C寸法
 62
     0
370
    -2
100
AcDbLine
 10
1061.668102922196
 20
579.5197173377475
 30
0.0
 11
1061.668102922196
 21
482.4289435282236
 31
0.0
  0
LINE
  5
35D
330
357
100
AcDbEntity
  8
C寸法
 62
     0
370
    -2
100
AcDbLine
 10
1061.668102922196
 20
594.5197173378956
 30
0.0
 11
1061.668102922196
 21
579.5197173377475
 31
0.0
  0
LINE
  5
35E
330
357
100
AcDbEntity
  8
C寸法
 62
     0
370
    -2
100
AcDbLine
 10
1061.668102922196
 20
619.5197173378956
 30
0.0
 11
1061.668102922196
 21
644.5197173378956
 31
0.0
  0
LINE
  5
35F
330
357
100
AcDbEntity
  8
C寸法
 62
     0
370
    -2
100
AcDbLine
 10
1061.668102922196
 20
554.5197173377475
 30
0.0
 11
1061.668102922196
 21
529.5197173377475
 31
0.0
  0
INSERT
  5
360
330
357
100
AcDbEntity
  8
C寸法
 62
     0
370
    -2
100
AcDbBlockReference
  2
_OPEN
 10
1061.668102922196
 20
594.5197173378956
 30
0.0
 41
25.0
 42
25.0
 43
25.0
 50
270.0
  0
INSERT
  5
361
330
357
100
AcDbEntity
  8
C寸法
 62
     0
370
    -2
100
AcDbBlockReference
  2
_OPEN
 10
1061.668102922196
 20
579.5197173377475
 30
0.0
 41
25.0
 42
25.0
 43
25.0
 50
90.0
  0
MTEXT
  5
362
330
357
100
AcDbEntity
  8
C寸法
 62
     0
370
    13
100
AcDbMText
 10
1044.168102922196
 20
505.9743304329855
 30
0.0
 40
25.0
 41
0.0
 71
     5
 72
     1
  1
\A1;15
  7
KANJI
 11
0.0
 21
1.0
 31
0.0
 73
     1
 44
1.0
  0
POINT
  5
363
330
357
100
AcDbEntity
  8
Defpoints
 62
     0
100
AcDbPoint
 10
556.6670703448622
 20
594.5197173378956
 30
0.0
  0
POINT
  5
364
330
357
100
AcDbEntity
  8
Defpoints
 62
     0
100
AcDbPoint
 10
556.6681029220797
 20
579.5197173377475
 30
0.0
  0
POINT
  5
365
330
357
100
AcDbEntity
  8
Defpoints
 62
     0
100
AcDbPoint
 10
1061.668102922196
 20
579.5197173377475
 30
0.0
  0
ENDBLK
  5
359
330
357
100
AcDbEntity
  8
0
100
AcDbBlockEnd
  0
BLOCK
  5
367
330
366
100
AcDbEntity
  8
0
100
AcDbBlockBegin
  2
*D26
 70
     1
 10
0.0
 20
0.0
 30
0.0
  3
*D26
  1
*D26
  0
LINE
  5
369
330
366
100
AcDbEntity
  8
C寸法
 62
     0
370
    -2
100
AcDbLine
 10
610.3719224660352
 20
1059.519938602323
 30
0.0
 11
1011.668102922193
 21
1059.519938602323
 31
0.0
  0
LINE
  5
36A
330
366
100
AcDbEntity
  8
C寸法
 62
     0
370
    -2
100
AcDbLine
 10
566.6681029220765
 20
1099.519717337747
 30
0.0
 11
1011.668102922193
 21
1099.519717337747
 31
0.0
  0
LINE
  5
36B
330
366
100
AcDbEntity
  8
C寸法
 62
     0
370
    -2
100
AcDbLine
 10
1011.668102922193
 20
1124.519717337747
 30
0.0
 11
1011.668102922193
 21
1199.995907813938
 31
0.0
  0
LINE
  5
36C
330
366
100
AcDbEntity
  8
C寸法
 62
     0
370
    -2
100
AcDbLine
 10
1011.668102922193
 20
1059.519938602323
 30
0.0
 11
1011.668102922193
 21
1099.519717337747
 31
0.0
  0
LINE
  5
36D
330
366
100
AcDbEntity
  8
C寸法
 62
     0
370
    -2
100
AcDbLine
 10
1011.668102922193
 20
1034.519938602323
 30
0.0
 11
1011.668102922193
 21
1009.519938602323
 31
0.0
  0
INSERT
  5
36E
330
366
100
AcDbEntity
  8
C寸法
 62
     0
370
    -2
100
AcDbBlockReference
  2
_OPEN
 10
1011.668102922193
 20
1059.519938602323
 30
0.0
 41
25.0
 42
25.0
 43
25.0
 50
90.0
  0
INSERT
  5
36F
330
366
100
AcDbEntity
  8
C寸法
 62
     0
370
    -2
100
AcDbBlockReference
  2
_OPEN
 10
1011.668102922193
 20
1099.519717337747
 30
0.0
 41
25.0
 42
25.0
 43
25.0
 50
270.0
  0
MTEXT
  5
370
330
366
100
AcDbEntity
  8
C寸法
 62
     0
370
    13
100
AcDbMText
 10
994.1681029221927
 20
1174.757812575843
 30
0.0
 40
25.0
 41
0.0
 71
     5
 72
     1
  1
\A1;40
  7
KANJI
 11
0.0
 21
1.0
 31
0.0
 73
     1
 44
1.0
  0
POINT
  5
371
330
366
100
AcDbEntity
  8
Defpoints
 62
     0
100
AcDbPoint
 10
600.3719224660352
 20
1059.519938602323
 30
0.0
  0
POINT
  5
372
330
366
100
AcDbEntity
  8
Defpoints
 62
     0
100
AcDbPoint
 10
556.6681029220765
 20
1099.519717337747
 30
0.0
  0
POINT
  5
373
330
366
100
AcDbEntity
  8
Defpoints
 62
     0
100
AcDbPoint
 10
1011.668102922193
 20
1099.519717337747
 30
0.0
  0
ENDBLK
  5
368
330
366
100
AcDbEntity
  8
0
100
AcDbBlockEnd
  0
BLOCK
  5
375
330
374
100
AcDbEntity
  8
0
100
AcDbBlockBegin
  2
*D27
 70
     1
 10
0.0
 20
0.0
 30
0.0
  3
*D27
  1
*D27
  0
LINE
  5
377
330
374
100
AcDbEntity
  8
C寸法
 62
     0
370
    -2
100
AcDbLine
 10
906.6681029222
 20
345.2197173377496
 30
0.0
 11
1011.668102922196
 21
345.2197173377496
 31
0.0
  0
LINE
  5
378
330
374
100
AcDbEntity
  8
C寸法
 62
     0
370
    -2
100
AcDbLine
 10
884.9635049742283
 20
330.2197173377423
 30
0.0
 11
1011.668102922196
 21
330.2197173377423
 31
0.0
  0
LINE
  5
379
330
374
100
AcDbEntity
  8
C寸法
 62
     0
370
    -2
100
AcDbLine
 10
1011.668102922196
 20
305.2197173377423
 30
0.0
 11
1011.668102922196
 21
233.1289435282184
 31
0.0
  0
LINE
  5
37A
330
374
100
AcDbEntity
  8
C寸法
 62
     0
370
    -2
100
AcDbLine
 10
1011.668102922196
 20
345.2197173377496
 30
0.0
 11
1011.668102922196
 21
330.2197173377423
 31
0.0
  0
LINE
  5
37B
330
374
100
AcDbEntity
  8
C寸法
 62
     0
370
    -2
100
AcDbLine
 10
1011.668102922196
 20
370.2197173377496
 30
0.0
 11
1011.668102922196
 21
395.2197173377496
 31
0.0
  0
INSERT
  5
37C
330
374
100
AcDbEntity
  8
C寸法
 62
     0
370
    -2
100
AcDbBlockReference
  2
_OPEN
 10
1011.668102922196
 20
345.2197173377496
 30
0.0
 41
25.0
 42
25.0
 43
25.0
 50
270.0
  0
INSERT
  5
37D
330
374
100
AcDbEntity
  8
C寸法
 62
     0
370
    -2
100
AcDbBlockReference
  2
_OPEN
 10
1011.668102922196
 20
330.2197173377423
 30
0.0
 41
25.0
 42
25.0
 43
25.0
 50
90.0
  0
MTEXT
  5
37E
330
374
100
AcDbEntity
  8
C寸法
 62
     0
370
    13
100
AcDbMText
 10
994.1681029221963
 20
256.6743304329804
 30
0.0
 40
25.0
 41
0.0
 71
     5
 72
     1
  1
\A1;15
  7
KANJI
 11
0.0
 21
1.0
 31
0.0
 73
     1
 44
1.0
  0
POINT
  5
37F
330
374
100
AcDbEntity
  8
Defpoints
 62
     0
100
AcDbPoint
 10
896.6681029222
 20
345.2197173377496
 30
0.0
  0
POINT
  5
380
330
374
100
AcDbEntity
  8
Defpoints
 62
     0
100
AcDbPoint
 10
874.9635049742283
 20
330.2197173377423
 30
0.0
  0
POINT
  5
381
330
374
100
AcDbEntity
  8
Defpoints
 62
     0
100
AcDbPoint
 10
1011.668102922196
 20
330.2197173377423
 30
0.0
  0
ENDBLK
  5
376
330
374
100
AcDbEntity
  8
0
100
AcDbBlockEnd
  0
BLOCK
  5
383
330
382
100
AcDbEntity
  8
0
100
AcDbBlockBegin
  2
*D28
 70
     1
 10
0.0
 20
0.0
 30
0.0
  3
*D28
  1
*D28
  0
LINE
  5
385
330
382
100
AcDbEntity
  8
C寸法
 62
     0
370
    -2
100
AcDbLine
 10
647.1681029221121
 20
844.5607806955054
 30
0.0
 11
647.1681029221121
 21
694.5894194723451
 31
0.0
  0
LINE
  5
386
330
382
100
AcDbEntity
  8
C寸法
 62
     0
370
    -2
100
AcDbLine
 10
466.3577711513038
 20
844.3149534096362
 30
0.0
 11
466.3577711513038
 21
694.5894194723451
 31
0.0
  0
LINE
  5
387
330
382
100
AcDbEntity
  8
C寸法
 62
     0
370
    -2
100
AcDbLine
 10
622.1681029221121
 20
694.5894194723451
 30
0.0
 11
491.3577711513038
 21
694.5894194723451
 31
0.0
  0
INSERT
  5
388
330
382
100
AcDbEntity
  8
C寸法
 62
     0
370
    -2
100
AcDbBlockReference
  2
_OPEN
 10
647.1681029221121
 20
694.5894194723451
 30
0.0
 41
25.0
 42
25.0
 43
25.0
  0
INSERT
  5
389
330
382
100
AcDbEntity
  8
C寸法
 62
     0
370
    -2
100
AcDbBlockReference
  2
_OPEN
 10
466.3577711513038
 20
694.5894194723451
 30
0.0
 41
25.0
 42
25.0
 43
25.0
 50
180.0
  0
MTEXT
  5
38A
330
382
100
AcDbEntity
  8
C寸法
 62
     0
370
    13
100
AcDbMText
 10
570.8443601465946
 20
712.0894194723451
 30
0.0
 40
25.0
 41
0.0
 71
     5
 72
     1
  1
\A1;Φ181
  7
KANJI
 73
     1
 44
1.0
  0
POINT
  5
38B
330
382
100
AcDbEntity
  8
Defpoints
 62
     0
100
AcDbPoint
 10
647.1681029221121
 20
854.5607806955054
 30
0.0
  0
POINT
  5
38C
330
382
100
AcDbEntity
  8
Defpoints
 62
     0
100
AcDbPoint
 10
466.3577711513038
 20
854.3149534096362
 30
0.0
  0
POINT
  5
38D
330
382
100
AcDbEntity
  8
Defpoints
 62
     0
100
AcDbPoint
 10
466.3577711513038
 20
694.5894194723451
 30
0.0
  0
ENDBLK
  5
384
330
382
100
AcDbEntity
  8
0
100
AcDbBlockEnd
  0
BLOCK
  5
391
330
390
100
AcDbEntity
  8
0
100
AcDbBlockBegin
  2
*D29
 70
     1
 10
0.0
 20
0.0
 30
0.0
  3
*D29
  1
*D29
  0
LINE
  5
393
330
390
100
AcDbEntity
  8
C寸法
 62
     0
370
    -2
100
AcDbLine
 10
539.1502849598091
 20
1064.959902265822
 30
0.0
 11
539.1502849598091
 21
1138.315646851128
 31
0.0
  0
LINE
  5
394
330
390
100
AcDbEntity
  8
C寸法
 62
     0
370
    -2
100
AcDbLine
 10
574.8097662485106
 20
1064.519661756085
 30
0.0
 11
574.8097662485106
 21
1138.315646851128
 31
0.0
  0
LINE
  5
395
330
390
100
AcDbEntity
  8
C寸法
 62
     0
370
    -2
100
AcDbLine
 10
599.8097662485106
 20
1137.065646851128
 30
0.0
 11
788.6788138675583
 21
1137.065646851128
 31
0.0
  0
LINE
  5
396
330
390
100
AcDbEntity
  8
C寸法
 62
     0
370
    -2
100
AcDbLine
 10
539.1502849598091
 20
1137.065646851128
 30
0.0
 11
574.8097662485106
 21
1137.065646851128
 31
0.0
  0
LINE
  5
397
330
390
100
AcDbEntity
  8
C寸法
 62
     0
370
    -2
100
AcDbLine
 10
514.1502849598091
 20
1137.065646851128
 30
0.0
 11
489.1502849598091
 21
1137.065646851128
 31
0.0
  0
INSERT
  5
398
330
390
100
AcDbEntity
  8
C寸法
 62
     0
370
    -2
100
AcDbBlockReference
  2
_OPEN
 10
539.1502849598091
 20
1137.065646851128
 30
0.0
 41
25.0
 42
25.0
 43
25.0
  0
INSERT
  5
399
330
390
100
AcDbEntity
  8
C寸法
 62
     0
370
    -2
100
AcDbBlockReference
  2
_OPEN
 10
574.8097662485106
 20
1137.065646851128
 30
0.0
 41
25.0
 42
25.0
 43
25.0
 50
180.0
  0
MTEXT
  5
39A
330
390
100
AcDbEntity
  8
C寸法
 62
     0
370
    13
100
AcDbMText
 10
706.7442900580345
 20
1154.565646851128
 30
0.0
 40
25.0
 41
0.0
 71
     5
 72
     1
  1
Φ36水栓穴
  7
KANJI
 73
     1
 44
1.0
  0
POINT
  5
39B
330
390
100
AcDbEntity
  8
Defpoints
 62
     0
100
AcDbPoint
 10
539.1502849598091
 20
1059.959902265822
 30
0.0
  0
POINT
  5
39E
330
390
100
AcDbEntity
  8
Defpoints
 62
     0
100
AcDbPoint
 10
574.8097662485106
 20
1059.519661756085
 30
0.0
  0
POINT
  5
39F
330
390
100
AcDbEntity
  8
Defpoints
 62
     0
100
AcDbPoint
 10
574.8097662485106
 20
1137.065646851128
 30
0.0
  0
ENDBLK
  5
392
330
390
100
AcDbEntity
  8
0
100
AcDbBlockEnd
  0
BLOCK
  5
3A5
330
3A4
100
AcDbEntity
  8
0
100
AcDbBlockBegin
  2
*D30
 70
     1
 10
0.0
 20
0.0
 30
0.0
  3
*D30
  1
*D30
  0
LINE
  5
3A7
330
3A4
100
AcDbEntity
  8
C寸法
 62
     0
370
    -2
100
AcDbLine
 10
271.089441407004
 20
660.7927861791567
 30
0.0
 11
389.5481564469594
 21
736.8275343253679
 31
0.0
  0
MTEXT
  5
3A8
330
3A4
100
AcDbEntity
  8
C寸法
 62
     0
370
    13
100
AcDbMText
 10
315.2752712369614
 20
709.9489972345484
 30
0.0
 40
25.0
 41
0.0
 71
     5
 72
     1
  1
4-R100
  7
KANJI
 11
0.8415572714872019
 21
0.5401678987194777
 31
0.0
 73
     1
 44
1.0
  0
INSERT
  5
3A9
330
3A4
100
AcDbEntity
  8
C寸法
 62
     0
370
    -2
100
AcDbBlockReference
  2
_OPEN
 10
250.0505096198239
 20
647.2885887111697
 30
0.0
 41
25.0
 42
25.0
 43
25.0
 50
212.6950691701652
  0
POINT
  5
3AA
330
3A4
100
AcDbEntity
  8
Defpoints
 62
     0
100
AcDbPoint
 10
250.0505096198239
 20
647.2885887111697
 30
0.0
  0
POINT
  5
3AB
330
3A4
100
AcDbEntity
  8
Defpoints
 62
     0
100
AcDbPoint
 10
334.2062367685739
 20
701.3053785831366
 30
0.0
  0
ENDBLK
  5
3A6
330
3A4
100
AcDbEntity
  8
0
100
AcDbBlockEnd
  0
BLOCK
  5
3B0
330
3AF
100
AcDbEntity
  8
0
100
AcDbBlockBegin
  2
*D31
 70
     1
 10
0.0
 20
0.0
 30
0.0
  3
*D31
  1
*D31
  0
LINE
  5
3B2
330
3AF
100
AcDbEntity
  8
C寸法
 62
     0
370
    -2
100
AcDbLine
 10
245.426378481318
 20
599.6952105858253
 30
0.0
 11
413.554066282911
 21
710.3055315079258
 31
0.0
  0
MTEXT
  5
3B3
330
3AF
100
AcDbEntity
  8
C寸法
 62
     0
370
    13
100
AcDbMText
 10
355.5937346754431
 20
687.8844497744883
 30
0.0
 40
25.0
 41
0.0
 71
     5
 72
     1
  1
4-R60
  7
KANJI
 11
0.8354170822439403
 21
0.5496165014762761
 31
0.0
 73
     1
 44
1.0
  0
INSERT
  5
3B4
330
3AF
100
AcDbEntity
  8
C寸法
 62
     0
370
    -2
100
AcDbBlockReference
  2
_OPEN
 10
245.426378481318
 20
599.6952105858253
 30
0.0
 41
25.0
 42
25.0
 43
25.0
 50
213.340707346477
  0
POINT
  5
3B5
330
3AF
100
AcDbEntity
  8
Defpoints
 62
     0
100
AcDbPoint
 10
245.426378481318
 20
599.6952105858253
 30
0.0
  0
POINT
  5
3B6
330
3AF
100
AcDbEntity
  8
Defpoints
 62
     0
100
AcDbPoint
 10
322.6645820751598
 20
650.5098182133528
 30
0.0
  0
ENDBLK
  5
3B1
330
3AF
100
AcDbEntity
  8
0
100
AcDbBlockEnd
  0
BLOCK
  5
3F8
330
3F7
100
AcDbEntity
  8
0
100
AcDbBlockBegin
  2
*D36
 70
     1
 10
0.0
 20
0.0
 30
0.0
  3
*D36
  1
*D36
  0
LINE
  5
3FA
330
3F7
100
AcDbEntity
  8
C寸法
 62
     0
370
    -2
100
AcDbLine
 10
245.1869861995294
 20
1077.460536889367
 30
0.0
 11
105.5591871563284
 21
1191.433554351432
 31
0.0
  0
LINE
  5
3FB
330
3F7
100
AcDbEntity
  8
C寸法
 62
     0
370
    -2
100
AcDbLine
 10
264.5541181672125
 20
1061.651862076267
 30
0.0
 11
283.9212501348956
 21
1045.843187263167
 31
0.0
  0
LINE
  5
3FC
330
3F7
100
AcDbEntity
  8
C寸法
 62
     0
370
    -2
100
AcDbLine
 10
264.5541181672125
 20
1061.651862076267
 30
0.0
 11
283.9212501348956
 21
1045.843187263167
 31
0.0
  0
MTEXT
  5
3FD
330
3F7
100
AcDbEntity
  8
C寸法
 62
     0
370
    13
100
AcDbMText
 10
167.0720270794159
 20
1163.812712810878
 30
0.0
 40
25.0
 41
0.0
 71
     5
 72
     1
  1
4-R60
  7
KANJI
 11
0.7746852787073241
 21
-0.6323469925240064
 31
0.0
 73
     1
 44
1.0
  0
LINE
  5
3FE
330
3F7
100
AcDbEntity
  8
C寸法
 62
     0
370
    -2
100
AcDbLine
 10
291.6681029219853
 20
1039.519717337913
 30
0.0
 11
245.1869861995294
 21
1077.460536889367
 31
0.0
  0
INSERT
  5
3FF
330
3F7
100
AcDbEntity
  8
C寸法
 62
     0
370
    -2
100
AcDbBlockReference
  2
_OPEN
 10
245.1869861995294
 20
1077.460536889367
 30
0.0
 41
25.0
 42
25.0
 43
25.0
 50
140.776507565547
  0
POINT
  5
400
330
3F7
100
AcDbEntity
  8
Defpoints
 62
     0
100
AcDbPoint
 10
245.1869861995294
 20
1077.460536889367
 30
0.0
  0
POINT
  5
401
330
3F7
100
AcDbEntity
  8
Defpoints
 62
     0
100
AcDbPoint
 10
291.6681029219853
 20
1039.519717337913
 30
0.0
  0
ENDBLK
  5
3F9
330
3F7
100
AcDbEntity
  8
0
100
AcDbBlockEnd
  0
ENDSEC
  0
SECTION
  2
ENTITIES
  0
TEXT
  5
254
330
1F
100
AcDbEntity
  8
C寸法
 62
     7
100
AcDbText
 10
1238.176809601854
 20
175.0550200000422
 30
0.0
 40
30.0
  1
品　番　：N650BI 寸法図
  7
KANJI
100
AcDbText
  0
LINE
  5
255
330
1F
100
AcDbEntity
  8
0
100
AcDbLine
 10
1212.079466722837
 20
163.2613878675554
 30
0.0
 11
1766.704902486203
 21
163.2613878675554
 31
0.0
  0
TEXT
  5
256
330
1F
100
AcDbEntity
  8
C寸法
 62
     7
100
AcDbText
 10
1279.089747748569
 20
126.376858074526
 30
0.0
 40
25.0
  1
※詳細はお問合せください
  7
KANJI
100
AcDbText
  0
LWPOLYLINE
  5
257
330
1F
100
AcDbEntity
  8
0
100
AcDbPolyline
 90
        4
 70
     1
 43
0.0
 10
41.54695940740885
 20
1240.117288115557
 10
41.54695940740885
 20
38.5688002080642
 10
1841.602618649955
 20
38.5688002080642
 10
1841.602618649955
 20
1240.117288115557
  0
LINE
  5
258
330
1F
100
AcDbEntity
  8
C4
 62
     0
100
AcDbLine
 10
291.6681029219853
 20
564.519717337746
 30
0.0
 11
821.6661029221705
 21
564.519717337746
 31
0.0
  0
LINE
  5
259
330
1F
100
AcDbEntity
  8
C4
 62
     0
100
AcDbLine
 10
821.6661029221705
 20
1114.519717337939
 30
0.0
 11
291.6681029219853
 21
1114.519717337939
 31
0.0
  0
LINE
  5
25A
330
1F
100
AcDbEntity
  8
C4
 62
     0
100
AcDbLine
 10
821.6661029221705
 20
1099.519717337935
 30
0.0
 11
291.6681029219853
 21
1099.519717337935
 31
0.0
  0
LINE
  5
25B
330
1F
100
AcDbEntity
  8
C4
 62
     0
100
AcDbLine
 10
896.6661029221996
 20
639.5197173377715
 30
0.0
 11
896.6661029221996
 21
1039.519717337913
 31
0.0
  0
LINE
  5
25C
330
1F
100
AcDbEntity
  8
C4
 62
     0
100
AcDbLine
 10
216.6681029219599
 20
639.5197173377715
 30
0.0
 11
216.6681029219599
 21
1039.519717337913
 31
0.0
  0
LINE
  5
25D
330
1F
100
AcDbEntity
  8
C4
 62
     0
100
AcDbLine
 10
291.6681029219853
 20
579.5197173377496
 30
0.0
 11
821.6661029221705
 21
579.5197173377496
 31
0.0
  0
LINE
  5
25E
330
1F
100
AcDbEntity
  8
C4
 62
     0
100
AcDbLine
 10
821.6661029221705
 20
1019.519717337906
 30
0.0
 11
291.6681029219853
 21
1019.519717337906
 31
0.0
  0
LINE
  5
25F
330
1F
100
AcDbEntity
  8
C4
 62
     0
100
AcDbLine
 10
231.6681029219635
 20
639.5197173377715
 30
0.0
 11
231.6681029219635
 21
1039.519717337913
 31
0.0
  0
LINE
  5
260
330
1F
100
AcDbEntity
  8
C4
 62
     0
100
AcDbLine
 10
881.6661029221923
 20
639.5197173377715
 30
0.0
 11
881.6661029221923
 21
1039.519717337913
 31
0.0
  0
LINE
  5
261
330
1F
100
AcDbEntity
  8
C2
  6
CENTER
 62
     0
 48
20.0
370
    13
100
AcDbLine
 10
908.6811778055758
 20
854.5607806955054
 30
0.0
 11
191.5297126741037
 21
854.5607806955054
 31
0.0
  0
LINE
  5
262
330
1F
100
AcDbEntity
  8
C2
  6
CENTER
 62
     0
 48
20.0
370
    13
100
AcDbLine
 10
556.6681029220799
 20
544.5667806953938
 30
0.0
 11
556.6681029220763
 21
1135.159717337846
 31
0.0
  0
CIRCLE
  5
263
330
1F
100
AcDbEntity
  8
C4
 62
     0
100
AcDbCircle
 10
556.6681029220799
 20
854.5607806955054
 30
0.0
 40
90.50000000003213
  0
ARC
  5
264
330
1F
100
AcDbEntity
  8
C4
 62
     0
100
AcDbCircle
 10
821.6661029221705
 20
959.5197173378842
 30
0.0
 40
60.00000000002129
100
AcDbArc
 50
0.0
 51
90.00021045916418
  0
CIRCLE
  5
265
330
1F
100
AcDbEntity
  8
C4
 62
     0
100
AcDbCircle
 10
556.6681029220799
 20
854.5607806955054
 30
0.0
 40
79.50000000002822
  0
ARC
  5
266
330
1F
100
AcDbEntity
  8
C4
 62
     0
100
AcDbCircle
 10
291.6681029219853
 20
959.5197173378842
 30
0.0
 40
60.00000000002129
100
AcDbArc
 50
90.00021045916418
 51
179.9998479604956
  0
ARC
  5
267
102
{ACAD_REACTORS
330
3F6
102
}
330
1F
100
AcDbEntity
  8
C4
 62
     0
100
AcDbCircle
 10
291.6681029219853
 20
1039.519717337913
 30
0.0
 40
60.00000000002129
100
AcDbArc
 50
90.00021045916418
 51
179.9998479604956
  0
ARC
  5
268
330
1F
100
AcDbEntity
  8
C4
 62
     0
100
AcDbCircle
 10
291.6681029219853
 20
1039.519717337913
 30
0.0
 40
75.00000000002662
100
AcDbArc
 50
90.00021045916418
 51
179.9998479604956
  0
ARC
  5
269
330
1F
100
AcDbEntity
  8
C4
 62
     0
100
AcDbCircle
 10
821.6661029221705
 20
1039.519717337913
 30
0.0
 40
60.00000000002129
100
AcDbArc
 50
0.0
 51
90.00021045916418
  0
ARC
  5
26A
330
1F
100
AcDbEntity
  8
C4
 62
     0
100
AcDbCircle
 10
821.6661029221705
 20
1039.519717337913
 30
0.0
 40
75.00000000002662
100
AcDbArc
 50
0.0
 51
90.00021045916418
  0
ARC
  5
26B
330
1F
100
AcDbEntity
  8
C4
 62
     0
100
AcDbCircle
 10
821.6661029221705
 20
639.5197173377715
 30
0.0
 40
60.00000000002129
100
AcDbArc
 50
270.0000584195034
 51
0.0
  0
ARC
  5
26C
330
1F
100
AcDbEntity
  8
C4
 62
     0
100
AcDbCircle
 10
821.6661029221705
 20
639.5197173377715
 30
0.0
 40
75.00000000002662
100
AcDbArc
 50
270.0000584195034
 51
0.0
  0
ARC
  5
26D
330
1F
100
AcDbEntity
  8
C4
 62
     0
100
AcDbCircle
 10
291.6681029219853
 20
639.5197173377715
 30
0.0
 40
60.00000000002129
100
AcDbArc
 50
179.9998479604956
 51
270.0000584195034
  0
ARC
  5
26E
330
1F
100
AcDbEntity
  8
C4
 62
     0
100
AcDbCircle
 10
291.6681029219853
 20
639.5197173377715
 30
0.0
 40
75.00000000002662
100
AcDbArc
 50
179.9998479604956
 51
270.0000584195034
  0
ARC
  5
26F
330
1F
100
AcDbEntity
  8
C4
 62
     0
100
AcDbCircle
 10
2231.666102922673
 20
799.5197173378297
 30
0.0
 40
2000.00000000071
100
AcDbArc
 50
177.1293294068893
 51
182.9630400849957
  0
ARC
  5
270
330
1F
100
AcDbEntity
  8
C4
 62
     0
100
AcDbCircle
 10
-1118.331897078513
 20
799.5197173378297
 30
0.0
 40
2000.00000000071
100
AcDbArc
 50
357.0369562157136
 51
2.963043784286393
  0
ARC
  5
271
330
1F
100
AcDbEntity
  8
C4
 62
     0
100
AcDbCircle
 10
556.6681029220799
 20
-2745.480282663429
 30
0.0
 40
3750.000000001331
100
AcDbArc
 50
86.50577658788868
 51
93.49425496534687
  0
ARC
  5
272
330
1F
100
AcDbEntity
  8
C4
 62
     0
100
AcDbCircle
 10
556.6681029220799
 20
4344.519717339084
 30
0.0
 40
3750.000000001331
100
AcDbArc
 50
266.5057450346532
 51
273.4942234121113
  0
ARC
  5
273
102
{ACAD_REACTORS
330
3A3
102
}
330
1F
100
AcDbEntity
  8
C4
 62
     0
100
AcDbCircle
 10
334.2062367685739
 20
701.3053785831366
 30
0.0
 40
100.0000000000355
100
AcDbArc
 50
182.9630400849958
 51
266.5057450346532
  0
ARC
  5
274
330
1F
100
AcDbEntity
  8
C4
 62
     0
100
AcDbCircle
 10
779.1279627343083
 20
701.3052560725341
 30
0.0
 40
100.0000000000355
100
AcDbArc
 50
273.4942234121112
 51
357.0369562157136
  0
ARC
  5
275
330
1F
100
AcDbEntity
  8
C4
 62
     0
100
AcDbCircle
 10
779.1279627343083
 20
897.7341786031288
 30
0.0
 40
100.0000000000355
100
AcDbArc
 50
2.963043784286377
 51
86.50577658788865
  0
ARC
  5
276
330
1F
100
AcDbEntity
  8
C4
 62
     0
100
AcDbCircle
 10
334.2062367685739
 20
897.7340560925227
 30
0.0
 40
100.0000000000355
100
AcDbArc
 50
93.49425496534687
 51
177.0369599150042
  0
LINE
  5
277
330
1F
100
AcDbEntity
  8
C4
 62
     0
100
AcDbLine
 10
260.8850935357968
 20
160.593324297915
 30
0.0
 11
463.7281029220485
 21
155.2837173376753
 31
0.0
  0
LINE
  5
278
330
1F
100
AcDbEntity
  8
C4
 62
     0
100
AcDbLine
 10
260.8196760869487
 20
158.094466104743
 30
0.0
 11
463.6681029220435
 21
152.7847173376791
 31
0.0
  0
LINE
  5
279
330
1F
100
AcDbEntity
  8
C4
 62
     0
100
AcDbLine
 10
896.6681029222
 20
345.2197173377459
 30
0.0
 11
216.670102921953
 21
345.2197173377459
 31
0.0
  0
LINE
  5
27A
330
1F
100
AcDbEntity
  8
C4
 62
     0
100
AcDbLine
 10
229.1701029219603
 20
342.7197173377459
 30
0.0
 11
216.670102921953
 21
342.7197173377459
 31
0.0
  0
LINE
  5
27B
330
1F
100
AcDbEntity
  8
C4
 62
     0
100
AcDbLine
 10
884.1661029221923
 20
342.7197173377459
 30
0.0
 11
896.6681029222
 21
342.7197173377459
 31
0.0
  0
LINE
  5
27C
330
1F
100
AcDbEntity
  8
C4
 62
     0
100
AcDbLine
 10
231.6701029219603
 20
190.5830518769432
 30
0.0
 11
231.6701029219603
 21
344.2197173377459
 31
0.0
  0
LINE
  5
27D
330
1F
100
AcDbEntity
  8
C4
 62
     0
100
AcDbLine
 10
216.670102921953
 20
345.2197173377459
 30
0.0
 11
216.670102921953
 21
342.7197173377459
 31
0.0
  0
LINE
  5
27E
330
1F
100
AcDbEntity
  8
C4
 62
     0
100
AcDbLine
 10
896.6681029222
 20
345.2197173377459
 30
0.0
 11
896.6681029222
 21
342.7197173377459
 31
0.0
  0
LINE
  5
27F
330
1F
100
AcDbEntity
  8
C4
 62
     0
100
AcDbLine
 10
881.6682202050488
 20
190.58543858409
 30
0.0
 11
881.6661029221923
 21
344.2197173377459
 31
0.0
  0
LINE
  5
280
330
1F
100
AcDbEntity
  8
C4
 62
     0
100
AcDbLine
 10
466.1681029220472
 20
152.7847173376791
 30
0.0
 11
466.1681029220472
 21
148.2197173376804
 31
0.0
  0
LINE
  5
281
330
1F
100
AcDbEntity
  8
C4
 62
     0
100
AcDbLine
 10
477.1681029220435
 20
145.7197173376768
 30
0.0
 11
636.1681029221054
 21
145.7197173376768
 31
0.0
  0
LINE
  5
282
330
1F
100
AcDbEntity
  8
C4
 62
     0
100
AcDbLine
 10
477.1681029220435
 20
148.2197173376804
 30
0.0
 11
477.1681029220435
 21
145.7197173376768
 31
0.0
  0
LINE
  5
283
330
1F
100
AcDbEntity
  8
C4
 62
     0
100
AcDbLine
 10
878.666102922185
 20
330.2197173377423
 30
0.0
 11
234.6701029219639
 21
330.2197173377423
 31
0.0
  0
LINE
  5
284
330
1F
100
AcDbEntity
  8
C4
 62
     0
100
AcDbLine
 10
878.666102922185
 20
338.8197173377445
 30
0.0
 11
234.6701029219639
 21
338.8197173377445
 31
0.0
  0
LINE
  5
285
330
1F
100
AcDbEntity
  8
C4
 62
     0
100
AcDbLine
 10
477.1681029220435
 20
148.2197173376804
 30
0.0
 11
466.1681029220472
 21
148.2197173376804
 31
0.0
  0
LINE
  5
286
330
1F
100
AcDbEntity
  8
C4
 62
     0
100
AcDbLine
 10
466.1681029220472
 20
145.7197173376768
 30
0.0
 11
477.1681029220435
 21
145.7197173376768
 31
0.0
  0
LINE
  5
287
330
1F
100
AcDbEntity
  8
C4
 62
     0
100
AcDbLine
 10
463.6681029220435
 20
148.2197173376804
 30
0.0
 11
463.6681029220435
 21
152.7847173376791
 31
0.0
  0
LINE
  5
288
330
1F
100
AcDbEntity
  8
C4
 62
     0
100
AcDbLine
 10
229.1701029219603
 20
190.5833376486913
 30
0.0
 11
229.1701029219603
 21
342.7197173377459
 31
0.0
  0
LINE
  5
289
330
1F
100
AcDbEntity
  8
C4
 62
     0
100
AcDbLine
 10
884.1682214294033
 20
190.5854777472192
 30
0.0
 11
884.1661029221923
 21
342.7197173377459
 31
0.0
  0
LINE
  5
28A
330
1F
100
AcDbEntity
  8
C4
 62
     0
100
AcDbLine
 10
477.1681029220435
 20
148.2197173376804
 30
0.0
 11
636.1681029221054
 21
148.2197173376804
 31
0.0
  0
LINE
  5
28B
330
1F
100
AcDbEntity
  8
C4
 62
     0
100
AcDbLine
 10
464.2344729424349
 20
155.2197173376804
 30
0.0
 11
649.1034216467542
 21
155.2197173376804
 31
0.0
  0
LINE
  5
28C
330
1F
100
AcDbEntity
  8
C4
 62
     0
100
AcDbLine
 10
647.1681029221054
 20
152.7843251603769
 30
0.0
 11
647.1681029221054
 21
148.2197173376804
 31
0.0
  0
LINE
  5
28D
330
1F
100
AcDbEntity
  8
C4
 62
     0
100
AcDbLine
 10
636.1681029221054
 20
148.2197173376804
 30
0.0
 11
636.1681029221054
 21
145.7197173376768
 31
0.0
  0
LINE
  5
28E
330
1F
100
AcDbEntity
  8
C4
 62
     0
100
AcDbLine
 10
636.1681029221054
 20
148.2197173376804
 30
0.0
 11
647.1681029221054
 21
148.2197173376804
 31
0.0
  0
LINE
  5
28F
330
1F
100
AcDbEntity
  8
C4
 62
     0
100
AcDbLine
 10
647.1681029221054
 20
145.7197173376768
 30
0.0
 11
636.1681029221054
 21
145.7197173376768
 31
0.0
  0
LINE
  5
290
330
1F
100
AcDbEntity
  8
C4
 62
     0
100
AcDbLine
 10
649.6661029221123
 20
148.2197173376804
 30
0.0
 11
649.6661029221123
 21
152.7842727885323
 31
0.0
  0
LINE
  5
291
330
1F
100
AcDbEntity
  8
C4
 62
     0
100
AcDbLine
 10
852.4535286571245
 20
160.5953053952722
 30
0.0
 11
649.6026605513453
 21
155.2834684728147
 31
0.0
  0
LINE
  5
292
330
1F
100
AcDbEntity
  8
C4
 62
     0
100
AcDbLine
 10
852.5189722525447
 20
158.0961621149032
 30
0.0
 11
649.6661029221123
 21
152.7842727885323
 31
0.0
  0
ARC
  5
293
330
1F
100
AcDbEntity
  8
C4
 62
     0
100
AcDbCircle
 10
230.6701029219639
 20
344.2197173377459
 30
0.0
 40
1.000000000000355
100
AcDbArc
 50
0.0001520395044134
 51
89.99978954083582
  0
ARC
  5
294
330
1F
100
AcDbEntity
  8
C4
 62
     0
100
AcDbCircle
 10
463.6681029220435
 20
152.7847173376791
 30
0.0
 40
2.500000000000887
100
AcDbArc
 50
0.0001520395044134
 51
88.49978603303549
  0
ARC
  5
295
330
1F
100
AcDbEntity
  8
C4
 62
     0
100
AcDbCircle
 10
234.6701029219639
 20
341.8197173377445
 30
0.0
 40
3.000000000001065
100
AcDbArc
 50
180.0
 51
269.9999415802881
  0
ARC
  5
296
330
1F
100
AcDbEntity
  8
C4
 62
     0
100
AcDbCircle
 10
234.6701029219639
 20
333.2197173377459
 30
0.0
 40
3.000000000001065
100
AcDbArc
 50
180.0
 51
269.9999415802881
  0
ARC
  5
297
330
1F
100
AcDbEntity
  8
C4
 62
     0
100
AcDbCircle
 10
878.666102922185
 20
333.2197173377459
 30
0.0
 40
3.000000000001065
100
AcDbArc
 50
269.9999415802881
 51
0.0012979550658372
  0
ARC
  5
298
330
1F
100
AcDbEntity
  8
C4
 62
     0
100
AcDbCircle
 10
878.666102922185
 20
341.8197173377445
 30
0.0
 40
3.000000000001065
100
AcDbArc
 50
269.9999415802881
 51
0.0012979550658372
  0
ARC
  5
299
330
1F
100
AcDbEntity
  8
C4
 62
     0
100
AcDbCircle
 10
466.1681029220472
 20
148.2197173376804
 30
0.0
 40
2.500000000000887
100
AcDbArc
 50
180.0
 51
269.9999415802881
  0
ARC
  5
29A
330
1F
100
AcDbEntity
  8
C4
 62
     0
100
AcDbCircle
 10
882.6661029221923
 20
344.2197173377459
 30
0.0
 40
1.000000000000355
100
AcDbArc
 50
89.99978954083582
 51
180.0
  0
ARC
  5
29B
330
1F
100
AcDbEntity
  8
C4
 62
     0
100
AcDbCircle
 10
647.1681029221054
 20
148.2197173376804
 30
0.0
 40
2.500000000000887
100
AcDbArc
 50
269.9999415802881
 51
359.9995790816716
  0
ARC
  5
29C
330
1F
100
AcDbEntity
  8
C4
 62
     0
100
AcDbCircle
 10
649.6681029221054
 20
152.7843251603769
 30
0.0
 40
2.500000000000887
100
AcDbArc
 50
91.49999999998916
 51
180.0
  0
ARC
  5
29D
330
1F
100
AcDbEntity
  8
C4
 62
     0
100
AcDbCircle
 10
261.6701029219712
 20
190.5830518769432
 30
0.0
 40
30.00000000001065
100
AcDbArc
 50
180.0
 51
268.500571364044
  0
ARC
  5
29E
330
1F
100
AcDbEntity
  8
C4
 62
     0
100
AcDbCircle
 10
261.6701029219712
 20
190.5833376486913
 30
0.0
 40
32.50000000001153
100
AcDbArc
 50
180.0
 51
268.500571364044
  0
ARC
  5
29F
330
1F
100
AcDbEntity
  8
C4
 62
     0
100
AcDbCircle
 10
851.6682202078937
 20
190.5850251445514
 30
0.0
 40
30.00000000001065
100
AcDbArc
 50
271.4999999999895
 51
0.0007896113894918
  0
ARC
  5
2A0
330
1F
100
AcDbEntity
  8
C4
 62
     0
100
AcDbCircle
 10
851.6682214325465
 20
190.5850251766202
 30
0.0
 40
32.50000000001153
100
AcDbArc
 50
271.4999999999897
 51
0.0007978580383338
  0
LINE
  5
2A1
330
1F
100
AcDbEntity
  8
C4
 62
     0
100
AcDbLine
 10
1321.1661029222
 20
564.519717337746
 30
0.0
 11
1321.1661029222
 21
1114.511033264329
 31
0.0
  0
LINE
  5
2A2
330
1F
100
AcDbEntity
  8
C4
 62
     0
100
AcDbLine
 10
1321.1661029222
 20
564.519717337746
 30
0.0
 11
1322.166087132975
 21
564.519717337746
 31
0.0
  0
LINE
  5
2A3
330
1F
100
AcDbEntity
  8
C4
 62
     0
100
AcDbLine
 10
1322.166087132975
 20
578.5184963043944
 30
0.0
 11
1322.166087132975
 21
564.519717337746
 31
0.0
  0
DIMENSION
  5
2A4
330
1F
100
AcDbEntity
  8
C寸法
 62
     0
370
    13
100
AcDbDimension
  2
*D17
 10
881.6661029221917
 20
429.5197173377496
 30
0.0
 11
556.6671029220779
 21
447.0197173377496
 31
0.0
 70
    32
 71
     5
 42
649.9980000002276
  3
実寸
100
AcDbAlignedDimension
 13
231.668102921964
 23
639.5197173377715
 33
0.0
 14
881.6661029221917
 24
639.5197173377715
 34
0.0
100
AcDbRotatedDimension
1001
ACAD
1000
DSTYLE
1002
{
1070
   340
1005
F3
1070
   144
1040
1.0
1002
}
  0
DIMENSION
  5
2A5
330
1F
100
AcDbEntity
  8
C寸法
 62
     0
370
    13
100
AcDbDimension
  2
*D18
 10
1161.668102922193
 20
579.5197173377496
 30
0.0
 11
1144.168102922193
 21
839.5197173377496
 31
0.0
 70
    32
 71
     5
 42
520.0
  3
実寸
100
AcDbAlignedDimension
 13
911.6681029221963
 23
1099.51971733775
 33
0.0
 14
911.6681029221963
 24
579.5197173377496
 34
0.0
 50
90.0
100
AcDbRotatedDimension
1001
ACAD
1000
DSTYLE
1002
{
1070
   340
1005
F3
1070
   144
1040
1.0
1002
}
  0
DIMENSION
  5
2A6
330
1F
100
AcDbEntity
  8
C寸法
 62
     0
370
    13
100
AcDbDimension
  2
*D19
 10
1011.668102922196
 20
854.5607806955035
 30
0.0
 11
994.1681029221963
 21
929.5402490166266
 31
0.0
 70
    32
 71
     5
 42
149.9589366422462
  3
実寸
100
AcDbAlignedDimension
 13
911.6681029221963
 23
1004.51971733775
 33
0.0
 14
903.3283302055903
 24
854.5607806955035
 34
0.0
 50
90.0
100
AcDbRotatedDimension
1001
ACAD
1000
DSTYLE
1002
{
1070
   340
1005
F3
1070
   144
1040
1.0
1002
}
  0
DIMENSION
  5
2A7
330
1F
100
AcDbEntity
  8
C寸法
 62
     0
370
    13
100
AcDbDimension
  2
*D20
 10
1111.668102922196
 20
1099.51971733775
 30
0.0
 11
1094.168102922196
 21
1059.51971733775
 31
0.0
 70
    32
 71
     5
 42
80.0
  3
実寸
100
AcDbAlignedDimension
 13
911.6681029221963
 23
1019.51971733775
 33
0.0
 14
834.9445674262453
 24
1099.51971733775
 34
0.0
 50
90.0
100
AcDbRotatedDimension
1001
ACAD
1000
DSTYLE
1002
{
1070
   340
1005
F3
1070
   144
1040
1.0
1002
}
  0
DIMENSION
  5
2A8
330
1F
100
AcDbEntity
  8
C寸法
 62
     0
370
    13
100
AcDbDimension
  2
*D21
 10
1111.668102922196
 20
579.5197173377496
 30
0.0
 11
1094.168102922196
 21
799.5197173377496
 31
0.0
 70
    32
 71
     5
 42
440.0
  3
実寸
100
AcDbAlignedDimension
 13
911.6681029221963
 23
1019.51971733775
 33
0.0
 14
911.6681029221963
 24
579.5197173377496
 34
0.0
 50
90.0
100
AcDbRotatedDimension
1001
ACAD
1000
DSTYLE
1002
{
1070
   340
1005
F3
1070
   144
1040
1.0
1002
}
  0
DIMENSION
  5
2A9
330
1F
100
AcDbEntity
  8
C寸法
 62
     0
370
    13
100
AcDbDimension
  2
*D22
 10
1061.668102922196
 20
594.5197173377496
 30
0.0
 11
1044.168102922196
 21
799.5197173377496
 31
0.0
 70
    32
 71
     5
 42
410.0
  3
実寸
100
AcDbAlignedDimension
 13
911.6681029221963
 23
1004.51971733775
 33
0.0
 14
911.6681029221963
 24
594.5197173377496
 34
0.0
 50
90.0
100
AcDbRotatedDimension
1001
ACAD
1000
DSTYLE
1002
{
1070
   340
1005
F3
1070
   144
1040
1.0
1002
}
  0
DIMENSION
  5
2AA
330
1F
100
AcDbEntity
  8
C寸法
 62
     0
370
    13
100
AcDbDimension
  2
*D23
 10
1061.668102922196
 20
1019.519717337906
 30
0.0
 11
1061.668102922196
 21
930.97433043314
 31
0.0
 70
   160
 71
     5
 42
15.00000000000409
  3
実寸
100
AcDbAlignedDimension
 13
556.6681029220802
 23
1004.519717337902
 33
0.0
 14
556.668102922077
 24
1019.519717337906
 34
0.0
 50
90.0
100
AcDbRotatedDimension
1001
ACAD
1000
DSTYLE
1002
{
1070
   340
1005
F3
1070
   172
1070
     1
1070
   144
1040
1.0
1002
}
  0
DIMENSION
  5
2AB
330
1F
100
AcDbEntity
  8
C寸法
 62
     0
370
    13
100
AcDbDimension
  2
*D24
 10
1061.668102922196
 20
155.2197173376804
 30
0.0
 11
1044.168102922196
 21
250.2197173377132
 31
0.0
 70
    32
 71
     5
 42
190.0000000000655
  3
実寸
100
AcDbAlignedDimension
 13
911.6681029222
 23
345.2197173377459
 33
0.0
 14
649.1034216467542
 24
155.2197173376804
 34
0.0
 50
90.0
100
AcDbRotatedDimension
1001
ACAD
1000
DSTYLE
1002
{
1070
   340
1005
F3
1070
   144
1040
1.0
1002
}
  0
DIMENSION
  5
2AC
330
1F
100
AcDbEntity
  8
C寸法
 62
     0
370
    13
100
AcDbDimension
  2
*D25
 10
1061.668102922196
 20
579.5197173377475
 30
0.0
 11
1061.668102922196
 21
505.9743304329855
 31
0.0
 70
   160
 71
     5
 42
15.00000000014813
  3
実寸
100
AcDbAlignedDimension
 13
556.6670703448622
 23
594.5197173378956
 33
0.0
 14
556.6681029220797
 24
579.5197173377475
 34
0.0
 50
90.0
100
AcDbRotatedDimension
1001
ACAD
1000
DSTYLE
1002
{
1070
   340
1005
F3
1070
   172
1070
     1
1070
   144
1040
1.0
1002
}
  0
CIRCLE
  5
2AD
330
1F
100
AcDbEntity
  8
C寸法
 62
     7
100
AcDbCircle
 10
556.6681320521038
 20
1059.519938602323
 30
0.0
 40
18.0
  0
LINE
  5
2AE
330
1F
100
AcDbEntity
  8
C寸法
  6
CENTER
 62
     7
 48
20.0
370
    13
100
AcDbLine
 10
519.1205977755953
 20
1059.519938602323
 30
0.0
 11
594.6808235841916
 21
1059.519938602323
 31
0.0
  0
DIMENSION
  5
2AF
330
1F
100
AcDbEntity
  8
C寸法
 62
     7
370
    13
100
AcDbDimension
  2
*D26
 10
1011.668102922193
 20
1099.519717337747
 30
0.0
 11
994.1681029221927
 21
1174.757812575843
 31
0.0
 70
    32
 71
     5
 42
39.99977873542457
  3
実寸
100
AcDbAlignedDimension
 13
600.3719224660352
 23
1059.519938602323
 33
0.0
 14
556.6681029220765
 24
1099.519717337747
 34
0.0
 50
90.0
100
AcDbRotatedDimension
1001
ACAD
1000
DSTYLE
1002
{
1070
   340
1005
F3
1070
   172
1070
     1
1070
   144
1040
1.0
1002
}
  0
DIMENSION
  5
2B0
330
1F
100
AcDbEntity
  8
C寸法
 62
     0
370
    13
100
AcDbDimension
  2
*D27
 10
1011.668102922196
 20
330.2197173377423
 30
0.0
 11
994.1681029221963
 21
256.6743304329804
 31
0.0
 70
    32
 71
     5
 42
15.00000000000733
  3
実寸
100
AcDbAlignedDimension
 13
896.6681029222
 23
345.2197173377496
 33
0.0
 14
874.9635049742283
 24
330.2197173377423
 34
0.0
 50
90.0
100
AcDbRotatedDimension
1001
ACAD
1000
DSTYLE
1002
{
1070
   340
1005
F3
1070
   172
1070
     1
1070
   144
1040
1.0
1002
}
  0
LINE
  5
2B1
330
1F
100
AcDbEntity
  8
C4
 62
     0
100
AcDbLine
 10
1322.166102922196
 20
1100.51971733794
 30
0.0
 11
1324.566102922216
 21
1100.51971733794
 31
0.0
  0
LINE
  5
2B2
330
1F
100
AcDbEntity
  8
C4
 62
     0
100
AcDbLine
 10
1328.566102922208
 20
1022.519717337938
 30
0.0
 11
1328.566102922208
 21
1096.519717337938
 31
0.0
  0
LINE
  5
2B3
330
1F
100
AcDbEntity
  8
C4
 62
     0
100
AcDbLine
 10
1327.566102922208
 20
1022.519717337938
 30
0.0
 11
1327.566102922208
 21
1096.519717337938
 31
0.0
  0
LINE
  5
2B4
330
1F
100
AcDbEntity
  8
C4
 62
     0
100
AcDbLine
 10
1322.166102922196
 20
1100.51971733794
 30
0.0
 11
1322.166102922196
 21
1114.519717337939
 31
0.0
  0
LINE
  5
2B5
330
1F
100
AcDbEntity
  8
C4
 62
     0
100
AcDbLine
 10
1517.969102922199
 20
764.0607806955086
 30
0.0
 11
1513.599102922197
 21
764.0607806955086
 31
0.0
  0
LINE
  5
2B6
330
1F
100
AcDbEntity
  8
C4
 62
     0
100
AcDbLine
 10
1507.131355437361
 20
629.937063468275
 30
0.0
 11
1511.099959787431
 21
761.6262298509741
 31
0.0
  0
LINE
  5
2B7
330
1F
100
AcDbEntity
  8
C4
 62
     0
100
AcDbLine
 10
1511.169102922204
 20
946.5892941953085
 30
0.0
 11
1511.169102922204
 21
762.1482328212401
 31
0.0
  0
LINE
  5
2B8
330
1F
100
AcDbEntity
  8
C4
 62
     0
100
AcDbLine
 10
1517.969102922199
 20
763.0607806955081
 30
0.0
 11
1513.599102922197
 21
763.0607806955081
 31
0.0
  0
LINE
  5
2B9
330
1F
100
AcDbEntity
  8
C4
 62
     0
100
AcDbLine
 10
1508.131268199069
 20
629.9108775397267
 30
0.0
 11
1512.099617041336
 21
761.600050188787
 31
0.0
  0
LINE
  5
2BA
330
1F
100
AcDbEntity
  8
C4
 62
     0
100
AcDbLine
 10
1322.166102922196
 20
1099.519717337937
 30
0.0
 11
1324.566102922216
 21
1099.519717337937
 31
0.0
  0
LINE
  5
2BB
330
1F
100
AcDbEntity
  8
C4
 62
     0
100
AcDbLine
 10
1322.166102922196
 20
579.5187173379397
 30
0.0
 11
1333.166102922214
 21
579.521717337939
 31
0.0
  0
LINE
  5
2BC
330
1F
100
AcDbEntity
  8
C4
 62
     0
100
AcDbLine
 10
1330.566102922201
 20
1020.519717337937
 30
0.0
 11
1333.166102922214
 21
1020.519717337937
 31
0.0
  0
LINE
  5
2BD
330
1F
100
AcDbEntity
  8
C4
 62
     0
100
AcDbLine
 10
1336.166102922207
 20
1016.51971733794
 30
0.0
 11
1336.166102922207
 21
1003.319717337938
 31
0.0
  0
LINE
  5
2BE
330
1F
100
AcDbEntity
  8
C4
 62
     0
100
AcDbLine
 10
1321.1661029222
 20
1114.519717337939
 30
0.0
 11
1322.166102922196
 21
1114.519717337939
 31
0.0
  0
LINE
  5
2BF
330
1F
100
AcDbEntity
  8
C4
 62
     0
100
AcDbLine
 10
1481.067569922774
 20
999.3197173379385
 30
0.0
 11
1341.1661029222
 21
999.3197173379385
 31
0.0
  0
LINE
  5
2C0
330
1F
100
AcDbEntity
  8
C4
 62
     0
100
AcDbLine
 10
1321.1661029222
 20
564.5197173379388
 30
0.0
 11
1321.1661029222
 21
1114.519717337939
 31
0.0
  0
LINE
  5
2C1
330
1F
100
AcDbEntity
  8
C4
 62
     0
100
AcDbLine
 10
1481.067334868339
 20
998.3197173379403
 30
0.0
 11
1341.1661029222
 21
998.3197173379403
 31
0.0
  0
LINE
  5
2C2
330
1F
100
AcDbEntity
  8
C4
 62
     0
100
AcDbLine
 10
1321.1661029222
 20
564.5197173379388
 30
0.0
 11
1322.166102922196
 21
564.5197173379388
 31
0.0
  0
LINE
  5
2C3
330
1F
100
AcDbEntity
  8
C4
 62
     0
100
AcDbLine
 10
1517.969102922199
 20
945.0607806955068
 30
0.0
 11
1513.120583615104
 21
945.0607806955068
 31
0.0
  0
ARC
  5
2C4
330
1F
100
AcDbEntity
  8
C4
 62
     0
100
AcDbCircle
 10
1513.120583615104
 20
947.070782705508
 30
0.0
 40
2.01000201000201
100
AcDbArc
 50
181.4592635419519
 51
270.0
  0
LINE
  5
2C5
330
1F
100
AcDbEntity
  8
C4
 62
     0
100
AcDbLine
 10
1512.057521236462
 20
969.1089686129694
 30
0.0
 11
1512.099038091967
 21
947.5198726392175
 31
0.0
  0
LINE
  5
2C6
330
1F
100
AcDbEntity
  8
C4
 62
     0
100
AcDbLine
 10
1511.057605380434
 20
969.0837033400343
 30
0.0
 11
1511.111233481466
 21
947.0195955921818
 31
0.0
  0
LINE
  5
2C7
330
1F
100
AcDbEntity
  8
C4
 62
     0
100
AcDbLine
 10
1517.969102922199
 20
946.0607806955072
 30
0.0
 11
1513.599102922197
 21
946.0607806955072
 31
0.0
  0
LINE
  5
2C8
330
1F
100
AcDbEntity
  8
C4
 62
     0
100
AcDbLine
 10
1336.166102922207
 20
582.5217173379402
 30
0.0
 11
1336.166102922207
 21
595.7217173379379
 31
0.0
  0
LINE
  5
2C9
330
1F
100
AcDbEntity
  8
C4
 62
     0
100
AcDbLine
 10
1477.141618554479
 20
600.7217173379377
 30
0.0
 11
1341.1661029222
 21
600.7217173379377
 31
0.0
  0
LINE
  5
2CA
330
1F
100
AcDbEntity
  8
C4
 62
     0
100
AcDbLine
 10
1477.141874225939
 20
599.7217173379395
 30
0.0
 11
1341.1661029222
 21
599.7217173379395
 31
0.0
  0
LINE
  5
2CB
330
1F
100
AcDbEntity
  8
C4
 62
     0
100
AcDbLine
 10
1337.166102922207
 20
1016.51971733794
 30
0.0
 11
1337.166102922207
 21
1003.319717337938
 31
0.0
  0
LINE
  5
2CC
330
1F
100
AcDbEntity
  8
C4
 62
     0
100
AcDbLine
 10
1330.566102922201
 20
1019.519717337939
 30
0.0
 11
1333.166102922214
 21
1019.519717337939
 31
0.0
  0
LINE
  5
2CD
330
1F
100
AcDbEntity
  8
C4
 62
     0
100
AcDbLine
 10
1337.166102922207
 20
582.5217173379402
 30
0.0
 11
1337.166102922207
 21
595.7217173379379
 31
0.0
  0
LINE
  5
2CE
330
1F
100
AcDbEntity
  8
C4
 62
     0
100
AcDbLine
 10
1322.166157462701
 20
578.5187173453761
 30
0.0
 11
1333.167157462709
 21
578.5217173453776
 31
0.0
  0
LINE
  5
2CF
330
1F
100
AcDbEntity
  8
C4
 62
     0
100
AcDbLine
 10
1322.166102922196
 20
578.5187173379394
 30
0.0
 11
1322.166102922196
 21
564.5197173379388
 31
0.0
  0
LINE
  5
2D0
330
1F
100
AcDbEntity
  8
C4
 62
     0
100
AcDbLine
 10
1519.169102922211
 20
944.8607806955074
 30
0.0
 11
1519.169102922211
 21
933.5607806955077
 31
0.0
  0
LINE
  5
2D1
330
1F
100
AcDbEntity
  8
C4
 62
     0
100
AcDbLine
 10
1518.169102922211
 20
933.5607806955077
 30
0.0
 11
1519.169102922211
 21
933.5607806955077
 31
0.0
  0
LINE
  5
2D2
330
1F
100
AcDbEntity
  8
C4
 62
     0
100
AcDbLine
 10
1518.169102922211
 20
944.8607806955074
 30
0.0
 11
1518.169102922211
 21
933.5607806955077
 31
0.0
  0
LINE
  5
2D3
330
1F
100
AcDbEntity
  8
C4
 62
     0
100
AcDbLine
 10
1518.169102922211
 20
775.5607806955095
 30
0.0
 11
1519.169102922211
 21
775.5607806955095
 31
0.0
  0
LINE
  5
2D4
330
1F
100
AcDbEntity
  8
C4
 62
     0
100
AcDbLine
 10
1518.169102922211
 20
764.2607806955077
 30
0.0
 11
1518.169102922211
 21
775.5607806955095
 31
0.0
  0
LINE
  5
2D5
330
1F
100
AcDbEntity
  8
C4
 62
     0
100
AcDbLine
 10
1518.169102922211
 20
933.5607806955077
 30
0.0
 11
1518.169102922211
 21
775.5607806955095
 31
0.0
  0
LINE
  5
2D6
330
1F
100
AcDbEntity
  8
C4
 62
     0
100
AcDbLine
 10
1519.169102922211
 20
933.5607806955077
 30
0.0
 11
1519.169102922211
 21
775.5607806955095
 31
0.0
  0
LINE
  5
2D7
330
1F
100
AcDbEntity
  8
C4
 62
     0
100
AcDbLine
 10
1519.169102922211
 20
764.2607806955077
 30
0.0
 11
1519.169102922211
 21
775.5607806955095
 31
0.0
  0
ARC
  5
2D8
330
1F
100
AcDbEntity
  8
C4
 62
     0
100
AcDbCircle
 10
1341.1661029222
 20
595.7217173379379
 30
0.0
 40
3.999999999999995
100
AcDbArc
 50
90.00021045937261
 51
179.9998479604956
  0
ARC
  5
2D9
330
1F
100
AcDbEntity
  8
C4
 62
     0
100
AcDbCircle
 10
1333.166102922214
 20
582.5217173379402
 30
0.0
 40
3.999999999999995
100
AcDbArc
 50
270.0000584197119
 51
0.0
  0
ARC
  5
2DA
330
1F
100
AcDbEntity
  8
C4
 62
     0
100
AcDbCircle
 10
1517.969102922199
 20
944.8607806955074
 30
0.0
 40
0.1999999999999999
100
AcDbArc
 50
0.0
 51
90.00021045938564
  0
ARC
  5
2DB
330
1F
100
AcDbEntity
  8
C4
 62
     0
100
AcDbCircle
 10
1517.969102922199
 20
944.8607806955074
 30
0.0
 40
1.199999999999999
100
AcDbArc
 50
0.0
 51
90.00021045937478
  0
ARC
  5
2DC
330
1F
100
AcDbEntity
  8
C4
 62
     0
100
AcDbCircle
 10
1324.566102922216
 20
1096.519717337938
 30
0.0
 40
2.999999999999998
100
AcDbArc
 50
0.0
 51
90.00021045937261
  0
ARC
  5
2DD
330
1F
100
AcDbEntity
  8
C4
 62
     0
100
AcDbCircle
 10
1324.566102922216
 20
1096.519717337938
 30
0.0
 40
3.999999999999995
100
AcDbArc
 50
0.0
 51
90.00021045937261
  0
ARC
  5
2DE
330
1F
100
AcDbEntity
  8
C4
 62
     0
100
AcDbCircle
 10
1513.599102922197
 20
761.5607806955063
 30
0.0
 40
2.499999999999997
100
AcDbArc
 50
90.00021045937261
 51
178.4998444528621
  0
ARC
  5
2DF
330
1F
100
AcDbEntity
  8
C4
 62
     0
100
AcDbCircle
 10
1517.969102922199
 20
764.2607806955077
 30
0.0
 40
1.199999999999999
100
AcDbArc
 50
270.0000584197119
 51
0.0
  0
ARC
  5
2E0
330
1F
100
AcDbEntity
  8
C4
 62
     0
100
AcDbCircle
 10
1513.599102922197
 20
947.5607806955068
 30
0.0
 40
1.499999999999998
100
AcDbArc
 50
181.5004244259413
 51
270.0000584197119
  0
ARC
  5
2E1
330
1F
100
AcDbEntity
  8
C4
 62
     0
100
AcDbCircle
 10
1517.969102922199
 20
764.2607806955077
 30
0.0
 40
0.1999999999999999
100
AcDbArc
 50
270.0000584197119
 51
0.0
  0
ARC
  5
2E2
330
1F
100
AcDbEntity
  8
C4
 62
     0
100
AcDbCircle
 10
1341.1661029222
 20
595.7217173379379
 30
0.0
 40
4.999999999999995
100
AcDbArc
 50
90.00021045937261
 51
179.9998479604956
  0
ARC
  5
2E3
330
1F
100
AcDbEntity
  8
C4
 62
     0
100
AcDbCircle
 10
1333.166102922214
 20
582.5217173379402
 30
0.0
 40
2.999999999999998
100
AcDbArc
 50
270.0000584197119
 51
0.0
  0
ARC
  5
2E4
330
1F
100
AcDbEntity
  8
C4
 62
     0
100
AcDbCircle
 10
1513.599102922197
 20
761.5607806955063
 30
0.0
 40
1.499999999999998
100
AcDbArc
 50
90.00021045937261
 51
178.4998444528648
  0
ARC
  5
2E5
330
1F
100
AcDbEntity
  8
C4
 62
     0
100
AcDbCircle
 10
1341.1661029222
 20
1003.319717337938
 30
0.0
 40
4.999999999999995
100
AcDbArc
 50
179.9998479604956
 51
270.0000584197119
  0
ARC
  5
2E6
330
1F
100
AcDbEntity
  8
C4
 62
     0
100
AcDbCircle
 10
1330.566102922201
 20
1022.519717337938
 30
0.0
 40
2.999999999999998
100
AcDbArc
 50
179.9998479604956
 51
270.0000584197119
  0
ARC
  5
2E7
330
1F
100
AcDbEntity
  8
C4
 62
     0
100
AcDbCircle
 10
1333.166102922214
 20
1016.51971733794
 30
0.0
 40
2.999999999999998
100
AcDbArc
 50
0.0
 51
90.00021045937261
  0
ARC
  5
2E8
330
1F
100
AcDbEntity
  8
C4
 62
     0
100
AcDbCircle
 10
1322.166102922196
 20
578.5187173379394
 30
0.0
 40
0.9999999999999999
100
AcDbArc
 50
90.01396144624654
 51
179.9998479604956
  0
ARC
  5
2E9
330
1F
100
AcDbEntity
  8
C4
 62
     0
100
AcDbCircle
 10
1322.166102922196
 20
1100.51971733794
 30
0.0
 40
0.9999999999999999
100
AcDbArc
 50
179.9998479604956
 51
270.0000584197119
  0
ARC
  5
2EA
330
1F
100
AcDbEntity
  8
C4
 62
     0
100
AcDbCircle
 10
1330.566102922201
 20
1022.519717337938
 30
0.0
 40
2.0
100
AcDbArc
 50
179.9998479604956
 51
270.0000584197119
  0
ARC
  5
2EB
330
1F
100
AcDbEntity
  8
C4
 62
     0
100
AcDbCircle
 10
1333.166102922214
 20
1016.51971733794
 30
0.0
 40
3.999999999999995
100
AcDbArc
 50
0.0
 51
90.00021045937261
  0
ARC
  5
2EC
330
1F
100
AcDbEntity
  8
C4
 62
     0
100
AcDbCircle
 10
1341.1661029222
 20
1003.319717337938
 30
0.0
 40
3.999999999999995
100
AcDbArc
 50
179.9998479604956
 51
270.0000584197119
  0
ARC
  5
2ED
330
1F
100
AcDbEntity
  8
C4
 62
     0
100
AcDbCircle
 10
1477.141618554479
 20
630.7217173379386
 30
0.0
 40
29.99999999999998
100
AcDbArc
 50
270.0
 51
358.5012505830899
  0
ARC
  5
2EE
330
1F
100
AcDbEntity
  8
C4
 62
     0
100
AcDbCircle
 10
1477.141874225939
 20
630.7217173379386
 30
0.0
 40
30.99999999999996
100
AcDbArc
 50
270.0
 51
358.5011936383111
  0
ARC
  5
2EF
330
1F
100
AcDbEntity
  8
C4
 62
     0
100
AcDbCircle
 10
1481.067334868339
 20
968.3197173379372
 30
0.0
 40
29.99999999999998
100
AcDbArc
 50
1.459263541953438
 51
90.0
  0
ARC
  5
2F0
330
1F
100
AcDbEntity
  8
C4
 62
     0
100
AcDbCircle
 10
1481.067569922774
 20
968.3197173379372
 30
0.0
 40
30.99999999999996
100
AcDbArc
 50
1.458892057739469
 51
90.0
  0
LINE
  5
2F1
330
1F
100
AcDbEntity
  8
C4
 62
     0
100
AcDbLine
 10
1336.166102922203
 20
1003.319717337938
 30
0.0
 11
1336.166102922203
 21
902.9033607740552
 31
0.0
  0
LINE
  5
2F2
330
1F
100
AcDbEntity
  8
C4
 62
     0
100
AcDbLine
 10
1336.166102922203
 20
696.1360739016038
 30
0.0
 11
1336.166102922203
 21
595.7217173379381
 31
0.0
  0
DIMENSION
  5
2F3
330
1F
100
AcDbEntity
  8
C寸法
 62
     0
370
    13
100
AcDbDimension
  2
*D28
 10
466.3577711513038
 20
694.5894194723451
 30
0.0
 11
570.8443601465946
 21
694.5894194723451
 31
0.0
 70
   160
  1
Φ<>
 71
     5
 42
180.8103317708083
 52
-270.0
  3
実寸
100
AcDbAlignedDimension
 13
647.1681029221121
 23
854.5607806955054
 33
0.0
 14
466.3577711513038
 24
854.3149534096362
 34
0.0
 50
180.0
100
AcDbRotatedDimension
1001
ACAD
1000
DSTYLE
1002
{
1070
   271
1070
     0
1070
   340
1005
F3
1070
   144
1040
1.0
1002
}
  0
DIMENSION
  5
38F
330
1F
100
AcDbEntity
  8
C寸法
 62
     7
370
    13
100
AcDbDimension
  2
*D29
 10
574.8097662485106
 20
1137.065646851128
 30
0.0
 11
706.7442900580345
 21
1154.565646851128
 31
0.0
 70
    32
  1
Φ<>水栓穴
 71
     5
 42
35.6594812887015
  3
JIS-1
100
AcDbAlignedDimension
 13
539.1502849598091
 23
1059.959902265822
 33
0.0
 14
574.8097662485106
 24
1059.519661756085
 34
0.0
100
AcDbRotatedDimension
1001
ACAD
1000
DSTYLE
1002
{
1070
   147
1040
5.0
1070
   271
1070
     0
1070
   175
1070
     0
1070
   140
1040
25.0
1070
   340
1005
F3
1070
    41
1040
25.0
1070
    42
1040
5.0
1002
}
  0
DIMENSION
  5
3A1
102
{ACAD_REACTORS
330
3A3
102
}
102
{ACAD_XDICTIONARY
360
3A2
102
}
330
1F
100
AcDbEntity
  8
C寸法
 62
     7
370
    13
100
AcDbDimension
  2
*D30
 10
334.2062367685739
 20
701.3053785831366
 30
0.0
 11
324.7282094645523
 21
695.2217449835224
 31
0.0
 70
   164
  1
4-<>
 71
     5
 42
100.0000000000355
  3
JIS-1
100
AcDbRadialDimension
 15
250.0505096198239
 25
647.2885887111697
 35
0.0
 40
0.0
1001
ACAD_DSTYLE_DIMRADIAL_EXTENSION
1070
   387
1070
     1
1070
   388
1040
3.193307458941542
1070
   390
1040
4.651402726335227
1001
ACAD
1000
DSTYLE
1002
{
1070
   140
1040
25.0
1070
   340
1005
F3
1070
   147
1040
5.0
1070
    41
1040
25.0
1070
   344
1005
90
1070
   173
1070
     1
1002
}
  0
DIMENSION
  5
3AC
102
{ACAD_XDICTIONARY
360
3AD
102
}
330
1F
100
AcDbEntity
  8
C寸法
 62
     7
370
    13
100
AcDbDimension
  2
*D31
 10
322.6645820751598
 20
650.5098182133528
 30
0.0
 11
362.8074512573192
 21
676.9196005700366
 31
0.0
 70
   164
  1
4-R60
 71
     5
 42
92.45466155226215
  3
JIS-1
100
AcDbRadialDimension
 15
245.426378481318
 25
599.6952105858253
 35
0.0
 40
0.0
1001
ACAD_DSTYLE_DIMRADIAL_EXTENSION
1070
   387
1070
     1
1070
   388
1040
3.141589999999848
1070
   390
1040
4.712389999997372
1001
ACAD
1000
DSTYLE
1002
{
1070
   140
1040
25.0
1070
   340
1005
F3
1070
    41
1040
25.0
1070
   344
1005
90
1070
   173
1070
     1
1002
}
  0
DIMENSION
  5
3F4
102
{ACAD_REACTORS
330
3F6
102
}
102
{ACAD_XDICTIONARY
360
3F5
102
}
330
1F
100
AcDbEntity
  8
C寸法
 62
     7
370
    13
100
AcDbDimension
  2
*D36
 10
291.6681029219853
 20
1039.519717337913
 30
0.0
 11
156.0059547102458
 21
1150.2557204335
 31
0.0
 70
   164
  1
4-<>
 71
     5
 42
60.00000000002129
  3
JIS-1
100
AcDbRadialDimension
 15
245.1869861995294
 25
1077.460536889367
 35
0.0
 40
0.0
1001
ACAD_DSTYLE_DIMRADIAL_EXTENSION
1070
   387
1070
     1
1070
   388
1040
1.570800000000252
1070
   390
1040
3.141589999999848
1001
ACAD
1000
DSTYLE
1002
{
1070
   147
1040
5.0
1070
   140
1040
25.0
1070
   340
1005
F3
1070
    41
1040
25.0
1070
   344
1005
90
1070
   173
1070
     1
1002
}
1001
ACAD_DSTYLE_DIMFLIPARROW_SYMBOL
1070
   385
1070
     0
1001
ACAD_DSTYLE_DIMFLIPARROW_WHICH_SYMBOL
1070
   386
1070
     3
  0
ENDSEC
  0
SECTION
  2
OBJECTS
  0
DICTIONARY
  5
C
330
0
100
AcDbDictionary
281
     1
  3
ACAD_COLOR
350
F5
  3
ACAD_DETAILVIEWSTYLE
350
DA
  3
ACAD_GROUP
350
D
  3
ACAD_IMAGE_VARS
350
6A
  3
ACAD_LAYOUT
350
1A
  3
ACAD_MATERIAL
350
97
  3
ACAD_MLEADERSTYLE
350
3F
  3
ACAD_MLINESTYLE
350
17
  3
ACAD_PLOTSETTINGS
350
19
  3
ACAD_PLOTSTYLENAME
350
E
  3
ACAD_SCALELIST
350
40
  3
ACAD_SECTIONVIEWSTYLE
350
DB
  3
ACAD_TABLESTYLE
350
3B
  3
ACDB_RECOMPOSE_DATA
350
410
  3
AcDbVariableDictionary
350
3D
  3
APPDATA
350
96
  0
DICTIONARY
  5
24F
330
2
100
AcDbDictionary
280
     1
281
     1
  3
ACAD_LAYERSTATES
360
250
  0
DICTIONARY
  5
3A2
330
3A1
100
AcDbDictionary
280
     1
281
     1
  3
ACAD_DIMASSOC
360
3A3
  0
DICTIONARY
  5
3AD
330
3AC
100
AcDbDictionary
280
     1
281
     1
  0
DICTIONARY
  5
3F5
330
3F4
100
AcDbDictionary
280
     1
281
     1
  3
ACAD_DIMASSOC
360
3F6
  0
DICTIONARY
  5
F5
102
{ACAD_REACTORS
330
C
102
}
330
C
100
AcDbDictionary
281
     1
  0
DICTIONARY
  5
DA
102
{ACAD_REACTORS
330
C
102
}
330
C
100
AcDbDictionary
281
     1
  0
DICTIONARY
  5
D
102
{ACAD_REACTORS
330
C
102
}
330
C
100
AcDbDictionary
281
     1
  0
RASTERVARIABLES
  5
6A
102
{ACAD_REACTORS
330
C
102
}
330
C
100
AcDbRasterVariables
 90
        0
 70
     1
 71
     1
 72
     1
  0
DICTIONARY
  5
1A
102
{ACAD_REACTORS
330
C
102
}
330
C
100
AcDbDictionary
281
     1
  3
Model
350
22
  3
Sheet1
350
1E
  3
Sheet2
350
26
  0
DICTIONARY
  5
97
102
{ACAD_REACTORS
330
C
102
}
330
C
100
AcDbDictionary
281
     1
  3
ByBlock
350
99
  3
ByLayer
350
98
  3
Global
350
9A
  0
DICTIONARY
  5
3F
102
{ACAD_REACTORS
330
C
102
}
330
C
100
AcDbDictionary
281
     1
  3
Standard
350
DC
  0
DICTIONARY
  5
17
102
{ACAD_REACTORS
330
C
102
}
330
C
100
AcDbDictionary
281
     1
  3
Standard
350
18
  0
DICTIONARY
  5
19
102
{ACAD_REACTORS
330
C
102
}
330
C
100
AcDbDictionary
281
     1
  0
ACDBDICTIONARYWDFLT
  5
E
102
{ACAD_REACTORS
330
C
102
}
330
C
100
AcDbDictionary
281
     1
  3
Normal
350
F
100
AcDbDictionaryWithDefault
340
F
  0
DICTIONARY
  5
40
102
{ACAD_REACTORS
330
C
102
}
330
C
100
AcDbDictionary
281
     1
  3
A0
350
41
  3
A1
350
42
  3
A2
350
43
  3
A3
350
44
  3
A4
350
45
  3
A5
350
46
  3
A6
350
47
  3
A7
350
48
  3
A8
350
49
  3
A9
350
4A
  3
B0
350
4B
  3
B1
350
4C
  3
B2
350
4D
  3
B3
350
4E
  3
B4
350
4F
  3
B5
350
50
  3
B6
350
51
  3
B7
350
52
  3
B8
350
53
  3
B9
350
54
  3
C0
350
55
  3
C1
350
56
  3
C2
350
57
  3
C3
350
58
  3
C4
350
59
  3
C5
350
5A
  3
C6
350
5B
  3
C7
350
5C
  3
C8
350
5D
  3
C9
350
5E
  3
D0
350
5F
  3
D1
350
60
  3
D2
350
61
  0
DICTIONARY
  5
DB
102
{ACAD_REACTORS
330
C
102
}
330
C
100
AcDbDictionary
281
     1
  0
DICTIONARY
  5
3B
102
{ACAD_REACTORS
330
C
102
}
330
C
100
AcDbDictionary
281
     1
  3
Standard
350
3C
  0
XRECORD
  5
410
102
{ACAD_REACTORS
330
C
102
}
330
C
100
AcDbXrecord
280
     1
 90
        1
330
3C
  0
DICTIONARY
  5
3D
102
{ACAD_REACTORS
330
C
102
}
330
C
100
AcDbDictionary
281
     1
  3
CANNOSCALE
350
62
  3
CMLEADERSTYLE
350
402
  3
CTABLESTYLE
350
3E
  3
LIGHTSINBLOCKS
350
6F
  3
XCLIPFRAME
350
70
  0
DICTIONARY
  5
96
102
{ACAD_REACTORS
330
C
102
}
330
C
100
AcDbDictionary
281
     1
  0
DICTIONARY
  5
250
102
{ACAD_REACTORS
330
24F
102
}
330
24F
100
AcDbDictionary
281
     1
  3
ARGON_LAYERP_1
350
38E
  0
DIMASSOC
  5
3A3
102
{ACAD_REACTORS
330
3A2
102
}
330
3A2
100
AcDbDimAssoc
330
3A1
 90
        2
 70
     0
 71
     1
  1
AcDbOsnapPointRef
 72
     3
331
273
 73
     0
 91
        0
 40
0.0
 10
0.0
 20
0.0
 30
0.0
 75
     0
  0
DIMASSOC
  5
3F6
102
{ACAD_REACTORS
330
3F5
102
}
330
3F5
100
AcDbDimAssoc
330
3F4
 90
        2
 70
     0
 71
     1
  1
AcDbOsnapPointRef
 72
     3
331
267
 73
     0
 91
        0
 40
0.0
 10
0.0
 20
0.0
 30
0.0
 75
     0
  0
LAYOUT
  5
22
102
{ACAD_REACTORS
330
1A
102
}
330
1A
100
AcDbPlotSettings
  1

  2
none_device
  4
ISO_A3_(420.00_x_297.00_MM)
  6

 40
7.5
 41
20.0
 42
7.5
 43
20.0
 44
420.0
 45
297.0
 46
20.78282828282826
 47
0.0
 48
0.0
 49
0.0
140
0.0
141
0.0
142
1.0
143
1.155642023346303
 70
  1204
 72
     1
 73
     0
 74
     1
  7
monochrome.ctb
 75
     0
 76
     0
 77
     2
 78
   300
147
0.8653198653198654
148
-134.1869158878504
149
0.0
100
AcDbLayout
  1
Model
 70
     1
 71
     0
 10
0.0
 20
0.0
 11
420.0
 21
297.0
 12
0.0
 22
0.0
 32
0.0
 14
41.54695940740885
 24
38.5688002080642
 34
0.0
 15
1841.602618649955
 25
1240.117288115557
 35
0.0
146
0.0
 13
0.0
 23
0.0
 33
0.0
 16
1.0
 26
0.0
 36
0.0
 17
0.0
 27
1.0
 37
0.0
 76
     0
330
1F
331
29
  0
LAYOUT
  5
1E
102
{ACAD_REACTORS
330
1A
102
}
330
1A
100
AcDbPlotSettings
  1

  2
none_device
  4

  6

 40
0.0
 41
0.0
 42
0.0
 43
0.0
 44
0.0
 45
0.0
 46
0.0
 47
0.0
 48
0.0
 49
0.0
140
0.0
141
0.0
142
1.0
143
1.0
 70
   688
 72
     0
 73
     0
 74
     5
  7

 75
    16
 76
     0
 77
     2
 78
   300
147
1.0
148
0.0
149
0.0
100
AcDbLayout
  1
Sheet1
 70
     1
 71
     1
 10
0.0
 20
0.0
 11
420.0
 21
297.0
 12
0.0
 22
0.0
 32
0.0
 14
1.000000000000000E+20
 24
1.000000000000000E+20
 34
1.000000000000000E+20
 15
-1.000000000000000E+20
 25
-1.000000000000000E+20
 35
-1.000000000000000E+20
146
0.0
 13
0.0
 23
0.0
 33
0.0
 16
1.0
 26
0.0
 36
0.0
 17
0.0
 27
1.0
 37
0.0
 76
     0
330
1B
  0
LAYOUT
  5
26
102
{ACAD_REACTORS
330
1A
102
}
330
1A
100
AcDbPlotSettings
  1

  2
none_device
  4

  6

 40
0.0
 41
0.0
 42
0.0
 43
0.0
 44
0.0
 45
0.0
 46
0.0
 47
0.0
 48
0.0
 49
0.0
140
0.0
141
0.0
142
1.0
143
1.0
 70
   688
 72
     0
 73
     0
 74
     5
  7

 75
    16
 76
     0
 77
     2
 78
   300
147
1.0
148
0.0
149
0.0
100
AcDbLayout
  1
Sheet2
 70
     1
 71
     2
 10
0.0
 20
0.0
 11
0.0
 21
0.0
 12
0.0
 22
0.0
 32
0.0
 14
0.0
 24
0.0
 34
0.0
 15
0.0
 25
0.0
 35
0.0
146
0.0
 13
0.0
 23
0.0
 33
0.0
 16
1.0
 26
0.0
 36
0.0
 17
0.0
 27
1.0
 37
0.0
 76
     0
330
23
  0
MATERIAL
  5
99
102
{ACAD_REACTORS
330
97
102
}
330
97
100
AcDbMaterial
  1
ByBlock
  0
MATERIAL
  5
98
102
{ACAD_REACTORS
330
97
102
}
330
97
100
AcDbMaterial
  1
ByLayer
  0
MATERIAL
  5
9A
102
{ACAD_REACTORS
330
97
102
}
330
97
100
AcDbMaterial
  1
Global
  0
MLEADERSTYLE
  5
DC
102
{ACAD_REACTORS
330
3F
102
}
330
3F
100
AcDbMLeaderStyle
170
     2
171
     1
172
     0
 90
        2
 40
0.0
 41
0.0
173
     1
 91
-1056964608
340
14
 92
       -2
290
     1
 42
2.0
291
     1
 43
8.0
  3
Standard
341
0
 44
4.0
300

342
11
174
     1
178
     6
175
     1
176
     0
 93
-1056964608
 45
4.0
292
     0
297
     0
 46
4.0
343
0
 94
-1056964608
 47
1.0
 49
1.0
140
1.0
293
     1
141
0.0
294
     1
177
     0
142
1.0
295
     0
296
     0
143
3.75
1001
ACAD_MLEADERVER
1070
     2
  0
MLINESTYLE
  5
18
102
{ACAD_REACTORS
330
17
102
}
330
17
100
AcDbMlineStyle
  2
Standard
 70
     0
  3

 62
   256
 51
90.0
 52
90.0
 71
     2
 49
0.5
 62
   256
  6
BYLAYER
 49
-0.5
 62
   256
  6
BYLAYER
  0
ACDBPLACEHOLDER
  5
F
102
{ACAD_REACTORS
330
E
102
}
330
E
  0
SCALE
  5
41
102
{ACAD_REACTORS
330
40
102
}
330
40
100
AcDbScale
 70
     0
300
1:1
140
1.0
141
1.0
290
     1
  0
SCALE
  5
42
102
{ACAD_REACTORS
330
40
102
}
330
40
100
AcDbScale
 70
     0
300
1:2
140
1.0
141
2.0
290
     0
  0
SCALE
  5
43
102
{ACAD_REACTORS
330
40
102
}
330
40
100
AcDbScale
 70
     0
300
1:4
140
1.0
141
4.0
290
     0
  0
SCALE
  5
44
102
{ACAD_REACTORS
330
40
102
}
330
40
100
AcDbScale
 70
     0
300
1:5
140
1.0
141
5.0
290
     0
  0
SCALE
  5
45
102
{ACAD_REACTORS
330
40
102
}
330
40
100
AcDbScale
 70
     0
300
1:8
140
1.0
141
8.0
290
     0
  0
SCALE
  5
46
102
{ACAD_REACTORS
330
40
102
}
330
40
100
AcDbScale
 70
     0
300
1:10
140
1.0
141
10.0
290
     0
  0
SCALE
  5
47
102
{ACAD_REACTORS
330
40
102
}
330
40
100
AcDbScale
 70
     0
300
1:16
140
1.0
141
16.0
290
     0
  0
SCALE
  5
48
102
{ACAD_REACTORS
330
40
102
}
330
40
100
AcDbScale
 70
     0
300
1:20
140
1.0
141
20.0
290
     0
  0
SCALE
  5
49
102
{ACAD_REACTORS
330
40
102
}
330
40
100
AcDbScale
 70
     0
300
1:30
140
1.0
141
30.0
290
     0
  0
SCALE
  5
4A
102
{ACAD_REACTORS
330
40
102
}
330
40
100
AcDbScale
 70
     0
300
1:40
140
1.0
141
40.0
290
     0
  0
SCALE
  5
4B
102
{ACAD_REACTORS
330
40
102
}
330
40
100
AcDbScale
 70
     0
300
1:50
140
1.0
141
50.0
290
     0
  0
SCALE
  5
4C
102
{ACAD_REACTORS
330
40
102
}
330
40
100
AcDbScale
 70
     0
300
1:100
140
1.0
141
100.0
290
     0
  0
SCALE
  5
4D
102
{ACAD_REACTORS
330
40
102
}
330
40
100
AcDbScale
 70
     0
300
2:1
140
2.0
141
1.0
290
     0
  0
SCALE
  5
4E
102
{ACAD_REACTORS
330
40
102
}
330
40
100
AcDbScale
 70
     0
300
4:1
140
4.0
141
1.0
290
     0
  0
SCALE
  5
4F
102
{ACAD_REACTORS
330
40
102
}
330
40
100
AcDbScale
 70
     0
300
8:1
140
8.0
141
1.0
290
     0
  0
SCALE
  5
50
102
{ACAD_REACTORS
330
40
102
}
330
40
100
AcDbScale
 70
     0
300
10:1
140
10.0
141
1.0
290
     0
  0
SCALE
  5
51
102
{ACAD_REACTORS
330
40
102
}
330
40
100
AcDbScale
 70
     0
300
100:1
140
100.0
141
1.0
290
     0
  0
SCALE
  5
52
102
{ACAD_REACTORS
330
40
102
}
330
40
100
AcDbScale
 70
     0
300
1/128" = 1'-0"
140
0.0078125
141
12.0
290
     0
  0
SCALE
  5
53
102
{ACAD_REACTORS
330
40
102
}
330
40
100
AcDbScale
 70
     0
300
1/64" = 1'-0"
140
0.015625
141
12.0
290
     0
  0
SCALE
  5
54
102
{ACAD_REACTORS
330
40
102
}
330
40
100
AcDbScale
 70
     0
300
1/32" = 1'-0"
140
0.03125
141
12.0
290
     0
  0
SCALE
  5
55
102
{ACAD_REACTORS
330
40
102
}
330
40
100
AcDbScale
 70
     0
300
1/16" = 1'-0"
140
0.0625
141
12.0
290
     0
  0
SCALE
  5
56
102
{ACAD_REACTORS
330
40
102
}
330
40
100
AcDbScale
 70
     0
300
3/32" = 1'-0"
140
0.09375
141
12.0
290
     0
  0
SCALE
  5
57
102
{ACAD_REACTORS
330
40
102
}
330
40
100
AcDbScale
 70
     0
300
1/8" = 1'-0"
140
0.125
141
12.0
290
     0
  0
SCALE
  5
58
102
{ACAD_REACTORS
330
40
102
}
330
40
100
AcDbScale
 70
     0
300
3/16" = 1'-0"
140
0.1875
141
12.0
290
     0
  0
SCALE
  5
59
102
{ACAD_REACTORS
330
40
102
}
330
40
100
AcDbScale
 70
     0
300
1/4" = 1'-0"
140
0.25
141
12.0
290
     0
  0
SCALE
  5
5A
102
{ACAD_REACTORS
330
40
102
}
330
40
100
AcDbScale
 70
     0
300
3/8" = 1'-0"
140
0.375
141
12.0
290
     0
  0
SCALE
  5
5B
102
{ACAD_REACTORS
330
40
102
}
330
40
100
AcDbScale
 70
     0
300
1/2" = 1'-0"
140
0.5
141
12.0
290
     0
  0
SCALE
  5
5C
102
{ACAD_REACTORS
330
40
102
}
330
40
100
AcDbScale
 70
     0
300
3/4" = 1'-0"
140
0.75
141
12.0
290
     0
  0
SCALE
  5
5D
102
{ACAD_REACTORS
330
40
102
}
330
40
100
AcDbScale
 70
     0
300
1" = 1'-0"
140
1.0
141
12.0
290
     0
  0
SCALE
  5
5E
102
{ACAD_REACTORS
330
40
102
}
330
40
100
AcDbScale
 70
     0
300
1-1/2" = 1'-0"
140
1.5
141
12.0
290
     0
  0
SCALE
  5
5F
102
{ACAD_REACTORS
330
40
102
}
330
40
100
AcDbScale
 70
     0
300
3" = 1'-0"
140
3.0
141
12.0
290
     0
  0
SCALE
  5
60
102
{ACAD_REACTORS
330
40
102
}
330
40
100
AcDbScale
 70
     0
300
6" = 1'-0"
140
6.0
141
12.0
290
     0
  0
SCALE
  5
61
102
{ACAD_REACTORS
330
40
102
}
330
40
100
AcDbScale
 70
     0
300
1'-0" = 1'-0"
140
12.0
141
12.0
290
     0
  0
TABLESTYLE
  5
3C
102
{ACAD_REACTORS
330
3B
102
}
102
{ACAD_XDICTIONARY
360
40C
102
}
330
3B
100
AcDbTableStyle
  3
Standard
 70
     0
 71
     0
 40
1.5
 41
1.5
280
     0
281
     0
  7
Standard
140
4.5
170
     2
 62
     0
 63
   257
283
     0
274
    -2
284
     1
 64
     0
275
    -2
285
     1
 65
     0
276
    -2
286
     1
 66
     0
277
    -2
287
     1
 67
     0
278
    -2
288
     1
 68
     0
279
    -2
289
     1
 69
     0
  7
Standard
140
6.0
170
     5
 62
     0
 63
   257
283
     0
274
    -2
284
     1
 64
     0
275
    -2
285
     1
 65
     0
276
    -2
286
     1
 66
     0
277
    -2
287
     1
 67
     0
278
    -2
288
     1
 68
     0
279
    -2
289
     1
 69
     0
  7
Standard
140
4.5
170
     5
 62
     0
 63
   257
283
     0
274
    -2
284
     1
 64
     0
275
    -2
285
     1
 65
     0
276
    -2
286
     1
 66
     0
277
    -2
287
     1
 67
     0
278
    -2
288
     1
 68
     0
279
    -2
289
     1
 69
     0
  0
DICTIONARYVAR
  5
62
102
{ACAD_REACTORS
330
3D
102
}
330
3D
100
DictionaryVariables
280
     0
  1
1:1
  0
DICTIONARYVAR
  5
402
102
{ACAD_REACTORS
330
3D
102
}
330
3D
100
DictionaryVariables
280
     0
  1
Standard
  0
DICTIONARYVAR
  5
3E
102
{ACAD_REACTORS
330
3D
102
}
330
3D
100
DictionaryVariables
280
     0
  1
Standard
  0
DICTIONARYVAR
  5
6F
102
{ACAD_REACTORS
330
3D
102
}
330
3D
100
DictionaryVariables
280
     0
  1
0
  0
DICTIONARYVAR
  5
70
102
{ACAD_REACTORS
330
3D
102
}
330
3D
100
DictionaryVariables
280
     0
  1
0
  0
XRECORD
  5
38E
102
{ACAD_REACTORS
330
250
102
}
330
250
100
AcDbXrecord
280
     1
 91
     1023
301

290
     0
302
0
330
10
 90
        8
 62
     7
370
    -3
331
16
  1
Normal
330
7E
 90
        0
 62
     7
370
    -3
331
16
  1
Normal
330
DE
 90
        8
 62
     1
370
    -3
331
E2
  1
Normal
330
E3
 90
        8
 62
     3
370
    -3
331
16
  1
Normal
330
E4
 90
        8
 62
     4
370
    -3
331
16
  1
Normal
  0
DICTIONARY
  5
40C
330
3C
100
AcDbDictionary
280
     1
281
     1
  3
ACAD_ROUNDTRIP_2008_TABLESTYLE_CELLSTYLEMAP
360
40E
  3
ACAD_XREC_ROUNDTRIP
360
40D
  0
CELLSTYLEMAP
  5
40E
102
{ACAD_REACTORS
330
40C
102
}
330
40C
100
AcDbCellStyleMap
 90
        3
300
CELLSTYLE
  1
TABLEFORMAT_BEGIN
 90
        5
170
     1
 91
        0
 92
    32768
 62
   257
 93
        1
300
CONTENTFORMAT
  1
CONTENTFORMAT_BEGIN
 90
        0
 91
        0
 92
      512
 93
        0
300

 40
0.0
140
1.0
 94
        5
 62
     0
340
11
144
6.0
309
CONTENTFORMAT_END
171
     1
301
MARGIN
  1
CELLMARGIN_BEGIN
 40
1.5
 40
1.5
 40
1.5
 40
1.5
 40
0.18
 40
0.18
309
CELLMARGIN_END
 94
        6
 95
        1
302
GRIDFORMAT
  1
GRIDFORMAT_BEGIN
 90
        0
 91
        1
 62
     0
 92
       -2
340
0
 93
        0
 40
0.045
309
GRIDFORMAT_END
 95
        2
302
GRIDFORMAT
  1
GRIDFORMAT_BEGIN
 90
        0
 91
        1
 62
     0
 92
       -2
340
0
 93
        0
 40
0.045
309
GRIDFORMAT_END
 95
        4
302
GRIDFORMAT
  1
GRIDFORMAT_BEGIN
 90
        0
 91
        1
 62
     0
 92
       -2
340
0
 93
        0
 40
0.045
309
GRIDFORMAT_END
 95
        8
302
GRIDFORMAT
  1
GRIDFORMAT_BEGIN
 90
        0
 91
        1
 62
     0
 92
       -2
340
0
 93
        0
 40
0.045
309
GRIDFORMAT_END
 95
       16
302
GRIDFORMAT
  1
GRIDFORMAT_BEGIN
 90
        0
 91
        1
 62
     0
 92
       -2
340
0
 93
        0
 40
0.045
309
GRIDFORMAT_END
 95
       32
302
GRIDFORMAT
  1
GRIDFORMAT_BEGIN
 90
        0
 91
        1
 62
     0
 92
       -2
340
0
 93
        0
 40
0.045
309
GRIDFORMAT_END
309
TABLEFORMAT_END
  1
CELLSTYLE_BEGIN
 90
        1
 91
        1
300
_TITLE
309
CELLSTYLE_END
300
CELLSTYLE
  1
TABLEFORMAT_BEGIN
 90
        5
170
     1
 91
        0
 92
        0
 62
   257
 93
        1
300
CONTENTFORMAT
  1
CONTENTFORMAT_BEGIN
 90
        0
 91
        0
 92
      512
 93
        0
300

 40
0.0
140
1.0
 94
        5
 62
     0
340
11
144
4.5
309
CONTENTFORMAT_END
171
     1
301
MARGIN
  1
CELLMARGIN_BEGIN
 40
1.5
 40
1.5
 40
1.5
 40
1.5
 40
0.18
 40
0.18
309
CELLMARGIN_END
 94
        6
 95
        1
302
GRIDFORMAT
  1
GRIDFORMAT_BEGIN
 90
        0
 91
        1
 62
     0
 92
       -2
340
0
 93
        0
 40
0.045
309
GRIDFORMAT_END
 95
        2
302
GRIDFORMAT
  1
GRIDFORMAT_BEGIN
 90
        0
 91
        1
 62
     0
 92
       -2
340
0
 93
        0
 40
0.045
309
GRIDFORMAT_END
 95
        4
302
GRIDFORMAT
  1
GRIDFORMAT_BEGIN
 90
        0
 91
        1
 62
     0
 92
       -2
340
0
 93
        0
 40
0.045
309
GRIDFORMAT_END
 95
        8
302
GRIDFORMAT
  1
GRIDFORMAT_BEGIN
 90
        0
 91
        1
 62
     0
 92
       -2
340
0
 93
        0
 40
0.045
309
GRIDFORMAT_END
 95
       16
302
GRIDFORMAT
  1
GRIDFORMAT_BEGIN
 90
        0
 91
        1
 62
     0
 92
       -2
340
0
 93
        0
 40
0.045
309
GRIDFORMAT_END
 95
       32
302
GRIDFORMAT
  1
GRIDFORMAT_BEGIN
 90
        0
 91
        1
 62
     0
 92
       -2
340
0
 93
        0
 40
0.045
309
GRIDFORMAT_END
309
TABLEFORMAT_END
  1
CELLSTYLE_BEGIN
 90
        2
 91
        1
300
_HEADER
309
CELLSTYLE_END
300
CELLSTYLE
  1
TABLEFORMAT_BEGIN
 90
        5
170
     1
 91
        0
 92
        0
 62
   257
 93
        1
300
CONTENTFORMAT
  1
CONTENTFORMAT_BEGIN
 90
        0
 91
        0
 92
      512
 93
        0
300

 40
0.0
140
1.0
 94
        2
 62
     0
340
11
144
4.5
309
CONTENTFORMAT_END
171
     1
301
MARGIN
  1
CELLMARGIN_BEGIN
 40
1.5
 40
1.5
 40
1.5
 40
1.5
 40
0.18
 40
0.18
309
CELLMARGIN_END
 94
        6
 95
        1
302
GRIDFORMAT
  1
GRIDFORMAT_BEGIN
 90
        0
 91
        1
 62
     0
 92
       -2
340
0
 93
        0
 40
0.045
309
GRIDFORMAT_END
 95
        2
302
GRIDFORMAT
  1
GRIDFORMAT_BEGIN
 90
        0
 91
        1
 62
     0
 92
       -2
340
0
 93
        0
 40
0.045
309
GRIDFORMAT_END
 95
        4
302
GRIDFORMAT
  1
GRIDFORMAT_BEGIN
 90
        0
 91
        1
 62
     0
 92
       -2
340
0
 93
        0
 40
0.045
309
GRIDFORMAT_END
 95
        8
302
GRIDFORMAT
  1
GRIDFORMAT_BEGIN
 90
        0
 91
        1
 62
     0
 92
       -2
340
0
 93
        0
 40
0.045
309
GRIDFORMAT_END
 95
       16
302
GRIDFORMAT
  1
GRIDFORMAT_BEGIN
 90
        0
 91
        1
 62
     0
 92
       -2
340
0
 93
        0
 40
0.045
309
GRIDFORMAT_END
 95
       32
302
GRIDFORMAT
  1
GRIDFORMAT_BEGIN
 90
        0
 91
        1
 62
     0
 92
       -2
340
0
 93
        0
 40
0.045
309
GRIDFORMAT_END
309
TABLEFORMAT_END
  1
CELLSTYLE_BEGIN
 90
        3
 91
        2
300
_DATA
309
CELLSTYLE_END
  0
XRECORD
  5
40D
102
{ACAD_REACTORS
330
40C
102
}
330
40C
100
AcDbXrecord
280
     1
102
ACAD_ROUNDTRIP_PRE2007_TABLESTYLE
 90
      512
 91
        0
  1

 92
      512
 93
        0
  2

 94
      512
 95
        0
  3

  0
ENDSEC
  0
EOF
