  0
SECTION
  2
HEADER
  9
$ACADVER
  1
AC1018
  9
$ACADMAINTVER
 70
     0
  9
$DWGCODEPAGE
  3
ANSI_932
  9
$LASTSAVEDBY
  1
小谷 浩和
  9
$INSBASE
 10
0.0
 20
0.0
 30
0.0
  9
$EXTMIN
 10
4.737862335098214
 20
3.495782105357591
 30
0.0
  9
$EXTMAX
 10
1804.793521577644
 20
1205.044270012851
 30
0.0
  9
$LIMMIN
 10
0.0
 20
0.0
  9
$LIMMAX
 10
420.0
 20
297.0
  9
$ORTHOMODE
 70
     0
  9
$REGENMODE
 70
     1
  9
$FILLMODE
 70
     1
  9
$QTEXTMODE
 70
     0
  9
$MIRRTEXT
 70
     0
  9
$LTSCALE
 40
1.0
  9
$ATTMODE
 70
     1
  9
$TEXTSIZE
 40
2.5
  9
$TRACEWID
 40
1.0
  9
$TEXTSTYLE
  7
Standard
  9
$CLAYER
  8
0
  9
$CELTYPE
  6
ByLayer
  9
$CECOLOR
 62
   256
  9
$CELTSCALE
 40
1.0
  9
$DISPSILH
 70
     0
  9
$DIMSCALE
 40
1.0
  9
$DIMASZ
 40
2.5
  9
$DIMEXO
 40
0.625
  9
$DIMDLI
 40
3.75
  9
$DIMRND
 40
0.0
  9
$DIMDLE
 40
0.0
  9
$DIMEXE
 40
1.25
  9
$DIMTP
 40
0.0
  9
$DIMTM
 40
0.0
  9
$DIMTXT
 40
2.5
  9
$DIMCEN
 40
2.5
  9
$DIMTSZ
 40
0.0
  9
$DIMTOL
 70
     0
  9
$DIMLIM
 70
     0
  9
$DIMTIH
 70
     0
  9
$DIMTOH
 70
     0
  9
$DIMSE1
 70
     0
  9
$DIMSE2
 70
     0
  9
$DIMTAD
 70
     1
  9
$DIMZIN
 70
     8
  9
$DIMBLK
  1
OPEN
  9
$DIMASO
 70
     1
  9
$DIMSHO
 70
     1
  9
$DIMPOST
  1

  9
$DIMAPOST
  1

  9
$DIMALT
 70
     0
  9
$DIMALTD
 70
     3
  9
$DIMALTF
 40
0.03937007874016
  9
$DIMLFAC
 40
1.0
  9
$DIMTOFL
 70
     1
  9
$DIMTVP
 40
0.0
  9
$DIMTIX
 70
     0
  9
$DIMSOXD
 70
     0
  9
$DIMSAH
 70
     0
  9
$DIMBLK1
  1

  9
$DIMBLK2
  1

  9
$DIMSTYLE
  2
JIS-1
  9
$DIMCLRD
 70
     0
  9
$DIMCLRE
 70
     0
  9
$DIMCLRT
 70
     0
  9
$DIMTFAC
 40
1.0
  9
$DIMGAP
 40
0.625
  9
$DIMJUST
 70
     0
  9
$DIMSD1
 70
     0
  9
$DIMSD2
 70
     0
  9
$DIMTOLJ
 70
     0
  9
$DIMTZIN
 70
     8
  9
$DIMALTZ
 70
     0
  9
$DIMALTTZ
 70
     0
  9
$DIMUPT
 70
     0
  9
$DIMDEC
 70
     2
  9
$DIMTDEC
 70
     2
  9
$DIMALTU
 70
     2
  9
$DIMALTTD
 70
     3
  9
$DIMTXSTY
  7
Standard
  9
$DIMAUNIT
 70
     0
  9
$DIMADEC
 70
     0
  9
$DIMALTRND
 40
0.0
  9
$DIMAZIN
 70
     0
  9
$DIMDSEP
 70
    44
  9
$DIMATFIT
 70
     3
  9
$DIMFRAC
 70
     0
  9
$DIMLDRBLK
  1
OPEN
  9
$DIMLUNIT
 70
     2
  9
$DIMLWD
 70
    -2
  9
$DIMLWE
 70
    -2
  9
$DIMTMOVE
 70
     0
  9
$LUNITS
 70
     2
  9
$LUPREC
 70
     3
  9
$SKETCHINC
 40
1.0
  9
$FILLETRAD
 40
10.0
  9
$AUNITS
 70
     0
  9
$AUPREC
 70
     0
  9
$MENU
  1
.
  9
$ELEVATION
 40
0.0
  9
$PELEVATION
 40
0.0
  9
$THICKNESS
 40
0.0
  9
$LIMCHECK
 70
     0
  9
$CHAMFERA
 40
10.0
  9
$CHAMFERB
 40
10.0
  9
$CHAMFERC
 40
20.0
  9
$CHAMFERD
 40
0.0
  9
$SKPOLY
 70
     0
  9
$TDCREATE
 40
2455023.012359514
  9
$TDUCREATE
 40
2455022.637359514
  9
$TDUPDATE
 40
2457241.760753229
  9
$TDUUPDATE
 40
2457241.385753229
  9
$TDINDWG
 40
0.0101990278
  9
$TDUSRTIMER
 40
2457241.385253761
  9
$USRTIMER
 70
     1
  9
$ANGBASE
 50
0.0
  9
$ANGDIR
 70
     0
  9
$PDMODE
 70
     0
  9
$PDSIZE
 40
0.0
  9
$PLINEWID
 40
0.0
  9
$SPLFRAME
 70
     0
  9
$SPLINETYPE
 70
     6
  9
$SPLINESEGS
 70
     8
  9
$HANDSEED
  5
3E9
  9
$SURFTAB1
 70
     6
  9
$SURFTAB2
 70
     6
  9
$SURFTYPE
 70
     6
  9
$SURFU
 70
     6
  9
$SURFV
 70
     6
  9
$UCSBASE
  2

  9
$UCSNAME
  2

  9
$UCSORG
 10
0.0
 20
0.0
 30
0.0
  9
$UCSXDIR
 10
1.0
 20
0.0
 30
0.0
  9
$UCSYDIR
 10
0.0
 20
1.0
 30
0.0
  9
$UCSORTHOREF
  2

  9
$UCSORTHOVIEW
 70
     0
  9
$UCSORGTOP
 10
0.0
 20
0.0
 30
0.0
  9
$UCSORGBOTTOM
 10
0.0
 20
0.0
 30
0.0
  9
$UCSORGLEFT
 10
0.0
 20
0.0
 30
0.0
  9
$UCSORGRIGHT
 10
0.0
 20
0.0
 30
0.0
  9
$UCSORGFRONT
 10
0.0
 20
0.0
 30
0.0
  9
$UCSORGBACK
 10
0.0
 20
0.0
 30
0.0
  9
$PUCSBASE
  2

  9
$PUCSNAME
  2

  9
$PUCSORG
 10
0.0
 20
0.0
 30
0.0
  9
$PUCSXDIR
 10
1.0
 20
0.0
 30
0.0
  9
$PUCSYDIR
 10
0.0
 20
1.0
 30
0.0
  9
$PUCSORTHOREF
  2

  9
$PUCSORTHOVIEW
 70
     0
  9
$PUCSORGTOP
 10
0.0
 20
0.0
 30
0.0
  9
$PUCSORGBOTTOM
 10
0.0
 20
0.0
 30
0.0
  9
$PUCSORGLEFT
 10
0.0
 20
0.0
 30
0.0
  9
$PUCSORGRIGHT
 10
0.0
 20
0.0
 30
0.0
  9
$PUCSORGFRONT
 10
0.0
 20
0.0
 30
0.0
  9
$PUCSORGBACK
 10
0.0
 20
0.0
 30
0.0
  9
$USERI1
 70
     0
  9
$USERI2
 70
     0
  9
$USERI3
 70
     0
  9
$USERI4
 70
     0
  9
$USERI5
 70
     0
  9
$USERR1
 40
0.0
  9
$USERR2
 40
0.0
  9
$USERR3
 40
0.0
  9
$USERR4
 40
0.0
  9
$USERR5
 40
0.0
  9
$WORLDVIEW
 70
     1
  9
$SHADEDGE
 70
     3
  9
$SHADEDIF
 70
    70
  9
$TILEMODE
 70
     1
  9
$MAXACTVP
 70
    64
  9
$PINSBASE
 10
0.0
 20
0.0
 30
0.0
  9
$PLIMCHECK
 70
     0
  9
$PEXTMIN
 10
1.000000000000000E+20
 20
1.000000000000000E+20
 30
1.000000000000000E+20
  9
$PEXTMAX
 10
-1.000000000000000E+20
 20
-1.000000000000000E+20
 30
-1.000000000000000E+20
  9
$PLIMMIN
 10
0.0
 20
0.0
  9
$PLIMMAX
 10
0.0
 20
0.0
  9
$UNITMODE
 70
     0
  9
$VISRETAIN
 70
     1
  9
$PLINEGEN
 70
     0
  9
$PSLTSCALE
 70
     1
  9
$TREEDEPTH
 70
  3020
  9
$CMLSTYLE
  2
Standard
  9
$CMLJUST
 70
     0
  9
$CMLSCALE
 40
20.0
  9
$PROXYGRAPHICS
 70
     1
  9
$MEASUREMENT
 70
     1
  9
$CELWEIGHT
370
    -1
  9
$ENDCAPS
280
     0
  9
$JOINSTYLE
280
     0
  9
$LWDISPLAY
290
     0
  9
$INSUNITS
 70
     4
  9
$HYPERLINKBASE
  1

  9
$STYLESHEET
  1

  9
$XEDIT
290
     1
  9
$CEPSNTYPE
380
     0
  9
$PSTYLEMODE
290
     0
  9
$FINGERPRINTGUID
  2
{EC6BB858-51AA-46EC-B484-6C9CC7AB3E2E}
  9
$VERSIONGUID
  2
{FAEB1C32-E019-11D5-929B-00C0DF256EC4}
  9
$EXTNAMES
290
     1
  9
$PSVPSCALE
 40
0.0
  9
$OLESTARTUP
290
     0
  9
$SORTENTS
280
   127
  9
$INDEXCTL
280
     0
  9
$HIDETEXT
280
     1
  9
$XCLIPFRAME
290
     0
  9
$HALOGAP
280
     0
  9
$OBSCOLOR
 70
   257
  9
$OBSLTYPE
280
     0
  9
$INTERSECTIONDISPLAY
280
     0
  9
$INTERSECTIONCOLOR
 70
   257
  9
$DIMASSOC
280
     2
  9
$PROJECTNAME
  1

  0
ENDSEC
  0
SECTION
  2
CLASSES
  0
CLASS
  1
ACDBDICTIONARYWDFLT
  2
AcDbDictionaryWithDefault
  3
ObjectDBX Classes
 90
        0
 91
        4
280
     0
281
     0
  0
CLASS
  1
VISUALSTYLE
  2
AcDbVisualStyle
  3
ObjectDBX Classes
 90
     4095
 91
        4
280
     0
281
     0
  0
CLASS
  1
TABLESTYLE
  2
AcDbTableStyle
  3
ObjectDBX Classes
 90
     4095
 91
        4
280
     0
281
     0
  0
CLASS
  1
DICTIONARYVAR
  2
AcDbDictionaryVar
  3
ObjectDBX Classes
 90
        0
 91
        4
280
     0
281
     0
  0
CLASS
  1
SCALE
  2
AcDbScale
  3
ObjectDBX Classes
 90
     1153
 91
        4
280
     0
281
     0
  0
CLASS
  1
CELLSTYLEMAP
  2
AcDbCellStyleMap
  3
ObjectDBX Classes
 90
     1152
 91
        4
280
     0
281
     0
  0
CLASS
  1
RASTERVARIABLES
  2
AcDbRasterVariables
  3
ISM
 90
        0
 91
        4
280
     0
281
     0
  0
CLASS
  1
DIMASSOC
  2
AcDbDimAssoc
  3
"AcDbDimAssoc|Product Desc:     AcDim ARX App For Dimension|Company:          Autodesk, Inc.|WEB Address:      www.autodesk.com"
 90
        0
 91
        4
280
     0
281
     0
  0
CLASS
  1
MATERIAL
  2
AcDbMaterial
  3
ObjectDBX Classes
 90
     1153
 91
        4
280
     0
281
     0
  0
CLASS
  1
SUN
  2
AcDbSun
  3
SCENEOE
 90
     1153
 91
        4
280
     0
281
     0
  0
CLASS
  1
MLEADERSTYLE
  2
AcDbMLeaderStyle
  3
ACDB_MLEADERSTYLE_CLASS
 90
     4095
 91
        4
280
     0
281
     0
  0
CLASS
  1
SORTENTSTABLE
  2
AcDbSortentsTable
  3
ObjectDBX Classes
 90
        0
 91
        4
280
     0
281
     0
  0
ENDSEC
  0
SECTION
  2
TABLES
  0
TABLE
  2
VPORT
  5
8
330
0
100
AcDbSymbolTable
 70
     1
  0
VPORT
  5
29
330
8
100
AcDbSymbolTableRecord
100
AcDbViewportTableRecord
  2
*Active
 70
     0
 10
0.0
 20
0.0
 11
1.0
 21
1.0
 12
536.4386022549215
 22
721.016576190712
 13
0.0
 23
0.0
 14
10.0
 24
10.0
 15
10.0
 25
10.0
 16
0.0
 26
0.0
 36
1.0
 17
-134.1869158878503
 27
0.0
 37
0.0
 40
617.1730009871656
 41
1.664884135472371
 42
50.0
 43
0.0
 44
0.0
 50
0.0
 51
0.0
 71
    16
 72
  1000
 73
     1
 74
     3
 75
     0
 76
     0
 77
     0
 78
     0
281
     0
 65
     1
110
0.0
120
0.0
130
0.0
111
1.0
121
0.0
131
0.0
112
0.0
122
1.0
132
0.0
 79
     0
146
0.0
  0
ENDTAB
  0
TABLE
  2
LTYPE
  5
5
330
0
100
AcDbSymbolTable
 70
     3
  0
LTYPE
  5
14
330
5
100
AcDbSymbolTableRecord
100
AcDbLinetypeTableRecord
  2
ByBlock
 70
     0
  3

 72
    65
 73
     0
 40
0.0
  0
LTYPE
  5
15
330
5
100
AcDbSymbolTableRecord
100
AcDbLinetypeTableRecord
  2
ByLayer
 70
     0
  3

 72
    65
 73
     0
 40
0.0
  0
LTYPE
  5
16
330
5
100
AcDbSymbolTableRecord
100
AcDbLinetypeTableRecord
  2
Continuous
 70
     0
  3
Solid line
 72
    65
 73
     0
 40
0.0
  0
LTYPE
  5
E2
330
5
100
AcDbSymbolTableRecord
100
AcDbLinetypeTableRecord
  2
CENTER
 70
     0
  3
 Center ____ _ ____ _ ____ _ ____ _ ____ _ ____
 72
    65
 73
     4
 40
2.0
 49
1.25
 74
     0
 49
-0.25
 74
     0
 49
0.25
 74
     0
 49
-0.25
 74
     0
  0
LTYPE
  5
E5
330
5
100
AcDbSymbolTableRecord
100
AcDbLinetypeTableRecord
  2
DASHED
 70
     0
  3
__ __ __ __ __ __ __ __ __ __ __ __ __ __ __
 72
    65
 73
     2
 40
0.75
 49
0.5
 74
     0
 49
-0.25
 74
     0
  0
ENDTAB
  0
TABLE
  2
LAYER
  5
2
102
{ACAD_XDICTIONARY
360
24A
102
}
330
0
100
AcDbSymbolTable
 70
     5
  0
LAYER
  5
10
330
2
100
AcDbSymbolTableRecord
100
AcDbLayerTableRecord
  2
0
 70
     0
 62
     7
  6
Continuous
370
    -3
390
F
  0
LAYER
  5
7E
330
2
100
AcDbSymbolTableRecord
100
AcDbLayerTableRecord
  2
Defpoints
 70
     0
 62
     7
  6
Continuous
290
     0
370
    -3
390
F
  0
LAYER
  5
DE
330
2
100
AcDbSymbolTableRecord
100
AcDbLayerTableRecord
  2
C2
 70
     0
 62
     1
  6
CENTER
370
    -3
390
F
  0
LAYER
  5
E3
330
2
100
AcDbSymbolTableRecord
100
AcDbLayerTableRecord
  2
C4
 70
     0
 62
     3
  6
Continuous
370
    -3
390
F
  0
LAYER
  5
E4
330
2
100
AcDbSymbolTableRecord
100
AcDbLayerTableRecord
  2
C寸法
 70
     0
 62
     4
  6
Continuous
370
    -3
390
F
  0
ENDTAB
  0
TABLE
  2
STYLE
  5
3
330
0
100
AcDbSymbolTable
 70
     2
  0
STYLE
  5
11
330
3
100
AcDbSymbolTableRecord
100
AcDbTextStyleTableRecord
  2
Standard
 70
     0
 40
0.138
 41
1.0
 50
0.0
 71
     0
 42
2.5
  3
arial.ttf
  4

1001
ACAD
1000
Arial
1071
        0
  0
STYLE
  5
F4
330
3
100
AcDbSymbolTableRecord
100
AcDbTextStyleTableRecord
  2
KANJI
 70
     0
 40
0.0
 41
1.0
 50
0.0
 71
     0
 42
2.5
  3
romans
  4
bigfont
  0
ENDTAB
  0
TABLE
  2
VIEW
  5
6
330
0
100
AcDbSymbolTable
 70
     0
  0
ENDTAB
  0
TABLE
  2
UCS
  5
7
330
0
100
AcDbSymbolTable
 70
     0
  0
ENDTAB
  0
TABLE
  2
APPID
  5
9
330
0
100
AcDbSymbolTable
 70
     8
  0
APPID
  5
12
330
9
100
AcDbSymbolTableRecord
100
AcDbRegAppTableRecord
  2
ACAD
 70
     0
  0
APPID
  5
EF
330
9
100
AcDbSymbolTableRecord
100
AcDbRegAppTableRecord
  2
ACAD_DSTYLE_DIMBREAK
 70
     0
  0
APPID
  5
F0
330
9
100
AcDbSymbolTableRecord
100
AcDbRegAppTableRecord
  2
ACAD_DSTYLE_DIMJAG
 70
     0
  0
APPID
  5
F1
330
9
100
AcDbSymbolTableRecord
100
AcDbRegAppTableRecord
  2
ACAD_DSTYLE_DIMTALN
 70
     0
  0
APPID
  5
F2
330
9
100
AcDbSymbolTableRecord
100
AcDbRegAppTableRecord
  2
ACAD_NAV_VCDISPLAY
 70
     0
  0
APPID
  5
F3
330
9
100
AcDbSymbolTableRecord
100
AcDbRegAppTableRecord
  2
PLOTTRANSPARENCY
 70
     0
  0
APPID
  5
383
330
9
100
AcDbSymbolTableRecord
100
AcDbRegAppTableRecord
  2
ACAD_DSTYLE_DIMRADIAL_EXTENSION
 70
     0
  0
APPID
  5
3C1
330
9
100
AcDbSymbolTableRecord
100
AcDbRegAppTableRecord
  2
ACAD_MLEADERVER
 70
     0
  0
ENDTAB
  0
TABLE
  2
DIMSTYLE
  5
A
330
0
100
AcDbSymbolTable
 70
     5
100
AcDbDimStyleTable
  0
DIMSTYLE
105
27
330
A
100
AcDbSymbolTableRecord
100
AcDbDimStyleTableRecord
  2
ISO-25
 70
     0
 41
2.5
 42
0.625
 43
3.75
 44
1.25
 73
     0
 74
     0
 77
     1
 78
     8
140
2.5
141
2.5
143
0.03937007874016
147
0.625
171
     3
172
     1
178
     0
271
     2
272
     2
274
     3
278
    44
283
     0
284
     8
340
11
  0
DIMSTYLE
105
72
330
A
100
AcDbSymbolTableRecord
100
AcDbDimStyleTableRecord
  2
GB-1
 70
     0
 41
2.5
 42
0.625
 43
3.75
 44
1.25
 73
     0
 74
     0
 77
     1
 78
     8
140
2.5
141
2.5
143
0.03937007874016
147
0.625
171
     3
172
     1
178
     0
271
     2
272
     2
274
     3
278
    44
283
     0
284
     8
340
11
341
76
342
76
  0
DIMSTYLE
105
8E
102
{ACAD_REACTORS
330
384
330
38F
330
39C
330
3AE
102
}
330
A
100
AcDbSymbolTableRecord
100
AcDbDimStyleTableRecord
  2
JIS-1
 70
     0
 41
2.5
 42
0.625
 43
3.75
 44
1.25
 73
     0
 74
     0
 77
     1
 78
     8
140
2.5
141
2.5
143
0.03937007874016
147
0.625
171
     3
172
     1
178
     0
271
     2
272
     2
274
     3
278
    44
283
     0
284
     8
340
11
341
90
342
90
  0
DIMSTYLE
105
E6
330
A
100
AcDbSymbolTableRecord
100
AcDbDimStyleTableRecord
  2
Standard
 70
     0
178
     0
340
11
  0
DIMSTYLE
105
E8
102
{ACAD_REACTORS
330
2E0
330
2E1
330
2E2
330
2E3
330
2E4
330
2E5
330
2EA
330
2ED
330
2EE
330
2F0
330
2F5
102
}
330
A
100
AcDbSymbolTableRecord
100
AcDbDimStyleTableRecord
  2
実寸
 70
     0
 41
25.0
 42
10.0
 43
6.0
 44
0.0
 47
5.0
 73
     0
 74
     0
 77
     1
 78
     8
140
25.0
141
0.0
144
5.0
147
5.0
178
     0
271
     1
272
     1
284
     8
340
11
341
90
342
90
1001
ACAD_DSTYLE_DIMBREAK
1070
   391
1040
0.125
1001
ACAD_DSTYLE_DIMJAG
1070
   388
1040
1.5
1001
ACAD_DSTYLE_DIMTALN
1070
   392
1070
     0
  0
ENDTAB
  0
TABLE
  2
BLOCK_RECORD
  5
1
330
0
100
AcDbSymbolTable
 70
    18
  0
BLOCK_RECORD
  5
1F
330
1
100
AcDbSymbolTableRecord
100
AcDbBlockTableRecord
  2
*Model_Space
340
22
  0
BLOCK_RECORD
  5
1B
330
1
100
AcDbSymbolTableRecord
100
AcDbBlockTableRecord
  2
*Paper_Space
340
1E
  0
BLOCK_RECORD
  5
23
330
1
100
AcDbSymbolTableRecord
100
AcDbBlockTableRecord
  2
*Paper_Space0
340
26
  0
BLOCK_RECORD
  5
76
330
1
100
AcDbSymbolTableRecord
100
AcDbBlockTableRecord
  2
_CLOSED
340
0
  0
BLOCK_RECORD
  5
90
330
1
100
AcDbSymbolTableRecord
100
AcDbBlockTableRecord
  2
_OPEN
340
0
102
{BLKREFS
331
2FD
331
2FE
331
309
331
30A
331
318
331
319
331
324
331
325
331
330
331
331
331
33C
331
33D
331
348
331
349
331
357
331
358
331
365
331
366
331
371
331
372
331
37D
331
37E
331
38C
331
397
331
3A4
331
3B8
331
3B9
102
}
  0
BLOCK_RECORD
  5
2F7
330
1
100
AcDbSymbolTableRecord
100
AcDbBlockTableRecord
  2
*D3
340
0
  0
BLOCK_RECORD
  5
303
330
1
100
AcDbSymbolTableRecord
100
AcDbBlockTableRecord
  2
*D4
340
0
  0
BLOCK_RECORD
  5
30F
330
1
100
AcDbSymbolTableRecord
100
AcDbBlockTableRecord
  2
*D5
340
0
  0
BLOCK_RECORD
  5
31E
330
1
100
AcDbSymbolTableRecord
100
AcDbBlockTableRecord
  2
*D6
340
0
  0
BLOCK_RECORD
  5
32A
330
1
100
AcDbSymbolTableRecord
100
AcDbBlockTableRecord
  2
*D7
340
0
  0
BLOCK_RECORD
  5
336
330
1
100
AcDbSymbolTableRecord
100
AcDbBlockTableRecord
  2
*D8
340
0
  0
BLOCK_RECORD
  5
342
330
1
100
AcDbSymbolTableRecord
100
AcDbBlockTableRecord
  2
*D9
340
0
  0
BLOCK_RECORD
  5
34E
330
1
100
AcDbSymbolTableRecord
100
AcDbBlockTableRecord
  2
*D10
340
0
  0
BLOCK_RECORD
  5
35D
330
1
100
AcDbSymbolTableRecord
100
AcDbBlockTableRecord
  2
*D11
340
0
  0
BLOCK_RECORD
  5
36B
330
1
100
AcDbSymbolTableRecord
100
AcDbBlockTableRecord
  2
*D12
340
0
  0
BLOCK_RECORD
  5
377
330
1
100
AcDbSymbolTableRecord
100
AcDbBlockTableRecord
  2
*D13
340
0
  0
BLOCK_RECORD
  5
387
330
1
100
AcDbSymbolTableRecord
100
AcDbBlockTableRecord
  2
*D14
340
0
  0
BLOCK_RECORD
  5
392
330
1
100
AcDbSymbolTableRecord
100
AcDbBlockTableRecord
  2
*D15
340
0
  0
BLOCK_RECORD
  5
39F
330
1
100
AcDbSymbolTableRecord
100
AcDbBlockTableRecord
  2
*D16
340
0
  0
BLOCK_RECORD
  5
3AF
330
1
100
AcDbSymbolTableRecord
100
AcDbBlockTableRecord
  2
*D17
340
0
  0
ENDTAB
  0
ENDSEC
  0
SECTION
  2
BLOCKS
  0
BLOCK
  5
20
330
1F
100
AcDbEntity
  8
0
100
AcDbBlockBegin
  2
*Model_Space
 70
     0
 10
0.0
 20
0.0
 30
0.0
  3
*Model_Space
  1
*Model_Space
  0
ENDBLK
  5
21
330
1F
100
AcDbEntity
  8
0
100
AcDbBlockEnd
  0
BLOCK
  5
1C
330
1B
100
AcDbEntity
 67
     1
  8
0
100
AcDbBlockBegin
  2
*Paper_Space
 70
     0
 10
0.0
 20
0.0
 30
0.0
  3
*Paper_Space
  1
*Paper_Space
  0
ENDBLK
  5
1D
330
1B
100
AcDbEntity
 67
     1
  8
0
100
AcDbBlockEnd
  0
BLOCK
  5
24
330
23
100
AcDbEntity
  8
0
100
AcDbBlockBegin
  2
*Paper_Space0
 70
     0
 10
0.0
 20
0.0
 30
0.0
  3
*Paper_Space0
  1
*Paper_Space0
  0
ENDBLK
  5
25
330
23
100
AcDbEntity
  8
0
100
AcDbBlockEnd
  0
BLOCK
  5
77
330
76
100
AcDbEntity
  8
0
100
AcDbBlockBegin
  2
_CLOSED
 70
     0
 10
0.0
 20
0.0
 30
0.0
  3
_CLOSED
  1
_CLOSED
  0
LINE
  5
78
330
76
100
AcDbEntity
  8
0
  6
ByBlock
 62
     0
370
    -2
100
AcDbLine
 10
-1.0
 20
0.166667
 30
0.0
 11
0.0
 21
0.0
 31
0.0
  0
LINE
  5
79
330
76
100
AcDbEntity
  8
0
  6
ByBlock
 62
     0
370
    -2
100
AcDbLine
 10
0.0
 20
0.0
 30
0.0
 11
-1.0
 21
-0.166667
 31
0.0
  0
LINE
  5
7A
330
76
100
AcDbEntity
  8
0
  6
ByBlock
 62
     0
370
    -2
100
AcDbLine
 10
-1.0
 20
0.166667
 30
0.0
 11
-1.0
 21
-0.166667
 31
0.0
  0
LINE
  5
7B
330
76
100
AcDbEntity
  8
0
  6
ByBlock
 62
     0
370
    -2
100
AcDbLine
 10
0.0
 20
0.0
 30
0.0
 11
-1.0
 21
0.0
 31
0.0
  0
ENDBLK
  5
7C
330
76
100
AcDbEntity
  8
0
100
AcDbBlockEnd
  0
BLOCK
  5
91
330
90
100
AcDbEntity
  8
0
100
AcDbBlockBegin
  2
_OPEN
 70
     0
 10
0.0
 20
0.0
 30
0.0
  3
_OPEN
  1
_OPEN
  0
LINE
  5
92
330
90
100
AcDbEntity
  8
0
  6
ByBlock
 62
     0
370
    -2
100
AcDbLine
 10
-1.0
 20
0.166667
 30
0.0
 11
0.0
 21
0.0
 31
0.0
  0
LINE
  5
93
330
90
100
AcDbEntity
  8
0
  6
ByBlock
 62
     0
370
    -2
100
AcDbLine
 10
-1.0
 20
-0.166667
 30
0.0
 11
0.0
 21
0.0
 31
0.0
  0
LINE
  5
94
330
90
100
AcDbEntity
  8
0
  6
ByBlock
 62
     0
370
    -2
100
AcDbLine
 10
0.0
 20
0.0
 30
0.0
 11
-1.0
 21
0.0
 31
0.0
  0
ENDBLK
  5
95
330
90
100
AcDbEntity
  8
0
100
AcDbBlockEnd
  0
BLOCK
  5
2F8
330
2F7
100
AcDbEntity
  8
0
100
AcDbBlockBegin
  2
*D3
 70
     1
 10
0.0
 20
0.0
 30
0.0
  3
*D3
  1
*D16
  0
LINE
  5
2FA
330
2F7
100
AcDbEntity
  8
C寸法
 62
     0
370
    -2
100
AcDbLine
 10
920.9268229959334
 20
1027.844510605235
 30
0.0
 11
1156.403406080862
 21
1027.844510605235
 31
0.0
  0
LINE
  5
2FB
330
2F7
100
AcDbEntity
  8
C寸法
 62
     0
370
    -2
100
AcDbLine
 10
920.9268229959334
 20
507.8445106052354
 30
0.0
 11
1156.403406080862
 21
507.8445106052354
 31
0.0
  0
LINE
  5
2FC
330
2F7
100
AcDbEntity
  8
C寸法
 62
     0
370
    -2
100
AcDbLine
 10
1156.403406080862
 20
1002.844510605235
 30
0.0
 11
1156.403406080862
 21
532.8445106052354
 31
0.0
  0
INSERT
  5
2FD
330
2F7
100
AcDbEntity
  8
C寸法
 62
     0
370
    -2
100
AcDbBlockReference
  2
_OPEN
 10
1156.403406080862
 20
1027.844510605235
 30
0.0
 41
25.0
 42
25.0
 43
25.0
 50
90.0
  0
INSERT
  5
2FE
330
2F7
100
AcDbEntity
  8
C寸法
 62
     0
370
    -2
100
AcDbBlockReference
  2
_OPEN
 10
1156.403406080862
 20
507.8445106052354
 30
0.0
 41
25.0
 42
25.0
 43
25.0
 50
270.0
  0
MTEXT
  5
2FF
330
2F7
100
AcDbEntity
  8
C寸法
 62
     0
370
    13
100
AcDbMText
 10
1138.903406080862
 20
767.8445106052354
 30
0.0
 40
25.0
 41
0.0
 71
     5
 72
     1
  1
\A1;520
  7
KANJI
 11
0.0
 21
1.0
 31
0.0
 73
     1
 44
1.0
  0
POINT
  5
300
330
2F7
100
AcDbEntity
  8
Defpoints
 62
     0
100
AcDbPoint
 10
910.9268229959334
 20
1027.844510605235
 30
0.0
  0
POINT
  5
301
330
2F7
100
AcDbEntity
  8
Defpoints
 62
     0
100
AcDbPoint
 10
910.9268229959334
 20
507.8445106052354
 30
0.0
  0
POINT
  5
302
330
2F7
100
AcDbEntity
  8
Defpoints
 62
     0
100
AcDbPoint
 10
1156.403406080862
 20
507.8445106052354
 30
0.0
  0
ENDBLK
  5
2F9
330
2F7
100
AcDbEntity
  8
0
100
AcDbBlockEnd
  0
BLOCK
  5
304
330
303
100
AcDbEntity
  8
0
100
AcDbBlockBegin
  2
*D4
 70
     1
 10
0.0
 20
0.0
 30
0.0
  3
*D4
  1
*D17
  0
LINE
  5
306
330
303
100
AcDbEntity
  8
C寸法
 62
     0
370
    -2
100
AcDbLine
 10
920.9268229959334
 20
1027.844510605235
 30
0.0
 11
1108.926811765466
 21
1027.844510605235
 31
0.0
  0
LINE
  5
307
330
303
100
AcDbEntity
  8
C寸法
 62
     0
370
    -2
100
AcDbLine
 10
920.9268229959334
 20
522.8445106052354
 30
0.0
 11
1108.926811765466
 21
522.8445106052354
 31
0.0
  0
LINE
  5
308
330
303
100
AcDbEntity
  8
C寸法
 62
     0
370
    -2
100
AcDbLine
 10
1108.926811765466
 20
1002.844510605235
 30
0.0
 11
1108.926811765466
 21
547.8445106052354
 31
0.0
  0
INSERT
  5
309
330
303
100
AcDbEntity
  8
C寸法
 62
     0
370
    -2
100
AcDbBlockReference
  2
_OPEN
 10
1108.926811765466
 20
1027.844510605235
 30
0.0
 41
25.0
 42
25.0
 43
25.0
 50
90.0
  0
INSERT
  5
30A
330
303
100
AcDbEntity
  8
C寸法
 62
     0
370
    -2
100
AcDbBlockReference
  2
_OPEN
 10
1108.926811765466
 20
522.8445106052354
 30
0.0
 41
25.0
 42
25.0
 43
25.0
 50
270.0
  0
MTEXT
  5
30B
330
303
100
AcDbEntity
  8
C寸法
 62
     0
370
    13
100
AcDbMText
 10
1091.426811765466
 20
775.3445106052354
 30
0.0
 40
25.0
 41
0.0
 71
     5
 72
     1
  1
\A1;505
  7
KANJI
 11
0.0
 21
1.0
 31
0.0
 73
     1
 44
1.0
  0
POINT
  5
30C
330
303
100
AcDbEntity
  8
Defpoints
 62
     0
100
AcDbPoint
 10
910.9268229959334
 20
1027.844510605235
 30
0.0
  0
POINT
  5
30D
330
303
100
AcDbEntity
  8
Defpoints
 62
     0
100
AcDbPoint
 10
910.9268229959334
 20
522.8445106052354
 30
0.0
  0
POINT
  5
30E
330
303
100
AcDbEntity
  8
Defpoints
 62
     0
100
AcDbPoint
 10
1108.926811765466
 20
522.8445106052354
 30
0.0
  0
ENDBLK
  5
305
330
303
100
AcDbEntity
  8
0
100
AcDbBlockEnd
  0
BLOCK
  5
310
330
30F
100
AcDbEntity
  8
0
100
AcDbBlockBegin
  2
*D5
 70
     1
 10
0.0
 20
0.0
 30
0.0
  3
*D5
  1
*D18
  0
LINE
  5
312
330
30F
100
AcDbEntity
  8
C寸法
 62
     0
370
    -2
100
AcDbLine
 10
488.9268117654782
 20
522.8445106052354
 30
0.0
 11
1108.926811765466
 21
522.8445106052354
 31
0.0
  0
LINE
  5
313
330
30F
100
AcDbEntity
  8
C寸法
 62
     0
370
    -2
100
AcDbLine
 10
488.9268117654782
 20
507.8445106052354
 30
0.0
 11
1108.926811765466
 21
507.8445106052354
 31
0.0
  0
LINE
  5
314
330
30F
100
AcDbEntity
  8
C寸法
 62
     0
370
    -2
100
AcDbLine
 10
1108.926811765466
 20
507.8445106052354
 30
0.0
 11
1108.926811765466
 21
410.7537367957115
 31
0.0
  0
LINE
  5
315
330
30F
100
AcDbEntity
  8
C寸法
 62
     0
370
    -2
100
AcDbLine
 10
1108.926811765466
 20
522.8445106052354
 30
0.0
 11
1108.926811765466
 21
507.8445106052354
 31
0.0
  0
LINE
  5
316
330
30F
100
AcDbEntity
  8
C寸法
 62
     0
370
    -2
100
AcDbLine
 10
1108.926811765466
 20
547.8445106052354
 30
0.0
 11
1108.926811765466
 21
572.8445106052354
 31
0.0
  0
LINE
  5
317
330
30F
100
AcDbEntity
  8
C寸法
 62
     0
370
    -2
100
AcDbLine
 10
1108.926811765466
 20
482.8445106052354
 30
0.0
 11
1108.926811765466
 21
457.8445106052354
 31
0.0
  0
INSERT
  5
318
330
30F
100
AcDbEntity
  8
C寸法
 62
     0
370
    -2
100
AcDbBlockReference
  2
_OPEN
 10
1108.926811765466
 20
522.8445106052354
 30
0.0
 41
25.0
 42
25.0
 43
25.0
 50
270.0
  0
INSERT
  5
319
330
30F
100
AcDbEntity
  8
C寸法
 62
     0
370
    -2
100
AcDbBlockReference
  2
_OPEN
 10
1108.926811765466
 20
507.8445106052354
 30
0.0
 41
25.0
 42
25.0
 43
25.0
 50
90.0
  0
MTEXT
  5
31A
330
30F
100
AcDbEntity
  8
C寸法
 62
     0
370
    13
100
AcDbMText
 10
1091.426811765466
 20
434.2991237004734
 30
0.0
 40
25.0
 41
0.0
 71
     5
 72
     1
  1
\A1;15
  7
KANJI
 11
0.0
 21
1.0
 31
0.0
 73
     1
 44
1.0
  0
POINT
  5
31B
330
30F
100
AcDbEntity
  8
Defpoints
 62
     0
100
AcDbPoint
 10
478.9268117654782
 20
522.8445106052354
 30
0.0
  0
POINT
  5
31C
330
30F
100
AcDbEntity
  8
Defpoints
 62
     0
100
AcDbPoint
 10
478.9268117654782
 20
507.8445106052354
 30
0.0
  0
POINT
  5
31D
330
30F
100
AcDbEntity
  8
Defpoints
 62
     0
100
AcDbPoint
 10
1108.926811765466
 20
507.8445106052353
 30
0.0
  0
ENDBLK
  5
311
330
30F
100
AcDbEntity
  8
0
100
AcDbBlockEnd
  0
BLOCK
  5
31F
330
31E
100
AcDbEntity
  8
0
100
AcDbBlockBegin
  2
*D6
 70
     1
 10
0.0
 20
0.0
 30
0.0
  3
*D6
  1
*D19
  0
LINE
  5
321
330
31E
100
AcDbEntity
  8
C寸法
 62
     0
370
    -2
100
AcDbLine
 10
848.1616541674009
 20
1027.844510605235
 30
0.0
 11
1058.926811765466
 21
1027.844510605235
 31
0.0
  0
LINE
  5
322
330
31E
100
AcDbEntity
  8
C寸法
 62
     0
370
    -2
100
AcDbLine
 10
915.7503041231726
 20
857.8445106052313
 30
0.0
 11
1058.926811765466
 21
857.8445106052313
 31
0.0
  0
LINE
  5
323
330
31E
100
AcDbEntity
  8
C寸法
 62
     0
370
    -2
100
AcDbLine
 10
1058.926811765466
 20
1002.844510605235
 30
0.0
 11
1058.926811765466
 21
882.8445106052313
 31
0.0
  0
INSERT
  5
324
330
31E
100
AcDbEntity
  8
C寸法
 62
     0
370
    -2
100
AcDbBlockReference
  2
_OPEN
 10
1058.926811765466
 20
1027.844510605235
 30
0.0
 41
25.0
 42
25.0
 43
25.0
 50
90.0
  0
INSERT
  5
325
330
31E
100
AcDbEntity
  8
C寸法
 62
     0
370
    -2
100
AcDbBlockReference
  2
_OPEN
 10
1058.926811765466
 20
857.8445106052313
 30
0.0
 41
25.0
 42
25.0
 43
25.0
 50
270.0
  0
MTEXT
  5
326
330
31E
100
AcDbEntity
  8
C寸法
 62
     0
370
    13
100
AcDbMText
 10
1041.426811765466
 20
942.8445106052332
 30
0.0
 40
25.0
 41
0.0
 71
     5
 72
     1
  1
\A1;170
  7
KANJI
 11
0.0
 21
1.0
 31
0.0
 73
     1
 44
1.0
  0
POINT
  5
327
330
31E
100
AcDbEntity
  8
Defpoints
 62
     0
100
AcDbPoint
 10
838.1616541674009
 20
1027.844510605235
 30
0.0
  0
POINT
  5
328
330
31E
100
AcDbEntity
  8
Defpoints
 62
     0
100
AcDbPoint
 10
905.7503041231726
 20
857.8445106052313
 30
0.0
  0
POINT
  5
329
330
31E
100
AcDbEntity
  8
Defpoints
 62
     0
100
AcDbPoint
 10
1058.926811765466
 20
857.8445106052313
 30
0.0
  0
ENDBLK
  5
320
330
31E
100
AcDbEntity
  8
0
100
AcDbBlockEnd
  0
BLOCK
  5
32B
330
32A
100
AcDbEntity
  8
0
100
AcDbBlockBegin
  2
*D7
 70
     1
 10
0.0
 20
0.0
 30
0.0
  3
*D7
  1
*D20
  0
LINE
  5
32D
330
32A
100
AcDbEntity
  8
C寸法
 62
     0
370
    -2
100
AcDbLine
 10
78.92681176547939
 20
612.8445106052354
 30
0.0
 11
78.92681176547944
 21
388.070581305876
 31
0.0
  0
LINE
  5
32E
330
32A
100
AcDbEntity
  8
C寸法
 62
     0
370
    -2
100
AcDbLine
 10
878.9368117754884
 20
630.1284585904668
 30
0.0
 11
878.9368117754884
 21
388.070581305876
 31
0.0
  0
LINE
  5
32F
330
32A
100
AcDbEntity
  8
C寸法
 62
     0
370
    -2
100
AcDbLine
 10
103.9268117654794
 20
388.070581305876
 30
0.0
 11
853.9368117754884
 21
388.070581305876
 31
0.0
  0
INSERT
  5
330
330
32A
100
AcDbEntity
  8
C寸法
 62
     0
370
    -2
100
AcDbBlockReference
  2
_OPEN
 10
78.92681176547944
 20
388.070581305876
 30
0.0
 41
25.0
 42
25.0
 43
25.0
 50
180.0
  0
INSERT
  5
331
330
32A
100
AcDbEntity
  8
C寸法
 62
     0
370
    -2
100
AcDbBlockReference
  2
_OPEN
 10
878.9368117754884
 20
388.070581305876
 30
0.0
 41
25.0
 42
25.0
 43
25.0
  0
MTEXT
  5
332
330
32A
100
AcDbEntity
  8
C寸法
 62
     0
370
    13
100
AcDbMText
 10
478.9318117704839
 20
405.570581305876
 30
0.0
 40
25.0
 41
0.0
 71
     5
 72
     1
  1
\A1;800
  7
KANJI
 73
     1
 44
1.0
  0
POINT
  5
333
330
32A
100
AcDbEntity
  8
Defpoints
 62
     0
100
AcDbPoint
 10
78.92681176547939
 20
622.8445106052354
 30
0.0
  0
POINT
  5
334
330
32A
100
AcDbEntity
  8
Defpoints
 62
     0
100
AcDbPoint
 10
878.9368117754884
 20
640.1284585904668
 30
0.0
  0
POINT
  5
335
330
32A
100
AcDbEntity
  8
Defpoints
 62
     0
100
AcDbPoint
 10
878.9368117754884
 20
388.070581305876
 30
0.0
  0
ENDBLK
  5
32C
330
32A
100
AcDbEntity
  8
0
100
AcDbBlockEnd
  0
BLOCK
  5
337
330
336
100
AcDbEntity
  8
0
100
AcDbBlockBegin
  2
*D8
 70
     1
 10
0.0
 20
0.0
 30
0.0
  3
*D8
  1
*D21
  0
LINE
  5
339
330
336
100
AcDbEntity
  8
C寸法
 62
     0
370
    -2
100
AcDbLine
 10
918.9268117654656
 20
273.5819416704753
 30
0.0
 11
1058.926811765466
 21
273.5819416704753
 31
0.0
  0
LINE
  5
33A
330
336
100
AcDbEntity
  8
C寸法
 62
     0
370
    -2
100
AcDbLine
 10
579.3000843279251
 20
83.58194167047935
 30
0.0
 11
1058.926811765466
 21
83.58194167047932
 31
0.0
  0
LINE
  5
33B
330
336
100
AcDbEntity
  8
C寸法
 62
     0
370
    -2
100
AcDbLine
 10
1058.926811765466
 20
248.5819416704753
 30
0.0
 11
1058.926811765466
 21
108.5819416704793
 31
0.0
  0
INSERT
  5
33C
330
336
100
AcDbEntity
  8
C寸法
 62
     0
370
    -2
100
AcDbBlockReference
  2
_OPEN
 10
1058.926811765466
 20
273.5819416704753
 30
0.0
 41
25.0
 42
25.0
 43
25.0
 50
90.0
  0
INSERT
  5
33D
330
336
100
AcDbEntity
  8
C寸法
 62
     0
370
    -2
100
AcDbBlockReference
  2
_OPEN
 10
1058.926811765466
 20
83.58194167047932
 30
0.0
 41
25.0
 42
25.0
 43
25.0
 50
270.0
  0
MTEXT
  5
33E
330
336
100
AcDbEntity
  8
C寸法
 62
     0
370
    13
100
AcDbMText
 10
1041.426811765466
 20
178.5819416704773
 30
0.0
 40
25.0
 41
0.0
 71
     5
 72
     1
  1
\A1;190
  7
KANJI
 11
0.0
 21
1.0
 31
0.0
 73
     1
 44
1.0
  0
POINT
  5
33F
330
336
100
AcDbEntity
  8
Defpoints
 62
     0
100
AcDbPoint
 10
908.9268117654656
 20
273.5819416704753
 30
0.0
  0
POINT
  5
340
330
336
100
AcDbEntity
  8
Defpoints
 62
     0
100
AcDbPoint
 10
569.3000843279251
 20
83.58194167047935
 30
0.0
  0
POINT
  5
341
330
336
100
AcDbEntity
  8
Defpoints
 62
     0
100
AcDbPoint
 10
1058.926811765466
 20
83.58194167047932
 30
0.0
  0
ENDBLK
  5
338
330
336
100
AcDbEntity
  8
0
100
AcDbBlockEnd
  0
BLOCK
  5
343
330
342
100
AcDbEntity
  8
0
100
AcDbBlockBegin
  2
*D9
 70
     1
 10
0.0
 20
0.0
 30
0.0
  3
*D9
  1
*D22
  0
LINE
  5
345
330
342
100
AcDbEntity
  8
C寸法
 62
     0
370
    -2
100
AcDbLine
 10
878.9268117654776
 20
977.8445106052318
 30
0.0
 11
878.9268117654776
 21
1118.430505737139
 31
0.0
  0
LINE
  5
346
330
342
100
AcDbEntity
  8
C寸法
 62
     0
370
    -2
100
AcDbLine
 10
678.9261336005211
 20
1069.844510605232
 30
0.0
 11
678.9261336005211
 21
1118.430505737139
 31
0.0
  0
LINE
  5
347
330
342
100
AcDbEntity
  8
C寸法
 62
     0
370
    -2
100
AcDbLine
 10
853.9268117654776
 20
1118.430505737139
 30
0.0
 11
703.9261336005211
 21
1118.430505737139
 31
0.0
  0
INSERT
  5
348
330
342
100
AcDbEntity
  8
C寸法
 62
     0
370
    -2
100
AcDbBlockReference
  2
_OPEN
 10
878.9268117654776
 20
1118.430505737139
 30
0.0
 41
25.0
 42
25.0
 43
25.0
  0
INSERT
  5
349
330
342
100
AcDbEntity
  8
C寸法
 62
     0
370
    -2
100
AcDbBlockReference
  2
_OPEN
 10
678.9261336005211
 20
1118.430505737139
 30
0.0
 41
25.0
 42
25.0
 43
25.0
 50
180.0
  0
MTEXT
  5
34A
330
342
100
AcDbEntity
  8
C寸法
 62
     0
370
    13
100
AcDbMText
 10
778.9264726829994
 20
1135.930505737139
 30
0.0
 40
25.0
 41
0.0
 71
     5
 72
     1
  1
\A1;200
  7
KANJI
 73
     1
 44
1.0
  0
POINT
  5
34B
330
342
100
AcDbEntity
  8
Defpoints
 62
     0
100
AcDbPoint
 10
878.9268117654776
 20
967.8445106052318
 30
0.0
  0
POINT
  5
34C
330
342
100
AcDbEntity
  8
Defpoints
 62
     0
100
AcDbPoint
 10
678.9261336005211
 20
1059.844510605232
 30
0.0
  0
POINT
  5
34D
330
342
100
AcDbEntity
  8
Defpoints
 62
     0
100
AcDbPoint
 10
678.9261336005211
 20
1118.430505737139
 30
0.0
  0
ENDBLK
  5
344
330
342
100
AcDbEntity
  8
0
100
AcDbBlockEnd
  0
BLOCK
  5
34F
330
34E
100
AcDbEntity
  8
0
100
AcDbBlockBegin
  2
*D10
 70
     1
 10
0.0
 20
0.0
 30
0.0
  3
*D10
  1
*D23
  0
LINE
  5
351
330
34E
100
AcDbEntity
  8
C寸法
 62
     0
370
    -2
100
AcDbLine
 10
828.9268117654783
 20
1027.844510605231
 30
0.0
 11
1008.926811765466
 21
1027.844510605231
 31
0.0
  0
LINE
  5
352
330
34E
100
AcDbEntity
  8
C寸法
 62
     0
370
    -2
100
AcDbLine
 10
726.4977890619762
 20
993.3440511484746
 30
0.0
 11
1008.926811765466
 21
993.3440511484746
 31
0.0
  0
LINE
  5
353
330
34E
100
AcDbEntity
  8
C寸法
 62
     0
370
    -2
100
AcDbLine
 10
1008.926811765466
 20
1027.844510605231
 30
0.0
 11
1008.926811765466
 21
1164.034986795707
 31
0.0
  0
LINE
  5
354
330
34E
100
AcDbEntity
  8
C寸法
 62
     0
370
    -2
100
AcDbLine
 10
1008.926811765466
 20
1027.844510605231
 30
0.0
 11
1008.926811765466
 21
993.3440511484746
 31
0.0
  0
LINE
  5
355
330
34E
100
AcDbEntity
  8
C寸法
 62
     0
370
    -2
100
AcDbLine
 10
1008.926811765466
 20
1052.844510605231
 30
0.0
 11
1008.926811765466
 21
1077.844510605231
 31
0.0
  0
LINE
  5
356
330
34E
100
AcDbEntity
  8
C寸法
 62
     0
370
    -2
100
AcDbLine
 10
1008.926811765466
 20
968.3440511484746
 30
0.0
 11
1008.926811765466
 21
943.3440511484746
 31
0.0
  0
INSERT
  5
357
330
34E
100
AcDbEntity
  8
C寸法
 62
     0
370
    -2
100
AcDbBlockReference
  2
_OPEN
 10
1008.926811765466
 20
1027.844510605231
 30
0.0
 41
25.0
 42
25.0
 43
25.0
 50
270.0
  0
INSERT
  5
358
330
34E
100
AcDbEntity
  8
C寸法
 62
     0
370
    -2
100
AcDbBlockReference
  2
_OPEN
 10
1008.926811765466
 20
993.3440511484746
 30
0.0
 41
25.0
 42
25.0
 43
25.0
 50
90.0
  0
MTEXT
  5
359
330
34E
100
AcDbEntity
  8
C寸法
 62
     0
370
    13
100
AcDbMText
 10
991.4268117654656
 20
1120.939748700469
 30
0.0
 40
25.0
 41
0.0
 71
     5
 72
     1
  1
\A1;34.5
  7
KANJI
 11
0.0
 21
1.0
 31
0.0
 73
     1
 44
1.0
  0
POINT
  5
35A
330
34E
100
AcDbEntity
  8
Defpoints
 62
     0
100
AcDbPoint
 10
818.9268117654783
 20
1027.844510605231
 30
0.0
  0
POINT
  5
35B
330
34E
100
AcDbEntity
  8
Defpoints
 62
     0
100
AcDbPoint
 10
716.4977890619762
 20
993.3440511484746
 30
0.0
  0
POINT
  5
35C
330
34E
100
AcDbEntity
  8
Defpoints
 62
     0
100
AcDbPoint
 10
1008.926811765466
 20
993.3440511484746
 30
0.0
  0
ENDBLK
  5
350
330
34E
100
AcDbEntity
  8
0
100
AcDbBlockEnd
  0
BLOCK
  5
35E
330
35D
100
AcDbEntity
  8
0
100
AcDbBlockBegin
  2
*D11
 70
     1
 10
0.0
 20
0.0
 30
0.0
  3
*D11
  1
*D24
  0
LINE
  5
360
330
35D
100
AcDbEntity
  8
C寸法
 62
     0
370
    -2
100
AcDbLine
 10
896.7854841172107
 20
273.5445106052351
 30
0.0
 11
1008.926811765466
 21
273.5445106052351
 31
0.0
  0
LINE
  5
361
330
35D
100
AcDbEntity
  8
C寸法
 62
     0
370
    -2
100
AcDbLine
 10
878.281264177276
 20
258.5819416704753
 30
0.0
 11
1008.926811765466
 21
258.5819416704753
 31
0.0
  0
LINE
  5
362
330
35D
100
AcDbEntity
  8
C寸法
 62
     0
370
    -2
100
AcDbLine
 10
1008.926811765466
 20
233.5819416704753
 30
0.0
 11
1008.926811765466
 21
161.4911678609514
 31
0.0
  0
LINE
  5
363
330
35D
100
AcDbEntity
  8
C寸法
 62
     0
370
    -2
100
AcDbLine
 10
1008.926811765466
 20
273.5445106052351
 30
0.0
 11
1008.926811765466
 21
258.5819416704753
 31
0.0
  0
LINE
  5
364
330
35D
100
AcDbEntity
  8
C寸法
 62
     0
370
    -2
100
AcDbLine
 10
1008.926811765466
 20
298.5445106052351
 30
0.0
 11
1008.926811765466
 21
323.5445106052351
 31
0.0
  0
INSERT
  5
365
330
35D
100
AcDbEntity
  8
C寸法
 62
     0
370
    -2
100
AcDbBlockReference
  2
_OPEN
 10
1008.926811765466
 20
273.5445106052351
 30
0.0
 41
25.0
 42
25.0
 43
25.0
 50
270.0
  0
INSERT
  5
366
330
35D
100
AcDbEntity
  8
C寸法
 62
     0
370
    -2
100
AcDbBlockReference
  2
_OPEN
 10
1008.926811765466
 20
258.5819416704753
 30
0.0
 41
25.0
 42
25.0
 43
25.0
 50
90.0
  0
MTEXT
  5
367
330
35D
100
AcDbEntity
  8
C寸法
 62
     0
370
    13
100
AcDbMText
 10
991.4268117654656
 20
185.0365547657133
 30
0.0
 40
25.0
 41
0.0
 71
     5
 72
     1
  1
\A1;15
  7
KANJI
 11
0.0
 21
1.0
 31
0.0
 73
     1
 44
1.0
  0
POINT
  5
368
330
35D
100
AcDbEntity
  8
Defpoints
 62
     0
100
AcDbPoint
 10
886.7854841172107
 20
273.5445106052351
 30
0.0
  0
POINT
  5
369
330
35D
100
AcDbEntity
  8
Defpoints
 62
     0
100
AcDbPoint
 10
868.281264177276
 20
258.5819416704753
 30
0.0
  0
POINT
  5
36A
330
35D
100
AcDbEntity
  8
Defpoints
 62
     0
100
AcDbPoint
 10
1008.926811765466
 20
258.5819416704753
 30
0.0
  0
ENDBLK
  5
35F
330
35D
100
AcDbEntity
  8
0
100
AcDbBlockEnd
  0
BLOCK
  5
36C
330
36B
100
AcDbEntity
  8
0
100
AcDbBlockBegin
  2
*D12
 70
     1
 10
0.0
 20
0.0
 30
0.0
  3
*D12
  1
*D25
  0
LINE
  5
36E
330
36B
100
AcDbEntity
  8
C寸法
 62
     0
 48
20.0
370
    -2
100
AcDbLine
 10
569.4268117654774
 20
847.8445106052318
 30
0.0
 11
569.4268117654774
 21
697.8731493820715
 31
0.0
  0
LINE
  5
36F
330
36B
100
AcDbEntity
  8
C寸法
 62
     0
 48
20.0
370
    -2
100
AcDbLine
 10
388.6164799946691
 20
847.5986833193626
 30
0.0
 11
388.6164799946691
 21
697.8731493820715
 31
0.0
  0
LINE
  5
370
330
36B
100
AcDbEntity
  8
C寸法
 62
     0
 48
20.0
370
    -2
100
AcDbLine
 10
544.4268117654774
 20
697.8731493820715
 30
0.0
 11
413.6164799946691
 21
697.8731493820715
 31
0.0
  0
INSERT
  5
371
330
36B
100
AcDbEntity
  8
C寸法
 62
     0
370
    -2
100
AcDbBlockReference
  2
_OPEN
 10
569.4268117654774
 20
697.8731493820715
 30
0.0
 41
25.0
 42
25.0
 43
25.0
  0
INSERT
  5
372
330
36B
100
AcDbEntity
  8
C寸法
 62
     0
370
    -2
100
AcDbBlockReference
  2
_OPEN
 10
388.6164799946691
 20
697.8731493820715
 30
0.0
 41
25.0
 42
25.0
 43
25.0
 50
180.0
  0
MTEXT
  5
373
330
36B
100
AcDbEntity
  8
C寸法
 62
     0
370
    13
100
AcDbMText
 10
493.1030689899598
 20
715.3731493820715
 30
0.0
 40
25.0
 41
0.0
 71
     5
 72
     1
  1
\A1;Φ181
  7
KANJI
 73
     1
 44
1.0
  0
POINT
  5
374
330
36B
100
AcDbEntity
  8
Defpoints
 62
     0
100
AcDbPoint
 10
569.4268117654774
 20
857.8445106052318
 30
0.0
  0
POINT
  5
375
330
36B
100
AcDbEntity
  8
Defpoints
 62
     0
100
AcDbPoint
 10
388.6164799946691
 20
857.5986833193626
 30
0.0
  0
POINT
  5
376
330
36B
100
AcDbEntity
  8
Defpoints
 62
     0
100
AcDbPoint
 10
388.6164799946691
 20
697.8731493820715
 30
0.0
  0
ENDBLK
  5
36D
330
36B
100
AcDbEntity
  8
0
100
AcDbBlockEnd
  0
BLOCK
  5
378
330
377
100
AcDbEntity
  8
0
100
AcDbBlockBegin
  2
*D13
 70
     1
 10
0.0
 20
0.0
 30
0.0
  3
*D13
  1
*D26
  0
LINE
  5
37A
330
377
100
AcDbEntity
  8
C寸法
 62
     0
370
    -2
100
AcDbLine
 10
279.5900486002614
 20
1069.809878711333
 30
0.0
 11
279.5900486002614
 21
1119.831594985571
 31
0.0
  0
LINE
  5
37B
330
377
100
AcDbEntity
  8
C寸法
 62
     0
370
    -2
100
AcDbLine
 10
78.92680452712369
 20
968.4023914543034
 30
0.0
 11
78.92680452712369
 21
1119.831594985571
 31
0.0
  0
LINE
  5
37C
330
377
100
AcDbEntity
  8
C寸法
 62
     0
370
    -2
100
AcDbLine
 10
254.5900486002614
 20
1119.831594985571
 30
0.0
 11
103.9268045271237
 21
1119.831594985571
 31
0.0
  0
INSERT
  5
37D
330
377
100
AcDbEntity
  8
C寸法
 62
     0
370
    -2
100
AcDbBlockReference
  2
_OPEN
 10
279.5900486002614
 20
1119.831594985571
 30
0.0
 41
25.0
 42
25.0
 43
25.0
  0
INSERT
  5
37E
330
377
100
AcDbEntity
  8
C寸法
 62
     0
370
    -2
100
AcDbBlockReference
  2
_OPEN
 10
78.92680452712369
 20
1119.831594985571
 30
0.0
 41
25.0
 42
25.0
 43
25.0
 50
180.0
  0
MTEXT
  5
37F
330
377
100
AcDbEntity
  8
C寸法
 62
     0
370
    13
100
AcDbMText
 10
179.2584265636925
 20
1137.331594985571
 30
0.0
 40
25.0
 41
0.0
 71
     5
 72
     1
  1
\A1;200
  7
KANJI
 73
     1
 44
1.0
  0
POINT
  5
380
330
377
100
AcDbEntity
  8
Defpoints
 62
     0
100
AcDbPoint
 10
279.5900486002614
 20
1059.809878711333
 30
0.0
  0
POINT
  5
381
330
377
100
AcDbEntity
  8
Defpoints
 62
     0
100
AcDbPoint
 10
78.92680452712369
 20
958.4023914543034
 30
0.0
  0
POINT
  5
382
330
377
100
AcDbEntity
  8
Defpoints
 62
     0
100
AcDbPoint
 10
78.92680452712369
 20
1119.831594985571
 30
0.0
  0
ENDBLK
  5
379
330
377
100
AcDbEntity
  8
0
100
AcDbBlockEnd
  0
BLOCK
  5
388
330
387
100
AcDbEntity
  8
0
100
AcDbBlockBegin
  2
*D14
 70
     1
 10
0.0
 20
0.0
 30
0.0
  3
*D14
  1
*D27
  0
LINE
  5
38A
330
387
100
AcDbEntity
  8
C寸法
 62
     0
370
    -2
100
AcDbLine
 10
119.3303283625632
 20
593.313263673187
 30
0.0
 11
246.229105787328
 21
674.7474960553865
 31
0.0
  0
MTEXT
  5
38B
330
387
100
AcDbEntity
  8
C寸法
 62
     0
370
    13
100
AcDbMText
 10
171.9535335462916
 20
647.8763851400063
 30
0.0
 40
25.0
 41
0.0
 71
     5
 72
     1
  1
4-R115
  7
KANJI
 11
0.8416112749984636
 21
0.540083754426534
 31
0.0
 73
     1
 44
1.0
  0
INSERT
  5
38C
330
387
100
AcDbEntity
  8
C寸法
 62
     0
370
    -2
100
AcDbBlockReference
  2
_OPEN
 10
98.29004648760159
 20
579.8111698125236
 30
0.0
 41
25.0
 42
25.0
 43
25.0
 50
212.6893405544994
  0
POINT
  5
38D
330
387
100
AcDbEntity
  8
Defpoints
 62
     0
100
AcDbPoint
 10
98.29004648760159
 20
579.8111698125236
 30
0.0
  0
POINT
  5
38E
330
387
100
AcDbEntity
  8
Defpoints
 62
     0
100
AcDbPoint
 10
195.0753431124239
 20
641.9208015715744
 30
0.0
  0
ENDBLK
  5
389
330
387
100
AcDbEntity
  8
0
100
AcDbBlockEnd
  0
BLOCK
  5
393
330
392
100
AcDbEntity
  8
0
100
AcDbBlockBegin
  2
*D15
 70
     1
 10
0.0
 20
0.0
 30
0.0
  3
*D15
  1
*D28
  0
LINE
  5
395
330
392
100
AcDbEntity
  8
C寸法
 62
     0
370
    -2
100
AcDbLine
 10
155.7056466442831
 20
539.6179426660051
 30
0.0
 11
284.804062473087
 21
656.8750595183026
 31
0.0
  0
MTEXT
  5
396
330
392
100
AcDbEntity
  8
C寸法
 62
     0
370
    13
100
AcDbMText
 10
216.0219660566686
 20
618.0428506431612
 30
0.0
 40
25.0
 41
0.0
 71
     5
 72
     1
  1
4-R115
  7
KANJI
 11
0.740239894972323
 21
0.6723428425225958
 31
0.0
 73
     1
 44
1.0
  0
INSERT
  5
397
330
392
100
AcDbEntity
  8
C寸法
 62
     0
370
    -2
100
AcDbBlockReference
  2
_OPEN
 10
137.1996492699751
 20
522.8093716029402
 30
0.0
 41
25.0
 42
25.0
 43
25.0
 50
222.2481450493061
  0
POINT
  5
398
330
392
100
AcDbEntity
  8
Defpoints
 62
     0
100
AcDbPoint
 10
137.1996492699751
 20
522.8093716029402
 30
0.0
  0
POINT
  5
399
330
392
100
AcDbEntity
  8
Defpoints
 62
     0
100
AcDbPoint
 10
296.2503085973344
 20
667.2714211676264
 30
0.0
  0
ENDBLK
  5
394
330
392
100
AcDbEntity
  8
0
100
AcDbBlockEnd
  0
BLOCK
  5
3A0
330
39F
100
AcDbEntity
  8
0
100
AcDbBlockBegin
  2
*D16
 70
     1
 10
0.0
 20
0.0
 30
0.0
  3
*D16
  1
*D29
  0
LINE
  5
3A2
330
39F
100
AcDbEntity
  8
C寸法
 62
     0
370
    -2
100
AcDbLine
 10
103.2771375530362
 20
1016.270762914657
 30
0.0
 11
228.1926011940789
 21
871.2387525277196
 31
0.0
  0
MTEXT
  5
3A3
330
39F
100
AcDbEntity
  8
C寸法
 62
     0
370
    13
100
AcDbMText
 10
217.1642290375412
 20
910.8588180408475
 30
0.0
 40
25.0
 41
0.0
 71
     5
 72
     1
  1
R60
  7
KANJI
 11
0.6526034930749741
 21
-0.7576995980112055
 31
0.0
 73
     1
 44
1.0
  0
INSERT
  5
3A4
330
39F
100
AcDbEntity
  8
C寸法
 62
     0
370
    -2
100
AcDbBlockReference
  2
_OPEN
 10
103.2771375530362
 20
1016.270762914657
 30
0.0
 41
25.0
 42
25.0
 43
25.0
 50
130.7381829173603
  0
POINT
  5
3A5
330
39F
100
AcDbEntity
  8
Defpoints
 62
     0
100
AcDbPoint
 10
103.2771375530362
 20
1016.270762914657
 30
0.0
  0
POINT
  5
3A6
330
39F
100
AcDbEntity
  8
Defpoints
 62
     0
100
AcDbPoint
 10
137.3275354670363
 20
976.7368451754282
 30
0.0
  0
ENDBLK
  5
3A1
330
39F
100
AcDbEntity
  8
0
100
AcDbBlockEnd
  0
BLOCK
  5
3B0
330
3AF
100
AcDbEntity
  8
0
100
AcDbBlockBegin
  2
*D17
 70
     1
 10
0.0
 20
0.0
 30
0.0
  3
*D17
  1
*D30
  0
LINE
  5
3B2
330
3AF
100
AcDbEntity
  8
0
 62
     0
370
    -2
100
AcDbLine
 10
661.2377818485944
 20
993.1536076021433
 30
0.0
 11
661.2377818485944
 21
1079.907795208712
 31
0.0
  0
LINE
  5
3B3
330
3AF
100
AcDbEntity
  8
0
 62
     0
370
    -2
100
AcDbLine
 10
698.554195740724
 20
993.8576908831269
 30
0.0
 11
698.554195740724
 21
1079.907795208712
 31
0.0
  0
LINE
  5
3B4
330
3AF
100
AcDbEntity
  8
0
 62
     0
370
    -2
100
AcDbLine
 10
661.2377818485944
 20
1078.657795208712
 30
0.0
 11
447.3687342295467
 21
1078.657795208712
 31
0.0
  0
LINE
  5
3B5
330
3AF
100
AcDbEntity
  8
0
 62
     0
370
    -2
100
AcDbLine
 10
661.2377818485944
 20
1078.657795208712
 30
0.0
 11
698.554195740724
 21
1078.657795208712
 31
0.0
  0
LINE
  5
3B6
330
3AF
100
AcDbEntity
  8
0
 62
     0
370
    -2
100
AcDbLine
 10
636.2377818485944
 20
1078.657795208712
 30
0.0
 11
611.2377818485944
 21
1078.657795208712
 31
0.0
  0
LINE
  5
3B7
330
3AF
100
AcDbEntity
  8
0
 62
     0
370
    -2
100
AcDbLine
 10
723.554195740724
 20
1078.657795208712
 30
0.0
 11
748.554195740724
 21
1078.657795208712
 31
0.0
  0
INSERT
  5
3B8
330
3AF
100
AcDbEntity
  8
0
 62
     0
370
    -2
100
AcDbBlockReference
  2
_OPEN
 10
661.2377818485944
 20
1078.657795208712
 30
0.0
 41
25.0
 42
25.0
 43
25.0
  0
INSERT
  5
3B9
330
3AF
100
AcDbEntity
  8
0
 62
     0
370
    -2
100
AcDbBlockReference
  2
_OPEN
 10
698.554195740724
 20
1078.657795208712
 30
0.0
 41
25.0
 42
25.0
 43
25.0
 50
180.0
  0
MTEXT
  5
3BA
330
3AF
100
AcDbEntity
  8
0
 62
     0
370
    13
100
AcDbMText
 10
529.3032580390706
 20
1096.157795208712
 30
0.0
 40
25.0
 41
0.0
 71
     5
 72
     1
  1
Φ36水栓穴
  7
KANJI
 73
     1
 44
1.0
  0
POINT
  5
3BB
330
3AF
100
AcDbEntity
  8
Defpoints
 62
     0
100
AcDbPoint
 10
661.2377818485944
 20
992.5286076021433
 30
0.0
  0
POINT
  5
3BC
330
3AF
100
AcDbEntity
  8
Defpoints
 62
     0
100
AcDbPoint
 10
698.554195740724
 20
993.2326908831269
 30
0.0
  0
POINT
  5
3BD
330
3AF
100
AcDbEntity
  8
Defpoints
 62
     0
100
AcDbPoint
 10
698.554195740724
 20
1078.657795208712
 30
0.0
  0
ENDBLK
  5
3B1
330
3AF
100
AcDbEntity
  8
0
100
AcDbBlockEnd
  0
ENDSEC
  0
SECTION
  2
ENTITIES
  0
TEXT
  5
24F
330
1F
100
AcDbEntity
  8
C寸法
 62
     7
100
AcDbText
 10
1186.574838405415
 20
139.9820018973356
 30
0.0
 40
30.0
  1
品　番　：N800BIA EB 寸法図
  7
KANJI
100
AcDbText
  0
LINE
  5
250
330
1F
100
AcDbEntity
  8
0
100
AcDbLine
 10
1182.023865960264
 20
128.1883697648488
 30
0.0
 11
1772.38900197724
 21
128.1883697648488
 31
0.0
  0
TEXT
  5
251
330
1F
100
AcDbEntity
  8
C寸法
 62
     7
100
AcDbText
 10
1227.48777655213
 20
91.30383997181934
 30
0.0
 40
25.0
  1
※詳細はお問合せください
  7
KANJI
100
AcDbText
  0
LWPOLYLINE
  5
252
330
1F
100
AcDbEntity
  8
0
100
AcDbPolyline
 90
        4
 70
     1
 43
0.0
 10
4.737862335098214
 20
1205.044270012851
 10
4.737862335098214
 20
3.495782105357591
 10
1804.793521577644
 20
3.495782105357591
 10
1804.793521577644
 20
1205.044270012851
  0
LINE
  5
253
330
1F
100
AcDbEntity
  8
C2
  6
CENTER
 62
     0
 48
20.0
370
    13
100
AcDbLine
 10
478.9268117654782
 20
1062.844510605232
 30
0.0
 11
478.9268117654782
 21
472.8445106052354
 31
0.0
  0
LINE
  5
256
330
1F
100
AcDbEntity
  8
C2
  6
CENTER
 62
     0
 48
20.0
370
    13
100
AcDbLine
 10
42.50913498952553
 20
857.8445106052318
 30
0.0
 11
905.7503041231726
 21
857.8445106052316
 31
0.0
  0
LINE
  5
257
330
1F
100
AcDbEntity
  8
C4
 62
     0
370
    18
100
AcDbLine
 10
1318.438883196622
 20
1030.844510605232
 30
0.0
 11
1318.438883196622
 21
1044.844510605235
 31
0.0
  0
ARC
  5
258
330
1F
100
AcDbEntity
  8
C4
 62
     0
370
    18
100
AcDbCircle
 10
1321.438883196622
 20
1030.844510605232
 30
0.0
 40
2.999999999999971
100
AcDbArc
 50
180.0
 51
270.0
  0
LINE
  5
259
330
1F
100
AcDbEntity
  8
C4
 62
     0
370
    18
100
AcDbLine
 10
882.2277790920716
 20
273.5819416704753
 30
0.0
 11
75.63165713055872
 21
273.5819416704753
 31
0.0
  0
LINE
  5
25A
330
1F
100
AcDbEntity
  8
C4
 62
     0
370
    18
100
AcDbLine
 10
558.4268117654801
 20
74.08194167047844
 30
0.0
 11
399.4268117654801
 21
74.0819416704789
 31
0.0
  0
LINE
  5
25B
330
1F
100
AcDbEntity
  8
C4
 62
     0
370
    18
100
AcDbLine
 10
386.3460971453559
 20
83.58194167047935
 30
0.0
 11
571.0920186123976
 21
83.58194167047935
 31
0.0
  0
LINE
  5
25C
330
1F
100
AcDbEntity
  8
C4
 62
     0
370
    18
100
AcDbLine
 10
558.4268117654801
 20
76.58194167047935
 30
0.0
 11
399.4268117654801
 21
76.58194167047844
 31
0.0
  0
LINE
  5
25D
330
1F
100
AcDbEntity
  8
C4
 62
     0
370
    18
100
AcDbLine
 10
193.9268117654782
 20
507.8445106052354
 30
0.0
 11
763.9268117654783
 21
507.8445106052354
 31
0.0
  0
LINE
  5
25E
330
1F
100
AcDbEntity
  8
C4
 62
     0
370
    18
100
AcDbLine
 10
193.9268117654782
 20
490.8445106052354
 30
0.0
 11
763.9268117654783
 21
490.8445106052354
 31
0.0
  0
LINE
  5
25F
330
1F
100
AcDbEntity
  8
C4
 62
     0
370
    18
100
AcDbLine
 10
78.92681176547825
 20
622.8445106052354
 30
0.0
 11
78.92681176547825
 21
967.8445106052318
 31
0.0
  0
LINE
  5
260
330
1F
100
AcDbEntity
  8
C4
 62
     0
370
    18
100
AcDbLine
 10
61.92681176547825
 20
967.8445106052318
 30
0.0
 11
61.92681176547825
 21
622.8445106052354
 31
0.0
  0
LINE
  5
261
330
1F
100
AcDbEntity
  8
C4
 62
     0
370
    18
100
AcDbLine
 10
878.9268117654638
 20
622.8445106052354
 30
0.0
 11
878.9268117654638
 21
967.8445106052318
 31
0.0
  0
LINE
  5
262
330
1F
100
AcDbEntity
  8
C4
 62
     0
370
    18
100
AcDbLine
 10
895.9268342264031
 20
967.8445106052318
 30
0.0
 11
895.9268117654638
 21
622.8445106052354
 31
0.0
  0
LINE
  5
263
330
1F
100
AcDbEntity
  8
C4
 62
     0
370
    18
100
AcDbLine
 10
818.9268117654783
 20
1044.844510605235
 30
0.0
 11
138.9268117654782
 21
1044.844510605235
 31
0.0
  0
LINE
  5
264
330
1F
100
AcDbEntity
  8
C4
 62
     0
370
    18
100
AcDbLine
 10
138.9268117654782
 20
1027.844510605232
 30
0.0
 11
818.9268117654783
 21
1027.844510605232
 31
0.0
  0
LINE
  5
265
330
1F
100
AcDbEntity
  8
C4
 62
     0
370
    18
100
AcDbLine
 10
74.92681176548007
 20
271.0819416704753
 30
0.0
 11
61.92681176548007
 21
271.0819416704753
 31
0.0
  0
LINE
  5
266
330
1F
100
AcDbEntity
  8
C4
 62
     0
370
    18
100
AcDbLine
 10
78.92681176548007
 20
126.2791548298582
 30
0.0
 11
78.92681176548007
 21
270.5819416704462
 31
0.0
  0
ARC
  5
267
330
1F
100
AcDbEntity
  8
C4
 62
     0
370
    18
100
AcDbCircle
 10
75.92681176548007
 20
270.5819416704462
 30
0.0
 40
2.999999999999971
100
AcDbArc
 50
0.0
 51
89.99999999989578
  0
LINE
  5
268
330
1F
100
AcDbEntity
  8
C4
 62
     0
370
    18
100
AcDbLine
 10
76.42681176548007
 20
126.2791548298582
 30
0.0
 11
76.42681176548007
 21
269.5819416704789
 31
0.0
  0
LINE
  5
269
330
1F
100
AcDbEntity
  8
C4
 62
     0
370
    18
100
AcDbLine
 10
388.4268117654801
 20
76.5819416704789
 30
0.0
 11
388.4268117654801
 21
81.11735250183023
 31
0.0
  0
LINE
  5
26A
330
1F
100
AcDbEntity
  8
C4
 62
     0
370
    18
100
AcDbLine
 10
399.4268117654801
 20
76.5819416704789
 30
0.0
 11
399.4268117654801
 21
74.0819416704789
 31
0.0
  0
LINE
  5
26B
330
1F
100
AcDbEntity
  8
C4
 62
     0
370
    18
100
AcDbLine
 10
399.4268117654801
 20
76.5819416704789
 30
0.0
 11
388.4268117654801
 21
76.5819416704789
 31
0.0
  0
LINE
  5
26C
330
1F
100
AcDbEntity
  8
C4
 62
     0
370
    18
100
AcDbLine
 10
388.4268117654801
 20
74.0819416704789
 30
0.0
 11
399.4268117654801
 21
74.0819416704789
 31
0.0
  0
LINE
  5
26D
330
1F
100
AcDbEntity
  8
C4
 62
     0
370
    18
100
AcDbLine
 10
385.9268117654801
 20
76.5819416704789
 30
0.0
 11
385.9268117654801
 21
81.11735250183023
 31
0.0
  0
LINE
  5
26E
330
1F
100
AcDbEntity
  8
C4
 62
     0
370
    18
100
AcDbLine
 10
882.9268117654656
 20
271.0819416704753
 30
0.0
 11
895.9268117654656
 21
271.0819416704753
 31
0.0
  0
LINE
  5
26F
330
1F
100
AcDbEntity
  8
C4
 62
     0
370
    18
100
AcDbLine
 10
878.9268117654656
 20
126.2791548298582
 30
0.0
 11
878.9268117654656
 21
270.5819416704462
 31
0.0
  0
ARC
  5
270
330
1F
100
AcDbEntity
  8
C4
 62
     0
370
    18
100
AcDbCircle
 10
881.9268117654801
 20
270.5819416704462
 30
0.0
 40
2.999999999999971
100
AcDbArc
 50
90.00000000010422
 51
180.0
  0
LINE
  5
271
330
1F
100
AcDbEntity
  8
C4
 62
     0
370
    18
100
AcDbLine
 10
881.4268117654656
 20
126.2791548298582
 30
0.0
 11
881.4268117654656
 21
269.5819416704789
 31
0.0
  0
LINE
  5
272
330
1F
100
AcDbEntity
  8
C4
 62
     0
370
    18
100
AcDbLine
 10
569.4268117654801
 20
76.5819416704789
 30
0.0
 11
569.4268117654801
 21
81.61016238652059
 31
0.0
  0
LINE
  5
273
330
1F
100
AcDbEntity
  8
C4
 62
     0
370
    18
100
AcDbLine
 10
558.4268117654801
 20
76.5819416704789
 30
0.0
 11
558.4268117654801
 21
74.0819416704789
 31
0.0
  0
LINE
  5
274
330
1F
100
AcDbEntity
  8
C4
 62
     0
370
    18
100
AcDbLine
 10
558.4268117654801
 20
76.5819416704789
 30
0.0
 11
569.4268117654801
 21
76.5819416704789
 31
0.0
  0
LINE
  5
275
330
1F
100
AcDbEntity
  8
C4
 62
     0
370
    18
100
AcDbLine
 10
569.4268117654801
 20
74.0819416704789
 30
0.0
 11
558.4268117654801
 21
74.0819416704789
 31
0.0
  0
LINE
  5
276
330
1F
100
AcDbEntity
  8
C4
 62
     0
370
    18
100
AcDbLine
 10
571.9268117654801
 20
76.5819416704789
 30
0.0
 11
571.9268117654801
 21
81.11735250183023
 31
0.0
  0
LINE
  5
277
330
1F
100
AcDbEntity
  8
C4
 62
     0
370
    18
100
AcDbLine
 10
875.9268117654656
 20
258.5819416704753
 30
0.0
 11
528.9268117654801
 21
258.5819416704753
 31
0.0
  0
LINE
  5
278
330
1F
100
AcDbEntity
  8
C4
 62
     0
370
    18
100
AcDbLine
 10
1320.938883196622
 20
503.8445106052354
 30
0.0
 11
1320.938883196622
 21
490.8445106052354
 31
0.0
  0
LINE
  5
279
330
1F
100
AcDbEntity
  8
C4
 62
     0
370
    18
100
AcDbLine
 10
1330.438883196622
 20
507.8445106052354
 30
0.0
 11
1321.438886869816
 21
507.8445106052354
 31
0.0
  0
LINE
  5
27A
330
1F
100
AcDbEntity
  8
C4
 62
     0
370
    18
100
AcDbLine
 10
1330.438883196622
 20
505.3445106052354
 30
0.0
 11
1322.438883196622
 21
505.3445106052354
 31
0.0
  0
LINE
  5
27B
330
1F
100
AcDbEntity
  8
C4
 62
     0
370
    18
100
AcDbLine
 10
1333.438883196622
 20
519.8445106052391
 30
0.0
 11
1333.438883196622
 21
510.8445106052317
 31
0.0
  0
ARC
  5
27C
330
1F
100
AcDbEntity
  8
C4
 62
     0
370
    18
100
AcDbCircle
 10
1336.438883196622
 20
519.8445106052391
 30
0.0
 40
2.999999999999971
100
AcDbArc
 50
90.0
 51
180.0
  0
LINE
  5
27D
330
1F
100
AcDbEntity
  8
C4
 62
     0
370
    18
100
AcDbLine
 10
1336.438883196622
 20
522.8445106052354
 30
0.0
 11
1465.946011882087
 21
522.8445106052354
 31
0.0
  0
LINE
  5
27E
330
1F
100
AcDbEntity
  8
C4
 62
     0
370
    18
100
AcDbLine
 10
1335.938883196622
 20
510.8445106052317
 30
0.0
 11
1335.938883196622
 21
517.8445106052354
 31
0.0
  0
LINE
  5
27F
330
1F
100
AcDbEntity
  8
C4
 62
     0
370
    18
100
AcDbLine
 10
1338.438883196622
 20
520.3445106052354
 30
0.0
 11
1465.946011882087
 21
520.3445106052354
 31
0.0
  0
LINE
  5
280
330
1F
100
AcDbEntity
  8
C4
 62
     0
370
    18
100
AcDbLine
 10
1336.386974985974
 20
952.8445106052318
 30
0.0
 11
1478.438883196622
 21
952.8445106052318
 31
0.0
  0
LINE
  5
281
330
1F
100
AcDbEntity
  8
C4
 62
     0
370
    18
100
AcDbLine
 10
1333.438883196622
 20
517.8445106052354
 30
0.0
 11
1333.438883196622
 21
639.4272035083527
 31
0.0
  0
LINE
  5
282
330
1F
100
AcDbEntity
  8
C4
 62
     0
370
    18
100
AcDbLine
 10
1320.938883196622
 20
1031.844510605232
 30
0.0
 11
1320.938883196622
 21
1044.844510605235
 31
0.0
  0
LINE
  5
283
330
1F
100
AcDbEntity
  8
C4
 62
     0
370
    18
100
AcDbLine
 10
1321.438883196622
 20
1027.844510605232
 30
0.0
 11
1476.52763539528
 21
1027.844510605232
 31
0.0
  0
LINE
  5
284
330
1F
100
AcDbEntity
  8
C4
 62
     0
370
    18
100
AcDbLine
 10
1322.438883196622
 20
1030.344510605232
 30
0.0
 11
1476.52763539528
 21
1030.344510605232
 31
0.0
  0
LINE
  5
285
330
1F
100
AcDbEntity
  8
C4
 62
     0
370
    18
100
AcDbLine
 10
1333.423652712257
 20
953.7170644698822
 30
0.0
 11
1332.182309933139
 21
1024.833544656493
 31
0.0
  0
LINE
  5
286
330
1F
100
AcDbEntity
  8
C4
 62
     0
370
    18
100
AcDbLine
 10
1517.938883196622
 20
937.3445106052354
 30
0.0
 11
1517.938883196625
 21
778.3445106052313
 31
0.0
  0
LINE
  5
287
330
1F
100
AcDbEntity
  8
C4
 62
     0
370
    18
100
AcDbLine
 10
1515.438883196622
 20
937.3445106052354
 30
0.0
 11
1515.438883196622
 21
778.3445106052313
 31
0.0
  0
LINE
  5
288
330
1F
100
AcDbEntity
  8
C4
 62
     0
370
    18
100
AcDbLine
 10
1510.859179765613
 20
767.3445106052354
 30
0.0
 11
1515.438883196622
 21
767.3445106052354
 31
0.0
  0
LINE
  5
289
330
1F
100
AcDbEntity
  8
C4
 62
     0
370
    18
100
AcDbLine
 10
1515.438883196622
 20
778.3445106052318
 30
0.0
 11
1517.938883196622
 21
778.3445106052318
 31
0.0
  0
LINE
  5
28A
330
1F
100
AcDbEntity
  8
C4
 62
     0
370
    18
100
AcDbLine
 10
1515.438883196622
 20
778.3445106052318
 30
0.0
 11
1515.438883196622
 21
767.3445106052354
 31
0.0
  0
LINE
  5
28B
330
1F
100
AcDbEntity
  8
C4
 62
     0
370
    18
100
AcDbLine
 10
1517.938883196622
 20
767.3445106052354
 30
0.0
 11
1517.938883196622
 21
778.3445106052318
 31
0.0
  0
LINE
  5
28C
330
1F
100
AcDbEntity
  8
C4
 62
     0
370
    18
100
AcDbLine
 10
1510.859179765613
 20
764.8445106052354
 30
0.0
 11
1515.438883196622
 21
764.8445106052354
 31
0.0
  0
LINE
  5
28D
330
1F
100
AcDbEntity
  8
C4
 62
     0
370
    18
100
AcDbLine
 10
1510.859179765613
 20
948.3445106052282
 30
0.0
 11
1515.438883196622
 21
948.3445106052354
 31
0.0
  0
LINE
  5
28E
330
1F
100
AcDbEntity
  8
C4
 62
     0
370
    18
100
AcDbLine
 10
1515.438883196622
 20
937.3445106052354
 30
0.0
 11
1517.938883196622
 21
937.3445106052354
 31
0.0
  0
LINE
  5
28F
330
1F
100
AcDbEntity
  8
C4
 62
     0
370
    18
100
AcDbLine
 10
1515.438883196622
 20
937.3445106052354
 30
0.0
 11
1515.438883196622
 21
948.3445106052354
 31
0.0
  0
LINE
  5
290
330
1F
100
AcDbEntity
  8
C4
 62
     0
370
    18
100
AcDbLine
 10
1517.938883196622
 20
948.3445106052354
 30
0.0
 11
1517.938883196622
 21
937.3445106052354
 31
0.0
  0
LINE
  5
291
330
1F
100
AcDbEntity
  8
C4
 62
     0
370
    18
100
AcDbLine
 10
1510.859179765613
 20
950.8445106052354
 30
0.0
 11
1515.438883196622
 21
950.8445106052354
 31
0.0
  0
LINE
  5
292
330
1F
100
AcDbEntity
  8
C4
 62
     0
370
    18
100
AcDbLine
 10
81.92681176548007
 20
258.5819416704753
 30
0.0
 11
428.9268117654801
 21
258.5819416704753
 31
0.0
  0
LINE
  5
293
330
1F
100
AcDbEntity
  8
C4
 62
     0
370
    18
100
AcDbLine
 10
1333.438883196622
 20
951.9718238261562
 30
0.0
 11
1333.438883196622
 21
836.2618177021218
 31
0.0
  0
LINE
  5
294
330
1F
100
AcDbEntity
  8
C4
 62
     0
370
    18
100
AcDbLine
 10
895.9268117654656
 20
273.5819416704753
 30
0.0
 11
895.9268117654656
 21
271.0819416704753
 31
0.0
  0
LINE
  5
295
330
1F
100
AcDbEntity
  8
C4
 62
     0
370
    18
100
AcDbLine
 10
61.92681176548007
 20
273.5819416704753
 30
0.0
 11
61.92681176548007
 21
271.0819416704753
 31
0.0
  0
LINE
  5
296
330
1F
100
AcDbEntity
  8
C4
 62
     0
370
    18
100
AcDbLine
 10
1318.438883196622
 20
1044.844510605235
 30
0.0
 11
1320.938883196622
 21
1044.844510605235
 31
0.0
  0
LINE
  5
297
330
1F
100
AcDbEntity
  8
C4
 62
     0
370
    18
100
AcDbLine
 10
1318.438883196622
 20
490.8445106052354
 30
0.0
 11
1320.938883196622
 21
490.8445106052354
 31
0.0
  0
LINE
  5
298
330
1F
100
AcDbEntity
  8
C4
 62
     0
370
    18
100
AcDbLine
 10
875.9268117654656
 20
260.5819416704753
 30
0.0
 11
528.9268117654801
 21
260.5819416704753
 31
0.0
  0
LINE
  5
299
330
1F
100
AcDbEntity
  8
C4
 62
     0
370
    18
100
AcDbLine
 10
81.92681176548007
 20
260.5819416704753
 30
0.0
 11
428.9268117654801
 21
260.5819416704753
 31
0.0
  0
CIRCLE
  5
29A
330
1F
100
AcDbEntity
  8
C4
 62
     0
370
    18
100
AcDbCircle
 10
478.9268117654782
 20
857.8445106052318
 30
0.0
 40
79.49999999999922
  0
CIRCLE
  5
29B
330
1F
100
AcDbEntity
  8
C4
 62
     0
370
    18
100
AcDbCircle
 10
478.9268117654782
 20
857.8445106052318
 30
0.0
 40
90.49999999999912
  0
ARC
  5
29C
330
1F
100
AcDbEntity
  8
C4
 62
     0
370
    18
100
AcDbCircle
 10
818.9268117654783
 20
967.8445106052318
 30
0.0
 40
59.99999999999942
100
AcDbArc
 50
0.0
 51
90.0
  0
ARC
  5
29D
330
1F
100
AcDbEntity
  8
C4
 62
     0
370
    18
100
AcDbCircle
 10
138.9268117654782
 20
967.8445106052318
 30
0.0
 40
59.99999999999942
100
AcDbArc
 50
90.0
 51
180.0
  0
ARC
  5
29E
330
1F
100
AcDbEntity
  8
C4
 62
     0
370
    18
100
AcDbCircle
 10
763.9268117654783
 20
622.8445106052354
 30
0.0
 40
114.9999999999989
100
AcDbArc
 50
270.0
 51
0.0
  0
ARC
  5
29F
330
1F
100
AcDbEntity
  8
C4
 62
     0
370
    18
100
AcDbCircle
 10
193.9268117654782
 20
622.8445106052354
 30
0.0
 40
114.9999999999989
100
AcDbArc
 50
180.0
 51
270.0
  0
ARC
  5
2A0
330
1F
100
AcDbEntity
  8
C4
 62
     0
370
    18
100
AcDbCircle
 10
478.9268117654782
 20
10522.84451060514
 30
0.0
 40
9999.999999999902
100
AcDbArc
 50
268.3545040906384
 51
271.6454959093616
  0
ARC
  5
2A1
330
1F
100
AcDbEntity
  8
C4
 62
     0
370
    18
100
AcDbCircle
 10
74.92681176548007
 20
269.5819416704789
 30
0.0
 40
1.499999999999985
100
AcDbArc
 50
0.0
 51
89.99978954073161
  0
ARC
  5
2A2
330
1F
100
AcDbEntity
  8
C4
 62
     0
370
    18
100
AcDbCircle
 10
388.4268117654801
 20
76.5819416704789
 30
0.0
 40
2.499999999999976
100
AcDbArc
 50
180.0
 51
269.9999415803923
  0
ARC
  5
2A3
330
1F
100
AcDbEntity
  8
C4
 62
     0
370
    18
100
AcDbCircle
 10
882.9268117654656
 20
269.5819416704789
 30
0.0
 40
1.499999999999985
100
AcDbArc
 50
90.00021045905996
 51
179.9998479604956
  0
ARC
  5
2A4
330
1F
100
AcDbEntity
  8
C4
 62
     0
370
    18
100
AcDbCircle
 10
569.4268117654801
 20
76.5819416704789
 30
0.0
 40
2.499999999999976
100
AcDbArc
 50
270.0000584196077
 51
0.0
  0
ARC
  5
2A5
330
1F
100
AcDbEntity
  8
C4
 62
     0
370
    18
100
AcDbCircle
 10
1322.438883196622
 20
503.8445106052354
 30
0.0
 40
1.499999999999985
100
AcDbArc
 50
90.00015203934811
 51
179.9997895408358
  0
ARC
  5
2A6
330
1F
100
AcDbEntity
  8
C4
 62
     0
370
    18
100
AcDbCircle
 10
1330.438883196622
 20
510.8445106052317
 30
0.0
 40
2.999999999999971
100
AcDbArc
 50
270.0
 51
0.0
  0
ARC
  5
2A7
330
1F
100
AcDbEntity
  8
C4
 62
     0
370
    18
100
AcDbCircle
 10
1338.438883196622
 20
517.8445106052354
 30
0.0
 40
2.499999999999976
100
AcDbArc
 50
90.0
 51
180.0
  0
ARC
  5
2A8
330
1F
100
AcDbEntity
  8
C4
 62
     0
370
    18
100
AcDbCircle
 10
1330.438883196622
 20
510.8445106052317
 30
0.0
 40
5.499999999999947
100
AcDbArc
 50
270.0
 51
0.0
  0
ARC
  5
2A9
330
1F
100
AcDbEntity
  8
C4
 62
     0
370
    18
100
AcDbCircle
 10
1322.438883196622
 20
1031.844510605232
 30
0.0
 40
1.499999999999985
100
AcDbArc
 50
180.0002104591121
 51
269.9998479604435
  0
ARC
  5
2AA
330
1F
100
AcDbEntity
  8
C4
 62
     0
370
    18
100
AcDbCircle
 10
1329.182766847663
 20
1024.781187437184
 30
0.0
 40
2.999999999999971
100
AcDbArc
 50
0.9999999999757105
 51
90.99999999997571
  0
ARC
  5
2AB
330
1F
100
AcDbEntity
  8
C4
 62
     0
370
    18
100
AcDbCircle
 10
478.9268117654782
 20
-9047.15548939467
 30
0.0
 40
9999.999999999902
100
AcDbArc
 50
88.35450409063844
 51
88.86657674250003
  0
ARC
  5
2AC
330
1F
100
AcDbEntity
  8
C4
 62
     0
370
    18
100
AcDbCircle
 10
5078.926811765436
 20
747.8445106052354
 30
0.0
 40
4999.999999999951
100
AcDbArc
 50
178.9866796872341
 51
181.2424681999328
  0
ARC
  5
2AD
330
1F
100
AcDbEntity
  8
C4
 62
     0
370
    18
100
AcDbCircle
 10
-4121.073188234479
 20
747.8445106052354
 30
0.0
 40
4999.999999999951
100
AcDbArc
 50
358.7575318000671
 51
1.013320312765954
  0
ARC
  5
2AE
102
{ACAD_REACTORS
330
386
102
}
330
1F
100
AcDbEntity
  8
C4
 62
     0
370
    18
100
AcDbCircle
 10
195.0753431124239
 20
641.9208015715744
 30
0.0
 40
114.9999999999989
100
AcDbArc
 50
181.2424681999329
 51
268.3545040906384
  0
ARC
  5
2AF
330
1F
100
AcDbEntity
  8
C4
 62
     0
370
    18
100
AcDbCircle
 10
195.0753431124239
 20
833.7682196388928
 30
0.0
 40
114.9999999999989
100
AcDbArc
 50
91.64549590936159
 51
178.7575318000671
  0
ARC
  5
2B0
330
1F
100
AcDbEntity
  8
C4
 62
     0
370
    18
100
AcDbCircle
 10
762.7782804185181
 20
833.7682196388928
 30
0.0
 40
114.9999999999989
100
AcDbArc
 50
1.242468199932882
 51
88.3545040906384
  0
ARC
  5
2B1
330
1F
100
AcDbEntity
  8
C4
 62
     0
370
    18
100
AcDbCircle
 10
478.9268117654782
 20
-9047.15548939467
 30
0.0
 40
9999.999999999902
100
AcDbArc
 50
91.13342325749996
 51
91.64549590936159
  0
ARC
  5
2B2
330
1F
100
AcDbEntity
  8
C4
 62
     0
370
    18
100
AcDbCircle
 10
1515.438883196622
 20
767.3445106052354
 30
0.0
 40
2.499999999999976
100
AcDbArc
 50
270.0
 51
0.0
  0
ARC
  5
2B3
330
1F
100
AcDbEntity
  8
C4
 62
     0
370
    18
100
AcDbCircle
 10
1515.438883196622
 20
948.3445106052354
 30
0.0
 40
2.499999999999976
100
AcDbArc
 50
0.0
 51
90.0
  0
ARC
  5
2B4
330
1F
100
AcDbEntity
  8
C4
 62
     0
370
    18
100
AcDbCircle
 10
1478.438883196622
 20
922.8445106052318
 30
0.0
 40
29.99999999999971
100
AcDbArc
 50
0.0
 51
90.0
  0
ARC
  5
2B5
330
1F
100
AcDbEntity
  8
C4
 62
     0
370
    18
100
AcDbCircle
 10
762.7782804185181
 20
641.9208015715817
 30
0.0
 40
114.9999999999989
100
AcDbArc
 50
271.6454959093615
 51
358.7575318000671
  0
ARC
  5
2B6
330
1F
100
AcDbEntity
  8
C4
 62
     0
370
    18
100
AcDbCircle
 10
279.1419691458495
 20
1050.868377514017
 30
0.0
 40
99.99999999999902
100
AcDbArc
 50
271.1334232574999
 51
327.9517432982173
  0
ARC
  5
2B7
330
1F
100
AcDbEntity
  8
C4
 62
     0
370
    18
100
AcDbCircle
 10
678.7116543851071
 20
1050.868377514017
 30
0.0
 40
99.99999999999902
100
AcDbArc
 50
212.0215821540281
 51
268.8665767425001
  0
ARC
  5
2B8
330
1F
100
AcDbEntity
  8
C4
 62
     0
370
    18
100
AcDbCircle
 10
418.1486113908967
 20
963.8445106052318
 30
0.0
 40
63.99999999999937
100
AcDbArc
 50
90.0
 51
147.9517432982172
  0
ARC
  5
2B9
330
1F
100
AcDbEntity
  8
C4
 62
     0
370
    18
100
AcDbCircle
 10
539.7049937453039
 20
963.8445159333501
 30
0.0
 40
64.00000478797497
100
AcDbArc
 50
32.04825832368724
 51
89.99999887160565
  0
ARC
  5
2BA
330
1F
100
AcDbEntity
  8
C4
 62
     0
370
    18
100
AcDbCircle
 10
763.9268117654783
 20
622.8445106052354
 30
0.0
 40
131.9999999999987
100
AcDbArc
 50
270.0
 51
0.0
  0
ARC
  5
2BB
330
1F
100
AcDbEntity
  8
C4
 62
     0
370
    18
100
AcDbCircle
 10
193.9268117654782
 20
622.8445106052354
 30
0.0
 40
131.9999999999987
100
AcDbArc
 50
180.0
 51
270.0
  0
ARC
  5
2BC
330
1F
100
AcDbEntity
  8
C4
 62
     0
370
    18
100
AcDbCircle
 10
138.9268117654782
 20
967.8445106052318
 30
0.0
 40
76.99999999999925
100
AcDbArc
 50
90.0
 51
180.0
  0
ARC
  5
2BD
330
1F
100
AcDbEntity
  8
C4
 62
     0
370
    18
100
AcDbCircle
 10
818.9268117654783
 20
967.8445106052318
 30
0.0
 40
76.99999999999925
100
AcDbArc
 50
0.0
 51
90.0
  0
ARC
  5
2BE
330
1F
100
AcDbEntity
  8
C4
 62
     0
370
    18
100
AcDbCircle
 10
506.4679480740969
 20
4583.141495836006
 30
0.0
 40
4499.999999999956
100
AcDbArc
 50
270.8267432003836
 51
274.3938910813529
  0
ARC
  5
2BF
330
1F
100
AcDbEntity
  8
C4
 62
     0
370
    18
100
AcDbCircle
 10
571.4268117654801
 20
81.61016238652059
 30
0.0
 40
1.99999999999998
100
AcDbArc
 50
90.82674320038359
 51
180.0
  0
ARC
  5
2C0
330
1F
100
AcDbEntity
  8
C4
 62
     0
370
    18
100
AcDbCircle
 10
506.4679480740969
 20
4583.141495836006
 30
0.0
 40
4502.499999999956
100
AcDbArc
 50
270.8330147149745
 51
274.3938910813529
  0
ARC
  5
2C1
330
1F
100
AcDbEntity
  8
C4
 62
     0
370
    18
100
AcDbCircle
 10
848.9268117654656
 20
126.2791548298582
 30
0.0
 40
29.99999999999971
100
AcDbArc
 50
274.3938910813526
 51
0.0
  0
ARC
  5
2C2
330
1F
100
AcDbEntity
  8
C4
 62
     0
370
    18
100
AcDbCircle
 10
848.9268117654656
 20
126.2791548298582
 30
0.0
 40
32.49999999999968
100
AcDbArc
 50
274.3938910813526
 51
0.0
  0
ARC
  5
2C3
330
1F
100
AcDbEntity
  8
C4
 62
     0
370
    18
100
AcDbCircle
 10
451.3856754568632
 20
4583.141495836006
 30
0.0
 40
4499.999999999956
100
AcDbArc
 50
265.606108918647
 51
269.1669852850255
  0
ARC
  5
2C4
330
1F
100
AcDbEntity
  8
C4
 62
     0
370
    18
100
AcDbCircle
 10
451.3856754568632
 20
4583.141495836006
 30
0.0
 40
4502.499999999956
100
AcDbArc
 50
265.606108918647
 51
269.1669852850255
  0
ARC
  5
2C5
330
1F
100
AcDbEntity
  8
C4
 62
     0
370
    18
100
AcDbCircle
 10
108.9268117654801
 20
126.2791548298582
 30
0.0
 40
29.99999999999971
100
AcDbArc
 50
180.0
 51
265.606108918647
  0
ARC
  5
2C6
330
1F
100
AcDbEntity
  8
C4
 62
     0
370
    18
100
AcDbCircle
 10
108.9268117654801
 20
126.2791548298582
 30
0.0
 40
32.49999999999968
100
AcDbArc
 50
180.0
 51
265.606108918647
  0
ARC
  5
2C7
330
1F
100
AcDbEntity
  8
C4
 62
     0
370
    18
100
AcDbCircle
 10
385.9268117654801
 20
81.11735250183023
 30
0.0
 40
2.499999999999976
100
AcDbArc
 50
0.0
 51
89.16698528502546
  0
ARC
  5
2C8
330
1F
100
AcDbEntity
  8
C4
 62
     0
370
    18
100
AcDbCircle
 10
-2689.396512105072
 20
902.1703017280383
 30
0.0
 40
4199.999999999959
100
AcDbArc
 50
355.1946337667208
 51
358.1274029281695
  0
ARC
  5
2C9
330
1F
100
AcDbEntity
  8
C4
 62
     0
370
    18
100
AcDbCircle
 10
-2689.396512105072
 20
902.1703017280383
 30
0.0
 40
4202.499999999958
100
AcDbArc
 50
355.1946337667208
 51
358.1274029281695
  0
ARC
  5
2CA
330
1F
100
AcDbEntity
  8
C4
 62
     0
370
    18
100
AcDbCircle
 10
1465.946011882087
 20
552.8445106052354
 30
0.0
 40
29.99999999999971
100
AcDbArc
 50
270.0
 51
355.1946337667206
  0
ARC
  5
2CB
330
1F
100
AcDbEntity
  8
C4
 62
     0
370
    18
100
AcDbCircle
 10
1465.946011882087
 20
552.8445106052354
 30
0.0
 40
32.49999999999968
100
AcDbArc
 50
270.0
 51
355.1946337667209
  0
ARC
  5
2CC
330
1F
100
AcDbEntity
  8
C4
 62
     0
370
    18
100
AcDbCircle
 10
1510.859179765613
 20
764.8445106052354
 30
0.0
 40
2.499999999999976
100
AcDbArc
 50
90.0
 51
178.1274029281711
  0
ARC
  5
2CD
330
1F
100
AcDbEntity
  8
C4
 62
     0
370
    18
100
AcDbCircle
 10
-2689.396512105072
 20
813.5187194824289
 30
0.0
 40
4199.999999999959
100
AcDbArc
 50
1.872597071830509
 51
2.533460938962513
  0
ARC
  5
2CE
330
1F
100
AcDbEntity
  8
C4
 62
     0
370
    18
100
AcDbCircle
 10
-2689.396512105072
 20
813.5187194824289
 30
0.0
 40
4202.499999999958
100
AcDbArc
 50
1.872597071830509
 51
2.533460938962513
  0
ARC
  5
2CF
330
1F
100
AcDbEntity
  8
C4
 62
     0
370
    18
100
AcDbCircle
 10
1510.859179765613
 20
950.8445106052282
 30
0.0
 40
2.499999999999976
100
AcDbArc
 50
181.8725970718341
 51
270.0
  0
ARC
  5
2D0
330
1F
100
AcDbEntity
  8
C4
 62
     0
370
    18
100
AcDbCircle
 10
1476.52763539528
 20
997.8445106052318
 30
0.0
 40
29.99999999999971
100
AcDbArc
 50
2.533460938962532
 51
90.0
  0
ARC
  5
2D1
330
1F
100
AcDbEntity
  8
C4
 62
     0
370
    18
100
AcDbCircle
 10
1476.52763539528
 20
997.8445106052318
 30
0.0
 40
32.49999999999968
100
AcDbArc
 50
2.533460938962535
 51
90.0
  0
ARC
  5
2D2
330
1F
100
AcDbEntity
  8
C4
 62
     0
370
    18
100
AcDbCircle
 10
81.92681176548007
 20
263.5819416704753
 30
0.0
 40
2.999999999999971
100
AcDbArc
 50
180.0
 51
270.0
  0
ARC
  5
2D3
330
1F
100
AcDbEntity
  8
C4
 62
     0
370
    18
100
AcDbCircle
 10
81.92681176548007
 20
261.5819416704753
 30
0.0
 40
2.999999999999971
100
AcDbArc
 50
180.0
 51
270.0
  0
ARC
  5
2D4
330
1F
100
AcDbEntity
  8
C4
 62
     0
370
    18
100
AcDbCircle
 10
875.9268117654656
 20
263.5819416704753
 30
0.0
 40
2.999999999999971
100
AcDbArc
 50
270.0
 51
0.0
  0
ARC
  5
2D5
330
1F
100
AcDbEntity
  8
C4
 62
     0
370
    18
100
AcDbCircle
 10
875.9268117654656
 20
261.5819416704753
 30
0.0
 40
2.999999999999971
100
AcDbArc
 50
270.0
 51
0.0
  0
ARC
  5
2D6
330
1F
100
AcDbEntity
  8
C4
 62
     0
370
    18
100
AcDbCircle
 10
1233.438883196622
 20
951.9718238261562
 30
0.0
 40
99.99999999999902
100
AcDbArc
 50
0.0
 51
0.9999999999757266
  0
ARC
  5
2D7
330
1F
100
AcDbEntity
  8
C4
 62
     0
370
    18
100
AcDbCircle
 10
1336.386974985974
 20
955.8445106052354
 30
0.0
 40
2.999999999999971
100
AcDbArc
 50
180.9999999999757
 51
270.0
  0
LINE
  5
2D8
330
1F
100
AcDbEntity
  8
C4
 62
     0
370
    18
100
AcDbLine
 10
1318.438886869845
 20
504.8445216248478
 30
0.0
 11
1318.438835444934
 21
490.8445106052354
 31
0.0
  0
ARC
  5
2D9
330
1F
100
AcDbEntity
  8
C4
 62
     0
370
    18
100
AcDbCircle
 10
1321.438886869816
 20
504.844510605239
 30
0.0
 40
2.999999999999971
100
AcDbArc
 50
90.0
 51
179.9997895408358
  0
LINE
  5
2DA
330
1F
100
AcDbEntity
  8
C寸法
 62
     0
370
    18
100
AcDbLine
 10
882.9267970726587
 20
273.5819416704462
 30
0.0
 11
895.9268117654656
 21
273.5819416704753
 31
0.0
  0
LINE
  5
2DB
330
1F
100
AcDbEntity
  8
C4
 62
     0
370
    18
100
AcDbLine
 10
895.9268117654656
 20
273.5819416704753
 30
0.0
 11
881.9268117654656
 21
273.5819416704462
 31
0.0
  0
LINE
  5
2DC
330
1F
100
AcDbEntity
  8
C4
 62
     0
370
    18
100
AcDbLine
 10
61.92681176548007
 20
273.5819416704753
 30
0.0
 11
75.92681176549462
 21
273.5819416704462
 31
0.0
  0
CIRCLE
  5
2DD
330
1F
100
AcDbEntity
  8
C4
 62
     0
370
    18
100
AcDbCircle
 10
348.9268117654782
 20
1012.844510605232
 30
0.0
 40
5.999999999999937
  0
CIRCLE
  5
2DE
330
1F
100
AcDbEntity
  8
C4
 62
     0
370
    18
100
AcDbCircle
 10
608.9268117654783
 20
1012.844510605232
 30
0.0
 40
5.999999999999937
  0
LINE
  5
2DF
330
1F
100
AcDbEntity
  8
C4
 62
     0
100
AcDbLine
 10
1318.438883196585
 20
489.8445252980459
 30
0.0
 11
1318.438883196622
 21
1030.844510605232
 31
0.0
  0
DIMENSION
  5
2E0
330
1F
100
AcDbEntity
  8
C寸法
 62
     0
370
    13
100
AcDbDimension
  2
*D3
 10
1156.403406080862
 20
507.8445106052354
 30
0.0
 11
1156.403406080862
 21
767.8445106052354
 31
0.0
 70
   160
 71
     5
 42
520.0
  3
実寸
100
AcDbAlignedDimension
 13
910.9268229959334
 23
1027.844510605235
 33
0.0
 14
910.9268229959334
 24
507.8445106052354
 34
0.0
 50
90.0
100
AcDbRotatedDimension
1001
ACAD
1000
DSTYLE
1002
{
1070
   340
1005
F4
1070
   144
1040
1.0
1002
}
  0
DIMENSION
  5
2E1
330
1F
100
AcDbEntity
  8
C寸法
 62
     0
370
    13
100
AcDbDimension
  2
*D4
 10
1108.926811765466
 20
522.8445106052354
 30
0.0
 11
1091.426811765466
 21
775.3445106052354
 31
0.0
 70
    32
 71
     5
 42
505.0
  3
実寸
100
AcDbAlignedDimension
 13
910.9268229959334
 23
1027.844510605235
 33
0.0
 14
910.9268229959334
 24
522.8445106052354
 34
0.0
 50
90.0
100
AcDbRotatedDimension
1001
ACAD
1000
DSTYLE
1002
{
1070
   340
1005
F4
1070
   144
1040
1.0
1002
}
  0
DIMENSION
  5
2E2
330
1F
100
AcDbEntity
  8
C寸法
 62
     0
370
    13
100
AcDbDimension
  2
*D5
 10
1108.926811765466
 20
507.8445106052354
 30
0.0
 11
1108.926811765466
 21
434.2991237004734
 31
0.0
 70
   160
 71
     5
 42
15.00000000000006
  3
実寸
100
AcDbAlignedDimension
 13
478.9268117654782
 23
522.8445106052354
 33
0.0
 14
478.9268117654782
 24
507.8445106052354
 34
0.0
 50
90.0
100
AcDbRotatedDimension
1001
ACAD
1000
DSTYLE
1002
{
1070
   340
1005
F4
1070
   172
1070
     1
1070
   144
1040
1.0
1002
}
  0
DIMENSION
  5
2E3
330
1F
100
AcDbEntity
  8
C寸法
 62
     0
370
    13
100
AcDbDimension
  2
*D6
 10
1058.926811765466
 20
857.8445106052313
 30
0.0
 11
1041.426811765466
 21
942.8445106052332
 31
0.0
 70
    32
 71
     5
 42
170.0000000000036
  3
実寸
100
AcDbAlignedDimension
 13
838.1616541674009
 23
1027.844510605235
 33
0.0
 14
905.7503041231726
 24
857.8445106052313
 34
0.0
 50
90.0
100
AcDbRotatedDimension
1001
ACAD
1000
DSTYLE
1002
{
1070
   340
1005
F4
1070
   144
1040
1.0
1002
}
  0
DIMENSION
  5
2E4
330
1F
100
AcDbEntity
  8
C寸法
 62
     0
370
    13
100
AcDbDimension
  2
*D7
 10
878.9368117754884
 20
388.070581305876
 30
0.0
 11
478.9318117704839
 21
388.070581305876
 31
0.0
 70
   160
 71
     5
 42
800.010000010009
  3
実寸
100
AcDbAlignedDimension
 13
78.92681176547939
 23
622.8445106052354
 33
0.0
 14
878.9368117754884
 24
640.1284585904668
 34
0.0
100
AcDbRotatedDimension
1001
ACAD
1000
DSTYLE
1002
{
1070
   340
1005
F4
1070
   144
1040
1.0
1002
}
  0
DIMENSION
  5
2E5
330
1F
100
AcDbEntity
  8
C寸法
 62
     0
370
    13
100
AcDbDimension
  2
*D8
 10
1058.926811765466
 20
83.58194167047932
 30
0.0
 11
1041.426811765466
 21
178.5819416704773
 31
0.0
 70
    32
 71
     5
 42
189.9999999999959
  3
実寸
100
AcDbAlignedDimension
 13
908.9268117654656
 23
273.5819416704753
 33
0.0
 14
569.3000843279251
 24
83.58194167047935
 34
0.0
 50
90.0
100
AcDbRotatedDimension
1001
ACAD
1000
DSTYLE
1002
{
1070
   340
1005
F4
1070
   144
1040
1.0
1002
}
  0
LINE
  5
2E6
102
{ACAD_REACTORS
330
2EC
102
}
330
1F
100
AcDbEntity
  8
C寸法
  6
CENTER
 62
     7
 48
20.0
370
    13
100
AcDbLine
 10
678.9261336005211
 20
960.3441630456887
 30
0.0
 11
678.9261336005175
 21
1059.844510605232
 31
0.0
  0
LINE
  5
2E7
330
1F
100
AcDbEntity
  8
C寸法
  6
CENTER
 62
     7
 48
20.0
370
    13
100
AcDbLine
 10
640.925999916861
 20
993.3440511484746
 30
0.0
 11
717.5696035125843
 21
993.3440511484746
 31
0.0
  0
CIRCLE
  5
2E8
330
1F
100
AcDbEntity
  8
C寸法
 62
     7
370
    18
100
AcDbCircle
 10
678.9261336005211
 20
993.3440511484746
 30
0.0
 40
17.99993896515419
  0
CIRCLE
  5
2E9
330
1F
100
AcDbEntity
  8
C寸法
  6
DASHED
 62
     7
 48
10.0
370
    13
100
AcDbCircle
 10
278.9274899304355
 20
993.3440511484746
 30
0.0
 40
17.99993896515419
  0
DIMENSION
  5
2EA
102
{ACAD_REACTORS
330
2EC
102
}
102
{ACAD_XDICTIONARY
360
2EB
102
}
330
1F
100
AcDbEntity
  8
C寸法
 62
     7
370
    13
100
AcDbDimension
  2
*D9
 10
678.9261336005211
 20
1118.430505737139
 30
0.0
 11
778.9264726829994
 21
1135.930505737139
 31
0.0
 70
    32
 71
     5
 42
200.0006781649565
  3
実寸
100
AcDbAlignedDimension
 13
878.9268117654776
 23
967.8445106052318
 33
0.0
 14
678.9261336005211
 24
1059.844510605232
 34
0.0
100
AcDbRotatedDimension
1001
ACAD
1000
DSTYLE
1002
{
1070
   340
1005
F4
1070
   144
1040
1.0
1070
   172
1070
     1
1002
}
  0
DIMENSION
  5
2ED
330
1F
100
AcDbEntity
  8
C寸法
 62
     7
370
    13
100
AcDbDimension
  2
*D10
 10
1008.926811765466
 20
993.3440511484746
 30
0.0
 11
1008.926811765466
 21
1120.939748700469
 31
0.0
 70
   160
 71
     5
 42
34.50045945675652
  3
実寸
100
AcDbAlignedDimension
 13
818.9268117654783
 23
1027.844510605231
 33
0.0
 14
716.4977890619762
 24
993.3440511484746
 34
0.0
 50
90.0
100
AcDbRotatedDimension
1001
ACAD
1000
DSTYLE
1002
{
1070
   340
1005
F4
1070
   144
1040
1.0
1070
   172
1070
     1
1002
}
  0
DIMENSION
  5
2EE
330
1F
100
AcDbEntity
  8
C寸法
 62
     0
370
    13
100
AcDbDimension
  2
*D11
 10
1008.926811765466
 20
258.5819416704753
 30
0.0
 11
991.4268117654656
 21
185.0365547657133
 31
0.0
 70
    32
 71
     5
 42
14.96256893475987
  3
実寸
100
AcDbAlignedDimension
 13
886.7854841172107
 23
273.5445106052351
 33
0.0
 14
868.281264177276
 24
258.5819416704753
 34
0.0
 50
90.0
100
AcDbRotatedDimension
1001
ACAD
1000
DSTYLE
1002
{
1070
   340
1005
F4
1070
   172
1070
     1
1070
   144
1040
1.0
1002
}
  0
LINE
  5
2EF
330
1F
100
AcDbEntity
  8
C4
 62
     0
370
    18
100
AcDbLine
 10
1508.438764445019
 20
765.4702818700243
 30
0.0
 11
1508.438764445019
 21
950.2187393404351
 31
0.0
  0
DIMENSION
  5
2F0
330
1F
100
AcDbEntity
  8
C寸法
 62
     0
 48
20.0
370
    13
100
AcDbDimension
  2
*D12
 10
388.6164799946691
 20
697.8731493820715
 30
0.0
 11
493.1030689899598
 21
697.8731493820715
 31
0.0
 70
   160
  1
Φ<>
 71
     5
 42
180.8103317708083
 52
-270.0
  3
実寸
100
AcDbAlignedDimension
 13
569.4268117654774
 23
857.8445106052318
 33
0.0
 14
388.6164799946691
 24
857.5986833193626
 34
0.0
 50
180.0
100
AcDbRotatedDimension
1001
ACAD
1000
DSTYLE
1002
{
1070
   271
1070
     0
1070
   340
1005
F4
1070
   144
1040
1.0
1002
}
  0
LINE
  5
2F3
102
{ACAD_REACTORS
330
2EC
102
}
330
1F
100
AcDbEntity
  8
C寸法
  6
CENTER
 62
     7
 48
20.0
370
    13
100
AcDbLine
 10
279.5897931379224
 20
960.3441630456887
 30
0.0
 11
279.5897931379261
 21
1059.844510605232
 31
0.0
  0
LINE
  5
2F4
330
1F
100
AcDbEntity
  8
C寸法
  6
CENTER
 62
     7
 48
20.0
370
    13
100
AcDbLine
 10
318.1477642912404
 20
993.3440511484746
 30
0.0
 11
241.6762907143298
 21
993.3440511484746
 31
0.0
  0
DIMENSION
  5
2F5
330
1F
100
AcDbEntity
  8
C寸法
 62
     7
370
    13
100
AcDbDimension
  2
*D13
 10
78.92680452712369
 20
1119.831594985571
 30
0.0
 11
179.2584265636925
 21
1137.331594985571
 31
0.0
 70
    32
  1
200
 71
     5
 42
200.6632440731377
  3
実寸
100
AcDbAlignedDimension
 13
279.5900486002614
 23
1059.809878711333
 33
0.0
 14
78.92680452712369
 24
958.4023914543034
 34
0.0
100
AcDbRotatedDimension
1001
ACAD
1000
DSTYLE
1002
{
1070
   340
1005
F4
1070
   144
1040
1.0
1070
   172
1070
     1
1002
}
  0
DIMENSION
  5
384
102
{ACAD_REACTORS
330
386
102
}
102
{ACAD_XDICTIONARY
360
385
102
}
330
1F
100
AcDbEntity
  8
C寸法
 62
     7
370
    13
100
AcDbDimension
  2
*D14
 10
195.0753431124239
 20
641.9208015715744
 30
0.0
 11
181.4049992487559
 21
633.1481878275332
 31
0.0
 70
   164
  1
4-R115
 71
     5
 42
114.9999999999988
  3
JIS-1
100
AcDbRadialDimension
 15
98.29004648760159
 25
579.8111698125236
 35
0.0
 40
0.0
1001
ACAD_DSTYLE_DIMRADIAL_EXTENSION
1070
   387
1070
     1
1070
   388
1040
3.163277814529949
1070
   390
1040
4.683669658938232
1001
ACAD
1000
DSTYLE
1002
{
1070
   140
1040
25.0
1070
   147
1040
5.0
1070
   340
1005
F4
1070
   344
1005
90
1070
   173
1070
     1
1070
    41
1040
25.0
1002
}
  0
DIMENSION
  5
38F
330
1F
100
AcDbEntity
  8
C寸法
 62
     7
370
    13
100
AcDbDimension
  2
*D15
 10
296.2503085973344
 20
667.2714211676264
 30
0.0
 11
227.7879658008141
 21
605.0886524811455
 31
0.0
 70
   164
  1
4-R115
 71
     5
 42
214.8636683967244
  3
JIS-1
100
AcDbRadialDimension
 15
137.1996492699751
 25
522.8093716029402
 35
0.0
 40
0.0
1001
ACAD_DSTYLE_DIMRADIAL_EXTENSION
1070
   387
1070
     1
1070
   388
1040
3.141592653589793
1070
   390
1040
4.71238898038469
1001
ACAD
1000
DSTYLE
1002
{
1070
   140
1040
25.0
1070
   340
1005
F4
1070
   147
1040
5.0
1070
    41
1040
25.0
1070
   344
1005
90
1070
   173
1070
     1
1002
}
  0
DIMENSION
  5
39C
330
1F
100
AcDbEntity
  8
C寸法
 62
     7
370
    13
100
AcDbDimension
  2
*D16
 10
137.3275354670363
 20
976.7368451754282
 30
0.0
 11
203.9044860723451
 21
899.4382569120354
 31
0.0
 70
   164
  1
R60
 71
     5
 42
52.17624219809101
  3
JIS-1
100
AcDbRadialDimension
 15
171.3779333810363
 25
937.2029274361994
 35
0.0
 40
0.0
1001
ACAD_DSTYLE_DIMRADIAL_EXTENSION
1070
   387
1070
     0
1070
   388
1040
1.570796326794897
1070
   390
1040
3.141592653589793
1001
ACAD
1000
DSTYLE
1002
{
1070
   140
1040
25.0
1070
   147
1040
5.0
1070
   340
1005
F4
1070
    41
1040
25.0
1070
   344
1005
90
1070
   173
1070
     1
1070
   141
1040
2.5
1002
}
  0
DIMENSION
  5
3AE
330
1F
100
AcDbEntity
  8
0
370
    13
100
AcDbDimension
  2
*D17
 10
698.554195740724
 20
1078.657795208712
 30
0.0
 11
529.3032580390706
 21
1078.657795208712
 31
0.0
 70
   160
  1
Φ36水栓穴
 71
     5
 42
37.31641389212962
  3
JIS-1
100
AcDbAlignedDimension
 13
661.2377818485944
 23
992.5286076021433
 33
0.0
 14
698.554195740724
 24
993.2326908831269
 34
0.0
100
AcDbRotatedDimension
1001
ACAD
1000
DSTYLE
1002
{
1070
   140
1040
25.0
1070
   340
1005
F4
1070
   147
1040
5.0
1070
    41
1040
25.0
1002
}
  0
ENDSEC
  0
SECTION
  2
OBJECTS
  0
DICTIONARY
  5
C
330
0
100
AcDbDictionary
281
     1
  3
ACAD_COLOR
350
F6
  3
ACAD_DETAILVIEWSTYLE
350
DA
  3
ACAD_GROUP
350
D
  3
ACAD_IMAGE_VARS
350
6A
  3
ACAD_LAYOUT
350
1A
  3
ACAD_MATERIAL
350
97
  3
ACAD_MLEADERSTYLE
350
3F
  3
ACAD_MLINESTYLE
350
17
  3
ACAD_PLOTSETTINGS
350
19
  3
ACAD_PLOTSTYLENAME
350
E
  3
ACAD_SCALELIST
350
40
  3
ACAD_SECTIONVIEWSTYLE
350
DB
  3
ACAD_TABLESTYLE
350
3B
  3
ACDB_RECOMPOSE_DATA
350
3E8
  3
AcDbVariableDictionary
350
3D
  3
APPDATA
350
96
  0
DICTIONARY
  5
24A
330
2
100
AcDbDictionary
280
     1
281
     1
  3
ACAD_LAYERSTATES
360
24B
  0
DICTIONARY
  5
2EB
330
2EA
100
AcDbDictionary
280
     1
281
     1
  3
ACAD_DIMASSOC
360
2EC
  0
DICTIONARY
  5
385
330
384
100
AcDbDictionary
280
     1
281
     1
  3
ACAD_DIMASSOC
360
386
  0
DICTIONARY
  5
F6
102
{ACAD_REACTORS
330
C
102
}
330
C
100
AcDbDictionary
281
     1
  0
DICTIONARY
  5
DA
102
{ACAD_REACTORS
330
C
102
}
330
C
100
AcDbDictionary
281
     1
  0
DICTIONARY
  5
D
102
{ACAD_REACTORS
330
C
102
}
330
C
100
AcDbDictionary
281
     1
  0
RASTERVARIABLES
  5
6A
102
{ACAD_REACTORS
330
C
102
}
330
C
100
AcDbRasterVariables
 90
        0
 70
     1
 71
     1
 72
     1
  0
DICTIONARY
  5
1A
102
{ACAD_REACTORS
330
C
102
}
330
C
100
AcDbDictionary
281
     1
  3
Model
350
22
  3
Sheet1
350
1E
  3
Sheet2
350
26
  0
DICTIONARY
  5
97
102
{ACAD_REACTORS
330
C
102
}
330
C
100
AcDbDictionary
281
     1
  3
ByBlock
350
99
  3
ByLayer
350
98
  3
Global
350
9A
  0
DICTIONARY
  5
3F
102
{ACAD_REACTORS
330
C
102
}
330
C
100
AcDbDictionary
281
     1
  3
Standard
350
DC
  0
DICTIONARY
  5
17
102
{ACAD_REACTORS
330
C
102
}
330
C
100
AcDbDictionary
281
     1
  3
Standard
350
18
  0
DICTIONARY
  5
19
102
{ACAD_REACTORS
330
C
102
}
330
C
100
AcDbDictionary
281
     1
  0
ACDBDICTIONARYWDFLT
  5
E
102
{ACAD_REACTORS
330
C
102
}
330
C
100
AcDbDictionary
281
     1
  3
Normal
350
F
100
AcDbDictionaryWithDefault
340
F
  0
DICTIONARY
  5
40
102
{ACAD_REACTORS
330
C
102
}
330
C
100
AcDbDictionary
281
     1
  3
A0
350
41
  3
A1
350
42
  3
A2
350
43
  3
A3
350
44
  3
A4
350
45
  3
A5
350
46
  3
A6
350
47
  3
A7
350
48
  3
A8
350
49
  3
A9
350
4A
  3
B0
350
4B
  3
B1
350
4C
  3
B2
350
4D
  3
B3
350
4E
  3
B4
350
4F
  3
B5
350
50
  3
B6
350
51
  3
B7
350
52
  3
B8
350
53
  3
B9
350
54
  3
C0
350
55
  3
C1
350
56
  3
C2
350
57
  3
C3
350
58
  3
C4
350
59
  3
C5
350
5A
  3
C6
350
5B
  3
C7
350
5C
  3
C8
350
5D
  3
C9
350
5E
  3
D0
350
5F
  3
D1
350
60
  3
D2
350
61
  0
DICTIONARY
  5
DB
102
{ACAD_REACTORS
330
C
102
}
330
C
100
AcDbDictionary
281
     1
  0
DICTIONARY
  5
3B
102
{ACAD_REACTORS
330
C
102
}
330
C
100
AcDbDictionary
281
     1
  3
Standard
350
3C
  0
XRECORD
  5
3E8
102
{ACAD_REACTORS
330
C
102
}
330
C
100
AcDbXrecord
280
     1
 90
        1
330
3C
  0
DICTIONARY
  5
3D
102
{ACAD_REACTORS
330
C
102
}
330
C
100
AcDbDictionary
281
     1
  3
CANNOSCALE
350
62
  3
CMLEADERSTYLE
350
3A9
  3
CTABLESTYLE
350
3E
  3
LIGHTSINBLOCKS
350
6F
  3
MSLTSCALE
350
3E0
  3
XCLIPFRAME
350
70
  0
DICTIONARY
  5
96
102
{ACAD_REACTORS
330
C
102
}
330
C
100
AcDbDictionary
281
     1
  0
DICTIONARY
  5
24B
102
{ACAD_REACTORS
330
24A
102
}
330
24A
100
AcDbDictionary
281
     1
  0
DIMASSOC
  5
2EC
102
{ACAD_REACTORS
330
2EB
102
}
330
2EB
100
AcDbDimAssoc
330
2EA
 90
        2
 70
     0
 71
     0
  1
AcDbOsnapPointRef
 72
     1
331
2E6
 73
     2
 91
        0
 40
0.9999999999999977
 10
0.0
 20
0.0
 30
2.000000000000000E+50
 75
     0
  0
DIMASSOC
  5
386
102
{ACAD_REACTORS
330
385
102
}
330
385
100
AcDbDimAssoc
330
384
 90
        2
 70
     0
 71
     1
  1
AcDbOsnapPointRef
 72
     3
331
2AE
 73
     0
 91
        0
 40
0.0
 10
0.0
 20
0.0
 30
0.0
 75
     0
  0
LAYOUT
  5
22
102
{ACAD_REACTORS
330
1A
102
}
330
1A
100
AcDbPlotSettings
  1

  2
none_device
  4
ISO_A3_(420.00_x_297.00_MM)
  6

 40
7.5
 41
20.0
 42
7.5
 43
20.0
 44
420.0
 45
297.0
 46
20.78282828282826
 47
0.0
 48
0.0
 49
0.0
140
0.0
141
0.0
142
1.0
143
1.155642023346303
 70
  1204
 72
     1
 73
     0
 74
     1
  7
monochrome.ctb
 75
     0
 76
     0
 77
     2
 78
   300
147
0.8653198653198654
148
-134.1869158878504
149
0.0
100
AcDbLayout
  1
Model
 70
     1
 71
     0
 10
0.0
 20
0.0
 11
420.0
 21
297.0
 12
0.0
 22
0.0
 32
0.0
 14
4.737862335098214
 24
3.495782105357591
 34
0.0
 15
1804.793521577644
 25
1205.044270012851
 35
0.0
146
0.0
 13
0.0
 23
0.0
 33
0.0
 16
1.0
 26
0.0
 36
0.0
 17
0.0
 27
1.0
 37
0.0
 76
     0
330
1F
331
29
  0
LAYOUT
  5
1E
102
{ACAD_REACTORS
330
1A
102
}
330
1A
100
AcDbPlotSettings
  1

  2
none_device
  4

  6

 40
0.0
 41
0.0
 42
0.0
 43
0.0
 44
0.0
 45
0.0
 46
0.0
 47
0.0
 48
0.0
 49
0.0
140
0.0
141
0.0
142
1.0
143
1.0
 70
   688
 72
     0
 73
     0
 74
     5
  7

 75
    16
 76
     0
 77
     2
 78
   300
147
1.0
148
0.0
149
0.0
100
AcDbLayout
  1
Sheet1
 70
     1
 71
     1
 10
0.0
 20
0.0
 11
420.0
 21
297.0
 12
0.0
 22
0.0
 32
0.0
 14
1.000000000000000E+20
 24
1.000000000000000E+20
 34
1.000000000000000E+20
 15
-1.000000000000000E+20
 25
-1.000000000000000E+20
 35
-1.000000000000000E+20
146
0.0
 13
0.0
 23
0.0
 33
0.0
 16
1.0
 26
0.0
 36
0.0
 17
0.0
 27
1.0
 37
0.0
 76
     0
330
1B
  0
LAYOUT
  5
26
102
{ACAD_REACTORS
330
1A
102
}
330
1A
100
AcDbPlotSettings
  1

  2
none_device
  4

  6

 40
0.0
 41
0.0
 42
0.0
 43
0.0
 44
0.0
 45
0.0
 46
0.0
 47
0.0
 48
0.0
 49
0.0
140
0.0
141
0.0
142
1.0
143
1.0
 70
   688
 72
     0
 73
     0
 74
     5
  7

 75
    16
 76
     0
 77
     2
 78
   300
147
1.0
148
0.0
149
0.0
100
AcDbLayout
  1
Sheet2
 70
     1
 71
     2
 10
0.0
 20
0.0
 11
0.0
 21
0.0
 12
0.0
 22
0.0
 32
0.0
 14
0.0
 24
0.0
 34
0.0
 15
0.0
 25
0.0
 35
0.0
146
0.0
 13
0.0
 23
0.0
 33
0.0
 16
1.0
 26
0.0
 36
0.0
 17
0.0
 27
1.0
 37
0.0
 76
     0
330
23
  0
MATERIAL
  5
99
102
{ACAD_REACTORS
330
97
102
}
330
97
100
AcDbMaterial
  1
ByBlock
  0
MATERIAL
  5
98
102
{ACAD_REACTORS
330
97
102
}
330
97
100
AcDbMaterial
  1
ByLayer
  0
MATERIAL
  5
9A
102
{ACAD_REACTORS
330
97
102
}
330
97
100
AcDbMaterial
  1
Global
  0
MLEADERSTYLE
  5
DC
102
{ACAD_REACTORS
330
3F
102
}
330
3F
100
AcDbMLeaderStyle
170
     2
171
     1
172
     0
 90
        2
 40
0.0
 41
0.0
173
     1
 91
-1056964608
340
14
 92
       -2
290
     1
 42
2.0
291
     1
 43
8.0
  3
Standard
341
0
 44
4.0
300

342
11
174
     1
178
     6
175
     1
176
     0
 93
-1056964608
 45
4.0
292
     0
297
     0
 46
4.0
343
0
 94
-1056964608
 47
1.0
 49
1.0
140
1.0
293
     1
141
0.0
294
     1
177
     0
142
1.0
295
     0
296
     0
143
3.75
1001
ACAD_MLEADERVER
1070
     2
  0
MLINESTYLE
  5
18
102
{ACAD_REACTORS
330
17
102
}
330
17
100
AcDbMlineStyle
  2
Standard
 70
     0
  3

 62
   256
 51
90.0
 52
90.0
 71
     2
 49
0.5
 62
   256
  6
BYLAYER
 49
-0.5
 62
   256
  6
BYLAYER
  0
ACDBPLACEHOLDER
  5
F
102
{ACAD_REACTORS
330
E
102
}
330
E
  0
SCALE
  5
41
102
{ACAD_REACTORS
330
40
102
}
330
40
100
AcDbScale
 70
     0
300
1:1
140
1.0
141
1.0
290
     1
  0
SCALE
  5
42
102
{ACAD_REACTORS
330
40
102
}
330
40
100
AcDbScale
 70
     0
300
1:2
140
1.0
141
2.0
290
     0
  0
SCALE
  5
43
102
{ACAD_REACTORS
330
40
102
}
330
40
100
AcDbScale
 70
     0
300
1:4
140
1.0
141
4.0
290
     0
  0
SCALE
  5
44
102
{ACAD_REACTORS
330
40
102
}
330
40
100
AcDbScale
 70
     0
300
1:5
140
1.0
141
5.0
290
     0
  0
SCALE
  5
45
102
{ACAD_REACTORS
330
40
102
}
330
40
100
AcDbScale
 70
     0
300
1:8
140
1.0
141
8.0
290
     0
  0
SCALE
  5
46
102
{ACAD_REACTORS
330
40
102
}
330
40
100
AcDbScale
 70
     0
300
1:10
140
1.0
141
10.0
290
     0
  0
SCALE
  5
47
102
{ACAD_REACTORS
330
40
102
}
330
40
100
AcDbScale
 70
     0
300
1:16
140
1.0
141
16.0
290
     0
  0
SCALE
  5
48
102
{ACAD_REACTORS
330
40
102
}
330
40
100
AcDbScale
 70
     0
300
1:20
140
1.0
141
20.0
290
     0
  0
SCALE
  5
49
102
{ACAD_REACTORS
330
40
102
}
330
40
100
AcDbScale
 70
     0
300
1:30
140
1.0
141
30.0
290
     0
  0
SCALE
  5
4A
102
{ACAD_REACTORS
330
40
102
}
330
40
100
AcDbScale
 70
     0
300
1:40
140
1.0
141
40.0
290
     0
  0
SCALE
  5
4B
102
{ACAD_REACTORS
330
40
102
}
330
40
100
AcDbScale
 70
     0
300
1:50
140
1.0
141
50.0
290
     0
  0
SCALE
  5
4C
102
{ACAD_REACTORS
330
40
102
}
330
40
100
AcDbScale
 70
     0
300
1:100
140
1.0
141
100.0
290
     0
  0
SCALE
  5
4D
102
{ACAD_REACTORS
330
40
102
}
330
40
100
AcDbScale
 70
     0
300
2:1
140
2.0
141
1.0
290
     0
  0
SCALE
  5
4E
102
{ACAD_REACTORS
330
40
102
}
330
40
100
AcDbScale
 70
     0
300
4:1
140
4.0
141
1.0
290
     0
  0
SCALE
  5
4F
102
{ACAD_REACTORS
330
40
102
}
330
40
100
AcDbScale
 70
     0
300
8:1
140
8.0
141
1.0
290
     0
  0
SCALE
  5
50
102
{ACAD_REACTORS
330
40
102
}
330
40
100
AcDbScale
 70
     0
300
10:1
140
10.0
141
1.0
290
     0
  0
SCALE
  5
51
102
{ACAD_REACTORS
330
40
102
}
330
40
100
AcDbScale
 70
     0
300
100:1
140
100.0
141
1.0
290
     0
  0
SCALE
  5
52
102
{ACAD_REACTORS
330
40
102
}
330
40
100
AcDbScale
 70
     0
300
1/128" = 1'-0"
140
0.0078125
141
12.0
290
     0
  0
SCALE
  5
53
102
{ACAD_REACTORS
330
40
102
}
330
40
100
AcDbScale
 70
     0
300
1/64" = 1'-0"
140
0.015625
141
12.0
290
     0
  0
SCALE
  5
54
102
{ACAD_REACTORS
330
40
102
}
330
40
100
AcDbScale
 70
     0
300
1/32" = 1'-0"
140
0.03125
141
12.0
290
     0
  0
SCALE
  5
55
102
{ACAD_REACTORS
330
40
102
}
330
40
100
AcDbScale
 70
     0
300
1/16" = 1'-0"
140
0.0625
141
12.0
290
     0
  0
SCALE
  5
56
102
{ACAD_REACTORS
330
40
102
}
330
40
100
AcDbScale
 70
     0
300
3/32" = 1'-0"
140
0.09375
141
12.0
290
     0
  0
SCALE
  5
57
102
{ACAD_REACTORS
330
40
102
}
330
40
100
AcDbScale
 70
     0
300
1/8" = 1'-0"
140
0.125
141
12.0
290
     0
  0
SCALE
  5
58
102
{ACAD_REACTORS
330
40
102
}
330
40
100
AcDbScale
 70
     0
300
3/16" = 1'-0"
140
0.1875
141
12.0
290
     0
  0
SCALE
  5
59
102
{ACAD_REACTORS
330
40
102
}
330
40
100
AcDbScale
 70
     0
300
1/4" = 1'-0"
140
0.25
141
12.0
290
     0
  0
SCALE
  5
5A
102
{ACAD_REACTORS
330
40
102
}
330
40
100
AcDbScale
 70
     0
300
3/8" = 1'-0"
140
0.375
141
12.0
290
     0
  0
SCALE
  5
5B
102
{ACAD_REACTORS
330
40
102
}
330
40
100
AcDbScale
 70
     0
300
1/2" = 1'-0"
140
0.5
141
12.0
290
     0
  0
SCALE
  5
5C
102
{ACAD_REACTORS
330
40
102
}
330
40
100
AcDbScale
 70
     0
300
3/4" = 1'-0"
140
0.75
141
12.0
290
     0
  0
SCALE
  5
5D
102
{ACAD_REACTORS
330
40
102
}
330
40
100
AcDbScale
 70
     0
300
1" = 1'-0"
140
1.0
141
12.0
290
     0
  0
SCALE
  5
5E
102
{ACAD_REACTORS
330
40
102
}
330
40
100
AcDbScale
 70
     0
300
1-1/2" = 1'-0"
140
1.5
141
12.0
290
     0
  0
SCALE
  5
5F
102
{ACAD_REACTORS
330
40
102
}
330
40
100
AcDbScale
 70
     0
300
3" = 1'-0"
140
3.0
141
12.0
290
     0
  0
SCALE
  5
60
102
{ACAD_REACTORS
330
40
102
}
330
40
100
AcDbScale
 70
     0
300
6" = 1'-0"
140
6.0
141
12.0
290
     0
  0
SCALE
  5
61
102
{ACAD_REACTORS
330
40
102
}
330
40
100
AcDbScale
 70
     0
300
1'-0" = 1'-0"
140
12.0
141
12.0
290
     0
  0
TABLESTYLE
  5
3C
102
{ACAD_REACTORS
330
3B
102
}
102
{ACAD_XDICTIONARY
360
3E5
102
}
330
3B
100
AcDbTableStyle
  3
Standard
 70
     0
 71
     0
 40
1.5
 41
1.5
280
     0
281
     0
  7
Standard
140
4.5
170
     2
 62
     0
 63
   257
283
     0
274
    -2
284
     1
 64
     0
275
    -2
285
     1
 65
     0
276
    -2
286
     1
 66
     0
277
    -2
287
     1
 67
     0
278
    -2
288
     1
 68
     0
279
    -2
289
     1
 69
     0
  7
Standard
140
6.0
170
     5
 62
     0
 63
   257
283
     0
274
    -2
284
     1
 64
     0
275
    -2
285
     1
 65
     0
276
    -2
286
     1
 66
     0
277
    -2
287
     1
 67
     0
278
    -2
288
     1
 68
     0
279
    -2
289
     1
 69
     0
  7
Standard
140
4.5
170
     5
 62
     0
 63
   257
283
     0
274
    -2
284
     1
 64
     0
275
    -2
285
     1
 65
     0
276
    -2
286
     1
 66
     0
277
    -2
287
     1
 67
     0
278
    -2
288
     1
 68
     0
279
    -2
289
     1
 69
     0
  0
DICTIONARYVAR
  5
62
102
{ACAD_REACTORS
330
3D
102
}
330
3D
100
DictionaryVariables
280
     0
  1
1:1
  0
DICTIONARYVAR
  5
3A9
102
{ACAD_REACTORS
330
3D
102
}
330
3D
100
DictionaryVariables
280
     0
  1
Standard
  0
DICTIONARYVAR
  5
3E
102
{ACAD_REACTORS
330
3D
102
}
330
3D
100
DictionaryVariables
280
     0
  1
Standard
  0
DICTIONARYVAR
  5
6F
102
{ACAD_REACTORS
330
3D
102
}
330
3D
100
DictionaryVariables
280
     0
  1
0
  0
DICTIONARYVAR
  5
3E0
102
{ACAD_REACTORS
330
3D
102
}
330
3D
100
DictionaryVariables
280
     0
  1
0
  0
DICTIONARYVAR
  5
70
102
{ACAD_REACTORS
330
3D
102
}
330
3D
100
DictionaryVariables
280
     0
  1
0
  0
DICTIONARY
  5
3E5
330
3C
100
AcDbDictionary
280
     1
281
     1
  3
ACAD_ROUNDTRIP_2008_TABLESTYLE_CELLSTYLEMAP
360
3E7
  3
ACAD_XREC_ROUNDTRIP
360
3E6
  0
CELLSTYLEMAP
  5
3E7
102
{ACAD_REACTORS
330
3E5
102
}
330
3E5
100
AcDbCellStyleMap
 90
        3
300
CELLSTYLE
  1
TABLEFORMAT_BEGIN
 90
        5
170
     1
 91
        0
 92
    32768
 62
   257
 93
        1
300
CONTENTFORMAT
  1
CONTENTFORMAT_BEGIN
 90
        0
 91
        0
 92
      512
 93
        0
300

 40
0.0
140
1.0
 94
        5
 62
     0
340
11
144
6.0
309
CONTENTFORMAT_END
171
     1
301
MARGIN
  1
CELLMARGIN_BEGIN
 40
1.5
 40
1.5
 40
1.5
 40
1.5
 40
0.18
 40
0.18
309
CELLMARGIN_END
 94
        6
 95
        1
302
GRIDFORMAT
  1
GRIDFORMAT_BEGIN
 90
        0
 91
        1
 62
     0
 92
       -2
340
0
 93
        0
 40
0.045
309
GRIDFORMAT_END
 95
        2
302
GRIDFORMAT
  1
GRIDFORMAT_BEGIN
 90
        0
 91
        1
 62
     0
 92
       -2
340
0
 93
        0
 40
0.045
309
GRIDFORMAT_END
 95
        4
302
GRIDFORMAT
  1
GRIDFORMAT_BEGIN
 90
        0
 91
        1
 62
     0
 92
       -2
340
0
 93
        0
 40
0.045
309
GRIDFORMAT_END
 95
        8
302
GRIDFORMAT
  1
GRIDFORMAT_BEGIN
 90
        0
 91
        1
 62
     0
 92
       -2
340
0
 93
        0
 40
0.045
309
GRIDFORMAT_END
 95
       16
302
GRIDFORMAT
  1
GRIDFORMAT_BEGIN
 90
        0
 91
        1
 62
     0
 92
       -2
340
0
 93
        0
 40
0.045
309
GRIDFORMAT_END
 95
       32
302
GRIDFORMAT
  1
GRIDFORMAT_BEGIN
 90
        0
 91
        1
 62
     0
 92
       -2
340
0
 93
        0
 40
0.045
309
GRIDFORMAT_END
309
TABLEFORMAT_END
  1
CELLSTYLE_BEGIN
 90
        1
 91
        1
300
_TITLE
309
CELLSTYLE_END
300
CELLSTYLE
  1
TABLEFORMAT_BEGIN
 90
        5
170
     1
 91
        0
 92
        0
 62
   257
 93
        1
300
CONTENTFORMAT
  1
CONTENTFORMAT_BEGIN
 90
        0
 91
        0
 92
      512
 93
        0
300

 40
0.0
140
1.0
 94
        5
 62
     0
340
11
144
4.5
309
CONTENTFORMAT_END
171
     1
301
MARGIN
  1
CELLMARGIN_BEGIN
 40
1.5
 40
1.5
 40
1.5
 40
1.5
 40
0.18
 40
0.18
309
CELLMARGIN_END
 94
        6
 95
        1
302
GRIDFORMAT
  1
GRIDFORMAT_BEGIN
 90
        0
 91
        1
 62
     0
 92
       -2
340
0
 93
        0
 40
0.045
309
GRIDFORMAT_END
 95
        2
302
GRIDFORMAT
  1
GRIDFORMAT_BEGIN
 90
        0
 91
        1
 62
     0
 92
       -2
340
0
 93
        0
 40
0.045
309
GRIDFORMAT_END
 95
        4
302
GRIDFORMAT
  1
GRIDFORMAT_BEGIN
 90
        0
 91
        1
 62
     0
 92
       -2
340
0
 93
        0
 40
0.045
309
GRIDFORMAT_END
 95
        8
302
GRIDFORMAT
  1
GRIDFORMAT_BEGIN
 90
        0
 91
        1
 62
     0
 92
       -2
340
0
 93
        0
 40
0.045
309
GRIDFORMAT_END
 95
       16
302
GRIDFORMAT
  1
GRIDFORMAT_BEGIN
 90
        0
 91
        1
 62
     0
 92
       -2
340
0
 93
        0
 40
0.045
309
GRIDFORMAT_END
 95
       32
302
GRIDFORMAT
  1
GRIDFORMAT_BEGIN
 90
        0
 91
        1
 62
     0
 92
       -2
340
0
 93
        0
 40
0.045
309
GRIDFORMAT_END
309
TABLEFORMAT_END
  1
CELLSTYLE_BEGIN
 90
        2
 91
        1
300
_HEADER
309
CELLSTYLE_END
300
CELLSTYLE
  1
TABLEFORMAT_BEGIN
 90
        5
170
     1
 91
        0
 92
        0
 62
   257
 93
        1
300
CONTENTFORMAT
  1
CONTENTFORMAT_BEGIN
 90
        0
 91
        0
 92
      512
 93
        0
300

 40
0.0
140
1.0
 94
        2
 62
     0
340
11
144
4.5
309
CONTENTFORMAT_END
171
     1
301
MARGIN
  1
CELLMARGIN_BEGIN
 40
1.5
 40
1.5
 40
1.5
 40
1.5
 40
0.18
 40
0.18
309
CELLMARGIN_END
 94
        6
 95
        1
302
GRIDFORMAT
  1
GRIDFORMAT_BEGIN
 90
        0
 91
        1
 62
     0
 92
       -2
340
0
 93
        0
 40
0.045
309
GRIDFORMAT_END
 95
        2
302
GRIDFORMAT
  1
GRIDFORMAT_BEGIN
 90
        0
 91
        1
 62
     0
 92
       -2
340
0
 93
        0
 40
0.045
309
GRIDFORMAT_END
 95
        4
302
GRIDFORMAT
  1
GRIDFORMAT_BEGIN
 90
        0
 91
        1
 62
     0
 92
       -2
340
0
 93
        0
 40
0.045
309
GRIDFORMAT_END
 95
        8
302
GRIDFORMAT
  1
GRIDFORMAT_BEGIN
 90
        0
 91
        1
 62
     0
 92
       -2
340
0
 93
        0
 40
0.045
309
GRIDFORMAT_END
 95
       16
302
GRIDFORMAT
  1
GRIDFORMAT_BEGIN
 90
        0
 91
        1
 62
     0
 92
       -2
340
0
 93
        0
 40
0.045
309
GRIDFORMAT_END
 95
       32
302
GRIDFORMAT
  1
GRIDFORMAT_BEGIN
 90
        0
 91
        1
 62
     0
 92
       -2
340
0
 93
        0
 40
0.045
309
GRIDFORMAT_END
309
TABLEFORMAT_END
  1
CELLSTYLE_BEGIN
 90
        3
 91
        2
300
_DATA
309
CELLSTYLE_END
  0
XRECORD
  5
3E6
102
{ACAD_REACTORS
330
3E5
102
}
330
3E5
100
AcDbXrecord
280
     1
102
ACAD_ROUNDTRIP_PRE2007_TABLESTYLE
 90
      512
 91
        0
  1

 92
      512
 93
        0
  2

 94
      512
 95
        0
  3

  0
ENDSEC
  0
EOF
