  0
SECTION
  2
HEADER
  9
$ACADVER
  1
AC1018
  9
$ACADMAINTVER
 70
     0
  9
$DWGCODEPAGE
  3
ANSI_932
  9
$LASTSAVEDBY
  1
小谷 浩和
  9
$INSBASE
 10
0.0
 20
0.0
 30
0.0
  9
$EXTMIN
 10
3.086960423584259
 20
4.046082742528824
 30
0.0
  9
$EXTMAX
 10
1803.14261966613
 20
1205.594570650022
 30
0.0
  9
$LIMMIN
 10
0.0
 20
0.0
  9
$LIMMAX
 10
420.0
 20
297.0
  9
$ORTHOMODE
 70
     0
  9
$REGENMODE
 70
     1
  9
$FILLMODE
 70
     1
  9
$QTEXTMODE
 70
     0
  9
$MIRRTEXT
 70
     0
  9
$LTSCALE
 40
1.0
  9
$ATTMODE
 70
     1
  9
$TEXTSIZE
 40
2.5
  9
$TRACEWID
 40
1.0
  9
$TEXTSTYLE
  7
Standard
  9
$CLAYER
  8
0
  9
$CELTYPE
  6
ByLayer
  9
$CECOLOR
 62
   256
  9
$CELTSCALE
 40
1.0
  9
$DISPSILH
 70
     0
  9
$DIMSCALE
 40
1.0
  9
$DIMASZ
 40
2.5
  9
$DIMEXO
 40
0.625
  9
$DIMDLI
 40
3.75
  9
$DIMRND
 40
0.0
  9
$DIMDLE
 40
0.0
  9
$DIMEXE
 40
1.25
  9
$DIMTP
 40
0.0
  9
$DIMTM
 40
0.0
  9
$DIMTXT
 40
2.5
  9
$DIMCEN
 40
2.5
  9
$DIMTSZ
 40
0.0
  9
$DIMTOL
 70
     0
  9
$DIMLIM
 70
     0
  9
$DIMTIH
 70
     0
  9
$DIMTOH
 70
     0
  9
$DIMSE1
 70
     0
  9
$DIMSE2
 70
     0
  9
$DIMTAD
 70
     1
  9
$DIMZIN
 70
     8
  9
$DIMBLK
  1
OPEN
  9
$DIMASO
 70
     1
  9
$DIMSHO
 70
     1
  9
$DIMPOST
  1

  9
$DIMAPOST
  1

  9
$DIMALT
 70
     0
  9
$DIMALTD
 70
     3
  9
$DIMALTF
 40
0.03937007874016
  9
$DIMLFAC
 40
1.0
  9
$DIMTOFL
 70
     1
  9
$DIMTVP
 40
0.0
  9
$DIMTIX
 70
     0
  9
$DIMSOXD
 70
     0
  9
$DIMSAH
 70
     0
  9
$DIMBLK1
  1

  9
$DIMBLK2
  1

  9
$DIMSTYLE
  2
JIS-1
  9
$DIMCLRD
 70
     0
  9
$DIMCLRE
 70
     0
  9
$DIMCLRT
 70
     0
  9
$DIMTFAC
 40
1.0
  9
$DIMGAP
 40
0.625
  9
$DIMJUST
 70
     0
  9
$DIMSD1
 70
     0
  9
$DIMSD2
 70
     0
  9
$DIMTOLJ
 70
     0
  9
$DIMTZIN
 70
     8
  9
$DIMALTZ
 70
     0
  9
$DIMALTTZ
 70
     0
  9
$DIMUPT
 70
     0
  9
$DIMDEC
 70
     2
  9
$DIMTDEC
 70
     2
  9
$DIMALTU
 70
     2
  9
$DIMALTTD
 70
     3
  9
$DIMTXSTY
  7
Standard
  9
$DIMAUNIT
 70
     0
  9
$DIMADEC
 70
     0
  9
$DIMALTRND
 40
0.0
  9
$DIMAZIN
 70
     0
  9
$DIMDSEP
 70
    44
  9
$DIMATFIT
 70
     3
  9
$DIMFRAC
 70
     0
  9
$DIMLDRBLK
  1
OPEN
  9
$DIMLUNIT
 70
     2
  9
$DIMLWD
 70
    -2
  9
$DIMLWE
 70
    -2
  9
$DIMTMOVE
 70
     0
  9
$LUNITS
 70
     2
  9
$LUPREC
 70
     3
  9
$SKETCHINC
 40
1.0
  9
$FILLETRAD
 40
10.0
  9
$AUNITS
 70
     0
  9
$AUPREC
 70
     0
  9
$MENU
  1
.
  9
$ELEVATION
 40
0.0
  9
$PELEVATION
 40
0.0
  9
$THICKNESS
 40
0.0
  9
$LIMCHECK
 70
     0
  9
$CHAMFERA
 40
10.0
  9
$CHAMFERB
 40
10.0
  9
$CHAMFERC
 40
20.0
  9
$CHAMFERD
 40
0.0
  9
$SKPOLY
 70
     0
  9
$TDCREATE
 40
2455023.012359514
  9
$TDUCREATE
 40
2455022.637359514
  9
$TDUPDATE
 40
2457241.759009213
  9
$TDUUPDATE
 40
2457241.384009213
  9
$TDINDWG
 40
0.0063153819
  9
$TDUSRTIMER
 40
2457241.383411019
  9
$USRTIMER
 70
     1
  9
$ANGBASE
 50
0.0
  9
$ANGDIR
 70
     0
  9
$PDMODE
 70
     0
  9
$PDSIZE
 40
0.0
  9
$PLINEWID
 40
0.0
  9
$SPLFRAME
 70
     0
  9
$SPLINETYPE
 70
     6
  9
$SPLINESEGS
 70
     8
  9
$HANDSEED
  5
343
  9
$SURFTAB1
 70
     6
  9
$SURFTAB2
 70
     6
  9
$SURFTYPE
 70
     6
  9
$SURFU
 70
     6
  9
$SURFV
 70
     6
  9
$UCSBASE
  2

  9
$UCSNAME
  2

  9
$UCSORG
 10
0.0
 20
0.0
 30
0.0
  9
$UCSXDIR
 10
1.0
 20
0.0
 30
0.0
  9
$UCSYDIR
 10
0.0
 20
1.0
 30
0.0
  9
$UCSORTHOREF
  2

  9
$UCSORTHOVIEW
 70
     0
  9
$UCSORGTOP
 10
0.0
 20
0.0
 30
0.0
  9
$UCSORGBOTTOM
 10
0.0
 20
0.0
 30
0.0
  9
$UCSORGLEFT
 10
0.0
 20
0.0
 30
0.0
  9
$UCSORGRIGHT
 10
0.0
 20
0.0
 30
0.0
  9
$UCSORGFRONT
 10
0.0
 20
0.0
 30
0.0
  9
$UCSORGBACK
 10
0.0
 20
0.0
 30
0.0
  9
$PUCSBASE
  2

  9
$PUCSNAME
  2

  9
$PUCSORG
 10
0.0
 20
0.0
 30
0.0
  9
$PUCSXDIR
 10
1.0
 20
0.0
 30
0.0
  9
$PUCSYDIR
 10
0.0
 20
1.0
 30
0.0
  9
$PUCSORTHOREF
  2

  9
$PUCSORTHOVIEW
 70
     0
  9
$PUCSORGTOP
 10
0.0
 20
0.0
 30
0.0
  9
$PUCSORGBOTTOM
 10
0.0
 20
0.0
 30
0.0
  9
$PUCSORGLEFT
 10
0.0
 20
0.0
 30
0.0
  9
$PUCSORGRIGHT
 10
0.0
 20
0.0
 30
0.0
  9
$PUCSORGFRONT
 10
0.0
 20
0.0
 30
0.0
  9
$PUCSORGBACK
 10
0.0
 20
0.0
 30
0.0
  9
$USERI1
 70
     0
  9
$USERI2
 70
     0
  9
$USERI3
 70
     0
  9
$USERI4
 70
     0
  9
$USERI5
 70
     0
  9
$USERR1
 40
0.0
  9
$USERR2
 40
0.0
  9
$USERR3
 40
0.0
  9
$USERR4
 40
0.0
  9
$USERR5
 40
0.0
  9
$WORLDVIEW
 70
     1
  9
$SHADEDGE
 70
     3
  9
$SHADEDIF
 70
    70
  9
$TILEMODE
 70
     1
  9
$MAXACTVP
 70
    64
  9
$PINSBASE
 10
0.0
 20
0.0
 30
0.0
  9
$PLIMCHECK
 70
     0
  9
$PEXTMIN
 10
1.000000000000000E+20
 20
1.000000000000000E+20
 30
1.000000000000000E+20
  9
$PEXTMAX
 10
-1.000000000000000E+20
 20
-1.000000000000000E+20
 30
-1.000000000000000E+20
  9
$PLIMMIN
 10
0.0
 20
0.0
  9
$PLIMMAX
 10
0.0
 20
0.0
  9
$UNITMODE
 70
     0
  9
$VISRETAIN
 70
     1
  9
$PLINEGEN
 70
     0
  9
$PSLTSCALE
 70
     1
  9
$TREEDEPTH
 70
  3020
  9
$CMLSTYLE
  2
Standard
  9
$CMLJUST
 70
     0
  9
$CMLSCALE
 40
20.0
  9
$PROXYGRAPHICS
 70
     1
  9
$MEASUREMENT
 70
     1
  9
$CELWEIGHT
370
    -1
  9
$ENDCAPS
280
     0
  9
$JOINSTYLE
280
     0
  9
$LWDISPLAY
290
     0
  9
$INSUNITS
 70
     4
  9
$HYPERLINKBASE
  1

  9
$STYLESHEET
  1

  9
$XEDIT
290
     1
  9
$CEPSNTYPE
380
     0
  9
$PSTYLEMODE
290
     0
  9
$FINGERPRINTGUID
  2
{EC6BB858-51AA-46EC-B484-6C9CC7AB3E2E}
  9
$VERSIONGUID
  2
{FAEB1C32-E019-11D5-929B-00C0DF256EC4}
  9
$EXTNAMES
290
     1
  9
$PSVPSCALE
 40
0.0
  9
$OLESTARTUP
290
     0
  9
$SORTENTS
280
   127
  9
$INDEXCTL
280
     0
  9
$HIDETEXT
280
     1
  9
$XCLIPFRAME
290
     0
  9
$HALOGAP
280
     0
  9
$OBSCOLOR
 70
   257
  9
$OBSLTYPE
280
     0
  9
$INTERSECTIONDISPLAY
280
     0
  9
$INTERSECTIONCOLOR
 70
   257
  9
$DIMASSOC
280
     2
  9
$PROJECTNAME
  1

  0
ENDSEC
  0
SECTION
  2
CLASSES
  0
CLASS
  1
ACDBDICTIONARYWDFLT
  2
AcDbDictionaryWithDefault
  3
ObjectDBX Classes
 90
        0
 91
        4
280
     0
281
     0
  0
CLASS
  1
VISUALSTYLE
  2
AcDbVisualStyle
  3
ObjectDBX Classes
 90
     4095
 91
        4
280
     0
281
     0
  0
CLASS
  1
TABLESTYLE
  2
AcDbTableStyle
  3
ObjectDBX Classes
 90
     4095
 91
        4
280
     0
281
     0
  0
CLASS
  1
DICTIONARYVAR
  2
AcDbDictionaryVar
  3
ObjectDBX Classes
 90
        0
 91
        4
280
     0
281
     0
  0
CLASS
  1
SCALE
  2
AcDbScale
  3
ObjectDBX Classes
 90
     1153
 91
        4
280
     0
281
     0
  0
CLASS
  1
CELLSTYLEMAP
  2
AcDbCellStyleMap
  3
ObjectDBX Classes
 90
     1152
 91
        4
280
     0
281
     0
  0
CLASS
  1
RASTERVARIABLES
  2
AcDbRasterVariables
  3
ISM
 90
        0
 91
        4
280
     0
281
     0
  0
CLASS
  1
DIMASSOC
  2
AcDbDimAssoc
  3
"AcDbDimAssoc|Product Desc:     AcDim ARX App For Dimension|Company:          Autodesk, Inc.|WEB Address:      www.autodesk.com"
 90
        0
 91
        4
280
     0
281
     0
  0
CLASS
  1
MATERIAL
  2
AcDbMaterial
  3
ObjectDBX Classes
 90
     1153
 91
        4
280
     0
281
     0
  0
CLASS
  1
SUN
  2
AcDbSun
  3
SCENEOE
 90
     1153
 91
        4
280
     0
281
     0
  0
CLASS
  1
MLEADERSTYLE
  2
AcDbMLeaderStyle
  3
ACDB_MLEADERSTYLE_CLASS
 90
     4095
 91
        4
280
     0
281
     0
  0
CLASS
  1
SORTENTSTABLE
  2
AcDbSortentsTable
  3
ObjectDBX Classes
 90
        0
 91
        4
280
     0
281
     0
  0
ENDSEC
  0
SECTION
  2
TABLES
  0
TABLE
  2
VPORT
  5
8
330
0
100
AcDbSymbolTable
 70
     1
  0
VPORT
  5
29
330
8
100
AcDbSymbolTableRecord
100
AcDbViewportTableRecord
  2
*Active
 70
     0
 10
0.0
 20
0.0
 11
1.0
 21
1.0
 12
750.7622069178548
 22
798.5357868677543
 13
0.0
 23
0.0
 14
10.0
 24
10.0
 15
10.0
 25
10.0
 16
0.0
 26
0.0
 36
1.0
 17
-134.1869158878508
 27
0.0
 37
0.0
 40
753.7076597976304
 41
1.66488413547237
 42
50.0
 43
0.0
 44
0.0
 50
0.0
 51
0.0
 71
    16
 72
  1000
 73
     1
 74
     3
 75
     0
 76
     0
 77
     0
 78
     0
281
     0
 65
     1
110
0.0
120
0.0
130
0.0
111
1.0
121
0.0
131
0.0
112
0.0
122
1.0
132
0.0
 79
     0
146
0.0
  0
ENDTAB
  0
TABLE
  2
LTYPE
  5
5
330
0
100
AcDbSymbolTable
 70
     2
  0
LTYPE
  5
14
330
5
100
AcDbSymbolTableRecord
100
AcDbLinetypeTableRecord
  2
ByBlock
 70
     0
  3

 72
    65
 73
     0
 40
0.0
  0
LTYPE
  5
15
330
5
100
AcDbSymbolTableRecord
100
AcDbLinetypeTableRecord
  2
ByLayer
 70
     0
  3

 72
    65
 73
     0
 40
0.0
  0
LTYPE
  5
16
330
5
100
AcDbSymbolTableRecord
100
AcDbLinetypeTableRecord
  2
Continuous
 70
     0
  3
Solid line
 72
    65
 73
     0
 40
0.0
  0
LTYPE
  5
E2
330
5
100
AcDbSymbolTableRecord
100
AcDbLinetypeTableRecord
  2
CENTER
 70
     0
  3
 Center ____ _ ____ _ ____ _ ____ _ ____ _ ____
 72
    65
 73
     4
 40
2.0
 49
1.25
 74
     0
 49
-0.25
 74
     0
 49
0.25
 74
     0
 49
-0.25
 74
     0
  0
ENDTAB
  0
TABLE
  2
LAYER
  5
2
102
{ACAD_XDICTIONARY
360
217
102
}
330
0
100
AcDbSymbolTable
 70
     5
  0
LAYER
  5
10
330
2
100
AcDbSymbolTableRecord
100
AcDbLayerTableRecord
  2
0
 70
     0
 62
     7
  6
Continuous
370
    -3
390
F
  0
LAYER
  5
7E
330
2
100
AcDbSymbolTableRecord
100
AcDbLayerTableRecord
  2
Defpoints
 70
     0
 62
     7
  6
Continuous
290
     0
370
    -3
390
F
  0
LAYER
  5
DE
330
2
100
AcDbSymbolTableRecord
100
AcDbLayerTableRecord
  2
C2
 70
     0
 62
     1
  6
CENTER
370
    -3
390
F
  0
LAYER
  5
E3
330
2
100
AcDbSymbolTableRecord
100
AcDbLayerTableRecord
  2
C4
 70
     0
 62
     3
  6
Continuous
370
    -3
390
F
  0
LAYER
  5
E4
330
2
100
AcDbSymbolTableRecord
100
AcDbLayerTableRecord
  2
C寸法
 70
     0
 62
     4
  6
Continuous
370
    -3
390
F
  0
ENDTAB
  0
TABLE
  2
STYLE
  5
3
330
0
100
AcDbSymbolTable
 70
     2
  0
STYLE
  5
11
330
3
100
AcDbSymbolTableRecord
100
AcDbTextStyleTableRecord
  2
Standard
 70
     0
 40
0.138
 41
1.0
 50
0.0
 71
     0
 42
2.5
  3
arial.ttf
  4

1001
ACAD
1000
Arial
1071
        0
  0
STYLE
  5
F3
330
3
100
AcDbSymbolTableRecord
100
AcDbTextStyleTableRecord
  2
KANJI
 70
     0
 40
0.0
 41
1.0
 50
0.0
 71
     0
 42
2.5
  3
romans
  4
bigfont
  0
ENDTAB
  0
TABLE
  2
VIEW
  5
6
330
0
100
AcDbSymbolTable
 70
     0
  0
ENDTAB
  0
TABLE
  2
UCS
  5
7
330
0
100
AcDbSymbolTable
 70
     0
  0
ENDTAB
  0
TABLE
  2
APPID
  5
9
330
0
100
AcDbSymbolTable
 70
     8
  0
APPID
  5
12
330
9
100
AcDbSymbolTableRecord
100
AcDbRegAppTableRecord
  2
ACAD
 70
     0
  0
APPID
  5
EE
330
9
100
AcDbSymbolTableRecord
100
AcDbRegAppTableRecord
  2
ACAD_DSTYLE_DIMBREAK
 70
     0
  0
APPID
  5
EF
330
9
100
AcDbSymbolTableRecord
100
AcDbRegAppTableRecord
  2
ACAD_DSTYLE_DIMJAG
 70
     0
  0
APPID
  5
F0
330
9
100
AcDbSymbolTableRecord
100
AcDbRegAppTableRecord
  2
ACAD_DSTYLE_DIMTALN
 70
     0
  0
APPID
  5
F1
330
9
100
AcDbSymbolTableRecord
100
AcDbRegAppTableRecord
  2
ACAD_NAV_VCDISPLAY
 70
     0
  0
APPID
  5
F2
330
9
100
AcDbSymbolTableRecord
100
AcDbRegAppTableRecord
  2
PLOTTRANSPARENCY
 70
     0
  0
APPID
  5
31E
330
9
100
AcDbSymbolTableRecord
100
AcDbRegAppTableRecord
  2
ACAD_DSTYLE_DIMRADIAL_EXTENSION
 70
     0
  0
APPID
  5
341
330
9
100
AcDbSymbolTableRecord
100
AcDbRegAppTableRecord
  2
ACAD_MLEADERVER
 70
     0
  0
ENDTAB
  0
TABLE
  2
DIMSTYLE
  5
A
330
0
100
AcDbSymbolTable
 70
     5
100
AcDbDimStyleTable
  0
DIMSTYLE
105
27
330
A
100
AcDbSymbolTableRecord
100
AcDbDimStyleTableRecord
  2
ISO-25
 70
     0
 41
2.5
 42
0.625
 43
3.75
 44
1.25
 73
     0
 74
     0
 77
     1
 78
     8
140
2.5
141
2.5
143
0.03937007874016
147
0.625
171
     3
172
     1
178
     0
271
     2
272
     2
274
     3
278
    44
283
     0
284
     8
340
11
  0
DIMSTYLE
105
72
330
A
100
AcDbSymbolTableRecord
100
AcDbDimStyleTableRecord
  2
GB-1
 70
     0
 41
2.5
 42
0.625
 43
3.75
 44
1.25
 73
     0
 74
     0
 77
     1
 78
     8
140
2.5
141
2.5
143
0.03937007874016
147
0.625
171
     3
172
     1
178
     0
271
     2
272
     2
274
     3
278
    44
283
     0
284
     8
340
11
341
76
342
76
  0
DIMSTYLE
105
8E
102
{ACAD_REACTORS
330
31F
330
32A
102
}
330
A
100
AcDbSymbolTableRecord
100
AcDbDimStyleTableRecord
  2
JIS-1
 70
     0
 41
2.5
 42
0.625
 43
3.75
 44
1.25
 73
     0
 74
     0
 77
     1
 78
     8
140
2.5
141
2.5
143
0.03937007874016
147
0.625
171
     3
172
     1
178
     0
271
     2
272
     2
274
     3
278
    44
283
     0
284
     8
340
11
341
90
342
90
  0
DIMSTYLE
105
E5
330
A
100
AcDbSymbolTableRecord
100
AcDbDimStyleTableRecord
  2
Standard
 70
     0
178
     0
340
11
  0
DIMSTYLE
105
E7
102
{ACAD_REACTORS
330
29D
330
29E
330
29F
330
2A0
330
2A1
330
2A2
330
2A3
330
2A4
330
2A7
102
}
330
A
100
AcDbSymbolTableRecord
100
AcDbDimStyleTableRecord
  2
実寸
 70
     0
 41
25.0
 42
10.0
 43
6.0
 44
0.0
 47
5.0
 73
     0
 74
     0
 77
     1
 78
     8
140
25.0
141
0.0
144
5.0
147
5.0
178
     0
271
     1
272
     1
284
     8
340
11
341
90
342
90
1001
ACAD_DSTYLE_DIMBREAK
1070
   391
1040
0.125
1001
ACAD_DSTYLE_DIMJAG
1070
   388
1040
1.5
1001
ACAD_DSTYLE_DIMTALN
1070
   392
1070
     0
  0
ENDTAB
  0
TABLE
  2
BLOCK_RECORD
  5
1
330
0
100
AcDbSymbolTable
 70
    25
  0
BLOCK_RECORD
  5
1F
330
1
100
AcDbSymbolTableRecord
100
AcDbBlockTableRecord
  2
*Model_Space
340
22
  0
BLOCK_RECORD
  5
1B
330
1
100
AcDbSymbolTableRecord
100
AcDbBlockTableRecord
  2
*Paper_Space
340
1E
  0
BLOCK_RECORD
  5
23
330
1
100
AcDbSymbolTableRecord
100
AcDbBlockTableRecord
  2
*Paper_Space0
340
26
  0
BLOCK_RECORD
  5
76
330
1
100
AcDbSymbolTableRecord
100
AcDbBlockTableRecord
  2
_CLOSED
340
0
  0
BLOCK_RECORD
  5
90
330
1
100
AcDbSymbolTableRecord
100
AcDbBlockTableRecord
  2
_OPEN
340
0
102
{BLKREFS
331
2B0
331
2B1
331
2BC
331
2BD
331
2C8
331
2C9
331
2D4
331
2D5
331
2E3
331
2E4
331
2F2
331
2F3
331
2FE
331
2FF
331
30C
331
30D
331
318
331
319
331
327
331
332
331
19C
331
19D
331
1A9
331
1AA
331
1B6
331
1B7
331
1C3
331
1C4
331
1D3
331
1D4
331
1E3
331
1E4
331
1F0
331
1F1
331
1FF
331
200
331
20E
331
20F
102
}
  0
BLOCK_RECORD
  5
2AA
330
1
100
AcDbSymbolTableRecord
100
AcDbBlockTableRecord
  2
*D14
340
0
  0
BLOCK_RECORD
  5
2B6
330
1
100
AcDbSymbolTableRecord
100
AcDbBlockTableRecord
  2
*D15
340
0
  0
BLOCK_RECORD
  5
2C2
330
1
100
AcDbSymbolTableRecord
100
AcDbBlockTableRecord
  2
*D16
340
0
  0
BLOCK_RECORD
  5
2CE
330
1
100
AcDbSymbolTableRecord
100
AcDbBlockTableRecord
  2
*D17
340
0
  0
BLOCK_RECORD
  5
2DA
330
1
100
AcDbSymbolTableRecord
100
AcDbBlockTableRecord
  2
*D18
340
0
  0
BLOCK_RECORD
  5
2E9
330
1
100
AcDbSymbolTableRecord
100
AcDbBlockTableRecord
  2
*D19
340
0
  0
BLOCK_RECORD
  5
2F8
330
1
100
AcDbSymbolTableRecord
100
AcDbBlockTableRecord
  2
*D20
340
0
  0
BLOCK_RECORD
  5
304
330
1
100
AcDbSymbolTableRecord
100
AcDbBlockTableRecord
  2
*D21
340
0
  0
BLOCK_RECORD
  5
312
330
1
100
AcDbSymbolTableRecord
100
AcDbBlockTableRecord
  2
*D22
340
0
  0
BLOCK_RECORD
  5
322
330
1
100
AcDbSymbolTableRecord
100
AcDbBlockTableRecord
  2
*D23
340
0
  0
BLOCK_RECORD
  5
32D
330
1
100
AcDbSymbolTableRecord
100
AcDbBlockTableRecord
  2
*D24
340
0
  0
ENDTAB
  0
ENDSEC
  0
SECTION
  2
BLOCKS
  0
BLOCK
  5
20
330
1F
100
AcDbEntity
  8
0
100
AcDbBlockBegin
  2
*Model_Space
 70
     0
 10
0.0
 20
0.0
 30
0.0
  3
*Model_Space
  1
*Model_Space
  0
ENDBLK
  5
21
330
1F
100
AcDbEntity
  8
0
100
AcDbBlockEnd
  0
BLOCK
  5
1C
330
1B
100
AcDbEntity
 67
     1
  8
0
100
AcDbBlockBegin
  2
*Paper_Space
 70
     0
 10
0.0
 20
0.0
 30
0.0
  3
*Paper_Space
  1
*Paper_Space
  0
ENDBLK
  5
1D
330
1B
100
AcDbEntity
 67
     1
  8
0
100
AcDbBlockEnd
  0
BLOCK
  5
24
330
23
100
AcDbEntity
  8
0
100
AcDbBlockBegin
  2
*Paper_Space0
 70
     0
 10
0.0
 20
0.0
 30
0.0
  3
*Paper_Space0
  1
*Paper_Space0
  0
ENDBLK
  5
25
330
23
100
AcDbEntity
  8
0
100
AcDbBlockEnd
  0
BLOCK
  5
77
330
76
100
AcDbEntity
  8
0
100
AcDbBlockBegin
  2
_CLOSED
 70
     0
 10
0.0
 20
0.0
 30
0.0
  3
_CLOSED
  1
_CLOSED
  0
LINE
  5
78
330
76
100
AcDbEntity
  8
0
  6
ByBlock
 62
     0
370
    -2
100
AcDbLine
 10
-1.0
 20
0.166667
 30
0.0
 11
0.0
 21
0.0
 31
0.0
  0
LINE
  5
79
330
76
100
AcDbEntity
  8
0
  6
ByBlock
 62
     0
370
    -2
100
AcDbLine
 10
0.0
 20
0.0
 30
0.0
 11
-1.0
 21
-0.166667
 31
0.0
  0
LINE
  5
7A
330
76
100
AcDbEntity
  8
0
  6
ByBlock
 62
     0
370
    -2
100
AcDbLine
 10
-1.0
 20
0.166667
 30
0.0
 11
-1.0
 21
-0.166667
 31
0.0
  0
LINE
  5
7B
330
76
100
AcDbEntity
  8
0
  6
ByBlock
 62
     0
370
    -2
100
AcDbLine
 10
0.0
 20
0.0
 30
0.0
 11
-1.0
 21
0.0
 31
0.0
  0
ENDBLK
  5
7C
330
76
100
AcDbEntity
  8
0
100
AcDbBlockEnd
  0
BLOCK
  5
91
330
90
100
AcDbEntity
  8
0
100
AcDbBlockBegin
  2
_OPEN
 70
     0
 10
0.0
 20
0.0
 30
0.0
  3
_OPEN
  1
_OPEN
  0
LINE
  5
92
330
90
100
AcDbEntity
  8
0
  6
ByBlock
 62
     0
370
    -2
100
AcDbLine
 10
-1.0
 20
0.166667
 30
0.0
 11
0.0
 21
0.0
 31
0.0
  0
LINE
  5
93
330
90
100
AcDbEntity
  8
0
  6
ByBlock
 62
     0
370
    -2
100
AcDbLine
 10
-1.0
 20
-0.166667
 30
0.0
 11
0.0
 21
0.0
 31
0.0
  0
LINE
  5
94
330
90
100
AcDbEntity
  8
0
  6
ByBlock
 62
     0
370
    -2
100
AcDbLine
 10
0.0
 20
0.0
 30
0.0
 11
-1.0
 21
0.0
 31
0.0
  0
ENDBLK
  5
95
330
90
100
AcDbEntity
  8
0
100
AcDbBlockEnd
  0
BLOCK
  5
2AB
330
2AA
100
AcDbEntity
  8
0
100
AcDbBlockBegin
  2
*D14
 70
     1
 10
0.0
 20
0.0
 30
0.0
  3
*D14
  1
*D14
  0
LINE
  5
2AD
330
2AA
100
AcDbEntity
  8
C寸法
 62
     0
370
    -2
100
AcDbLine
 10
1001.891991068711
 20
1016.479025809718
 30
0.0
 11
1141.891991068711
 21
1016.479025809718
 31
0.0
  0
LINE
  5
2AE
330
2AA
100
AcDbEntity
  8
C寸法
 62
     0
370
    -2
100
AcDbLine
 10
1001.891991068711
 20
606.4790258097175
 30
0.0
 11
1141.891991068711
 21
606.4790258097175
 31
0.0
  0
LINE
  5
2AF
330
2AA
100
AcDbEntity
  8
C寸法
 62
     0
370
    -2
100
AcDbLine
 10
1141.891991068711
 20
991.4790258097175
 30
0.0
 11
1141.891991068711
 21
631.4790258097175
 31
0.0
  0
INSERT
  5
2B0
330
2AA
100
AcDbEntity
  8
C寸法
 62
     0
370
    -2
100
AcDbBlockReference
  2
_OPEN
 10
1141.891991068711
 20
1016.479025809718
 30
0.0
 41
25.0
 42
25.0
 43
25.0
 50
90.0
  0
INSERT
  5
2B1
330
2AA
100
AcDbEntity
  8
C寸法
 62
     0
370
    -2
100
AcDbBlockReference
  2
_OPEN
 10
1141.891991068711
 20
606.4790258097175
 30
0.0
 41
25.0
 42
25.0
 43
25.0
 50
270.0
  0
MTEXT
  5
2B2
330
2AA
100
AcDbEntity
  8
C寸法
 62
     0
370
    13
100
AcDbMText
 10
1124.391991068711
 20
811.4790258097175
 30
0.0
 40
25.0
 41
0.0
 71
     5
 72
     1
  1
\A1;410
  7
KANJI
 11
0.0
 21
1.0
 31
0.0
 73
     1
 44
1.0
  0
POINT
  5
2B3
330
2AA
100
AcDbEntity
  8
Defpoints
 62
     0
100
AcDbPoint
 10
991.8919910687107
 20
1016.479025809718
 30
0.0
  0
POINT
  5
2B4
330
2AA
100
AcDbEntity
  8
Defpoints
 62
     0
100
AcDbPoint
 10
991.8919910687107
 20
606.4790258097175
 30
0.0
  0
POINT
  5
2B5
330
2AA
100
AcDbEntity
  8
Defpoints
 62
     0
100
AcDbPoint
 10
1141.891991068711
 20
606.4790258097175
 30
0.0
  0
ENDBLK
  5
2AC
330
2AA
100
AcDbEntity
  8
0
100
AcDbBlockEnd
  0
BLOCK
  5
2B7
330
2B6
100
AcDbEntity
  8
0
100
AcDbBlockBegin
  2
*D15
 70
     1
 10
0.0
 20
0.0
 30
0.0
  3
*D15
  1
*D15
  0
LINE
  5
2B9
330
2B6
100
AcDbEntity
  8
C寸法
 62
     0
370
    -2
100
AcDbLine
 10
1001.891991068711
 20
1031.479025809718
 30
0.0
 11
1191.891991068711
 21
1031.479025809718
 31
0.0
  0
LINE
  5
2BA
330
2B6
100
AcDbEntity
  8
C寸法
 62
     0
370
    -2
100
AcDbLine
 10
1001.891991068711
 20
591.4790258097175
 30
0.0
 11
1191.891991068711
 21
591.4790258097175
 31
0.0
  0
LINE
  5
2BB
330
2B6
100
AcDbEntity
  8
C寸法
 62
     0
370
    -2
100
AcDbLine
 10
1191.891991068711
 20
1006.479025809718
 30
0.0
 11
1191.891991068711
 21
616.4790258097175
 31
0.0
  0
INSERT
  5
2BC
330
2B6
100
AcDbEntity
  8
C寸法
 62
     0
370
    -2
100
AcDbBlockReference
  2
_OPEN
 10
1191.891991068711
 20
1031.479025809718
 30
0.0
 41
25.0
 42
25.0
 43
25.0
 50
90.0
  0
INSERT
  5
2BD
330
2B6
100
AcDbEntity
  8
C寸法
 62
     0
370
    -2
100
AcDbBlockReference
  2
_OPEN
 10
1191.891991068711
 20
591.4790258097175
 30
0.0
 41
25.0
 42
25.0
 43
25.0
 50
270.0
  0
MTEXT
  5
2BE
330
2B6
100
AcDbEntity
  8
C寸法
 62
     0
370
    13
100
AcDbMText
 10
1174.391991068711
 20
811.4790258097175
 30
0.0
 40
25.0
 41
0.0
 71
     5
 72
     1
  1
\A1;440
  7
KANJI
 11
0.0
 21
1.0
 31
0.0
 73
     1
 44
1.0
  0
POINT
  5
2BF
330
2B6
100
AcDbEntity
  8
Defpoints
 62
     0
100
AcDbPoint
 10
991.8919910687107
 20
1031.479025809718
 30
0.0
  0
POINT
  5
2C0
330
2B6
100
AcDbEntity
  8
Defpoints
 62
     0
100
AcDbPoint
 10
991.8919910687107
 20
591.4790258097175
 30
0.0
  0
POINT
  5
2C1
330
2B6
100
AcDbEntity
  8
Defpoints
 62
     0
100
AcDbPoint
 10
1191.891991068711
 20
591.4790258097175
 30
0.0
  0
ENDBLK
  5
2B8
330
2B6
100
AcDbEntity
  8
0
100
AcDbBlockEnd
  0
BLOCK
  5
2C3
330
2C2
100
AcDbEntity
  8
0
100
AcDbBlockBegin
  2
*D16
 70
     1
 10
0.0
 20
0.0
 30
0.0
  3
*D16
  1
*D16
  0
LINE
  5
2C5
330
2C2
100
AcDbEntity
  8
C寸法
 62
     0
370
    -2
100
AcDbLine
 10
989.7361522297485
 20
357.175157358736
 30
0.0
 11
1141.891991068711
 21
357.175157358736
 31
0.0
  0
LINE
  5
2C6
330
2C2
100
AcDbEntity
  8
C寸法
 62
     0
370
    -2
100
AcDbLine
 10
648.2144653562916
 20
167.1751573587358
 30
0.0
 11
1141.891991068711
 21
167.1751573587358
 31
0.0
  0
LINE
  5
2C7
330
2C2
100
AcDbEntity
  8
C寸法
 62
     0
370
    -2
100
AcDbLine
 10
1141.891991068711
 20
332.175157358736
 30
0.0
 11
1141.891991068711
 21
192.1751573587358
 31
0.0
  0
INSERT
  5
2C8
330
2C2
100
AcDbEntity
  8
C寸法
 62
     0
370
    -2
100
AcDbBlockReference
  2
_OPEN
 10
1141.891991068711
 20
357.175157358736
 30
0.0
 41
25.0
 42
25.0
 43
25.0
 50
90.0
  0
INSERT
  5
2C9
330
2C2
100
AcDbEntity
  8
C寸法
 62
     0
370
    -2
100
AcDbBlockReference
  2
_OPEN
 10
1141.891991068711
 20
167.1751573587358
 30
0.0
 41
25.0
 42
25.0
 43
25.0
 50
270.0
  0
MTEXT
  5
2CA
330
2C2
100
AcDbEntity
  8
C寸法
 62
     0
370
    13
100
AcDbMText
 10
1124.391991068711
 20
262.1751573587359
 30
0.0
 40
25.0
 41
0.0
 71
     5
 72
     1
  1
\A1;190
  7
KANJI
 11
0.0
 21
1.0
 31
0.0
 73
     1
 44
1.0
  0
POINT
  5
2CB
330
2C2
100
AcDbEntity
  8
Defpoints
 62
     0
100
AcDbPoint
 10
979.7361522297485
 20
357.175157358736
 30
0.0
  0
POINT
  5
2CC
330
2C2
100
AcDbEntity
  8
Defpoints
 62
     0
100
AcDbPoint
 10
638.2144653562916
 20
167.1751573587358
 30
0.0
  0
POINT
  5
2CD
330
2C2
100
AcDbEntity
  8
Defpoints
 62
     0
100
AcDbPoint
 10
1141.891991068711
 20
167.1751573587358
 30
0.0
  0
ENDBLK
  5
2C4
330
2C2
100
AcDbEntity
  8
0
100
AcDbBlockEnd
  0
BLOCK
  5
2CF
330
2CE
100
AcDbEntity
  8
0
100
AcDbBlockBegin
  2
*D17
 70
     1
 10
0.0
 20
0.0
 30
0.0
  3
*D17
  1
*D17
  0
LINE
  5
2D1
330
2CE
100
AcDbEntity
  8
C寸法
 62
     0
370
    -2
100
AcDbLine
 10
1001.891991068711
 20
1016.479025809718
 30
0.0
 11
1091.891991068711
 21
1016.479025809718
 31
0.0
  0
LINE
  5
2D2
330
2CE
100
AcDbEntity
  8
C寸法
 62
     0
370
    -2
100
AcDbLine
 10
998.7268449764275
 20
866.477025800433
 30
0.0
 11
1091.891991068711
 21
866.477025800433
 31
0.0
  0
LINE
  5
2D3
330
2CE
100
AcDbEntity
  8
C寸法
 62
     0
370
    -2
100
AcDbLine
 10
1091.891991068711
 20
991.4790258097175
 30
0.0
 11
1091.891991068711
 21
891.477025800433
 31
0.0
  0
INSERT
  5
2D4
330
2CE
100
AcDbEntity
  8
C寸法
 62
     0
370
    -2
100
AcDbBlockReference
  2
_OPEN
 10
1091.891991068711
 20
1016.479025809718
 30
0.0
 41
25.0
 42
25.0
 43
25.0
 50
90.0
  0
INSERT
  5
2D5
330
2CE
100
AcDbEntity
  8
C寸法
 62
     0
370
    -2
100
AcDbBlockReference
  2
_OPEN
 10
1091.891991068711
 20
866.477025800433
 30
0.0
 41
25.0
 42
25.0
 43
25.0
 50
270.0
  0
MTEXT
  5
2D6
330
2CE
100
AcDbEntity
  8
C寸法
 62
     0
370
    13
100
AcDbMText
 10
1074.391991068711
 20
941.4780258050753
 30
0.0
 40
25.0
 41
0.0
 71
     5
 72
     1
  1
\A1;150
  7
KANJI
 11
0.0
 21
1.0
 31
0.0
 73
     1
 44
1.0
  0
POINT
  5
2D7
330
2CE
100
AcDbEntity
  8
Defpoints
 62
     0
100
AcDbPoint
 10
991.8919910687107
 20
1016.479025809718
 30
0.0
  0
POINT
  5
2D8
330
2CE
100
AcDbEntity
  8
Defpoints
 62
     0
100
AcDbPoint
 10
988.7268449764275
 20
866.477025800433
 30
0.0
  0
POINT
  5
2D9
330
2CE
100
AcDbEntity
  8
Defpoints
 62
     0
100
AcDbPoint
 10
1091.891991068711
 20
866.477025800433
 30
0.0
  0
ENDBLK
  5
2D0
330
2CE
100
AcDbEntity
  8
0
100
AcDbBlockEnd
  0
BLOCK
  5
2DB
330
2DA
100
AcDbEntity
  8
0
100
AcDbBlockBegin
  2
*D18
 70
     1
 10
0.0
 20
0.0
 30
0.0
  3
*D18
  1
*D18
  0
LINE
  5
2DD
330
2DA
100
AcDbEntity
  8
C寸法
 62
     0
370
    -2
100
AcDbLine
 10
571.8939910331608
 20
606.4790257773245
 30
0.0
 11
1141.891991068711
 21
606.4790257773245
 31
0.0
  0
LINE
  5
2DE
330
2DA
100
AcDbEntity
  8
C寸法
 62
     0
370
    -2
100
AcDbLine
 10
571.8939910331608
 20
591.4770257759894
 30
0.0
 11
1141.891991068711
 21
591.4770257759894
 31
0.0
  0
LINE
  5
2DF
330
2DA
100
AcDbEntity
  8
C寸法
 62
     0
370
    -2
100
AcDbLine
 10
1141.891991068711
 20
591.4770257759894
 30
0.0
 11
1141.891991068711
 21
494.3862519664656
 31
0.0
  0
LINE
  5
2E0
330
2DA
100
AcDbEntity
  8
C寸法
 62
     0
370
    -2
100
AcDbLine
 10
1141.891991068711
 20
606.4790257773245
 30
0.0
 11
1141.891991068711
 21
591.4770257759894
 31
0.0
  0
LINE
  5
2E1
330
2DA
100
AcDbEntity
  8
C寸法
 62
     0
370
    -2
100
AcDbLine
 10
1141.891991068711
 20
631.4790257773245
 30
0.0
 11
1141.891991068711
 21
656.4790257773245
 31
0.0
  0
LINE
  5
2E2
330
2DA
100
AcDbEntity
  8
C寸法
 62
     0
370
    -2
100
AcDbLine
 10
1141.891991068711
 20
566.4770257759894
 30
0.0
 11
1141.891991068711
 21
541.4770257759894
 31
0.0
  0
INSERT
  5
2E3
330
2DA
100
AcDbEntity
  8
C寸法
 62
     0
370
    -2
100
AcDbBlockReference
  2
_OPEN
 10
1141.891991068711
 20
606.4790257773245
 30
0.0
 41
25.0
 42
25.0
 43
25.0
 50
270.0
  0
INSERT
  5
2E4
330
2DA
100
AcDbEntity
  8
C寸法
 62
     0
370
    -2
100
AcDbBlockReference
  2
_OPEN
 10
1141.891991068711
 20
591.4770257759894
 30
0.0
 41
25.0
 42
25.0
 43
25.0
 50
90.0
  0
MTEXT
  5
2E5
330
2DA
100
AcDbEntity
  8
C寸法
 62
     0
370
    13
100
AcDbMText
 10
1124.391991068711
 20
517.9316388712275
 30
0.0
 40
25.0
 41
0.0
 71
     5
 72
     1
  1
\A1;15
  7
KANJI
 11
0.0
 21
1.0
 31
0.0
 73
     1
 44
1.0
  0
POINT
  5
2E6
330
2DA
100
AcDbEntity
  8
Defpoints
 62
     0
100
AcDbPoint
 10
561.8939910331608
 20
606.4790257773245
 30
0.0
  0
POINT
  5
2E7
330
2DA
100
AcDbEntity
  8
Defpoints
 62
     0
100
AcDbPoint
 10
561.8939910331608
 20
591.4770257759894
 30
0.0
  0
POINT
  5
2E8
330
2DA
100
AcDbEntity
  8
Defpoints
 62
     0
100
AcDbPoint
 10
1141.891991068711
 20
591.4770257759894
 30
0.0
  0
ENDBLK
  5
2DC
330
2DA
100
AcDbEntity
  8
0
100
AcDbBlockEnd
  0
BLOCK
  5
2EA
330
2E9
100
AcDbEntity
  8
0
100
AcDbBlockBegin
  2
*D19
 70
     1
 10
0.0
 20
0.0
 30
0.0
  3
*D19
  1
*D19
  0
LINE
  5
2EC
330
2E9
100
AcDbEntity
  8
C寸法
 62
     0
370
    -2
100
AcDbLine
 10
571.8939910331608
 20
1016.479025809718
 30
0.0
 11
1141.891991068711
 21
1016.479025809718
 31
0.0
  0
LINE
  5
2ED
330
2E9
100
AcDbEntity
  8
C寸法
 62
     0
370
    -2
100
AcDbLine
 10
571.8939910331608
 20
1031.479025809718
 30
0.0
 11
1141.891991068711
 21
1031.479025809718
 31
0.0
  0
LINE
  5
2EE
330
2E9
100
AcDbEntity
  8
C寸法
 62
     0
370
    -2
100
AcDbLine
 10
1141.891991068711
 20
1031.479025809718
 30
0.0
 11
1141.891991068711
 21
1128.569799619241
 31
0.0
  0
LINE
  5
2EF
330
2E9
100
AcDbEntity
  8
C寸法
 62
     0
370
    -2
100
AcDbLine
 10
1141.891991068711
 20
1016.479025809718
 30
0.0
 11
1141.891991068711
 21
1031.479025809718
 31
0.0
  0
LINE
  5
2F0
330
2E9
100
AcDbEntity
  8
C寸法
 62
     0
370
    -2
100
AcDbLine
 10
1141.891991068711
 20
991.4790258097175
 30
0.0
 11
1141.891991068711
 21
966.4790258097175
 31
0.0
  0
LINE
  5
2F1
330
2E9
100
AcDbEntity
  8
C寸法
 62
     0
370
    -2
100
AcDbLine
 10
1141.891991068711
 20
1056.479025809718
 30
0.0
 11
1141.891991068711
 21
1081.479025809718
 31
0.0
  0
INSERT
  5
2F2
330
2E9
100
AcDbEntity
  8
C寸法
 62
     0
370
    -2
100
AcDbBlockReference
  2
_OPEN
 10
1141.891991068711
 20
1016.479025809718
 30
0.0
 41
25.0
 42
25.0
 43
25.0
 50
90.0
  0
INSERT
  5
2F3
330
2E9
100
AcDbEntity
  8
C寸法
 62
     0
370
    -2
100
AcDbBlockReference
  2
_OPEN
 10
1141.891991068711
 20
1031.479025809718
 30
0.0
 41
25.0
 42
25.0
 43
25.0
 50
270.0
  0
MTEXT
  5
2F4
330
2E9
100
AcDbEntity
  8
C寸法
 62
     0
370
    13
100
AcDbMText
 10
1124.391991068711
 20
1105.024412714479
 30
0.0
 40
25.0
 41
0.0
 71
     5
 72
     1
  1
\A1;15
  7
KANJI
 11
0.0
 21
1.0
 31
0.0
 73
     1
 44
1.0
  0
POINT
  5
2F5
330
2E9
100
AcDbEntity
  8
Defpoints
 62
     0
100
AcDbPoint
 10
561.8939910331608
 20
1016.479025809718
 30
0.0
  0
POINT
  5
2F6
330
2E9
100
AcDbEntity
  8
Defpoints
 62
     0
100
AcDbPoint
 10
561.8939910331608
 20
1031.479025809718
 30
0.0
  0
POINT
  5
2F7
330
2E9
100
AcDbEntity
  8
Defpoints
 62
     0
100
AcDbPoint
 10
1141.891991068711
 20
1031.479025809718
 30
0.0
  0
ENDBLK
  5
2EB
330
2E9
100
AcDbEntity
  8
0
100
AcDbBlockEnd
  0
BLOCK
  5
2F9
330
2F8
100
AcDbEntity
  8
0
100
AcDbBlockBegin
  2
*D20
 70
     1
 10
0.0
 20
0.0
 30
0.0
  3
*D20
  1
*D20
  0
LINE
  5
2FB
330
2F8
100
AcDbEntity
  8
C寸法
 62
     0
370
    -2
100
AcDbLine
 10
161.8939909976031
 20
624.7278946531692
 30
0.0
 11
161.8939909976032
 21
441.4751573600695
 31
0.0
  0
LINE
  5
2FC
330
2F8
100
AcDbEntity
  8
C寸法
 62
     0
370
    -2
100
AcDbLine
 10
961.8939909976032
 20
631.0590663824282
 30
0.0
 11
961.8939909976032
 21
441.4751573600695
 31
0.0
  0
LINE
  5
2FD
330
2F8
100
AcDbEntity
  8
C寸法
 62
     0
370
    -2
100
AcDbLine
 10
186.8939909976032
 20
441.4751573600695
 30
0.0
 11
936.8939909976032
 21
441.4751573600695
 31
0.0
  0
INSERT
  5
2FE
330
2F8
100
AcDbEntity
  8
C寸法
 62
     0
370
    -2
100
AcDbBlockReference
  2
_OPEN
 10
161.8939909976032
 20
441.4751573600695
 30
0.0
 41
25.0
 42
25.0
 43
25.0
 50
180.0
  0
INSERT
  5
2FF
330
2F8
100
AcDbEntity
  8
C寸法
 62
     0
370
    -2
100
AcDbBlockReference
  2
_OPEN
 10
961.8939909976032
 20
441.4751573600695
 30
0.0
 41
25.0
 42
25.0
 43
25.0
  0
MTEXT
  5
300
330
2F8
100
AcDbEntity
  8
C寸法
 62
     0
370
    13
100
AcDbMText
 10
561.8939909976032
 20
458.9751573600695
 30
0.0
 40
25.0
 41
0.0
 71
     5
 72
     1
  1
\A1;800
  7
KANJI
 73
     1
 44
1.0
  0
POINT
  5
301
330
2F8
100
AcDbEntity
  8
Defpoints
 62
     0
100
AcDbPoint
 10
161.8939909976031
 20
634.7278946531692
 30
0.0
  0
POINT
  5
302
330
2F8
100
AcDbEntity
  8
Defpoints
 62
     0
100
AcDbPoint
 10
961.8939909976032
 20
641.0590663824282
 30
0.0
  0
POINT
  5
303
330
2F8
100
AcDbEntity
  8
Defpoints
 62
     0
100
AcDbPoint
 10
961.8939909976032
 20
441.4751573600695
 30
0.0
  0
ENDBLK
  5
2FA
330
2F8
100
AcDbEntity
  8
0
100
AcDbBlockEnd
  0
BLOCK
  5
305
330
304
100
AcDbEntity
  8
0
100
AcDbBlockBegin
  2
*D21
 70
     1
 10
0.0
 20
0.0
 30
0.0
  3
*D21
  1
*D21
  0
LINE
  5
307
330
304
100
AcDbEntity
  8
C寸法
 62
     0
370
    -2
100
AcDbLine
 10
977.2741096323391
 20
357.1770257759895
 30
0.0
 11
1091.891991068711
 21
357.1770257759895
 31
0.0
  0
LINE
  5
308
330
304
100
AcDbEntity
  8
C寸法
 62
     0
370
    -2
100
AcDbLine
 10
955.96613294635
 20
342.1770257759895
 30
0.0
 11
1091.891991068711
 21
342.1770257759895
 31
0.0
  0
LINE
  5
309
330
304
100
AcDbEntity
  8
C寸法
 62
     0
370
    -2
100
AcDbLine
 10
1091.891991068711
 20
317.1770257759895
 30
0.0
 11
1091.891991068711
 21
245.0862519664657
 31
0.0
  0
LINE
  5
30A
330
304
100
AcDbEntity
  8
C寸法
 62
     0
370
    -2
100
AcDbLine
 10
1091.891991068711
 20
357.1770257759895
 30
0.0
 11
1091.891991068711
 21
342.1770257759895
 31
0.0
  0
LINE
  5
30B
330
304
100
AcDbEntity
  8
C寸法
 62
     0
370
    -2
100
AcDbLine
 10
1091.891991068711
 20
382.1770257759895
 30
0.0
 11
1091.891991068711
 21
407.1770257759895
 31
0.0
  0
INSERT
  5
30C
330
304
100
AcDbEntity
  8
C寸法
 62
     0
370
    -2
100
AcDbBlockReference
  2
_OPEN
 10
1091.891991068711
 20
357.1770257759895
 30
0.0
 41
25.0
 42
25.0
 43
25.0
 50
270.0
  0
INSERT
  5
30D
330
304
100
AcDbEntity
  8
C寸法
 62
     0
370
    -2
100
AcDbBlockReference
  2
_OPEN
 10
1091.891991068711
 20
342.1770257759895
 30
0.0
 41
25.0
 42
25.0
 43
25.0
 50
90.0
  0
MTEXT
  5
30E
330
304
100
AcDbEntity
  8
C寸法
 62
     0
370
    13
100
AcDbMText
 10
1074.391991068711
 20
268.6316388712276
 30
0.0
 40
25.0
 41
0.0
 71
     5
 72
     1
  1
\A1;15
  7
KANJI
 11
0.0
 21
1.0
 31
0.0
 73
     1
 44
1.0
  0
POINT
  5
30F
330
304
100
AcDbEntity
  8
Defpoints
 62
     0
100
AcDbPoint
 10
967.2741096323391
 20
357.1770257759895
 30
0.0
  0
POINT
  5
310
330
304
100
AcDbEntity
  8
Defpoints
 62
     0
100
AcDbPoint
 10
945.96613294635
 20
342.1770257759895
 30
0.0
  0
POINT
  5
311
330
304
100
AcDbEntity
  8
Defpoints
 62
     0
100
AcDbPoint
 10
1091.891991068711
 20
342.1770257759895
 30
0.0
  0
ENDBLK
  5
306
330
304
100
AcDbEntity
  8
0
100
AcDbBlockEnd
  0
BLOCK
  5
313
330
312
100
AcDbEntity
  8
0
100
AcDbBlockBegin
  2
*D22
 70
     1
 10
0.0
 20
0.0
 30
0.0
  3
*D22
  1
*D22
  0
LINE
  5
315
330
312
100
AcDbEntity
  8
C寸法
 62
     0
370
    -2
100
AcDbLine
 10
652.393991041205
 20
856.4700258004316
 30
0.0
 11
652.393991041205
 21
706.4986645772713
 31
0.0
  0
LINE
  5
316
330
312
100
AcDbEntity
  8
C寸法
 62
     0
370
    -2
100
AcDbLine
 10
471.5836592703968
 20
856.2241985145624
 30
0.0
 11
471.5836592703968
 21
706.4986645772713
 31
0.0
  0
LINE
  5
317
330
312
100
AcDbEntity
  8
C寸法
 62
     0
370
    -2
100
AcDbLine
 10
627.393991041205
 20
706.4986645772713
 30
0.0
 11
496.5836592703968
 21
706.4986645772713
 31
0.0
  0
INSERT
  5
318
330
312
100
AcDbEntity
  8
C寸法
 62
     0
370
    -2
100
AcDbBlockReference
  2
_OPEN
 10
652.393991041205
 20
706.4986645772713
 30
0.0
 41
25.0
 42
25.0
 43
25.0
  0
INSERT
  5
319
330
312
100
AcDbEntity
  8
C寸法
 62
     0
370
    -2
100
AcDbBlockReference
  2
_OPEN
 10
471.5836592703968
 20
706.4986645772713
 30
0.0
 41
25.0
 42
25.0
 43
25.0
 50
180.0
  0
MTEXT
  5
31A
330
312
100
AcDbEntity
  8
C寸法
 62
     0
370
    13
100
AcDbMText
 10
576.0702482656875
 20
723.9986645772713
 30
0.0
 40
25.0
 41
0.0
 71
     5
 72
     1
  1
\A1;Φ181
  7
KANJI
 73
     1
 44
1.0
  0
POINT
  5
31B
330
312
100
AcDbEntity
  8
Defpoints
 62
     0
100
AcDbPoint
 10
652.393991041205
 20
866.4700258004316
 30
0.0
  0
POINT
  5
31C
330
312
100
AcDbEntity
  8
Defpoints
 62
     0
100
AcDbPoint
 10
471.5836592703968
 20
866.2241985145624
 30
0.0
  0
POINT
  5
31D
330
312
100
AcDbEntity
  8
Defpoints
 62
     0
100
AcDbPoint
 10
471.5836592703968
 20
706.4986645772713
 30
0.0
  0
ENDBLK
  5
314
330
312
100
AcDbEntity
  8
0
100
AcDbBlockEnd
  0
BLOCK
  5
323
330
322
100
AcDbEntity
  8
0
100
AcDbBlockBegin
  2
*D23
 70
     1
 10
0.0
 20
0.0
 30
0.0
  3
*D23
  1
*D23
  0
LINE
  5
325
330
322
100
AcDbEntity
  8
0
 62
     0
370
    -2
100
AcDbLine
 10
194.5813752883374
 20
688.6273695416812
 30
0.0
 11
327.8216547457599
 21
741.5851262638404
 31
0.0
  0
MTEXT
  5
326
330
322
100
AcDbEntity
  8
0
 62
     0
370
    13
100
AcDbMText
 10
249.7806169171321
 20
729.3985086777018
 30
0.0
 40
25.0
 41
0.0
 71
     5
 72
     1
  1
4-R100
  7
KANJI
 11
0.9292882094681777
 21
0.3693554165616477
 31
0.0
 73
     1
 44
1.0
  0
INSERT
  5
327
330
322
100
AcDbEntity
  8
0
 62
     0
370
    -2
100
AcDbBlockReference
  2
_OPEN
 10
171.349170051633
 20
679.39348412764
 30
0.0
 41
25.0
 42
25.0
 43
25.0
 50
201.6758696512034
  0
POINT
  5
328
330
322
100
AcDbEntity
  8
Defpoints
 62
     0
100
AcDbPoint
 10
171.349170051633
 20
679.39348412764
 30
0.0
  0
POINT
  5
329
330
322
100
AcDbEntity
  8
Defpoints
 62
     0
100
AcDbPoint
 10
264.2779910067109
 20
716.3290257870879
 30
0.0
  0
ENDBLK
  5
324
330
322
100
AcDbEntity
  8
0
100
AcDbBlockEnd
  0
BLOCK
  5
32E
330
32D
100
AcDbEntity
  8
0
100
AcDbBlockBegin
  2
*D24
 70
     1
 10
0.0
 20
0.0
 30
0.0
  3
*D24
  1
*D24
  0
LINE
  5
330
330
32D
100
AcDbEntity
  8
0
 62
     0
370
    -2
100
AcDbLine
 10
174.4254870786951
 20
616.2414512048739
 30
0.0
 11
391.7512268058248
 21
719.3700701547365
 31
0.0
  0
MTEXT
  5
331
330
32D
100
AcDbEntity
  8
0
 62
     0
370
    13
100
AcDbMText
 10
325.4175603438419
 20
707.2628385751311
 30
0.0
 40
25.0
 41
0.0
 71
     5
 72
     1
  1
4-R60
  7
KANJI
 11
0.9034403340991538
 21
0.4287138471321043
 31
0.0
 73
     1
 44
1.0
  0
INSERT
  5
332
330
32D
100
AcDbEntity
  8
0
 62
     0
370
    -2
100
AcDbBlockReference
  2
_OPEN
 10
174.4254870786951
 20
616.2414512048739
 30
0.0
 41
25.0
 42
25.0
 43
25.0
 50
205.3859653084287
  0
POINT
  5
333
330
32D
100
AcDbEntity
  8
Defpoints
 62
     0
100
AcDbPoint
 10
174.4254870786951
 20
616.2414512048739
 30
0.0
  0
POINT
  5
334
330
32D
100
AcDbEntity
  8
Defpoints
 62
     0
100
AcDbPoint
 10
225.7045350488293
 20
640.5751422111193
 30
0.0
  0
ENDBLK
  5
32F
330
32D
100
AcDbEntity
  8
0
100
AcDbBlockEnd
  0
ENDSEC
  0
SECTION
  2
ENTITIES
  0
TEXT
  5
21C
330
1F
100
AcDbEntity
  8
C寸法
 62
     7
100
AcDbText
 10
1270.303769998593
 20
140.5323025345069
 30
0.0
 40
30.0
  1
品　番　：N800BIW 寸法図
  7
KANJI
100
AcDbText
  0
LINE
  5
21D
330
1F
100
AcDbEntity
  8
0
100
AcDbLine
 10
1265.752797553443
 20
128.7386704020201
 30
0.0
 11
1763.17783254646
 21
128.7386704020201
 31
0.0
  0
TEXT
  5
21E
330
1F
100
AcDbEntity
  8
C寸法
 62
     7
100
AcDbText
 10
1311.216708145308
 20
91.85414060899063
 30
0.0
 40
25.0
  1
※詳細はお問合せください
  7
KANJI
100
AcDbText
  0
LWPOLYLINE
  5
21F
330
1F
100
AcDbEntity
  8
0
100
AcDbPolyline
 90
        4
 70
     1
 43
0.0
 10
3.086960423584259
 20
1205.594570650022
 10
3.086960423584259
 20
4.046082742528881
 10
1803.14261966613
 20
4.046082742528881
 10
1803.14261966613
 20
1205.594570650022
  0
LINE
  5
220
330
1F
100
AcDbEntity
  8
C2
  6
CENTER
 62
     0
 48
20.0
370
    13
100
AcDbLine
 10
561.8939910331608
 20
1070.537891713182
 30
0.0
 11
561.8939910331608
 21
556.477025772879
 31
0.0
  0
LINE
  5
223
330
1F
100
AcDbEntity
  8
C2
  6
CENTER
 62
     0
 48
20.0
370
    13
100
AcDbLine
 10
134.2561290561194
 20
866.477025800433
 30
0.0
 11
996.7878894662417
 21
866.477025800433
 31
0.0
  0
LINE
  5
224
330
1F
100
AcDbEntity
  8
C4
 62
     0
100
AcDbLine
 10
901.8919910633774
 20
1031.479025815098
 30
0.0
 11
221.8939910029364
 21
1031.479025815098
 31
0.0
  0
LINE
  5
225
330
1F
100
AcDbEntity
  8
C4
 62
     0
100
AcDbLine
 10
961.8919910687107
 20
971.4790258097648
 30
0.0
 11
961.8919910687107
 21
651.4770257813227
 31
0.0
  0
LINE
  5
226
330
1F
100
AcDbEntity
  8
C4
 62
     0
100
AcDbLine
 10
901.8919910633774
 20
591.4770257759894
 30
0.0
 11
221.8939910029364
 21
591.4770257759894
 31
0.0
  0
LINE
  5
227
330
1F
100
AcDbEntity
  8
C4
 62
     0
100
AcDbLine
 10
161.8939909976031
 20
651.4770257813227
 30
0.0
 11
161.8939909976031
 21
971.4790258097648
 31
0.0
  0
LINE
  5
228
330
1F
100
AcDbEntity
  8
C4
 62
     0
100
AcDbLine
 10
901.8919910633774
 20
1046.479025816431
 30
0.0
 11
221.891991002936
 21
1046.479025816431
 31
0.0
  0
LINE
  5
229
330
1F
100
AcDbEntity
  8
C4
 62
     0
100
AcDbLine
 10
976.8919910700422
 20
971.4790258097648
 30
0.0
 11
976.8919910700422
 21
651.4770257813227
 31
0.0
  0
LINE
  5
22A
330
1F
100
AcDbEntity
  8
C4
 62
     0
100
AcDbLine
 10
901.8919910633774
 20
576.4770257746561
 30
0.0
 11
221.891991002936
 21
576.4770257746561
 31
0.0
  0
LINE
  5
22B
330
1F
100
AcDbEntity
  8
C4
 62
     0
100
AcDbLine
 10
146.8919909962712
 20
651.4770257813227
 30
0.0
 11
146.8919909962712
 21
971.4790258097648
 31
0.0
  0
LINE
  5
22C
330
1F
100
AcDbEntity
  8
C4
 62
     0
100
AcDbLine
 10
932.681991066114
 20
174.5141573424979
 30
0.0
 11
654.8289910414167
 21
167.2391573418525
 31
0.0
  0
LINE
  5
22D
330
1F
100
AcDbEntity
  8
C4
 62
     0
100
AcDbLine
 10
932.7419910661336
 20
172.015157342278
 30
0.0
 11
654.893991041419
 21
164.7401573416308
 31
0.0
  0
LINE
  5
22E
330
1F
100
AcDbEntity
  8
C4
 62
     0
100
AcDbLine
 10
976.8919910700422
 20
357.175157358736
 30
0.0
 11
976.8919910700422
 21
354.6751573585141
 31
0.0
  0
LINE
  5
22F
330
1F
100
AcDbEntity
  8
C4
 62
     0
100
AcDbLine
 10
964.3919910689362
 20
354.6751573585141
 30
0.0
 11
976.8919910700422
 21
354.6751573585141
 31
0.0
  0
LINE
  5
230
330
1F
100
AcDbEntity
  8
C4
 62
     0
100
AcDbLine
 10
146.8939909962716
 20
357.175157358736
 30
0.0
 11
976.8919910700422
 21
357.175157358736
 31
0.0
  0
LINE
  5
231
330
1F
100
AcDbEntity
  8
C4
 62
     0
100
AcDbLine
 10
159.3962548098422
 20
354.6751573585141
 30
0.0
 11
146.8939909962716
 21
354.6751573585141
 31
0.0
  0
LINE
  5
232
330
1F
100
AcDbEntity
  8
C4
 62
     0
100
AcDbLine
 10
146.8939909962716
 20
357.175157358736
 30
0.0
 11
146.8939909962716
 21
354.6751573585141
 31
0.0
  0
LINE
  5
233
330
1F
100
AcDbEntity
  8
C4
 62
     0
100
AcDbLine
 10
161.8962548095003
 20
354.6751196710182
 30
0.0
 11
161.8939909976031
 21
204.5051573451681
 31
0.0
  0
LINE
  5
234
330
1F
100
AcDbEntity
  8
C4
 62
     0
100
AcDbLine
 10
652.3939910412007
 20
164.7401573416308
 30
0.0
 11
652.3939910412007
 21
160.1751573412228
 31
0.0
  0
LINE
  5
235
330
1F
100
AcDbEntity
  8
C4
 62
     0
100
AcDbLine
 10
641.3939910402185
 20
157.6751573410011
 30
0.0
 11
482.3939910260885
 21
157.6751573410007
 31
0.0
  0
LINE
  5
236
330
1F
100
AcDbEntity
  8
C4
 62
     0
100
AcDbLine
 10
641.3939910402185
 20
160.1751573412228
 30
0.0
 11
641.3939910402185
 21
157.6751573410009
 31
0.0
  0
LINE
  5
237
330
1F
100
AcDbEntity
  8
C4
 62
     0
100
AcDbLine
 10
641.3939910402185
 20
160.1751573412228
 30
0.0
 11
652.3939910412007
 21
160.1751573412228
 31
0.0
  0
LINE
  5
238
330
1F
100
AcDbEntity
  8
C4
 62
     0
100
AcDbLine
 10
652.3939910412007
 20
157.6751573410009
 30
0.0
 11
641.3939910402185
 21
157.6751573410009
 31
0.0
  0
LINE
  5
239
330
1F
100
AcDbEntity
  8
C4
 62
     0
100
AcDbLine
 10
654.893991041419
 20
160.1751573412228
 30
0.0
 11
654.893991041419
 21
164.7401573416308
 31
0.0
  0
LINE
  5
23A
330
1F
100
AcDbEntity
  8
C4
 62
     0
100
AcDbLine
 10
964.3919910689362
 20
204.5041573451661
 30
0.0
 11
964.3919910689362
 21
354.6751573585141
 31
0.0
  0
LINE
  5
23B
330
1F
100
AcDbEntity
  8
C4
 62
     0
100
AcDbLine
 10
159.3939909973849
 20
204.5051573451681
 30
0.0
 11
159.3962548098422
 21
354.6751573585141
 31
0.0
  0
LINE
  5
23C
330
1F
100
AcDbEntity
  8
C4
 62
     0
100
AcDbLine
 10
641.3939910402185
 20
160.175157341223
 30
0.0
 11
482.3939910260885
 21
160.175157341223
 31
0.0
  0
LINE
  5
23D
330
1F
100
AcDbEntity
  8
C4
 62
     0
100
AcDbLine
 10
654.3276210209804
 20
167.1751573418485
 30
0.0
 11
469.4603610453194
 21
167.1751573418485
 31
0.0
  0
LINE
  5
23E
330
1F
100
AcDbEntity
  8
C4
 62
     0
100
AcDbLine
 10
191.1079910001933
 20
174.5141573424979
 30
0.0
 11
468.9589910249049
 21
167.2391573418525
 31
0.0
  0
LINE
  5
23F
330
1F
100
AcDbEntity
  8
C4
 62
     0
100
AcDbLine
 10
191.0429910001983
 20
172.015157342278
 30
0.0
 11
468.8939910248807
 21
164.7401573416308
 31
0.0
  0
LINE
  5
240
330
1F
100
AcDbEntity
  8
C4
 62
     0
100
AcDbLine
 10
471.3939910251063
 20
164.7401573416308
 30
0.0
 11
471.3939910251063
 21
160.1751573412228
 31
0.0
  0
LINE
  5
241
330
1F
100
AcDbEntity
  8
C4
 62
     0
100
AcDbLine
 10
482.3939910260885
 20
160.1751573412228
 30
0.0
 11
482.3939910260885
 21
157.6751573410009
 31
0.0
  0
LINE
  5
242
330
1F
100
AcDbEntity
  8
C4
 62
     0
100
AcDbLine
 10
482.3939910260885
 20
160.1751573412228
 30
0.0
 11
471.3939910251063
 21
160.1751573412228
 31
0.0
  0
LINE
  5
243
330
1F
100
AcDbEntity
  8
C4
 62
     0
100
AcDbLine
 10
471.3939910251063
 20
157.6751573410009
 30
0.0
 11
482.3939910260885
 21
157.6751573410009
 31
0.0
  0
LINE
  5
244
330
1F
100
AcDbEntity
  8
C4
 62
     0
100
AcDbLine
 10
468.8939910248807
 20
160.1751573412228
 30
0.0
 11
468.8939910248807
 21
164.7401573416308
 31
0.0
  0
LINE
  5
245
330
1F
100
AcDbEntity
  8
C4
 62
     0
100
AcDbLine
 10
164.8961115981944
 20
342.1751573574027
 30
0.0
 11
958.8919910684488
 21
342.1751573574027
 31
0.0
  0
LINE
  5
246
330
1F
100
AcDbEntity
  8
C4
 62
     0
100
AcDbLine
 10
961.8919910687107
 20
204.5041573451661
 30
0.0
 11
961.8919910687107
 21
354.6751573585141
 31
0.0
  0
CIRCLE
  5
247
330
1F
100
AcDbEntity
  8
C4
 62
     0
100
AcDbCircle
 10
561.8939910331608
 20
866.4700258004316
 30
0.0
 40
90.50000000804422
  0
ARC
  5
248
330
1F
100
AcDbEntity
  8
C4
 62
     0
100
AcDbCircle
 10
859.5119910596184
 20
906.6290258040001
 30
0.0
 40
100.0000000088886
100
AcDbArc
 50
2.870426880365387
 51
86.20780281315207
  0
ARC
  5
249
330
1F
100
AcDbEntity
  8
C4
 62
     0
100
AcDbCircle
 10
859.5119910596184
 20
716.3300257870899
 30
0.0
 40
100.0000000088886
100
AcDbArc
 50
273.7924660656345
 51
357.1297503252081
  0
ARC
  5
24A
102
{ACAD_REACTORS
330
321
102
}
330
1F
100
AcDbEntity
  8
C4
 62
     0
100
AcDbCircle
 10
264.2779910067109
 20
716.3290257870879
 30
0.0
 40
100.0000000088886
100
AcDbArc
 50
182.8703665141038
 51
266.2076507736735
  0
CIRCLE
  5
24B
330
1F
100
AcDbEntity
  8
C4
 62
     0
100
AcDbCircle
 10
561.8939910331608
 20
866.4700258004316
 30
0.0
 40
79.50000000706648
  0
ARC
  5
24C
330
1F
100
AcDbEntity
  8
C4
 62
     0
100
AcDbCircle
 10
264.2789910067002
 20
906.6290258040001
 30
0.0
 40
100.0000000088886
100
AcDbArc
 50
93.79204514739634
 51
177.1293294068925
  0
ARC
  5
24D
330
1F
100
AcDbEntity
  8
C4
 62
     0
100
AcDbCircle
 10
2161.891991175376
 20
811.4770257955436
 30
0.0
 40
2000.000000177773
100
AcDbArc
 50
177.1293294068925
 51
182.8703665141038
  0
ARC
  5
24E
330
1F
100
AcDbEntity
  8
C4
 62
     0
100
AcDbCircle
 10
-1038.106009109055
 20
811.4770257955436
 30
0.0
 40
2000.000000177773
100
AcDbArc
 50
357.1297503252081
 51
2.87042115079348
  0
ARC
  5
24F
330
1F
100
AcDbEntity
  8
C4
 62
     0
100
AcDbCircle
 10
561.8939910331608
 20
-3583.520974595111
 30
0.0
 40
4600.000000408878
100
AcDbArc
 50
86.20780281315204
 51
93.79204514739631
  0
ARC
  5
250
330
1F
100
AcDbEntity
  8
C4
 62
     0
100
AcDbCircle
 10
561.8939910331608
 20
5206.479026186202
 30
0.0
 40
4600.000000408878
100
AcDbArc
 50
266.2076507736735
 51
273.7918931077625
  0
ARC
  5
251
330
1F
100
AcDbEntity
  8
C4
 62
     0
100
AcDbCircle
 10
221.8939910029364
 20
971.4790258097648
 30
0.0
 40
60.00000000533318
100
AcDbArc
 50
90.0
 51
180.0
  0
ARC
  5
252
330
1F
100
AcDbEntity
  8
C4
 62
     0
100
AcDbCircle
 10
221.891991002936
 20
971.4790258097648
 30
0.0
 40
75.00000000666648
100
AcDbArc
 50
90.0
 51
180.0
  0
ARC
  5
253
330
1F
100
AcDbEntity
  8
C4
 62
     0
100
AcDbCircle
 10
221.8939910029364
 20
651.4770257813227
 30
0.0
 40
60.00000000533318
100
AcDbArc
 50
180.0
 51
270.0
  0
ARC
  5
254
330
1F
100
AcDbEntity
  8
C4
 62
     0
100
AcDbCircle
 10
221.891991002936
 20
651.4770257813227
 30
0.0
 40
75.00000000666648
100
AcDbArc
 50
180.0
 51
270.0
  0
ARC
  5
255
330
1F
100
AcDbEntity
  8
C4
 62
     0
100
AcDbCircle
 10
901.8919910633774
 20
651.4770257813227
 30
0.0
 40
60.00000000533318
100
AcDbArc
 50
270.0
 51
0.0
  0
ARC
  5
256
330
1F
100
AcDbEntity
  8
C4
 62
     0
100
AcDbCircle
 10
901.8919910633774
 20
651.4770257813227
 30
0.0
 40
75.00000000666648
100
AcDbArc
 50
270.0
 51
0.0
  0
ARC
  5
257
330
1F
100
AcDbEntity
  8
C4
 62
     0
100
AcDbCircle
 10
901.8919910633774
 20
971.4790258097648
 30
0.0
 40
60.00000000533318
100
AcDbArc
 50
0.0
 51
90.0
  0
ARC
  5
258
330
1F
100
AcDbEntity
  8
C4
 62
     0
100
AcDbCircle
 10
901.8919910633774
 20
971.4790258097648
 30
0.0
 40
75.00000000666648
100
AcDbArc
 50
0.0
 51
90.0
  0
ARC
  5
259
330
1F
100
AcDbEntity
  8
C4
 62
     0
100
AcDbCircle
 10
654.893991041419
 20
164.7401573416308
 30
0.0
 40
2.500000000222216
100
AcDbArc
 50
91.50021396675609
 51
179.9998479604956
  0
ARC
  5
25A
330
1F
100
AcDbEntity
  8
C4
 62
     0
100
AcDbCircle
 10
931.8919910660477
 20
204.5041573451661
 30
0.0
 40
32.50000000288881
100
AcDbArc
 50
271.5000619273049
 51
0.0
  0
ARC
  5
25B
330
1F
100
AcDbEntity
  8
C4
 62
     0
100
AcDbCircle
 10
931.8919910660477
 20
204.5041573451661
 30
0.0
 40
30.00000000266659
100
AcDbArc
 50
271.5000619273047
 51
0.0
  0
ARC
  5
25C
330
1F
100
AcDbEntity
  8
C4
 62
     0
100
AcDbCircle
 10
191.8939910002734
 20
204.5041573451661
 30
0.0
 40
32.50000000288881
100
AcDbArc
 50
179.9992750027149
 51
268.5000549119279
  0
ARC
  5
25D
330
1F
100
AcDbEntity
  8
C4
 62
     0
100
AcDbCircle
 10
652.3939910412007
 20
160.1751573412228
 30
0.0
 40
2.500000000222216
100
AcDbArc
 50
270.0000584197119
 51
0.0
  0
ARC
  5
25E
330
1F
100
AcDbEntity
  8
C4
 62
     0
100
AcDbCircle
 10
468.8939910248807
 20
164.7401573416308
 30
0.0
 40
2.500000000222216
100
AcDbArc
 50
0.0
 51
88.50020695157005
  0
ARC
  5
25F
330
1F
100
AcDbEntity
  8
C4
 62
     0
100
AcDbCircle
 10
471.3939910251063
 20
160.1751573412228
 30
0.0
 40
2.500000000222216
100
AcDbArc
 50
180.0004209182762
 51
270.0000584197119
  0
ARC
  5
260
330
1F
100
AcDbEntity
  8
C4
 62
     0
100
AcDbCircle
 10
191.8939910002734
 20
204.5041573451661
 30
0.0
 40
30.00000000266659
100
AcDbArc
 50
179.999275002715
 51
268.5000549119279
  0
ARC
  5
261
330
1F
100
AcDbEntity
  8
C4
 62
     0
100
AcDbCircle
 10
964.3919910689362
 20
354.6751573585141
 30
0.0
 40
2.500000000222216
100
AcDbArc
 50
90.0
 51
180.0
  0
ARC
  5
262
330
1F
100
AcDbEntity
  8
C4
 62
     0
100
AcDbCircle
 10
159.3962548095658
 20
354.6751573585141
 30
0.0
 40
2.500000000222216
100
AcDbArc
 50
359.9991362662171
 51
90.0
  0
ARC
  5
263
330
1F
100
AcDbEntity
  8
C4
 62
     0
100
AcDbCircle
 10
164.8961115981944
 20
345.1751573576665
 30
0.0
 40
3.00000000026666
100
AcDbArc
 50
179.9991362662171
 51
270.0
  0
ARC
  5
264
330
1F
100
AcDbEntity
  8
C4
 62
     0
100
AcDbCircle
 10
958.8919910684488
 20
345.1751573576665
 30
0.0
 40
3.00000000026666
100
AcDbArc
 50
270.0
 51
0.0
  0
LINE
  5
265
330
1F
100
AcDbEntity
  8
C4
 62
     0
100
AcDbLine
 10
1352.39197528081
 20
1032.477404749259
 30
0.0
 11
1352.39197528081
 21
1046.476183708469
 31
0.0
  0
LINE
  5
266
330
1F
100
AcDbEntity
  8
C4
 62
     0
100
AcDbLine
 10
1352.39197528081
 20
1032.477404749259
 30
0.0
 11
1363.392856123184
 21
1032.474404781754
 31
0.0
  0
LINE
  5
267
330
1F
100
AcDbEntity
  8
C4
 62
     0
100
AcDbLine
 10
1367.391738442449
 20
1028.474467946086
 30
0.0
 11
1367.391738442449
 21
1021.474578470657
 31
0.0
  0
LINE
  5
268
330
1F
100
AcDbEntity
  8
C4
 62
     0
100
AcDbLine
 10
1366.391754231677
 20
1028.474467946086
 30
0.0
 11
1366.391754231677
 21
1021.474578470657
 31
0.0
  0
LINE
  5
269
330
1F
100
AcDbEntity
  8
C4
 62
     0
100
AcDbLine
 10
1351.391991070039
 20
1046.476183708469
 30
0.0
 11
1352.191978438655
 21
1046.476183708469
 31
0.0
  0
LINE
  5
26A
330
1F
100
AcDbEntity
  8
C4
 62
     0
100
AcDbLine
 10
1352.39197528081
 20
1031.477420531046
 30
0.0
 11
1363.39180159934
 21
1031.474420578415
 31
0.0
  0
LINE
  5
26B
330
1F
100
AcDbEntity
  8
C4
 62
     0
100
AcDbLine
 10
1352.39197528081
 20
590.480383642149
 30
0.0
 11
1352.39197528081
 21
576.4816046755006
 31
0.0
  0
LINE
  5
26C
330
1F
100
AcDbEntity
  8
C4
 62
     0
100
AcDbLine
 10
1352.392029820446
 20
590.4803836495832
 30
0.0
 11
1363.392856123184
 21
590.4833836022156
 31
0.0
  0
LINE
  5
26D
330
1F
100
AcDbEntity
  8
C4
 62
     0
100
AcDbLine
 10
1367.391738442449
 20
594.4833204378831
 30
0.0
 11
1367.391738442449
 21
601.4832099133121
 31
0.0
  0
LINE
  5
26E
330
1F
100
AcDbEntity
  8
C4
 62
     0
100
AcDbLine
 10
1371.391675285547
 20
605.4831467564147
 30
0.0
 11
1507.722522693224
 21
605.4831467564147
 31
0.0
  0
LINE
  5
26F
330
1F
100
AcDbEntity
  8
C4
 62
     0
100
AcDbLine
 10
1371.391675285547
 20
606.4831309671893
 30
0.0
 11
1507.722522693224
 21
606.4831309671893
 31
0.0
  0
LINE
  5
270
330
1F
100
AcDbEntity
  8
C4
 62
     0
100
AcDbLine
 10
1366.391754231677
 20
594.4833204378831
 30
0.0
 11
1366.391754231677
 21
601.4832099133121
 31
0.0
  0
LINE
  5
271
330
1F
100
AcDbEntity
  8
C4
 62
     0
100
AcDbLine
 10
1548.191883703319
 20
957.9755810864056
 30
0.0
 11
1543.821952702226
 21
957.9755810864056
 31
0.0
  0
LINE
  5
272
330
1F
100
AcDbEntity
  8
C4
 62
     0
100
AcDbLine
 10
1540.592003701418
 20
987.2611186831784
 30
0.0
 11
1541.334511981644
 21
958.9329020908901
 31
0.0
  0
LINE
  5
273
330
1F
100
AcDbEntity
  8
C4
 62
     0
100
AcDbLine
 10
1541.591919252423
 20
987.286358478452
 30
0.0
 11
1542.321907726284
 21
959.4347982399279
 31
0.0
  0
LINE
  5
274
330
1F
100
AcDbEntity
  8
C4
 62
     0
100
AcDbLine
 10
1548.191883703319
 20
956.9755968756283
 30
0.0
 11
1543.343792174273
 21
956.9755968756283
 31
0.0
  0
ARC
  5
275
330
1F
100
AcDbEntity
  8
C4
 62
     0
100
AcDbCircle
 10
1543.343792174273
 20
958.985567149258
 30
0.0
 40
2.009970273629303
100
AcDbArc
 50
181.5014306377432
 51
270.0
  0
LINE
  5
276
330
1F
100
AcDbEntity
  8
C4
 62
     0
100
AcDbLine
 10
1351.391991070039
 20
576.4816046755006
 30
0.0
 11
1352.39197528081
 21
576.4816046755006
 31
0.0
  0
LINE
  5
277
330
1F
100
AcDbEntity
  8
C4
 62
     0
100
AcDbLine
 10
1510.602477220262
 20
1016.47465741678
 30
0.0
 11
1371.391675285547
 21
1016.47465741678
 31
0.0
  0
LINE
  5
278
330
1F
100
AcDbEntity
  8
C4
 62
     0
100
AcDbLine
 10
1351.391991070039
 20
576.4816046755006
 30
0.0
 11
1351.391991070039
 21
1046.476183708469
 31
0.0
  0
LINE
  5
279
330
1F
100
AcDbEntity
  8
C4
 62
     0
100
AcDbLine
 10
1510.602477220262
 20
1017.474641627554
 30
0.0
 11
1371.391675285547
 21
1017.474641627554
 31
0.0
  0
LINE
  5
27A
330
1F
100
AcDbEntity
  8
C4
 62
     0
100
AcDbLine
 10
1352.39197528081
 20
591.4803678529227
 30
0.0
 11
1363.39180159934
 21
591.483367805555
 31
0.0
  0
LINE
  5
27B
330
1F
100
AcDbEntity
  8
C4
 62
     0
100
AcDbLine
 10
1538.711964838971
 20
635.6674343044672
 30
0.0
 11
1542.321907839872
 21
773.5132577914667
 31
0.0
  0
LINE
  5
27C
330
1F
100
AcDbEntity
  8
C4
 62
     0
100
AcDbLine
 10
1548.191883703319
 20
774.9784705144632
 30
0.0
 11
1543.821952702226
 21
774.9784705144632
 31
0.0
  0
LINE
  5
27D
330
1F
100
AcDbEntity
  8
C4
 62
     0
100
AcDbLine
 10
1541.391991070039
 20
958.505511995782
 30
0.0
 11
1541.391991070042
 21
774.0659370485898
 31
0.0
  0
LINE
  5
27E
330
1F
100
AcDbEntity
  8
C4
 62
     0
100
AcDbLine
 10
1537.712049174391
 20
635.6966697007904
 30
0.0
 11
1541.321992175282
 21
773.544493156209
 31
0.0
  0
LINE
  5
27F
330
1F
100
AcDbEntity
  8
C4
 62
     0
100
AcDbLine
 10
1548.191883703319
 20
775.9784547252377
 30
0.0
 11
1543.821952702226
 21
775.9784547252377
 31
0.0
  0
LINE
  5
280
330
1F
100
AcDbEntity
  8
C4
 62
     0
100
AcDbLine
 10
1549.391864756242
 20
956.7756000334741
 30
0.0
 11
1549.391864756242
 21
945.475778451708
 31
0.0
  0
LINE
  5
281
330
1F
100
AcDbEntity
  8
C4
 62
     0
100
AcDbLine
 10
1548.39188054547
 20
945.475778451708
 30
0.0
 11
1549.391864756242
 21
945.475778451708
 31
0.0
  0
LINE
  5
282
330
1F
100
AcDbEntity
  8
C4
 62
     0
100
AcDbLine
 10
1548.39188054547
 20
956.7756000334741
 30
0.0
 11
1548.39188054547
 21
945.475778451708
 31
0.0
  0
LINE
  5
283
330
1F
100
AcDbEntity
  8
C4
 62
     0
100
AcDbLine
 10
1548.39188054547
 20
787.478273149158
 30
0.0
 11
1549.391864756242
 21
787.478273149158
 31
0.0
  0
LINE
  5
284
330
1F
100
AcDbEntity
  8
C4
 62
     0
100
AcDbLine
 10
1548.39188054547
 20
776.1784515673919
 30
0.0
 11
1548.39188054547
 21
787.478273149158
 31
0.0
  0
LINE
  5
285
330
1F
100
AcDbEntity
  8
C4
 62
     0
100
AcDbLine
 10
1548.39188054547
 20
945.4757784517078
 30
0.0
 11
1548.39188054547
 21
787.4782731491578
 31
0.0
  0
LINE
  5
286
330
1F
100
AcDbEntity
  8
C4
 62
     0
100
AcDbLine
 10
1549.391864756238
 20
945.4757784517078
 30
0.0
 11
1549.391864756242
 21
787.4782731491578
 31
0.0
  0
LINE
  5
287
330
1F
100
AcDbEntity
  8
C4
 62
     0
100
AcDbLine
 10
1549.391864756242
 20
776.1784515673919
 30
0.0
 11
1549.391864756242
 21
787.478273149158
 31
0.0
  0
ARC
  5
288
330
1F
100
AcDbEntity
  8
C4
 62
     0
100
AcDbCircle
 10
1363.39180159934
 20
1028.474467946086
 30
0.0
 40
2.999952632326908
100
AcDbArc
 50
0.0
 51
90.00021045937359
  0
ARC
  5
289
330
1F
100
AcDbEntity
  8
C4
 62
     0
100
AcDbCircle
 10
1371.391675285547
 20
1021.474578470657
 30
0.0
 40
4.999921053878179
100
AcDbArc
 50
179.9998479604947
 51
270.0000584197119
  0
ARC
  5
28A
330
1F
100
AcDbEntity
  8
C4
 62
     0
100
AcDbCircle
 10
1371.391675285547
 20
1021.474578470657
 30
0.0
 40
3.999936843102541
100
AcDbArc
 50
179.9998479604953
 51
270.0000584197126
  0
ARC
  5
28B
330
1F
100
AcDbEntity
  8
C4
 62
     0
100
AcDbCircle
 10
1352.39197528081
 20
1032.477404741821
 30
0.0
 40
0.9999842107756365
100
AcDbArc
 50
179.9998479604921
 51
269.9857344748444
  0
ARC
  5
28C
330
1F
100
AcDbEntity
  8
C4
 62
     0
100
AcDbCircle
 10
1363.39180159934
 20
1028.474467946086
 30
0.0
 40
3.999936843102541
100
AcDbArc
 50
0.0
 51
90.00021045937359
  0
ARC
  5
28D
330
1F
100
AcDbEntity
  8
C4
 62
     0
100
AcDbCircle
 10
1510.602477220262
 20
986.4751310935101
 30
0.0
 40
30.9995105340447
100
AcDbArc
 50
1.500301445696012
 51
90.00021045937275
  0
ARC
  5
28E
330
1F
100
AcDbEntity
  8
C4
 62
     0
100
AcDbCircle
 10
1510.602477220262
 20
986.4751310935101
 30
0.0
 40
29.99952632326908
100
AcDbArc
 50
1.500301445695899
 51
90.00021045937272
  0
ARC
  5
28F
330
1F
100
AcDbEntity
  8
C4
 62
     0
100
AcDbCircle
 10
1543.821952702226
 20
773.4784941982973
 30
0.0
 40
1.499976316163453
100
AcDbArc
 50
90.00021045936926
 51
178.4998444528641
  0
ARC
  5
290
330
1F
100
AcDbEntity
  8
C4
 62
     0
100
AcDbCircle
 10
1363.39180159934
 20
594.4833204378831
 30
0.0
 40
2.999952632326908
100
AcDbArc
 50
270.0000584197136
 51
0.0
  0
ARC
  5
291
330
1F
100
AcDbEntity
  8
C4
 62
     0
100
AcDbCircle
 10
1371.391675285547
 20
601.4832099133121
 30
0.0
 40
4.999921053878179
100
AcDbArc
 50
90.00021045937359
 51
179.9998479604947
  0
ARC
  5
292
330
1F
100
AcDbEntity
  8
C4
 62
     0
100
AcDbCircle
 10
1548.191883703319
 20
776.1784515673919
 30
0.0
 40
0.1999968421551273
100
AcDbArc
 50
270.0000584197223
 51
0.0
  0
ARC
  5
293
330
1F
100
AcDbEntity
  8
C4
 62
     0
100
AcDbCircle
 10
1507.722522693224
 20
636.4826572904597
 30
0.0
 40
30.9995105340447
100
AcDbArc
 50
270.0000584197118
 51
358.4996924133525
  0
ARC
  5
294
330
1F
100
AcDbEntity
  8
C4
 62
     0
100
AcDbCircle
 10
1507.722522693224
 20
636.4826572904597
 30
0.0
 40
29.99952632326908
100
AcDbArc
 50
270.0000584197119
 51
358.4996924133527
  0
ARC
  5
295
330
1F
100
AcDbEntity
  8
C4
 62
     0
100
AcDbCircle
 10
1543.821952702226
 20
959.4755574025687
 30
0.0
 40
1.499976316163453
100
AcDbArc
 50
181.5004244259475
 51
270.0000584197136
  0
ARC
  5
296
330
1F
100
AcDbEntity
  8
C4
 62
     0
100
AcDbCircle
 10
1548.191883703319
 20
776.1784515673919
 30
0.0
 40
1.199981052930763
100
AcDbArc
 50
270.0000584197115
 51
0.0
  0
ARC
  5
297
330
1F
100
AcDbEntity
  8
C4
 62
     0
100
AcDbCircle
 10
1543.821952702226
 20
773.4784941982973
 30
0.0
 40
2.499960526939089
100
AcDbArc
 50
90.00021045937098
 51
178.4998444528624
  0
ARC
  5
298
330
1F
100
AcDbEntity
  8
C4
 62
     0
100
AcDbCircle
 10
1548.191883703319
 20
956.7756000334741
 30
0.0
 40
1.199981052930763
100
AcDbArc
 50
0.0
 51
90.00021045937577
  0
ARC
  5
299
330
1F
100
AcDbEntity
  8
C4
 62
     0
100
AcDbCircle
 10
1548.191883703319
 20
956.7756000334741
 30
0.0
 40
0.1999968421551273
100
AcDbArc
 50
0.0
 51
90.00021045938662
  0
ARC
  5
29A
330
1F
100
AcDbEntity
  8
C4
 62
     0
100
AcDbCircle
 10
1371.391675285547
 20
601.4832099133121
 30
0.0
 40
3.999936843102541
100
AcDbArc
 50
90.00021045937359
 51
179.9998479604953
  0
ARC
  5
29B
330
1F
100
AcDbEntity
  8
C4
 62
     0
100
AcDbCircle
 10
1363.39180159934
 20
594.4833204378831
 30
0.0
 40
3.999936843102541
100
AcDbArc
 50
270.0000584197126
 51
0.0
  0
ARC
  5
29C
330
1F
100
AcDbEntity
  8
C4
 62
     0
100
AcDbCircle
 10
1352.39197528081
 20
590.480383642149
 30
0.0
 40
0.9999842107756365
100
AcDbArc
 50
90.01396144624775
 51
179.9998479604921
  0
DIMENSION
  5
29D
330
1F
100
AcDbEntity
  8
C寸法
 62
     0
370
    13
100
AcDbDimension
  2
*D14
 10
1141.891991068711
 20
606.4790258097175
 30
0.0
 11
1124.391991068711
 21
811.4790258097175
 31
0.0
 70
    32
 71
     5
 42
410.0
  3
実寸
100
AcDbAlignedDimension
 13
991.8919910687107
 23
1016.479025809718
 33
0.0
 14
991.8919910687107
 24
606.4790258097175
 34
0.0
 50
90.0
100
AcDbRotatedDimension
1001
ACAD
1000
DSTYLE
1002
{
1070
   340
1005
F3
1070
   144
1040
1.0
1002
}
  0
DIMENSION
  5
29E
330
1F
100
AcDbEntity
  8
C寸法
 62
     0
370
    13
100
AcDbDimension
  2
*D15
 10
1191.891991068711
 20
591.4790258097175
 30
0.0
 11
1174.391991068711
 21
811.4790258097175
 31
0.0
 70
    32
 71
     5
 42
440.0
  3
実寸
100
AcDbAlignedDimension
 13
991.8919910687107
 23
1031.479025809718
 33
0.0
 14
991.8919910687107
 24
591.4790258097175
 34
0.0
 50
90.0
100
AcDbRotatedDimension
1001
ACAD
1000
DSTYLE
1002
{
1070
   340
1005
F3
1070
   144
1040
1.0
1002
}
  0
DIMENSION
  5
29F
330
1F
100
AcDbEntity
  8
C寸法
 62
     0
370
    13
100
AcDbDimension
  2
*D16
 10
1141.891991068711
 20
167.1751573587358
 30
0.0
 11
1124.391991068711
 21
262.1751573587359
 31
0.0
 70
    32
 71
     5
 42
190.0000000000003
  3
実寸
100
AcDbAlignedDimension
 13
979.7361522297485
 23
357.175157358736
 33
0.0
 14
638.2144653562916
 24
167.1751573587358
 34
0.0
 50
90.0
100
AcDbRotatedDimension
1001
ACAD
1000
DSTYLE
1002
{
1070
   340
1005
F3
1070
   144
1040
1.0
1002
}
  0
DIMENSION
  5
2A0
330
1F
100
AcDbEntity
  8
C寸法
 62
     0
370
    13
100
AcDbDimension
  2
*D17
 10
1091.891991068711
 20
866.477025800433
 30
0.0
 11
1074.391991068711
 21
941.4780258050753
 31
0.0
 70
    32
 71
     5
 42
150.0020000092845
  3
実寸
100
AcDbAlignedDimension
 13
991.8919910687107
 23
1016.479025809718
 33
0.0
 14
988.7268449764275
 24
866.477025800433
 34
0.0
 50
90.0
100
AcDbRotatedDimension
1001
ACAD
1000
DSTYLE
1002
{
1070
   340
1005
F3
1070
   144
1040
1.0
1002
}
  0
DIMENSION
  5
2A1
330
1F
100
AcDbEntity
  8
C寸法
 62
     0
370
    13
100
AcDbDimension
  2
*D18
 10
1141.891991068711
 20
591.4770257759894
 30
0.0
 11
1141.891991068711
 21
517.9316388712275
 31
0.0
 70
   160
 71
     5
 42
15.00200000133509
  3
実寸
100
AcDbAlignedDimension
 13
561.8939910331608
 23
606.4790257773245
 33
0.0
 14
561.8939910331608
 24
591.4770257759894
 34
0.0
 50
90.0
100
AcDbRotatedDimension
1001
ACAD
1000
DSTYLE
1002
{
1070
   340
1005
F3
1070
   172
1070
     1
1070
   144
1040
1.0
1002
}
  0
DIMENSION
  5
2A2
330
1F
100
AcDbEntity
  8
C寸法
 62
     0
370
    13
100
AcDbDimension
  2
*D19
 10
1141.891991068711
 20
1031.479025809718
 30
0.0
 11
1141.891991068711
 21
1105.024412714479
 31
0.0
 70
   160
 71
     5
 42
15.0
  3
実寸
100
AcDbAlignedDimension
 13
561.8939910331608
 23
1016.479025809718
 33
0.0
 14
561.8939910331608
 24
1031.479025809718
 34
0.0
 50
90.0
100
AcDbRotatedDimension
1001
ACAD
1000
DSTYLE
1002
{
1070
   340
1005
F3
1070
   170
1070
     0
1070
   283
1070
     1
1070
   172
1070
     1
1070
   144
1040
1.0
1002
}
  0
DIMENSION
  5
2A3
330
1F
100
AcDbEntity
  8
C寸法
 62
     0
370
    13
100
AcDbDimension
  2
*D20
 10
961.8939909976032
 20
441.4751573600695
 30
0.0
 11
561.8939909976032
 21
458.9751573600695
 31
0.0
 70
    32
 71
     5
 42
800.0
  3
実寸
100
AcDbAlignedDimension
 13
161.8939909976031
 23
634.7278946531692
 33
0.0
 14
961.8939909976032
 24
641.0590663824282
 34
0.0
100
AcDbRotatedDimension
1001
ACAD
1000
DSTYLE
1002
{
1070
   340
1005
F3
1070
   144
1040
1.0
1002
}
  0
DIMENSION
  5
2A4
330
1F
100
AcDbEntity
  8
C寸法
 62
     0
370
    13
100
AcDbDimension
  2
*D21
 10
1091.891991068711
 20
342.1770257759895
 30
0.0
 11
1074.391991068711
 21
268.6316388712276
 31
0.0
 70
    32
 71
     5
 42
14.99999999999994
  3
実寸
100
AcDbAlignedDimension
 13
967.2741096323391
 23
357.1770257759895
 33
0.0
 14
945.96613294635
 24
342.1770257759895
 34
0.0
 50
90.0
100
AcDbRotatedDimension
1001
ACAD
1000
DSTYLE
1002
{
1070
   340
1005
F3
1070
   172
1070
     1
1070
   144
1040
1.0
1002
}
  0
LINE
  5
2A5
330
1F
100
AcDbEntity
  8
C4
 62
     0
100
AcDbLine
 10
1366.391754231677
 20
1021.474578470657
 30
0.0
 11
1366.391754231677
 21
911.6317181644249
 31
0.0
  0
LINE
  5
2A6
330
1F
100
AcDbEntity
  8
C4
 62
     0
100
AcDbLine
 10
1366.391754231685
 20
711.3225900752677
 30
0.0
 11
1366.391754231688
 21
601.4832231810524
 31
0.0
  0
DIMENSION
  5
2A7
330
1F
100
AcDbEntity
  8
C寸法
 62
     0
370
    13
100
AcDbDimension
  2
*D22
 10
471.5836592703968
 20
706.4986645772713
 30
0.0
 11
576.0702482656875
 21
706.4986645772713
 31
0.0
 70
   160
  1
Φ<>
 71
     5
 42
180.8103317708083
 52
-270.0
  3
実寸
100
AcDbAlignedDimension
 13
652.393991041205
 23
866.4700258004316
 33
0.0
 14
471.5836592703968
 24
866.2241985145624
 34
0.0
 50
180.0
100
AcDbRotatedDimension
1001
ACAD
1000
DSTYLE
1002
{
1070
   271
1070
     0
1070
   340
1005
F3
1070
   144
1040
1.0
1002
}
  0
DIMENSION
  5
31F
102
{ACAD_REACTORS
330
321
102
}
102
{ACAD_XDICTIONARY
360
320
102
}
330
1F
100
AcDbEntity
  8
0
370
    13
100
AcDbDimension
  2
*D23
 10
264.2779910067109
 20
716.3290257870879
 30
0.0
 11
256.244336706961
 21
713.1359650120087
 31
0.0
 70
   164
  1
4-<>
 71
     5
 42
100.0000000088886
  3
JIS-1
100
AcDbRadialDimension
 15
171.349170051633
 25
679.39348412764
 35
0.0
 40
0.0
1001
ACAD_DSTYLE_DIMRADIAL_EXTENSION
1070
   387
1070
     1
1070
   388
1040
3.191689999999898
1070
   390
1040
4.646199999999832
1001
ACAD
1000
DSTYLE
1002
{
1070
   147
1040
5.0
1070
   140
1040
25.0
1070
   340
1005
F3
1070
    41
1040
25.0
1070
   344
1005
90
1070
   173
1070
     1
1002
}
  0
DIMENSION
  5
32A
102
{ACAD_XDICTIONARY
360
32B
102
}
330
1F
100
AcDbEntity
  8
0
370
    13
100
AcDbDimension
  2
*D24
 10
225.7045350488293
 20
640.5751422111193
 30
0.0
 11
332.9200526686537
 21
691.4526327283959
 31
0.0
 70
   164
  1
4-R60
 71
     5
 42
56.75975051663592
  3
JIS-1
100
AcDbRadialDimension
 15
276.9835830189635
 25
664.9088332173648
 35
0.0
 40
0.0
1001
ACAD_DSTYLE_DIMRADIAL_EXTENSION
1070
   387
1070
     0
1070
   388
1040
3.141592653589793
1070
   390
1040
4.71238898038469
1001
ACAD
1000
DSTYLE
1002
{
1070
   140
1040
25.0
1070
   340
1005
F3
1070
   147
1040
5.0
1070
    41
1040
25.0
1070
   344
1005
90
1070
   173
1070
     1
1002
}
  0
ENDSEC
  0
SECTION
  2
OBJECTS
  0
DICTIONARY
  5
C
330
0
100
AcDbDictionary
281
     1
  3
ACAD_COLOR
350
F5
  3
ACAD_DETAILVIEWSTYLE
350
DA
  3
ACAD_GROUP
350
D
  3
ACAD_IMAGE_VARS
350
6A
  3
ACAD_LAYOUT
350
1A
  3
ACAD_MATERIAL
350
97
  3
ACAD_MLEADERSTYLE
350
3F
  3
ACAD_MLINESTYLE
350
17
  3
ACAD_PLOTSETTINGS
350
19
  3
ACAD_PLOTSTYLENAME
350
E
  3
ACAD_SCALELIST
350
40
  3
ACAD_SECTIONVIEWSTYLE
350
DB
  3
ACAD_TABLESTYLE
350
3B
  3
ACDB_RECOMPOSE_DATA
350
342
  3
AcDbVariableDictionary
350
3D
  3
APPDATA
350
96
  0
DICTIONARY
  5
217
330
2
100
AcDbDictionary
280
     1
281
     1
  3
ACAD_LAYERSTATES
360
218
  0
DICTIONARY
  5
320
330
31F
100
AcDbDictionary
280
     1
281
     1
  3
ACAD_DIMASSOC
360
321
  0
DICTIONARY
  5
32B
330
32A
100
AcDbDictionary
280
     1
281
     1
  0
DICTIONARY
  5
F5
102
{ACAD_REACTORS
330
C
102
}
330
C
100
AcDbDictionary
281
     1
  0
DICTIONARY
  5
DA
102
{ACAD_REACTORS
330
C
102
}
330
C
100
AcDbDictionary
281
     1
  0
DICTIONARY
  5
D
102
{ACAD_REACTORS
330
C
102
}
330
C
100
AcDbDictionary
281
     1
  0
RASTERVARIABLES
  5
6A
102
{ACAD_REACTORS
330
C
102
}
330
C
100
AcDbRasterVariables
 90
        0
 70
     1
 71
     1
 72
     1
  0
DICTIONARY
  5
1A
102
{ACAD_REACTORS
330
C
102
}
330
C
100
AcDbDictionary
281
     1
  3
Model
350
22
  3
Sheet1
350
1E
  3
Sheet2
350
26
  0
DICTIONARY
  5
97
102
{ACAD_REACTORS
330
C
102
}
330
C
100
AcDbDictionary
281
     1
  3
ByBlock
350
99
  3
ByLayer
350
98
  3
Global
350
9A
  0
DICTIONARY
  5
3F
102
{ACAD_REACTORS
330
C
102
}
330
C
100
AcDbDictionary
281
     1
  3
Standard
350
DC
  0
DICTIONARY
  5
17
102
{ACAD_REACTORS
330
C
102
}
330
C
100
AcDbDictionary
281
     1
  3
Standard
350
18
  0
DICTIONARY
  5
19
102
{ACAD_REACTORS
330
C
102
}
330
C
100
AcDbDictionary
281
     1
  0
ACDBDICTIONARYWDFLT
  5
E
102
{ACAD_REACTORS
330
C
102
}
330
C
100
AcDbDictionary
281
     1
  3
Normal
350
F
100
AcDbDictionaryWithDefault
340
F
  0
DICTIONARY
  5
40
102
{ACAD_REACTORS
330
C
102
}
330
C
100
AcDbDictionary
281
     1
  3
A0
350
41
  3
A1
350
42
  3
A2
350
43
  3
A3
350
44
  3
A4
350
45
  3
A5
350
46
  3
A6
350
47
  3
A7
350
48
  3
A8
350
49
  3
A9
350
4A
  3
B0
350
4B
  3
B1
350
4C
  3
B2
350
4D
  3
B3
350
4E
  3
B4
350
4F
  3
B5
350
50
  3
B6
350
51
  3
B7
350
52
  3
B8
350
53
  3
B9
350
54
  3
C0
350
55
  3
C1
350
56
  3
C2
350
57
  3
C3
350
58
  3
C4
350
59
  3
C5
350
5A
  3
C6
350
5B
  3
C7
350
5C
  3
C8
350
5D
  3
C9
350
5E
  3
D0
350
5F
  3
D1
350
60
  3
D2
350
61
  0
DICTIONARY
  5
DB
102
{ACAD_REACTORS
330
C
102
}
330
C
100
AcDbDictionary
281
     1
  0
DICTIONARY
  5
3B
102
{ACAD_REACTORS
330
C
102
}
330
C
100
AcDbDictionary
281
     1
  3
Standard
350
3C
  0
XRECORD
  5
342
102
{ACAD_REACTORS
330
C
102
}
330
C
100
AcDbXrecord
280
     1
 90
        1
330
3C
  0
DICTIONARY
  5
3D
102
{ACAD_REACTORS
330
C
102
}
330
C
100
AcDbDictionary
281
     1
  3
CANNOSCALE
350
62
  3
CMLEADERSTYLE
350
338
  3
CTABLESTYLE
350
3E
  3
LIGHTSINBLOCKS
350
6F
  3
XCLIPFRAME
350
70
  0
DICTIONARY
  5
96
102
{ACAD_REACTORS
330
C
102
}
330
C
100
AcDbDictionary
281
     1
  0
DICTIONARY
  5
218
102
{ACAD_REACTORS
330
217
102
}
330
217
100
AcDbDictionary
281
     1
  0
DIMASSOC
  5
321
102
{ACAD_REACTORS
330
320
102
}
330
320
100
AcDbDimAssoc
330
31F
 90
        2
 70
     0
 71
     1
  1
AcDbOsnapPointRef
 72
     3
331
24A
 73
     0
 91
        0
 40
0.0
 10
0.0
 20
0.0
 30
0.0
 75
     0
  0
LAYOUT
  5
22
102
{ACAD_REACTORS
330
1A
102
}
330
1A
100
AcDbPlotSettings
  1

  2
none_device
  4
ISO_A3_(420.00_x_297.00_MM)
  6

 40
7.5
 41
20.0
 42
7.5
 43
20.0
 44
420.0
 45
297.0
 46
20.78282828282826
 47
0.0
 48
0.0
 49
0.0
140
0.0
141
0.0
142
1.0
143
1.155642023346303
 70
  1204
 72
     1
 73
     0
 74
     1
  7
monochrome.ctb
 75
     0
 76
     0
 77
     2
 78
   300
147
0.8653198653198654
148
-134.1869158878504
149
0.0
100
AcDbLayout
  1
Model
 70
     1
 71
     0
 10
0.0
 20
0.0
 11
420.0
 21
297.0
 12
0.0
 22
0.0
 32
0.0
 14
3.086960423584259
 24
4.046082742528824
 34
0.0
 15
1803.14261966613
 25
1205.594570650022
 35
0.0
146
0.0
 13
0.0
 23
0.0
 33
0.0
 16
1.0
 26
0.0
 36
0.0
 17
0.0
 27
1.0
 37
0.0
 76
     0
330
1F
331
29
  0
LAYOUT
  5
1E
102
{ACAD_REACTORS
330
1A
102
}
330
1A
100
AcDbPlotSettings
  1

  2
none_device
  4

  6

 40
0.0
 41
0.0
 42
0.0
 43
0.0
 44
0.0
 45
0.0
 46
0.0
 47
0.0
 48
0.0
 49
0.0
140
0.0
141
0.0
142
1.0
143
1.0
 70
   688
 72
     0
 73
     0
 74
     5
  7

 75
    16
 76
     0
 77
     2
 78
   300
147
1.0
148
0.0
149
0.0
100
AcDbLayout
  1
Sheet1
 70
     1
 71
     1
 10
0.0
 20
0.0
 11
420.0
 21
297.0
 12
0.0
 22
0.0
 32
0.0
 14
1.000000000000000E+20
 24
1.000000000000000E+20
 34
1.000000000000000E+20
 15
-1.000000000000000E+20
 25
-1.000000000000000E+20
 35
-1.000000000000000E+20
146
0.0
 13
0.0
 23
0.0
 33
0.0
 16
1.0
 26
0.0
 36
0.0
 17
0.0
 27
1.0
 37
0.0
 76
     0
330
1B
  0
LAYOUT
  5
26
102
{ACAD_REACTORS
330
1A
102
}
330
1A
100
AcDbPlotSettings
  1

  2
none_device
  4

  6

 40
0.0
 41
0.0
 42
0.0
 43
0.0
 44
0.0
 45
0.0
 46
0.0
 47
0.0
 48
0.0
 49
0.0
140
0.0
141
0.0
142
1.0
143
1.0
 70
   688
 72
     0
 73
     0
 74
     5
  7

 75
    16
 76
     0
 77
     2
 78
   300
147
1.0
148
0.0
149
0.0
100
AcDbLayout
  1
Sheet2
 70
     1
 71
     2
 10
0.0
 20
0.0
 11
0.0
 21
0.0
 12
0.0
 22
0.0
 32
0.0
 14
0.0
 24
0.0
 34
0.0
 15
0.0
 25
0.0
 35
0.0
146
0.0
 13
0.0
 23
0.0
 33
0.0
 16
1.0
 26
0.0
 36
0.0
 17
0.0
 27
1.0
 37
0.0
 76
     0
330
23
  0
MATERIAL
  5
99
102
{ACAD_REACTORS
330
97
102
}
330
97
100
AcDbMaterial
  1
ByBlock
  0
MATERIAL
  5
98
102
{ACAD_REACTORS
330
97
102
}
330
97
100
AcDbMaterial
  1
ByLayer
  0
MATERIAL
  5
9A
102
{ACAD_REACTORS
330
97
102
}
330
97
100
AcDbMaterial
  1
Global
  0
MLEADERSTYLE
  5
DC
102
{ACAD_REACTORS
330
3F
102
}
330
3F
100
AcDbMLeaderStyle
170
     2
171
     1
172
     0
 90
        2
 40
0.0
 41
0.0
173
     1
 91
-1056964608
340
14
 92
       -2
290
     1
 42
2.0
291
     1
 43
8.0
  3
Standard
341
0
 44
4.0
300

342
11
174
     1
178
     6
175
     1
176
     0
 93
-1056964608
 45
4.0
292
     0
297
     0
 46
4.0
343
0
 94
-1056964608
 47
1.0
 49
1.0
140
1.0
293
     1
141
0.0
294
     1
177
     0
142
1.0
295
     0
296
     0
143
3.75
1001
ACAD_MLEADERVER
1070
     2
  0
MLINESTYLE
  5
18
102
{ACAD_REACTORS
330
17
102
}
330
17
100
AcDbMlineStyle
  2
Standard
 70
     0
  3

 62
   256
 51
90.0
 52
90.0
 71
     2
 49
0.5
 62
   256
  6
BYLAYER
 49
-0.5
 62
   256
  6
BYLAYER
  0
ACDBPLACEHOLDER
  5
F
102
{ACAD_REACTORS
330
E
102
}
330
E
  0
SCALE
  5
41
102
{ACAD_REACTORS
330
40
102
}
330
40
100
AcDbScale
 70
     0
300
1:1
140
1.0
141
1.0
290
     1
  0
SCALE
  5
42
102
{ACAD_REACTORS
330
40
102
}
330
40
100
AcDbScale
 70
     0
300
1:2
140
1.0
141
2.0
290
     0
  0
SCALE
  5
43
102
{ACAD_REACTORS
330
40
102
}
330
40
100
AcDbScale
 70
     0
300
1:4
140
1.0
141
4.0
290
     0
  0
SCALE
  5
44
102
{ACAD_REACTORS
330
40
102
}
330
40
100
AcDbScale
 70
     0
300
1:5
140
1.0
141
5.0
290
     0
  0
SCALE
  5
45
102
{ACAD_REACTORS
330
40
102
}
330
40
100
AcDbScale
 70
     0
300
1:8
140
1.0
141
8.0
290
     0
  0
SCALE
  5
46
102
{ACAD_REACTORS
330
40
102
}
330
40
100
AcDbScale
 70
     0
300
1:10
140
1.0
141
10.0
290
     0
  0
SCALE
  5
47
102
{ACAD_REACTORS
330
40
102
}
330
40
100
AcDbScale
 70
     0
300
1:16
140
1.0
141
16.0
290
     0
  0
SCALE
  5
48
102
{ACAD_REACTORS
330
40
102
}
330
40
100
AcDbScale
 70
     0
300
1:20
140
1.0
141
20.0
290
     0
  0
SCALE
  5
49
102
{ACAD_REACTORS
330
40
102
}
330
40
100
AcDbScale
 70
     0
300
1:30
140
1.0
141
30.0
290
     0
  0
SCALE
  5
4A
102
{ACAD_REACTORS
330
40
102
}
330
40
100
AcDbScale
 70
     0
300
1:40
140
1.0
141
40.0
290
     0
  0
SCALE
  5
4B
102
{ACAD_REACTORS
330
40
102
}
330
40
100
AcDbScale
 70
     0
300
1:50
140
1.0
141
50.0
290
     0
  0
SCALE
  5
4C
102
{ACAD_REACTORS
330
40
102
}
330
40
100
AcDbScale
 70
     0
300
1:100
140
1.0
141
100.0
290
     0
  0
SCALE
  5
4D
102
{ACAD_REACTORS
330
40
102
}
330
40
100
AcDbScale
 70
     0
300
2:1
140
2.0
141
1.0
290
     0
  0
SCALE
  5
4E
102
{ACAD_REACTORS
330
40
102
}
330
40
100
AcDbScale
 70
     0
300
4:1
140
4.0
141
1.0
290
     0
  0
SCALE
  5
4F
102
{ACAD_REACTORS
330
40
102
}
330
40
100
AcDbScale
 70
     0
300
8:1
140
8.0
141
1.0
290
     0
  0
SCALE
  5
50
102
{ACAD_REACTORS
330
40
102
}
330
40
100
AcDbScale
 70
     0
300
10:1
140
10.0
141
1.0
290
     0
  0
SCALE
  5
51
102
{ACAD_REACTORS
330
40
102
}
330
40
100
AcDbScale
 70
     0
300
100:1
140
100.0
141
1.0
290
     0
  0
SCALE
  5
52
102
{ACAD_REACTORS
330
40
102
}
330
40
100
AcDbScale
 70
     0
300
1/128" = 1'-0"
140
0.0078125
141
12.0
290
     0
  0
SCALE
  5
53
102
{ACAD_REACTORS
330
40
102
}
330
40
100
AcDbScale
 70
     0
300
1/64" = 1'-0"
140
0.015625
141
12.0
290
     0
  0
SCALE
  5
54
102
{ACAD_REACTORS
330
40
102
}
330
40
100
AcDbScale
 70
     0
300
1/32" = 1'-0"
140
0.03125
141
12.0
290
     0
  0
SCALE
  5
55
102
{ACAD_REACTORS
330
40
102
}
330
40
100
AcDbScale
 70
     0
300
1/16" = 1'-0"
140
0.0625
141
12.0
290
     0
  0
SCALE
  5
56
102
{ACAD_REACTORS
330
40
102
}
330
40
100
AcDbScale
 70
     0
300
3/32" = 1'-0"
140
0.09375
141
12.0
290
     0
  0
SCALE
  5
57
102
{ACAD_REACTORS
330
40
102
}
330
40
100
AcDbScale
 70
     0
300
1/8" = 1'-0"
140
0.125
141
12.0
290
     0
  0
SCALE
  5
58
102
{ACAD_REACTORS
330
40
102
}
330
40
100
AcDbScale
 70
     0
300
3/16" = 1'-0"
140
0.1875
141
12.0
290
     0
  0
SCALE
  5
59
102
{ACAD_REACTORS
330
40
102
}
330
40
100
AcDbScale
 70
     0
300
1/4" = 1'-0"
140
0.25
141
12.0
290
     0
  0
SCALE
  5
5A
102
{ACAD_REACTORS
330
40
102
}
330
40
100
AcDbScale
 70
     0
300
3/8" = 1'-0"
140
0.375
141
12.0
290
     0
  0
SCALE
  5
5B
102
{ACAD_REACTORS
330
40
102
}
330
40
100
AcDbScale
 70
     0
300
1/2" = 1'-0"
140
0.5
141
12.0
290
     0
  0
SCALE
  5
5C
102
{ACAD_REACTORS
330
40
102
}
330
40
100
AcDbScale
 70
     0
300
3/4" = 1'-0"
140
0.75
141
12.0
290
     0
  0
SCALE
  5
5D
102
{ACAD_REACTORS
330
40
102
}
330
40
100
AcDbScale
 70
     0
300
1" = 1'-0"
140
1.0
141
12.0
290
     0
  0
SCALE
  5
5E
102
{ACAD_REACTORS
330
40
102
}
330
40
100
AcDbScale
 70
     0
300
1-1/2" = 1'-0"
140
1.5
141
12.0
290
     0
  0
SCALE
  5
5F
102
{ACAD_REACTORS
330
40
102
}
330
40
100
AcDbScale
 70
     0
300
3" = 1'-0"
140
3.0
141
12.0
290
     0
  0
SCALE
  5
60
102
{ACAD_REACTORS
330
40
102
}
330
40
100
AcDbScale
 70
     0
300
6" = 1'-0"
140
6.0
141
12.0
290
     0
  0
SCALE
  5
61
102
{ACAD_REACTORS
330
40
102
}
330
40
100
AcDbScale
 70
     0
300
1'-0" = 1'-0"
140
12.0
141
12.0
290
     0
  0
TABLESTYLE
  5
3C
102
{ACAD_REACTORS
330
3B
102
}
102
{ACAD_XDICTIONARY
360
33E
102
}
330
3B
100
AcDbTableStyle
  3
Standard
 70
     0
 71
     0
 40
1.5
 41
1.5
280
     0
281
     0
  7
Standard
140
4.5
170
     2
 62
     0
 63
   257
283
     0
274
    -2
284
     1
 64
     0
275
    -2
285
     1
 65
     0
276
    -2
286
     1
 66
     0
277
    -2
287
     1
 67
     0
278
    -2
288
     1
 68
     0
279
    -2
289
     1
 69
     0
  7
Standard
140
6.0
170
     5
 62
     0
 63
   257
283
     0
274
    -2
284
     1
 64
     0
275
    -2
285
     1
 65
     0
276
    -2
286
     1
 66
     0
277
    -2
287
     1
 67
     0
278
    -2
288
     1
 68
     0
279
    -2
289
     1
 69
     0
  7
Standard
140
4.5
170
     5
 62
     0
 63
   257
283
     0
274
    -2
284
     1
 64
     0
275
    -2
285
     1
 65
     0
276
    -2
286
     1
 66
     0
277
    -2
287
     1
 67
     0
278
    -2
288
     1
 68
     0
279
    -2
289
     1
 69
     0
  0
DICTIONARYVAR
  5
62
102
{ACAD_REACTORS
330
3D
102
}
330
3D
100
DictionaryVariables
280
     0
  1
1:1
  0
DICTIONARYVAR
  5
338
102
{ACAD_REACTORS
330
3D
102
}
330
3D
100
DictionaryVariables
280
     0
  1
Standard
  0
DICTIONARYVAR
  5
3E
102
{ACAD_REACTORS
330
3D
102
}
330
3D
100
DictionaryVariables
280
     0
  1
Standard
  0
DICTIONARYVAR
  5
6F
102
{ACAD_REACTORS
330
3D
102
}
330
3D
100
DictionaryVariables
280
     0
  1
0
  0
DICTIONARYVAR
  5
70
102
{ACAD_REACTORS
330
3D
102
}
330
3D
100
DictionaryVariables
280
     0
  1
0
  0
DICTIONARY
  5
33E
330
3C
100
AcDbDictionary
280
     1
281
     1
  3
ACAD_ROUNDTRIP_2008_TABLESTYLE_CELLSTYLEMAP
360
340
  3
ACAD_XREC_ROUNDTRIP
360
33F
  0
CELLSTYLEMAP
  5
340
102
{ACAD_REACTORS
330
33E
102
}
330
33E
100
AcDbCellStyleMap
 90
        3
300
CELLSTYLE
  1
TABLEFORMAT_BEGIN
 90
        5
170
     1
 91
        0
 92
    32768
 62
   257
 93
        1
300
CONTENTFORMAT
  1
CONTENTFORMAT_BEGIN
 90
        0
 91
        0
 92
      512
 93
        0
300

 40
0.0
140
1.0
 94
        5
 62
     0
340
11
144
6.0
309
CONTENTFORMAT_END
171
     1
301
MARGIN
  1
CELLMARGIN_BEGIN
 40
1.5
 40
1.5
 40
1.5
 40
1.5
 40
0.18
 40
0.18
309
CELLMARGIN_END
 94
        6
 95
        1
302
GRIDFORMAT
  1
GRIDFORMAT_BEGIN
 90
        0
 91
        1
 62
     0
 92
       -2
340
0
 93
        0
 40
0.045
309
GRIDFORMAT_END
 95
        2
302
GRIDFORMAT
  1
GRIDFORMAT_BEGIN
 90
        0
 91
        1
 62
     0
 92
       -2
340
0
 93
        0
 40
0.045
309
GRIDFORMAT_END
 95
        4
302
GRIDFORMAT
  1
GRIDFORMAT_BEGIN
 90
        0
 91
        1
 62
     0
 92
       -2
340
0
 93
        0
 40
0.045
309
GRIDFORMAT_END
 95
        8
302
GRIDFORMAT
  1
GRIDFORMAT_BEGIN
 90
        0
 91
        1
 62
     0
 92
       -2
340
0
 93
        0
 40
0.045
309
GRIDFORMAT_END
 95
       16
302
GRIDFORMAT
  1
GRIDFORMAT_BEGIN
 90
        0
 91
        1
 62
     0
 92
       -2
340
0
 93
        0
 40
0.045
309
GRIDFORMAT_END
 95
       32
302
GRIDFORMAT
  1
GRIDFORMAT_BEGIN
 90
        0
 91
        1
 62
     0
 92
       -2
340
0
 93
        0
 40
0.045
309
GRIDFORMAT_END
309
TABLEFORMAT_END
  1
CELLSTYLE_BEGIN
 90
        1
 91
        1
300
_TITLE
309
CELLSTYLE_END
300
CELLSTYLE
  1
TABLEFORMAT_BEGIN
 90
        5
170
     1
 91
        0
 92
        0
 62
   257
 93
        1
300
CONTENTFORMAT
  1
CONTENTFORMAT_BEGIN
 90
        0
 91
        0
 92
      512
 93
        0
300

 40
0.0
140
1.0
 94
        5
 62
     0
340
11
144
4.5
309
CONTENTFORMAT_END
171
     1
301
MARGIN
  1
CELLMARGIN_BEGIN
 40
1.5
 40
1.5
 40
1.5
 40
1.5
 40
0.18
 40
0.18
309
CELLMARGIN_END
 94
        6
 95
        1
302
GRIDFORMAT
  1
GRIDFORMAT_BEGIN
 90
        0
 91
        1
 62
     0
 92
       -2
340
0
 93
        0
 40
0.045
309
GRIDFORMAT_END
 95
        2
302
GRIDFORMAT
  1
GRIDFORMAT_BEGIN
 90
        0
 91
        1
 62
     0
 92
       -2
340
0
 93
        0
 40
0.045
309
GRIDFORMAT_END
 95
        4
302
GRIDFORMAT
  1
GRIDFORMAT_BEGIN
 90
        0
 91
        1
 62
     0
 92
       -2
340
0
 93
        0
 40
0.045
309
GRIDFORMAT_END
 95
        8
302
GRIDFORMAT
  1
GRIDFORMAT_BEGIN
 90
        0
 91
        1
 62
     0
 92
       -2
340
0
 93
        0
 40
0.045
309
GRIDFORMAT_END
 95
       16
302
GRIDFORMAT
  1
GRIDFORMAT_BEGIN
 90
        0
 91
        1
 62
     0
 92
       -2
340
0
 93
        0
 40
0.045
309
GRIDFORMAT_END
 95
       32
302
GRIDFORMAT
  1
GRIDFORMAT_BEGIN
 90
        0
 91
        1
 62
     0
 92
       -2
340
0
 93
        0
 40
0.045
309
GRIDFORMAT_END
309
TABLEFORMAT_END
  1
CELLSTYLE_BEGIN
 90
        2
 91
        1
300
_HEADER
309
CELLSTYLE_END
300
CELLSTYLE
  1
TABLEFORMAT_BEGIN
 90
        5
170
     1
 91
        0
 92
        0
 62
   257
 93
        1
300
CONTENTFORMAT
  1
CONTENTFORMAT_BEGIN
 90
        0
 91
        0
 92
      512
 93
        0
300

 40
0.0
140
1.0
 94
        2
 62
     0
340
11
144
4.5
309
CONTENTFORMAT_END
171
     1
301
MARGIN
  1
CELLMARGIN_BEGIN
 40
1.5
 40
1.5
 40
1.5
 40
1.5
 40
0.18
 40
0.18
309
CELLMARGIN_END
 94
        6
 95
        1
302
GRIDFORMAT
  1
GRIDFORMAT_BEGIN
 90
        0
 91
        1
 62
     0
 92
       -2
340
0
 93
        0
 40
0.045
309
GRIDFORMAT_END
 95
        2
302
GRIDFORMAT
  1
GRIDFORMAT_BEGIN
 90
        0
 91
        1
 62
     0
 92
       -2
340
0
 93
        0
 40
0.045
309
GRIDFORMAT_END
 95
        4
302
GRIDFORMAT
  1
GRIDFORMAT_BEGIN
 90
        0
 91
        1
 62
     0
 92
       -2
340
0
 93
        0
 40
0.045
309
GRIDFORMAT_END
 95
        8
302
GRIDFORMAT
  1
GRIDFORMAT_BEGIN
 90
        0
 91
        1
 62
     0
 92
       -2
340
0
 93
        0
 40
0.045
309
GRIDFORMAT_END
 95
       16
302
GRIDFORMAT
  1
GRIDFORMAT_BEGIN
 90
        0
 91
        1
 62
     0
 92
       -2
340
0
 93
        0
 40
0.045
309
GRIDFORMAT_END
 95
       32
302
GRIDFORMAT
  1
GRIDFORMAT_BEGIN
 90
        0
 91
        1
 62
     0
 92
       -2
340
0
 93
        0
 40
0.045
309
GRIDFORMAT_END
309
TABLEFORMAT_END
  1
CELLSTYLE_BEGIN
 90
        3
 91
        2
300
_DATA
309
CELLSTYLE_END
  0
XRECORD
  5
33F
102
{ACAD_REACTORS
330
33E
102
}
330
33E
100
AcDbXrecord
280
     1
102
ACAD_ROUNDTRIP_PRE2007_TABLESTYLE
 90
      512
 91
        0
  1

 92
      512
 93
        0
  2

 94
      512
 95
        0
  3

  0
ENDSEC
  0
EOF
