  0
SECTION
  2
HEADER
  9
$ACADVER
  1
AC1018
  9
$ACADMAINTVER
 70
     0
  9
$DWGCODEPAGE
  3
ANSI_932
  9
$LASTSAVEDBY
  1
小谷 浩和
  9
$INSBASE
 10
0.0
 20
0.0
 30
0.0
  9
$EXTMIN
 10
5.838463609440851
 20
6.247285291214155
 30
0.0
  9
$EXTMAX
 10
1805.894122851987
 20
1207.795773198707
 30
0.0
  9
$LIMMIN
 10
0.0
 20
0.0
  9
$LIMMAX
 10
420.0
 20
297.0
  9
$ORTHOMODE
 70
     0
  9
$REGENMODE
 70
     1
  9
$FILLMODE
 70
     1
  9
$QTEXTMODE
 70
     0
  9
$MIRRTEXT
 70
     0
  9
$LTSCALE
 40
1.0
  9
$ATTMODE
 70
     1
  9
$TEXTSIZE
 40
2.5
  9
$TRACEWID
 40
1.0
  9
$TEXTSTYLE
  7
Standard
  9
$CLAYER
  8
C寸法
  9
$CELTYPE
  6
ByLayer
  9
$CECOLOR
 62
   256
  9
$CELTSCALE
 40
1.0
  9
$DISPSILH
 70
     0
  9
$DIMSCALE
 40
1.0
  9
$DIMASZ
 40
2.5
  9
$DIMEXO
 40
0.625
  9
$DIMDLI
 40
3.75
  9
$DIMRND
 40
0.0
  9
$DIMDLE
 40
0.0
  9
$DIMEXE
 40
1.25
  9
$DIMTP
 40
0.0
  9
$DIMTM
 40
0.0
  9
$DIMTXT
 40
2.5
  9
$DIMCEN
 40
2.5
  9
$DIMTSZ
 40
0.0
  9
$DIMTOL
 70
     0
  9
$DIMLIM
 70
     0
  9
$DIMTIH
 70
     0
  9
$DIMTOH
 70
     0
  9
$DIMSE1
 70
     0
  9
$DIMSE2
 70
     0
  9
$DIMTAD
 70
     1
  9
$DIMZIN
 70
     8
  9
$DIMBLK
  1
OPEN
  9
$DIMASO
 70
     1
  9
$DIMSHO
 70
     1
  9
$DIMPOST
  1

  9
$DIMAPOST
  1

  9
$DIMALT
 70
     0
  9
$DIMALTD
 70
     3
  9
$DIMALTF
 40
0.03937007874016
  9
$DIMLFAC
 40
1.0
  9
$DIMTOFL
 70
     1
  9
$DIMTVP
 40
0.0
  9
$DIMTIX
 70
     0
  9
$DIMSOXD
 70
     0
  9
$DIMSAH
 70
     0
  9
$DIMBLK1
  1

  9
$DIMBLK2
  1

  9
$DIMSTYLE
  2
JIS-1
  9
$DIMCLRD
 70
     0
  9
$DIMCLRE
 70
     0
  9
$DIMCLRT
 70
     0
  9
$DIMTFAC
 40
1.0
  9
$DIMGAP
 40
0.625
  9
$DIMJUST
 70
     0
  9
$DIMSD1
 70
     0
  9
$DIMSD2
 70
     0
  9
$DIMTOLJ
 70
     0
  9
$DIMTZIN
 70
     8
  9
$DIMALTZ
 70
     0
  9
$DIMALTTZ
 70
     0
  9
$DIMUPT
 70
     0
  9
$DIMDEC
 70
     2
  9
$DIMTDEC
 70
     2
  9
$DIMALTU
 70
     2
  9
$DIMALTTD
 70
     3
  9
$DIMTXSTY
  7
Standard
  9
$DIMAUNIT
 70
     0
  9
$DIMADEC
 70
     0
  9
$DIMALTRND
 40
0.0
  9
$DIMAZIN
 70
     0
  9
$DIMDSEP
 70
    44
  9
$DIMATFIT
 70
     3
  9
$DIMFRAC
 70
     0
  9
$DIMLDRBLK
  1
OPEN
  9
$DIMLUNIT
 70
     2
  9
$DIMLWD
 70
    -2
  9
$DIMLWE
 70
    -2
  9
$DIMTMOVE
 70
     0
  9
$LUNITS
 70
     2
  9
$LUPREC
 70
     3
  9
$SKETCHINC
 40
1.0
  9
$FILLETRAD
 40
10.0
  9
$AUNITS
 70
     0
  9
$AUPREC
 70
     0
  9
$MENU
  1
.
  9
$ELEVATION
 40
0.0
  9
$PELEVATION
 40
0.0
  9
$THICKNESS
 40
0.0
  9
$LIMCHECK
 70
     0
  9
$CHAMFERA
 40
10.0
  9
$CHAMFERB
 40
10.0
  9
$CHAMFERC
 40
20.0
  9
$CHAMFERD
 40
0.0
  9
$SKPOLY
 70
     0
  9
$TDCREATE
 40
2455023.012359514
  9
$TDUCREATE
 40
2455022.637359514
  9
$TDUPDATE
 40
2457241.750475012
  9
$TDUUPDATE
 40
2457241.375475012
  9
$TDINDWG
 40
0.0052533912
  9
$TDUSRTIMER
 40
2457241.37538728
  9
$USRTIMER
 70
     1
  9
$ANGBASE
 50
0.0
  9
$ANGDIR
 70
     0
  9
$PDMODE
 70
     0
  9
$PDSIZE
 40
0.0
  9
$PLINEWID
 40
0.0
  9
$SPLFRAME
 70
     0
  9
$SPLINETYPE
 70
     6
  9
$SPLINESEGS
 70
     8
  9
$HANDSEED
  5
431
  9
$SURFTAB1
 70
     6
  9
$SURFTAB2
 70
     6
  9
$SURFTYPE
 70
     6
  9
$SURFU
 70
     6
  9
$SURFV
 70
     6
  9
$UCSBASE
  2

  9
$UCSNAME
  2

  9
$UCSORG
 10
0.0
 20
0.0
 30
0.0
  9
$UCSXDIR
 10
1.0
 20
0.0
 30
0.0
  9
$UCSYDIR
 10
0.0
 20
1.0
 30
0.0
  9
$UCSORTHOREF
  2

  9
$UCSORTHOVIEW
 70
     0
  9
$UCSORGTOP
 10
0.0
 20
0.0
 30
0.0
  9
$UCSORGBOTTOM
 10
0.0
 20
0.0
 30
0.0
  9
$UCSORGLEFT
 10
0.0
 20
0.0
 30
0.0
  9
$UCSORGRIGHT
 10
0.0
 20
0.0
 30
0.0
  9
$UCSORGFRONT
 10
0.0
 20
0.0
 30
0.0
  9
$UCSORGBACK
 10
0.0
 20
0.0
 30
0.0
  9
$PUCSBASE
  2

  9
$PUCSNAME
  2

  9
$PUCSORG
 10
0.0
 20
0.0
 30
0.0
  9
$PUCSXDIR
 10
1.0
 20
0.0
 30
0.0
  9
$PUCSYDIR
 10
0.0
 20
1.0
 30
0.0
  9
$PUCSORTHOREF
  2

  9
$PUCSORTHOVIEW
 70
     0
  9
$PUCSORGTOP
 10
0.0
 20
0.0
 30
0.0
  9
$PUCSORGBOTTOM
 10
0.0
 20
0.0
 30
0.0
  9
$PUCSORGLEFT
 10
0.0
 20
0.0
 30
0.0
  9
$PUCSORGRIGHT
 10
0.0
 20
0.0
 30
0.0
  9
$PUCSORGFRONT
 10
0.0
 20
0.0
 30
0.0
  9
$PUCSORGBACK
 10
0.0
 20
0.0
 30
0.0
  9
$USERI1
 70
     0
  9
$USERI2
 70
     0
  9
$USERI3
 70
     0
  9
$USERI4
 70
     0
  9
$USERI5
 70
     0
  9
$USERR1
 40
0.0
  9
$USERR2
 40
0.0
  9
$USERR3
 40
0.0
  9
$USERR4
 40
0.0
  9
$USERR5
 40
0.0
  9
$WORLDVIEW
 70
     1
  9
$SHADEDGE
 70
     3
  9
$SHADEDIF
 70
    70
  9
$TILEMODE
 70
     1
  9
$MAXACTVP
 70
    64
  9
$PINSBASE
 10
0.0
 20
0.0
 30
0.0
  9
$PLIMCHECK
 70
     0
  9
$PEXTMIN
 10
1.000000000000000E+20
 20
1.000000000000000E+20
 30
1.000000000000000E+20
  9
$PEXTMAX
 10
-1.000000000000000E+20
 20
-1.000000000000000E+20
 30
-1.000000000000000E+20
  9
$PLIMMIN
 10
0.0
 20
0.0
  9
$PLIMMAX
 10
0.0
 20
0.0
  9
$UNITMODE
 70
     0
  9
$VISRETAIN
 70
     1
  9
$PLINEGEN
 70
     0
  9
$PSLTSCALE
 70
     1
  9
$TREEDEPTH
 70
  3020
  9
$CMLSTYLE
  2
Standard
  9
$CMLJUST
 70
     0
  9
$CMLSCALE
 40
20.0
  9
$PROXYGRAPHICS
 70
     1
  9
$MEASUREMENT
 70
     1
  9
$CELWEIGHT
370
    -1
  9
$ENDCAPS
280
     0
  9
$JOINSTYLE
280
     0
  9
$LWDISPLAY
290
     0
  9
$INSUNITS
 70
     4
  9
$HYPERLINKBASE
  1

  9
$STYLESHEET
  1

  9
$XEDIT
290
     1
  9
$CEPSNTYPE
380
     0
  9
$PSTYLEMODE
290
     0
  9
$FINGERPRINTGUID
  2
{EC6BB858-51AA-46EC-B484-6C9CC7AB3E2E}
  9
$VERSIONGUID
  2
{FAEB1C32-E019-11D5-929B-00C0DF256EC4}
  9
$EXTNAMES
290
     1
  9
$PSVPSCALE
 40
0.0
  9
$OLESTARTUP
290
     0
  9
$SORTENTS
280
   127
  9
$INDEXCTL
280
     0
  9
$HIDETEXT
280
     1
  9
$XCLIPFRAME
290
     0
  9
$HALOGAP
280
     0
  9
$OBSCOLOR
 70
   257
  9
$OBSLTYPE
280
     0
  9
$INTERSECTIONDISPLAY
280
     0
  9
$INTERSECTIONCOLOR
 70
   257
  9
$DIMASSOC
280
     2
  9
$PROJECTNAME
  1

  0
ENDSEC
  0
SECTION
  2
CLASSES
  0
CLASS
  1
ACDBDICTIONARYWDFLT
  2
AcDbDictionaryWithDefault
  3
ObjectDBX Classes
 90
        0
 91
        4
280
     0
281
     0
  0
CLASS
  1
VISUALSTYLE
  2
AcDbVisualStyle
  3
ObjectDBX Classes
 90
     4095
 91
        4
280
     0
281
     0
  0
CLASS
  1
TABLESTYLE
  2
AcDbTableStyle
  3
ObjectDBX Classes
 90
     4095
 91
        4
280
     0
281
     0
  0
CLASS
  1
DICTIONARYVAR
  2
AcDbDictionaryVar
  3
ObjectDBX Classes
 90
        0
 91
        4
280
     0
281
     0
  0
CLASS
  1
SCALE
  2
AcDbScale
  3
ObjectDBX Classes
 90
     1153
 91
        4
280
     0
281
     0
  0
CLASS
  1
CELLSTYLEMAP
  2
AcDbCellStyleMap
  3
ObjectDBX Classes
 90
     1152
 91
        4
280
     0
281
     0
  0
CLASS
  1
RASTERVARIABLES
  2
AcDbRasterVariables
  3
ISM
 90
        0
 91
        4
280
     0
281
     0
  0
CLASS
  1
DIMASSOC
  2
AcDbDimAssoc
  3
"AcDbDimAssoc|Product Desc:     AcDim ARX App For Dimension|Company:          Autodesk, Inc.|WEB Address:      www.autodesk.com"
 90
        0
 91
        4
280
     0
281
     0
  0
CLASS
  1
MATERIAL
  2
AcDbMaterial
  3
ObjectDBX Classes
 90
     1153
 91
        4
280
     0
281
     0
  0
CLASS
  1
SUN
  2
AcDbSun
  3
SCENEOE
 90
     1153
 91
        4
280
     0
281
     0
  0
CLASS
  1
MLEADERSTYLE
  2
AcDbMLeaderStyle
  3
ACDB_MLEADERSTYLE_CLASS
 90
     4095
 91
        4
280
     0
281
     0
  0
CLASS
  1
SORTENTSTABLE
  2
AcDbSortentsTable
  3
ObjectDBX Classes
 90
        0
 91
        4
280
     0
281
     0
  0
ENDSEC
  0
SECTION
  2
TABLES
  0
TABLE
  2
VPORT
  5
8
330
0
100
AcDbSymbolTable
 70
     1
  0
VPORT
  5
29
330
8
100
AcDbSymbolTableRecord
100
AcDbViewportTableRecord
  2
*Active
 70
     0
 10
0.0
 20
0.0
 11
1.0
 21
1.0
 12
660.358035971368
 22
601.116849051332
 13
0.0
 23
0.0
 14
10.0
 24
10.0
 15
10.0
 25
10.0
 16
0.0
 26
0.0
 36
1.0
 17
-134.1869158878499
 27
0.0
 37
0.0
 40
1840.106591302805
 41
1.664884135472371
 42
50.0
 43
0.0
 44
0.0
 50
0.0
 51
0.0
 71
    16
 72
  1000
 73
     1
 74
     3
 75
     0
 76
     0
 77
     0
 78
     0
281
     0
 65
     1
110
0.0
120
0.0
130
0.0
111
1.0
121
0.0
131
0.0
112
0.0
122
1.0
132
0.0
 79
     0
146
0.0
  0
ENDTAB
  0
TABLE
  2
LTYPE
  5
5
330
0
100
AcDbSymbolTable
 70
     2
  0
LTYPE
  5
14
330
5
100
AcDbSymbolTableRecord
100
AcDbLinetypeTableRecord
  2
ByBlock
 70
     0
  3

 72
    65
 73
     0
 40
0.0
  0
LTYPE
  5
15
330
5
100
AcDbSymbolTableRecord
100
AcDbLinetypeTableRecord
  2
ByLayer
 70
     0
  3

 72
    65
 73
     0
 40
0.0
  0
LTYPE
  5
16
330
5
100
AcDbSymbolTableRecord
100
AcDbLinetypeTableRecord
  2
Continuous
 70
     0
  3
Solid line
 72
    65
 73
     0
 40
0.0
  0
LTYPE
  5
E2
330
5
100
AcDbSymbolTableRecord
100
AcDbLinetypeTableRecord
  2
CENTER
 70
     0
  3
 Center ____ _ ____ _ ____ _ ____ _ ____ _ ____
 72
    65
 73
     4
 40
2.0
 49
1.25
 74
     0
 49
-0.25
 74
     0
 49
0.25
 74
     0
 49
-0.25
 74
     0
  0
ENDTAB
  0
TABLE
  2
LAYER
  5
2
102
{ACAD_XDICTIONARY
360
251
102
}
330
0
100
AcDbSymbolTable
 70
     5
  0
LAYER
  5
10
330
2
100
AcDbSymbolTableRecord
100
AcDbLayerTableRecord
  2
0
 70
     0
 62
     7
  6
Continuous
370
    -3
390
F
  0
LAYER
  5
7E
330
2
100
AcDbSymbolTableRecord
100
AcDbLayerTableRecord
  2
Defpoints
 70
     0
 62
     7
  6
Continuous
290
     0
370
    -3
390
F
  0
LAYER
  5
DE
330
2
100
AcDbSymbolTableRecord
100
AcDbLayerTableRecord
  2
C2
 70
     0
 62
     1
  6
CENTER
370
    -3
390
F
  0
LAYER
  5
E3
330
2
100
AcDbSymbolTableRecord
100
AcDbLayerTableRecord
  2
C4
 70
     0
 62
     3
  6
Continuous
370
    -3
390
F
  0
LAYER
  5
E4
330
2
100
AcDbSymbolTableRecord
100
AcDbLayerTableRecord
  2
C寸法
 70
     0
 62
     4
  6
Continuous
370
    -3
390
F
  0
ENDTAB
  0
TABLE
  2
STYLE
  5
3
330
0
100
AcDbSymbolTable
 70
     2
  0
STYLE
  5
11
330
3
100
AcDbSymbolTableRecord
100
AcDbTextStyleTableRecord
  2
Standard
 70
     0
 40
0.138
 41
1.0
 50
0.0
 71
     0
 42
2.5
  3
arial.ttf
  4

1001
ACAD
1000
Arial
1071
        0
  0
STYLE
  5
F3
330
3
100
AcDbSymbolTableRecord
100
AcDbTextStyleTableRecord
  2
KANJI
 70
     0
 40
0.0
 41
1.0
 50
0.0
 71
     0
 42
2.5
  3
romans
  4
bigfont
  0
ENDTAB
  0
TABLE
  2
VIEW
  5
6
330
0
100
AcDbSymbolTable
 70
     0
  0
ENDTAB
  0
TABLE
  2
UCS
  5
7
330
0
100
AcDbSymbolTable
 70
     0
  0
ENDTAB
  0
TABLE
  2
APPID
  5
9
330
0
100
AcDbSymbolTable
 70
     8
  0
APPID
  5
12
330
9
100
AcDbSymbolTableRecord
100
AcDbRegAppTableRecord
  2
ACAD
 70
     0
  0
APPID
  5
EE
330
9
100
AcDbSymbolTableRecord
100
AcDbRegAppTableRecord
  2
ACAD_DSTYLE_DIMBREAK
 70
     0
  0
APPID
  5
EF
330
9
100
AcDbSymbolTableRecord
100
AcDbRegAppTableRecord
  2
ACAD_DSTYLE_DIMJAG
 70
     0
  0
APPID
  5
F0
330
9
100
AcDbSymbolTableRecord
100
AcDbRegAppTableRecord
  2
ACAD_DSTYLE_DIMTALN
 70
     0
  0
APPID
  5
F1
330
9
100
AcDbSymbolTableRecord
100
AcDbRegAppTableRecord
  2
ACAD_NAV_VCDISPLAY
 70
     0
  0
APPID
  5
F2
330
9
100
AcDbSymbolTableRecord
100
AcDbRegAppTableRecord
  2
PLOTTRANSPARENCY
 70
     0
  0
APPID
  5
3A7
330
9
100
AcDbSymbolTableRecord
100
AcDbRegAppTableRecord
  2
ACAD_DSTYLE_DIMRADIAL_EXTENSION
 70
     0
  0
APPID
  5
42F
330
9
100
AcDbSymbolTableRecord
100
AcDbRegAppTableRecord
  2
ACAD_MLEADERVER
 70
     0
  0
ENDTAB
  0
TABLE
  2
DIMSTYLE
  5
A
330
0
100
AcDbSymbolTable
 70
     5
100
AcDbDimStyleTable
  0
DIMSTYLE
105
27
330
A
100
AcDbSymbolTableRecord
100
AcDbDimStyleTableRecord
  2
ISO-25
 70
     0
 41
2.5
 42
0.625
 43
3.75
 44
1.25
 73
     0
 74
     0
 77
     1
 78
     8
140
2.5
141
2.5
143
0.03937007874016
147
0.625
171
     3
172
     1
178
     0
271
     2
272
     2
274
     3
278
    44
283
     0
284
     8
340
11
  0
DIMSTYLE
105
72
330
A
100
AcDbSymbolTableRecord
100
AcDbDimStyleTableRecord
  2
GB-1
 70
     0
 41
2.5
 42
0.625
 43
3.75
 44
1.25
 73
     0
 74
     0
 77
     1
 78
     8
140
2.5
141
2.5
143
0.03937007874016
147
0.625
171
     3
172
     1
178
     0
271
     2
272
     2
274
     3
278
    44
283
     0
284
     8
340
11
341
76
342
76
  0
DIMSTYLE
105
8E
102
{ACAD_REACTORS
330
393
330
40D
330
40E
330
411
102
}
330
A
100
AcDbSymbolTableRecord
100
AcDbDimStyleTableRecord
  2
JIS-1
 70
     0
 41
2.5
 42
0.625
 43
3.75
 44
1.25
 73
     0
 74
     0
 77
     1
 78
     8
140
2.5
141
2.5
143
0.03937007874016
147
0.625
171
     3
172
     1
178
     0
271
     2
272
     2
274
     3
278
    44
283
     0
284
     8
340
11
341
90
342
90
  0
DIMSTYLE
105
E5
330
A
100
AcDbSymbolTableRecord
100
AcDbDimStyleTableRecord
  2
Standard
 70
     0
178
     0
340
11
  0
DIMSTYLE
105
E7
102
{ACAD_REACTORS
330
2E6
330
2E7
330
2E8
330
2E9
330
2EA
330
2EB
330
2EC
330
2ED
330
2EE
330
2F1
330
2F2
330
2F5
102
}
330
A
100
AcDbSymbolTableRecord
100
AcDbDimStyleTableRecord
  2
実寸
 70
     0
 41
25.0
 42
10.0
 43
6.0
 44
0.0
 47
5.0
 73
     0
 74
     0
 77
     1
 78
     8
140
25.0
141
0.0
144
5.0
147
5.0
178
     0
271
     1
272
     1
284
     8
340
11
341
90
342
90
1001
ACAD_DSTYLE_DIMBREAK
1070
   391
1040
0.125
1001
ACAD_DSTYLE_DIMJAG
1070
   388
1040
1.5
1001
ACAD_DSTYLE_DIMTALN
1070
   392
1070
     0
  0
ENDTAB
  0
TABLE
  2
BLOCK_RECORD
  5
1
330
0
100
AcDbSymbolTable
 70
    39
  0
BLOCK_RECORD
  5
1F
330
1
100
AcDbSymbolTableRecord
100
AcDbBlockTableRecord
  2
*Model_Space
340
22
  0
BLOCK_RECORD
  5
1B
330
1
100
AcDbSymbolTableRecord
100
AcDbBlockTableRecord
  2
*Paper_Space
340
1E
  0
BLOCK_RECORD
  5
23
330
1
100
AcDbSymbolTableRecord
100
AcDbBlockTableRecord
  2
*Paper_Space0
340
26
  0
BLOCK_RECORD
  5
76
330
1
100
AcDbSymbolTableRecord
100
AcDbBlockTableRecord
  2
_CLOSED
340
0
  0
BLOCK_RECORD
  5
90
330
1
100
AcDbSymbolTableRecord
100
AcDbBlockTableRecord
  2
_OPEN
340
0
102
{BLKREFS
331
2FE
331
2FF
331
30A
331
30B
331
319
331
31A
331
325
331
326
331
331
331
332
331
33D
331
33E
331
34C
331
34D
331
358
331
359
331
364
331
365
331
372
331
373
331
380
331
381
331
38C
331
38D
331
39C
331
39D
331
419
331
421
331
429
102
}
  0
BLOCK_RECORD
  5
2F8
330
1
100
AcDbSymbolTableRecord
100
AcDbBlockTableRecord
  2
*D17
340
0
  0
BLOCK_RECORD
  5
304
330
1
100
AcDbSymbolTableRecord
100
AcDbBlockTableRecord
  2
*D18
340
0
  0
BLOCK_RECORD
  5
310
330
1
100
AcDbSymbolTableRecord
100
AcDbBlockTableRecord
  2
*D19
340
0
  0
BLOCK_RECORD
  5
31F
330
1
100
AcDbSymbolTableRecord
100
AcDbBlockTableRecord
  2
*D20
340
0
  0
BLOCK_RECORD
  5
32B
330
1
100
AcDbSymbolTableRecord
100
AcDbBlockTableRecord
  2
*D21
340
0
  0
BLOCK_RECORD
  5
337
330
1
100
AcDbSymbolTableRecord
100
AcDbBlockTableRecord
  2
*D22
340
0
  0
BLOCK_RECORD
  5
343
330
1
100
AcDbSymbolTableRecord
100
AcDbBlockTableRecord
  2
*D23
340
0
  0
BLOCK_RECORD
  5
352
330
1
100
AcDbSymbolTableRecord
100
AcDbBlockTableRecord
  2
*D24
340
0
  0
BLOCK_RECORD
  5
35E
330
1
100
AcDbSymbolTableRecord
100
AcDbBlockTableRecord
  2
*D25
340
0
  0
BLOCK_RECORD
  5
36A
330
1
100
AcDbSymbolTableRecord
100
AcDbBlockTableRecord
  2
*D26
340
0
  0
BLOCK_RECORD
  5
378
330
1
100
AcDbSymbolTableRecord
100
AcDbBlockTableRecord
  2
*D27
340
0
  0
BLOCK_RECORD
  5
386
330
1
100
AcDbSymbolTableRecord
100
AcDbBlockTableRecord
  2
*D28
340
0
  0
BLOCK_RECORD
  5
394
330
1
100
AcDbSymbolTableRecord
100
AcDbBlockTableRecord
  2
*D29
340
0
  0
BLOCK_RECORD
  5
414
330
1
100
AcDbSymbolTableRecord
100
AcDbBlockTableRecord
  2
*D36
340
0
  0
BLOCK_RECORD
  5
41C
330
1
100
AcDbSymbolTableRecord
100
AcDbBlockTableRecord
  2
*D37
340
0
  0
BLOCK_RECORD
  5
424
330
1
100
AcDbSymbolTableRecord
100
AcDbBlockTableRecord
  2
*D38
340
0
  0
ENDTAB
  0
ENDSEC
  0
SECTION
  2
BLOCKS
  0
BLOCK
  5
20
330
1F
100
AcDbEntity
  8
0
100
AcDbBlockBegin
  2
*Model_Space
 70
     0
 10
0.0
 20
0.0
 30
0.0
  3
*Model_Space
  1
*Model_Space
  0
ENDBLK
  5
21
330
1F
100
AcDbEntity
  8
0
100
AcDbBlockEnd
  0
BLOCK
  5
1C
330
1B
100
AcDbEntity
 67
     1
  8
0
100
AcDbBlockBegin
  2
*Paper_Space
 70
     0
 10
0.0
 20
0.0
 30
0.0
  3
*Paper_Space
  1
*Paper_Space
  0
ENDBLK
  5
1D
330
1B
100
AcDbEntity
 67
     1
  8
0
100
AcDbBlockEnd
  0
BLOCK
  5
24
330
23
100
AcDbEntity
  8
0
100
AcDbBlockBegin
  2
*Paper_Space0
 70
     0
 10
0.0
 20
0.0
 30
0.0
  3
*Paper_Space0
  1
*Paper_Space0
  0
ENDBLK
  5
25
330
23
100
AcDbEntity
  8
0
100
AcDbBlockEnd
  0
BLOCK
  5
77
330
76
100
AcDbEntity
  8
0
100
AcDbBlockBegin
  2
_CLOSED
 70
     0
 10
0.0
 20
0.0
 30
0.0
  3
_CLOSED
  1
_CLOSED
  0
LINE
  5
78
330
76
100
AcDbEntity
  8
0
  6
ByBlock
 62
     0
370
    -2
100
AcDbLine
 10
-1.0
 20
0.166667
 30
0.0
 11
0.0
 21
0.0
 31
0.0
  0
LINE
  5
79
330
76
100
AcDbEntity
  8
0
  6
ByBlock
 62
     0
370
    -2
100
AcDbLine
 10
0.0
 20
0.0
 30
0.0
 11
-1.0
 21
-0.166667
 31
0.0
  0
LINE
  5
7A
330
76
100
AcDbEntity
  8
0
  6
ByBlock
 62
     0
370
    -2
100
AcDbLine
 10
-1.0
 20
0.166667
 30
0.0
 11
-1.0
 21
-0.166667
 31
0.0
  0
LINE
  5
7B
330
76
100
AcDbEntity
  8
0
  6
ByBlock
 62
     0
370
    -2
100
AcDbLine
 10
0.0
 20
0.0
 30
0.0
 11
-1.0
 21
0.0
 31
0.0
  0
ENDBLK
  5
7C
330
76
100
AcDbEntity
  8
0
100
AcDbBlockEnd
  0
BLOCK
  5
91
330
90
100
AcDbEntity
  8
0
100
AcDbBlockBegin
  2
_OPEN
 70
     0
 10
0.0
 20
0.0
 30
0.0
  3
_OPEN
  1
_OPEN
  0
LINE
  5
92
330
90
100
AcDbEntity
  8
0
  6
ByBlock
 62
     0
370
    -2
100
AcDbLine
 10
-1.0
 20
0.166667
 30
0.0
 11
0.0
 21
0.0
 31
0.0
  0
LINE
  5
93
330
90
100
AcDbEntity
  8
0
  6
ByBlock
 62
     0
370
    -2
100
AcDbLine
 10
-1.0
 20
-0.166667
 30
0.0
 11
0.0
 21
0.0
 31
0.0
  0
LINE
  5
94
330
90
100
AcDbEntity
  8
0
  6
ByBlock
 62
     0
370
    -2
100
AcDbLine
 10
0.0
 20
0.0
 30
0.0
 11
-1.0
 21
0.0
 31
0.0
  0
ENDBLK
  5
95
330
90
100
AcDbEntity
  8
0
100
AcDbBlockEnd
  0
BLOCK
  5
2F9
330
2F8
100
AcDbEntity
  8
0
100
AcDbBlockBegin
  2
*D17
 70
     1
 10
0.0
 20
0.0
 30
0.0
  3
*D17
  1
*D17
  0
LINE
  5
2FB
330
2F8
100
AcDbEntity
  8
C寸法
 62
     0
370
    -2
100
AcDbLine
 10
885.772162399903
 20
1047.15134812338
 30
0.0
 11
1215.774162401977
 21
1047.15134812338
 31
0.0
  0
LINE
  5
2FC
330
2F8
100
AcDbEntity
  8
C寸法
 62
     0
370
    -2
100
AcDbLine
 10
975.7741624019734
 20
527.1513481151496
 30
0.0
 11
1215.774162401977
 21
527.1513481151496
 31
0.0
  0
LINE
  5
2FD
330
2F8
100
AcDbEntity
  8
C寸法
 62
     0
370
    -2
100
AcDbLine
 10
1215.774162401977
 20
1022.15134812338
 30
0.0
 11
1215.774162401977
 21
552.1513481151496
 31
0.0
  0
INSERT
  5
2FE
330
2F8
100
AcDbEntity
  8
C寸法
 62
     0
370
    -2
100
AcDbBlockReference
  2
_OPEN
 10
1215.774162401977
 20
1047.15134812338
 30
0.0
 41
25.0
 42
25.0
 43
25.0
 50
90.0
  0
INSERT
  5
2FF
330
2F8
100
AcDbEntity
  8
C寸法
 62
     0
370
    -2
100
AcDbBlockReference
  2
_OPEN
 10
1215.774162401977
 20
527.1513481151496
 30
0.0
 41
25.0
 42
25.0
 43
25.0
 50
270.0
  0
MTEXT
  5
300
330
2F8
100
AcDbEntity
  8
C寸法
 62
     0
370
    13
100
AcDbMText
 10
1198.274162401977
 20
787.1513481192646
 30
0.0
 40
25.0
 41
0.0
 71
     5
 72
     1
  1
\A1;520
  7
KANJI
 11
0.0
 21
1.0
 31
0.0
 73
     1
 44
1.0
  0
POINT
  5
301
330
2F8
100
AcDbEntity
  8
Defpoints
 62
     0
100
AcDbPoint
 10
875.772162399903
 20
1047.15134812338
 30
0.0
  0
POINT
  5
302
330
2F8
100
AcDbEntity
  8
Defpoints
 62
     0
100
AcDbPoint
 10
965.7741624019734
 20
527.1513481151496
 30
0.0
  0
POINT
  5
303
330
2F8
100
AcDbEntity
  8
Defpoints
 62
     0
100
AcDbPoint
 10
1215.774162401977
 20
527.1513481151496
 30
0.0
  0
ENDBLK
  5
2FA
330
2F8
100
AcDbEntity
  8
0
100
AcDbBlockEnd
  0
BLOCK
  5
305
330
304
100
AcDbEntity
  8
0
100
AcDbBlockBegin
  2
*D18
 70
     1
 10
0.0
 20
0.0
 30
0.0
  3
*D18
  1
*D18
  0
LINE
  5
307
330
304
100
AcDbEntity
  8
C寸法
 62
     0
370
    -2
100
AcDbLine
 10
975.7741624019734
 20
967.1513481151496
 30
0.0
 11
1165.774162401973
 21
967.1513481151496
 31
0.0
  0
LINE
  5
308
330
304
100
AcDbEntity
  8
C寸法
 62
     0
370
    -2
100
AcDbLine
 10
975.7741624019734
 20
527.1513481151496
 30
0.0
 11
1165.774162401973
 21
527.1513481151496
 31
0.0
  0
LINE
  5
309
330
304
100
AcDbEntity
  8
C寸法
 62
     0
370
    -2
100
AcDbLine
 10
1165.774162401973
 20
942.1513481151496
 30
0.0
 11
1165.774162401973
 21
552.1513481151496
 31
0.0
  0
INSERT
  5
30A
330
304
100
AcDbEntity
  8
C寸法
 62
     0
370
    -2
100
AcDbBlockReference
  2
_OPEN
 10
1165.774162401973
 20
967.1513481151496
 30
0.0
 41
25.0
 42
25.0
 43
25.0
 50
90.0
  0
INSERT
  5
30B
330
304
100
AcDbEntity
  8
C寸法
 62
     0
370
    -2
100
AcDbBlockReference
  2
_OPEN
 10
1165.774162401973
 20
527.1513481151496
 30
0.0
 41
25.0
 42
25.0
 43
25.0
 50
270.0
  0
MTEXT
  5
30C
330
304
100
AcDbEntity
  8
C寸法
 62
     0
370
    13
100
AcDbMText
 10
1148.274162401973
 20
747.1513481151496
 30
0.0
 40
25.0
 41
0.0
 71
     5
 72
     1
  1
\A1;440
  7
KANJI
 11
0.0
 21
1.0
 31
0.0
 73
     1
 44
1.0
  0
POINT
  5
30D
330
304
100
AcDbEntity
  8
Defpoints
 62
     0
100
AcDbPoint
 10
965.7741624019734
 20
967.1513481151496
 30
0.0
  0
POINT
  5
30E
330
304
100
AcDbEntity
  8
Defpoints
 62
     0
100
AcDbPoint
 10
965.7741624019734
 20
527.1513481151496
 30
0.0
  0
POINT
  5
30F
330
304
100
AcDbEntity
  8
Defpoints
 62
     0
100
AcDbPoint
 10
1165.774162401973
 20
527.1513481151496
 30
0.0
  0
ENDBLK
  5
306
330
304
100
AcDbEntity
  8
0
100
AcDbBlockEnd
  0
BLOCK
  5
311
330
310
100
AcDbEntity
  8
0
100
AcDbBlockBegin
  2
*D19
 70
     1
 10
0.0
 20
0.0
 30
0.0
  3
*D19
  1
*D19
  0
LINE
  5
313
330
310
100
AcDbEntity
  8
C寸法
 62
     0
370
    -2
100
AcDbLine
 10
975.7741624019734
 20
542.1513481151496
 30
0.0
 11
1115.774162401973
 21
542.1513481151496
 31
0.0
  0
LINE
  5
314
330
310
100
AcDbEntity
  8
C寸法
 62
     0
370
    -2
100
AcDbLine
 10
545.7741623882475
 20
527.1513481151496
 30
0.0
 11
1115.774162401973
 21
527.1513481151496
 31
0.0
  0
LINE
  5
315
330
310
100
AcDbEntity
  8
C寸法
 62
     0
370
    -2
100
AcDbLine
 10
1115.774162401973
 20
527.1513481151496
 30
0.0
 11
1115.774162401973
 21
430.0605743056257
 31
0.0
  0
LINE
  5
316
330
310
100
AcDbEntity
  8
C寸法
 62
     0
370
    -2
100
AcDbLine
 10
1115.774162401973
 20
542.1513481151496
 30
0.0
 11
1115.774162401973
 21
527.1513481151496
 31
0.0
  0
LINE
  5
317
330
310
100
AcDbEntity
  8
C寸法
 62
     0
370
    -2
100
AcDbLine
 10
1115.774162401973
 20
567.1513481151496
 30
0.0
 11
1115.774162401973
 21
592.1513481151496
 31
0.0
  0
LINE
  5
318
330
310
100
AcDbEntity
  8
C寸法
 62
     0
370
    -2
100
AcDbLine
 10
1115.774162401973
 20
502.1513481151496
 30
0.0
 11
1115.774162401973
 21
477.1513481151496
 31
0.0
  0
INSERT
  5
319
330
310
100
AcDbEntity
  8
C寸法
 62
     0
370
    -2
100
AcDbBlockReference
  2
_OPEN
 10
1115.774162401973
 20
542.1513481151496
 30
0.0
 41
25.0
 42
25.0
 43
25.0
 50
270.0
  0
INSERT
  5
31A
330
310
100
AcDbEntity
  8
C寸法
 62
     0
370
    -2
100
AcDbBlockReference
  2
_OPEN
 10
1115.774162401973
 20
527.1513481151496
 30
0.0
 41
25.0
 42
25.0
 43
25.0
 50
90.0
  0
MTEXT
  5
31B
330
310
100
AcDbEntity
  8
C寸法
 62
     0
370
    13
100
AcDbMText
 10
1098.274162401973
 20
453.6059612103876
 30
0.0
 40
25.0
 41
0.0
 71
     5
 72
     1
  1
\A1;15
  7
KANJI
 11
0.0
 21
1.0
 31
0.0
 73
     1
 44
1.0
  0
POINT
  5
31C
330
310
100
AcDbEntity
  8
Defpoints
 62
     0
100
AcDbPoint
 10
965.7741624019734
 20
542.1513481151496
 30
0.0
  0
POINT
  5
31D
330
310
100
AcDbEntity
  8
Defpoints
 62
     0
100
AcDbPoint
 10
535.7741623882475
 20
527.1513481151496
 30
0.0
  0
POINT
  5
31E
330
310
100
AcDbEntity
  8
Defpoints
 62
     0
100
AcDbPoint
 10
1115.774162401973
 20
527.1513481151496
 30
0.0
  0
ENDBLK
  5
312
330
310
100
AcDbEntity
  8
0
100
AcDbBlockEnd
  0
BLOCK
  5
320
330
31F
100
AcDbEntity
  8
0
100
AcDbBlockBegin
  2
*D20
 70
     1
 10
0.0
 20
0.0
 30
0.0
  3
*D20
  1
*D20
  0
LINE
  5
322
330
31F
100
AcDbEntity
  8
C寸法
 62
     0
370
    -2
100
AcDbLine
 10
975.7741624019734
 20
952.1513481151496
 30
0.0
 11
1065.774162401973
 21
952.1513481151496
 31
0.0
  0
LINE
  5
323
330
31F
100
AcDbEntity
  8
C寸法
 62
     0
370
    -2
100
AcDbLine
 10
969.7517005962079
 20
802.1513481245809
 30
0.0
 11
1065.774162401973
 21
802.1513481245809
 31
0.0
  0
LINE
  5
324
330
31F
100
AcDbEntity
  8
C寸法
 62
     0
370
    -2
100
AcDbLine
 10
1065.774162401973
 20
927.1513481151496
 30
0.0
 11
1065.774162401973
 21
827.1513481245809
 31
0.0
  0
INSERT
  5
325
330
31F
100
AcDbEntity
  8
C寸法
 62
     0
370
    -2
100
AcDbBlockReference
  2
_OPEN
 10
1065.774162401973
 20
952.1513481151496
 30
0.0
 41
25.0
 42
25.0
 43
25.0
 50
90.0
  0
INSERT
  5
326
330
31F
100
AcDbEntity
  8
C寸法
 62
     0
370
    -2
100
AcDbBlockReference
  2
_OPEN
 10
1065.774162401973
 20
802.1513481245809
 30
0.0
 41
25.0
 42
25.0
 43
25.0
 50
270.0
  0
MTEXT
  5
327
330
31F
100
AcDbEntity
  8
C寸法
 62
     0
370
    13
100
AcDbMText
 10
1048.274162401973
 20
877.1513481198652
 30
0.0
 40
25.0
 41
0.0
 71
     5
 72
     1
  1
\A1;150
  7
KANJI
 11
0.0
 21
1.0
 31
0.0
 73
     1
 44
1.0
  0
POINT
  5
328
330
31F
100
AcDbEntity
  8
Defpoints
 62
     0
100
AcDbPoint
 10
965.7741624019734
 20
952.1513481151496
 30
0.0
  0
POINT
  5
329
330
31F
100
AcDbEntity
  8
Defpoints
 62
     0
100
AcDbPoint
 10
959.7517005962079
 20
802.1513481245809
 30
0.0
  0
POINT
  5
32A
330
31F
100
AcDbEntity
  8
Defpoints
 62
     0
100
AcDbPoint
 10
1065.774162401973
 20
802.1513481245809
 30
0.0
  0
ENDBLK
  5
321
330
31F
100
AcDbEntity
  8
0
100
AcDbBlockEnd
  0
BLOCK
  5
32C
330
32B
100
AcDbEntity
  8
0
100
AcDbBlockBegin
  2
*D21
 70
     1
 10
0.0
 20
0.0
 30
0.0
  3
*D21
  1
*D21
  0
LINE
  5
32E
330
32B
100
AcDbEntity
  8
C寸法
 62
     0
370
    -2
100
AcDbLine
 10
545.7741623882503
 20
967.1513481302381
 30
0.0
 11
1165.774162401973
 21
967.1513481302381
 31
0.0
  0
LINE
  5
32F
330
32B
100
AcDbEntity
  8
C寸法
 62
     0
370
    -2
100
AcDbLine
 10
885.772162399903
 20
1047.15134812338
 30
0.0
 11
1165.774162401973
 21
1047.15134812338
 31
0.0
  0
LINE
  5
330
330
32B
100
AcDbEntity
  8
C寸法
 62
     0
370
    -2
100
AcDbLine
 10
1165.774162401973
 20
992.1513481302381
 30
0.0
 11
1165.774162401973
 21
1022.15134812338
 31
0.0
  0
INSERT
  5
331
330
32B
100
AcDbEntity
  8
C寸法
 62
     0
370
    -2
100
AcDbBlockReference
  2
_OPEN
 10
1165.774162401973
 20
967.1513481302381
 30
0.0
 41
25.0
 42
25.0
 43
25.0
 50
270.0
  0
INSERT
  5
332
330
32B
100
AcDbEntity
  8
C寸法
 62
     0
370
    -2
100
AcDbBlockReference
  2
_OPEN
 10
1165.774162401973
 20
1047.15134812338
 30
0.0
 41
25.0
 42
25.0
 43
25.0
 50
90.0
  0
MTEXT
  5
333
330
32B
100
AcDbEntity
  8
C寸法
 62
     0
370
    13
100
AcDbMText
 10
1148.274162401973
 20
1007.151348126809
 30
0.0
 40
25.0
 41
0.0
 71
     5
 72
     1
  1
\A1;80
  7
KANJI
 11
0.0
 21
1.0
 31
0.0
 73
     1
 44
1.0
  0
POINT
  5
334
330
32B
100
AcDbEntity
  8
Defpoints
 62
     0
100
AcDbPoint
 10
535.7741623882503
 20
967.1513481302381
 30
0.0
  0
POINT
  5
335
330
32B
100
AcDbEntity
  8
Defpoints
 62
     0
100
AcDbPoint
 10
875.772162399903
 20
1047.15134812338
 30
0.0
  0
POINT
  5
336
330
32B
100
AcDbEntity
  8
Defpoints
 62
     0
100
AcDbPoint
 10
1165.774162401973
 20
1047.15134812338
 30
0.0
  0
ENDBLK
  5
32D
330
32B
100
AcDbEntity
  8
0
100
AcDbBlockEnd
  0
BLOCK
  5
338
330
337
100
AcDbEntity
  8
0
100
AcDbBlockBegin
  2
*D22
 70
     1
 10
0.0
 20
0.0
 30
0.0
  3
*D22
  1
*D22
  0
LINE
  5
33A
330
337
100
AcDbEntity
  8
C寸法
 62
     0
370
    -2
100
AcDbLine
 10
545.7741623882475
 20
542.1513481151524
 30
0.0
 11
1115.774162401973
 21
542.1513481151524
 31
0.0
  0
LINE
  5
33B
330
337
100
AcDbEntity
  8
C寸法
 62
     0
370
    -2
100
AcDbLine
 10
975.7741624019734
 20
952.1513481151496
 30
0.0
 11
1115.774162401973
 21
952.1513481151496
 31
0.0
  0
LINE
  5
33C
330
337
100
AcDbEntity
  8
C寸法
 62
     0
370
    -2
100
AcDbLine
 10
1115.774162401973
 20
567.1513481151524
 30
0.0
 11
1115.774162401973
 21
927.1513481151496
 31
0.0
  0
INSERT
  5
33D
330
337
100
AcDbEntity
  8
C寸法
 62
     0
370
    -2
100
AcDbBlockReference
  2
_OPEN
 10
1115.774162401973
 20
542.1513481151524
 30
0.0
 41
25.0
 42
25.0
 43
25.0
 50
270.0
  0
INSERT
  5
33E
330
337
100
AcDbEntity
  8
C寸法
 62
     0
370
    -2
100
AcDbBlockReference
  2
_OPEN
 10
1115.774162401973
 20
952.1513481151496
 30
0.0
 41
25.0
 42
25.0
 43
25.0
 50
90.0
  0
MTEXT
  5
33F
330
337
100
AcDbEntity
  8
C寸法
 62
     0
370
    13
100
AcDbMText
 10
1098.274162401973
 20
747.151348115151
 30
0.0
 40
25.0
 41
0.0
 71
     5
 72
     1
  1
\A1;410
  7
KANJI
 11
0.0
 21
1.0
 31
0.0
 73
     1
 44
1.0
  0
POINT
  5
340
330
337
100
AcDbEntity
  8
Defpoints
 62
     0
100
AcDbPoint
 10
535.7741623882475
 20
542.1513481151524
 30
0.0
  0
POINT
  5
341
330
337
100
AcDbEntity
  8
Defpoints
 62
     0
100
AcDbPoint
 10
965.7741624019734
 20
952.1513481151496
 30
0.0
  0
POINT
  5
342
330
337
100
AcDbEntity
  8
Defpoints
 62
     0
100
AcDbPoint
 10
1115.774162401973
 20
952.1513481151496
 30
0.0
  0
ENDBLK
  5
339
330
337
100
AcDbEntity
  8
0
100
AcDbBlockEnd
  0
BLOCK
  5
344
330
343
100
AcDbEntity
  8
0
100
AcDbBlockBegin
  2
*D23
 70
     1
 10
0.0
 20
0.0
 30
0.0
  3
*D23
  1
*D23
  0
LINE
  5
346
330
343
100
AcDbEntity
  8
C寸法
 62
     0
370
    -2
100
AcDbLine
 10
545.7802656513878
 20
952.1513481256752
 30
0.0
 11
1115.774162401973
 21
952.1513481256752
 31
0.0
  0
LINE
  5
347
330
343
100
AcDbEntity
  8
C寸法
 62
     0
370
    -2
100
AcDbLine
 10
885.772162399903
 20
967.1513481302404
 30
0.0
 11
1115.774162401973
 21
967.1513481302404
 31
0.0
  0
LINE
  5
348
330
343
100
AcDbEntity
  8
C寸法
 62
     0
370
    -2
100
AcDbLine
 10
1115.774162401973
 20
952.1513481256752
 30
0.0
 11
1115.774162401973
 21
855.0605743161514
 31
0.0
  0
LINE
  5
349
330
343
100
AcDbEntity
  8
C寸法
 62
     0
370
    -2
100
AcDbLine
 10
1115.774162401973
 20
952.1513481256752
 30
0.0
 11
1115.774162401973
 21
967.1513481302404
 31
0.0
  0
LINE
  5
34A
330
343
100
AcDbEntity
  8
C寸法
 62
     0
370
    -2
100
AcDbLine
 10
1115.774162401973
 20
927.1513481256752
 30
0.0
 11
1115.774162401973
 21
902.1513481256752
 31
0.0
  0
LINE
  5
34B
330
343
100
AcDbEntity
  8
C寸法
 62
     0
370
    -2
100
AcDbLine
 10
1115.774162401973
 20
992.1513481302404
 30
0.0
 11
1115.774162401973
 21
1017.15134813024
 31
0.0
  0
INSERT
  5
34C
330
343
100
AcDbEntity
  8
C寸法
 62
     0
370
    -2
100
AcDbBlockReference
  2
_OPEN
 10
1115.774162401973
 20
952.1513481256752
 30
0.0
 41
25.0
 42
25.0
 43
25.0
 50
90.0
  0
INSERT
  5
34D
330
343
100
AcDbEntity
  8
C寸法
 62
     0
370
    -2
100
AcDbBlockReference
  2
_OPEN
 10
1115.774162401973
 20
967.1513481302404
 30
0.0
 41
25.0
 42
25.0
 43
25.0
 50
270.0
  0
MTEXT
  5
34E
330
343
100
AcDbEntity
  8
C寸法
 62
     0
370
    13
100
AcDbMText
 10
1098.274162401973
 20
878.6059612209133
 30
0.0
 40
25.0
 41
0.0
 71
     5
 72
     1
  1
\A1;15
  7
KANJI
 11
0.0
 21
1.0
 31
0.0
 73
     1
 44
1.0
  0
POINT
  5
34F
330
343
100
AcDbEntity
  8
Defpoints
 62
     0
100
AcDbPoint
 10
535.7802656513878
 20
952.1513481256752
 30
0.0
  0
POINT
  5
350
330
343
100
AcDbEntity
  8
Defpoints
 62
     0
100
AcDbPoint
 10
875.772162399903
 20
967.1513481302404
 30
0.0
  0
POINT
  5
351
330
343
100
AcDbEntity
  8
Defpoints
 62
     0
100
AcDbPoint
 10
1115.774162401973
 20
967.1513481302404
 30
0.0
  0
ENDBLK
  5
345
330
343
100
AcDbEntity
  8
0
100
AcDbBlockEnd
  0
BLOCK
  5
353
330
352
100
AcDbEntity
  8
0
100
AcDbBlockBegin
  2
*D24
 70
     1
 10
0.0
 20
0.0
 30
0.0
  3
*D24
  1
*D24
  0
LINE
  5
355
330
352
100
AcDbEntity
  8
C寸法
 62
     0
370
    -2
100
AcDbLine
 10
135.7741623745321
 20
577.1513481172069
 30
0.0
 11
135.7741623745321
 21
377.1513481076863
 31
0.0
  0
LINE
  5
356
330
352
100
AcDbEntity
  8
C寸法
 62
     0
370
    -2
100
AcDbLine
 10
935.7721624019621
 20
577.1513481172069
 30
0.0
 11
935.7721624019621
 21
377.1513481076863
 31
0.0
  0
LINE
  5
357
330
352
100
AcDbEntity
  8
C寸法
 62
     0
370
    -2
100
AcDbLine
 10
160.7741623745321
 20
377.1513481076863
 30
0.0
 11
910.7721624019621
 21
377.1513481076863
 31
0.0
  0
INSERT
  5
358
330
352
100
AcDbEntity
  8
C寸法
 62
     0
370
    -2
100
AcDbBlockReference
  2
_OPEN
 10
135.7741623745321
 20
377.1513481076863
 30
0.0
 41
25.0
 42
25.0
 43
25.0
 50
180.0
  0
INSERT
  5
359
330
352
100
AcDbEntity
  8
C寸法
 62
     0
370
    -2
100
AcDbBlockReference
  2
_OPEN
 10
935.7721624019621
 20
377.1513481076863
 30
0.0
 41
25.0
 42
25.0
 43
25.0
  0
MTEXT
  5
35A
330
352
100
AcDbEntity
  8
C寸法
 62
     0
370
    13
100
AcDbMText
 10
535.7731623882471
 20
394.6513481076863
 30
0.0
 40
25.0
 41
0.0
 71
     5
 72
     1
  1
\A1;800
  7
KANJI
 73
     1
 44
1.0
  0
POINT
  5
35B
330
352
100
AcDbEntity
  8
Defpoints
 62
     0
100
AcDbPoint
 10
135.7741623745321
 20
587.1513481172069
 30
0.0
  0
POINT
  5
35C
330
352
100
AcDbEntity
  8
Defpoints
 62
     0
100
AcDbPoint
 10
935.7721624019621
 20
587.1513481172069
 30
0.0
  0
POINT
  5
35D
330
352
100
AcDbEntity
  8
Defpoints
 62
     0
100
AcDbPoint
 10
935.7721624019621
 20
377.1513481076863
 30
0.0
  0
ENDBLK
  5
354
330
352
100
AcDbEntity
  8
0
100
AcDbBlockEnd
  0
BLOCK
  5
35F
330
35E
100
AcDbEntity
  8
0
100
AcDbBlockBegin
  2
*D25
 70
     1
 10
0.0
 20
0.0
 30
0.0
  3
*D25
  1
*D25
  0
LINE
  5
361
330
35E
100
AcDbEntity
  8
C寸法
 62
     0
370
    -2
100
AcDbLine
 10
975.7711492102142
 20
292.8517436631394
 30
0.0
 11
1115.774162401973
 21
292.8517436631394
 31
0.0
  0
LINE
  5
362
330
35E
100
AcDbEntity
  8
C寸法
 62
     0
370
    -2
100
AcDbLine
 10
630.1245215222114
 20
102.8513481006559
 30
0.0
 11
1115.774162401973
 21
102.8513481006559
 31
0.0
  0
LINE
  5
363
330
35E
100
AcDbEntity
  8
C寸法
 62
     0
370
    -2
100
AcDbLine
 10
1115.774162401973
 20
267.8517436631394
 30
0.0
 11
1115.774162401973
 21
127.8513481006559
 31
0.0
  0
INSERT
  5
364
330
35E
100
AcDbEntity
  8
C寸法
 62
     0
370
    -2
100
AcDbBlockReference
  2
_OPEN
 10
1115.774162401973
 20
292.8517436631394
 30
0.0
 41
25.0
 42
25.0
 43
25.0
 50
90.0
  0
INSERT
  5
365
330
35E
100
AcDbEntity
  8
C寸法
 62
     0
370
    -2
100
AcDbBlockReference
  2
_OPEN
 10
1115.774162401973
 20
102.8513481006559
 30
0.0
 41
25.0
 42
25.0
 43
25.0
 50
270.0
  0
MTEXT
  5
366
330
35E
100
AcDbEntity
  8
C寸法
 62
     0
370
    13
100
AcDbMText
 10
1098.274162401973
 20
197.8515458818976
 30
0.0
 40
25.0
 41
0.0
 71
     5
 72
     1
  1
\A1;190
  7
KANJI
 11
0.0
 21
1.0
 31
0.0
 73
     1
 44
1.0
  0
POINT
  5
367
330
35E
100
AcDbEntity
  8
Defpoints
 62
     0
100
AcDbPoint
 10
965.7711492102142
 20
292.8517436631394
 30
0.0
  0
POINT
  5
368
330
35E
100
AcDbEntity
  8
Defpoints
 62
     0
100
AcDbPoint
 10
620.1245215222114
 20
102.8513481006559
 30
0.0
  0
POINT
  5
369
330
35E
100
AcDbEntity
  8
Defpoints
 62
     0
100
AcDbPoint
 10
1115.774162401973
 20
102.8513481006559
 30
0.0
  0
ENDBLK
  5
360
330
35E
100
AcDbEntity
  8
0
100
AcDbBlockEnd
  0
BLOCK
  5
36B
330
36A
100
AcDbEntity
  8
0
100
AcDbBlockBegin
  2
*D26
 70
     1
 10
0.0
 20
0.0
 30
0.0
  3
*D26
  1
*D26
  0
LINE
  5
36D
330
36A
100
AcDbEntity
  8
C寸法
 62
     0
370
    -2
100
AcDbLine
 10
584.5014533064331
 20
1007.151348124579
 30
0.0
 11
1065.774162401973
 21
1007.151348124579
 31
0.0
  0
LINE
  5
36E
330
36A
100
AcDbEntity
  8
C寸法
 62
     0
370
    -2
100
AcDbLine
 10
885.772162399903
 20
1047.151348132981
 30
0.0
 11
1065.774162401973
 21
1047.151348132981
 31
0.0
  0
LINE
  5
36F
330
36A
100
AcDbEntity
  8
C寸法
 62
     0
370
    -2
100
AcDbLine
 10
1065.774162401973
 20
1072.151348132981
 30
0.0
 11
1065.774162401973
 21
1147.627538609172
 31
0.0
  0
LINE
  5
370
330
36A
100
AcDbEntity
  8
C寸法
 62
     0
370
    -2
100
AcDbLine
 10
1065.774162401973
 20
1007.151348124579
 30
0.0
 11
1065.774162401973
 21
1047.151348132981
 31
0.0
  0
LINE
  5
371
330
36A
100
AcDbEntity
  8
C寸法
 62
     0
370
    -2
100
AcDbLine
 10
1065.774162401973
 20
982.1513481245793
 30
0.0
 11
1065.774162401973
 21
957.1513481245793
 31
0.0
  0
INSERT
  5
372
330
36A
100
AcDbEntity
  8
C寸法
 62
     0
370
    -2
100
AcDbBlockReference
  2
_OPEN
 10
1065.774162401973
 20
1007.151348124579
 30
0.0
 41
25.0
 42
25.0
 43
25.0
 50
90.0
  0
INSERT
  5
373
330
36A
100
AcDbEntity
  8
C寸法
 62
     0
370
    -2
100
AcDbBlockReference
  2
_OPEN
 10
1065.774162401973
 20
1047.151348132981
 30
0.0
 41
25.0
 42
25.0
 43
25.0
 50
270.0
  0
MTEXT
  5
374
330
36A
100
AcDbEntity
  8
C寸法
 62
     0
370
    13
100
AcDbMText
 10
1048.274162401973
 20
1122.389443371076
 30
0.0
 40
25.0
 41
0.0
 71
     5
 72
     1
  1
\A1;40
  7
KANJI
 11
0.0
 21
1.0
 31
0.0
 73
     1
 44
1.0
  0
POINT
  5
375
330
36A
100
AcDbEntity
  8
Defpoints
 62
     0
100
AcDbPoint
 10
574.5014533064331
 20
1007.151348124579
 30
0.0
  0
POINT
  5
376
330
36A
100
AcDbEntity
  8
Defpoints
 62
     0
100
AcDbPoint
 10
875.772162399903
 20
1047.151348132981
 30
0.0
  0
POINT
  5
377
330
36A
100
AcDbEntity
  8
Defpoints
 62
     0
100
AcDbPoint
 10
1065.774162401973
 20
1047.151348132981
 30
0.0
  0
ENDBLK
  5
36C
330
36A
100
AcDbEntity
  8
0
100
AcDbBlockEnd
  0
BLOCK
  5
379
330
378
100
AcDbEntity
  8
0
100
AcDbBlockBegin
  2
*D27
 70
     1
 10
0.0
 20
0.0
 30
0.0
  3
*D27
  1
*D27
  0
LINE
  5
37B
330
378
100
AcDbEntity
  8
C寸法
 62
     0
370
    -2
100
AcDbLine
 10
951.286414326431
 20
292.8513481071715
 30
0.0
 11
1065.774162401973
 21
292.8513481071715
 31
0.0
  0
LINE
  5
37C
330
378
100
AcDbEntity
  8
C寸法
 62
     0
370
    -2
100
AcDbLine
 10
934.2087276151243
 20
277.8513481066568
 30
0.0
 11
1065.774162401973
 21
277.8513481066568
 31
0.0
  0
LINE
  5
37D
330
378
100
AcDbEntity
  8
C寸法
 62
     0
370
    -2
100
AcDbLine
 10
1065.774162401973
 20
252.8513481066568
 30
0.0
 11
1065.774162401973
 21
180.7605742971329
 31
0.0
  0
LINE
  5
37E
330
378
100
AcDbEntity
  8
C寸法
 62
     0
370
    -2
100
AcDbLine
 10
1065.774162401973
 20
292.8513481071715
 30
0.0
 11
1065.774162401973
 21
277.8513481066568
 31
0.0
  0
LINE
  5
37F
330
378
100
AcDbEntity
  8
C寸法
 62
     0
370
    -2
100
AcDbLine
 10
1065.774162401973
 20
317.8513481071715
 30
0.0
 11
1065.774162401973
 21
342.8513481071715
 31
0.0
  0
INSERT
  5
380
330
378
100
AcDbEntity
  8
C寸法
 62
     0
370
    -2
100
AcDbBlockReference
  2
_OPEN
 10
1065.774162401973
 20
292.8513481071715
 30
0.0
 41
25.0
 42
25.0
 43
25.0
 50
270.0
  0
INSERT
  5
381
330
378
100
AcDbEntity
  8
C寸法
 62
     0
370
    -2
100
AcDbBlockReference
  2
_OPEN
 10
1065.774162401973
 20
277.8513481066568
 30
0.0
 41
25.0
 42
25.0
 43
25.0
 50
90.0
  0
MTEXT
  5
382
330
378
100
AcDbEntity
  8
C寸法
 62
     0
370
    13
100
AcDbMText
 10
1048.274162401973
 20
204.3059612018948
 30
0.0
 40
25.0
 41
0.0
 71
     5
 72
     1
  1
\A1;15
  7
KANJI
 11
0.0
 21
1.0
 31
0.0
 73
     1
 44
1.0
  0
POINT
  5
383
330
378
100
AcDbEntity
  8
Defpoints
 62
     0
100
AcDbPoint
 10
941.286414326431
 20
292.8513481071715
 30
0.0
  0
POINT
  5
384
330
378
100
AcDbEntity
  8
Defpoints
 62
     0
100
AcDbPoint
 10
924.2087276151243
 20
277.8513481066568
 30
0.0
  0
POINT
  5
385
330
378
100
AcDbEntity
  8
Defpoints
 62
     0
100
AcDbPoint
 10
1065.774162401973
 20
277.8513481066568
 30
0.0
  0
ENDBLK
  5
37A
330
378
100
AcDbEntity
  8
0
100
AcDbBlockEnd
  0
BLOCK
  5
387
330
386
100
AcDbEntity
  8
0
100
AcDbBlockBegin
  2
*D28
 70
     1
 10
0.0
 20
0.0
 30
0.0
  3
*D28
  1
*D28
  0
LINE
  5
389
330
386
100
AcDbEntity
  8
C寸法
 62
     0
370
    -2
100
AcDbLine
 10
626.274162391351
 20
792.1443481245797
 30
0.0
 11
626.274162391351
 21
642.1729869014193
 31
0.0
  0
LINE
  5
38A
330
386
100
AcDbEntity
  8
C寸法
 62
     0
370
    -2
100
AcDbLine
 10
445.4638306205427
 20
791.8985208387105
 30
0.0
 11
445.4638306205427
 21
642.1729869014193
 31
0.0
  0
LINE
  5
38B
330
386
100
AcDbEntity
  8
C寸法
 62
     0
370
    -2
100
AcDbLine
 10
601.274162391351
 20
642.1729869014193
 30
0.0
 11
470.4638306205427
 21
642.1729869014193
 31
0.0
  0
INSERT
  5
38C
330
386
100
AcDbEntity
  8
C寸法
 62
     0
370
    -2
100
AcDbBlockReference
  2
_OPEN
 10
626.274162391351
 20
642.1729869014193
 30
0.0
 41
25.0
 42
25.0
 43
25.0
  0
INSERT
  5
38D
330
386
100
AcDbEntity
  8
C寸法
 62
     0
370
    -2
100
AcDbBlockReference
  2
_OPEN
 10
445.4638306205427
 20
642.1729869014193
 30
0.0
 41
25.0
 42
25.0
 43
25.0
 50
180.0
  0
MTEXT
  5
38E
330
386
100
AcDbEntity
  8
C寸法
 62
     0
370
    13
100
AcDbMText
 10
549.9504196158334
 20
659.6729869014193
 30
0.0
 40
25.0
 41
0.0
 71
     5
 72
     1
  1
\A1;Φ181
  7
KANJI
 73
     1
 44
1.0
  0
POINT
  5
38F
330
386
100
AcDbEntity
  8
Defpoints
 62
     0
100
AcDbPoint
 10
626.274162391351
 20
802.1443481245797
 30
0.0
  0
POINT
  5
390
330
386
100
AcDbEntity
  8
Defpoints
 62
     0
100
AcDbPoint
 10
445.4638306205427
 20
801.8985208387105
 30
0.0
  0
POINT
  5
391
330
386
100
AcDbEntity
  8
Defpoints
 62
     0
100
AcDbPoint
 10
445.4638306205427
 20
642.1729869014193
 30
0.0
  0
ENDBLK
  5
388
330
386
100
AcDbEntity
  8
0
100
AcDbBlockEnd
  0
BLOCK
  5
395
330
394
100
AcDbEntity
  8
0
100
AcDbBlockBegin
  2
*D29
 70
     1
 10
0.0
 20
0.0
 30
0.0
  3
*D29
  1
*D29
  0
LINE
  5
397
330
394
100
AcDbEntity
  8
0
 62
     0
370
    -2
100
AcDbLine
 10
517.9918030889216
 20
1008.281392627011
 30
0.0
 11
517.9918030889216
 21
1091.066277756689
 31
0.0
  0
LINE
  5
398
330
394
100
AcDbEntity
  8
0
 62
     0
370
    -2
100
AcDbLine
 10
553.8309025055956
 20
1008.281392627011
 30
0.0
 11
553.8309025055956
 21
1091.066277756689
 31
0.0
  0
LINE
  5
399
330
394
100
AcDbEntity
  8
0
 62
     0
370
    -2
100
AcDbLine
 10
578.8309025055956
 20
1089.816277756689
 30
0.0
 11
782.6999501246432
 21
1089.816277756689
 31
0.0
  0
LINE
  5
39A
330
394
100
AcDbEntity
  8
0
 62
     0
370
    -2
100
AcDbLine
 10
517.9918030889216
 20
1089.816277756689
 30
0.0
 11
553.8309025055956
 21
1089.816277756689
 31
0.0
  0
LINE
  5
39B
330
394
100
AcDbEntity
  8
0
 62
     0
370
    -2
100
AcDbLine
 10
492.9918030889216
 20
1089.816277756689
 30
0.0
 11
467.9918030889216
 21
1089.816277756689
 31
0.0
  0
INSERT
  5
39C
330
394
100
AcDbEntity
  8
0
 62
     0
370
    -2
100
AcDbBlockReference
  2
_OPEN
 10
517.9918030889216
 20
1089.816277756689
 30
0.0
 41
25.0
 42
25.0
 43
25.0
  0
INSERT
  5
39D
330
394
100
AcDbEntity
  8
0
 62
     0
370
    -2
100
AcDbBlockReference
  2
_OPEN
 10
553.8309025055956
 20
1089.816277756689
 30
0.0
 41
25.0
 42
25.0
 43
25.0
 50
180.0
  0
MTEXT
  5
39E
330
394
100
AcDbEntity
  8
0
 62
     0
370
    13
100
AcDbMText
 10
693.2654263151195
 20
1107.316277756689
 30
0.0
 40
25.0
 41
0.0
 71
     5
 72
     1
  1
Φ36 水栓穴
  7
KANJI
 73
     1
 44
1.0
  0
POINT
  5
39F
330
394
100
AcDbEntity
  8
Defpoints
 62
     0
100
AcDbPoint
 10
517.9918030889216
 20
1007.656392627011
 30
0.0
  0
POINT
  5
3A0
330
394
100
AcDbEntity
  8
Defpoints
 62
     0
100
AcDbPoint
 10
553.8309025055956
 20
1007.656392627011
 30
0.0
  0
POINT
  5
3A1
330
394
100
AcDbEntity
  8
Defpoints
 62
     0
100
AcDbPoint
 10
553.8309025055956
 20
1089.816277756689
 30
0.0
  0
ENDBLK
  5
396
330
394
100
AcDbEntity
  8
0
100
AcDbBlockEnd
  0
BLOCK
  5
415
330
414
100
AcDbEntity
  8
0
100
AcDbBlockBegin
  2
*D36
 70
     1
 10
0.0
 20
0.0
 30
0.0
  3
*D36
  1
*D36
  0
LINE
  5
417
330
414
100
AcDbEntity
  8
0
 62
     0
370
    -2
100
AcDbLine
 10
152.5386661500523
 20
548.2470159352819
 30
0.0
 11
319.4792884402523
 21
657.3239818892631
 31
0.0
  0
MTEXT
  5
418
330
414
100
AcDbEntity
  8
0
 62
     0
370
    13
100
AcDbMText
 10
255.3930229501615
 20
636.3551731881138
 30
0.0
 40
25.0
 41
0.0
 71
     5
 72
     1
  1
4-R60
  7
KANJI
 11
0.8371453213027005
 21
0.5469805398924156
 31
0.0
 73
     1
 44
1.0
  0
INSERT
  5
419
330
414
100
AcDbEntity
  8
0
 62
     0
370
    -2
100
AcDbBlockReference
  2
_OPEN
 10
152.5386661500523
 20
548.2470159352819
 30
0.0
 41
25.0
 42
25.0
 43
25.0
 50
213.1601109772745
  0
POINT
  5
41A
330
414
100
AcDbEntity
  8
Defpoints
 62
     0
100
AcDbPoint
 10
152.5386661500523
 20
548.2470159352819
 30
0.0
  0
POINT
  5
41B
330
414
100
AcDbEntity
  8
Defpoints
 62
     0
100
AcDbPoint
 10
202.7673854282299
 20
581.065848328837
 30
0.0
  0
ENDBLK
  5
416
330
414
100
AcDbEntity
  8
0
100
AcDbBlockEnd
  0
BLOCK
  5
41D
330
41C
100
AcDbEntity
  8
0
100
AcDbBlockBegin
  2
*D37
 70
     1
 10
0.0
 20
0.0
 30
0.0
  3
*D37
  1
*D37
  0
LINE
  5
41F
330
41C
100
AcDbEntity
  8
0
 62
     0
370
    -2
100
AcDbLine
 10
176.4671704033009
 20
609.0347140602196
 30
0.0
 11
294.4132365011444
 21
693.1675130371648
 31
0.0
  0
MTEXT
  5
420
330
41C
100
AcDbEntity
  8
0
 62
     0
370
    13
100
AcDbMText
 10
221.5451165137102
 20
662.6854802464044
 30
0.0
 40
25.0
 41
0.0
 71
     5
 72
     1
  1
4-R100
  7
KANJI
 11
0.8141067480604527
 21
0.5807152510158785
 31
0.0
 73
     1
 44
1.0
  0
INSERT
  5
421
330
41C
100
AcDbEntity
  8
0
 62
     0
370
    -2
100
AcDbBlockReference
  2
_OPEN
 10
156.1145017017895
 20
594.5168327848227
 30
0.0
 41
25.0
 42
25.0
 43
25.0
 50
215.500865322991
  0
POINT
  5
422
330
41C
100
AcDbEntity
  8
Defpoints
 62
     0
100
AcDbPoint
 10
156.1145017017895
 20
594.5168327848227
 30
0.0
  0
POINT
  5
423
330
41C
100
AcDbEntity
  8
Defpoints
 62
     0
100
AcDbPoint
 10
237.5251765078601
 20
652.5883578864285
 30
0.0
  0
ENDBLK
  5
41E
330
41C
100
AcDbEntity
  8
0
100
AcDbBlockEnd
  0
BLOCK
  5
425
330
424
100
AcDbEntity
  8
0
100
AcDbBlockBegin
  2
*D38
 70
     1
 10
0.0
 20
0.0
 30
0.0
  3
*D38
  1
*D38
  0
LINE
  5
427
330
424
100
AcDbEntity
  8
0
 62
     0
370
    -2
100
AcDbLine
 10
157.2708621082913
 20
1035.922299609258
 30
0.0
 11
329.8854788259558
 21
823.0701248595301
 31
0.0
  0
MTEXT
  5
428
330
424
100
AcDbEntity
  8
0
 62
     0
370
    13
100
AcDbMText
 10
302.4610531447985
 20
884.6707842624169
 30
0.0
 40
25.0
 41
0.0
 71
     5
 72
     1
  1
2-R60
  7
KANJI
 11
0.6298719066588107
 21
-0.7766990287118907
 31
0.0
 73
     1
 44
1.0
  0
INSERT
  5
429
330
424
100
AcDbEntity
  8
0
 62
     0
370
    -2
100
AcDbBlockReference
  2
_OPEN
 10
157.2708621082913
 20
1035.922299609258
 30
0.0
 41
25.0
 42
25.0
 43
25.0
 50
129.0406726740476
  0
POINT
  5
42A
330
424
100
AcDbEntity
  8
Defpoints
 62
     0
100
AcDbPoint
 10
157.2708621082913
 20
1035.922299609258
 30
0.0
  0
POINT
  5
42B
330
424
100
AcDbEntity
  8
Defpoints
 62
     0
100
AcDbPoint
 10
195.0631765078315
 20
989.3203578865301
 30
0.0
  0
ENDBLK
  5
426
330
424
100
AcDbEntity
  8
0
100
AcDbBlockEnd
  0
ENDSEC
  0
SECTION
  2
ENTITIES
  0
TEXT
  5
256
330
1F
100
AcDbEntity
  8
C寸法
 62
     7
100
AcDbText
 10
1202.468313803886
 20
142.7335050831921
 30
0.0
 40
30.0
  1
品　番　：N800BI 寸法図
  7
KANJI
100
AcDbText
  0
LINE
  5
257
330
1F
100
AcDbEntity
  8
0
100
AcDbLine
 10
1176.370970924869
 20
130.9398729507054
 30
0.0
 11
1730.996406688235
 21
130.9398729507054
 31
0.0
  0
TEXT
  5
258
330
1F
100
AcDbEntity
  8
C寸法
 62
     7
100
AcDbText
 10
1243.381251950601
 20
94.0553431576759
 30
0.0
 40
25.0
  1
※詳細はお問合せください
  7
KANJI
100
AcDbText
  0
LWPOLYLINE
  5
259
330
1F
100
AcDbEntity
  8
0
100
AcDbPolyline
 90
        4
 70
     1
 43
0.0
 10
5.838463609440851
 20
1207.795773198707
 10
5.838463609440851
 20
6.247285291214155
 10
1805.894122851987
 20
6.247285291214155
 10
1805.894122851987
 20
1207.795773198707
  0
LINE
  5
25A
330
1F
100
AcDbEntity
  8
C4
 62
     0
100
AcDbLine
 10
195.7741623765839
 20
512.1513481146349
 30
0.0
 11
875.772162399903
 21
512.1513481146349
 31
0.0
  0
LINE
  5
25B
330
1F
100
AcDbEntity
  8
C2
  6
CENTER
 62
     0
 48
20.0
370
    13
100
AcDbLine
 10
535.7741623882473
 20
496.6104831132261
 30
0.0
 11
535.7741623882509
 21
1082.791348124579
 31
0.0
  0
LINE
  5
25E
330
1F
100
AcDbEntity
  8
C4
 62
     0
100
AcDbLine
 10
875.772162399903
 20
1062.151348133498
 30
0.0
 11
195.7741623765839
 21
1062.151348133498
 31
0.0
  0
LINE
  5
25F
330
1F
100
AcDbEntity
  8
C4
 62
     0
100
AcDbLine
 10
875.772162399903
 20
1047.151348132981
 30
0.0
 11
195.7741623765839
 21
1047.151348132981
 31
0.0
  0
LINE
  5
260
330
1F
100
AcDbEntity
  8
C4
 62
     0
100
AcDbLine
 10
950.7721624024787
 20
587.1513481172069
 30
0.0
 11
950.7721624024787
 21
987.1513481309257
 31
0.0
  0
LINE
  5
261
330
1F
100
AcDbEntity
  8
C4
 62
     0
100
AcDbLine
 10
120.7741623740155
 20
587.1513481172069
 30
0.0
 11
120.7741623740155
 21
987.1513481309257
 31
0.0
  0
LINE
  5
262
330
1F
100
AcDbEntity
  8
C4
 62
     0
100
AcDbLine
 10
195.7741623765839
 20
527.1513481151496
 30
0.0
 11
875.772162399903
 21
527.1513481151496
 31
0.0
  0
LINE
  5
263
330
1F
100
AcDbEntity
  8
C4
 62
     0
100
AcDbLine
 10
875.772162399903
 20
967.1513481302381
 30
0.0
 11
195.7741623765839
 21
967.1513481302381
 31
0.0
  0
LINE
  5
264
330
1F
100
AcDbEntity
  8
C4
 62
     0
100
AcDbLine
 10
135.7741623745321
 20
587.1513481172069
 30
0.0
 11
135.7741623745321
 21
987.1513481309257
 31
0.0
  0
LINE
  5
265
330
1F
100
AcDbEntity
  8
C4
 62
     0
100
AcDbLine
 10
935.7721624019621
 20
587.1513481172069
 30
0.0
 11
935.7721624019621
 21
987.1513481309257
 31
0.0
  0
LINE
  5
266
330
1F
100
AcDbEntity
  8
C2
  6
CENTER
 62
     0
 48
20.0
370
    13
100
AcDbLine
 10
110.7322660121363
 20
802.1513481245813
 30
0.0
 11
965.7706138152691
 21
802.1513481245809
 31
0.0
  0
LINE
  5
267
330
1F
100
AcDbEntity
  8
C4
 62
     0
100
AcDbLine
 10
164.9851711646013
 20
110.1903678762976
 30
0.0
 11
442.8381623850626
 21
102.9153481006562
 31
0.0
  0
LINE
  5
268
330
1F
100
AcDbEntity
  8
C4
 62
     0
100
AcDbLine
 10
164.9251623755233
 20
107.6913481008216
 30
0.0
 11
442.7731623850675
 21
100.4163481005709
 31
0.0
  0
LINE
  5
269
330
1F
100
AcDbEntity
  8
C4
 62
     0
100
AcDbLine
 10
950.7731624024789
 20
292.8513481071715
 30
0.0
 11
120.7751623740157
 21
292.8513481071715
 31
0.0
  0
LINE
  5
26A
330
1F
100
AcDbEntity
  8
C4
 62
     0
100
AcDbLine
 10
133.275162374445
 20
290.351348107086
 30
0.0
 11
120.7751623740157
 21
290.351348107086
 31
0.0
  0
LINE
  5
26B
330
1F
100
AcDbEntity
  8
C4
 62
     0
100
AcDbLine
 10
938.2711624020492
 20
290.351348107086
 30
0.0
 11
950.7731624024789
 21
290.351348107086
 31
0.0
  0
LINE
  5
26C
330
1F
100
AcDbEntity
  8
C4
 62
     0
100
AcDbLine
 10
135.7751623745323
 20
140.1803481019362
 30
0.0
 11
135.7751623745323
 21
291.8513481071333
 31
0.0
  0
LINE
  5
26D
330
1F
100
AcDbEntity
  8
C4
 62
     0
100
AcDbLine
 10
120.7751623740157
 20
292.8513481071715
 30
0.0
 11
120.7751623740157
 21
290.351348107086
 31
0.0
  0
LINE
  5
26E
330
1F
100
AcDbEntity
  8
C4
 62
     0
100
AcDbLine
 10
950.7731624024789
 20
292.8513481071715
 30
0.0
 11
950.7731624024789
 21
290.351348107086
 31
0.0
  0
LINE
  5
26F
330
1F
100
AcDbEntity
  8
C4
 62
     0
100
AcDbLine
 10
935.7731624019623
 20
140.1813481019328
 30
0.0
 11
935.7711624019619
 21
291.8513481071333
 31
0.0
  0
LINE
  5
270
330
1F
100
AcDbEntity
  8
C4
 62
     0
100
AcDbLine
 10
445.2731623851475
 20
100.4163481005709
 30
0.0
 11
445.2731623851475
 21
95.85134810041217
 31
0.0
  0
LINE
  5
271
330
1F
100
AcDbEntity
  8
C4
 62
     0
100
AcDbLine
 10
456.2731623855368
 20
93.35134810032662
 30
0.0
 11
615.2731623909829
 21
93.35134810032667
 31
0.0
  0
LINE
  5
272
330
1F
100
AcDbEntity
  8
C4
 62
     0
100
AcDbLine
 10
456.2731623855332
 20
95.85134810041217
 30
0.0
 11
456.2731623855332
 21
93.35134810032667
 31
0.0
  0
LINE
  5
273
330
1F
100
AcDbEntity
  8
C4
 62
     0
100
AcDbLine
 10
932.7711624018673
 20
277.8513481066568
 30
0.0
 11
138.7751623746269
 21
277.8513481066568
 31
0.0
  0
LINE
  5
274
330
1F
100
AcDbEntity
  8
C4
 62
     0
100
AcDbLine
 10
932.7711624018673
 20
286.4513481069482
 30
0.0
 11
138.7751623746269
 21
286.4513481069482
 31
0.0
  0
LINE
  5
275
330
1F
100
AcDbEntity
  8
C4
 62
     0
100
AcDbLine
 10
456.2731623855332
 20
95.85134810041217
 30
0.0
 11
445.2731623851475
 21
95.85134810041217
 31
0.0
  0
LINE
  5
276
330
1F
100
AcDbEntity
  8
C4
 62
     0
100
AcDbLine
 10
445.2731623851475
 20
93.35134810032667
 30
0.0
 11
456.2731623855332
 21
93.35134810032667
 31
0.0
  0
LINE
  5
277
330
1F
100
AcDbEntity
  8
C4
 62
     0
100
AcDbLine
 10
442.7731623850675
 20
95.85134810041217
 30
0.0
 11
442.7731623850675
 21
100.4163481005709
 31
0.0
  0
LINE
  5
278
330
1F
100
AcDbEntity
  8
C4
 62
     0
100
AcDbLine
 10
133.275162374445
 20
140.1803481019362
 30
0.0
 11
133.275162374445
 21
290.351348107086
 31
0.0
  0
LINE
  5
279
330
1F
100
AcDbEntity
  8
C4
 62
     0
100
AcDbLine
 10
938.2731624020496
 20
140.1813481019328
 30
0.0
 11
938.2711624020492
 21
290.351348107086
 31
0.0
  0
LINE
  5
27A
330
1F
100
AcDbEntity
  8
C4
 62
     0
100
AcDbLine
 10
456.2731623855368
 20
95.85134810041217
 30
0.0
 11
615.2731623909829
 21
95.85134810041217
 31
0.0
  0
LINE
  5
27B
330
1F
100
AcDbEntity
  8
C4
 62
     0
100
AcDbLine
 10
443.3395324054734
 20
102.8513481006559
 30
0.0
 11
628.2067923710426
 21
102.851348100656
 31
0.0
  0
LINE
  5
27C
330
1F
100
AcDbEntity
  8
C4
 62
     0
100
AcDbLine
 10
906.5591624009728
 20
110.1903481009051
 30
0.0
 11
628.7081623914316
 21
102.9153481006562
 31
0.0
  0
LINE
  5
27D
330
1F
100
AcDbEntity
  8
C4
 62
     0
100
AcDbLine
 10
906.6241624009679
 20
107.6913481008216
 30
0.0
 11
628.7731623914485
 21
100.4163481005709
 31
0.0
  0
LINE
  5
27E
330
1F
100
AcDbEntity
  8
C4
 62
     0
100
AcDbLine
 10
626.2731623913612
 20
100.4163481005709
 30
0.0
 11
626.2731623913612
 21
95.85134810041217
 31
0.0
  0
LINE
  5
27F
330
1F
100
AcDbEntity
  8
C4
 62
     0
100
AcDbLine
 10
615.2731623909829
 20
95.85134810041217
 30
0.0
 11
615.2731623909829
 21
93.35134810032667
 31
0.0
  0
LINE
  5
280
330
1F
100
AcDbEntity
  8
C4
 62
     0
100
AcDbLine
 10
615.2731623909829
 20
95.85134810041217
 30
0.0
 11
626.2731623913612
 21
95.85134810041217
 31
0.0
  0
LINE
  5
281
330
1F
100
AcDbEntity
  8
C4
 62
     0
100
AcDbLine
 10
626.2731623913612
 20
93.35134810032667
 30
0.0
 11
615.2731623909829
 21
93.35134810032667
 31
0.0
  0
LINE
  5
282
330
1F
100
AcDbEntity
  8
C4
 62
     0
100
AcDbLine
 10
628.7731623914485
 20
95.85134810041217
 30
0.0
 11
628.7731623914485
 21
100.4163481005709
 31
0.0
  0
CIRCLE
  5
283
330
1F
100
AcDbEntity
  8
C4
 62
     0
100
AcDbCircle
 10
535.7741623882473
 20
802.1443481245797
 30
0.0
 40
90.50000000310366
  0
ARC
  5
284
330
1F
100
AcDbEntity
  8
C4
 62
     0
100
AcDbCircle
 10
833.3921623984577
 20
842.2983481259535
 30
0.0
 40
100.0000000034294
100
AcDbArc
 50
2.870419631278117
 51
86.20780281315207
  0
ARC
  5
285
330
1F
100
AcDbEntity
  8
C4
 62
     0
100
AcDbCircle
 10
833.3921623984577
 20
652.0043481194289
 30
0.0
 40
100.0000000034294
100
AcDbArc
 50
273.7924660656345
 51
357.1295803687217
  0
ARC
  5
286
330
1F
100
AcDbEntity
  8
C4
 62
     0
100
AcDbCircle
 10
238.1581623780446
 20
652.0033481194323
 30
0.0
 40
100.0000000034294
100
AcDbArc
 50
182.8703665141528
 51
266.2078678498494
  0
ARC
  5
287
330
1F
100
AcDbEntity
  8
C4
 62
     0
100
AcDbCircle
 10
875.772162399903
 20
907.1513481281827
 30
0.0
 40
60.00000000205767
100
AcDbArc
 50
0.0
 51
90.00021045916418
  0
CIRCLE
  5
288
330
1F
100
AcDbEntity
  8
C4
 62
     0
100
AcDbCircle
 10
535.7741623882473
 20
802.1443481245797
 30
0.0
 40
79.50000000272641
  0
ARC
  5
289
330
1F
100
AcDbEntity
  8
C4
 62
     0
100
AcDbCircle
 10
195.7741623765839
 20
907.1513481281827
 30
0.0
 40
60.00000000205767
100
AcDbArc
 50
90.00021045916418
 51
179.9998479604956
  0
ARC
  5
28A
330
1F
100
AcDbEntity
  8
C4
 62
     0
100
AcDbCircle
 10
238.1591623780339
 20
842.2993481259573
 30
0.0
 40
100.0000000034294
100
AcDbArc
 50
93.79204514718744
 51
177.1293294069415
  0
ARC
  5
28B
330
1F
100
AcDbEntity
  8
C4
 62
     0
100
AcDbCircle
 10
195.7741623765839
 20
987.1513481309257
 30
0.0
 40
60.00000000205767
100
AcDbArc
 50
90.00021045916418
 51
179.9998479604956
  0
ARC
  5
28C
330
1F
100
AcDbEntity
  8
C4
 62
     0
100
AcDbCircle
 10
195.7741623765839
 20
987.1513481309257
 30
0.0
 40
75.0000000025721
100
AcDbArc
 50
90.00021045916418
 51
179.9998479604956
  0
ARC
  5
28D
330
1F
100
AcDbEntity
  8
C4
 62
     0
100
AcDbCircle
 10
875.772162399903
 20
987.1513481309257
 30
0.0
 40
60.00000000205767
100
AcDbArc
 50
0.0
 51
90.00021045916418
  0
ARC
  5
28E
330
1F
100
AcDbEntity
  8
C4
 62
     0
100
AcDbCircle
 10
875.772162399903
 20
987.1513481309257
 30
0.0
 40
75.0000000025721
100
AcDbArc
 50
0.0
 51
90.00021045916418
  0
ARC
  5
28F
330
1F
100
AcDbEntity
  8
C4
 62
     0
100
AcDbCircle
 10
875.772162399903
 20
587.1513481172069
 30
0.0
 40
60.00000000205767
100
AcDbArc
 50
270.0000584195034
 51
0.0
  0
ARC
  5
290
330
1F
100
AcDbEntity
  8
C4
 62
     0
100
AcDbCircle
 10
875.772162399903
 20
587.1513481172069
 30
0.0
 40
75.0000000025721
100
AcDbArc
 50
270.0000584195034
 51
0.0
  0
ARC
  5
291
330
1F
100
AcDbEntity
  8
C4
 62
     0
100
AcDbCircle
 10
195.7741623765839
 20
587.1513481172069
 30
0.0
 40
60.00000000205767
100
AcDbArc
 50
179.9998479604956
 51
270.0000584195034
  0
ARC
  5
292
330
1F
100
AcDbEntity
  8
C4
 62
     0
100
AcDbCircle
 10
195.7741623765839
 20
587.1513481172069
 30
0.0
 40
75.0000000025721
100
AcDbArc
 50
179.9998479604956
 51
270.0000584195034
  0
ARC
  5
293
330
1F
100
AcDbEntity
  8
C4
 62
     0
100
AcDbCircle
 10
2135.772162443115
 20
747.151348122693
 30
0.0
 40
2000.000000068589
100
AcDbArc
 50
177.1293294069414
 51
182.8703665141528
  0
ARC
  5
294
330
1F
100
AcDbEntity
  8
C4
 62
     0
100
AcDbCircle
 10
-1064.225837666621
 20
747.151348122693
 30
0.0
 40
2000.000000068589
100
AcDbArc
 50
357.1295803687219
 51
2.870419631278135
  0
ARC
  5
295
330
1F
100
AcDbEntity
  8
C4
 62
     0
100
AcDbCircle
 10
535.7741623882473
 20
-3647.84865202803
 30
0.0
 40
4600.000000157755
100
AcDbArc
 50
86.20780281315204
 51
93.79204514718745
  0
ARC
  5
296
330
1F
100
AcDbEntity
  8
C4
 62
     0
100
AcDbCircle
 10
535.7741623882473
 20
5142.151348273417
 30
0.0
 40
4600.000000157755
100
AcDbArc
 50
266.2078678498494
 51
273.7918931077625
  0
ARC
  5
297
330
1F
100
AcDbEntity
  8
C4
 62
     0
100
AcDbCircle
 10
134.7751623744959
 20
291.8513481071333
 30
0.0
 40
1.000000000034295
100
AcDbArc
 50
0.0001520395044082
 51
89.99978954083583
  0
ARC
  5
298
330
1F
100
AcDbEntity
  8
C4
 62
     0
100
AcDbCircle
 10
442.7731623850675
 20
100.4163481005709
 30
0.0
 40
2.500000000085736
100
AcDbArc
 50
0.0001520395044082
 51
88.49978603324281
  0
ARC
  5
299
330
1F
100
AcDbEntity
  8
C4
 62
     0
100
AcDbCircle
 10
138.7751623746269
 20
289.4513481070537
 30
0.0
 40
3.000000000102884
100
AcDbArc
 50
180.0
 51
269.9999415804966
  0
ARC
  5
29A
330
1F
100
AcDbEntity
  8
C4
 62
     0
100
AcDbCircle
 10
138.7751623746269
 20
280.8513481067568
 30
0.0
 40
3.000000000102884
100
AcDbArc
 50
180.0
 51
269.9999415804966
  0
ARC
  5
29B
330
1F
100
AcDbEntity
  8
C4
 62
     0
100
AcDbCircle
 10
932.7711624018673
 20
280.8513481067568
 30
0.0
 40
3.000000000102884
100
AcDbArc
 50
269.9999415804966
 51
0.0012979551179034
  0
ARC
  5
29C
330
1F
100
AcDbEntity
  8
C4
 62
     0
100
AcDbCircle
 10
165.7751623755655
 20
140.1803481019362
 30
0.0
 40
32.50000000111457
100
AcDbArc
 50
180.0
 51
268.4999380726953
  0
ARC
  5
29D
330
1F
100
AcDbEntity
  8
C4
 62
     0
100
AcDbCircle
 10
165.7751623755655
 20
140.1803481019362
 30
0.0
 40
30.00000000102884
100
AcDbArc
 50
180.0
 51
268.4999380726953
  0
ARC
  5
29E
330
1F
100
AcDbEntity
  8
C4
 62
     0
100
AcDbCircle
 10
932.7711624018673
 20
289.4513481070537
 30
0.0
 40
3.000000000102884
100
AcDbArc
 50
269.9999415804966
 51
0.0012979551179034
  0
ARC
  5
29F
330
1F
100
AcDbEntity
  8
C4
 62
     0
100
AcDbCircle
 10
905.7731624009364
 20
140.1803481019362
 30
0.0
 40
32.50000000111457
100
AcDbArc
 50
271.4999450878635
 51
0.0007249973371746
  0
ARC
  5
2A0
330
1F
100
AcDbEntity
  8
C4
 62
     0
100
AcDbCircle
 10
445.2731623851475
 20
95.85134810041217
 30
0.0
 40
2.500000000085736
100
AcDbArc
 50
180.0
 51
269.9999415804966
  0
ARC
  5
2A1
330
1F
100
AcDbEntity
  8
C4
 62
     0
100
AcDbCircle
 10
936.7711624019983
 20
291.8513481071333
 30
0.0
 40
1.000000000034295
100
AcDbArc
 50
89.99978954083583
 51
180.0
  0
ARC
  5
2A2
330
1F
100
AcDbEntity
  8
C4
 62
     0
100
AcDbCircle
 10
628.7731623914485
 20
100.4163481005709
 30
0.0
 40
2.500000000085736
100
AcDbArc
 50
91.49979304863956
 51
180.0
  0
ARC
  5
2A3
330
1F
100
AcDbEntity
  8
C4
 62
     0
100
AcDbCircle
 10
626.2731623913612
 20
95.85134810041217
 30
0.0
 40
2.500000000085736
100
AcDbArc
 50
269.9999415804966
 51
359.9995790816716
  0
ARC
  5
2A4
330
1F
100
AcDbEntity
  8
C4
 62
     0
100
AcDbCircle
 10
905.7731624009364
 20
140.1803481019362
 30
0.0
 40
30.00000000102884
100
AcDbArc
 50
271.4999450878635
 51
0.0007249973371746
  0
ARC
  5
2A5
330
1F
100
AcDbEntity
  8
C4
 62
     0
100
AcDbCircle
 10
1376.27214661325
 20
1048.151569182638
 30
0.0
 40
0.9999842107756353
100
AcDbArc
 50
180.0
 51
270.0000584197093
  0
LINE
  5
2A6
330
1F
100
AcDbEntity
  8
C4
 62
     0
100
AcDbLine
 10
1376.27214661325
 20
1048.151569182638
 30
0.0
 11
1378.672108719119
 21
1048.151569182638
 31
0.0
  0
LINE
  5
2A7
330
1F
100
AcDbEntity
  8
C4
 62
     0
100
AcDbLine
 10
1382.672045562221
 20
970.1528007421393
 30
0.0
 11
1382.672045562221
 21
1044.151632339536
 31
0.0
  0
LINE
  5
2A8
330
1F
100
AcDbEntity
  8
C4
 62
     0
100
AcDbLine
 10
1381.672061351449
 20
970.1528007421393
 30
0.0
 11
1381.672061351449
 21
1044.151632339536
 31
0.0
  0
LINE
  5
2A9
330
1F
100
AcDbEntity
  8
C4
 62
     0
100
AcDbLine
 10
1376.27214661325
 20
1048.151569182638
 30
0.0
 11
1376.27214661325
 21
1062.151348133498
 31
0.0
  0
LINE
  5
2AA
330
1F
100
AcDbEntity
  8
C4
 62
     0
100
AcDbLine
 10
1572.072055035752
 20
711.6527770493858
 30
0.0
 11
1567.702124034666
 21
711.6527770493858
 31
0.0
  0
LINE
  5
2AB
330
1F
100
AcDbEntity
  8
C4
 62
     0
100
AcDbLine
 10
1561.072263936928
 20
571.3764433412716
 30
0.0
 11
1565.203020359434
 21
709.2182646445235
 31
0.0
  0
LINE
  5
2AC
330
1F
100
AcDbEntity
  8
C4
 62
     0
100
AcDbLine
 10
1565.272162402479
 20
894.1784070048152
 30
0.0
 11
1565.272162402482
 21
709.7402593727395
 31
0.0
  0
LINE
  5
2AD
330
1F
100
AcDbEntity
  8
C4
 62
     0
100
AcDbLine
 10
1572.072055035752
 20
710.6527928386104
 30
0.0
 11
1567.702124034666
 21
710.6527928386104
 31
0.0
  0
LINE
  5
2AE
330
1F
100
AcDbEntity
  8
C4
 62
     0
100
AcDbLine
 10
1562.072154744638
 20
571.3502578261769
 30
0.0
 11
1566.202661829525
 21
709.1920853956929
 31
0.0
  0
LINE
  5
2AF
330
1F
100
AcDbEntity
  8
C4
 62
     0
100
AcDbLine
 10
1376.27214661325
 20
1047.151584971864
 30
0.0
 11
1378.672108719119
 21
1047.151584971864
 31
0.0
  0
LINE
  5
2B0
330
1F
100
AcDbEntity
  8
C4
 62
     0
100
AcDbLine
 10
1376.27214661325
 20
527.1587953843236
 30
0.0
 11
1387.271972931784
 21
527.161795336956
 31
0.0
  0
LINE
  5
2B1
330
1F
100
AcDbEntity
  8
C4
 62
     0
100
AcDbLine
 10
1384.672013983771
 20
968.1528323205903
 30
0.0
 11
1387.271972931784
 21
968.1528323205903
 31
0.0
  0
LINE
  5
2B2
330
1F
100
AcDbEntity
  8
C4
 62
     0
100
AcDbLine
 10
1390.271925564114
 20
964.1528954774849
 30
0.0
 11
1390.271925564114
 21
957.1530060020568
 31
0.0
  0
LINE
  5
2B3
330
1F
100
AcDbEntity
  8
C4
 62
     0
100
AcDbLine
 10
1375.272162402479
 20
1062.151348133498
 30
0.0
 11
1376.27214661325
 21
1062.151348133498
 31
0.0
  0
LINE
  5
2B4
330
1F
100
AcDbEntity
  8
C4
 62
     0
100
AcDbLine
 10
1535.013205737116
 20
953.1530691589551
 30
0.0
 11
1395.271846617995
 21
953.1530691589551
 31
0.0
  0
LINE
  5
2B5
330
1F
100
AcDbEntity
  8
C4
 62
     0
100
AcDbLine
 10
1535.012930462487
 20
952.1530849481778
 30
0.0
 11
1395.271846617995
 21
952.1530849481778
 31
0.0
  0
LINE
  5
2B6
330
1F
100
AcDbEntity
  8
C4
 62
     0
100
AcDbLine
 10
1375.272162402479
 20
512.1600322068998
 30
0.0
 11
1376.27214661325
 21
512.1600322068998
 31
0.0
  0
LINE
  5
2B7
330
1F
100
AcDbEntity
  8
C4
 62
     0
100
AcDbLine
 10
1572.072055035752
 20
892.6499191997782
 30
0.0
 11
1567.223610323607
 21
892.6499191997782
 31
0.0
  0
ARC
  5
2B8
330
1F
100
AcDbEntity
  8
C4
 62
     0
100
AcDbCircle
 10
1567.223610323607
 20
894.6598874634374
 30
0.0
 40
2.009968263659027
100
AcDbArc
 50
181.4592635419528
 51
270.0
  0
LINE
  5
2B9
330
1F
100
AcDbEntity
  8
C4
 62
     0
100
AcDbLine
 10
1566.002667743513
 20
922.9427974382479
 30
0.0
 11
1566.202082889293
 21
895.1089723163323
 31
0.0
  0
LINE
  5
2BA
330
1F
100
AcDbEntity
  8
C4
 62
     0
100
AcDbLine
 10
1565.002727451469
 20
922.9175325642852
 30
0.0
 11
1565.21429392534
 21
894.6087012094986
 31
0.0
  0
LINE
  5
2BB
330
1F
100
AcDbEntity
  8
C4
 62
     0
100
AcDbLine
 10
1572.072055035752
 20
893.6499034105518
 30
0.0
 11
1567.702124034666
 21
893.6499034105518
 31
0.0
  0
LINE
  5
2BC
330
1F
100
AcDbEntity
  8
C4
 62
     0
100
AcDbLine
 10
1390.271925564114
 20
530.1617479692823
 30
0.0
 11
1390.271925564114
 21
537.1616374447121
 31
0.0
  0
LINE
  5
2BD
330
1F
100
AcDbEntity
  8
C4
 62
     0
100
AcDbLine
 10
1531.083000568717
 20
542.1615584985911
 30
0.0
 11
1395.271846617995
 21
542.1615584985911
 31
0.0
  0
LINE
  5
2BE
330
1F
100
AcDbEntity
  8
C4
 62
     0
100
AcDbLine
 10
1531.083250070006
 20
541.1615742878139
 30
0.0
 11
1395.271846617995
 21
541.1615742878139
 31
0.0
  0
LINE
  5
2BF
330
1F
100
AcDbEntity
  8
C4
 62
     0
100
AcDbLine
 10
1391.271909774886
 20
964.1528954774849
 30
0.0
 11
1391.271909774886
 21
957.1530060020568
 31
0.0
  0
LINE
  5
2C0
330
1F
100
AcDbEntity
  8
C4
 62
     0
100
AcDbLine
 10
1384.672013983771
 20
967.1528481098112
 30
0.0
 11
1387.271972931784
 21
967.1528481098112
 31
0.0
  0
LINE
  5
2C1
330
1F
100
AcDbEntity
  8
C4
 62
     0
100
AcDbLine
 10
1391.271909774886
 20
530.1617479692823
 30
0.0
 11
1391.271909774886
 21
537.1616374447121
 31
0.0
  0
LINE
  5
2C2
330
1F
100
AcDbEntity
  8
C4
 62
     0
100
AcDbLine
 10
1376.272201152883
 20
526.1588111809842
 30
0.0
 11
1387.273027455631
 21
526.1618111336165
 31
0.0
  0
LINE
  5
2C3
330
1F
100
AcDbEntity
  8
C4
 62
     0
100
AcDbLine
 10
1376.27214661325
 20
526.1588111735464
 30
0.0
 11
1376.27214661325
 21
512.1600322068998
 31
0.0
  0
LINE
  5
2C4
330
1F
100
AcDbEntity
  8
C4
 62
     0
100
AcDbLine
 10
1573.272036088682
 20
892.4499223576231
 30
0.0
 11
1573.272036088682
 21
881.1501007758552
 31
0.0
  0
LINE
  5
2C5
330
1F
100
AcDbEntity
  8
C4
 62
     0
100
AcDbLine
 10
1572.27205187791
 20
881.1501007758552
 30
0.0
 11
1573.272036088682
 21
881.1501007758552
 31
0.0
  0
LINE
  5
2C6
330
1F
100
AcDbEntity
  8
C4
 62
     0
100
AcDbLine
 10
1572.27205187791
 20
892.4499223576231
 30
0.0
 11
1572.27205187791
 21
881.1501007758552
 31
0.0
  0
LINE
  5
2C7
330
1F
100
AcDbEntity
  8
C4
 62
     0
100
AcDbLine
 10
1572.27205187791
 20
723.152595473307
 30
0.0
 11
1573.272036088682
 21
723.152595473307
 31
0.0
  0
LINE
  5
2C8
330
1F
100
AcDbEntity
  8
C4
 62
     0
100
AcDbLine
 10
1572.27205187791
 20
711.8527738915409
 30
0.0
 11
1572.27205187791
 21
723.152595473307
 31
0.0
  0
LINE
  5
2C9
330
1F
100
AcDbEntity
  8
C4
 62
     0
100
AcDbLine
 10
1572.27205187791
 20
881.1501007758552
 30
0.0
 11
1572.272051877914
 21
723.152595473307
 31
0.0
  0
LINE
  5
2CA
330
1F
100
AcDbEntity
  8
C4
 62
     0
100
AcDbLine
 10
1573.272036088686
 20
881.1501007758552
 30
0.0
 11
1573.272036088682
 21
723.152595473307
 31
0.0
  0
LINE
  5
2CB
330
1F
100
AcDbEntity
  8
C4
 62
     0
100
AcDbLine
 10
1573.272036088682
 20
711.8527738915409
 30
0.0
 11
1573.272036088682
 21
723.152595473307
 31
0.0
  0
ARC
  5
2CC
330
1F
100
AcDbEntity
  8
C4
 62
     0
100
AcDbCircle
 10
1395.271846617995
 20
537.1616374447121
 30
0.0
 40
3.99993684310254
100
AcDbArc
 50
90.00021045937359
 51
180.0
  0
ARC
  5
2CD
330
1F
100
AcDbEntity
  8
C4
 62
     0
100
AcDbCircle
 10
1387.271972931784
 20
530.1617479692823
 30
0.0
 40
3.99993684310254
100
AcDbArc
 50
270.0000584197126
 51
0.0
  0
ARC
  5
2CE
330
1F
100
AcDbEntity
  8
C4
 62
     0
100
AcDbCircle
 10
1572.072055035752
 20
892.4499223576231
 30
0.0
 40
0.1999968421551271
100
AcDbArc
 50
0.0
 51
90.00021045938662
  0
ARC
  5
2CF
330
1F
100
AcDbEntity
  8
C4
 62
     0
100
AcDbCircle
 10
1572.072055035752
 20
892.4499223576231
 30
0.0
 40
1.199981052930762
100
AcDbArc
 50
0.0
 51
90.00021045937577
  0
ARC
  5
2D0
330
1F
100
AcDbEntity
  8
C4
 62
     0
100
AcDbCircle
 10
1378.672108719119
 20
1044.151632339536
 30
0.0
 40
2.999952632326906
100
AcDbArc
 50
0.0
 51
90.00021045937359
  0
ARC
  5
2D1
330
1F
100
AcDbEntity
  8
C4
 62
     0
100
AcDbCircle
 10
1378.672108719119
 20
1044.151632339536
 30
0.0
 40
3.99993684310254
100
AcDbArc
 50
0.0
 51
90.00021045937359
  0
ARC
  5
2D2
330
1F
100
AcDbEntity
  8
C4
 62
     0
100
AcDbCircle
 10
1567.702124034666
 20
709.1528165224472
 30
0.0
 40
2.499960526939088
100
AcDbArc
 50
90.00021045937098
 51
178.4998444528676
  0
ARC
  5
2D3
330
1F
100
AcDbEntity
  8
C4
 62
     0
100
AcDbCircle
 10
1572.072055035752
 20
711.8527738915409
 30
0.0
 40
1.199981052930762
100
AcDbArc
 50
270.0000584197115
 51
0.0
  0
ARC
  5
2D4
330
1F
100
AcDbEntity
  8
C4
 62
     0
100
AcDbCircle
 10
1567.702124034666
 20
895.149879726715
 30
0.0
 40
1.499976316163453
100
AcDbArc
 50
181.5004244258953
 51
270.0000584197136
  0
ARC
  5
2D5
330
1F
100
AcDbEntity
  8
C4
 62
     0
100
AcDbCircle
 10
1572.072055035752
 20
711.8527738915409
 30
0.0
 40
0.1999968421551271
100
AcDbArc
 50
270.0000584197223
 51
0.0
  0
ARC
  5
2D6
330
1F
100
AcDbEntity
  8
C4
 62
     0
100
AcDbCircle
 10
1395.271846617995
 20
537.1616374447121
 30
0.0
 40
4.999921053878174
100
AcDbArc
 50
90.00021045937359
 51
180.0
  0
ARC
  5
2D7
330
1F
100
AcDbEntity
  8
C4
 62
     0
100
AcDbCircle
 10
1387.271972931784
 20
530.1617479692823
 30
0.0
 40
2.999952632326906
100
AcDbArc
 50
270.0000584197136
 51
0.0
  0
ARC
  5
2D8
330
1F
100
AcDbEntity
  8
C4
 62
     0
100
AcDbCircle
 10
1567.702124034666
 20
709.1528165224472
 30
0.0
 40
1.499976316163453
100
AcDbArc
 50
90.00021045936926
 51
178.4998444528727
  0
ARC
  5
2D9
330
1F
100
AcDbEntity
  8
C4
 62
     0
100
AcDbCircle
 10
1395.271846617995
 20
957.1530060020568
 30
0.0
 40
4.999921053878174
100
AcDbArc
 50
180.0
 51
270.0000584197119
  0
ARC
  5
2DA
330
1F
100
AcDbEntity
  8
C4
 62
     0
100
AcDbCircle
 10
1384.672013983771
 20
970.1528007421393
 30
0.0
 40
2.999952632326906
100
AcDbArc
 50
180.0
 51
270.0000584197136
  0
ARC
  5
2DB
330
1F
100
AcDbEntity
  8
C4
 62
     0
100
AcDbCircle
 10
1387.271972931784
 20
964.1528954774849
 30
0.0
 40
2.999952632326906
100
AcDbArc
 50
0.0
 51
90.00021045937359
  0
ARC
  5
2DC
330
1F
100
AcDbEntity
  8
C4
 62
     0
100
AcDbCircle
 10
1376.27214661325
 20
526.1588111735464
 30
0.0
 40
0.9999842107756353
100
AcDbArc
 50
90.01396144624775
 51
180.0
  0
ARC
  5
2DD
330
1F
100
AcDbEntity
  8
C4
 62
     0
100
AcDbCircle
 10
1384.672013983771
 20
970.1528007421393
 30
0.0
 40
1.999968421551271
100
AcDbArc
 50
180.0
 51
270.0000584197093
  0
ARC
  5
2DE
330
1F
100
AcDbEntity
  8
C4
 62
     0
100
AcDbCircle
 10
1387.271972931784
 20
964.1528954774849
 30
0.0
 40
3.99993684310254
100
AcDbArc
 50
0.0
 51
90.00021045937359
  0
ARC
  5
2DF
330
1F
100
AcDbEntity
  8
C4
 62
     0
100
AcDbCircle
 10
1395.271846617995
 20
957.1530060020568
 30
0.0
 40
3.99993684310254
100
AcDbArc
 50
180.0
 51
270.0000584197126
  0
ARC
  5
2E0
330
1F
100
AcDbEntity
  8
C4
 62
     0
100
AcDbCircle
 10
1535.012930462487
 20
922.1535586249092
 30
0.0
 40
29.99952632326905
100
AcDbArc
 50
1.459263542002181
 51
90.0
  0
ARC
  5
2E1
330
1F
100
AcDbEntity
  8
C4
 62
     0
100
AcDbCircle
 10
1535.013205737116
 20
922.1535586249092
 30
0.0
 40
30.99951053404468
100
AcDbArc
 50
1.458892057680951
 51
90.0
  0
ARC
  5
2E2
330
1F
100
AcDbEntity
  8
C4
 62
     0
100
AcDbCircle
 10
1531.083000568717
 20
572.1610848218597
 30
0.0
 40
29.99952632326905
100
AcDbArc
 50
270.0
 51
358.501250583031
  0
ARC
  5
2E3
330
1F
100
AcDbEntity
  8
C4
 62
     0
100
AcDbCircle
 10
1531.083250070006
 20
572.1610848218597
 30
0.0
 40
30.99951053404468
100
AcDbArc
 50
270.0
 51
358.5011936382068
  0
LINE
  5
2E4
330
1F
100
AcDbEntity
  8
C4
 62
     0
100
AcDbLine
 10
1375.272162402479
 20
526.1588111735464
 30
0.0
 11
1375.272162402479
 21
512.1600322068998
 31
0.0
  0
LINE
  5
2E5
330
1F
100
AcDbEntity
  8
C4
 62
     0
100
AcDbLine
 10
1375.272162402479
 20
1062.151348133498
 30
0.0
 11
1375.272162402479
 21
526.1588111735464
 31
0.0
  0
DIMENSION
  5
2E6
330
1F
100
AcDbEntity
  8
C寸法
 62
     7
370
    13
100
AcDbDimension
  2
*D17
 10
1215.774162401977
 20
527.1513481151496
 30
0.0
 11
1198.274162401977
 21
787.1513481192646
 31
0.0
 70
    32
 71
     5
 42
520.00000000823
  3
実寸
100
AcDbAlignedDimension
 13
875.772162399903
 23
1047.15134812338
 33
0.0
 14
965.7741624019734
 24
527.1513481151496
 34
0.0
 50
90.0
100
AcDbRotatedDimension
1001
ACAD
1000
DSTYLE
1002
{
1070
   340
1005
F3
1070
   144
1040
1.0
1002
}
  0
DIMENSION
  5
2E7
330
1F
100
AcDbEntity
  8
C寸法
 62
     7
370
    13
100
AcDbDimension
  2
*D18
 10
1165.774162401973
 20
527.1513481151496
 30
0.0
 11
1148.274162401973
 21
747.1513481151496
 31
0.0
 70
    32
 71
     5
 42
440.0
  3
実寸
100
AcDbAlignedDimension
 13
965.7741624019734
 23
967.1513481151496
 33
0.0
 14
965.7741624019734
 24
527.1513481151496
 34
0.0
 50
90.0
100
AcDbRotatedDimension
1001
ACAD
1000
DSTYLE
1002
{
1070
   340
1005
F3
1070
   144
1040
1.0
1002
}
  0
DIMENSION
  5
2E8
330
1F
100
AcDbEntity
  8
C寸法
 62
     7
370
    13
100
AcDbDimension
  2
*D19
 10
1115.774162401973
 20
527.1513481151496
 30
0.0
 11
1115.774162401973
 21
453.6059612103876
 31
0.0
 70
   160
 71
     5
 42
15.00000000000003
  3
実寸
100
AcDbAlignedDimension
 13
965.7741624019734
 23
542.1513481151496
 33
0.0
 14
535.7741623882475
 24
527.1513481151496
 34
0.0
 50
90.0
100
AcDbRotatedDimension
1001
ACAD
1000
DSTYLE
1002
{
1070
   340
1005
F3
1070
   172
1070
     1
1070
   144
1040
1.0
1002
}
  0
DIMENSION
  5
2E9
330
1F
100
AcDbEntity
  8
C寸法
 62
     7
370
    13
100
AcDbDimension
  2
*D20
 10
1065.774162401973
 20
802.1513481245809
 30
0.0
 11
1048.274162401973
 21
877.1513481198652
 31
0.0
 70
    32
 71
     5
 42
149.9999999905688
  3
実寸
100
AcDbAlignedDimension
 13
965.7741624019734
 23
952.1513481151496
 33
0.0
 14
959.7517005962079
 24
802.1513481245809
 34
0.0
 50
90.0
100
AcDbRotatedDimension
1001
ACAD
1000
DSTYLE
1002
{
1070
   340
1005
F3
1070
   144
1040
1.0
1002
}
  0
DIMENSION
  5
2EA
330
1F
100
AcDbEntity
  8
C寸法
 62
     7
370
    13
100
AcDbDimension
  2
*D21
 10
1165.774162401973
 20
1047.15134812338
 30
0.0
 11
1148.274162401973
 21
1007.151348126809
 31
0.0
 70
    32
 71
     5
 42
79.99999999314151
  3
実寸
100
AcDbAlignedDimension
 13
535.7741623882503
 23
967.1513481302381
 33
0.0
 14
875.772162399903
 24
1047.15134812338
 34
0.0
 50
90.0
100
AcDbRotatedDimension
1001
ACAD
1000
DSTYLE
1002
{
1070
   340
1005
F3
1070
   144
1040
1.0
1002
}
  0
DIMENSION
  5
2EB
330
1F
100
AcDbEntity
  8
C寸法
 62
     7
370
    13
100
AcDbDimension
  2
*D22
 10
1115.774162401973
 20
952.1513481151496
 30
0.0
 11
1098.274162401973
 21
747.151348115151
 31
0.0
 70
    32
 71
     5
 42
409.9999999999973
  3
実寸
100
AcDbAlignedDimension
 13
535.7741623882475
 23
542.1513481151524
 33
0.0
 14
965.7741624019734
 24
952.1513481151496
 34
0.0
 50
90.0
100
AcDbRotatedDimension
1001
ACAD
1000
DSTYLE
1002
{
1070
   340
1005
F3
1070
   144
1040
1.0
1002
}
  0
DIMENSION
  5
2EC
330
1F
100
AcDbEntity
  8
C寸法
 62
     7
370
    13
100
AcDbDimension
  2
*D23
 10
1115.774162401973
 20
967.1513481302404
 30
0.0
 11
1115.774162401973
 21
878.6059612209133
 31
0.0
 70
   160
 71
     5
 42
15.00000000456523
  3
実寸
100
AcDbAlignedDimension
 13
535.7802656513878
 23
952.1513481256752
 33
0.0
 14
875.772162399903
 24
967.1513481302404
 34
0.0
 50
90.0
100
AcDbRotatedDimension
1001
ACAD
1000
DSTYLE
1002
{
1070
   340
1005
F3
1070
   172
1070
     1
1070
   144
1040
1.0
1002
}
  0
DIMENSION
  5
2ED
330
1F
100
AcDbEntity
  8
C寸法
 62
     0
370
    13
100
AcDbDimension
  2
*D24
 10
935.7721624019621
 20
377.1513481076863
 30
0.0
 11
535.7731623882471
 21
394.6513481076863
 31
0.0
 70
    32
 71
     5
 42
799.99800002743
  3
実寸
100
AcDbAlignedDimension
 13
135.7741623745321
 23
587.1513481172069
 33
0.0
 14
935.7721624019621
 24
587.1513481172069
 34
0.0
100
AcDbRotatedDimension
1001
ACAD
1000
DSTYLE
1002
{
1070
   340
1005
F3
1070
   144
1040
1.0
1002
}
  0
DIMENSION
  5
2EE
330
1F
100
AcDbEntity
  8
C寸法
 62
     7
370
    13
100
AcDbDimension
  2
*D25
 10
1115.774162401973
 20
102.8513481006559
 30
0.0
 11
1098.274162401973
 21
197.8515458818976
 31
0.0
 70
    32
 71
     5
 42
190.0003955624834
  3
実寸
100
AcDbAlignedDimension
 13
965.7711492102142
 23
292.8517436631394
 33
0.0
 14
620.1245215222114
 24
102.8513481006559
 34
0.0
 50
90.0
100
AcDbRotatedDimension
1001
ACAD
1000
DSTYLE
1002
{
1070
   340
1005
F3
1070
   144
1040
1.0
1002
}
  0
LINE
  5
2EF
330
1F
100
AcDbEntity
  8
C寸法
  6
CENTER
 62
     7
 48
20.0
370
    13
100
AcDbLine
 10
494.6548633701839
 20
1007.151348124579
 30
0.0
 11
576.9007337860124
 21
1007.151348124579
 31
0.0
  0
CIRCLE
  5
2F0
330
1F
100
AcDbEntity
  8
C寸法
 62
     7
100
AcDbCircle
 10
535.7741623882473
 20
1007.151348124579
 30
0.0
 40
18.0
  0
DIMENSION
  5
2F1
330
1F
100
AcDbEntity
  8
C寸法
 62
     7
370
    13
100
AcDbDimension
  2
*D26
 10
1065.774162401973
 20
1047.151348132981
 30
0.0
 11
1048.274162401973
 21
1122.389443371076
 31
0.0
 70
    32
 71
     5
 42
40.00000000840193
  3
実寸
100
AcDbAlignedDimension
 13
574.5014533064331
 23
1007.151348124579
 33
0.0
 14
875.772162399903
 24
1047.151348132981
 34
0.0
 50
90.0
100
AcDbRotatedDimension
1001
ACAD
1000
DSTYLE
1002
{
1070
   340
1005
F3
1070
   144
1040
1.0
1070
   172
1070
     1
1002
}
  0
DIMENSION
  5
2F2
330
1F
100
AcDbEntity
  8
C寸法
 62
     7
370
    13
100
AcDbDimension
  2
*D27
 10
1065.774162401973
 20
277.8513481066568
 30
0.0
 11
1048.274162401973
 21
204.3059612018948
 31
0.0
 70
    32
 71
     5
 42
15.00000000051478
  3
実寸
100
AcDbAlignedDimension
 13
941.286414326431
 23
292.8513481071715
 33
0.0
 14
924.2087276151243
 24
277.8513481066568
 34
0.0
 50
90.0
100
AcDbRotatedDimension
1001
ACAD
1000
DSTYLE
1002
{
1070
   340
1005
F3
1070
   172
1070
     1
1070
   144
1040
1.0
1002
}
  0
LINE
  5
2F3
330
1F
100
AcDbEntity
  8
C4
 62
     0
100
AcDbLine
 10
1390.271925564114
 20
957.1530060020568
 30
0.0
 11
1390.27192556411
 21
847.306080095392
 31
0.0
  0
LINE
  5
2F4
330
1F
100
AcDbEntity
  8
C4
 62
     0
100
AcDbLine
 10
1390.271925564114
 20
646.9967087339064
 30
0.0
 11
1390.271925564114
 21
537.1616374447121
 31
0.0
  0
DIMENSION
  5
2F5
330
1F
100
AcDbEntity
  8
C寸法
 62
     7
370
    13
100
AcDbDimension
  2
*D28
 10
445.4638306205427
 20
642.1729869014193
 30
0.0
 11
549.9504196158334
 21
642.1729869014193
 31
0.0
 70
   160
  1
Φ<>
 71
     5
 42
180.8103317708083
 52
-270.0
  3
実寸
100
AcDbAlignedDimension
 13
626.274162391351
 23
802.1443481245797
 33
0.0
 14
445.4638306205427
 24
801.8985208387105
 34
0.0
 50
180.0
100
AcDbRotatedDimension
1001
ACAD
1000
DSTYLE
1002
{
1070
   271
1070
     0
1070
   340
1005
F3
1070
   144
1040
1.0
1002
}
  0
DIMENSION
  5
393
330
1F
100
AcDbEntity
  8
0
370
    13
100
AcDbDimension
  2
*D29
 10
553.8309025055956
 20
1089.816277756689
 30
0.0
 11
693.2654263151195
 21
1107.316277756689
 31
0.0
 70
    32
  1
Φ36 水栓穴
 71
     5
 42
35.839099416674
  3
JIS-1
100
AcDbAlignedDimension
 13
517.9918030889216
 23
1007.656392627011
 33
0.0
 14
553.8309025055956
 24
1007.656392627011
 34
0.0
100
AcDbRotatedDimension
1001
ACAD
1000
DSTYLE
1002
{
1070
   140
1040
25.0
1070
   340
1005
F3
1070
   147
1040
5.0
1070
    77
1070
     3
1070
    41
1040
25.0
1002
}
  0
DIMENSION
  5
40D
330
1F
100
AcDbEntity
  8
0
370
    13
100
AcDbDimension
  2
*D36
 10
202.7673854282299
 20
581.065848328837
 30
0.0
 11
264.9651823982788
 21
621.7051300653166
 31
0.0
 70
   164
  1
4-<>
 71
     5
 42
60.00000000001861
  3
JIS-1
100
AcDbRadialDimension
 15
252.9961047064075
 25
613.8846807223921
 35
0.0
 40
0.0
1001
ACAD_DSTYLE_DIMRADIAL_EXTENSION
1070
   387
1070
     0
1070
   388
1040
3.141589999999848
1070
   390
1040
4.71239000000101
1001
ACAD
1000
DSTYLE
1002
{
1070
   140
1040
25.0
1070
   147
1040
5.0
1070
   340
1005
F3
1070
    41
1040
25.0
1070
   344
1005
90
1070
   173
1070
     1
1002
}
  0
DIMENSION
  5
40E
102
{ACAD_XDICTIONARY
360
40F
102
}
330
1F
100
AcDbEntity
  8
0
370
    13
100
AcDbDimension
  2
*D37
 10
237.5251765078601
 20
652.5883578864285
 30
0.0
 11
231.7076334064881
 21
648.4386121553465
 31
0.0
 70
   164
  1
4-<>
 71
     5
 42
100.000000000031
  3
JIS-1
100
AcDbRadialDimension
 15
156.1145017017895
 25
594.5168327848227
 35
0.0
 40
0.0
1001
ACAD_DSTYLE_DIMRADIAL_EXTENSION
1070
   387
1070
     0
1070
   388
1040
3.19253000000058
1070
   390
1040
4.668020000001362
1001
ACAD
1000
DSTYLE
1002
{
1070
   140
1040
25.0
1070
   340
1005
F3
1070
   147
1040
5.0
1070
    41
1040
25.0
1070
   344
1005
90
1070
   173
1070
     1
1002
}
  0
DIMENSION
  5
411
102
{ACAD_XDICTIONARY
360
412
102
}
330
1F
100
AcDbEntity
  8
0
370
    13
100
AcDbDimension
  2
*D38
 10
195.0631765078315
 20
989.3203578865301
 30
0.0
 11
288.8688201423404
 21
873.6480258958877
 31
0.0
 70
   164
  1
2-<>
 71
     5
 42
60.00000000001835
  3
JIS-1
100
AcDbRadialDimension
 15
232.8554909073717
 25
942.7184161638024
 35
0.0
 40
0.0
1001
ACAD_DSTYLE_DIMRADIAL_EXTENSION
1070
   387
1070
     0
1070
   388
1040
1.570800000000252
1070
   390
1040
3.141589999999848
1001
ACAD
1000
DSTYLE
1002
{
1070
   140
1040
25.0
1070
   147
1040
5.0
1070
   340
1005
F3
1070
    41
1040
25.0
1070
   344
1005
90
1070
   173
1070
     1
1002
}
  0
ENDSEC
  0
SECTION
  2
OBJECTS
  0
DICTIONARY
  5
C
330
0
100
AcDbDictionary
281
     1
  3
ACAD_COLOR
350
F5
  3
ACAD_DETAILVIEWSTYLE
350
DA
  3
ACAD_GROUP
350
D
  3
ACAD_IMAGE_VARS
350
6A
  3
ACAD_LAYOUT
350
1A
  3
ACAD_MATERIAL
350
97
  3
ACAD_MLEADERSTYLE
350
3F
  3
ACAD_MLINESTYLE
350
17
  3
ACAD_PLOTSETTINGS
350
19
  3
ACAD_PLOTSTYLENAME
350
E
  3
ACAD_SCALELIST
350
40
  3
ACAD_SECTIONVIEWSTYLE
350
DB
  3
ACAD_TABLESTYLE
350
3B
  3
ACDB_RECOMPOSE_DATA
350
430
  3
AcDbVariableDictionary
350
3D
  3
APPDATA
350
96
  0
DICTIONARY
  5
251
330
2
100
AcDbDictionary
280
     1
281
     1
  3
ACAD_LAYERSTATES
360
252
  0
DICTIONARY
  5
40F
330
40E
100
AcDbDictionary
280
     1
281
     1
  0
DICTIONARY
  5
412
330
411
100
AcDbDictionary
280
     1
281
     1
  0
DICTIONARY
  5
F5
102
{ACAD_REACTORS
330
C
102
}
330
C
100
AcDbDictionary
281
     1
  0
DICTIONARY
  5
DA
102
{ACAD_REACTORS
330
C
102
}
330
C
100
AcDbDictionary
281
     1
  0
DICTIONARY
  5
D
102
{ACAD_REACTORS
330
C
102
}
330
C
100
AcDbDictionary
281
     1
  0
RASTERVARIABLES
  5
6A
102
{ACAD_REACTORS
330
C
102
}
330
C
100
AcDbRasterVariables
 90
        0
 70
     1
 71
     1
 72
     1
  0
DICTIONARY
  5
1A
102
{ACAD_REACTORS
330
C
102
}
330
C
100
AcDbDictionary
281
     1
  3
Model
350
22
  3
Sheet1
350
1E
  3
Sheet2
350
26
  0
DICTIONARY
  5
97
102
{ACAD_REACTORS
330
C
102
}
330
C
100
AcDbDictionary
281
     1
  3
ByBlock
350
99
  3
ByLayer
350
98
  3
Global
350
9A
  0
DICTIONARY
  5
3F
102
{ACAD_REACTORS
330
C
102
}
330
C
100
AcDbDictionary
281
     1
  3
Standard
350
DC
  0
DICTIONARY
  5
17
102
{ACAD_REACTORS
330
C
102
}
330
C
100
AcDbDictionary
281
     1
  3
Standard
350
18
  0
DICTIONARY
  5
19
102
{ACAD_REACTORS
330
C
102
}
330
C
100
AcDbDictionary
281
     1
  0
ACDBDICTIONARYWDFLT
  5
E
102
{ACAD_REACTORS
330
C
102
}
330
C
100
AcDbDictionary
281
     1
  3
Normal
350
F
100
AcDbDictionaryWithDefault
340
F
  0
DICTIONARY
  5
40
102
{ACAD_REACTORS
330
C
102
}
330
C
100
AcDbDictionary
281
     1
  3
A0
350
41
  3
A1
350
42
  3
A2
350
43
  3
A3
350
44
  3
A4
350
45
  3
A5
350
46
  3
A6
350
47
  3
A7
350
48
  3
A8
350
49
  3
A9
350
4A
  3
B0
350
4B
  3
B1
350
4C
  3
B2
350
4D
  3
B3
350
4E
  3
B4
350
4F
  3
B5
350
50
  3
B6
350
51
  3
B7
350
52
  3
B8
350
53
  3
B9
350
54
  3
C0
350
55
  3
C1
350
56
  3
C2
350
57
  3
C3
350
58
  3
C4
350
59
  3
C5
350
5A
  3
C6
350
5B
  3
C7
350
5C
  3
C8
350
5D
  3
C9
350
5E
  3
D0
350
5F
  3
D1
350
60
  3
D2
350
61
  0
DICTIONARY
  5
DB
102
{ACAD_REACTORS
330
C
102
}
330
C
100
AcDbDictionary
281
     1
  0
DICTIONARY
  5
3B
102
{ACAD_REACTORS
330
C
102
}
330
C
100
AcDbDictionary
281
     1
  3
Standard
350
3C
  0
XRECORD
  5
430
102
{ACAD_REACTORS
330
C
102
}
330
C
100
AcDbXrecord
280
     1
 90
        1
330
3C
  0
DICTIONARY
  5
3D
102
{ACAD_REACTORS
330
C
102
}
330
C
100
AcDbDictionary
281
     1
  3
CANNOSCALE
350
62
  3
CMLEADERSTYLE
350
392
  3
CTABLESTYLE
350
3E
  3
LIGHTSINBLOCKS
350
6F
  3
XCLIPFRAME
350
70
  0
DICTIONARY
  5
96
102
{ACAD_REACTORS
330
C
102
}
330
C
100
AcDbDictionary
281
     1
  0
DICTIONARY
  5
252
102
{ACAD_REACTORS
330
251
102
}
330
251
100
AcDbDictionary
281
     1
  3
ARGON_LAYERP_1
350
3BF
  0
LAYOUT
  5
22
102
{ACAD_REACTORS
330
1A
102
}
330
1A
100
AcDbPlotSettings
  1

  2
none_device
  4
ISO_A3_(420.00_x_297.00_MM)
  6

 40
7.5
 41
20.0
 42
7.5
 43
20.0
 44
420.0
 45
297.0
 46
20.78282828282826
 47
0.0
 48
0.0
 49
0.0
140
0.0
141
0.0
142
1.0
143
1.155642023346303
 70
  1204
 72
     1
 73
     0
 74
     1
  7
monochrome.ctb
 75
     0
 76
     0
 77
     2
 78
   300
147
0.8653198653198654
148
-134.1869158878504
149
0.0
100
AcDbLayout
  1
Model
 70
     1
 71
     0
 10
0.0
 20
0.0
 11
420.0
 21
297.0
 12
0.0
 22
0.0
 32
0.0
 14
5.838463609440851
 24
6.247285291214155
 34
0.0
 15
1805.894122851987
 25
1207.795773198707
 35
0.0
146
0.0
 13
0.0
 23
0.0
 33
0.0
 16
1.0
 26
0.0
 36
0.0
 17
0.0
 27
1.0
 37
0.0
 76
     0
330
1F
331
29
  0
LAYOUT
  5
1E
102
{ACAD_REACTORS
330
1A
102
}
330
1A
100
AcDbPlotSettings
  1

  2
none_device
  4

  6

 40
0.0
 41
0.0
 42
0.0
 43
0.0
 44
0.0
 45
0.0
 46
0.0
 47
0.0
 48
0.0
 49
0.0
140
0.0
141
0.0
142
1.0
143
1.0
 70
   688
 72
     0
 73
     0
 74
     5
  7

 75
    16
 76
     0
 77
     2
 78
   300
147
1.0
148
0.0
149
0.0
100
AcDbLayout
  1
Sheet1
 70
     1
 71
     1
 10
0.0
 20
0.0
 11
420.0
 21
297.0
 12
0.0
 22
0.0
 32
0.0
 14
1.000000000000000E+20
 24
1.000000000000000E+20
 34
1.000000000000000E+20
 15
-1.000000000000000E+20
 25
-1.000000000000000E+20
 35
-1.000000000000000E+20
146
0.0
 13
0.0
 23
0.0
 33
0.0
 16
1.0
 26
0.0
 36
0.0
 17
0.0
 27
1.0
 37
0.0
 76
     0
330
1B
  0
LAYOUT
  5
26
102
{ACAD_REACTORS
330
1A
102
}
330
1A
100
AcDbPlotSettings
  1

  2
none_device
  4

  6

 40
0.0
 41
0.0
 42
0.0
 43
0.0
 44
0.0
 45
0.0
 46
0.0
 47
0.0
 48
0.0
 49
0.0
140
0.0
141
0.0
142
1.0
143
1.0
 70
   688
 72
     0
 73
     0
 74
     5
  7

 75
    16
 76
     0
 77
     2
 78
   300
147
1.0
148
0.0
149
0.0
100
AcDbLayout
  1
Sheet2
 70
     1
 71
     2
 10
0.0
 20
0.0
 11
0.0
 21
0.0
 12
0.0
 22
0.0
 32
0.0
 14
0.0
 24
0.0
 34
0.0
 15
0.0
 25
0.0
 35
0.0
146
0.0
 13
0.0
 23
0.0
 33
0.0
 16
1.0
 26
0.0
 36
0.0
 17
0.0
 27
1.0
 37
0.0
 76
     0
330
23
  0
MATERIAL
  5
99
102
{ACAD_REACTORS
330
97
102
}
330
97
100
AcDbMaterial
  1
ByBlock
  0
MATERIAL
  5
98
102
{ACAD_REACTORS
330
97
102
}
330
97
100
AcDbMaterial
  1
ByLayer
  0
MATERIAL
  5
9A
102
{ACAD_REACTORS
330
97
102
}
330
97
100
AcDbMaterial
  1
Global
  0
MLEADERSTYLE
  5
DC
102
{ACAD_REACTORS
330
3F
102
}
330
3F
100
AcDbMLeaderStyle
170
     2
171
     1
172
     0
 90
        2
 40
0.0
 41
0.0
173
     1
 91
-1056964608
340
14
 92
       -2
290
     1
 42
2.0
291
     1
 43
8.0
  3
Standard
341
0
 44
4.0
300

342
11
174
     1
178
     6
175
     1
176
     0
 93
-1056964608
 45
4.0
292
     0
297
     0
 46
4.0
343
0
 94
-1056964608
 47
1.0
 49
1.0
140
1.0
293
     1
141
0.0
294
     1
177
     0
142
1.0
295
     0
296
     0
143
3.75
1001
ACAD_MLEADERVER
1070
     2
  0
MLINESTYLE
  5
18
102
{ACAD_REACTORS
330
17
102
}
330
17
100
AcDbMlineStyle
  2
Standard
 70
     0
  3

 62
   256
 51
90.0
 52
90.0
 71
     2
 49
0.5
 62
   256
  6
BYLAYER
 49
-0.5
 62
   256
  6
BYLAYER
  0
ACDBPLACEHOLDER
  5
F
102
{ACAD_REACTORS
330
E
102
}
330
E
  0
SCALE
  5
41
102
{ACAD_REACTORS
330
40
102
}
330
40
100
AcDbScale
 70
     0
300
1:1
140
1.0
141
1.0
290
     1
  0
SCALE
  5
42
102
{ACAD_REACTORS
330
40
102
}
330
40
100
AcDbScale
 70
     0
300
1:2
140
1.0
141
2.0
290
     0
  0
SCALE
  5
43
102
{ACAD_REACTORS
330
40
102
}
330
40
100
AcDbScale
 70
     0
300
1:4
140
1.0
141
4.0
290
     0
  0
SCALE
  5
44
102
{ACAD_REACTORS
330
40
102
}
330
40
100
AcDbScale
 70
     0
300
1:5
140
1.0
141
5.0
290
     0
  0
SCALE
  5
45
102
{ACAD_REACTORS
330
40
102
}
330
40
100
AcDbScale
 70
     0
300
1:8
140
1.0
141
8.0
290
     0
  0
SCALE
  5
46
102
{ACAD_REACTORS
330
40
102
}
330
40
100
AcDbScale
 70
     0
300
1:10
140
1.0
141
10.0
290
     0
  0
SCALE
  5
47
102
{ACAD_REACTORS
330
40
102
}
330
40
100
AcDbScale
 70
     0
300
1:16
140
1.0
141
16.0
290
     0
  0
SCALE
  5
48
102
{ACAD_REACTORS
330
40
102
}
330
40
100
AcDbScale
 70
     0
300
1:20
140
1.0
141
20.0
290
     0
  0
SCALE
  5
49
102
{ACAD_REACTORS
330
40
102
}
330
40
100
AcDbScale
 70
     0
300
1:30
140
1.0
141
30.0
290
     0
  0
SCALE
  5
4A
102
{ACAD_REACTORS
330
40
102
}
330
40
100
AcDbScale
 70
     0
300
1:40
140
1.0
141
40.0
290
     0
  0
SCALE
  5
4B
102
{ACAD_REACTORS
330
40
102
}
330
40
100
AcDbScale
 70
     0
300
1:50
140
1.0
141
50.0
290
     0
  0
SCALE
  5
4C
102
{ACAD_REACTORS
330
40
102
}
330
40
100
AcDbScale
 70
     0
300
1:100
140
1.0
141
100.0
290
     0
  0
SCALE
  5
4D
102
{ACAD_REACTORS
330
40
102
}
330
40
100
AcDbScale
 70
     0
300
2:1
140
2.0
141
1.0
290
     0
  0
SCALE
  5
4E
102
{ACAD_REACTORS
330
40
102
}
330
40
100
AcDbScale
 70
     0
300
4:1
140
4.0
141
1.0
290
     0
  0
SCALE
  5
4F
102
{ACAD_REACTORS
330
40
102
}
330
40
100
AcDbScale
 70
     0
300
8:1
140
8.0
141
1.0
290
     0
  0
SCALE
  5
50
102
{ACAD_REACTORS
330
40
102
}
330
40
100
AcDbScale
 70
     0
300
10:1
140
10.0
141
1.0
290
     0
  0
SCALE
  5
51
102
{ACAD_REACTORS
330
40
102
}
330
40
100
AcDbScale
 70
     0
300
100:1
140
100.0
141
1.0
290
     0
  0
SCALE
  5
52
102
{ACAD_REACTORS
330
40
102
}
330
40
100
AcDbScale
 70
     0
300
1/128" = 1'-0"
140
0.0078125
141
12.0
290
     0
  0
SCALE
  5
53
102
{ACAD_REACTORS
330
40
102
}
330
40
100
AcDbScale
 70
     0
300
1/64" = 1'-0"
140
0.015625
141
12.0
290
     0
  0
SCALE
  5
54
102
{ACAD_REACTORS
330
40
102
}
330
40
100
AcDbScale
 70
     0
300
1/32" = 1'-0"
140
0.03125
141
12.0
290
     0
  0
SCALE
  5
55
102
{ACAD_REACTORS
330
40
102
}
330
40
100
AcDbScale
 70
     0
300
1/16" = 1'-0"
140
0.0625
141
12.0
290
     0
  0
SCALE
  5
56
102
{ACAD_REACTORS
330
40
102
}
330
40
100
AcDbScale
 70
     0
300
3/32" = 1'-0"
140
0.09375
141
12.0
290
     0
  0
SCALE
  5
57
102
{ACAD_REACTORS
330
40
102
}
330
40
100
AcDbScale
 70
     0
300
1/8" = 1'-0"
140
0.125
141
12.0
290
     0
  0
SCALE
  5
58
102
{ACAD_REACTORS
330
40
102
}
330
40
100
AcDbScale
 70
     0
300
3/16" = 1'-0"
140
0.1875
141
12.0
290
     0
  0
SCALE
  5
59
102
{ACAD_REACTORS
330
40
102
}
330
40
100
AcDbScale
 70
     0
300
1/4" = 1'-0"
140
0.25
141
12.0
290
     0
  0
SCALE
  5
5A
102
{ACAD_REACTORS
330
40
102
}
330
40
100
AcDbScale
 70
     0
300
3/8" = 1'-0"
140
0.375
141
12.0
290
     0
  0
SCALE
  5
5B
102
{ACAD_REACTORS
330
40
102
}
330
40
100
AcDbScale
 70
     0
300
1/2" = 1'-0"
140
0.5
141
12.0
290
     0
  0
SCALE
  5
5C
102
{ACAD_REACTORS
330
40
102
}
330
40
100
AcDbScale
 70
     0
300
3/4" = 1'-0"
140
0.75
141
12.0
290
     0
  0
SCALE
  5
5D
102
{ACAD_REACTORS
330
40
102
}
330
40
100
AcDbScale
 70
     0
300
1" = 1'-0"
140
1.0
141
12.0
290
     0
  0
SCALE
  5
5E
102
{ACAD_REACTORS
330
40
102
}
330
40
100
AcDbScale
 70
     0
300
1-1/2" = 1'-0"
140
1.5
141
12.0
290
     0
  0
SCALE
  5
5F
102
{ACAD_REACTORS
330
40
102
}
330
40
100
AcDbScale
 70
     0
300
3" = 1'-0"
140
3.0
141
12.0
290
     0
  0
SCALE
  5
60
102
{ACAD_REACTORS
330
40
102
}
330
40
100
AcDbScale
 70
     0
300
6" = 1'-0"
140
6.0
141
12.0
290
     0
  0
SCALE
  5
61
102
{ACAD_REACTORS
330
40
102
}
330
40
100
AcDbScale
 70
     0
300
1'-0" = 1'-0"
140
12.0
141
12.0
290
     0
  0
TABLESTYLE
  5
3C
102
{ACAD_REACTORS
330
3B
102
}
102
{ACAD_XDICTIONARY
360
42C
102
}
330
3B
100
AcDbTableStyle
  3
Standard
 70
     0
 71
     0
 40
1.5
 41
1.5
280
     0
281
     0
  7
Standard
140
4.5
170
     2
 62
     0
 63
   257
283
     0
274
    -2
284
     1
 64
     0
275
    -2
285
     1
 65
     0
276
    -2
286
     1
 66
     0
277
    -2
287
     1
 67
     0
278
    -2
288
     1
 68
     0
279
    -2
289
     1
 69
     0
  7
Standard
140
6.0
170
     5
 62
     0
 63
   257
283
     0
274
    -2
284
     1
 64
     0
275
    -2
285
     1
 65
     0
276
    -2
286
     1
 66
     0
277
    -2
287
     1
 67
     0
278
    -2
288
     1
 68
     0
279
    -2
289
     1
 69
     0
  7
Standard
140
4.5
170
     5
 62
     0
 63
   257
283
     0
274
    -2
284
     1
 64
     0
275
    -2
285
     1
 65
     0
276
    -2
286
     1
 66
     0
277
    -2
287
     1
 67
     0
278
    -2
288
     1
 68
     0
279
    -2
289
     1
 69
     0
  0
DICTIONARYVAR
  5
62
102
{ACAD_REACTORS
330
3D
102
}
330
3D
100
DictionaryVariables
280
     0
  1
1:1
  0
DICTIONARYVAR
  5
392
102
{ACAD_REACTORS
330
3D
102
}
330
3D
100
DictionaryVariables
280
     0
  1
Standard
  0
DICTIONARYVAR
  5
3E
102
{ACAD_REACTORS
330
3D
102
}
330
3D
100
DictionaryVariables
280
     0
  1
Standard
  0
DICTIONARYVAR
  5
6F
102
{ACAD_REACTORS
330
3D
102
}
330
3D
100
DictionaryVariables
280
     0
  1
0
  0
DICTIONARYVAR
  5
70
102
{ACAD_REACTORS
330
3D
102
}
330
3D
100
DictionaryVariables
280
     0
  1
0
  0
XRECORD
  5
3BF
102
{ACAD_REACTORS
330
252
102
}
330
252
100
AcDbXrecord
280
     1
 91
     1023
301

290
     0
302
0
330
10
 90
        8
 62
     7
370
    -3
331
16
  1
Normal
330
7E
 90
        0
 62
     7
370
    -3
331
16
  1
Normal
330
DE
 90
        8
 62
     1
370
    -3
331
E2
  1
Normal
330
E3
 90
        8
 62
     3
370
    -3
331
16
  1
Normal
330
E4
 90
        8
 62
     4
370
    -3
331
16
  1
Normal
  0
DICTIONARY
  5
42C
330
3C
100
AcDbDictionary
280
     1
281
     1
  3
ACAD_ROUNDTRIP_2008_TABLESTYLE_CELLSTYLEMAP
360
42E
  3
ACAD_XREC_ROUNDTRIP
360
42D
  0
CELLSTYLEMAP
  5
42E
102
{ACAD_REACTORS
330
42C
102
}
330
42C
100
AcDbCellStyleMap
 90
        3
300
CELLSTYLE
  1
TABLEFORMAT_BEGIN
 90
        5
170
     1
 91
        0
 92
    32768
 62
   257
 93
        1
300
CONTENTFORMAT
  1
CONTENTFORMAT_BEGIN
 90
        0
 91
        0
 92
      512
 93
        0
300

 40
0.0
140
1.0
 94
        5
 62
     0
340
11
144
6.0
309
CONTENTFORMAT_END
171
     1
301
MARGIN
  1
CELLMARGIN_BEGIN
 40
1.5
 40
1.5
 40
1.5
 40
1.5
 40
0.18
 40
0.18
309
CELLMARGIN_END
 94
        6
 95
        1
302
GRIDFORMAT
  1
GRIDFORMAT_BEGIN
 90
        0
 91
        1
 62
     0
 92
       -2
340
0
 93
        0
 40
0.045
309
GRIDFORMAT_END
 95
        2
302
GRIDFORMAT
  1
GRIDFORMAT_BEGIN
 90
        0
 91
        1
 62
     0
 92
       -2
340
0
 93
        0
 40
0.045
309
GRIDFORMAT_END
 95
        4
302
GRIDFORMAT
  1
GRIDFORMAT_BEGIN
 90
        0
 91
        1
 62
     0
 92
       -2
340
0
 93
        0
 40
0.045
309
GRIDFORMAT_END
 95
        8
302
GRIDFORMAT
  1
GRIDFORMAT_BEGIN
 90
        0
 91
        1
 62
     0
 92
       -2
340
0
 93
        0
 40
0.045
309
GRIDFORMAT_END
 95
       16
302
GRIDFORMAT
  1
GRIDFORMAT_BEGIN
 90
        0
 91
        1
 62
     0
 92
       -2
340
0
 93
        0
 40
0.045
309
GRIDFORMAT_END
 95
       32
302
GRIDFORMAT
  1
GRIDFORMAT_BEGIN
 90
        0
 91
        1
 62
     0
 92
       -2
340
0
 93
        0
 40
0.045
309
GRIDFORMAT_END
309
TABLEFORMAT_END
  1
CELLSTYLE_BEGIN
 90
        1
 91
        1
300
_TITLE
309
CELLSTYLE_END
300
CELLSTYLE
  1
TABLEFORMAT_BEGIN
 90
        5
170
     1
 91
        0
 92
        0
 62
   257
 93
        1
300
CONTENTFORMAT
  1
CONTENTFORMAT_BEGIN
 90
        0
 91
        0
 92
      512
 93
        0
300

 40
0.0
140
1.0
 94
        5
 62
     0
340
11
144
4.5
309
CONTENTFORMAT_END
171
     1
301
MARGIN
  1
CELLMARGIN_BEGIN
 40
1.5
 40
1.5
 40
1.5
 40
1.5
 40
0.18
 40
0.18
309
CELLMARGIN_END
 94
        6
 95
        1
302
GRIDFORMAT
  1
GRIDFORMAT_BEGIN
 90
        0
 91
        1
 62
     0
 92
       -2
340
0
 93
        0
 40
0.045
309
GRIDFORMAT_END
 95
        2
302
GRIDFORMAT
  1
GRIDFORMAT_BEGIN
 90
        0
 91
        1
 62
     0
 92
       -2
340
0
 93
        0
 40
0.045
309
GRIDFORMAT_END
 95
        4
302
GRIDFORMAT
  1
GRIDFORMAT_BEGIN
 90
        0
 91
        1
 62
     0
 92
       -2
340
0
 93
        0
 40
0.045
309
GRIDFORMAT_END
 95
        8
302
GRIDFORMAT
  1
GRIDFORMAT_BEGIN
 90
        0
 91
        1
 62
     0
 92
       -2
340
0
 93
        0
 40
0.045
309
GRIDFORMAT_END
 95
       16
302
GRIDFORMAT
  1
GRIDFORMAT_BEGIN
 90
        0
 91
        1
 62
     0
 92
       -2
340
0
 93
        0
 40
0.045
309
GRIDFORMAT_END
 95
       32
302
GRIDFORMAT
  1
GRIDFORMAT_BEGIN
 90
        0
 91
        1
 62
     0
 92
       -2
340
0
 93
        0
 40
0.045
309
GRIDFORMAT_END
309
TABLEFORMAT_END
  1
CELLSTYLE_BEGIN
 90
        2
 91
        1
300
_HEADER
309
CELLSTYLE_END
300
CELLSTYLE
  1
TABLEFORMAT_BEGIN
 90
        5
170
     1
 91
        0
 92
        0
 62
   257
 93
        1
300
CONTENTFORMAT
  1
CONTENTFORMAT_BEGIN
 90
        0
 91
        0
 92
      512
 93
        0
300

 40
0.0
140
1.0
 94
        2
 62
     0
340
11
144
4.5
309
CONTENTFORMAT_END
171
     1
301
MARGIN
  1
CELLMARGIN_BEGIN
 40
1.5
 40
1.5
 40
1.5
 40
1.5
 40
0.18
 40
0.18
309
CELLMARGIN_END
 94
        6
 95
        1
302
GRIDFORMAT
  1
GRIDFORMAT_BEGIN
 90
        0
 91
        1
 62
     0
 92
       -2
340
0
 93
        0
 40
0.045
309
GRIDFORMAT_END
 95
        2
302
GRIDFORMAT
  1
GRIDFORMAT_BEGIN
 90
        0
 91
        1
 62
     0
 92
       -2
340
0
 93
        0
 40
0.045
309
GRIDFORMAT_END
 95
        4
302
GRIDFORMAT
  1
GRIDFORMAT_BEGIN
 90
        0
 91
        1
 62
     0
 92
       -2
340
0
 93
        0
 40
0.045
309
GRIDFORMAT_END
 95
        8
302
GRIDFORMAT
  1
GRIDFORMAT_BEGIN
 90
        0
 91
        1
 62
     0
 92
       -2
340
0
 93
        0
 40
0.045
309
GRIDFORMAT_END
 95
       16
302
GRIDFORMAT
  1
GRIDFORMAT_BEGIN
 90
        0
 91
        1
 62
     0
 92
       -2
340
0
 93
        0
 40
0.045
309
GRIDFORMAT_END
 95
       32
302
GRIDFORMAT
  1
GRIDFORMAT_BEGIN
 90
        0
 91
        1
 62
     0
 92
       -2
340
0
 93
        0
 40
0.045
309
GRIDFORMAT_END
309
TABLEFORMAT_END
  1
CELLSTYLE_BEGIN
 90
        3
 91
        2
300
_DATA
309
CELLSTYLE_END
  0
XRECORD
  5
42D
102
{ACAD_REACTORS
330
42C
102
}
330
42C
100
AcDbXrecord
280
     1
102
ACAD_ROUNDTRIP_PRE2007_TABLESTYLE
 90
      512
 91
        0
  1

 92
      512
 93
        0
  2

 94
      512
 95
        0
  3

  0
ENDSEC
  0
EOF
