  0
SECTION
  2
HEADER
  9
$ACADVER
  1
AC1018
  9
$ACADMAINTVER
 70
     0
  9
$DWGCODEPAGE
  3
ANSI_932
  9
$LASTSAVEDBY
  1
小谷 浩和
  9
$INSBASE
 10
0.0
 20
0.0
 30
0.0
  9
$EXTMIN
 10
1.000000000000000E+20
 20
1.000000000000000E+20
 30
1.000000000000000E+20
  9
$EXTMAX
 10
-1.000000000000000E+20
 20
-1.000000000000000E+20
 30
-1.000000000000000E+20
  9
$LIMMIN
 10
0.0
 20
0.0
  9
$LIMMAX
 10
420.0
 20
297.0
  9
$ORTHOMODE
 70
     0
  9
$REGENMODE
 70
     1
  9
$FILLMODE
 70
     1
  9
$QTEXTMODE
 70
     0
  9
$MIRRTEXT
 70
     0
  9
$LTSCALE
 40
1.0
  9
$ATTMODE
 70
     1
  9
$TEXTSIZE
 40
2.5
  9
$TRACEWID
 40
1.0
  9
$TEXTSTYLE
  7
Standard
  9
$CLAYER
  8
0
  9
$CELTYPE
  6
ByLayer
  9
$CECOLOR
 62
   256
  9
$CELTSCALE
 40
1.0
  9
$DISPSILH
 70
     0
  9
$DIMSCALE
 40
1.0
  9
$DIMASZ
 40
2.5
  9
$DIMEXO
 40
0.625
  9
$DIMDLI
 40
3.75
  9
$DIMRND
 40
0.0
  9
$DIMDLE
 40
0.0
  9
$DIMEXE
 40
1.25
  9
$DIMTP
 40
0.0
  9
$DIMTM
 40
0.0
  9
$DIMTXT
 40
2.5
  9
$DIMCEN
 40
2.5
  9
$DIMTSZ
 40
0.0
  9
$DIMTOL
 70
     0
  9
$DIMLIM
 70
     0
  9
$DIMTIH
 70
     0
  9
$DIMTOH
 70
     0
  9
$DIMSE1
 70
     0
  9
$DIMSE2
 70
     0
  9
$DIMTAD
 70
     1
  9
$DIMZIN
 70
     8
  9
$DIMBLK
  1
OPEN
  9
$DIMASO
 70
     1
  9
$DIMSHO
 70
     1
  9
$DIMPOST
  1

  9
$DIMAPOST
  1

  9
$DIMALT
 70
     0
  9
$DIMALTD
 70
     3
  9
$DIMALTF
 40
0.03937007874016
  9
$DIMLFAC
 40
1.0
  9
$DIMTOFL
 70
     1
  9
$DIMTVP
 40
0.0
  9
$DIMTIX
 70
     0
  9
$DIMSOXD
 70
     0
  9
$DIMSAH
 70
     0
  9
$DIMBLK1
  1

  9
$DIMBLK2
  1

  9
$DIMSTYLE
  2
JIS-1
  9
$DIMCLRD
 70
     0
  9
$DIMCLRE
 70
     0
  9
$DIMCLRT
 70
     0
  9
$DIMTFAC
 40
1.0
  9
$DIMGAP
 40
0.625
  9
$DIMJUST
 70
     0
  9
$DIMSD1
 70
     0
  9
$DIMSD2
 70
     0
  9
$DIMTOLJ
 70
     0
  9
$DIMTZIN
 70
     8
  9
$DIMALTZ
 70
     0
  9
$DIMALTTZ
 70
     0
  9
$DIMUPT
 70
     0
  9
$DIMDEC
 70
     2
  9
$DIMTDEC
 70
     2
  9
$DIMALTU
 70
     2
  9
$DIMALTTD
 70
     3
  9
$DIMTXSTY
  7
Standard
  9
$DIMAUNIT
 70
     0
  9
$DIMADEC
 70
     0
  9
$DIMALTRND
 40
0.0
  9
$DIMAZIN
 70
     0
  9
$DIMDSEP
 70
    44
  9
$DIMATFIT
 70
     3
  9
$DIMFRAC
 70
     0
  9
$DIMLDRBLK
  1
OPEN
  9
$DIMLUNIT
 70
     2
  9
$DIMLWD
 70
    -2
  9
$DIMLWE
 70
    -2
  9
$DIMTMOVE
 70
     0
  9
$LUNITS
 70
     2
  9
$LUPREC
 70
     3
  9
$SKETCHINC
 40
1.0
  9
$FILLETRAD
 40
10.0
  9
$AUNITS
 70
     0
  9
$AUPREC
 70
     0
  9
$MENU
  1
.
  9
$ELEVATION
 40
0.0
  9
$PELEVATION
 40
0.0
  9
$THICKNESS
 40
0.0
  9
$LIMCHECK
 70
     0
  9
$CHAMFERA
 40
10.0
  9
$CHAMFERB
 40
10.0
  9
$CHAMFERC
 40
20.0
  9
$CHAMFERD
 40
0.0
  9
$SKPOLY
 70
     0
  9
$TDCREATE
 40
2455023.012359514
  9
$TDUCREATE
 40
2455022.637359514
  9
$TDUPDATE
 40
2457241.777250857
  9
$TDUUPDATE
 40
2457241.402250857
  9
$TDINDWG
 40
0.0024932176
  9
$TDUSRTIMER
 40
2457241.3997575
  9
$USRTIMER
 70
     1
  9
$ANGBASE
 50
0.0
  9
$ANGDIR
 70
     0
  9
$PDMODE
 70
     0
  9
$PDSIZE
 40
0.0
  9
$PLINEWID
 40
0.0
  9
$SPLFRAME
 70
     0
  9
$SPLINETYPE
 70
     6
  9
$SPLINESEGS
 70
     8
  9
$HANDSEED
  5
338
  9
$SURFTAB1
 70
     6
  9
$SURFTAB2
 70
     6
  9
$SURFTYPE
 70
     6
  9
$SURFU
 70
     6
  9
$SURFV
 70
     6
  9
$UCSBASE
  2

  9
$UCSNAME
  2

  9
$UCSORG
 10
0.0
 20
0.0
 30
0.0
  9
$UCSXDIR
 10
1.0
 20
0.0
 30
0.0
  9
$UCSYDIR
 10
0.0
 20
1.0
 30
0.0
  9
$UCSORTHOREF
  2

  9
$UCSORTHOVIEW
 70
     0
  9
$UCSORGTOP
 10
0.0
 20
0.0
 30
0.0
  9
$UCSORGBOTTOM
 10
0.0
 20
0.0
 30
0.0
  9
$UCSORGLEFT
 10
0.0
 20
0.0
 30
0.0
  9
$UCSORGRIGHT
 10
0.0
 20
0.0
 30
0.0
  9
$UCSORGFRONT
 10
0.0
 20
0.0
 30
0.0
  9
$UCSORGBACK
 10
0.0
 20
0.0
 30
0.0
  9
$PUCSBASE
  2

  9
$PUCSNAME
  2

  9
$PUCSORG
 10
0.0
 20
0.0
 30
0.0
  9
$PUCSXDIR
 10
1.0
 20
0.0
 30
0.0
  9
$PUCSYDIR
 10
0.0
 20
1.0
 30
0.0
  9
$PUCSORTHOREF
  2

  9
$PUCSORTHOVIEW
 70
     0
  9
$PUCSORGTOP
 10
0.0
 20
0.0
 30
0.0
  9
$PUCSORGBOTTOM
 10
0.0
 20
0.0
 30
0.0
  9
$PUCSORGLEFT
 10
0.0
 20
0.0
 30
0.0
  9
$PUCSORGRIGHT
 10
0.0
 20
0.0
 30
0.0
  9
$PUCSORGFRONT
 10
0.0
 20
0.0
 30
0.0
  9
$PUCSORGBACK
 10
0.0
 20
0.0
 30
0.0
  9
$USERI1
 70
     0
  9
$USERI2
 70
     0
  9
$USERI3
 70
     0
  9
$USERI4
 70
     0
  9
$USERI5
 70
     0
  9
$USERR1
 40
0.0
  9
$USERR2
 40
0.0
  9
$USERR3
 40
0.0
  9
$USERR4
 40
0.0
  9
$USERR5
 40
0.0
  9
$WORLDVIEW
 70
     1
  9
$SHADEDGE
 70
     3
  9
$SHADEDIF
 70
    70
  9
$TILEMODE
 70
     1
  9
$MAXACTVP
 70
    64
  9
$PINSBASE
 10
0.0
 20
0.0
 30
0.0
  9
$PLIMCHECK
 70
     0
  9
$PEXTMIN
 10
1.000000000000000E+20
 20
1.000000000000000E+20
 30
1.000000000000000E+20
  9
$PEXTMAX
 10
-1.000000000000000E+20
 20
-1.000000000000000E+20
 30
-1.000000000000000E+20
  9
$PLIMMIN
 10
0.0
 20
0.0
  9
$PLIMMAX
 10
0.0
 20
0.0
  9
$UNITMODE
 70
     0
  9
$VISRETAIN
 70
     1
  9
$PLINEGEN
 70
     0
  9
$PSLTSCALE
 70
     1
  9
$TREEDEPTH
 70
  3020
  9
$CMLSTYLE
  2
Standard
  9
$CMLJUST
 70
     0
  9
$CMLSCALE
 40
20.0
  9
$PROXYGRAPHICS
 70
     1
  9
$MEASUREMENT
 70
     1
  9
$CELWEIGHT
370
    -1
  9
$ENDCAPS
280
     0
  9
$JOINSTYLE
280
     0
  9
$LWDISPLAY
290
     0
  9
$INSUNITS
 70
     4
  9
$HYPERLINKBASE
  1

  9
$STYLESHEET
  1

  9
$XEDIT
290
     1
  9
$CEPSNTYPE
380
     0
  9
$PSTYLEMODE
290
     0
  9
$FINGERPRINTGUID
  2
{EC6BB858-51AA-46EC-B484-6C9CC7AB3E2E}
  9
$VERSIONGUID
  2
{FAEB1C32-E019-11D5-929B-00C0DF256EC4}
  9
$EXTNAMES
290
     1
  9
$PSVPSCALE
 40
0.0
  9
$OLESTARTUP
290
     0
  9
$SORTENTS
280
   127
  9
$INDEXCTL
280
     0
  9
$HIDETEXT
280
     1
  9
$XCLIPFRAME
290
     0
  9
$HALOGAP
280
     0
  9
$OBSCOLOR
 70
   257
  9
$OBSLTYPE
280
     0
  9
$INTERSECTIONDISPLAY
280
     0
  9
$INTERSECTIONCOLOR
 70
   257
  9
$DIMASSOC
280
     2
  9
$PROJECTNAME
  1

  0
ENDSEC
  0
SECTION
  2
CLASSES
  0
CLASS
  1
ACDBDICTIONARYWDFLT
  2
AcDbDictionaryWithDefault
  3
ObjectDBX Classes
 90
        0
 91
        5
280
     0
281
     0
  0
CLASS
  1
VISUALSTYLE
  2
AcDbVisualStyle
  3
ObjectDBX Classes
 90
     4095
 91
        5
280
     0
281
     0
  0
CLASS
  1
TABLESTYLE
  2
AcDbTableStyle
  3
ObjectDBX Classes
 90
     4095
 91
        5
280
     0
281
     0
  0
CLASS
  1
DICTIONARYVAR
  2
AcDbDictionaryVar
  3
ObjectDBX Classes
 90
        0
 91
        5
280
     0
281
     0
  0
CLASS
  1
SCALE
  2
AcDbScale
  3
ObjectDBX Classes
 90
     1153
 91
        5
280
     0
281
     0
  0
CLASS
  1
CELLSTYLEMAP
  2
AcDbCellStyleMap
  3
ObjectDBX Classes
 90
     1152
 91
        5
280
     0
281
     0
  0
CLASS
  1
RASTERVARIABLES
  2
AcDbRasterVariables
  3
ISM
 90
        0
 91
        5
280
     0
281
     0
  0
CLASS
  1
DIMASSOC
  2
AcDbDimAssoc
  3
"AcDbDimAssoc|Product Desc:     AcDim ARX App For Dimension|Company:          Autodesk, Inc.|WEB Address:      www.autodesk.com"
 90
        0
 91
        5
280
     0
281
     0
  0
CLASS
  1
MATERIAL
  2
AcDbMaterial
  3
ObjectDBX Classes
 90
     1153
 91
        5
280
     0
281
     0
  0
CLASS
  1
SUN
  2
AcDbSun
  3
SCENEOE
 90
     1153
 91
        5
280
     0
281
     0
  0
CLASS
  1
MLEADERSTYLE
  2
AcDbMLeaderStyle
  3
ACDB_MLEADERSTYLE_CLASS
 90
     4095
 91
        5
280
     0
281
     0
  0
CLASS
  1
SORTENTSTABLE
  2
AcDbSortentsTable
  3
ObjectDBX Classes
 90
        0
 91
        5
280
     0
281
     0
  0
ENDSEC
  0
SECTION
  2
TABLES
  0
TABLE
  2
VPORT
  5
8
330
0
100
AcDbSymbolTable
 70
     1
  0
VPORT
  5
29
330
8
100
AcDbSymbolTableRecord
100
AcDbViewportTableRecord
  2
*Active
 70
     0
 10
0.0
 20
0.0
 11
1.0
 21
1.0
 12
794.732767238161
 22
903.779117386698
 13
0.0
 23
0.0
 14
10.0
 24
10.0
 15
10.0
 25
10.0
 16
0.0
 26
0.0
 36
1.0
 17
-134.1869158878502
 27
0.0
 37
0.0
 40
2300.133239128511
 41
1.664884135472371
 42
50.0
 43
0.0
 44
0.0
 50
0.0
 51
0.0
 71
    16
 72
  1000
 73
     1
 74
     3
 75
     0
 76
     0
 77
     0
 78
     0
281
     0
 65
     1
110
0.0
120
0.0
130
0.0
111
1.0
121
0.0
131
0.0
112
0.0
122
1.0
132
0.0
 79
     0
146
0.0
  0
ENDTAB
  0
TABLE
  2
LTYPE
  5
5
330
0
100
AcDbSymbolTable
 70
     2
  0
LTYPE
  5
14
330
5
100
AcDbSymbolTableRecord
100
AcDbLinetypeTableRecord
  2
ByBlock
 70
     0
  3

 72
    65
 73
     0
 40
0.0
  0
LTYPE
  5
15
330
5
100
AcDbSymbolTableRecord
100
AcDbLinetypeTableRecord
  2
ByLayer
 70
     0
  3

 72
    65
 73
     0
 40
0.0
  0
LTYPE
  5
16
330
5
100
AcDbSymbolTableRecord
100
AcDbLinetypeTableRecord
  2
Continuous
 70
     0
  3
Solid line
 72
    65
 73
     0
 40
0.0
  0
LTYPE
  5
E3
330
5
100
AcDbSymbolTableRecord
100
AcDbLinetypeTableRecord
  2
CENTER
 70
     0
  3
 Center ____ _ ____ _ ____ _ ____ _ ____ _ ____
 72
    65
 73
     4
 40
2.0
 49
1.25
 74
     0
 49
-0.25
 74
     0
 49
0.25
 74
     0
 49
-0.25
 74
     0
  0
ENDTAB
  0
TABLE
  2
LAYER
  5
2
102
{ACAD_XDICTIONARY
360
215
102
}
330
0
100
AcDbSymbolTable
 70
     6
  0
LAYER
  5
10
330
2
100
AcDbSymbolTableRecord
100
AcDbLayerTableRecord
  2
0
 70
     0
 62
     7
  6
Continuous
370
    -3
390
F
  0
LAYER
  5
7E
330
2
100
AcDbSymbolTableRecord
100
AcDbLayerTableRecord
  2
Defpoints
 70
     0
 62
     7
  6
Continuous
290
     0
370
    -3
390
F
  0
LAYER
  5
DE
330
2
100
AcDbSymbolTableRecord
100
AcDbLayerTableRecord
  2
1TEXT
 70
     0
 62
     7
  6
Continuous
370
    -3
390
F
  0
LAYER
  5
E2
330
2
100
AcDbSymbolTableRecord
100
AcDbLayerTableRecord
  2
C2
 70
     0
 62
     1
  6
CENTER
370
    -3
390
F
  0
LAYER
  5
E4
330
2
100
AcDbSymbolTableRecord
100
AcDbLayerTableRecord
  2
C4
 70
     0
 62
     3
  6
Continuous
370
    -3
390
F
  0
LAYER
  5
E5
330
2
100
AcDbSymbolTableRecord
100
AcDbLayerTableRecord
  2
C寸法
 70
     0
 62
     4
  6
Continuous
370
    -3
390
F
  0
ENDTAB
  0
TABLE
  2
STYLE
  5
3
330
0
100
AcDbSymbolTable
 70
     2
  0
STYLE
  5
11
330
3
100
AcDbSymbolTableRecord
100
AcDbTextStyleTableRecord
  2
Standard
 70
     0
 40
0.138
 41
1.0
 50
0.0
 71
     0
 42
2.5
  3
arial.ttf
  4

1001
ACAD
1000
Arial
1071
        0
  0
STYLE
  5
F4
330
3
100
AcDbSymbolTableRecord
100
AcDbTextStyleTableRecord
  2
KANJI
 70
     0
 40
0.0
 41
1.0
 50
0.0
 71
     0
 42
2.5
  3
romans
  4
bigfont
  0
ENDTAB
  0
TABLE
  2
VIEW
  5
6
330
0
100
AcDbSymbolTable
 70
     0
  0
ENDTAB
  0
TABLE
  2
UCS
  5
7
330
0
100
AcDbSymbolTable
 70
     0
  0
ENDTAB
  0
TABLE
  2
APPID
  5
9
330
0
100
AcDbSymbolTable
 70
     8
  0
APPID
  5
12
330
9
100
AcDbSymbolTableRecord
100
AcDbRegAppTableRecord
  2
ACAD
 70
     0
  0
APPID
  5
EF
330
9
100
AcDbSymbolTableRecord
100
AcDbRegAppTableRecord
  2
ACAD_DSTYLE_DIMBREAK
 70
     0
  0
APPID
  5
F0
330
9
100
AcDbSymbolTableRecord
100
AcDbRegAppTableRecord
  2
ACAD_DSTYLE_DIMJAG
 70
     0
  0
APPID
  5
F1
330
9
100
AcDbSymbolTableRecord
100
AcDbRegAppTableRecord
  2
ACAD_DSTYLE_DIMTALN
 70
     0
  0
APPID
  5
F2
330
9
100
AcDbSymbolTableRecord
100
AcDbRegAppTableRecord
  2
ACAD_NAV_VCDISPLAY
 70
     0
  0
APPID
  5
F3
330
9
100
AcDbSymbolTableRecord
100
AcDbRegAppTableRecord
  2
PLOTTRANSPARENCY
 70
     0
  0
APPID
  5
319
330
9
100
AcDbSymbolTableRecord
100
AcDbRegAppTableRecord
  2
ACAD_DSTYLE_DIMRADIAL_EXTENSION
 70
     0
  0
APPID
  5
336
330
9
100
AcDbSymbolTableRecord
100
AcDbRegAppTableRecord
  2
ACAD_MLEADERVER
 70
     0
  0
ENDTAB
  0
TABLE
  2
DIMSTYLE
  5
A
330
0
100
AcDbSymbolTable
 70
     5
100
AcDbDimStyleTable
  0
DIMSTYLE
105
27
330
A
100
AcDbSymbolTableRecord
100
AcDbDimStyleTableRecord
  2
ISO-25
 70
     0
 41
2.5
 42
0.625
 43
3.75
 44
1.25
 73
     0
 74
     0
 77
     1
 78
     8
140
2.5
141
2.5
143
0.03937007874016
147
0.625
171
     3
172
     1
178
     0
271
     2
272
     2
274
     3
278
    44
283
     0
284
     8
340
11
  0
DIMSTYLE
105
72
330
A
100
AcDbSymbolTableRecord
100
AcDbDimStyleTableRecord
  2
GB-1
 70
     0
 41
2.5
 42
0.625
 43
3.75
 44
1.25
 73
     0
 74
     0
 77
     1
 78
     8
140
2.5
141
2.5
143
0.03937007874016
147
0.625
171
     3
172
     1
178
     0
271
     2
272
     2
274
     3
278
    44
283
     0
284
     8
340
11
341
76
342
76
  0
DIMSTYLE
105
8E
102
{ACAD_REACTORS
330
31A
330
325
102
}
330
A
100
AcDbSymbolTableRecord
100
AcDbDimStyleTableRecord
  2
JIS-1
 70
     0
 41
2.5
 42
0.625
 43
3.75
 44
1.25
 73
     0
 74
     0
 77
     1
 78
     8
140
2.5
141
2.5
143
0.03937007874016
147
0.625
171
     3
172
     1
178
     0
271
     2
272
     2
274
     3
278
    44
283
     0
284
     8
340
11
341
90
342
90
  0
DIMSTYLE
105
E6
330
A
100
AcDbSymbolTableRecord
100
AcDbDimStyleTableRecord
  2
Standard
 70
     0
178
     0
340
11
  0
DIMSTYLE
105
E8
102
{ACAD_REACTORS
330
195
330
1A2
330
1AF
330
1BC
330
1C9
330
1D9
330
1E9
330
1F7
330
208
330
299
330
29A
330
29B
330
29C
330
29D
330
29E
330
29F
330
2A1
330
2A4
102
}
330
A
100
AcDbSymbolTableRecord
100
AcDbDimStyleTableRecord
  2
実寸
 70
     0
 41
25.0
 42
10.0
 43
6.0
 44
0.0
 47
5.0
 73
     0
 74
     0
 77
     1
 78
     8
140
25.0
141
0.0
144
5.0
147
5.0
178
     0
271
     1
272
     1
284
     8
340
11
341
90
342
90
1001
ACAD_DSTYLE_DIMBREAK
1070
   391
1040
0.125
1001
ACAD_DSTYLE_DIMJAG
1070
   388
1040
1.5
1001
ACAD_DSTYLE_DIMTALN
1070
   392
1070
     0
  0
ENDTAB
  0
TABLE
  2
BLOCK_RECORD
  5
1
330
0
100
AcDbSymbolTable
 70
    25
  0
BLOCK_RECORD
  5
1F
330
1
100
AcDbSymbolTableRecord
100
AcDbBlockTableRecord
  2
*Model_Space
340
22
  0
BLOCK_RECORD
  5
1B
330
1
100
AcDbSymbolTableRecord
100
AcDbBlockTableRecord
  2
*Paper_Space
340
1E
  0
BLOCK_RECORD
  5
23
330
1
100
AcDbSymbolTableRecord
100
AcDbBlockTableRecord
  2
*Paper_Space0
340
26
  0
BLOCK_RECORD
  5
76
330
1
100
AcDbSymbolTableRecord
100
AcDbBlockTableRecord
  2
_CLOSED
340
0
  0
BLOCK_RECORD
  5
90
330
1
100
AcDbSymbolTableRecord
100
AcDbBlockTableRecord
  2
_OPEN
340
0
102
{BLKREFS
331
2AB
331
2AC
331
2B7
331
2B8
331
2C3
331
2C4
331
2CF
331
2D0
331
2DE
331
2DF
331
2ED
331
2EE
331
2F9
331
2FA
331
307
331
308
331
313
331
314
331
322
331
0
331
32D
102
}
  0
BLOCK_RECORD
  5
196
330
1
100
AcDbSymbolTableRecord
100
AcDbBlockTableRecord
  2
*D5
340
0
  0
BLOCK_RECORD
  5
1A3
330
1
100
AcDbSymbolTableRecord
100
AcDbBlockTableRecord
  2
*D6
340
0
  0
BLOCK_RECORD
  5
1B0
330
1
100
AcDbSymbolTableRecord
100
AcDbBlockTableRecord
  2
*D7
340
0
  0
BLOCK_RECORD
  5
1BD
330
1
100
AcDbSymbolTableRecord
100
AcDbBlockTableRecord
  2
*D8
340
0
  0
BLOCK_RECORD
  5
1CA
330
1
100
AcDbSymbolTableRecord
100
AcDbBlockTableRecord
  2
*D9
340
0
  0
BLOCK_RECORD
  5
1DA
330
1
100
AcDbSymbolTableRecord
100
AcDbBlockTableRecord
  2
*D10
340
0
  0
BLOCK_RECORD
  5
1EA
330
1
100
AcDbSymbolTableRecord
100
AcDbBlockTableRecord
  2
*D11
340
0
  0
BLOCK_RECORD
  5
1F8
330
1
100
AcDbSymbolTableRecord
100
AcDbBlockTableRecord
  2
*D12
340
0
  0
BLOCK_RECORD
  5
209
330
1
100
AcDbSymbolTableRecord
100
AcDbBlockTableRecord
  2
*D13
340
0
  0
BLOCK_RECORD
  5
2A5
330
1
100
AcDbSymbolTableRecord
100
AcDbBlockTableRecord
  2
*D14
340
0
  0
BLOCK_RECORD
  5
2B1
330
1
100
AcDbSymbolTableRecord
100
AcDbBlockTableRecord
  2
*D15
340
0
  0
BLOCK_RECORD
  5
2BD
330
1
100
AcDbSymbolTableRecord
100
AcDbBlockTableRecord
  2
*D16
340
0
  0
BLOCK_RECORD
  5
2C9
330
1
100
AcDbSymbolTableRecord
100
AcDbBlockTableRecord
  2
*D17
340
0
  0
BLOCK_RECORD
  5
2D5
330
1
100
AcDbSymbolTableRecord
100
AcDbBlockTableRecord
  2
*D18
340
0
  0
BLOCK_RECORD
  5
2E4
330
1
100
AcDbSymbolTableRecord
100
AcDbBlockTableRecord
  2
*D19
340
0
  0
BLOCK_RECORD
  5
2F3
330
1
100
AcDbSymbolTableRecord
100
AcDbBlockTableRecord
  2
*D20
340
0
  0
BLOCK_RECORD
  5
2FF
330
1
100
AcDbSymbolTableRecord
100
AcDbBlockTableRecord
  2
*D21
340
0
  0
BLOCK_RECORD
  5
30D
330
1
100
AcDbSymbolTableRecord
100
AcDbBlockTableRecord
  2
*D22
340
0
  0
BLOCK_RECORD
  5
31D
330
1
100
AcDbSymbolTableRecord
100
AcDbBlockTableRecord
  2
*D23
340
0
  0
BLOCK_RECORD
  5
328
330
1
100
AcDbSymbolTableRecord
100
AcDbBlockTableRecord
  2
*D24
340
0
  0
ENDTAB
  0
ENDSEC
  0
SECTION
  2
BLOCKS
  0
BLOCK
  5
20
330
1F
100
AcDbEntity
  8
0
100
AcDbBlockBegin
  2
*Model_Space
 70
     0
 10
0.0
 20
0.0
 30
0.0
  3
*Model_Space
  1
*Model_Space
  0
ENDBLK
  5
21
330
1F
100
AcDbEntity
  8
0
100
AcDbBlockEnd
  0
BLOCK
  5
1C
330
1B
100
AcDbEntity
 67
     1
  8
0
100
AcDbBlockBegin
  2
*Paper_Space
 70
     0
 10
0.0
 20
0.0
 30
0.0
  3
*Paper_Space
  1
*Paper_Space
  0
ENDBLK
  5
1D
330
1B
100
AcDbEntity
 67
     1
  8
0
100
AcDbBlockEnd
  0
BLOCK
  5
24
330
23
100
AcDbEntity
  8
0
100
AcDbBlockBegin
  2
*Paper_Space0
 70
     0
 10
0.0
 20
0.0
 30
0.0
  3
*Paper_Space0
  1
*Paper_Space0
  0
ENDBLK
  5
25
330
23
100
AcDbEntity
  8
0
100
AcDbBlockEnd
  0
BLOCK
  5
77
330
76
100
AcDbEntity
  8
0
100
AcDbBlockBegin
  2
_CLOSED
 70
     0
 10
0.0
 20
0.0
 30
0.0
  3
_CLOSED
  1
_CLOSED
  0
LINE
  5
78
330
76
100
AcDbEntity
  8
0
  6
ByBlock
 62
     0
370
    -2
100
AcDbLine
 10
-1.0
 20
0.166667
 30
0.0
 11
0.0
 21
0.0
 31
0.0
  0
LINE
  5
79
330
76
100
AcDbEntity
  8
0
  6
ByBlock
 62
     0
370
    -2
100
AcDbLine
 10
0.0
 20
0.0
 30
0.0
 11
-1.0
 21
-0.166667
 31
0.0
  0
LINE
  5
7A
330
76
100
AcDbEntity
  8
0
  6
ByBlock
 62
     0
370
    -2
100
AcDbLine
 10
-1.0
 20
0.166667
 30
0.0
 11
-1.0
 21
-0.166667
 31
0.0
  0
LINE
  5
7B
330
76
100
AcDbEntity
  8
0
  6
ByBlock
 62
     0
370
    -2
100
AcDbLine
 10
0.0
 20
0.0
 30
0.0
 11
-1.0
 21
0.0
 31
0.0
  0
ENDBLK
  5
7C
330
76
100
AcDbEntity
  8
0
100
AcDbBlockEnd
  0
BLOCK
  5
91
330
90
100
AcDbEntity
  8
0
100
AcDbBlockBegin
  2
_OPEN
 70
     0
 10
0.0
 20
0.0
 30
0.0
  3
_OPEN
  1
_OPEN
  0
LINE
  5
92
330
90
100
AcDbEntity
  8
0
  6
ByBlock
 62
     0
370
    -2
100
AcDbLine
 10
-1.0
 20
0.166667
 30
0.0
 11
0.0
 21
0.0
 31
0.0
  0
LINE
  5
93
330
90
100
AcDbEntity
  8
0
  6
ByBlock
 62
     0
370
    -2
100
AcDbLine
 10
-1.0
 20
-0.166667
 30
0.0
 11
0.0
 21
0.0
 31
0.0
  0
LINE
  5
94
330
90
100
AcDbEntity
  8
0
  6
ByBlock
 62
     0
370
    -2
100
AcDbLine
 10
0.0
 20
0.0
 30
0.0
 11
-1.0
 21
0.0
 31
0.0
  0
ENDBLK
  5
95
330
90
100
AcDbEntity
  8
0
100
AcDbBlockEnd
  0
BLOCK
  5
197
330
196
100
AcDbEntity
  8
0
100
AcDbBlockBegin
  2
*D5
 70
     1
 10
0.0
 20
0.0
 30
0.0
  3
*D5
  1
*D5
  0
LINE
  5
198
330
196
100
AcDbEntity
  8
C寸法
 62
     0
370
    -2
100
AcDbLine
 10
101.7813864279019
 20
756.7629536335892
 30
0.0
 11
101.7813864279019
 21
399.5913800526546
 31
0.0
  0
LINE
  5
199
330
196
100
AcDbEntity
  8
C寸法
 62
     0
370
    -2
100
AcDbLine
 10
1051.779386428171
 20
756.7629536232994
 30
0.0
 11
1051.779386428171
 21
399.5913800526546
 31
0.0
  0
LINE
  5
19A
330
196
100
AcDbEntity
  8
C寸法
 62
     0
370
    -2
100
AcDbLine
 10
126.7813864279019
 20
399.5913800526546
 30
0.0
 11
1026.779386428171
 21
399.5913800526546
 31
0.0
  0
INSERT
  5
19B
330
196
100
AcDbEntity
  8
C寸法
 62
     0
370
    -2
100
AcDbBlockReference
  2
_OPEN
 10
101.7813864279019
 20
399.5913800526546
 30
0.0
 41
25.0
 42
25.0
 43
25.0
 50
180.0
  0
INSERT
  5
19C
330
196
100
AcDbEntity
  8
C寸法
 62
     0
370
    -2
100
AcDbBlockReference
  2
_OPEN
 10
1051.779386428171
 20
399.5913800526546
 30
0.0
 41
25.0
 42
25.0
 43
25.0
  0
MTEXT
  5
19D
330
196
100
AcDbEntity
  8
C寸法
 62
     0
370
    13
100
AcDbMText
 10
576.7803864280363
 20
417.0913800526546
 30
0.0
 40
25.0
 41
0.0
 71
     5
 72
     1
  1
\A1;950
  7
KANJI
 73
     1
 44
1.0
  0
POINT
  5
19E
330
196
100
AcDbEntity
  8
Defpoints
 62
     0
100
AcDbPoint
 10
101.7813864279019
 20
766.7629536335892
 30
0.0
  0
POINT
  5
19F
330
196
100
AcDbEntity
  8
Defpoints
 62
     0
100
AcDbPoint
 10
1051.779386428171
 20
766.7629536232994
 30
0.0
  0
POINT
  5
1A0
330
196
100
AcDbEntity
  8
Defpoints
 62
     0
100
AcDbPoint
 10
1051.779386428171
 20
399.5913800526546
 30
0.0
  0
ENDBLK
  5
1A1
330
196
100
AcDbEntity
  8
0
100
AcDbBlockEnd
  0
BLOCK
  5
1A4
330
1A3
100
AcDbEntity
  8
0
100
AcDbBlockBegin
  2
*D6
 70
     1
 10
0.0
 20
0.0
 30
0.0
  3
*D6
  1
*D6
  0
LINE
  5
1A5
330
1A3
100
AcDbEntity
  8
C寸法
 62
     0
370
    -2
100
AcDbLine
 10
1091.781386427902
 20
564.5933800527707
 30
0.0
 11
1231.781386427902
 21
564.5933800527707
 31
0.0
  0
LINE
  5
1A6
330
1A3
100
AcDbEntity
  8
C寸法
 62
     0
370
    -2
100
AcDbLine
 10
1091.781386427902
 20
974.5933800527705
 30
0.0
 11
1231.781386427902
 21
974.5933800527705
 31
0.0
  0
LINE
  5
1A7
330
1A3
100
AcDbEntity
  8
C寸法
 62
     0
370
    -2
100
AcDbLine
 10
1231.781386427902
 20
589.5933800527707
 30
0.0
 11
1231.781386427902
 21
949.5933800527705
 31
0.0
  0
INSERT
  5
1A8
330
1A3
100
AcDbEntity
  8
C寸法
 62
     0
370
    -2
100
AcDbBlockReference
  2
_OPEN
 10
1231.781386427902
 20
564.5933800527707
 30
0.0
 41
25.0
 42
25.0
 43
25.0
 50
270.0
  0
INSERT
  5
1A9
330
1A3
100
AcDbEntity
  8
C寸法
 62
     0
370
    -2
100
AcDbBlockReference
  2
_OPEN
 10
1231.781386427902
 20
974.5933800527705
 30
0.0
 41
25.0
 42
25.0
 43
25.0
 50
90.0
  0
MTEXT
  5
1AA
330
1A3
100
AcDbEntity
  8
C寸法
 62
     0
370
    13
100
AcDbMText
 10
1214.281386427902
 20
769.5933800527706
 30
0.0
 40
25.0
 41
0.0
 71
     5
 72
     1
  1
\A1;410
  7
KANJI
 11
0.0
 21
1.0
 31
0.0
 73
     1
 44
1.0
  0
POINT
  5
1AB
330
1A3
100
AcDbEntity
  8
Defpoints
 62
     0
100
AcDbPoint
 10
1081.781386427902
 20
564.5933800527707
 30
0.0
  0
POINT
  5
1AC
330
1A3
100
AcDbEntity
  8
Defpoints
 62
     0
100
AcDbPoint
 10
1081.781386427902
 20
974.5933800527705
 30
0.0
  0
POINT
  5
1AD
330
1A3
100
AcDbEntity
  8
Defpoints
 62
     0
100
AcDbPoint
 10
1231.781386427902
 20
974.5933800527705
 30
0.0
  0
ENDBLK
  5
1AE
330
1A3
100
AcDbEntity
  8
0
100
AcDbBlockEnd
  0
BLOCK
  5
1B1
330
1B0
100
AcDbEntity
  8
0
100
AcDbBlockBegin
  2
*D7
 70
     1
 10
0.0
 20
0.0
 30
0.0
  3
*D7
  1
*D7
  0
LINE
  5
1B2
330
1B0
100
AcDbEntity
  8
C寸法
 62
     0
370
    -2
100
AcDbLine
 10
1091.781386427902
 20
549.591380052643
 30
0.0
 11
1281.781386427902
 21
549.591380052643
 31
0.0
  0
LINE
  5
1B3
330
1B0
100
AcDbEntity
  8
C寸法
 62
     0
370
    -2
100
AcDbLine
 10
1091.781386427902
 20
989.5933800527707
 30
0.0
 11
1281.781386427902
 21
989.5933800527707
 31
0.0
  0
LINE
  5
1B4
330
1B0
100
AcDbEntity
  8
C寸法
 62
     0
370
    -2
100
AcDbLine
 10
1281.781386427902
 20
574.591380052643
 30
0.0
 11
1281.781386427902
 21
964.5933800527707
 31
0.0
  0
INSERT
  5
1B5
330
1B0
100
AcDbEntity
  8
C寸法
 62
     0
370
    -2
100
AcDbBlockReference
  2
_OPEN
 10
1281.781386427902
 20
549.591380052643
 30
0.0
 41
25.0
 42
25.0
 43
25.0
 50
270.0
  0
INSERT
  5
1B6
330
1B0
100
AcDbEntity
  8
C寸法
 62
     0
370
    -2
100
AcDbBlockReference
  2
_OPEN
 10
1281.781386427902
 20
989.5933800527707
 30
0.0
 41
25.0
 42
25.0
 43
25.0
 50
90.0
  0
MTEXT
  5
1B7
330
1B0
100
AcDbEntity
  8
C寸法
 62
     0
370
    13
100
AcDbMText
 10
1264.281386427902
 20
769.5923800527069
 30
0.0
 40
25.0
 41
0.0
 71
     5
 72
     1
  1
\A1;440
  7
KANJI
 11
0.0
 21
1.0
 31
0.0
 73
     1
 44
1.0
  0
POINT
  5
1B8
330
1B0
100
AcDbEntity
  8
Defpoints
 62
     0
100
AcDbPoint
 10
1081.781386427902
 20
549.591380052643
 30
0.0
  0
POINT
  5
1B9
330
1B0
100
AcDbEntity
  8
Defpoints
 62
     0
100
AcDbPoint
 10
1081.781386427902
 20
989.5933800527707
 30
0.0
  0
POINT
  5
1BA
330
1B0
100
AcDbEntity
  8
Defpoints
 62
     0
100
AcDbPoint
 10
1281.781386427902
 20
989.5933800527707
 30
0.0
  0
ENDBLK
  5
1BB
330
1B0
100
AcDbEntity
  8
0
100
AcDbBlockEnd
  0
BLOCK
  5
1BE
330
1BD
100
AcDbEntity
  8
0
100
AcDbBlockBegin
  2
*D8
 70
     1
 10
0.0
 20
0.0
 30
0.0
  3
*D8
  1
*D8
  0
LINE
  5
1BF
330
1BD
100
AcDbEntity
  8
C寸法
 62
     0
370
    -2
100
AcDbLine
 10
1091.557000760398
 20
824.5913800527193
 30
0.0
 11
1181.781386427902
 21
824.5913800527193
 31
0.0
  0
LINE
  5
1C0
330
1BD
100
AcDbEntity
  8
C寸法
 62
     0
370
    -2
100
AcDbLine
 10
586.7916641770503
 20
974.5933800452835
 30
0.0
 11
1181.781386427902
 21
974.5933800452835
 31
0.0
  0
LINE
  5
1C1
330
1BD
100
AcDbEntity
  8
C寸法
 62
     0
370
    -2
100
AcDbLine
 10
1181.781386427902
 20
849.5913800527193
 30
0.0
 11
1181.781386427902
 21
949.5933800452835
 31
0.0
  0
INSERT
  5
1C2
330
1BD
100
AcDbEntity
  8
C寸法
 62
     0
370
    -2
100
AcDbBlockReference
  2
_OPEN
 10
1181.781386427902
 20
824.5913800527193
 30
0.0
 41
25.0
 42
25.0
 43
25.0
 50
270.0
  0
INSERT
  5
1C3
330
1BD
100
AcDbEntity
  8
C寸法
 62
     0
370
    -2
100
AcDbBlockReference
  2
_OPEN
 10
1181.781386427902
 20
974.5933800452835
 30
0.0
 41
25.0
 42
25.0
 43
25.0
 50
90.0
  0
MTEXT
  5
1C4
330
1BD
100
AcDbEntity
  8
C寸法
 62
     0
370
    13
100
AcDbMText
 10
1164.281386427902
 20
899.5923800490013
 30
0.0
 40
25.0
 41
0.0
 71
     5
 72
     1
  1
\A1;150
  7
KANJI
 11
0.0
 21
1.0
 31
0.0
 73
     1
 44
1.0
  0
POINT
  5
1C5
330
1BD
100
AcDbEntity
  8
Defpoints
 62
     0
100
AcDbPoint
 10
1081.557000760398
 20
824.5913800527193
 30
0.0
  0
POINT
  5
1C6
330
1BD
100
AcDbEntity
  8
Defpoints
 62
     0
100
AcDbPoint
 10
576.7916641770503
 20
974.5933800452835
 30
0.0
  0
POINT
  5
1C7
330
1BD
100
AcDbEntity
  8
Defpoints
 62
     0
100
AcDbPoint
 10
1181.781386427902
 20
974.5933800452835
 30
0.0
  0
ENDBLK
  5
1C8
330
1BD
100
AcDbEntity
  8
0
100
AcDbBlockEnd
  0
BLOCK
  5
1CB
330
1CA
100
AcDbEntity
  8
0
100
AcDbBlockBegin
  2
*D9
 70
     1
 10
0.0
 20
0.0
 30
0.0
  3
*D9
  1
*D9
  0
LINE
  5
1CC
330
1CA
100
AcDbEntity
  8
C寸法
 62
     0
370
    -2
100
AcDbLine
 10
586.7620226527025
 20
564.5933800770349
 30
0.0
 11
1231.781386427902
 21
564.5933800770349
 31
0.0
  0
LINE
  5
1CD
330
1CA
100
AcDbEntity
  8
C寸法
 62
     0
370
    -2
100
AcDbLine
 10
586.7813864280474
 20
549.591380052643
 30
0.0
 11
1231.781386427902
 21
549.591380052643
 31
0.0
  0
LINE
  5
1CE
330
1CA
100
AcDbEntity
  8
C寸法
 62
     0
370
    -2
100
AcDbLine
 10
1231.781386427902
 20
549.591380052643
 30
0.0
 11
1231.781386427902
 21
452.5006062431191
 31
0.0
  0
LINE
  5
1CF
330
1CA
100
AcDbEntity
  8
C寸法
 62
     0
370
    -2
100
AcDbLine
 10
1231.781386427902
 20
564.5933800770349
 30
0.0
 11
1231.781386427902
 21
549.591380052643
 31
0.0
  0
LINE
  5
1D0
330
1CA
100
AcDbEntity
  8
C寸法
 62
     0
370
    -2
100
AcDbLine
 10
1231.781386427902
 20
589.5933800770349
 30
0.0
 11
1231.781386427902
 21
614.5933800770349
 31
0.0
  0
LINE
  5
1D1
330
1CA
100
AcDbEntity
  8
C寸法
 62
     0
370
    -2
100
AcDbLine
 10
1231.781386427902
 20
524.591380052643
 30
0.0
 11
1231.781386427902
 21
499.591380052643
 31
0.0
  0
INSERT
  5
1D2
330
1CA
100
AcDbEntity
  8
C寸法
 62
     0
370
    -2
100
AcDbBlockReference
  2
_OPEN
 10
1231.781386427902
 20
564.5933800770349
 30
0.0
 41
25.0
 42
25.0
 43
25.0
 50
270.0
  0
INSERT
  5
1D3
330
1CA
100
AcDbEntity
  8
C寸法
 62
     0
370
    -2
100
AcDbBlockReference
  2
_OPEN
 10
1231.781386427902
 20
549.591380052643
 30
0.0
 41
25.0
 42
25.0
 43
25.0
 50
90.0
  0
MTEXT
  5
1D4
330
1CA
100
AcDbEntity
  8
C寸法
 62
     0
370
    13
100
AcDbMText
 10
1214.281386427902
 20
476.0459931478811
 30
0.0
 40
25.0
 41
0.0
 71
     5
 72
     1
  1
\A1;15
  7
KANJI
 11
0.0
 21
1.0
 31
0.0
 73
     1
 44
1.0
  0
POINT
  5
1D5
330
1CA
100
AcDbEntity
  8
Defpoints
 62
     0
100
AcDbPoint
 10
576.7620226527025
 20
564.5933800770349
 30
0.0
  0
POINT
  5
1D6
330
1CA
100
AcDbEntity
  8
Defpoints
 62
     0
100
AcDbPoint
 10
576.7813864280474
 20
549.591380052643
 30
0.0
  0
POINT
  5
1D7
330
1CA
100
AcDbEntity
  8
Defpoints
 62
     0
100
AcDbPoint
 10
1231.781386427902
 20
549.591380052643
 30
0.0
  0
ENDBLK
  5
1D8
330
1CA
100
AcDbEntity
  8
0
100
AcDbBlockEnd
  0
BLOCK
  5
1DB
330
1DA
100
AcDbEntity
  8
0
100
AcDbBlockBegin
  2
*D10
 70
     1
 10
0.0
 20
0.0
 30
0.0
  3
*D10
  1
*D10
  0
LINE
  5
1DC
330
1DA
100
AcDbEntity
  8
C寸法
 62
     0
370
    -2
100
AcDbLine
 10
1091.781386427902
 20
974.5933800527705
 30
0.0
 11
1231.781386427902
 21
974.5933800527705
 31
0.0
  0
LINE
  5
1DD
330
1DA
100
AcDbEntity
  8
C寸法
 62
     0
370
    -2
100
AcDbLine
 10
586.7813864280474
 20
989.5933800527707
 30
0.0
 11
1231.781386427902
 21
989.5933800527707
 31
0.0
  0
LINE
  5
1DE
330
1DA
100
AcDbEntity
  8
C寸法
 62
     0
370
    -2
100
AcDbLine
 10
1231.781386427902
 20
989.5933800527707
 30
0.0
 11
1231.781386427902
 21
1086.684153862295
 31
0.0
  0
LINE
  5
1DF
330
1DA
100
AcDbEntity
  8
C寸法
 62
     0
370
    -2
100
AcDbLine
 10
1231.781386427902
 20
974.5933800527705
 30
0.0
 11
1231.781386427902
 21
989.5933800527707
 31
0.0
  0
LINE
  5
1E0
330
1DA
100
AcDbEntity
  8
C寸法
 62
     0
370
    -2
100
AcDbLine
 10
1231.781386427902
 20
949.5933800527705
 30
0.0
 11
1231.781386427902
 21
924.5933800527705
 31
0.0
  0
LINE
  5
1E1
330
1DA
100
AcDbEntity
  8
C寸法
 62
     0
370
    -2
100
AcDbLine
 10
1231.781386427902
 20
1014.593380052771
 30
0.0
 11
1231.781386427902
 21
1039.593380052771
 31
0.0
  0
INSERT
  5
1E2
330
1DA
100
AcDbEntity
  8
C寸法
 62
     0
370
    -2
100
AcDbBlockReference
  2
_OPEN
 10
1231.781386427902
 20
974.5933800527705
 30
0.0
 41
25.0
 42
25.0
 43
25.0
 50
90.0
  0
INSERT
  5
1E3
330
1DA
100
AcDbEntity
  8
C寸法
 62
     0
370
    -2
100
AcDbBlockReference
  2
_OPEN
 10
1231.781386427902
 20
989.5933800527707
 30
0.0
 41
25.0
 42
25.0
 43
25.0
 50
270.0
  0
MTEXT
  5
1E4
330
1DA
100
AcDbEntity
  8
C寸法
 62
     0
370
    13
100
AcDbMText
 10
1214.281386427902
 20
1063.138766957533
 30
0.0
 40
25.0
 41
0.0
 71
     5
 72
     1
  1
\A1;15
  7
KANJI
 11
0.0
 21
1.0
 31
0.0
 73
     1
 44
1.0
  0
POINT
  5
1E5
330
1DA
100
AcDbEntity
  8
Defpoints
 62
     0
100
AcDbPoint
 10
1081.781386427902
 20
974.5933800527705
 30
0.0
  0
POINT
  5
1E6
330
1DA
100
AcDbEntity
  8
Defpoints
 62
     0
100
AcDbPoint
 10
576.7813864280474
 20
989.5933800527707
 30
0.0
  0
POINT
  5
1E7
330
1DA
100
AcDbEntity
  8
Defpoints
 62
     0
100
AcDbPoint
 10
1231.781386427902
 20
989.5933800527707
 30
0.0
  0
ENDBLK
  5
1E8
330
1DA
100
AcDbEntity
  8
0
100
AcDbBlockEnd
  0
BLOCK
  5
1EB
330
1EA
100
AcDbEntity
  8
0
100
AcDbBlockBegin
  2
*D11
 70
     1
 10
0.0
 20
0.0
 30
0.0
  3
*D11
  1
*D11
  0
LINE
  5
1EC
330
1EA
100
AcDbEntity
  8
C寸法
 62
     0
370
    -2
100
AcDbLine
 10
1091.781386427902
 20
315.2913800526474
 30
0.0
 11
1231.781386427902
 21
315.2913800526474
 31
0.0
  0
LINE
  5
1ED
330
1EA
100
AcDbEntity
  8
C寸法
 62
     0
370
    -2
100
AcDbLine
 10
677.281386428062
 20
125.2913800526471
 30
0.0
 11
1231.781386427902
 21
125.2913800526471
 31
0.0
  0
LINE
  5
1EE
330
1EA
100
AcDbEntity
  8
C寸法
 62
     0
370
    -2
100
AcDbLine
 10
1231.781386427902
 20
290.2913800526474
 30
0.0
 11
1231.781386427902
 21
150.2913800526471
 31
0.0
  0
INSERT
  5
1EF
330
1EA
100
AcDbEntity
  8
C寸法
 62
     0
370
    -2
100
AcDbBlockReference
  2
_OPEN
 10
1231.781386427902
 20
315.2913800526474
 30
0.0
 41
25.0
 42
25.0
 43
25.0
 50
90.0
  0
INSERT
  5
1F0
330
1EA
100
AcDbEntity
  8
C寸法
 62
     0
370
    -2
100
AcDbBlockReference
  2
_OPEN
 10
1231.781386427902
 20
125.2913800526471
 30
0.0
 41
25.0
 42
25.0
 43
25.0
 50
270.0
  0
MTEXT
  5
1F1
330
1EA
100
AcDbEntity
  8
C寸法
 62
     0
370
    13
100
AcDbMText
 10
1214.281386427902
 20
220.2913800526472
 30
0.0
 40
25.0
 41
0.0
 71
     5
 72
     1
  1
\A1;190
  7
KANJI
 11
0.0
 21
1.0
 31
0.0
 73
     1
 44
1.0
  0
POINT
  5
1F2
330
1EA
100
AcDbEntity
  8
Defpoints
 62
     0
100
AcDbPoint
 10
1081.781386427902
 20
315.2913800526474
 30
0.0
  0
POINT
  5
1F3
330
1EA
100
AcDbEntity
  8
Defpoints
 62
     0
100
AcDbPoint
 10
667.281386428062
 20
125.2913800526471
 30
0.0
  0
POINT
  5
1F4
330
1EA
100
AcDbEntity
  8
Defpoints
 62
     0
100
AcDbPoint
 10
1231.781386427902
 20
125.2913800526471
 30
0.0
  0
ENDBLK
  5
1F5
330
1EA
100
AcDbEntity
  8
0
100
AcDbBlockEnd
  0
BLOCK
  5
1F9
330
1F8
100
AcDbEntity
  8
0
100
AcDbBlockBegin
  2
*D12
 70
     1
 10
0.0
 20
0.0
 30
0.0
  3
*D12
  1
*D12
  0
LINE
  5
1FA
330
1F8
100
AcDbEntity
  8
C寸法
 62
     0
370
    -2
100
AcDbLine
 10
1076.779386428185
 20
315.2913800526474
 30
0.0
 11
1181.781386427902
 21
315.2913800526474
 31
0.0
  0
LINE
  5
1FB
330
1F8
100
AcDbEntity
  8
C寸法
 62
     0
370
    -2
100
AcDbLine
 10
1058.779386428171
 20
300.2913800526392
 30
0.0
 11
1181.781386427902
 21
300.2913800526392
 31
0.0
  0
LINE
  5
1FC
330
1F8
100
AcDbEntity
  8
C寸法
 62
     0
370
    -2
100
AcDbLine
 10
1181.781386427902
 20
275.2913800526392
 30
0.0
 11
1181.781386427902
 21
203.2006062431154
 31
0.0
  0
LINE
  5
1FD
330
1F8
100
AcDbEntity
  8
C寸法
 62
     0
370
    -2
100
AcDbLine
 10
1181.781386427902
 20
315.2913800526474
 30
0.0
 11
1181.781386427902
 21
300.2913800526392
 31
0.0
  0
LINE
  5
1FE
330
1F8
100
AcDbEntity
  8
C寸法
 62
     0
370
    -2
100
AcDbLine
 10
1181.781386427902
 20
340.2913800526474
 30
0.0
 11
1181.781386427902
 21
365.2913800526474
 31
0.0
  0
INSERT
  5
1FF
330
1F8
100
AcDbEntity
  8
C寸法
 62
     0
370
    -2
100
AcDbBlockReference
  2
_OPEN
 10
1181.781386427902
 20
315.2913800526474
 30
0.0
 41
25.0
 42
25.0
 43
25.0
 50
270.0
  0
INSERT
  5
200
330
1F8
100
AcDbEntity
  8
C寸法
 62
     0
370
    -2
100
AcDbBlockReference
  2
_OPEN
 10
1181.781386427902
 20
300.2913800526392
 30
0.0
 41
25.0
 42
25.0
 43
25.0
 50
90.0
  0
MTEXT
  5
201
330
1F8
100
AcDbEntity
  8
C寸法
 62
     0
370
    13
100
AcDbMText
 10
1164.281386427902
 20
226.7459931478773
 30
0.0
 40
25.0
 41
0.0
 71
     5
 72
     1
  1
\A1;15
  7
KANJI
 11
0.0
 21
1.0
 31
0.0
 73
     1
 44
1.0
  0
POINT
  5
202
330
1F8
100
AcDbEntity
  8
Defpoints
 62
     0
100
AcDbPoint
 10
1066.779386428185
 20
315.2913800526474
 30
0.0
  0
POINT
  5
203
330
1F8
100
AcDbEntity
  8
Defpoints
 62
     0
100
AcDbPoint
 10
1048.779386428171
 20
300.2913800526392
 30
0.0
  0
POINT
  5
204
330
1F8
100
AcDbEntity
  8
Defpoints
 62
     0
100
AcDbPoint
 10
1181.781386427902
 20
300.2913800526392
 30
0.0
  0
ENDBLK
  5
205
330
1F8
100
AcDbEntity
  8
0
100
AcDbBlockEnd
  0
BLOCK
  5
20A
330
209
100
AcDbEntity
  8
0
100
AcDbBlockBegin
  2
*D13
 70
     1
 10
0.0
 20
0.0
 30
0.0
  3
*D13
  1
*D13
  0
LINE
  5
20B
330
209
100
AcDbEntity
  8
C寸法
 62
     0
370
    -2
100
AcDbLine
 10
667.2813864280736
 20
814.5843800527252
 30
0.0
 11
667.2813864280736
 21
664.6130188295649
 31
0.0
  0
LINE
  5
20C
330
209
100
AcDbEntity
  8
C寸法
 62
     0
370
    -2
100
AcDbLine
 10
486.4710546572654
 20
814.3385527668561
 30
0.0
 11
486.4710546572654
 21
664.6130188295649
 31
0.0
  0
LINE
  5
20D
330
209
100
AcDbEntity
  8
C寸法
 62
     0
370
    -2
100
AcDbLine
 10
642.2813864280736
 20
664.6130188295649
 30
0.0
 11
511.4710546572654
 21
664.6130188295649
 31
0.0
  0
INSERT
  5
20E
330
209
100
AcDbEntity
  8
C寸法
 62
     0
370
    -2
100
AcDbBlockReference
  2
_OPEN
 10
667.2813864280736
 20
664.6130188295649
 30
0.0
 41
25.0
 42
25.0
 43
25.0
  0
INSERT
  5
20F
330
209
100
AcDbEntity
  8
C寸法
 62
     0
370
    -2
100
AcDbBlockReference
  2
_OPEN
 10
486.4710546572654
 20
664.6130188295649
 30
0.0
 41
25.0
 42
25.0
 43
25.0
 50
180.0
  0
MTEXT
  5
210
330
209
100
AcDbEntity
  8
C寸法
 62
     0
370
    13
100
AcDbMText
 10
590.9576436525562
 20
682.1130188295649
 30
0.0
 40
25.0
 41
0.0
 71
     5
 72
     1
  1
\A1;Φ181
  7
KANJI
 73
     1
 44
1.0
  0
POINT
  5
211
330
209
100
AcDbEntity
  8
Defpoints
 62
     0
100
AcDbPoint
 10
667.2813864280736
 20
824.5843800527252
 30
0.0
  0
POINT
  5
212
330
209
100
AcDbEntity
  8
Defpoints
 62
     0
100
AcDbPoint
 10
486.4710546572654
 20
824.3385527668561
 30
0.0
  0
POINT
  5
213
330
209
100
AcDbEntity
  8
Defpoints
 62
     0
100
AcDbPoint
 10
486.4710546572654
 20
664.6130188295649
 30
0.0
  0
ENDBLK
  5
214
330
209
100
AcDbEntity
  8
0
100
AcDbBlockEnd
  0
BLOCK
  5
2A6
330
2A5
100
AcDbEntity
  8
0
100
AcDbBlockBegin
  2
*D14
 70
     1
 10
0.0
 20
0.0
 30
0.0
  3
*D14
  1
*D14
  0
LINE
  5
2A8
330
2A5
100
AcDbEntity
  8
C寸法
 62
     0
370
    -2
100
AcDbLine
 10
107.0695494001714
 20
761.3593370132894
 30
0.0
 11
107.0695494001715
 21
404.1877634323548
 31
0.0
  0
LINE
  5
2A9
330
2A5
100
AcDbEntity
  8
C寸法
 62
     0
370
    -2
100
AcDbLine
 10
1057.06754940044
 20
761.3593370029996
 30
0.0
 11
1057.06754940044
 21
404.1877634323548
 31
0.0
  0
LINE
  5
2AA
330
2A5
100
AcDbEntity
  8
C寸法
 62
     0
370
    -2
100
AcDbLine
 10
132.0695494001715
 20
404.1877634323548
 30
0.0
 11
1032.06754940044
 21
404.1877634323548
 31
0.0
  0
INSERT
  5
2AB
330
2A5
100
AcDbEntity
  8
C寸法
 62
     0
370
    -2
100
AcDbBlockReference
  2
_OPEN
 10
107.0695494001715
 20
404.1877634323548
 30
0.0
 41
25.0
 42
25.0
 43
25.0
 50
180.0
  0
INSERT
  5
2AC
330
2A5
100
AcDbEntity
  8
C寸法
 62
     0
370
    -2
100
AcDbBlockReference
  2
_OPEN
 10
1057.06754940044
 20
404.1877634323548
 30
0.0
 41
25.0
 42
25.0
 43
25.0
  0
MTEXT
  5
2AD
330
2A5
100
AcDbEntity
  8
C寸法
 62
     0
370
    13
100
AcDbMText
 10
582.0685494003058
 20
421.6877634323548
 30
0.0
 40
25.0
 41
0.0
 71
     5
 72
     1
  1
\A1;950
  7
KANJI
 73
     1
 44
1.0
  0
POINT
  5
2AE
330
2A5
100
AcDbEntity
  8
Defpoints
 62
     0
100
AcDbPoint
 10
107.0695494001714
 20
771.3593370132894
 30
0.0
  0
POINT
  5
2AF
330
2A5
100
AcDbEntity
  8
Defpoints
 62
     0
100
AcDbPoint
 10
1057.06754940044
 20
771.3593370029996
 30
0.0
  0
POINT
  5
2B0
330
2A5
100
AcDbEntity
  8
Defpoints
 62
     0
100
AcDbPoint
 10
1057.06754940044
 20
404.1877634323548
 30
0.0
  0
ENDBLK
  5
2A7
330
2A5
100
AcDbEntity
  8
0
100
AcDbBlockEnd
  0
BLOCK
  5
2B2
330
2B1
100
AcDbEntity
  8
0
100
AcDbBlockBegin
  2
*D15
 70
     1
 10
0.0
 20
0.0
 30
0.0
  3
*D15
  1
*D15
  0
LINE
  5
2B4
330
2B1
100
AcDbEntity
  8
C寸法
 62
     0
370
    -2
100
AcDbLine
 10
1097.069549400171
 20
569.189763432471
 30
0.0
 11
1237.069549400171
 21
569.189763432471
 31
0.0
  0
LINE
  5
2B5
330
2B1
100
AcDbEntity
  8
C寸法
 62
     0
370
    -2
100
AcDbLine
 10
1097.069549400171
 20
979.1897634324707
 30
0.0
 11
1237.069549400171
 21
979.1897634324707
 31
0.0
  0
LINE
  5
2B6
330
2B1
100
AcDbEntity
  8
C寸法
 62
     0
370
    -2
100
AcDbLine
 10
1237.069549400171
 20
594.189763432471
 30
0.0
 11
1237.069549400171
 21
954.1897634324707
 31
0.0
  0
INSERT
  5
2B7
330
2B1
100
AcDbEntity
  8
C寸法
 62
     0
370
    -2
100
AcDbBlockReference
  2
_OPEN
 10
1237.069549400171
 20
569.189763432471
 30
0.0
 41
25.0
 42
25.0
 43
25.0
 50
270.0
  0
INSERT
  5
2B8
330
2B1
100
AcDbEntity
  8
C寸法
 62
     0
370
    -2
100
AcDbBlockReference
  2
_OPEN
 10
1237.069549400171
 20
979.1897634324707
 30
0.0
 41
25.0
 42
25.0
 43
25.0
 50
90.0
  0
MTEXT
  5
2B9
330
2B1
100
AcDbEntity
  8
C寸法
 62
     0
370
    13
100
AcDbMText
 10
1219.569549400171
 20
774.1897634324708
 30
0.0
 40
25.0
 41
0.0
 71
     5
 72
     1
  1
\A1;410
  7
KANJI
 11
0.0
 21
1.0
 31
0.0
 73
     1
 44
1.0
  0
POINT
  5
2BA
330
2B1
100
AcDbEntity
  8
Defpoints
 62
     0
100
AcDbPoint
 10
1087.069549400171
 20
569.189763432471
 30
0.0
  0
POINT
  5
2BB
330
2B1
100
AcDbEntity
  8
Defpoints
 62
     0
100
AcDbPoint
 10
1087.069549400171
 20
979.1897634324707
 30
0.0
  0
POINT
  5
2BC
330
2B1
100
AcDbEntity
  8
Defpoints
 62
     0
100
AcDbPoint
 10
1237.069549400171
 20
979.1897634324707
 30
0.0
  0
ENDBLK
  5
2B3
330
2B1
100
AcDbEntity
  8
0
100
AcDbBlockEnd
  0
BLOCK
  5
2BE
330
2BD
100
AcDbEntity
  8
0
100
AcDbBlockBegin
  2
*D16
 70
     1
 10
0.0
 20
0.0
 30
0.0
  3
*D16
  1
*D16
  0
LINE
  5
2C0
330
2BD
100
AcDbEntity
  8
C寸法
 62
     0
370
    -2
100
AcDbLine
 10
1097.069549400171
 20
554.1877634323432
 30
0.0
 11
1287.069549400171
 21
554.1877634323432
 31
0.0
  0
LINE
  5
2C1
330
2BD
100
AcDbEntity
  8
C寸法
 62
     0
370
    -2
100
AcDbLine
 10
1097.069549400171
 20
994.189763432471
 30
0.0
 11
1287.069549400171
 21
994.189763432471
 31
0.0
  0
LINE
  5
2C2
330
2BD
100
AcDbEntity
  8
C寸法
 62
     0
370
    -2
100
AcDbLine
 10
1287.069549400171
 20
579.1877634323432
 30
0.0
 11
1287.069549400171
 21
969.189763432471
 31
0.0
  0
INSERT
  5
2C3
330
2BD
100
AcDbEntity
  8
C寸法
 62
     0
370
    -2
100
AcDbBlockReference
  2
_OPEN
 10
1287.069549400171
 20
554.1877634323432
 30
0.0
 41
25.0
 42
25.0
 43
25.0
 50
270.0
  0
INSERT
  5
2C4
330
2BD
100
AcDbEntity
  8
C寸法
 62
     0
370
    -2
100
AcDbBlockReference
  2
_OPEN
 10
1287.069549400171
 20
994.189763432471
 30
0.0
 41
25.0
 42
25.0
 43
25.0
 50
90.0
  0
MTEXT
  5
2C5
330
2BD
100
AcDbEntity
  8
C寸法
 62
     0
370
    13
100
AcDbMText
 10
1269.569549400171
 20
774.1887634324071
 30
0.0
 40
25.0
 41
0.0
 71
     5
 72
     1
  1
\A1;440
  7
KANJI
 11
0.0
 21
1.0
 31
0.0
 73
     1
 44
1.0
  0
POINT
  5
2C6
330
2BD
100
AcDbEntity
  8
Defpoints
 62
     0
100
AcDbPoint
 10
1087.069549400171
 20
554.1877634323432
 30
0.0
  0
POINT
  5
2C7
330
2BD
100
AcDbEntity
  8
Defpoints
 62
     0
100
AcDbPoint
 10
1087.069549400171
 20
994.189763432471
 30
0.0
  0
POINT
  5
2C8
330
2BD
100
AcDbEntity
  8
Defpoints
 62
     0
100
AcDbPoint
 10
1287.069549400171
 20
994.189763432471
 30
0.0
  0
ENDBLK
  5
2BF
330
2BD
100
AcDbEntity
  8
0
100
AcDbBlockEnd
  0
BLOCK
  5
2CA
330
2C9
100
AcDbEntity
  8
0
100
AcDbBlockBegin
  2
*D17
 70
     1
 10
0.0
 20
0.0
 30
0.0
  3
*D17
  1
*D17
  0
LINE
  5
2CC
330
2C9
100
AcDbEntity
  8
C寸法
 62
     0
370
    -2
100
AcDbLine
 10
1096.845163732667
 20
829.1877634324195
 30
0.0
 11
1187.069549400171
 21
829.1877634324195
 31
0.0
  0
LINE
  5
2CD
330
2C9
100
AcDbEntity
  8
C寸法
 62
     0
370
    -2
100
AcDbLine
 10
592.0798271493198
 20
979.1897634249838
 30
0.0
 11
1187.069549400171
 21
979.1897634249838
 31
0.0
  0
LINE
  5
2CE
330
2C9
100
AcDbEntity
  8
C寸法
 62
     0
370
    -2
100
AcDbLine
 10
1187.069549400171
 20
854.1877634324195
 30
0.0
 11
1187.069549400171
 21
954.1897634249838
 31
0.0
  0
INSERT
  5
2CF
330
2C9
100
AcDbEntity
  8
C寸法
 62
     0
370
    -2
100
AcDbBlockReference
  2
_OPEN
 10
1187.069549400171
 20
829.1877634324195
 30
0.0
 41
25.0
 42
25.0
 43
25.0
 50
270.0
  0
INSERT
  5
2D0
330
2C9
100
AcDbEntity
  8
C寸法
 62
     0
370
    -2
100
AcDbBlockReference
  2
_OPEN
 10
1187.069549400171
 20
979.1897634249838
 30
0.0
 41
25.0
 42
25.0
 43
25.0
 50
90.0
  0
MTEXT
  5
2D1
330
2C9
100
AcDbEntity
  8
C寸法
 62
     0
370
    13
100
AcDbMText
 10
1169.569549400171
 20
904.1887634287016
 30
0.0
 40
25.0
 41
0.0
 71
     5
 72
     1
  1
\A1;150
  7
KANJI
 11
0.0
 21
1.0
 31
0.0
 73
     1
 44
1.0
  0
POINT
  5
2D2
330
2C9
100
AcDbEntity
  8
Defpoints
 62
     0
100
AcDbPoint
 10
1086.845163732667
 20
829.1877634324195
 30
0.0
  0
POINT
  5
2D3
330
2C9
100
AcDbEntity
  8
Defpoints
 62
     0
100
AcDbPoint
 10
582.0798271493198
 20
979.1897634249838
 30
0.0
  0
POINT
  5
2D4
330
2C9
100
AcDbEntity
  8
Defpoints
 62
     0
100
AcDbPoint
 10
1187.069549400171
 20
979.1897634249838
 30
0.0
  0
ENDBLK
  5
2CB
330
2C9
100
AcDbEntity
  8
0
100
AcDbBlockEnd
  0
BLOCK
  5
2D6
330
2D5
100
AcDbEntity
  8
0
100
AcDbBlockBegin
  2
*D18
 70
     1
 10
0.0
 20
0.0
 30
0.0
  3
*D18
  1
*D18
  0
LINE
  5
2D8
330
2D5
100
AcDbEntity
  8
C寸法
 62
     0
370
    -2
100
AcDbLine
 10
592.0501856249721
 20
569.1897634567351
 30
0.0
 11
1237.069549400171
 21
569.1897634567351
 31
0.0
  0
LINE
  5
2D9
330
2D5
100
AcDbEntity
  8
C寸法
 62
     0
370
    -2
100
AcDbLine
 10
592.069549400317
 20
554.1877634323432
 30
0.0
 11
1237.069549400171
 21
554.1877634323432
 31
0.0
  0
LINE
  5
2DA
330
2D5
100
AcDbEntity
  8
C寸法
 62
     0
370
    -2
100
AcDbLine
 10
1237.069549400171
 20
554.1877634323432
 30
0.0
 11
1237.069549400171
 21
457.0969896228194
 31
0.0
  0
LINE
  5
2DB
330
2D5
100
AcDbEntity
  8
C寸法
 62
     0
370
    -2
100
AcDbLine
 10
1237.069549400171
 20
569.1897634567351
 30
0.0
 11
1237.069549400171
 21
554.1877634323432
 31
0.0
  0
LINE
  5
2DC
330
2D5
100
AcDbEntity
  8
C寸法
 62
     0
370
    -2
100
AcDbLine
 10
1237.069549400171
 20
594.1897634567351
 30
0.0
 11
1237.069549400171
 21
619.1897634567351
 31
0.0
  0
LINE
  5
2DD
330
2D5
100
AcDbEntity
  8
C寸法
 62
     0
370
    -2
100
AcDbLine
 10
1237.069549400171
 20
529.1877634323432
 30
0.0
 11
1237.069549400171
 21
504.1877634323432
 31
0.0
  0
INSERT
  5
2DE
330
2D5
100
AcDbEntity
  8
C寸法
 62
     0
370
    -2
100
AcDbBlockReference
  2
_OPEN
 10
1237.069549400171
 20
569.1897634567351
 30
0.0
 41
25.0
 42
25.0
 43
25.0
 50
270.0
  0
INSERT
  5
2DF
330
2D5
100
AcDbEntity
  8
C寸法
 62
     0
370
    -2
100
AcDbBlockReference
  2
_OPEN
 10
1237.069549400171
 20
554.1877634323432
 30
0.0
 41
25.0
 42
25.0
 43
25.0
 50
90.0
  0
MTEXT
  5
2E0
330
2D5
100
AcDbEntity
  8
C寸法
 62
     0
370
    13
100
AcDbMText
 10
1219.569549400171
 20
480.6423765275813
 30
0.0
 40
25.0
 41
0.0
 71
     5
 72
     1
  1
\A1;15
  7
KANJI
 11
0.0
 21
1.0
 31
0.0
 73
     1
 44
1.0
  0
POINT
  5
2E1
330
2D5
100
AcDbEntity
  8
Defpoints
 62
     0
100
AcDbPoint
 10
582.0501856249721
 20
569.1897634567351
 30
0.0
  0
POINT
  5
2E2
330
2D5
100
AcDbEntity
  8
Defpoints
 62
     0
100
AcDbPoint
 10
582.069549400317
 20
554.1877634323432
 30
0.0
  0
POINT
  5
2E3
330
2D5
100
AcDbEntity
  8
Defpoints
 62
     0
100
AcDbPoint
 10
1237.069549400171
 20
554.1877634323432
 30
0.0
  0
ENDBLK
  5
2D7
330
2D5
100
AcDbEntity
  8
0
100
AcDbBlockEnd
  0
BLOCK
  5
2E5
330
2E4
100
AcDbEntity
  8
0
100
AcDbBlockBegin
  2
*D19
 70
     1
 10
0.0
 20
0.0
 30
0.0
  3
*D19
  1
*D19
  0
LINE
  5
2E7
330
2E4
100
AcDbEntity
  8
C寸法
 62
     0
370
    -2
100
AcDbLine
 10
1097.069549400171
 20
979.1897634324707
 30
0.0
 11
1237.069549400171
 21
979.1897634324707
 31
0.0
  0
LINE
  5
2E8
330
2E4
100
AcDbEntity
  8
C寸法
 62
     0
370
    -2
100
AcDbLine
 10
592.069549400317
 20
994.189763432471
 30
0.0
 11
1237.069549400171
 21
994.189763432471
 31
0.0
  0
LINE
  5
2E9
330
2E4
100
AcDbEntity
  8
C寸法
 62
     0
370
    -2
100
AcDbLine
 10
1237.069549400171
 20
994.189763432471
 30
0.0
 11
1237.069549400171
 21
1091.280537241995
 31
0.0
  0
LINE
  5
2EA
330
2E4
100
AcDbEntity
  8
C寸法
 62
     0
370
    -2
100
AcDbLine
 10
1237.069549400171
 20
979.1897634324707
 30
0.0
 11
1237.069549400171
 21
994.189763432471
 31
0.0
  0
LINE
  5
2EB
330
2E4
100
AcDbEntity
  8
C寸法
 62
     0
370
    -2
100
AcDbLine
 10
1237.069549400171
 20
954.1897634324707
 30
0.0
 11
1237.069549400171
 21
929.1897634324707
 31
0.0
  0
LINE
  5
2EC
330
2E4
100
AcDbEntity
  8
C寸法
 62
     0
370
    -2
100
AcDbLine
 10
1237.069549400171
 20
1019.189763432471
 30
0.0
 11
1237.069549400171
 21
1044.189763432471
 31
0.0
  0
INSERT
  5
2ED
330
2E4
100
AcDbEntity
  8
C寸法
 62
     0
370
    -2
100
AcDbBlockReference
  2
_OPEN
 10
1237.069549400171
 20
979.1897634324707
 30
0.0
 41
25.0
 42
25.0
 43
25.0
 50
90.0
  0
INSERT
  5
2EE
330
2E4
100
AcDbEntity
  8
C寸法
 62
     0
370
    -2
100
AcDbBlockReference
  2
_OPEN
 10
1237.069549400171
 20
994.189763432471
 30
0.0
 41
25.0
 42
25.0
 43
25.0
 50
270.0
  0
MTEXT
  5
2EF
330
2E4
100
AcDbEntity
  8
C寸法
 62
     0
370
    13
100
AcDbMText
 10
1219.569549400171
 20
1067.735150337233
 30
0.0
 40
25.0
 41
0.0
 71
     5
 72
     1
  1
\A1;15
  7
KANJI
 11
0.0
 21
1.0
 31
0.0
 73
     1
 44
1.0
  0
POINT
  5
2F0
330
2E4
100
AcDbEntity
  8
Defpoints
 62
     0
100
AcDbPoint
 10
1087.069549400171
 20
979.1897634324707
 30
0.0
  0
POINT
  5
2F1
330
2E4
100
AcDbEntity
  8
Defpoints
 62
     0
100
AcDbPoint
 10
582.069549400317
 20
994.189763432471
 30
0.0
  0
POINT
  5
2F2
330
2E4
100
AcDbEntity
  8
Defpoints
 62
     0
100
AcDbPoint
 10
1237.069549400171
 20
994.189763432471
 30
0.0
  0
ENDBLK
  5
2E6
330
2E4
100
AcDbEntity
  8
0
100
AcDbBlockEnd
  0
BLOCK
  5
2F4
330
2F3
100
AcDbEntity
  8
0
100
AcDbBlockBegin
  2
*D20
 70
     1
 10
0.0
 20
0.0
 30
0.0
  3
*D20
  1
*D20
  0
LINE
  5
2F6
330
2F3
100
AcDbEntity
  8
C寸法
 62
     0
370
    -2
100
AcDbLine
 10
1097.069549400171
 20
319.8877634323476
 30
0.0
 11
1237.069549400171
 21
319.8877634323476
 31
0.0
  0
LINE
  5
2F7
330
2F3
100
AcDbEntity
  8
C寸法
 62
     0
370
    -2
100
AcDbLine
 10
682.5695494003315
 20
129.8877634323474
 30
0.0
 11
1237.069549400171
 21
129.8877634323473
 31
0.0
  0
LINE
  5
2F8
330
2F3
100
AcDbEntity
  8
C寸法
 62
     0
370
    -2
100
AcDbLine
 10
1237.069549400171
 20
294.8877634323476
 30
0.0
 11
1237.069549400171
 21
154.8877634323473
 31
0.0
  0
INSERT
  5
2F9
330
2F3
100
AcDbEntity
  8
C寸法
 62
     0
370
    -2
100
AcDbBlockReference
  2
_OPEN
 10
1237.069549400171
 20
319.8877634323476
 30
0.0
 41
25.0
 42
25.0
 43
25.0
 50
90.0
  0
INSERT
  5
2FA
330
2F3
100
AcDbEntity
  8
C寸法
 62
     0
370
    -2
100
AcDbBlockReference
  2
_OPEN
 10
1237.069549400171
 20
129.8877634323473
 30
0.0
 41
25.0
 42
25.0
 43
25.0
 50
270.0
  0
MTEXT
  5
2FB
330
2F3
100
AcDbEntity
  8
C寸法
 62
     0
370
    13
100
AcDbMText
 10
1219.569549400171
 20
224.8877634323475
 30
0.0
 40
25.0
 41
0.0
 71
     5
 72
     1
  1
\A1;190
  7
KANJI
 11
0.0
 21
1.0
 31
0.0
 73
     1
 44
1.0
  0
POINT
  5
2FC
330
2F3
100
AcDbEntity
  8
Defpoints
 62
     0
100
AcDbPoint
 10
1087.069549400171
 20
319.8877634323476
 30
0.0
  0
POINT
  5
2FD
330
2F3
100
AcDbEntity
  8
Defpoints
 62
     0
100
AcDbPoint
 10
672.5695494003315
 20
129.8877634323474
 30
0.0
  0
POINT
  5
2FE
330
2F3
100
AcDbEntity
  8
Defpoints
 62
     0
100
AcDbPoint
 10
1237.069549400171
 20
129.8877634323473
 30
0.0
  0
ENDBLK
  5
2F5
330
2F3
100
AcDbEntity
  8
0
100
AcDbBlockEnd
  0
BLOCK
  5
300
330
2FF
100
AcDbEntity
  8
0
100
AcDbBlockBegin
  2
*D21
 70
     1
 10
0.0
 20
0.0
 30
0.0
  3
*D21
  1
*D21
  0
LINE
  5
302
330
2FF
100
AcDbEntity
  8
C寸法
 62
     0
370
    -2
100
AcDbLine
 10
1082.067549400455
 20
319.8877634323476
 30
0.0
 11
1187.069549400171
 21
319.8877634323476
 31
0.0
  0
LINE
  5
303
330
2FF
100
AcDbEntity
  8
C寸法
 62
     0
370
    -2
100
AcDbLine
 10
1064.06754940044
 20
304.8877634323395
 30
0.0
 11
1187.069549400171
 21
304.8877634323395
 31
0.0
  0
LINE
  5
304
330
2FF
100
AcDbEntity
  8
C寸法
 62
     0
370
    -2
100
AcDbLine
 10
1187.069549400171
 20
279.8877634323395
 30
0.0
 11
1187.069549400171
 21
207.7969896228156
 31
0.0
  0
LINE
  5
305
330
2FF
100
AcDbEntity
  8
C寸法
 62
     0
370
    -2
100
AcDbLine
 10
1187.069549400171
 20
319.8877634323476
 30
0.0
 11
1187.069549400171
 21
304.8877634323395
 31
0.0
  0
LINE
  5
306
330
2FF
100
AcDbEntity
  8
C寸法
 62
     0
370
    -2
100
AcDbLine
 10
1187.069549400171
 20
344.8877634323476
 30
0.0
 11
1187.069549400171
 21
369.8877634323476
 31
0.0
  0
INSERT
  5
307
330
2FF
100
AcDbEntity
  8
C寸法
 62
     0
370
    -2
100
AcDbBlockReference
  2
_OPEN
 10
1187.069549400171
 20
319.8877634323476
 30
0.0
 41
25.0
 42
25.0
 43
25.0
 50
270.0
  0
INSERT
  5
308
330
2FF
100
AcDbEntity
  8
C寸法
 62
     0
370
    -2
100
AcDbBlockReference
  2
_OPEN
 10
1187.069549400171
 20
304.8877634323395
 30
0.0
 41
25.0
 42
25.0
 43
25.0
 50
90.0
  0
MTEXT
  5
309
330
2FF
100
AcDbEntity
  8
C寸法
 62
     0
370
    13
100
AcDbMText
 10
1169.569549400171
 20
231.3423765275775
 30
0.0
 40
25.0
 41
0.0
 71
     5
 72
     1
  1
\A1;15
  7
KANJI
 11
0.0
 21
1.0
 31
0.0
 73
     1
 44
1.0
  0
POINT
  5
30A
330
2FF
100
AcDbEntity
  8
Defpoints
 62
     0
100
AcDbPoint
 10
1072.067549400455
 20
319.8877634323476
 30
0.0
  0
POINT
  5
30B
330
2FF
100
AcDbEntity
  8
Defpoints
 62
     0
100
AcDbPoint
 10
1054.06754940044
 20
304.8877634323395
 30
0.0
  0
POINT
  5
30C
330
2FF
100
AcDbEntity
  8
Defpoints
 62
     0
100
AcDbPoint
 10
1187.069549400171
 20
304.8877634323395
 30
0.0
  0
ENDBLK
  5
301
330
2FF
100
AcDbEntity
  8
0
100
AcDbBlockEnd
  0
BLOCK
  5
30E
330
30D
100
AcDbEntity
  8
0
100
AcDbBlockBegin
  2
*D22
 70
     1
 10
0.0
 20
0.0
 30
0.0
  3
*D22
  1
*D22
  0
LINE
  5
310
330
30D
100
AcDbEntity
  8
C寸法
 62
     0
370
    -2
100
AcDbLine
 10
672.5695494003431
 20
819.1807634324255
 30
0.0
 11
672.5695494003431
 21
669.2094022092651
 31
0.0
  0
LINE
  5
311
330
30D
100
AcDbEntity
  8
C寸法
 62
     0
370
    -2
100
AcDbLine
 10
491.759217629535
 20
818.9349361465563
 30
0.0
 11
491.759217629535
 21
669.2094022092651
 31
0.0
  0
LINE
  5
312
330
30D
100
AcDbEntity
  8
C寸法
 62
     0
370
    -2
100
AcDbLine
 10
647.5695494003431
 20
669.2094022092651
 30
0.0
 11
516.759217629535
 21
669.2094022092651
 31
0.0
  0
INSERT
  5
313
330
30D
100
AcDbEntity
  8
C寸法
 62
     0
370
    -2
100
AcDbBlockReference
  2
_OPEN
 10
672.5695494003431
 20
669.2094022092651
 30
0.0
 41
25.0
 42
25.0
 43
25.0
  0
INSERT
  5
314
330
30D
100
AcDbEntity
  8
C寸法
 62
     0
370
    -2
100
AcDbBlockReference
  2
_OPEN
 10
491.759217629535
 20
669.2094022092651
 30
0.0
 41
25.0
 42
25.0
 43
25.0
 50
180.0
  0
MTEXT
  5
315
330
30D
100
AcDbEntity
  8
C寸法
 62
     0
370
    13
100
AcDbMText
 10
596.2458066248257
 20
686.7094022092651
 30
0.0
 40
25.0
 41
0.0
 71
     5
 72
     1
  1
\A1;Φ181
  7
KANJI
 73
     1
 44
1.0
  0
POINT
  5
316
330
30D
100
AcDbEntity
  8
Defpoints
 62
     0
100
AcDbPoint
 10
672.5695494003431
 20
829.1807634324255
 30
0.0
  0
POINT
  5
317
330
30D
100
AcDbEntity
  8
Defpoints
 62
     0
100
AcDbPoint
 10
491.759217629535
 20
828.9349361465563
 30
0.0
  0
POINT
  5
318
330
30D
100
AcDbEntity
  8
Defpoints
 62
     0
100
AcDbPoint
 10
491.759217629535
 20
669.2094022092651
 30
0.0
  0
ENDBLK
  5
30F
330
30D
100
AcDbEntity
  8
0
100
AcDbBlockEnd
  0
BLOCK
  5
31E
330
31D
100
AcDbEntity
  8
0
100
AcDbBlockBegin
  2
*D23
 70
     1
 10
0.0
 20
0.0
 30
0.0
  3
*D23
  1
*D23
  0
LINE
  5
320
330
31D
100
AcDbEntity
  8
0
 62
     0
370
    -2
100
AcDbLine
 10
146.1536235749882
 20
637.3529141807547
 30
0.0
 11
267.5872951606856
 21
714.1909640579704
 31
0.0
  0
MTEXT
  5
321
330
31D
100
AcDbEntity
  8
0
 62
     0
370
    13
100
AcDbMText
 10
193.1418398449992
 20
687.7941571222776
 30
0.0
 40
25.0
 41
0.0
 71
     5
 72
     1
  1
4-R100
  7
KANJI
 11
0.8450390110025009
 21
0.5347046566880778
 31
0.0
 73
     1
 44
1.0
  0
INSERT
  5
322
330
31D
100
AcDbEntity
  8
0
 62
     0
370
    -2
100
AcDbBlockReference
  2
_OPEN
 10
125.0276482999256
 20
623.9852977635528
 30
0.0
 41
25.0
 42
25.0
 43
25.0
 50
212.3238841754805
  0
POINT
  5
323
330
31D
100
AcDbEntity
  8
Defpoints
 62
     0
100
AcDbPoint
 10
125.0276482999256
 20
623.9852977635528
 30
0.0
  0
POINT
  5
324
330
31D
100
AcDbEntity
  8
Defpoints
 62
     0
100
AcDbPoint
 10
209.5315494002001
 20
677.455763432376
 30
0.0
  0
ENDBLK
  5
31F
330
31D
100
AcDbEntity
  8
0
100
AcDbBlockEnd
  0
BLOCK
  5
329
330
328
100
AcDbEntity
  8
0
100
AcDbBlockBegin
  2
*D24
 70
     1
 10
0.0
 20
0.0
 30
0.0
  3
*D24
  1
*D24
  0
LINE
  5
32B
330
328
100
AcDbEntity
  8
0
 62
     0
370
    -2
100
AcDbLine
 10
124.7491146132772
 20
571.5902861434395
 30
0.0
 11
287.7101698502894
 21
685.3434993258495
 31
0.0
  0
MTEXT
  5
32C
330
328
100
AcDbEntity
  8
0
 62
     0
370
    13
100
AcDbMText
 10
224.2967280018669
 20
662.420241360444
 30
0.0
 40
25.0
 41
0.0
 71
     5
 72
     1
  1
4-R60
  7
KANJI
 11
0.8199865458591764
 21
0.5723827955223119
 31
0.0
 73
     1
 44
1.0
  0
INSERT
  5
32D
330
328
100
AcDbEntity
  8
0
 62
     0
370
    -2
100
AcDbBlockReference
  2
_OPEN
 10
124.7491146132772
 20
571.5902861434395
 30
0.0
 41
25.0
 42
25.0
 43
25.0
 50
214.9165530357677
  0
POINT
  5
32E
330
328
100
AcDbEntity
  8
Defpoints
 62
     0
100
AcDbPoint
 10
124.7491146132772
 20
571.5902861434395
 30
0.0
  0
POINT
  5
32F
330
328
100
AcDbEntity
  8
Defpoints
 62
     0
100
AcDbPoint
 10
173.948307364842
 20
605.9332538747881
 30
0.0
  0
ENDBLK
  5
32A
330
328
100
AcDbEntity
  8
0
100
AcDbBlockEnd
  0
ENDSEC
  0
SECTION
  2
ENTITIES
  0
TEXT
  5
21A
330
1F
100
AcDbEntity
  8
C寸法
 62
     7
100
AcDbText
 10
1295.1236062765
 20
141.0826031716782
 30
0.0
 40
30.0
  1
品　番　：N950BIW 寸法図
  7
KANJI
100
AcDbText
  0
LINE
  5
21B
330
1F
100
AcDbEntity
  8
0
100
AcDbLine
 10
1290.57263383135
 20
129.2889710391914
 30
0.0
 11
1780.814331140583
 21
129.2889710391914
 31
0.0
  0
TEXT
  5
21C
330
1F
100
AcDbEntity
  8
C寸法
 62
     7
100
AcDbText
 10
1336.036544423215
 20
92.40444124616198
 30
0.0
 40
25.0
  1
※詳細はお問合せください
  7
KANJI
100
AcDbText
  0
LWPOLYLINE
  5
21D
330
1F
100
AcDbEntity
  8
0
100
AcDbPolyline
 90
        4
 70
     1
 43
0.0
 10
5.288162972269532
 20
1206.144871287193
 10
5.288162972269532
 20
4.596383379700228
 10
1805.343822214816
 20
4.596383379700228
 10
1805.343822214816
 20
1206.144871287193
  0
LINE
  5
21E
330
1F
100
AcDbEntity
  8
C4
 62
     0
100
AcDbLine
 10
136.2845494001679
 20
139.1907634322929
 30
0.0
 11
489.1345494002902
 21
129.9517634322879
 31
0.0
  0
LINE
  5
21F
330
1F
100
AcDbEntity
  8
C4
 62
     0
100
AcDbLine
 10
136.2185494001763
 20
136.6917634322931
 30
0.0
 11
489.0695494002733
 21
127.4527634322881
 31
0.0
  0
LINE
  5
220
330
1F
100
AcDbEntity
  8
C4
 62
     0
100
AcDbLine
 10
672.5695494003315
 20
120.3877634322855
 30
0.0
 11
661.5695494003315
 21
120.3877634322855
 31
0.0
  0
LINE
  5
221
330
1F
100
AcDbEntity
  8
C4
 62
     0
100
AcDbLine
 10
502.5695494002879
 20
122.8877634322855
 30
0.0
 11
491.5695494002733
 21
122.8877634322855
 31
0.0
  0
LINE
  5
222
330
1F
100
AcDbEntity
  8
C4
 62
     0
100
AcDbLine
 10
675.0695494003315
 20
122.8877634322855
 30
0.0
 11
675.0695494003315
 21
127.4527634322881
 31
0.0
  0
LINE
  5
223
330
1F
100
AcDbEntity
  8
C4
 62
     0
100
AcDbLine
 10
502.5695494002879
 20
122.8877634322855
 30
0.0
 11
502.5695494002879
 21
120.3877634322855
 31
0.0
  0
LINE
  5
224
330
1F
100
AcDbEntity
  8
C4
 62
     0
100
AcDbLine
 10
1059.56754940044
 20
169.1807634323018
 30
0.0
 11
1059.56754940044
 21
317.3877634323476
 31
0.0
  0
LINE
  5
225
330
1F
100
AcDbEntity
  8
C4
 62
     0
100
AcDbLine
 10
104.5695494001714
 20
169.1807634323018
 30
0.0
 11
104.5718171746715
 21
317.3877634323476
 31
0.0
  0
LINE
  5
226
330
1F
100
AcDbEntity
  8
C2
  6
CENTER
 62
     0
 48
20.0
370
    13
100
AcDbLine
 10
582.069549400317
 20
1045.30083350197
 30
0.0
 11
582.069549400317
 21
519.1877634323323
 31
0.0
  0
LINE
  5
227
330
1F
100
AcDbEntity
  8
C4
 62
     0
100
AcDbLine
 10
1027.857549400434
 20
139.1907634322929
 30
0.0
 11
675.0045494003438
 21
129.9517634322879
 31
0.0
  0
LINE
  5
228
330
1F
100
AcDbEntity
  8
C4
 62
     0
100
AcDbLine
 10
1027.917549400431
 20
136.6917634322931
 30
0.0
 11
675.0695494003315
 21
127.4527634322881
 31
0.0
  0
LINE
  5
229
330
1F
100
AcDbEntity
  8
C4
 62
     0
100
AcDbLine
 10
674.5031793799584
 20
129.8877634322932
 30
0.0
 11
489.6359194206501
 21
129.8877634322928
 31
0.0
  0
LINE
  5
22A
330
1F
100
AcDbEntity
  8
C4
 62
     0
100
AcDbLine
 10
661.5695494003315
 20
122.8877634322853
 30
0.0
 11
502.5695494002879
 21
122.8877634322855
 31
0.0
  0
LINE
  5
22B
330
1F
100
AcDbEntity
  8
C2
  6
CENTER
 62
     0
 48
20.0
370
    13
100
AcDbLine
 10
64.06463859196637
 20
829.1877634324196
 30
0.0
 11
1101.42160827149
 21
829.1877634324195
 31
0.0
  0
LINE
  5
22C
330
1F
100
AcDbEntity
  8
C4
 62
     0
100
AcDbLine
 10
491.5695494002733
 20
127.4527634322881
 30
0.0
 11
491.5695494002733
 21
122.8877634322855
 31
0.0
  0
LINE
  5
22D
330
1F
100
AcDbEntity
  8
C4
 62
     0
100
AcDbLine
 10
489.0695494002733
 20
122.8877634322855
 30
0.0
 11
489.0695494002733
 21
127.4527634322881
 31
0.0
  0
LINE
  5
22E
330
1F
100
AcDbEntity
  8
C4
 62
     0
100
AcDbLine
 10
491.5695494002733
 20
120.3877634322855
 30
0.0
 11
502.5695494002879
 21
120.3877634322855
 31
0.0
  0
LINE
  5
22F
330
1F
100
AcDbEntity
  8
C4
 62
     0
100
AcDbLine
 10
92.06954940017144
 20
319.8877634323476
 30
0.0
 11
1072.067549400455
 21
319.8877634323476
 31
0.0
  0
LINE
  5
230
330
1F
100
AcDbEntity
  8
C4
 62
     0
100
AcDbLine
 10
110.0716718117195
 20
304.8877634323439
 30
0.0
 11
1054.06754940044
 21
304.8877634323439
 31
0.0
  0
LINE
  5
231
330
1F
100
AcDbEntity
  8
C4
 62
     0
100
AcDbLine
 10
104.5718171746715
 20
317.3877634323476
 30
0.0
 11
92.06954940017144
 21
317.3877634323476
 31
0.0
  0
LINE
  5
232
330
1F
100
AcDbEntity
  8
C4
 62
     0
100
AcDbLine
 10
1057.06754940044
 20
317.3877634323476
 30
0.0
 11
1057.06754940044
 21
169.1797634322979
 31
0.0
  0
LINE
  5
233
330
1F
100
AcDbEntity
  8
C4
 62
     0
100
AcDbLine
 10
92.06954940017144
 20
319.8877634323476
 30
0.0
 11
92.06954940017144
 21
317.3877634323476
 31
0.0
  0
LINE
  5
234
330
1F
100
AcDbEntity
  8
C4
 62
     0
100
AcDbLine
 10
107.0695494001714
 20
169.1807634323018
 30
0.0
 11
107.0718171740603
 21
317.387725178844
 31
0.0
  0
LINE
  5
235
330
1F
100
AcDbEntity
  8
C4
 62
     0
100
AcDbLine
 10
672.5695494003315
 20
127.4527634322881
 30
0.0
 11
672.5695494003315
 21
122.8877634322855
 31
0.0
  0
LINE
  5
236
330
1F
100
AcDbEntity
  8
C4
 62
     0
100
AcDbLine
 10
661.5695494003315
 20
120.3877634322857
 30
0.0
 11
502.5695494002879
 21
120.3877634322855
 31
0.0
  0
LINE
  5
237
330
1F
100
AcDbEntity
  8
C4
 62
     0
100
AcDbLine
 10
661.5695494003315
 20
122.8877634322855
 30
0.0
 11
661.5695494003315
 21
120.3877634322855
 31
0.0
  0
LINE
  5
238
330
1F
100
AcDbEntity
  8
C4
 62
     0
100
AcDbLine
 10
661.5695494003315
 20
122.8877634322855
 30
0.0
 11
672.5695494003315
 21
122.8877634322855
 31
0.0
  0
LINE
  5
239
330
1F
100
AcDbEntity
  8
C4
 62
     0
100
AcDbLine
 10
1059.56754940044
 20
317.3877634323476
 30
0.0
 11
1072.067549400455
 21
317.3877634323476
 31
0.0
  0
LINE
  5
23A
330
1F
100
AcDbEntity
  8
C4
 62
     0
100
AcDbLine
 10
1072.067549400455
 20
319.8877634323476
 30
0.0
 11
1072.067549400455
 21
317.3877634323476
 31
0.0
  0
LINE
  5
23B
330
1F
100
AcDbEntity
  8
C4
 62
     0
100
AcDbLine
 10
997.0675494004257
 20
994.189763432471
 30
0.0
 11
167.0695494002005
 21
994.189763432471
 31
0.0
  0
LINE
  5
23C
330
1F
100
AcDbEntity
  8
C4
 62
     0
100
AcDbLine
 10
1057.06754940044
 20
614.1877634323578
 30
0.0
 11
1057.06754940044
 21
934.1897634324564
 31
0.0
  0
LINE
  5
23D
330
1F
100
AcDbEntity
  8
C4
 62
     0
100
AcDbLine
 10
997.0675494004257
 20
554.1877634323432
 30
0.0
 11
167.0695494002005
 21
554.1877634323432
 31
0.0
  0
LINE
  5
23E
330
1F
100
AcDbEntity
  8
C4
 62
     0
100
AcDbLine
 10
107.0695494001714
 20
934.1897634324564
 30
0.0
 11
107.0695494001714
 21
614.1877634323578
 31
0.0
  0
LINE
  5
23F
330
1F
100
AcDbEntity
  8
C4
 62
     0
100
AcDbLine
 10
997.0675494004257
 20
1009.189763432478
 30
0.0
 11
167.0675494001929
 21
1009.189763432478
 31
0.0
  0
LINE
  5
240
330
1F
100
AcDbEntity
  8
C4
 62
     0
100
AcDbLine
 10
1072.067549400455
 20
614.1877634323578
 30
0.0
 11
1072.067549400455
 21
934.1897634324564
 31
0.0
  0
LINE
  5
241
330
1F
100
AcDbEntity
  8
C4
 62
     0
100
AcDbLine
 10
997.0675494004257
 20
539.1877634323359
 30
0.0
 11
167.0675494001929
 21
539.1877634323359
 31
0.0
  0
LINE
  5
242
330
1F
100
AcDbEntity
  8
C4
 62
     0
100
AcDbLine
 10
92.06754940016376
 20
934.1897634324564
 30
0.0
 11
92.06754940016376
 21
614.1877634323578
 31
0.0
  0
ARC
  5
243
330
1F
100
AcDbEntity
  8
C4
 62
     0
100
AcDbCircle
 10
1027.06754940044
 20
169.1807634323018
 30
0.0
 40
32.50000000000937
100
AcDbArc
 50
271.5000619273047
 51
0.0
  0
ARC
  5
244
330
1F
100
AcDbEntity
  8
C4
 62
     0
100
AcDbCircle
 10
1027.06754940044
 20
169.1797634322979
 30
0.0
 40
30.00000000000865
100
AcDbArc
 50
271.5000619273047
 51
0.0
  0
CIRCLE
  5
245
330
1F
100
AcDbEntity
  8
C4
 62
     0
100
AcDbCircle
 10
582.069549400317
 20
829.1807634324255
 30
0.0
 40
90.5000000000261
  0
ARC
  5
246
330
1F
100
AcDbEntity
  8
C4
 62
     0
100
AcDbCircle
 10
675.0695494003315
 20
127.4527634322881
 30
0.0
 40
2.500000000000721
100
AcDbArc
 50
91.5002139667561
 51
179.9998479604956
  0
ARC
  5
247
330
1F
100
AcDbEntity
  8
C4
 62
     0
100
AcDbCircle
 10
582.0685494002986
 20
-7520.810236569984
 30
0.0
 40
8500.00000000245
100
AcDbArc
 50
87.45799672214777
 51
92.54185123845897
  0
ARC
  5
248
102
{ACAD_REACTORS
330
31C
102
}
330
1F
100
AcDbEntity
  8
C4
 62
     0
100
AcDbCircle
 10
209.5315494002001
 20
677.455763432376
 30
0.0
 40
100.0000000000288
100
AcDbArc
 50
182.9184949688817
 51
267.4578446827365
  0
ARC
  5
249
330
1F
100
AcDbEntity
  8
C4
 62
     0
100
AcDbCircle
 10
137.069549400186
 20
169.1807634323018
 30
0.0
 40
32.50000000000937
100
AcDbArc
 50
179.9992750027149
 51
268.500054911928
  0
ARC
  5
24A
330
1F
100
AcDbEntity
  8
C4
 62
     0
100
AcDbCircle
 10
137.069549400186
 20
169.1797634322979
 30
0.0
 40
30.00000000000865
100
AcDbArc
 50
179.9992750027149
 51
268.500054911928
  0
ARC
  5
24B
330
1F
100
AcDbEntity
  8
C4
 62
     0
100
AcDbCircle
 10
954.6075494004048
 20
677.4537634323792
 30
0.0
 40
100.0000000000288
100
AcDbArc
 50
272.5418807858795
 51
357.0816625969387
  0
ARC
  5
24C
330
1F
100
AcDbEntity
  8
C4
 62
     0
100
AcDbCircle
 10
491.5695494002733
 20
122.8877634322855
 30
0.0
 40
2.500000000000721
100
AcDbArc
 50
180.0004209182762
 51
270.0000584197119
  0
ARC
  5
24D
330
1F
100
AcDbEntity
  8
C4
 62
     0
100
AcDbCircle
 10
2107.067549400746
 20
774.1877634324051
 30
0.0
 40
2000.000000000577
100
AcDbArc
 50
177.1293294068925
 51
182.9184949688817
  0
CIRCLE
  5
24E
330
1F
100
AcDbEntity
  8
C4
 62
     0
100
AcDbCircle
 10
582.069549400317
 20
829.1807634324255
 30
0.0
 40
79.50000000002292
  0
ARC
  5
24F
330
1F
100
AcDbEntity
  8
C4
 62
     0
100
AcDbCircle
 10
582.0705494003063
 20
9069.189763434792
 30
0.0
 40
8500.00000000245
100
AcDbArc
 50
267.4578446827365
 51
272.5418807858796
  0
ARC
  5
250
330
1F
100
AcDbEntity
  8
C4
 62
     0
100
AcDbCircle
 10
209.5335494002078
 20
870.9197634324341
 30
0.0
 40
100.0000000000288
100
AcDbArc
 50
92.54185123845897
 51
177.0817739098744
  0
ARC
  5
251
330
1F
100
AcDbEntity
  8
C4
 62
     0
100
AcDbCircle
 10
954.6075494004048
 20
870.9197634324341
 30
0.0
 40
100.0000000000288
100
AcDbArc
 50
2.918277170017826
 51
87.45799672214783
  0
ARC
  5
252
330
1F
100
AcDbEntity
  8
C4
 62
     0
100
AcDbCircle
 10
672.5695494003315
 20
122.8877634322855
 30
0.0
 40
2.500000000000721
100
AcDbArc
 50
270.0000584197119
 51
0.0
  0
ARC
  5
253
330
1F
100
AcDbEntity
  8
C4
 62
     0
100
AcDbCircle
 10
-942.9304506001196
 20
774.1877634324051
 30
0.0
 40
2000.000000000577
100
AcDbArc
 50
357.0816625969388
 51
2.918277170017793
  0
ARC
  5
254
330
1F
100
AcDbEntity
  8
C4
 62
     0
100
AcDbCircle
 10
489.0695494002733
 20
127.4527634322881
 30
0.0
 40
2.500000000000721
100
AcDbArc
 50
0.0
 51
88.50020695157008
  0
ARC
  5
255
330
1F
100
AcDbEntity
  8
C4
 62
     0
100
AcDbCircle
 10
167.0695494002005
 20
614.1877634323578
 30
0.0
 40
60.00000000001729
100
AcDbArc
 50
180.0
 51
270.0
  0
ARC
  5
256
330
1F
100
AcDbEntity
  8
C4
 62
     0
100
AcDbCircle
 10
167.0675494001929
 20
614.1877634323578
 30
0.0
 40
75.00000000002163
100
AcDbArc
 50
180.0
 51
270.0
  0
ARC
  5
257
330
1F
100
AcDbEntity
  8
C4
 62
     0
100
AcDbCircle
 10
167.0695494002005
 20
934.1897634324564
 30
0.0
 40
60.00000000001729
100
AcDbArc
 50
90.0
 51
180.0
  0
ARC
  5
258
330
1F
100
AcDbEntity
  8
C4
 62
     0
100
AcDbCircle
 10
167.0675494001929
 20
934.1897634324564
 30
0.0
 40
75.00000000002163
100
AcDbArc
 50
90.0
 51
180.0
  0
ARC
  5
259
330
1F
100
AcDbEntity
  8
C4
 62
     0
100
AcDbCircle
 10
997.0675494004257
 20
934.1897634324564
 30
0.0
 40
60.00000000001729
100
AcDbArc
 50
0.0
 51
90.0
  0
ARC
  5
25A
330
1F
100
AcDbEntity
  8
C4
 62
     0
100
AcDbCircle
 10
997.0675494004257
 20
934.1897634324564
 30
0.0
 40
75.00000000002163
100
AcDbArc
 50
0.0
 51
90.0
  0
ARC
  5
25B
330
1F
100
AcDbEntity
  8
C4
 62
     0
100
AcDbCircle
 10
997.0675494004257
 20
614.1877634323578
 30
0.0
 40
60.00000000001729
100
AcDbArc
 50
270.0
 51
0.0
  0
ARC
  5
25C
330
1F
100
AcDbEntity
  8
C4
 62
     0
100
AcDbCircle
 10
997.0675494004257
 20
614.1877634323578
 30
0.0
 40
75.00000000002163
100
AcDbArc
 50
270.0
 51
0.0
  0
ARC
  5
25D
330
1F
100
AcDbEntity
  8
C4
 62
     0
100
AcDbCircle
 10
1059.56754940044
 20
317.3877634323476
 30
0.0
 40
2.500000000000721
100
AcDbArc
 50
90.0
 51
180.0
  0
ARC
  5
25E
330
1F
100
AcDbEntity
  8
C4
 62
     0
100
AcDbCircle
 10
104.5718171743514
 20
317.3877634323476
 30
0.0
 40
2.500000000000721
100
AcDbArc
 50
359.9991232943708
 51
90.0
  0
ARC
  5
25F
330
1F
100
AcDbEntity
  8
C4
 62
     0
100
AcDbCircle
 10
110.0716718117195
 20
307.8877634323403
 30
0.0
 40
3.000000000000866
100
AcDbArc
 50
179.999123294423
 51
270.0
  0
ARC
  5
260
330
1F
100
AcDbEntity
  8
C4
 62
     0
100
AcDbCircle
 10
1054.06754940044
 20
307.8877634323403
 30
0.0
 40
3.000000000000866
100
AcDbArc
 50
270.0
 51
0.0
  0
ARC
  5
261
330
1F
100
AcDbEntity
  8
C4
 62
     0
100
AcDbCircle
 10
1458.567359929767
 20
557.1940580698833
 30
0.0
 40
3.999936843102311
100
AcDbArc
 50
270.0000584197126
 51
0.0
  0
LINE
  5
262
330
1F
100
AcDbEntity
  8
C4
 62
     0
100
AcDbLine
 10
1447.567533611234
 20
995.188142381236
 30
0.0
 11
1447.567533611234
 21
1009.186921340448
 31
0.0
  0
LINE
  5
263
330
1F
100
AcDbEntity
  8
C4
 62
     0
100
AcDbLine
 10
1447.567533611234
 20
995.188142381236
 30
0.0
 11
1458.568414453607
 21
995.185142413728
 31
0.0
  0
LINE
  5
264
330
1F
100
AcDbEntity
  8
C4
 62
     0
100
AcDbLine
 10
1462.567296772862
 20
991.1852055780641
 30
0.0
 11
1462.567296772862
 21
984.1853161026343
 31
0.0
  0
LINE
  5
265
330
1F
100
AcDbEntity
  8
C4
 62
     0
100
AcDbLine
 10
1461.56731256209
 20
991.1852055780641
 30
0.0
 11
1461.56731256209
 21
984.1853161026343
 31
0.0
  0
LINE
  5
266
330
1F
100
AcDbEntity
  8
C4
 62
     0
100
AcDbLine
 10
1446.567549400455
 20
1009.186921340448
 30
0.0
 11
1447.367536769082
 21
1009.186921340448
 31
0.0
  0
LINE
  5
267
330
1F
100
AcDbEntity
  8
C4
 62
     0
100
AcDbLine
 10
1447.567533611234
 20
994.188158163021
 30
0.0
 11
1458.567359929767
 21
994.1851582103886
 31
0.0
  0
LINE
  5
268
330
1F
100
AcDbEntity
  8
C4
 62
     0
100
AcDbLine
 10
1447.567533611234
 20
553.1911212741493
 30
0.0
 11
1447.567533611234
 21
539.1923423075045
 31
0.0
  0
LINE
  5
269
330
1F
100
AcDbEntity
  8
C4
 62
     0
100
AcDbLine
 10
1447.567588150859
 20
553.1911212815853
 30
0.0
 11
1458.568414453607
 21
553.1941212342176
 31
0.0
  0
LINE
  5
26A
330
1F
100
AcDbEntity
  8
C4
 62
     0
100
AcDbLine
 10
1462.567296772862
 20
557.1940580698833
 30
0.0
 11
1462.567296772862
 21
564.1939475453114
 31
0.0
  0
LINE
  5
26B
330
1F
100
AcDbEntity
  8
C4
 62
     0
100
AcDbLine
 10
1466.567233615971
 20
568.193884388415
 30
0.0
 11
1602.898081023626
 21
568.193884388415
 31
0.0
  0
LINE
  5
26C
330
1F
100
AcDbEntity
  8
C4
 62
     0
100
AcDbLine
 10
1466.567233615971
 20
569.1938685991904
 30
0.0
 11
1602.898081023626
 21
569.1938685991904
 31
0.0
  0
LINE
  5
26D
330
1F
100
AcDbEntity
  8
C4
 62
     0
100
AcDbLine
 10
1461.56731256209
 20
557.1940580698833
 30
0.0
 11
1461.56731256209
 21
564.1939475453114
 31
0.0
  0
LINE
  5
26E
330
1F
100
AcDbEntity
  8
C4
 62
     0
100
AcDbLine
 10
1643.36744203372
 20
920.6863187183867
 30
0.0
 11
1638.997511032628
 21
920.6863187183867
 31
0.0
  0
LINE
  5
26F
330
1F
100
AcDbEntity
  8
C4
 62
     0
100
AcDbLine
 10
1644.567423086658
 20
919.4863376654562
 30
0.0
 11
1644.567423086658
 21
908.1865160836937
 31
0.0
  0
LINE
  5
270
330
1F
100
AcDbEntity
  8
C4
 62
     0
100
AcDbLine
 10
1643.567438875872
 20
908.1865160836937
 30
0.0
 11
1644.567423086658
 21
908.1865160836937
 31
0.0
  0
LINE
  5
271
330
1F
100
AcDbEntity
  8
C4
 62
     0
100
AcDbLine
 10
1643.567438875872
 20
919.4863376654562
 30
0.0
 11
1643.567438875872
 21
908.1865160836937
 31
0.0
  0
LINE
  5
272
330
1F
100
AcDbEntity
  8
C4
 62
     0
100
AcDbLine
 10
1635.767562031827
 20
949.9718563151587
 30
0.0
 11
1636.510070312049
 21
921.6436397228686
 31
0.0
  0
LINE
  5
273
330
1F
100
AcDbEntity
  8
C4
 62
     0
100
AcDbLine
 10
1636.767477582828
 20
949.9970961104286
 30
0.0
 11
1637.497466056689
 21
922.145535871909
 31
0.0
  0
LINE
  5
274
330
1F
100
AcDbEntity
  8
C4
 62
     0
100
AcDbLine
 10
1643.36744203372
 20
919.6863345076094
 30
0.0
 11
1638.519350504678
 21
919.6863345076094
 31
0.0
  0
ARC
  5
275
330
1F
100
AcDbEntity
  8
C4
 62
     0
100
AcDbCircle
 10
1638.519350504678
 20
921.6963047812392
 30
0.0
 40
2.009970273629187
100
AcDbArc
 50
181.5014306377953
 51
270.0
  0
LINE
  5
276
330
1F
100
AcDbEntity
  8
C4
 62
     0
100
AcDbLine
 10
1446.567549400455
 20
539.1923423075045
 30
0.0
 11
1447.567533611234
 21
539.1923423075045
 31
0.0
  0
LINE
  5
277
330
1F
100
AcDbEntity
  8
C4
 62
     0
100
AcDbLine
 10
1605.77803555067
 20
979.1853950487553
 30
0.0
 11
1466.567233615971
 21
979.1853950487553
 31
0.0
  0
LINE
  5
278
330
1F
100
AcDbEntity
  8
C4
 62
     0
100
AcDbLine
 10
1446.567549400455
 20
539.1923423075045
 30
0.0
 11
1446.567549400455
 21
1009.186921340448
 31
0.0
  0
LINE
  5
279
330
1F
100
AcDbEntity
  8
C4
 62
     0
100
AcDbLine
 10
1605.77803555067
 20
980.1853792595325
 30
0.0
 11
1466.567233615971
 21
980.1853792595325
 31
0.0
  0
LINE
  5
27A
330
1F
100
AcDbEntity
  8
C4
 62
     0
100
AcDbLine
 10
1447.567533611234
 20
554.1911054849247
 30
0.0
 11
1458.567359929767
 21
554.194105437557
 31
0.0
  0
LINE
  5
27B
330
1F
100
AcDbEntity
  8
C4
 62
     0
100
AcDbLine
 10
1633.88752316939
 20
598.3781719364674
 30
0.0
 11
1637.497466170288
 21
736.2239954234597
 31
0.0
  0
LINE
  5
27C
330
1F
100
AcDbEntity
  8
C4
 62
     0
100
AcDbLine
 10
1643.36744203372
 20
737.6892081464525
 30
0.0
 11
1638.997511032628
 21
737.6892081464525
 31
0.0
  0
LINE
  5
27D
330
1F
100
AcDbEntity
  8
C4
 62
     0
100
AcDbLine
 10
1643.567438875872
 20
750.1890107811473
 30
0.0
 11
1644.567423086658
 21
750.1890107811473
 31
0.0
  0
LINE
  5
27E
330
1F
100
AcDbEntity
  8
C4
 62
     0
100
AcDbLine
 10
1643.567438875872
 20
738.8891891993849
 30
0.0
 11
1643.567438875872
 21
750.1890107811473
 31
0.0
  0
LINE
  5
27F
330
1F
100
AcDbEntity
  8
C4
 62
     0
100
AcDbLine
 10
1636.567549400455
 20
921.216249627719
 30
0.0
 11
1636.567549400455
 21
736.7766746806378
 31
0.0
  0
LINE
  5
280
330
1F
100
AcDbEntity
  8
C4
 62
     0
100
AcDbLine
 10
1643.567438875872
 20
908.1865160836937
 30
0.0
 11
1643.567438875868
 21
750.1890107811473
 31
0.0
  0
LINE
  5
281
330
1F
100
AcDbEntity
  8
C4
 62
     0
100
AcDbLine
 10
1632.887607504797
 20
598.407407332787
 30
0.0
 11
1636.497550505695
 21
736.255230788202
 31
0.0
  0
LINE
  5
282
330
1F
100
AcDbEntity
  8
C4
 62
     0
100
AcDbLine
 10
1644.567423086658
 20
908.1865160836937
 30
0.0
 11
1644.567423086658
 21
750.1890107811473
 31
0.0
  0
LINE
  5
283
330
1F
100
AcDbEntity
  8
C4
 62
     0
100
AcDbLine
 10
1644.567423086658
 20
738.8891891993849
 30
0.0
 11
1644.567423086658
 21
750.1890107811473
 31
0.0
  0
LINE
  5
284
330
1F
100
AcDbEntity
  8
C4
 62
     0
100
AcDbLine
 10
1643.36744203372
 20
738.6891923572298
 30
0.0
 11
1638.997511032628
 21
738.6891923572298
 31
0.0
  0
ARC
  5
285
330
1F
100
AcDbEntity
  8
C4
 62
     0
100
AcDbCircle
 10
1458.567359929767
 20
991.1852055780641
 30
0.0
 40
2.999952632326735
100
AcDbArc
 50
0.0
 51
90.0002104589567
  0
ARC
  5
286
330
1F
100
AcDbEntity
  8
C4
 62
     0
100
AcDbCircle
 10
1466.567233615971
 20
984.1853161026343
 30
0.0
 40
4.999921053877891
100
AcDbArc
 50
179.9998479604947
 51
270.0000584197119
  0
ARC
  5
287
330
1F
100
AcDbEntity
  8
C4
 62
     0
100
AcDbCircle
 10
1466.567233615971
 20
984.1853161026343
 30
0.0
 40
3.999936843102311
100
AcDbArc
 50
179.9998479604953
 51
270.0000584197126
  0
ARC
  5
288
330
1F
100
AcDbEntity
  8
C4
 62
     0
100
AcDbCircle
 10
1447.567533611234
 20
995.1881423737982
 30
0.0
 40
0.9999842107755791
100
AcDbArc
 50
179.9998479604921
 51
269.9857344748444
  0
ARC
  5
289
330
1F
100
AcDbEntity
  8
C4
 62
     0
100
AcDbCircle
 10
1458.567359929767
 20
991.1852055780641
 30
0.0
 40
3.999936843102311
100
AcDbArc
 50
0.0
 51
90.0002104589567
  0
ARC
  5
28A
330
1F
100
AcDbEntity
  8
C4
 62
     0
100
AcDbCircle
 10
1605.77803555067
 20
949.1858687254867
 30
0.0
 40
30.99951053404292
100
AcDbArc
 50
1.50030144569589
 51
90.00021045895586
  0
ARC
  5
28B
330
1F
100
AcDbEntity
  8
C4
 62
     0
100
AcDbCircle
 10
1605.77803555067
 20
949.1858687254867
 30
0.0
 40
29.99952632326736
100
AcDbArc
 50
1.500301445695773
 51
90.00021045895582
  0
ARC
  5
28C
330
1F
100
AcDbEntity
  8
C4
 62
     0
100
AcDbCircle
 10
1638.997511032628
 20
736.1892318302894
 30
0.0
 40
1.499976316163367
100
AcDbArc
 50
90.00021045895235
 51
178.4998444528641
  0
ARC
  5
28D
330
1F
100
AcDbEntity
  8
C4
 62
     0
100
AcDbCircle
 10
1458.567359929767
 20
557.1940580698833
 30
0.0
 40
2.999952632326735
100
AcDbArc
 50
270.0000584197136
 51
0.0
  0
ARC
  5
28E
330
1F
100
AcDbEntity
  8
C4
 62
     0
100
AcDbCircle
 10
1466.567233615971
 20
564.1939475453114
 30
0.0
 40
4.999921053877891
100
AcDbArc
 50
90.0002104589567
 51
179.999847960496
  0
ARC
  5
28F
330
1F
100
AcDbEntity
  8
C4
 62
     0
100
AcDbCircle
 10
1643.36744203372
 20
738.8891891993849
 30
0.0
 40
0.1999968421551158
100
AcDbArc
 50
270.0000584197223
 51
0.0
  0
ARC
  5
290
330
1F
100
AcDbEntity
  8
C4
 62
     0
100
AcDbCircle
 10
1602.898081023626
 20
599.193394922459
 30
0.0
 40
30.99951053404292
100
AcDbArc
 50
270.0000584197118
 51
358.4996924133526
  0
ARC
  5
291
330
1F
100
AcDbEntity
  8
C4
 62
     0
100
AcDbCircle
 10
1602.898081023626
 20
599.193394922459
 30
0.0
 40
29.99952632326736
100
AcDbArc
 50
270.0000584197119
 51
358.4996924133526
  0
ARC
  5
292
330
1F
100
AcDbEntity
  8
C4
 62
     0
100
AcDbCircle
 10
1638.997511032628
 20
922.1862950345499
 30
0.0
 40
1.499976316163367
100
AcDbArc
 50
181.5004244259477
 51
270.0000584197136
  0
ARC
  5
293
330
1F
100
AcDbEntity
  8
C4
 62
     0
100
AcDbCircle
 10
1643.36744203372
 20
738.8891891993849
 30
0.0
 40
1.199981052930694
100
AcDbArc
 50
270.0000584197115
 51
0.0
  0
ARC
  5
294
330
1F
100
AcDbEntity
  8
C4
 62
     0
100
AcDbCircle
 10
1638.997511032628
 20
736.1892318302894
 30
0.0
 40
2.499960526938946
100
AcDbArc
 50
90.0002104589541
 51
178.4998444528622
  0
ARC
  5
295
330
1F
100
AcDbEntity
  8
C4
 62
     0
100
AcDbCircle
 10
1643.36744203372
 20
919.4863376654562
 30
0.0
 40
1.199981052930694
100
AcDbArc
 50
0.0
 51
90.00021045895235
  0
ARC
  5
296
330
1F
100
AcDbEntity
  8
C4
 62
     0
100
AcDbCircle
 10
1643.36744203372
 20
919.4863376654562
 30
0.0
 40
0.1999968421551158
100
AcDbArc
 50
0.0
 51
90.00021045893064
  0
ARC
  5
297
330
1F
100
AcDbEntity
  8
C4
 62
     0
100
AcDbCircle
 10
1466.567233615971
 20
564.1939475453114
 30
0.0
 40
3.999936843102311
100
AcDbArc
 50
90.0002104589567
 51
179.9998479604953
  0
ARC
  5
298
330
1F
100
AcDbEntity
  8
C4
 62
     0
100
AcDbCircle
 10
1447.567533611234
 20
553.1911212741493
 30
0.0
 40
0.9999842107755791
100
AcDbArc
 50
90.01396144624775
 51
179.9998479604986
  0
DIMENSION
  5
299
330
1F
100
AcDbEntity
  8
C寸法
 62
     0
370
    13
100
AcDbDimension
  2
*D14
 10
1057.06754940044
 20
404.1877634323548
 30
0.0
 11
582.0685494003058
 21
421.6877634323548
 31
0.0
 70
    32
 71
     5
 42
949.9980000002687
  3
実寸
100
AcDbAlignedDimension
 13
107.0695494001714
 23
771.3593370132894
 33
0.0
 14
1057.06754940044
 24
771.3593370029996
 34
0.0
100
AcDbRotatedDimension
1001
ACAD
1000
DSTYLE
1002
{
1070
   340
1005
F4
1070
   144
1040
1.0
1002
}
  0
DIMENSION
  5
29A
330
1F
100
AcDbEntity
  8
C寸法
 62
     0
370
    13
100
AcDbDimension
  2
*D15
 10
1237.069549400171
 20
979.1897634324707
 30
0.0
 11
1219.569549400171
 21
774.1897634324708
 31
0.0
 70
    32
 71
     5
 42
409.9999999999998
  3
実寸
100
AcDbAlignedDimension
 13
1087.069549400171
 23
569.189763432471
 33
0.0
 14
1087.069549400171
 24
979.1897634324707
 34
0.0
 50
90.0
100
AcDbRotatedDimension
1001
ACAD
1000
DSTYLE
1002
{
1070
   340
1005
F4
1070
   144
1040
1.0
1002
}
  0
DIMENSION
  5
29B
330
1F
100
AcDbEntity
  8
C寸法
 62
     0
370
    13
100
AcDbDimension
  2
*D16
 10
1287.069549400171
 20
994.189763432471
 30
0.0
 11
1269.569549400171
 21
774.1887634324071
 31
0.0
 70
    32
 71
     5
 42
440.0020000001277
  3
実寸
100
AcDbAlignedDimension
 13
1087.069549400171
 23
554.1877634323432
 33
0.0
 14
1087.069549400171
 24
994.189763432471
 34
0.0
 50
90.0
100
AcDbRotatedDimension
1001
ACAD
1000
DSTYLE
1002
{
1070
   340
1005
F4
1070
   144
1040
1.0
1002
}
  0
DIMENSION
  5
29C
330
1F
100
AcDbEntity
  8
C寸法
 62
     0
370
    13
100
AcDbDimension
  2
*D17
 10
1187.069549400171
 20
979.1897634249838
 30
0.0
 11
1169.569549400171
 21
904.1887634287016
 31
0.0
 70
    32
 71
     5
 42
150.0019999925642
  3
実寸
100
AcDbAlignedDimension
 13
1086.845163732667
 23
829.1877634324195
 33
0.0
 14
582.0798271493198
 24
979.1897634249838
 34
0.0
 50
90.0
100
AcDbRotatedDimension
1001
ACAD
1000
DSTYLE
1002
{
1070
   340
1005
F4
1070
   144
1040
1.0
1002
}
  0
DIMENSION
  5
29D
330
1F
100
AcDbEntity
  8
C寸法
 62
     0
370
    13
100
AcDbDimension
  2
*D18
 10
1237.069549400171
 20
554.1877634323432
 30
0.0
 11
1237.069549400171
 21
480.6423765275813
 31
0.0
 70
   160
 71
     5
 42
15.00200002439192
  3
実寸
100
AcDbAlignedDimension
 13
582.0501856249721
 23
569.1897634567351
 33
0.0
 14
582.069549400317
 24
554.1877634323432
 34
0.0
 50
90.0
100
AcDbRotatedDimension
1001
ACAD
1000
DSTYLE
1002
{
1070
   340
1005
F4
1070
   172
1070
     1
1070
   144
1040
1.0
1002
}
  0
DIMENSION
  5
29E
330
1F
100
AcDbEntity
  8
C寸法
 62
     0
370
    13
100
AcDbDimension
  2
*D19
 10
1237.069549400171
 20
994.189763432471
 30
0.0
 11
1237.069549400171
 21
1067.735150337233
 31
0.0
 70
   160
 71
     5
 42
15.0000000000002
  3
実寸
100
AcDbAlignedDimension
 13
1087.069549400171
 23
979.1897634324707
 33
0.0
 14
582.069549400317
 24
994.189763432471
 34
0.0
 50
90.0
100
AcDbRotatedDimension
1001
ACAD
1000
DSTYLE
1002
{
1070
   340
1005
F4
1070
   172
1070
     1
1070
   144
1040
1.0
1002
}
  0
DIMENSION
  5
29F
330
1F
100
AcDbEntity
  8
C寸法
 62
     0
370
    13
100
AcDbDimension
  2
*D20
 10
1237.069549400171
 20
129.8877634323473
 30
0.0
 11
1219.569549400171
 21
224.8877634323475
 31
0.0
 70
    32
 71
     5
 42
190.0000000000003
  3
実寸
100
AcDbAlignedDimension
 13
1087.069549400171
 23
319.8877634323476
 33
0.0
 14
672.5695494003315
 24
129.8877634323474
 34
0.0
 50
90.0
100
AcDbRotatedDimension
1001
ACAD
1000
DSTYLE
1002
{
1070
   340
1005
F4
1070
   144
1040
1.0
1002
}
  0
LINE
  5
2A0
330
1F
100
AcDbEntity
  8
1TEXT
 62
     1
100
AcDbLine
 10
1027.918335335589
 20
136.691901290128
 30
0.0
 11
1027.918335335574
 21
136.869245998317
 31
0.0
  0
DIMENSION
  5
2A1
330
1F
100
AcDbEntity
  8
C寸法
 62
     0
370
    13
100
AcDbDimension
  2
*D21
 10
1187.069549400171
 20
304.8877634323395
 30
0.0
 11
1169.569549400171
 21
231.3423765275775
 31
0.0
 70
    32
 71
     5
 42
15.00000000000813
  3
実寸
100
AcDbAlignedDimension
 13
1072.067549400455
 23
319.8877634323476
 33
0.0
 14
1054.06754940044
 24
304.8877634323395
 34
0.0
 50
90.0
100
AcDbRotatedDimension
1001
ACAD
1000
DSTYLE
1002
{
1070
   340
1005
F4
1070
   172
1070
     1
1070
   144
1040
1.0
1002
}
  0
LINE
  5
2A2
330
1F
100
AcDbEntity
  8
C4
 62
     0
100
AcDbLine
 10
1461.56731256209
 20
984.1853161026343
 30
0.0
 11
1461.567312562094
 21
876.0109160095328
 31
0.0
  0
LINE
  5
2A3
330
1F
100
AcDbEntity
  8
C4
 62
     0
100
AcDbLine
 10
1461.567312562104
 20
672.3625058651223
 30
0.0
 11
1461.567312562112
 21
564.1939608130517
 31
0.0
  0
DIMENSION
  5
2A4
330
1F
100
AcDbEntity
  8
C寸法
 62
     0
370
    13
100
AcDbDimension
  2
*D22
 10
491.759217629535
 20
669.2094022092651
 30
0.0
 11
596.2458066248257
 21
669.2094022092651
 31
0.0
 70
   160
  1
Φ<>
 71
     5
 42
180.8103317708081
 52
-270.0
  3
実寸
100
AcDbAlignedDimension
 13
672.5695494003431
 23
829.1807634324255
 33
0.0
 14
491.759217629535
 24
828.9349361465563
 34
0.0
 50
180.0
100
AcDbRotatedDimension
1001
ACAD
1000
DSTYLE
1002
{
1070
   271
1070
     0
1070
   340
1005
F4
1070
   144
1040
1.0
1002
}
  0
DIMENSION
  5
31A
102
{ACAD_REACTORS
330
31C
102
}
102
{ACAD_XDICTIONARY
360
31B
102
}
330
1F
100
AcDbEntity
  8
0
370
    13
100
AcDbDimension
  2
*D23
 10
209.5315494002001
 20
677.455763432376
 30
0.0
 11
202.4991713370406
 21
673.0059744297339
 31
0.0
 70
   164
  1
4-R100
 71
     5
 42
100.0000000000288
  3
JIS-1
100
AcDbRadialDimension
 15
125.0276482999256
 25
623.9852977635528
 35
0.0
 40
0.0
1001
ACAD_DSTYLE_DIMRADIAL_EXTENSION
1070
   387
1070
     0
1070
   388
1040
3.192529999999668
1070
   390
1040
4.668020000001361
1001
ACAD
1000
DSTYLE
1002
{
1070
   140
1040
25.0
1070
   340
1005
F4
1070
   147
1040
5.0
1070
    41
1040
25.0
1070
   344
1005
90
1070
   173
1070
     1
1002
}
  0
DIMENSION
  5
325
102
{ACAD_XDICTIONARY
360
326
102
}
330
1F
100
AcDbEntity
  8
0
370
    13
100
AcDbDimension
  2
*D24
 10
173.948307364842
 20
605.9332538747881
 30
0.0
 11
234.3134269235074
 21
648.0704768079084
 31
0.0
 70
   164
  1
4-<>
 71
     5
 42
60.00000000001729
  3
JIS-1
100
AcDbRadialDimension
 15
223.1475001164068
 25
640.2762216061367
 35
0.0
 40
0.0
1001
ACAD_DSTYLE_DIMRADIAL_EXTENSION
1070
   387
1070
     0
1070
   388
1040
3.141592653589793
1070
   390
1040
4.71238898038469
1001
ACAD
1000
DSTYLE
1002
{
1070
   140
1040
25.0
1070
   147
1040
5.0
1070
   340
1005
F4
1070
    41
1040
25.0
1070
   344
1005
90
1070
   173
1070
     1
1002
}
  0
ENDSEC
  0
SECTION
  2
OBJECTS
  0
DICTIONARY
  5
C
330
0
100
AcDbDictionary
281
     1
  3
ACAD_COLOR
350
F6
  3
ACAD_DETAILVIEWSTYLE
350
DA
  3
ACAD_GROUP
350
D
  3
ACAD_IMAGE_VARS
350
6A
  3
ACAD_LAYOUT
350
1A
  3
ACAD_MATERIAL
350
97
  3
ACAD_MLEADERSTYLE
350
3F
  3
ACAD_MLINESTYLE
350
17
  3
ACAD_PLOTSETTINGS
350
19
  3
ACAD_PLOTSTYLENAME
350
E
  3
ACAD_SCALELIST
350
40
  3
ACAD_SECTIONVIEWSTYLE
350
DB
  3
ACAD_TABLESTYLE
350
3B
  3
ACDB_RECOMPOSE_DATA
350
337
  3
AcDbVariableDictionary
350
3D
  3
APPDATA
350
96
  0
DICTIONARY
  5
215
330
2
100
AcDbDictionary
280
     1
281
     1
  3
ACAD_LAYERSTATES
360
216
  0
DICTIONARY
  5
31B
330
31A
100
AcDbDictionary
280
     1
281
     1
  3
ACAD_DIMASSOC
360
31C
  0
DICTIONARY
  5
326
330
325
100
AcDbDictionary
280
     1
281
     1
  0
DICTIONARY
  5
F6
102
{ACAD_REACTORS
330
C
102
}
330
C
100
AcDbDictionary
281
     1
  0
DICTIONARY
  5
DA
102
{ACAD_REACTORS
330
C
102
}
330
C
100
AcDbDictionary
281
     1
  0
DICTIONARY
  5
D
102
{ACAD_REACTORS
330
C
102
}
330
C
100
AcDbDictionary
281
     1
  0
RASTERVARIABLES
  5
6A
102
{ACAD_REACTORS
330
C
102
}
330
C
100
AcDbRasterVariables
 90
        0
 70
     1
 71
     1
 72
     1
  0
DICTIONARY
  5
1A
102
{ACAD_REACTORS
330
C
102
}
330
C
100
AcDbDictionary
281
     1
  3
Model
350
22
  3
Sheet1
350
1E
  3
Sheet2
350
26
  0
DICTIONARY
  5
97
102
{ACAD_REACTORS
330
C
102
}
330
C
100
AcDbDictionary
281
     1
  3
ByBlock
350
99
  3
ByLayer
350
98
  3
Global
350
9A
  0
DICTIONARY
  5
3F
102
{ACAD_REACTORS
330
C
102
}
330
C
100
AcDbDictionary
281
     1
  3
Standard
350
DC
  0
DICTIONARY
  5
17
102
{ACAD_REACTORS
330
C
102
}
330
C
100
AcDbDictionary
281
     1
  3
Standard
350
18
  0
DICTIONARY
  5
19
102
{ACAD_REACTORS
330
C
102
}
330
C
100
AcDbDictionary
281
     1
  0
ACDBDICTIONARYWDFLT
  5
E
102
{ACAD_REACTORS
330
C
102
}
330
C
100
AcDbDictionary
281
     1
  3
Normal
350
F
100
AcDbDictionaryWithDefault
340
F
  0
DICTIONARY
  5
40
102
{ACAD_REACTORS
330
C
102
}
330
C
100
AcDbDictionary
281
     1
  3
A0
350
41
  3
A1
350
42
  3
A2
350
43
  3
A3
350
44
  3
A4
350
45
  3
A5
350
46
  3
A6
350
47
  3
A7
350
48
  3
A8
350
49
  3
A9
350
4A
  3
B0
350
4B
  3
B1
350
4C
  3
B2
350
4D
  3
B3
350
4E
  3
B4
350
4F
  3
B5
350
50
  3
B6
350
51
  3
B7
350
52
  3
B8
350
53
  3
B9
350
54
  3
C0
350
55
  3
C1
350
56
  3
C2
350
57
  3
C3
350
58
  3
C4
350
59
  3
C5
350
5A
  3
C6
350
5B
  3
C7
350
5C
  3
C8
350
5D
  3
C9
350
5E
  3
D0
350
5F
  3
D1
350
60
  3
D2
350
61
  0
DICTIONARY
  5
DB
102
{ACAD_REACTORS
330
C
102
}
330
C
100
AcDbDictionary
281
     1
  0
DICTIONARY
  5
3B
102
{ACAD_REACTORS
330
C
102
}
330
C
100
AcDbDictionary
281
     1
  3
Standard
350
3C
  0
XRECORD
  5
337
102
{ACAD_REACTORS
330
C
102
}
330
C
100
AcDbXrecord
280
     1
 90
        1
330
3C
  0
DICTIONARY
  5
3D
102
{ACAD_REACTORS
330
C
102
}
330
C
100
AcDbDictionary
281
     1
  3
CANNOSCALE
350
62
  3
CMLEADERSTYLE
350
332
  3
CTABLESTYLE
350
3E
  3
LIGHTSINBLOCKS
350
6F
  3
XCLIPFRAME
350
70
  0
DICTIONARY
  5
96
102
{ACAD_REACTORS
330
C
102
}
330
C
100
AcDbDictionary
281
     1
  0
DICTIONARY
  5
216
102
{ACAD_REACTORS
330
215
102
}
330
215
100
AcDbDictionary
281
     1
  0
DIMASSOC
  5
31C
102
{ACAD_REACTORS
330
31B
102
}
330
31B
100
AcDbDimAssoc
330
31A
 90
        2
 70
     0
 71
     1
  1
AcDbOsnapPointRef
 72
     3
331
248
 73
     0
 91
        0
 40
0.0
 10
0.0
 20
0.0
 30
0.0
 75
     0
  0
LAYOUT
  5
22
102
{ACAD_REACTORS
330
1A
102
}
330
1A
100
AcDbPlotSettings
  1

  2
none_device
  4
ISO_A3_(420.00_x_297.00_MM)
  6

 40
7.5
 41
20.0
 42
7.5
 43
20.0
 44
420.0
 45
297.0
 46
20.78282828282826
 47
0.0
 48
0.0
 49
0.0
140
0.0
141
0.0
142
1.0
143
1.155642023346303
 70
  1204
 72
     1
 73
     0
 74
     1
  7
monochrome.ctb
 75
     0
 76
     0
 77
     2
 78
   300
147
0.8653198653198654
148
-134.1869158878504
149
0.0
100
AcDbLayout
  1
Model
 70
     1
 71
     0
 10
0.0
 20
0.0
 11
420.0
 21
297.0
 12
0.0
 22
0.0
 32
0.0
 14
1.000000000000000E+20
 24
1.000000000000000E+20
 34
1.000000000000000E+20
 15
-1.000000000000000E+20
 25
-1.000000000000000E+20
 35
-1.000000000000000E+20
146
0.0
 13
0.0
 23
0.0
 33
0.0
 16
1.0
 26
0.0
 36
0.0
 17
0.0
 27
1.0
 37
0.0
 76
     0
330
1F
331
29
  0
LAYOUT
  5
1E
102
{ACAD_REACTORS
330
1A
102
}
330
1A
100
AcDbPlotSettings
  1

  2
none_device
  4

  6

 40
0.0
 41
0.0
 42
0.0
 43
0.0
 44
0.0
 45
0.0
 46
0.0
 47
0.0
 48
0.0
 49
0.0
140
0.0
141
0.0
142
1.0
143
1.0
 70
   688
 72
     0
 73
     0
 74
     5
  7

 75
    16
 76
     0
 77
     2
 78
   300
147
1.0
148
0.0
149
0.0
100
AcDbLayout
  1
Sheet1
 70
     1
 71
     1
 10
0.0
 20
0.0
 11
420.0
 21
297.0
 12
0.0
 22
0.0
 32
0.0
 14
1.000000000000000E+20
 24
1.000000000000000E+20
 34
1.000000000000000E+20
 15
-1.000000000000000E+20
 25
-1.000000000000000E+20
 35
-1.000000000000000E+20
146
0.0
 13
0.0
 23
0.0
 33
0.0
 16
1.0
 26
0.0
 36
0.0
 17
0.0
 27
1.0
 37
0.0
 76
     0
330
1B
  0
LAYOUT
  5
26
102
{ACAD_REACTORS
330
1A
102
}
330
1A
100
AcDbPlotSettings
  1

  2
none_device
  4

  6

 40
0.0
 41
0.0
 42
0.0
 43
0.0
 44
0.0
 45
0.0
 46
0.0
 47
0.0
 48
0.0
 49
0.0
140
0.0
141
0.0
142
1.0
143
1.0
 70
   688
 72
     0
 73
     0
 74
     5
  7

 75
    16
 76
     0
 77
     2
 78
   300
147
1.0
148
0.0
149
0.0
100
AcDbLayout
  1
Sheet2
 70
     1
 71
     2
 10
0.0
 20
0.0
 11
0.0
 21
0.0
 12
0.0
 22
0.0
 32
0.0
 14
0.0
 24
0.0
 34
0.0
 15
0.0
 25
0.0
 35
0.0
146
0.0
 13
0.0
 23
0.0
 33
0.0
 16
1.0
 26
0.0
 36
0.0
 17
0.0
 27
1.0
 37
0.0
 76
     0
330
23
  0
MATERIAL
  5
99
102
{ACAD_REACTORS
330
97
102
}
330
97
100
AcDbMaterial
  1
ByBlock
  0
MATERIAL
  5
98
102
{ACAD_REACTORS
330
97
102
}
330
97
100
AcDbMaterial
  1
ByLayer
  0
MATERIAL
  5
9A
102
{ACAD_REACTORS
330
97
102
}
330
97
100
AcDbMaterial
  1
Global
  0
MLEADERSTYLE
  5
DC
102
{ACAD_REACTORS
330
3F
102
}
330
3F
100
AcDbMLeaderStyle
170
     2
171
     1
172
     0
 90
        2
 40
0.0
 41
0.0
173
     1
 91
-1056964608
340
14
 92
       -2
290
     1
 42
2.0
291
     1
 43
8.0
  3
Standard
341
0
 44
4.0
300

342
11
174
     1
178
     6
175
     1
176
     0
 93
-1056964608
 45
4.0
292
     0
297
     0
 46
4.0
343
0
 94
-1056964608
 47
1.0
 49
1.0
140
1.0
293
     1
141
0.0
294
     1
177
     0
142
1.0
295
     0
296
     0
143
3.75
1001
ACAD_MLEADERVER
1070
     2
  0
MLINESTYLE
  5
18
102
{ACAD_REACTORS
330
17
102
}
330
17
100
AcDbMlineStyle
  2
Standard
 70
     0
  3

 62
   256
 51
90.0
 52
90.0
 71
     2
 49
0.5
 62
   256
  6
BYLAYER
 49
-0.5
 62
   256
  6
BYLAYER
  0
ACDBPLACEHOLDER
  5
F
102
{ACAD_REACTORS
330
E
102
}
330
E
  0
SCALE
  5
41
102
{ACAD_REACTORS
330
40
102
}
330
40
100
AcDbScale
 70
     0
300
1:1
140
1.0
141
1.0
290
     1
  0
SCALE
  5
42
102
{ACAD_REACTORS
330
40
102
}
330
40
100
AcDbScale
 70
     0
300
1:2
140
1.0
141
2.0
290
     0
  0
SCALE
  5
43
102
{ACAD_REACTORS
330
40
102
}
330
40
100
AcDbScale
 70
     0
300
1:4
140
1.0
141
4.0
290
     0
  0
SCALE
  5
44
102
{ACAD_REACTORS
330
40
102
}
330
40
100
AcDbScale
 70
     0
300
1:5
140
1.0
141
5.0
290
     0
  0
SCALE
  5
45
102
{ACAD_REACTORS
330
40
102
}
330
40
100
AcDbScale
 70
     0
300
1:8
140
1.0
141
8.0
290
     0
  0
SCALE
  5
46
102
{ACAD_REACTORS
330
40
102
}
330
40
100
AcDbScale
 70
     0
300
1:10
140
1.0
141
10.0
290
     0
  0
SCALE
  5
47
102
{ACAD_REACTORS
330
40
102
}
330
40
100
AcDbScale
 70
     0
300
1:16
140
1.0
141
16.0
290
     0
  0
SCALE
  5
48
102
{ACAD_REACTORS
330
40
102
}
330
40
100
AcDbScale
 70
     0
300
1:20
140
1.0
141
20.0
290
     0
  0
SCALE
  5
49
102
{ACAD_REACTORS
330
40
102
}
330
40
100
AcDbScale
 70
     0
300
1:30
140
1.0
141
30.0
290
     0
  0
SCALE
  5
4A
102
{ACAD_REACTORS
330
40
102
}
330
40
100
AcDbScale
 70
     0
300
1:40
140
1.0
141
40.0
290
     0
  0
SCALE
  5
4B
102
{ACAD_REACTORS
330
40
102
}
330
40
100
AcDbScale
 70
     0
300
1:50
140
1.0
141
50.0
290
     0
  0
SCALE
  5
4C
102
{ACAD_REACTORS
330
40
102
}
330
40
100
AcDbScale
 70
     0
300
1:100
140
1.0
141
100.0
290
     0
  0
SCALE
  5
4D
102
{ACAD_REACTORS
330
40
102
}
330
40
100
AcDbScale
 70
     0
300
2:1
140
2.0
141
1.0
290
     0
  0
SCALE
  5
4E
102
{ACAD_REACTORS
330
40
102
}
330
40
100
AcDbScale
 70
     0
300
4:1
140
4.0
141
1.0
290
     0
  0
SCALE
  5
4F
102
{ACAD_REACTORS
330
40
102
}
330
40
100
AcDbScale
 70
     0
300
8:1
140
8.0
141
1.0
290
     0
  0
SCALE
  5
50
102
{ACAD_REACTORS
330
40
102
}
330
40
100
AcDbScale
 70
     0
300
10:1
140
10.0
141
1.0
290
     0
  0
SCALE
  5
51
102
{ACAD_REACTORS
330
40
102
}
330
40
100
AcDbScale
 70
     0
300
100:1
140
100.0
141
1.0
290
     0
  0
SCALE
  5
52
102
{ACAD_REACTORS
330
40
102
}
330
40
100
AcDbScale
 70
     0
300
1/128" = 1'-0"
140
0.0078125
141
12.0
290
     0
  0
SCALE
  5
53
102
{ACAD_REACTORS
330
40
102
}
330
40
100
AcDbScale
 70
     0
300
1/64" = 1'-0"
140
0.015625
141
12.0
290
     0
  0
SCALE
  5
54
102
{ACAD_REACTORS
330
40
102
}
330
40
100
AcDbScale
 70
     0
300
1/32" = 1'-0"
140
0.03125
141
12.0
290
     0
  0
SCALE
  5
55
102
{ACAD_REACTORS
330
40
102
}
330
40
100
AcDbScale
 70
     0
300
1/16" = 1'-0"
140
0.0625
141
12.0
290
     0
  0
SCALE
  5
56
102
{ACAD_REACTORS
330
40
102
}
330
40
100
AcDbScale
 70
     0
300
3/32" = 1'-0"
140
0.09375
141
12.0
290
     0
  0
SCALE
  5
57
102
{ACAD_REACTORS
330
40
102
}
330
40
100
AcDbScale
 70
     0
300
1/8" = 1'-0"
140
0.125
141
12.0
290
     0
  0
SCALE
  5
58
102
{ACAD_REACTORS
330
40
102
}
330
40
100
AcDbScale
 70
     0
300
3/16" = 1'-0"
140
0.1875
141
12.0
290
     0
  0
SCALE
  5
59
102
{ACAD_REACTORS
330
40
102
}
330
40
100
AcDbScale
 70
     0
300
1/4" = 1'-0"
140
0.25
141
12.0
290
     0
  0
SCALE
  5
5A
102
{ACAD_REACTORS
330
40
102
}
330
40
100
AcDbScale
 70
     0
300
3/8" = 1'-0"
140
0.375
141
12.0
290
     0
  0
SCALE
  5
5B
102
{ACAD_REACTORS
330
40
102
}
330
40
100
AcDbScale
 70
     0
300
1/2" = 1'-0"
140
0.5
141
12.0
290
     0
  0
SCALE
  5
5C
102
{ACAD_REACTORS
330
40
102
}
330
40
100
AcDbScale
 70
     0
300
3/4" = 1'-0"
140
0.75
141
12.0
290
     0
  0
SCALE
  5
5D
102
{ACAD_REACTORS
330
40
102
}
330
40
100
AcDbScale
 70
     0
300
1" = 1'-0"
140
1.0
141
12.0
290
     0
  0
SCALE
  5
5E
102
{ACAD_REACTORS
330
40
102
}
330
40
100
AcDbScale
 70
     0
300
1-1/2" = 1'-0"
140
1.5
141
12.0
290
     0
  0
SCALE
  5
5F
102
{ACAD_REACTORS
330
40
102
}
330
40
100
AcDbScale
 70
     0
300
3" = 1'-0"
140
3.0
141
12.0
290
     0
  0
SCALE
  5
60
102
{ACAD_REACTORS
330
40
102
}
330
40
100
AcDbScale
 70
     0
300
6" = 1'-0"
140
6.0
141
12.0
290
     0
  0
SCALE
  5
61
102
{ACAD_REACTORS
330
40
102
}
330
40
100
AcDbScale
 70
     0
300
1'-0" = 1'-0"
140
12.0
141
12.0
290
     0
  0
TABLESTYLE
  5
3C
102
{ACAD_REACTORS
330
3B
102
}
102
{ACAD_XDICTIONARY
360
333
102
}
330
3B
100
AcDbTableStyle
  3
Standard
 70
     0
 71
     0
 40
1.5
 41
1.5
280
     0
281
     0
  7
Standard
140
4.5
170
     2
 62
     0
 63
   257
283
     0
274
    -2
284
     1
 64
     0
275
    -2
285
     1
 65
     0
276
    -2
286
     1
 66
     0
277
    -2
287
     1
 67
     0
278
    -2
288
     1
 68
     0
279
    -2
289
     1
 69
     0
  7
Standard
140
6.0
170
     5
 62
     0
 63
   257
283
     0
274
    -2
284
     1
 64
     0
275
    -2
285
     1
 65
     0
276
    -2
286
     1
 66
     0
277
    -2
287
     1
 67
     0
278
    -2
288
     1
 68
     0
279
    -2
289
     1
 69
     0
  7
Standard
140
4.5
170
     5
 62
     0
 63
   257
283
     0
274
    -2
284
     1
 64
     0
275
    -2
285
     1
 65
     0
276
    -2
286
     1
 66
     0
277
    -2
287
     1
 67
     0
278
    -2
288
     1
 68
     0
279
    -2
289
     1
 69
     0
  0
DICTIONARYVAR
  5
62
102
{ACAD_REACTORS
330
3D
102
}
330
3D
100
DictionaryVariables
280
     0
  1
1:1
  0
DICTIONARYVAR
  5
332
102
{ACAD_REACTORS
330
3D
102
}
330
3D
100
DictionaryVariables
280
     0
  1
Standard
  0
DICTIONARYVAR
  5
3E
102
{ACAD_REACTORS
330
3D
102
}
330
3D
100
DictionaryVariables
280
     0
  1
Standard
  0
DICTIONARYVAR
  5
6F
102
{ACAD_REACTORS
330
3D
102
}
330
3D
100
DictionaryVariables
280
     0
  1
0
  0
DICTIONARYVAR
  5
70
102
{ACAD_REACTORS
330
3D
102
}
330
3D
100
DictionaryVariables
280
     0
  1
0
  0
DICTIONARY
  5
333
330
3C
100
AcDbDictionary
280
     1
281
     1
  3
ACAD_ROUNDTRIP_2008_TABLESTYLE_CELLSTYLEMAP
360
335
  3
ACAD_XREC_ROUNDTRIP
360
334
  0
CELLSTYLEMAP
  5
335
102
{ACAD_REACTORS
330
333
102
}
330
333
100
AcDbCellStyleMap
 90
        3
300
CELLSTYLE
  1
TABLEFORMAT_BEGIN
 90
        5
170
     1
 91
        0
 92
    32768
 62
   257
 93
        1
300
CONTENTFORMAT
  1
CONTENTFORMAT_BEGIN
 90
        0
 91
        0
 92
      512
 93
        0
300

 40
0.0
140
1.0
 94
        5
 62
     0
340
11
144
6.0
309
CONTENTFORMAT_END
171
     1
301
MARGIN
  1
CELLMARGIN_BEGIN
 40
1.5
 40
1.5
 40
1.5
 40
1.5
 40
0.18
 40
0.18
309
CELLMARGIN_END
 94
        6
 95
        1
302
GRIDFORMAT
  1
GRIDFORMAT_BEGIN
 90
        0
 91
        1
 62
     0
 92
       -2
340
0
 93
        0
 40
0.045
309
GRIDFORMAT_END
 95
        2
302
GRIDFORMAT
  1
GRIDFORMAT_BEGIN
 90
        0
 91
        1
 62
     0
 92
       -2
340
0
 93
        0
 40
0.045
309
GRIDFORMAT_END
 95
        4
302
GRIDFORMAT
  1
GRIDFORMAT_BEGIN
 90
        0
 91
        1
 62
     0
 92
       -2
340
0
 93
        0
 40
0.045
309
GRIDFORMAT_END
 95
        8
302
GRIDFORMAT
  1
GRIDFORMAT_BEGIN
 90
        0
 91
        1
 62
     0
 92
       -2
340
0
 93
        0
 40
0.045
309
GRIDFORMAT_END
 95
       16
302
GRIDFORMAT
  1
GRIDFORMAT_BEGIN
 90
        0
 91
        1
 62
     0
 92
       -2
340
0
 93
        0
 40
0.045
309
GRIDFORMAT_END
 95
       32
302
GRIDFORMAT
  1
GRIDFORMAT_BEGIN
 90
        0
 91
        1
 62
     0
 92
       -2
340
0
 93
        0
 40
0.045
309
GRIDFORMAT_END
309
TABLEFORMAT_END
  1
CELLSTYLE_BEGIN
 90
        1
 91
        1
300
_TITLE
309
CELLSTYLE_END
300
CELLSTYLE
  1
TABLEFORMAT_BEGIN
 90
        5
170
     1
 91
        0
 92
        0
 62
   257
 93
        1
300
CONTENTFORMAT
  1
CONTENTFORMAT_BEGIN
 90
        0
 91
        0
 92
      512
 93
        0
300

 40
0.0
140
1.0
 94
        5
 62
     0
340
11
144
4.5
309
CONTENTFORMAT_END
171
     1
301
MARGIN
  1
CELLMARGIN_BEGIN
 40
1.5
 40
1.5
 40
1.5
 40
1.5
 40
0.18
 40
0.18
309
CELLMARGIN_END
 94
        6
 95
        1
302
GRIDFORMAT
  1
GRIDFORMAT_BEGIN
 90
        0
 91
        1
 62
     0
 92
       -2
340
0
 93
        0
 40
0.045
309
GRIDFORMAT_END
 95
        2
302
GRIDFORMAT
  1
GRIDFORMAT_BEGIN
 90
        0
 91
        1
 62
     0
 92
       -2
340
0
 93
        0
 40
0.045
309
GRIDFORMAT_END
 95
        4
302
GRIDFORMAT
  1
GRIDFORMAT_BEGIN
 90
        0
 91
        1
 62
     0
 92
       -2
340
0
 93
        0
 40
0.045
309
GRIDFORMAT_END
 95
        8
302
GRIDFORMAT
  1
GRIDFORMAT_BEGIN
 90
        0
 91
        1
 62
     0
 92
       -2
340
0
 93
        0
 40
0.045
309
GRIDFORMAT_END
 95
       16
302
GRIDFORMAT
  1
GRIDFORMAT_BEGIN
 90
        0
 91
        1
 62
     0
 92
       -2
340
0
 93
        0
 40
0.045
309
GRIDFORMAT_END
 95
       32
302
GRIDFORMAT
  1
GRIDFORMAT_BEGIN
 90
        0
 91
        1
 62
     0
 92
       -2
340
0
 93
        0
 40
0.045
309
GRIDFORMAT_END
309
TABLEFORMAT_END
  1
CELLSTYLE_BEGIN
 90
        2
 91
        1
300
_HEADER
309
CELLSTYLE_END
300
CELLSTYLE
  1
TABLEFORMAT_BEGIN
 90
        5
170
     1
 91
        0
 92
        0
 62
   257
 93
        1
300
CONTENTFORMAT
  1
CONTENTFORMAT_BEGIN
 90
        0
 91
        0
 92
      512
 93
        0
300

 40
0.0
140
1.0
 94
        2
 62
     0
340
11
144
4.5
309
CONTENTFORMAT_END
171
     1
301
MARGIN
  1
CELLMARGIN_BEGIN
 40
1.5
 40
1.5
 40
1.5
 40
1.5
 40
0.18
 40
0.18
309
CELLMARGIN_END
 94
        6
 95
        1
302
GRIDFORMAT
  1
GRIDFORMAT_BEGIN
 90
        0
 91
        1
 62
     0
 92
       -2
340
0
 93
        0
 40
0.045
309
GRIDFORMAT_END
 95
        2
302
GRIDFORMAT
  1
GRIDFORMAT_BEGIN
 90
        0
 91
        1
 62
     0
 92
       -2
340
0
 93
        0
 40
0.045
309
GRIDFORMAT_END
 95
        4
302
GRIDFORMAT
  1
GRIDFORMAT_BEGIN
 90
        0
 91
        1
 62
     0
 92
       -2
340
0
 93
        0
 40
0.045
309
GRIDFORMAT_END
 95
        8
302
GRIDFORMAT
  1
GRIDFORMAT_BEGIN
 90
        0
 91
        1
 62
     0
 92
       -2
340
0
 93
        0
 40
0.045
309
GRIDFORMAT_END
 95
       16
302
GRIDFORMAT
  1
GRIDFORMAT_BEGIN
 90
        0
 91
        1
 62
     0
 92
       -2
340
0
 93
        0
 40
0.045
309
GRIDFORMAT_END
 95
       32
302
GRIDFORMAT
  1
GRIDFORMAT_BEGIN
 90
        0
 91
        1
 62
     0
 92
       -2
340
0
 93
        0
 40
0.045
309
GRIDFORMAT_END
309
TABLEFORMAT_END
  1
CELLSTYLE_BEGIN
 90
        3
 91
        2
300
_DATA
309
CELLSTYLE_END
  0
XRECORD
  5
334
102
{ACAD_REACTORS
330
333
102
}
330
333
100
AcDbXrecord
280
     1
102
ACAD_ROUNDTRIP_PRE2007_TABLESTYLE
 90
      512
 91
        0
  1

 92
      512
 93
        0
  2

 94
      512
 95
        0
  3

  0
ENDSEC
  0
EOF
