  0
SECTION
  2
HEADER
  9
$ACADVER
  1
AC1018
  9
$ACADMAINTVER
 70
     0
  9
$DWGCODEPAGE
  3
ANSI_932
  9
$LASTSAVEDBY
  1
小谷 浩和
  9
$INSBASE
 10
0.0
 20
0.0
 30
0.0
  9
$EXTMIN
 10
4.187561697926867
 20
4.046082742528824
 30
0.0
  9
$EXTMAX
 10
1804.243220940473
 20
1205.594570650022
 30
0.0
  9
$LIMMIN
 10
0.0
 20
0.0
  9
$LIMMAX
 10
420.0
 20
297.0
  9
$ORTHOMODE
 70
     0
  9
$REGENMODE
 70
     1
  9
$FILLMODE
 70
     1
  9
$QTEXTMODE
 70
     0
  9
$MIRRTEXT
 70
     0
  9
$LTSCALE
 40
1.0
  9
$ATTMODE
 70
     1
  9
$TEXTSIZE
 40
2.5
  9
$TRACEWID
 40
1.0
  9
$TEXTSTYLE
  7
Standard
  9
$CLAYER
  8
0
  9
$CELTYPE
  6
ByLayer
  9
$CECOLOR
 62
   256
  9
$CELTSCALE
 40
1.0
  9
$DISPSILH
 70
     0
  9
$DIMSCALE
 40
1.0
  9
$DIMASZ
 40
2.5
  9
$DIMEXO
 40
0.625
  9
$DIMDLI
 40
3.75
  9
$DIMRND
 40
0.0
  9
$DIMDLE
 40
0.0
  9
$DIMEXE
 40
1.25
  9
$DIMTP
 40
0.0
  9
$DIMTM
 40
0.0
  9
$DIMTXT
 40
2.5
  9
$DIMCEN
 40
2.5
  9
$DIMTSZ
 40
0.0
  9
$DIMTOL
 70
     0
  9
$DIMLIM
 70
     0
  9
$DIMTIH
 70
     0
  9
$DIMTOH
 70
     0
  9
$DIMSE1
 70
     0
  9
$DIMSE2
 70
     0
  9
$DIMTAD
 70
     1
  9
$DIMZIN
 70
     8
  9
$DIMBLK
  1
OPEN
  9
$DIMASO
 70
     1
  9
$DIMSHO
 70
     1
  9
$DIMPOST
  1

  9
$DIMAPOST
  1

  9
$DIMALT
 70
     0
  9
$DIMALTD
 70
     3
  9
$DIMALTF
 40
0.03937007874016
  9
$DIMLFAC
 40
1.0
  9
$DIMTOFL
 70
     1
  9
$DIMTVP
 40
0.0
  9
$DIMTIX
 70
     0
  9
$DIMSOXD
 70
     0
  9
$DIMSAH
 70
     0
  9
$DIMBLK1
  1

  9
$DIMBLK2
  1

  9
$DIMSTYLE
  2
JIS-1
  9
$DIMCLRD
 70
     0
  9
$DIMCLRE
 70
     0
  9
$DIMCLRT
 70
     0
  9
$DIMTFAC
 40
1.0
  9
$DIMGAP
 40
0.625
  9
$DIMJUST
 70
     0
  9
$DIMSD1
 70
     0
  9
$DIMSD2
 70
     0
  9
$DIMTOLJ
 70
     0
  9
$DIMTZIN
 70
     8
  9
$DIMALTZ
 70
     0
  9
$DIMALTTZ
 70
     0
  9
$DIMUPT
 70
     0
  9
$DIMDEC
 70
     2
  9
$DIMTDEC
 70
     2
  9
$DIMALTU
 70
     2
  9
$DIMALTTD
 70
     3
  9
$DIMTXSTY
  7
Standard
  9
$DIMAUNIT
 70
     0
  9
$DIMADEC
 70
     0
  9
$DIMALTRND
 40
0.0
  9
$DIMAZIN
 70
     0
  9
$DIMDSEP
 70
    44
  9
$DIMATFIT
 70
     3
  9
$DIMFRAC
 70
     0
  9
$DIMLDRBLK
  1
OPEN
  9
$DIMLUNIT
 70
     2
  9
$DIMLWD
 70
    -2
  9
$DIMLWE
 70
    -2
  9
$DIMTMOVE
 70
     0
  9
$LUNITS
 70
     2
  9
$LUPREC
 70
     3
  9
$SKETCHINC
 40
1.0
  9
$FILLETRAD
 40
10.0
  9
$AUNITS
 70
     0
  9
$AUPREC
 70
     0
  9
$MENU
  1
.
  9
$ELEVATION
 40
0.0
  9
$PELEVATION
 40
0.0
  9
$THICKNESS
 40
0.0
  9
$LIMCHECK
 70
     0
  9
$CHAMFERA
 40
10.0
  9
$CHAMFERB
 40
10.0
  9
$CHAMFERC
 40
20.0
  9
$CHAMFERD
 40
0.0
  9
$SKPOLY
 70
     0
  9
$TDCREATE
 40
2455023.012359514
  9
$TDUCREATE
 40
2455022.637359514
  9
$TDUPDATE
 40
2457241.75752375
  9
$TDUUPDATE
 40
2457241.38252375
  9
$TDINDWG
 40
0.0109778241
  9
$TDUSRTIMER
 40
2457241.381672766
  9
$USRTIMER
 70
     1
  9
$ANGBASE
 50
0.0
  9
$ANGDIR
 70
     0
  9
$PDMODE
 70
     0
  9
$PDSIZE
 40
0.0
  9
$PLINEWID
 40
0.0
  9
$SPLFRAME
 70
     0
  9
$SPLINETYPE
 70
     6
  9
$SPLINESEGS
 70
     8
  9
$HANDSEED
  5
3F0
  9
$SURFTAB1
 70
     6
  9
$SURFTAB2
 70
     6
  9
$SURFTYPE
 70
     6
  9
$SURFU
 70
     6
  9
$SURFV
 70
     6
  9
$UCSBASE
  2

  9
$UCSNAME
  2

  9
$UCSORG
 10
0.0
 20
0.0
 30
0.0
  9
$UCSXDIR
 10
1.0
 20
0.0
 30
0.0
  9
$UCSYDIR
 10
0.0
 20
1.0
 30
0.0
  9
$UCSORTHOREF
  2

  9
$UCSORTHOVIEW
 70
     0
  9
$UCSORGTOP
 10
0.0
 20
0.0
 30
0.0
  9
$UCSORGBOTTOM
 10
0.0
 20
0.0
 30
0.0
  9
$UCSORGLEFT
 10
0.0
 20
0.0
 30
0.0
  9
$UCSORGRIGHT
 10
0.0
 20
0.0
 30
0.0
  9
$UCSORGFRONT
 10
0.0
 20
0.0
 30
0.0
  9
$UCSORGBACK
 10
0.0
 20
0.0
 30
0.0
  9
$PUCSBASE
  2

  9
$PUCSNAME
  2

  9
$PUCSORG
 10
0.0
 20
0.0
 30
0.0
  9
$PUCSXDIR
 10
1.0
 20
0.0
 30
0.0
  9
$PUCSYDIR
 10
0.0
 20
1.0
 30
0.0
  9
$PUCSORTHOREF
  2

  9
$PUCSORTHOVIEW
 70
     0
  9
$PUCSORGTOP
 10
0.0
 20
0.0
 30
0.0
  9
$PUCSORGBOTTOM
 10
0.0
 20
0.0
 30
0.0
  9
$PUCSORGLEFT
 10
0.0
 20
0.0
 30
0.0
  9
$PUCSORGRIGHT
 10
0.0
 20
0.0
 30
0.0
  9
$PUCSORGFRONT
 10
0.0
 20
0.0
 30
0.0
  9
$PUCSORGBACK
 10
0.0
 20
0.0
 30
0.0
  9
$USERI1
 70
     0
  9
$USERI2
 70
     0
  9
$USERI3
 70
     0
  9
$USERI4
 70
     0
  9
$USERI5
 70
     0
  9
$USERR1
 40
0.0
  9
$USERR2
 40
0.0
  9
$USERR3
 40
0.0
  9
$USERR4
 40
0.0
  9
$USERR5
 40
0.0
  9
$WORLDVIEW
 70
     1
  9
$SHADEDGE
 70
     3
  9
$SHADEDIF
 70
    70
  9
$TILEMODE
 70
     1
  9
$MAXACTVP
 70
    64
  9
$PINSBASE
 10
0.0
 20
0.0
 30
0.0
  9
$PLIMCHECK
 70
     0
  9
$PEXTMIN
 10
1.000000000000000E+20
 20
1.000000000000000E+20
 30
1.000000000000000E+20
  9
$PEXTMAX
 10
-1.000000000000000E+20
 20
-1.000000000000000E+20
 30
-1.000000000000000E+20
  9
$PLIMMIN
 10
0.0
 20
0.0
  9
$PLIMMAX
 10
0.0
 20
0.0
  9
$UNITMODE
 70
     0
  9
$VISRETAIN
 70
     1
  9
$PLINEGEN
 70
     0
  9
$PSLTSCALE
 70
     1
  9
$TREEDEPTH
 70
  3020
  9
$CMLSTYLE
  2
Standard
  9
$CMLJUST
 70
     0
  9
$CMLSCALE
 40
20.0
  9
$PROXYGRAPHICS
 70
     1
  9
$MEASUREMENT
 70
     1
  9
$CELWEIGHT
370
    -1
  9
$ENDCAPS
280
     0
  9
$JOINSTYLE
280
     0
  9
$LWDISPLAY
290
     0
  9
$INSUNITS
 70
     4
  9
$HYPERLINKBASE
  1

  9
$STYLESHEET
  1

  9
$XEDIT
290
     1
  9
$CEPSNTYPE
380
     0
  9
$PSTYLEMODE
290
     0
  9
$FINGERPRINTGUID
  2
{EC6BB858-51AA-46EC-B484-6C9CC7AB3E2E}
  9
$VERSIONGUID
  2
{FAEB1C32-E019-11D5-929B-00C0DF256EC4}
  9
$EXTNAMES
290
     1
  9
$PSVPSCALE
 40
0.0
  9
$OLESTARTUP
290
     0
  9
$SORTENTS
280
   127
  9
$INDEXCTL
280
     0
  9
$HIDETEXT
280
     1
  9
$XCLIPFRAME
290
     0
  9
$HALOGAP
280
     0
  9
$OBSCOLOR
 70
   257
  9
$OBSLTYPE
280
     0
  9
$INTERSECTIONDISPLAY
280
     0
  9
$INTERSECTIONCOLOR
 70
   257
  9
$DIMASSOC
280
     2
  9
$PROJECTNAME
  1

  0
ENDSEC
  0
SECTION
  2
CLASSES
  0
CLASS
  1
ACDBDICTIONARYWDFLT
  2
AcDbDictionaryWithDefault
  3
ObjectDBX Classes
 90
        0
 91
        4
280
     0
281
     0
  0
CLASS
  1
VISUALSTYLE
  2
AcDbVisualStyle
  3
ObjectDBX Classes
 90
     4095
 91
        4
280
     0
281
     0
  0
CLASS
  1
TABLESTYLE
  2
AcDbTableStyle
  3
ObjectDBX Classes
 90
     4095
 91
        4
280
     0
281
     0
  0
CLASS
  1
DICTIONARYVAR
  2
AcDbDictionaryVar
  3
ObjectDBX Classes
 90
        0
 91
        4
280
     0
281
     0
  0
CLASS
  1
SCALE
  2
AcDbScale
  3
ObjectDBX Classes
 90
     1153
 91
        4
280
     0
281
     0
  0
CLASS
  1
CELLSTYLEMAP
  2
AcDbCellStyleMap
  3
ObjectDBX Classes
 90
     1152
 91
        4
280
     0
281
     0
  0
CLASS
  1
RASTERVARIABLES
  2
AcDbRasterVariables
  3
ISM
 90
        0
 91
        4
280
     0
281
     0
  0
CLASS
  1
DIMASSOC
  2
AcDbDimAssoc
  3
"AcDbDimAssoc|Product Desc:     AcDim ARX App For Dimension|Company:          Autodesk, Inc.|WEB Address:      www.autodesk.com"
 90
        0
 91
        4
280
     0
281
     0
  0
CLASS
  1
MATERIAL
  2
AcDbMaterial
  3
ObjectDBX Classes
 90
     1153
 91
        4
280
     0
281
     0
  0
CLASS
  1
SUN
  2
AcDbSun
  3
SCENEOE
 90
     1153
 91
        4
280
     0
281
     0
  0
CLASS
  1
MLEADERSTYLE
  2
AcDbMLeaderStyle
  3
ACDB_MLEADERSTYLE_CLASS
 90
     4095
 91
        4
280
     0
281
     0
  0
CLASS
  1
SORTENTSTABLE
  2
AcDbSortentsTable
  3
ObjectDBX Classes
 90
        0
 91
        4
280
     0
281
     0
  0
ENDSEC
  0
SECTION
  2
TABLES
  0
TABLE
  2
VPORT
  5
8
330
0
100
AcDbSymbolTable
 70
     1
  0
VPORT
  5
29
330
8
100
AcDbSymbolTableRecord
100
AcDbViewportTableRecord
  2
*Active
 70
     0
 10
0.0
 20
0.0
 11
1.0
 21
1.0
 12
585.8969378455956
 22
1076.384147257653
 13
0.0
 23
0.0
 14
10.0
 24
10.0
 15
10.0
 25
10.0
 16
0.0
 26
0.0
 36
1.0
 17
-134.1869158878503
 27
0.0
 37
0.0
 40
1472.085273042246
 41
1.664884135472371
 42
50.0
 43
0.0
 44
0.0
 50
0.0
 51
0.0
 71
    16
 72
  1000
 73
     1
 74
     3
 75
     0
 76
     0
 77
     0
 78
     0
281
     0
 65
     1
110
0.0
120
0.0
130
0.0
111
1.0
121
0.0
131
0.0
112
0.0
122
1.0
132
0.0
 79
     0
146
0.0
  0
ENDTAB
  0
TABLE
  2
LTYPE
  5
5
330
0
100
AcDbSymbolTable
 70
     2
  0
LTYPE
  5
14
330
5
100
AcDbSymbolTableRecord
100
AcDbLinetypeTableRecord
  2
ByBlock
 70
     0
  3

 72
    65
 73
     0
 40
0.0
  0
LTYPE
  5
15
330
5
100
AcDbSymbolTableRecord
100
AcDbLinetypeTableRecord
  2
ByLayer
 70
     0
  3

 72
    65
 73
     0
 40
0.0
  0
LTYPE
  5
16
330
5
100
AcDbSymbolTableRecord
100
AcDbLinetypeTableRecord
  2
Continuous
 70
     0
  3
Solid line
 72
    65
 73
     0
 40
0.0
  0
LTYPE
  5
E2
330
5
100
AcDbSymbolTableRecord
100
AcDbLinetypeTableRecord
  2
CENTER
 70
     0
  3
 Center ____ _ ____ _ ____ _ ____ _ ____ _ ____
 72
    65
 73
     4
 40
2.0
 49
1.25
 74
     0
 49
-0.25
 74
     0
 49
0.25
 74
     0
 49
-0.25
 74
     0
  0
ENDTAB
  0
TABLE
  2
LAYER
  5
2
102
{ACAD_XDICTIONARY
360
251
102
}
330
0
100
AcDbSymbolTable
 70
     5
  0
LAYER
  5
10
330
2
100
AcDbSymbolTableRecord
100
AcDbLayerTableRecord
  2
0
 70
     0
 62
     7
  6
Continuous
370
    -3
390
F
  0
LAYER
  5
7E
330
2
100
AcDbSymbolTableRecord
100
AcDbLayerTableRecord
  2
Defpoints
 70
     0
 62
     7
  6
Continuous
290
     0
370
    -3
390
F
  0
LAYER
  5
DE
330
2
100
AcDbSymbolTableRecord
100
AcDbLayerTableRecord
  2
C2
 70
     0
 62
     1
  6
CENTER
370
    -3
390
F
  0
LAYER
  5
E3
330
2
100
AcDbSymbolTableRecord
100
AcDbLayerTableRecord
  2
C4
 70
     0
 62
     3
  6
Continuous
370
    -3
390
F
  0
LAYER
  5
E4
330
2
100
AcDbSymbolTableRecord
100
AcDbLayerTableRecord
  2
C寸法
 70
     0
 62
     4
  6
Continuous
370
    -3
390
F
  0
ENDTAB
  0
TABLE
  2
STYLE
  5
3
330
0
100
AcDbSymbolTable
 70
     2
  0
STYLE
  5
11
330
3
100
AcDbSymbolTableRecord
100
AcDbTextStyleTableRecord
  2
Standard
 70
     0
 40
0.138
 41
1.0
 50
0.0
 71
     0
 42
2.5
  3
arial.ttf
  4

1001
ACAD
1000
Arial
1071
        0
  0
STYLE
  5
F3
330
3
100
AcDbSymbolTableRecord
100
AcDbTextStyleTableRecord
  2
KANJI
 70
     0
 40
0.0
 41
1.0
 50
0.0
 71
     0
 42
2.5
  3
romans
  4
bigfont
  0
ENDTAB
  0
TABLE
  2
VIEW
  5
6
330
0
100
AcDbSymbolTable
 70
     0
  0
ENDTAB
  0
TABLE
  2
UCS
  5
7
330
0
100
AcDbSymbolTable
 70
     0
  0
ENDTAB
  0
TABLE
  2
APPID
  5
9
330
0
100
AcDbSymbolTable
 70
     8
  0
APPID
  5
12
330
9
100
AcDbSymbolTableRecord
100
AcDbRegAppTableRecord
  2
ACAD
 70
     0
  0
APPID
  5
EE
330
9
100
AcDbSymbolTableRecord
100
AcDbRegAppTableRecord
  2
ACAD_DSTYLE_DIMBREAK
 70
     0
  0
APPID
  5
EF
330
9
100
AcDbSymbolTableRecord
100
AcDbRegAppTableRecord
  2
ACAD_DSTYLE_DIMJAG
 70
     0
  0
APPID
  5
F0
330
9
100
AcDbSymbolTableRecord
100
AcDbRegAppTableRecord
  2
ACAD_DSTYLE_DIMTALN
 70
     0
  0
APPID
  5
F1
330
9
100
AcDbSymbolTableRecord
100
AcDbRegAppTableRecord
  2
ACAD_NAV_VCDISPLAY
 70
     0
  0
APPID
  5
F2
330
9
100
AcDbSymbolTableRecord
100
AcDbRegAppTableRecord
  2
PLOTTRANSPARENCY
 70
     0
  0
APPID
  5
393
330
9
100
AcDbSymbolTableRecord
100
AcDbRegAppTableRecord
  2
ACAD_DSTYLE_DIMRADIAL_EXTENSION
 70
     0
  0
APPID
  5
3EE
330
9
100
AcDbSymbolTableRecord
100
AcDbRegAppTableRecord
  2
ACAD_MLEADERVER
 70
     0
  0
ENDTAB
  0
TABLE
  2
DIMSTYLE
  5
A
330
0
100
AcDbSymbolTable
 70
     5
100
AcDbDimStyleTable
  0
DIMSTYLE
105
27
330
A
100
AcDbSymbolTableRecord
100
AcDbDimStyleTableRecord
  2
ISO-25
 70
     0
 41
2.5
 42
0.625
 43
3.75
 44
1.25
 73
     0
 74
     0
 77
     1
 78
     8
140
2.5
141
2.5
143
0.03937007874016
147
0.625
171
     3
172
     1
178
     0
271
     2
272
     2
274
     3
278
    44
283
     0
284
     8
340
11
  0
DIMSTYLE
105
72
330
A
100
AcDbSymbolTableRecord
100
AcDbDimStyleTableRecord
  2
GB-1
 70
     0
 41
2.5
 42
0.625
 43
3.75
 44
1.25
 73
     0
 74
     0
 77
     1
 78
     8
140
2.5
141
2.5
143
0.03937007874016
147
0.625
171
     3
172
     1
178
     0
271
     2
272
     2
274
     3
278
    44
283
     0
284
     8
340
11
341
76
342
76
  0
DIMSTYLE
105
8E
102
{ACAD_REACTORS
330
394
330
39F
330
3AC
330
3D1
102
}
330
A
100
AcDbSymbolTableRecord
100
AcDbDimStyleTableRecord
  2
JIS-1
 70
     0
 41
2.5
 42
0.625
 43
3.75
 44
1.25
 73
     0
 74
     0
 77
     1
 78
     8
140
2.5
141
2.5
143
0.03937007874016
147
0.625
171
     3
172
     1
178
     0
271
     2
272
     2
274
     3
278
    44
283
     0
284
     8
340
11
341
90
342
90
  0
DIMSTYLE
105
E5
330
A
100
AcDbSymbolTableRecord
100
AcDbDimStyleTableRecord
  2
Standard
 70
     0
178
     0
340
11
  0
DIMSTYLE
105
E7
102
{ACAD_REACTORS
330
2E8
330
2E9
330
2EA
330
2EB
330
2EC
330
2ED
330
2EE
330
2EF
330
2F0
330
2F3
330
2F4
330
2F7
102
}
330
A
100
AcDbSymbolTableRecord
100
AcDbDimStyleTableRecord
  2
実寸
 70
     0
 41
25.0
 42
10.0
 43
6.0
 44
0.0
 47
5.0
 73
     0
 74
     0
 77
     1
 78
     8
140
25.0
141
0.0
144
5.0
147
5.0
178
     0
271
     1
272
     1
284
     8
340
11
341
90
342
90
1001
ACAD_DSTYLE_DIMBREAK
1070
   391
1040
0.125
1001
ACAD_DSTYLE_DIMJAG
1070
   388
1040
1.5
1001
ACAD_DSTYLE_DIMTALN
1070
   392
1070
     0
  0
ENDTAB
  0
TABLE
  2
BLOCK_RECORD
  5
1
330
0
100
AcDbSymbolTable
 70
    35
  0
BLOCK_RECORD
  5
1F
330
1
100
AcDbSymbolTableRecord
100
AcDbBlockTableRecord
  2
*Model_Space
340
22
  0
BLOCK_RECORD
  5
1B
330
1
100
AcDbSymbolTableRecord
100
AcDbBlockTableRecord
  2
*Paper_Space
340
1E
  0
BLOCK_RECORD
  5
23
330
1
100
AcDbSymbolTableRecord
100
AcDbBlockTableRecord
  2
*Paper_Space0
340
26
  0
BLOCK_RECORD
  5
76
330
1
100
AcDbSymbolTableRecord
100
AcDbBlockTableRecord
  2
_CLOSED
340
0
  0
BLOCK_RECORD
  5
90
330
1
100
AcDbSymbolTableRecord
100
AcDbBlockTableRecord
  2
_OPEN
340
0
102
{BLKREFS
331
2FE
331
2FF
331
30A
331
30B
331
316
331
317
331
322
331
323
331
32E
331
32F
331
33D
331
33E
331
34C
331
34D
331
358
331
359
331
364
331
365
331
372
331
373
331
380
331
381
331
38C
331
38D
331
39C
331
3A7
331
3B4
331
3C1
331
3CD
331
1AD
331
1AE
331
1BA
331
1BB
331
1C7
331
1C8
331
1D4
331
1D5
331
1E1
331
1E2
331
1F1
331
1F2
331
201
331
202
331
20E
331
20F
331
21B
331
21C
331
22C
331
22D
331
23B
331
23C
331
24A
331
24B
331
0
331
0
331
0
331
3DB
102
}
  0
BLOCK_RECORD
  5
2F8
330
1
100
AcDbSymbolTableRecord
100
AcDbBlockTableRecord
  2
*D17
340
0
  0
BLOCK_RECORD
  5
304
330
1
100
AcDbSymbolTableRecord
100
AcDbBlockTableRecord
  2
*D18
340
0
  0
BLOCK_RECORD
  5
310
330
1
100
AcDbSymbolTableRecord
100
AcDbBlockTableRecord
  2
*D19
340
0
  0
BLOCK_RECORD
  5
31C
330
1
100
AcDbSymbolTableRecord
100
AcDbBlockTableRecord
  2
*D20
340
0
  0
BLOCK_RECORD
  5
328
330
1
100
AcDbSymbolTableRecord
100
AcDbBlockTableRecord
  2
*D21
340
0
  0
BLOCK_RECORD
  5
334
330
1
100
AcDbSymbolTableRecord
100
AcDbBlockTableRecord
  2
*D22
340
0
  0
BLOCK_RECORD
  5
343
330
1
100
AcDbSymbolTableRecord
100
AcDbBlockTableRecord
  2
*D23
340
0
  0
BLOCK_RECORD
  5
352
330
1
100
AcDbSymbolTableRecord
100
AcDbBlockTableRecord
  2
*D24
340
0
  0
BLOCK_RECORD
  5
35E
330
1
100
AcDbSymbolTableRecord
100
AcDbBlockTableRecord
  2
*D25
340
0
  0
BLOCK_RECORD
  5
36A
330
1
100
AcDbSymbolTableRecord
100
AcDbBlockTableRecord
  2
*D26
340
0
  0
BLOCK_RECORD
  5
378
330
1
100
AcDbSymbolTableRecord
100
AcDbBlockTableRecord
  2
*D27
340
0
  0
BLOCK_RECORD
  5
386
330
1
100
AcDbSymbolTableRecord
100
AcDbBlockTableRecord
  2
*D28
340
0
  0
BLOCK_RECORD
  5
397
330
1
100
AcDbSymbolTableRecord
100
AcDbBlockTableRecord
  2
*D29
340
0
  0
BLOCK_RECORD
  5
3A2
330
1
100
AcDbSymbolTableRecord
100
AcDbBlockTableRecord
  2
*D30
340
0
  0
BLOCK_RECORD
  5
3AF
330
1
100
AcDbSymbolTableRecord
100
AcDbBlockTableRecord
  2
*D31
340
0
  0
BLOCK_RECORD
  5
3D2
330
1
100
AcDbSymbolTableRecord
100
AcDbBlockTableRecord
  2
*D34
340
0
  0
ENDTAB
  0
ENDSEC
  0
SECTION
  2
BLOCKS
  0
BLOCK
  5
20
330
1F
100
AcDbEntity
  8
0
100
AcDbBlockBegin
  2
*Model_Space
 70
     0
 10
0.0
 20
0.0
 30
0.0
  3
*Model_Space
  1
*Model_Space
  0
ENDBLK
  5
21
330
1F
100
AcDbEntity
  8
0
100
AcDbBlockEnd
  0
BLOCK
  5
1C
330
1B
100
AcDbEntity
 67
     1
  8
0
100
AcDbBlockBegin
  2
*Paper_Space
 70
     0
 10
0.0
 20
0.0
 30
0.0
  3
*Paper_Space
  1
*Paper_Space
  0
ENDBLK
  5
1D
330
1B
100
AcDbEntity
 67
     1
  8
0
100
AcDbBlockEnd
  0
BLOCK
  5
24
330
23
100
AcDbEntity
  8
0
100
AcDbBlockBegin
  2
*Paper_Space0
 70
     0
 10
0.0
 20
0.0
 30
0.0
  3
*Paper_Space0
  1
*Paper_Space0
  0
ENDBLK
  5
25
330
23
100
AcDbEntity
  8
0
100
AcDbBlockEnd
  0
BLOCK
  5
77
330
76
100
AcDbEntity
  8
0
100
AcDbBlockBegin
  2
_CLOSED
 70
     0
 10
0.0
 20
0.0
 30
0.0
  3
_CLOSED
  1
_CLOSED
  0
LINE
  5
78
330
76
100
AcDbEntity
  8
0
  6
ByBlock
 62
     0
370
    -2
100
AcDbLine
 10
-1.0
 20
0.166667
 30
0.0
 11
0.0
 21
0.0
 31
0.0
  0
LINE
  5
79
330
76
100
AcDbEntity
  8
0
  6
ByBlock
 62
     0
370
    -2
100
AcDbLine
 10
0.0
 20
0.0
 30
0.0
 11
-1.0
 21
-0.166667
 31
0.0
  0
LINE
  5
7A
330
76
100
AcDbEntity
  8
0
  6
ByBlock
 62
     0
370
    -2
100
AcDbLine
 10
-1.0
 20
0.166667
 30
0.0
 11
-1.0
 21
-0.166667
 31
0.0
  0
LINE
  5
7B
330
76
100
AcDbEntity
  8
0
  6
ByBlock
 62
     0
370
    -2
100
AcDbLine
 10
0.0
 20
0.0
 30
0.0
 11
-1.0
 21
0.0
 31
0.0
  0
ENDBLK
  5
7C
330
76
100
AcDbEntity
  8
0
100
AcDbBlockEnd
  0
BLOCK
  5
91
330
90
100
AcDbEntity
  8
0
100
AcDbBlockBegin
  2
_OPEN
 70
     0
 10
0.0
 20
0.0
 30
0.0
  3
_OPEN
  1
_OPEN
  0
LINE
  5
92
330
90
100
AcDbEntity
  8
0
  6
ByBlock
 62
     0
370
    -2
100
AcDbLine
 10
-1.0
 20
0.166667
 30
0.0
 11
0.0
 21
0.0
 31
0.0
  0
LINE
  5
93
330
90
100
AcDbEntity
  8
0
  6
ByBlock
 62
     0
370
    -2
100
AcDbLine
 10
-1.0
 20
-0.166667
 30
0.0
 11
0.0
 21
0.0
 31
0.0
  0
LINE
  5
94
330
90
100
AcDbEntity
  8
0
  6
ByBlock
 62
     0
370
    -2
100
AcDbLine
 10
0.0
 20
0.0
 30
0.0
 11
-1.0
 21
0.0
 31
0.0
  0
ENDBLK
  5
95
330
90
100
AcDbEntity
  8
0
100
AcDbBlockEnd
  0
BLOCK
  5
2F9
330
2F8
100
AcDbEntity
  8
0
100
AcDbBlockBegin
  2
*D17
 70
     1
 10
0.0
 20
0.0
 30
0.0
  3
*D17
  1
*D17
  0
LINE
  5
2FB
330
2F8
100
AcDbEntity
  8
C寸法
 62
     0
370
    -2
100
AcDbLine
 10
81.46201974095268
 20
802.5145742621824
 30
0.0
 11
81.46201974095266
 21
402.5145742621406
 31
0.0
  0
LINE
  5
2FC
330
2F8
100
AcDbEntity
  8
C寸法
 62
     0
370
    -2
100
AcDbLine
 10
1031.462019741184
 20
762.515099895081
 30
0.0
 11
1031.462019741184
 21
402.5145742621406
 31
0.0
  0
LINE
  5
2FD
330
2F8
100
AcDbEntity
  8
C寸法
 62
     0
370
    -2
100
AcDbLine
 10
106.4620197409527
 20
402.5145742621406
 30
0.0
 11
1006.462019741184
 21
402.5145742621406
 31
0.0
  0
INSERT
  5
2FE
330
2F8
100
AcDbEntity
  8
C寸法
 62
     0
370
    -2
100
AcDbBlockReference
  2
_OPEN
 10
81.46201974095266
 20
402.5145742621406
 30
0.0
 41
25.0
 42
25.0
 43
25.0
 50
180.0
  0
INSERT
  5
2FF
330
2F8
100
AcDbEntity
  8
C寸法
 62
     0
370
    -2
100
AcDbBlockReference
  2
_OPEN
 10
1031.462019741184
 20
402.5145742621406
 30
0.0
 41
25.0
 42
25.0
 43
25.0
  0
MTEXT
  5
300
330
2F8
100
AcDbEntity
  8
C寸法
 62
     0
370
    13
100
AcDbMText
 10
556.4620197410685
 20
420.0145742621406
 30
0.0
 40
25.0
 41
0.0
 71
     5
 72
     1
  1
\A1;950
  7
KANJI
 73
     1
 44
1.0
  0
POINT
  5
301
330
2F8
100
AcDbEntity
  8
Defpoints
 62
     0
100
AcDbPoint
 10
81.46201974095268
 20
812.5145742621824
 30
0.0
  0
POINT
  5
302
330
2F8
100
AcDbEntity
  8
Defpoints
 62
     0
100
AcDbPoint
 10
1031.462019741184
 20
772.515099895081
 30
0.0
  0
POINT
  5
303
330
2F8
100
AcDbEntity
  8
Defpoints
 62
     0
100
AcDbPoint
 10
1031.462019741184
 20
402.5145742621406
 30
0.0
  0
ENDBLK
  5
2FA
330
2F8
100
AcDbEntity
  8
0
100
AcDbBlockEnd
  0
BLOCK
  5
305
330
304
100
AcDbEntity
  8
0
100
AcDbBlockBegin
  2
*D18
 70
     1
 10
0.0
 20
0.0
 30
0.0
  3
*D18
  1
*D18
  0
LINE
  5
307
330
304
100
AcDbEntity
  8
C寸法
 62
     0
370
    -2
100
AcDbLine
 10
1071.462019740953
 20
1072.514574262262
 30
0.0
 11
1311.462019740953
 21
1072.514574262262
 31
0.0
  0
LINE
  5
308
330
304
100
AcDbEntity
  8
C寸法
 62
     0
370
    -2
100
AcDbLine
 10
1071.462019740953
 20
552.5145742622624
 30
0.0
 11
1311.462019740953
 21
552.5145742622624
 31
0.0
  0
LINE
  5
309
330
304
100
AcDbEntity
  8
C寸法
 62
     0
370
    -2
100
AcDbLine
 10
1311.462019740953
 20
1047.514574262262
 30
0.0
 11
1311.462019740953
 21
577.5145742622624
 31
0.0
  0
INSERT
  5
30A
330
304
100
AcDbEntity
  8
C寸法
 62
     0
370
    -2
100
AcDbBlockReference
  2
_OPEN
 10
1311.462019740953
 20
1072.514574262262
 30
0.0
 41
25.0
 42
25.0
 43
25.0
 50
90.0
  0
INSERT
  5
30B
330
304
100
AcDbEntity
  8
C寸法
 62
     0
370
    -2
100
AcDbBlockReference
  2
_OPEN
 10
1311.462019740953
 20
552.5145742622624
 30
0.0
 41
25.0
 42
25.0
 43
25.0
 50
270.0
  0
MTEXT
  5
30C
330
304
100
AcDbEntity
  8
C寸法
 62
     0
370
    13
100
AcDbMText
 10
1293.962019740953
 20
812.5145742622624
 30
0.0
 40
25.0
 41
0.0
 71
     5
 72
     1
  1
\A1;520
  7
KANJI
 11
0.0
 21
1.0
 31
0.0
 73
     1
 44
1.0
  0
POINT
  5
30D
330
304
100
AcDbEntity
  8
Defpoints
 62
     0
100
AcDbPoint
 10
1061.462019740953
 20
1072.514574262262
 30
0.0
  0
POINT
  5
30E
330
304
100
AcDbEntity
  8
Defpoints
 62
     0
100
AcDbPoint
 10
1061.462019740953
 20
552.5145742622624
 30
0.0
  0
POINT
  5
30F
330
304
100
AcDbEntity
  8
Defpoints
 62
     0
100
AcDbPoint
 10
1311.462019740953
 20
552.5145742622624
 30
0.0
  0
ENDBLK
  5
306
330
304
100
AcDbEntity
  8
0
100
AcDbBlockEnd
  0
BLOCK
  5
311
330
310
100
AcDbEntity
  8
0
100
AcDbBlockBegin
  2
*D19
 70
     1
 10
0.0
 20
0.0
 30
0.0
  3
*D19
  1
*D19
  0
LINE
  5
313
330
310
100
AcDbEntity
  8
C寸法
 62
     0
370
    -2
100
AcDbLine
 10
991.7560655598304
 20
1072.514574262262
 30
0.0
 11
1261.462019740953
 21
1072.514574262262
 31
0.0
  0
LINE
  5
314
330
310
100
AcDbEntity
  8
C寸法
 62
     0
370
    -2
100
AcDbLine
 10
1071.462019740953
 20
992.5145742622624
 30
0.0
 11
1261.462019740953
 21
992.5145742622624
 31
0.0
  0
LINE
  5
315
330
310
100
AcDbEntity
  8
C寸法
 62
     0
370
    -2
100
AcDbLine
 10
1261.462019740953
 20
1047.514574262262
 30
0.0
 11
1261.462019740953
 21
1017.514574262262
 31
0.0
  0
INSERT
  5
316
330
310
100
AcDbEntity
  8
C寸法
 62
     0
370
    -2
100
AcDbBlockReference
  2
_OPEN
 10
1261.462019740953
 20
1072.514574262262
 30
0.0
 41
25.0
 42
25.0
 43
25.0
 50
90.0
  0
INSERT
  5
317
330
310
100
AcDbEntity
  8
C寸法
 62
     0
370
    -2
100
AcDbBlockReference
  2
_OPEN
 10
1261.462019740953
 20
992.5145742622624
 30
0.0
 41
25.0
 42
25.0
 43
25.0
 50
270.0
  0
MTEXT
  5
318
330
310
100
AcDbEntity
  8
C寸法
 62
     0
370
    13
100
AcDbMText
 10
1243.962019740953
 20
1032.514574262262
 30
0.0
 40
25.0
 41
0.0
 71
     5
 72
     1
  1
\A1;80
  7
KANJI
 11
0.0
 21
1.0
 31
0.0
 73
     1
 44
1.0
  0
POINT
  5
319
330
310
100
AcDbEntity
  8
Defpoints
 62
     0
100
AcDbPoint
 10
981.7560655598304
 20
1072.514574262262
 30
0.0
  0
POINT
  5
31A
330
310
100
AcDbEntity
  8
Defpoints
 62
     0
100
AcDbPoint
 10
1061.462019740953
 20
992.5145742622624
 30
0.0
  0
POINT
  5
31B
330
310
100
AcDbEntity
  8
Defpoints
 62
     0
100
AcDbPoint
 10
1261.462019740953
 20
992.5145742622624
 30
0.0
  0
ENDBLK
  5
312
330
310
100
AcDbEntity
  8
0
100
AcDbBlockEnd
  0
BLOCK
  5
31D
330
31C
100
AcDbEntity
  8
0
100
AcDbBlockBegin
  2
*D20
 70
     1
 10
0.0
 20
0.0
 30
0.0
  3
*D20
  1
*D20
  0
LINE
  5
31F
330
31C
100
AcDbEntity
  8
C寸法
 62
     0
370
    -2
100
AcDbLine
 10
1071.462019740953
 20
992.5145742622624
 30
0.0
 11
1261.462019740953
 21
992.5145742622624
 31
0.0
  0
LINE
  5
320
330
31C
100
AcDbEntity
  8
C寸法
 62
     0
370
    -2
100
AcDbLine
 10
1071.462019740953
 20
552.5145742622624
 30
0.0
 11
1261.462019740953
 21
552.5145742622624
 31
0.0
  0
LINE
  5
321
330
31C
100
AcDbEntity
  8
C寸法
 62
     0
370
    -2
100
AcDbLine
 10
1261.462019740953
 20
967.5145742622624
 30
0.0
 11
1261.462019740953
 21
577.5145742622624
 31
0.0
  0
INSERT
  5
322
330
31C
100
AcDbEntity
  8
C寸法
 62
     0
370
    -2
100
AcDbBlockReference
  2
_OPEN
 10
1261.462019740953
 20
992.5145742622624
 30
0.0
 41
25.0
 42
25.0
 43
25.0
 50
90.0
  0
INSERT
  5
323
330
31C
100
AcDbEntity
  8
C寸法
 62
     0
370
    -2
100
AcDbBlockReference
  2
_OPEN
 10
1261.462019740953
 20
552.5145742622624
 30
0.0
 41
25.0
 42
25.0
 43
25.0
 50
270.0
  0
MTEXT
  5
324
330
31C
100
AcDbEntity
  8
C寸法
 62
     0
370
    13
100
AcDbMText
 10
1243.962019740953
 20
772.5145742622624
 30
0.0
 40
25.0
 41
0.0
 71
     5
 72
     1
  1
\A1;440
  7
KANJI
 11
0.0
 21
1.0
 31
0.0
 73
     1
 44
1.0
  0
POINT
  5
325
330
31C
100
AcDbEntity
  8
Defpoints
 62
     0
100
AcDbPoint
 10
1061.462019740953
 20
992.5145742622624
 30
0.0
  0
POINT
  5
326
330
31C
100
AcDbEntity
  8
Defpoints
 62
     0
100
AcDbPoint
 10
1061.462019740953
 20
552.5145742622624
 30
0.0
  0
POINT
  5
327
330
31C
100
AcDbEntity
  8
Defpoints
 62
     0
100
AcDbPoint
 10
1261.462019740953
 20
552.5145742622624
 30
0.0
  0
ENDBLK
  5
31E
330
31C
100
AcDbEntity
  8
0
100
AcDbBlockEnd
  0
BLOCK
  5
329
330
328
100
AcDbEntity
  8
0
100
AcDbBlockBegin
  2
*D21
 70
     1
 10
0.0
 20
0.0
 30
0.0
  3
*D21
  1
*D21
  0
LINE
  5
32B
330
328
100
AcDbEntity
  8
C寸法
 62
     0
370
    -2
100
AcDbLine
 10
1071.462019740953
 20
977.5145742622624
 30
0.0
 11
1211.462019740953
 21
977.5145742622624
 31
0.0
  0
LINE
  5
32C
330
328
100
AcDbEntity
  8
C寸法
 62
     0
370
    -2
100
AcDbLine
 10
1071.462019740953
 20
567.5145742622624
 30
0.0
 11
1211.462019740953
 21
567.5145742622624
 31
0.0
  0
LINE
  5
32D
330
328
100
AcDbEntity
  8
C寸法
 62
     0
370
    -2
100
AcDbLine
 10
1211.462019740953
 20
952.5145742622624
 30
0.0
 11
1211.462019740953
 21
592.5145742622624
 31
0.0
  0
INSERT
  5
32E
330
328
100
AcDbEntity
  8
C寸法
 62
     0
370
    -2
100
AcDbBlockReference
  2
_OPEN
 10
1211.462019740953
 20
977.5145742622624
 30
0.0
 41
25.0
 42
25.0
 43
25.0
 50
90.0
  0
INSERT
  5
32F
330
328
100
AcDbEntity
  8
C寸法
 62
     0
370
    -2
100
AcDbBlockReference
  2
_OPEN
 10
1211.462019740953
 20
567.5145742622624
 30
0.0
 41
25.0
 42
25.0
 43
25.0
 50
270.0
  0
MTEXT
  5
330
330
328
100
AcDbEntity
  8
C寸法
 62
     0
370
    13
100
AcDbMText
 10
1193.962019740953
 20
772.5145742622624
 30
0.0
 40
25.0
 41
0.0
 71
     5
 72
     1
  1
\A1;410
  7
KANJI
 11
0.0
 21
1.0
 31
0.0
 73
     1
 44
1.0
  0
POINT
  5
331
330
328
100
AcDbEntity
  8
Defpoints
 62
     0
100
AcDbPoint
 10
1061.462019740953
 20
977.5145742622624
 30
0.0
  0
POINT
  5
332
330
328
100
AcDbEntity
  8
Defpoints
 62
     0
100
AcDbPoint
 10
1061.462019740953
 20
567.5145742622624
 30
0.0
  0
POINT
  5
333
330
328
100
AcDbEntity
  8
Defpoints
 62
     0
100
AcDbPoint
 10
1211.462019740953
 20
567.5145742622624
 30
0.0
  0
ENDBLK
  5
32A
330
328
100
AcDbEntity
  8
0
100
AcDbBlockEnd
  0
BLOCK
  5
335
330
334
100
AcDbEntity
  8
0
100
AcDbBlockBegin
  2
*D22
 70
     1
 10
0.0
 20
0.0
 30
0.0
  3
*D22
  1
*D22
  0
LINE
  5
337
330
334
100
AcDbEntity
  8
C寸法
 62
     0
370
    -2
100
AcDbLine
 10
566.4722975056048
 20
977.5145742547527
 30
0.0
 11
1211.462019740953
 21
977.5145742547527
 31
0.0
  0
LINE
  5
338
330
334
100
AcDbEntity
  8
C寸法
 62
     0
370
    -2
100
AcDbLine
 10
870.9703813571764
 20
992.5145742622369
 30
0.0
 11
1211.462019740953
 21
992.5145742622369
 31
0.0
  0
LINE
  5
339
330
334
100
AcDbEntity
  8
C寸法
 62
     0
370
    -2
100
AcDbLine
 10
1211.462019740953
 20
977.5145742547527
 30
0.0
 11
1211.462019740953
 21
880.4238004452288
 31
0.0
  0
LINE
  5
33A
330
334
100
AcDbEntity
  8
C寸法
 62
     0
370
    -2
100
AcDbLine
 10
1211.462019740953
 20
977.5145742547527
 30
0.0
 11
1211.462019740953
 21
992.5145742622369
 31
0.0
  0
LINE
  5
33B
330
334
100
AcDbEntity
  8
C寸法
 62
     0
370
    -2
100
AcDbLine
 10
1211.462019740953
 20
952.5145742547527
 30
0.0
 11
1211.462019740953
 21
927.5145742547527
 31
0.0
  0
LINE
  5
33C
330
334
100
AcDbEntity
  8
C寸法
 62
     0
370
    -2
100
AcDbLine
 10
1211.462019740953
 20
1017.514574262237
 30
0.0
 11
1211.462019740953
 21
1042.514574262237
 31
0.0
  0
INSERT
  5
33D
330
334
100
AcDbEntity
  8
C寸法
 62
     0
370
    -2
100
AcDbBlockReference
  2
_OPEN
 10
1211.462019740953
 20
977.5145742547527
 30
0.0
 41
25.0
 42
25.0
 43
25.0
 50
90.0
  0
INSERT
  5
33E
330
334
100
AcDbEntity
  8
C寸法
 62
     0
370
    -2
100
AcDbBlockReference
  2
_OPEN
 10
1211.462019740953
 20
992.5145742622369
 30
0.0
 41
25.0
 42
25.0
 43
25.0
 50
270.0
  0
MTEXT
  5
33F
330
334
100
AcDbEntity
  8
C寸法
 62
     0
370
    13
100
AcDbMText
 10
1193.962019740953
 20
903.9691873499908
 30
0.0
 40
25.0
 41
0.0
 71
     5
 72
     1
  1
\A1;15
  7
KANJI
 11
0.0
 21
1.0
 31
0.0
 73
     1
 44
1.0
  0
POINT
  5
340
330
334
100
AcDbEntity
  8
Defpoints
 62
     0
100
AcDbPoint
 10
556.4722975056048
 20
977.5145742547527
 30
0.0
  0
POINT
  5
341
330
334
100
AcDbEntity
  8
Defpoints
 62
     0
100
AcDbPoint
 10
860.9703813571764
 20
992.5145742622369
 30
0.0
  0
POINT
  5
342
330
334
100
AcDbEntity
  8
Defpoints
 62
     0
100
AcDbPoint
 10
1211.462019740953
 20
992.5145742622369
 30
0.0
  0
ENDBLK
  5
336
330
334
100
AcDbEntity
  8
0
100
AcDbBlockEnd
  0
BLOCK
  5
344
330
343
100
AcDbEntity
  8
0
100
AcDbBlockBegin
  2
*D23
 70
     1
 10
0.0
 20
0.0
 30
0.0
  3
*D23
  1
*D23
  0
LINE
  5
346
330
343
100
AcDbEntity
  8
C寸法
 62
     0
370
    -2
100
AcDbLine
 10
566.463019741115
 20
567.514574262105
 30
0.0
 11
1211.462019740953
 21
567.514574262105
 31
0.0
  0
LINE
  5
347
330
343
100
AcDbEntity
  8
C寸法
 62
     0
370
    -2
100
AcDbLine
 10
566.4620197411128
 20
552.514574262264
 30
0.0
 11
1211.462019740953
 21
552.514574262264
 31
0.0
  0
LINE
  5
348
330
343
100
AcDbEntity
  8
C寸法
 62
     0
370
    -2
100
AcDbLine
 10
1211.462019740953
 20
552.514574262264
 30
0.0
 11
1211.462019740953
 21
455.4238004527401
 31
0.0
  0
LINE
  5
349
330
343
100
AcDbEntity
  8
C寸法
 62
     0
370
    -2
100
AcDbLine
 10
1211.462019740953
 20
567.514574262105
 30
0.0
 11
1211.462019740953
 21
552.514574262264
 31
0.0
  0
LINE
  5
34A
330
343
100
AcDbEntity
  8
C寸法
 62
     0
370
    -2
100
AcDbLine
 10
1211.462019740953
 20
592.514574262105
 30
0.0
 11
1211.462019740953
 21
617.514574262105
 31
0.0
  0
LINE
  5
34B
330
343
100
AcDbEntity
  8
C寸法
 62
     0
370
    -2
100
AcDbLine
 10
1211.462019740953
 20
527.514574262264
 30
0.0
 11
1211.462019740953
 21
502.514574262264
 31
0.0
  0
INSERT
  5
34C
330
343
100
AcDbEntity
  8
C寸法
 62
     0
370
    -2
100
AcDbBlockReference
  2
_OPEN
 10
1211.462019740953
 20
567.514574262105
 30
0.0
 41
25.0
 42
25.0
 43
25.0
 50
270.0
  0
INSERT
  5
34D
330
343
100
AcDbEntity
  8
C寸法
 62
     0
370
    -2
100
AcDbBlockReference
  2
_OPEN
 10
1211.462019740953
 20
552.514574262264
 30
0.0
 41
25.0
 42
25.0
 43
25.0
 50
90.0
  0
MTEXT
  5
34E
330
343
100
AcDbEntity
  8
C寸法
 62
     0
370
    13
100
AcDbMText
 10
1193.962019740953
 20
478.9691873575021
 30
0.0
 40
25.0
 41
0.0
 71
     5
 72
     1
  1
\A1;15
  7
KANJI
 11
0.0
 21
1.0
 31
0.0
 73
     1
 44
1.0
  0
POINT
  5
34F
330
343
100
AcDbEntity
  8
Defpoints
 62
     0
100
AcDbPoint
 10
556.463019741115
 20
567.514574262105
 30
0.0
  0
POINT
  5
350
330
343
100
AcDbEntity
  8
Defpoints
 62
     0
100
AcDbPoint
 10
556.4620197411128
 20
552.514574262264
 30
0.0
  0
POINT
  5
351
330
343
100
AcDbEntity
  8
Defpoints
 62
     0
100
AcDbPoint
 10
1211.462019740953
 20
552.514574262264
 30
0.0
  0
ENDBLK
  5
345
330
343
100
AcDbEntity
  8
0
100
AcDbBlockEnd
  0
BLOCK
  5
353
330
352
100
AcDbEntity
  8
0
100
AcDbBlockBegin
  2
*D24
 70
     1
 10
0.0
 20
0.0
 30
0.0
  3
*D24
  1
*D24
  0
LINE
  5
355
330
352
100
AcDbEntity
  8
C寸法
 62
     0
370
    -2
100
AcDbLine
 10
1071.462019740953
 20
977.5145742622624
 30
0.0
 11
1161.462019740953
 21
977.5145742622624
 31
0.0
  0
LINE
  5
356
330
352
100
AcDbEntity
  8
C寸法
 62
     0
370
    -2
100
AcDbLine
 10
1069.784267328238
 20
827.5145742621862
 30
0.0
 11
1161.462019740953
 21
827.5145742621862
 31
0.0
  0
LINE
  5
357
330
352
100
AcDbEntity
  8
C寸法
 62
     0
370
    -2
100
AcDbLine
 10
1161.462019740953
 20
952.5145742622624
 30
0.0
 11
1161.462019740953
 21
852.5145742621862
 31
0.0
  0
INSERT
  5
358
330
352
100
AcDbEntity
  8
C寸法
 62
     0
370
    -2
100
AcDbBlockReference
  2
_OPEN
 10
1161.462019740953
 20
977.5145742622624
 30
0.0
 41
25.0
 42
25.0
 43
25.0
 50
90.0
  0
INSERT
  5
359
330
352
100
AcDbEntity
  8
C寸法
 62
     0
370
    -2
100
AcDbBlockReference
  2
_OPEN
 10
1161.462019740953
 20
827.5145742621862
 30
0.0
 41
25.0
 42
25.0
 43
25.0
 50
270.0
  0
MTEXT
  5
35A
330
352
100
AcDbEntity
  8
C寸法
 62
     0
370
    13
100
AcDbMText
 10
1143.962019740953
 20
902.5145742622243
 30
0.0
 40
25.0
 41
0.0
 71
     5
 72
     1
  1
\A1;150
  7
KANJI
 11
0.0
 21
1.0
 31
0.0
 73
     1
 44
1.0
  0
POINT
  5
35B
330
352
100
AcDbEntity
  8
Defpoints
 62
     0
100
AcDbPoint
 10
1061.462019740953
 20
977.5145742622624
 30
0.0
  0
POINT
  5
35C
330
352
100
AcDbEntity
  8
Defpoints
 62
     0
100
AcDbPoint
 10
1059.784267328238
 20
827.5145742621862
 30
0.0
  0
POINT
  5
35D
330
352
100
AcDbEntity
  8
Defpoints
 62
     0
100
AcDbPoint
 10
1161.462019740953
 20
827.5145742621862
 30
0.0
  0
ENDBLK
  5
354
330
352
100
AcDbEntity
  8
0
100
AcDbBlockEnd
  0
BLOCK
  5
35F
330
35E
100
AcDbEntity
  8
0
100
AcDbBlockBegin
  2
*D25
 70
     1
 10
0.0
 20
0.0
 30
0.0
  3
*D25
  1
*D25
  0
LINE
  5
361
330
35E
100
AcDbEntity
  8
C寸法
 62
     0
370
    -2
100
AcDbLine
 10
1071.461019740956
 20
318.2145742621026
 30
0.0
 11
1211.461019740956
 21
318.2145742621026
 31
0.0
  0
LINE
  5
362
330
35E
100
AcDbEntity
  8
C寸法
 62
     0
370
    -2
100
AcDbLine
 10
645.9610197411453
 20
128.2145742621022
 30
0.0
 11
1211.461019740956
 21
128.2145742621022
 31
0.0
  0
LINE
  5
363
330
35E
100
AcDbEntity
  8
C寸法
 62
     0
370
    -2
100
AcDbLine
 10
1211.461019740956
 20
293.2145742621026
 30
0.0
 11
1211.461019740956
 21
153.2145742621022
 31
0.0
  0
INSERT
  5
364
330
35E
100
AcDbEntity
  8
C寸法
 62
     0
370
    -2
100
AcDbBlockReference
  2
_OPEN
 10
1211.461019740956
 20
318.2145742621026
 30
0.0
 41
25.0
 42
25.0
 43
25.0
 50
90.0
  0
INSERT
  5
365
330
35E
100
AcDbEntity
  8
C寸法
 62
     0
370
    -2
100
AcDbBlockReference
  2
_OPEN
 10
1211.461019740956
 20
128.2145742621022
 30
0.0
 41
25.0
 42
25.0
 43
25.0
 50
270.0
  0
MTEXT
  5
366
330
35E
100
AcDbEntity
  8
C寸法
 62
     0
370
    13
100
AcDbMText
 10
1193.961019740956
 20
223.2145742621024
 30
0.0
 40
25.0
 41
0.0
 71
     5
 72
     1
  1
\A1;190
  7
KANJI
 11
0.0
 21
1.0
 31
0.0
 73
     1
 44
1.0
  0
POINT
  5
367
330
35E
100
AcDbEntity
  8
Defpoints
 62
     0
100
AcDbPoint
 10
1061.461019740956
 20
318.2145742621026
 30
0.0
  0
POINT
  5
368
330
35E
100
AcDbEntity
  8
Defpoints
 62
     0
100
AcDbPoint
 10
635.9610197411453
 20
128.2145742621022
 30
0.0
  0
POINT
  5
369
330
35E
100
AcDbEntity
  8
Defpoints
 62
     0
100
AcDbPoint
 10
1211.461019740956
 20
128.2145742621022
 30
0.0
  0
ENDBLK
  5
360
330
35E
100
AcDbEntity
  8
0
100
AcDbBlockEnd
  0
BLOCK
  5
36B
330
36A
100
AcDbEntity
  8
0
100
AcDbBlockBegin
  2
*D26
 70
     1
 10
0.0
 20
0.0
 30
0.0
  3
*D26
  1
*D26
  0
LINE
  5
36D
330
36A
100
AcDbEntity
  8
C寸法
 62
     0
370
    -2
100
AcDbLine
 10
607.6842783169816
 20
1032.514574262372
 30
0.0
 11
1161.462019740953
 21
1032.514574262372
 31
0.0
  0
LINE
  5
36E
330
36A
100
AcDbEntity
  8
C寸法
 62
     0
370
    -2
100
AcDbLine
 10
935.7089275821113
 20
1072.514574262262
 30
0.0
 11
1161.462019740953
 21
1072.514574262262
 31
0.0
  0
LINE
  5
36F
330
36A
100
AcDbEntity
  8
C寸法
 62
     0
370
    -2
100
AcDbLine
 10
1161.462019740953
 20
1097.514574262262
 30
0.0
 11
1161.462019740953
 21
1172.990764738453
 31
0.0
  0
LINE
  5
370
330
36A
100
AcDbEntity
  8
C寸法
 62
     0
370
    -2
100
AcDbLine
 10
1161.462019740953
 20
1032.514574262372
 30
0.0
 11
1161.462019740953
 21
1072.514574262262
 31
0.0
  0
LINE
  5
371
330
36A
100
AcDbEntity
  8
C寸法
 62
     0
370
    -2
100
AcDbLine
 10
1161.462019740953
 20
1007.514574262372
 30
0.0
 11
1161.462019740953
 21
982.5145742623715
 31
0.0
  0
INSERT
  5
372
330
36A
100
AcDbEntity
  8
C寸法
 62
     0
370
    -2
100
AcDbBlockReference
  2
_OPEN
 10
1161.462019740953
 20
1032.514574262372
 30
0.0
 41
25.0
 42
25.0
 43
25.0
 50
90.0
  0
INSERT
  5
373
330
36A
100
AcDbEntity
  8
C寸法
 62
     0
370
    -2
100
AcDbBlockReference
  2
_OPEN
 10
1161.462019740953
 20
1072.514574262262
 30
0.0
 41
25.0
 42
25.0
 43
25.0
 50
270.0
  0
MTEXT
  5
374
330
36A
100
AcDbEntity
  8
C寸法
 62
     0
370
    13
100
AcDbMText
 10
1143.962019740953
 20
1147.752669500358
 30
0.0
 40
25.0
 41
0.0
 71
     5
 72
     1
  1
\A1;40
  7
KANJI
 11
0.0
 21
1.0
 31
0.0
 73
     1
 44
1.0
  0
POINT
  5
375
330
36A
100
AcDbEntity
  8
Defpoints
 62
     0
100
AcDbPoint
 10
597.6842783169816
 20
1032.514574262372
 30
0.0
  0
POINT
  5
376
330
36A
100
AcDbEntity
  8
Defpoints
 62
     0
100
AcDbPoint
 10
925.7089275821113
 20
1072.514574262262
 30
0.0
  0
POINT
  5
377
330
36A
100
AcDbEntity
  8
Defpoints
 62
     0
100
AcDbPoint
 10
1161.462019740953
 20
1072.514574262262
 30
0.0
  0
ENDBLK
  5
36C
330
36A
100
AcDbEntity
  8
0
100
AcDbBlockEnd
  0
BLOCK
  5
379
330
378
100
AcDbEntity
  8
0
100
AcDbBlockBegin
  2
*D27
 70
     1
 10
0.0
 20
0.0
 30
0.0
  3
*D27
  1
*D27
  0
LINE
  5
37B
330
378
100
AcDbEntity
  8
C寸法
 62
     0
370
    -2
100
AcDbLine
 10
1047.074927901835
 20
318.2145742621026
 30
0.0
 11
1161.461019740956
 21
318.2145742621026
 31
0.0
  0
LINE
  5
37C
330
378
100
AcDbEntity
  8
C寸法
 62
     0
370
    -2
100
AcDbLine
 10
1029.747680805888
 20
303.2145742620988
 30
0.0
 11
1161.461019740956
 21
303.2145742620988
 31
0.0
  0
LINE
  5
37D
330
378
100
AcDbEntity
  8
C寸法
 62
     0
370
    -2
100
AcDbLine
 10
1161.461019740956
 20
278.2145742620988
 30
0.0
 11
1161.461019740956
 21
206.1238004525749
 31
0.0
  0
LINE
  5
37E
330
378
100
AcDbEntity
  8
C寸法
 62
     0
370
    -2
100
AcDbLine
 10
1161.461019740956
 20
318.2145742621026
 30
0.0
 11
1161.461019740956
 21
303.2145742620988
 31
0.0
  0
LINE
  5
37F
330
378
100
AcDbEntity
  8
C寸法
 62
     0
370
    -2
100
AcDbLine
 10
1161.461019740956
 20
343.2145742621026
 30
0.0
 11
1161.461019740956
 21
368.2145742621026
 31
0.0
  0
INSERT
  5
380
330
378
100
AcDbEntity
  8
C寸法
 62
     0
370
    -2
100
AcDbBlockReference
  2
_OPEN
 10
1161.461019740956
 20
318.2145742621026
 30
0.0
 41
25.0
 42
25.0
 43
25.0
 50
270.0
  0
INSERT
  5
381
330
378
100
AcDbEntity
  8
C寸法
 62
     0
370
    -2
100
AcDbBlockReference
  2
_OPEN
 10
1161.461019740956
 20
303.2145742620988
 30
0.0
 41
25.0
 42
25.0
 43
25.0
 50
90.0
  0
MTEXT
  5
382
330
378
100
AcDbEntity
  8
C寸法
 62
     0
370
    13
100
AcDbMText
 10
1143.961019740956
 20
229.6691873573369
 30
0.0
 40
25.0
 41
0.0
 71
     5
 72
     1
  1
\A1;15
  7
KANJI
 11
0.0
 21
1.0
 31
0.0
 73
     1
 44
1.0
  0
POINT
  5
383
330
378
100
AcDbEntity
  8
Defpoints
 62
     0
100
AcDbPoint
 10
1037.074927901835
 20
318.2145742621026
 30
0.0
  0
POINT
  5
384
330
378
100
AcDbEntity
  8
Defpoints
 62
     0
100
AcDbPoint
 10
1019.747680805888
 20
303.2145742620988
 30
0.0
  0
POINT
  5
385
330
378
100
AcDbEntity
  8
Defpoints
 62
     0
100
AcDbPoint
 10
1161.461019740956
 20
303.2145742620988
 30
0.0
  0
ENDBLK
  5
37A
330
378
100
AcDbEntity
  8
0
100
AcDbBlockEnd
  0
BLOCK
  5
387
330
386
100
AcDbEntity
  8
0
100
AcDbBlockBegin
  2
*D28
 70
     1
 10
0.0
 20
0.0
 30
0.0
  3
*D28
  1
*D28
  0
LINE
  5
389
330
386
100
AcDbEntity
  8
C寸法
 62
     0
370
    -2
100
AcDbLine
 10
646.9620197411408
 20
817.5075742621918
 30
0.0
 11
646.9620197411408
 21
667.5362130390315
 31
0.0
  0
LINE
  5
38A
330
386
100
AcDbEntity
  8
C寸法
 62
     0
370
    -2
100
AcDbLine
 10
466.1516879703325
 20
817.2617469763227
 30
0.0
 11
466.1516879703325
 21
667.5362130390315
 31
0.0
  0
LINE
  5
38B
330
386
100
AcDbEntity
  8
C寸法
 62
     0
370
    -2
100
AcDbLine
 10
621.9620197411408
 20
667.5362130390315
 30
0.0
 11
491.1516879703325
 21
667.5362130390315
 31
0.0
  0
INSERT
  5
38C
330
386
100
AcDbEntity
  8
C寸法
 62
     0
370
    -2
100
AcDbBlockReference
  2
_OPEN
 10
646.9620197411408
 20
667.5362130390315
 30
0.0
 41
25.0
 42
25.0
 43
25.0
  0
INSERT
  5
38D
330
386
100
AcDbEntity
  8
C寸法
 62
     0
370
    -2
100
AcDbBlockReference
  2
_OPEN
 10
466.1516879703325
 20
667.5362130390315
 30
0.0
 41
25.0
 42
25.0
 43
25.0
 50
180.0
  0
MTEXT
  5
38E
330
386
100
AcDbEntity
  8
C寸法
 62
     0
370
    13
100
AcDbMText
 10
570.6382769656233
 20
685.0362130390315
 30
0.0
 40
25.0
 41
0.0
 71
     5
 72
     1
  1
\A1;Φ181
  7
KANJI
 73
     1
 44
1.0
  0
POINT
  5
38F
330
386
100
AcDbEntity
  8
Defpoints
 62
     0
100
AcDbPoint
 10
646.9620197411408
 20
827.5075742621918
 30
0.0
  0
POINT
  5
390
330
386
100
AcDbEntity
  8
Defpoints
 62
     0
100
AcDbPoint
 10
466.1516879703325
 20
827.2617469763227
 30
0.0
  0
POINT
  5
391
330
386
100
AcDbEntity
  8
Defpoints
 62
     0
100
AcDbPoint
 10
466.1516879703325
 20
667.5362130390315
 30
0.0
  0
ENDBLK
  5
388
330
386
100
AcDbEntity
  8
0
100
AcDbBlockEnd
  0
BLOCK
  5
398
330
397
100
AcDbEntity
  8
0
100
AcDbBlockBegin
  2
*D29
 70
     1
 10
0.0
 20
0.0
 30
0.0
  3
*D29
  1
*D29
  0
LINE
  5
39A
330
397
100
AcDbEntity
  8
0
 62
     0
370
    -2
100
AcDbLine
 10
122.8660136364512
 20
632.2289304359334
 30
0.0
 11
240.8120797342947
 21
716.3617294128786
 31
0.0
  0
MTEXT
  5
39B
330
397
100
AcDbEntity
  8
0
 62
     0
370
    13
100
AcDbMText
 10
167.9439597468606
 20
685.8796966221182
 30
0.0
 40
25.0
 41
0.0
 71
     5
 72
     1
  1
4-R100
  7
KANJI
 11
0.8141067480604528
 21
0.5807152510158782
 31
0.0
 73
     1
 44
1.0
  0
INSERT
  5
39C
330
397
100
AcDbEntity
  8
0
 62
     0
370
    -2
100
AcDbBlockReference
  2
_OPEN
 10
102.5133449349399
 20
617.7110491605365
 30
0.0
 41
25.0
 42
25.0
 43
25.0
 50
215.500865322991
  0
POINT
  5
39D
330
397
100
AcDbEntity
  8
Defpoints
 62
     0
100
AcDbPoint
 10
102.5133449349399
 20
617.7110491605365
 30
0.0
  0
POINT
  5
39E
330
397
100
AcDbEntity
  8
Defpoints
 62
     0
100
AcDbPoint
 10
183.9240197410104
 20
675.7825742621424
 30
0.0
  0
ENDBLK
  5
399
330
397
100
AcDbEntity
  8
0
100
AcDbBlockEnd
  0
BLOCK
  5
3A3
330
3A2
100
AcDbEntity
  8
0
100
AcDbBlockBegin
  2
*D30
 70
     1
 10
0.0
 20
0.0
 30
0.0
  3
*D30
  1
*D30
  0
LINE
  5
3A5
330
3A2
100
AcDbEntity
  8
0
 62
     0
370
    -2
100
AcDbLine
 10
98.93750938320267
 20
571.4412323109957
 30
0.0
 11
265.8781316734026
 21
680.5181982649771
 31
0.0
  0
MTEXT
  5
3A6
330
3A2
100
AcDbEntity
  8
0
 62
     0
370
    13
100
AcDbMText
 10
201.7918661833119
 20
659.5493895638277
 30
0.0
 40
25.0
 41
0.0
 71
     5
 72
     1
  1
4-R60
  7
KANJI
 11
0.8371453213027003
 21
0.5469805398924158
 31
0.0
 73
     1
 44
1.0
  0
INSERT
  5
3A7
330
3A2
100
AcDbEntity
  8
0
 62
     0
370
    -2
100
AcDbBlockReference
  2
_OPEN
 10
98.93750938320267
 20
571.4412323109957
 30
0.0
 41
25.0
 42
25.0
 43
25.0
 50
213.1601109772745
  0
POINT
  5
3A8
330
3A2
100
AcDbEntity
  8
Defpoints
 62
     0
100
AcDbPoint
 10
98.93750938320267
 20
571.4412323109957
 30
0.0
  0
POINT
  5
3A9
330
3A2
100
AcDbEntity
  8
Defpoints
 62
     0
100
AcDbPoint
 10
149.1662286613802
 20
604.2600647045508
 30
0.0
  0
ENDBLK
  5
3A4
330
3A2
100
AcDbEntity
  8
0
100
AcDbBlockEnd
  0
BLOCK
  5
3B0
330
3AF
100
AcDbEntity
  8
0
100
AcDbBlockBegin
  2
*D31
 70
     1
 10
0.0
 20
0.0
 30
0.0
  3
*D31
  1
*D31
  0
LINE
  5
3B2
330
3AF
100
AcDbEntity
  8
0
 62
     0
370
    -2
100
AcDbLine
 10
103.6697053414416
 20
1059.116515984972
 30
0.0
 11
276.2843220591062
 21
846.2643412352438
 31
0.0
  0
MTEXT
  5
3B3
330
3AF
100
AcDbEntity
  8
0
 62
     0
370
    13
100
AcDbMText
 10
248.8598963779489
 20
907.8650006381307
 30
0.0
 40
25.0
 41
0.0
 71
     5
 72
     1
  1
2-R60
  7
KANJI
 11
0.62987190665881
 21
-0.7766990287118912
 31
0.0
 73
     1
 44
1.0
  0
INSERT
  5
3B4
330
3AF
100
AcDbEntity
  8
0
 62
     0
370
    -2
100
AcDbBlockReference
  2
_OPEN
 10
103.6697053414416
 20
1059.116515984972
 30
0.0
 41
25.0
 42
25.0
 43
25.0
 50
129.0406726740475
  0
POINT
  5
3B5
330
3AF
100
AcDbEntity
  8
Defpoints
 62
     0
100
AcDbPoint
 10
103.6697053414416
 20
1059.116515984972
 30
0.0
  0
POINT
  5
3B6
330
3AF
100
AcDbEntity
  8
Defpoints
 62
     0
100
AcDbPoint
 10
141.4620197409818
 20
1012.514574262244
 30
0.0
  0
ENDBLK
  5
3B1
330
3AF
100
AcDbEntity
  8
0
100
AcDbBlockEnd
  0
BLOCK
  5
3D3
330
3D2
100
AcDbEntity
  8
0
100
AcDbBlockBegin
  2
*D34
 70
     1
 10
0.0
 20
0.0
 30
0.0
  3
*D34
  1
*D34
  0
LINE
  5
3D5
330
3D2
100
AcDbEntity
  8
0
 62
     0
370
    -2
100
AcDbLine
 10
539.0094845746011
 20
1032.463018749028
 30
0.0
 11
539.0094845746011
 21
1123.66903522588
 31
0.0
  0
LINE
  5
3D6
330
3D2
100
AcDbEntity
  8
0
 62
     0
370
    -2
100
AcDbLine
 10
574.7790259907367
 20
1032.463018749028
 30
0.0
 11
574.7790259907367
 21
1123.66903522588
 31
0.0
  0
LINE
  5
3D7
330
3D2
100
AcDbEntity
  8
0
 62
     0
370
    -2
100
AcDbLine
 10
574.7790259907367
 20
1122.41903522588
 30
0.0
 11
788.6480736097844
 21
1122.41903522588
 31
0.0
  0
LINE
  5
3D8
330
3D2
100
AcDbEntity
  8
0
 62
     0
370
    -2
100
AcDbLine
 10
539.0094845746011
 20
1122.41903522588
 30
0.0
 11
574.7790259907367
 21
1122.41903522588
 31
0.0
  0
LINE
  5
3D9
330
3D2
100
AcDbEntity
  8
0
 62
     0
370
    -2
100
AcDbLine
 10
514.0094845746011
 20
1122.41903522588
 30
0.0
 11
489.0094845746011
 21
1122.41903522588
 31
0.0
  0
LINE
  5
3DA
330
3D2
100
AcDbEntity
  8
0
 62
     0
370
    -2
100
AcDbLine
 10
599.7790259907367
 20
1122.41903522588
 30
0.0
 11
624.7790259907367
 21
1122.41903522588
 31
0.0
  0
INSERT
  5
3DB
330
3D2
100
AcDbEntity
  8
0
 62
     0
370
    -2
100
AcDbBlockReference
  2
_OPEN
 10
539.0094845746011
 20
1122.41903522588
 30
0.0
 41
25.0
 42
25.0
 43
25.0
  0
INSERT
  5
3DC
330
3D2
100
AcDbEntity
  8
0
 62
     0
370
    -2
100
AcDbBlockReference
  2
_OPEN
 10
574.7790259907367
 20
1122.41903522588
 30
0.0
 41
25.0
 42
25.0
 43
25.0
 50
180.0
  0
MTEXT
  5
3DD
330
3D2
100
AcDbEntity
  8
0
 62
     0
370
    13
100
AcDbMText
 10
706.7135498002606
 20
1139.91903522588
 30
0.0
 40
25.0
 41
0.0
 71
     5
 72
     1
  1
Φ36水栓穴
  7
KANJI
 73
     1
 44
1.0
  0
POINT
  5
3DE
330
3D2
100
AcDbEntity
  8
Defpoints
 62
     0
100
AcDbPoint
 10
539.0094845746011
 20
1031.838018749028
 30
0.0
  0
POINT
  5
3DF
330
3D2
100
AcDbEntity
  8
Defpoints
 62
     0
100
AcDbPoint
 10
574.7790259907367
 20
1031.838018749028
 30
0.0
  0
POINT
  5
3E0
330
3D2
100
AcDbEntity
  8
Defpoints
 62
     0
100
AcDbPoint
 10
574.7790259907367
 20
1122.41903522588
 30
0.0
  0
ENDBLK
  5
3D4
330
3D2
100
AcDbEntity
  8
0
100
AcDbBlockEnd
  0
ENDSEC
  0
SECTION
  2
ENTITIES
  0
TEXT
  5
256
330
1F
100
AcDbEntity
  8
C寸法
 62
     7
100
AcDbText
 10
1294.023005002158
 20
140.5323025345069
 30
0.0
 40
30.0
  1
品　番　：N950BI 寸法図
  7
KANJI
100
AcDbText
  0
LINE
  5
257
330
1F
100
AcDbEntity
  8
0
 62
     7
100
AcDbLine
 10
1289.472032557007
 20
128.7386704020201
 30
0.0
 11
1750.702659128596
 21
128.7386704020201
 31
0.0
  0
TEXT
  5
258
330
1F
100
AcDbEntity
  8
C寸法
 62
     7
100
AcDbText
 10
1334.935943148873
 20
91.85414060899063
 30
0.0
 40
25.0
  1
※詳細はお問合せください
  7
KANJI
100
AcDbText
  0
LWPOLYLINE
  5
259
330
1F
100
AcDbEntity
  8
0
 62
     7
100
AcDbPolyline
 90
        4
 70
     1
 43
0.0
 10
4.187561697926895
 20
1205.594570650022
 10
4.187561697926895
 20
4.046082742528881
 10
1804.243220940473
 20
4.046082742528881
 10
1804.243220940473
 20
1205.594570650022
  0
LINE
  5
25A
330
1F
100
AcDbEntity
  8
C4
 62
     7
100
AcDbLine
 10
141.4620197409818
 20
537.514574262095
 30
0.0
 11
971.4600197412506
 21
537.514574262095
 31
0.0
  0
LINE
  5
25B
330
1F
100
AcDbEntity
  8
C2
  6
CENTER
 62
     7
 48
20.0
370
    13
100
AcDbLine
 10
556.4620197411127
 20
499.0765742620859
 30
0.0
 11
556.4620197411145
 21
1108.154574262444
 31
0.0
  0
LINE
  5
25E
330
1F
100
AcDbEntity
  8
C4
 62
     7
100
AcDbLine
 10
971.4600197412506
 20
1087.514574262266
 30
0.0
 11
141.4620197409818
 21
1087.514574262266
 31
0.0
  0
LINE
  5
25F
330
1F
100
AcDbEntity
  8
C4
 62
     7
100
AcDbLine
 10
971.4600197412506
 20
1072.514574262262
 30
0.0
 11
141.4620197409818
 21
1072.514574262262
 31
0.0
  0
LINE
  5
262
330
1F
100
AcDbEntity
  8
C4
 62
     7
100
AcDbLine
 10
1046.46001974128
 20
612.5145742621205
 30
0.0
 11
1046.46001974128
 21
1012.514574262244
 31
0.0
  0
LINE
  5
263
330
1F
100
AcDbEntity
  8
C4
 62
     7
100
AcDbLine
 10
66.46201974095268
 20
612.5145742621205
 30
0.0
 11
66.46201974095268
 21
1012.514574262244
 31
0.0
  0
LINE
  5
264
330
1F
100
AcDbEntity
  8
C4
 62
     7
100
AcDbLine
 10
141.4620197409818
 20
552.5145742621023
 30
0.0
 11
971.4600197412506
 21
552.5145742621023
 31
0.0
  0
LINE
  5
265
330
1F
100
AcDbEntity
  8
C4
 62
     7
100
AcDbLine
 10
971.4600197412506
 20
992.5145742622369
 30
0.0
 11
141.4620197409818
 21
992.5145742622369
 31
0.0
  0
LINE
  5
266
330
1F
100
AcDbEntity
  8
C4
 62
     7
100
AcDbLine
 10
81.46201974095268
 20
612.5145742621205
 30
0.0
 11
81.46201974095268
 21
1012.514574262244
 31
0.0
  0
LINE
  5
267
330
1F
100
AcDbEntity
  8
C4
 62
     7
100
AcDbLine
 10
1031.460019741265
 20
612.5145742621205
 30
0.0
 11
1031.460019741265
 21
1012.514574262244
 31
0.0
  0
LINE
  5
268
330
1F
100
AcDbEntity
  8
C2
  6
CENTER
 62
     7
 48
20.0
370
    13
100
AcDbLine
 10
50.71783255171101
 20
827.5145742621858
 30
0.0
 11
1060.859073260213
 21
827.5145742621862
 31
0.0
  0
LINE
  5
269
330
1F
100
AcDbEntity
  8
C4
 62
     7
100
AcDbLine
 10
1002.249019741262
 20
137.5175742620477
 30
0.0
 11
649.3960197411575
 21
128.2785742620463
 31
0.0
  0
LINE
  5
26A
330
1F
100
AcDbEntity
  8
C4
 62
     7
100
AcDbLine
 10
1002.30901974126
 20
135.0185742620479
 30
0.0
 11
649.4610197411453
 21
125.7795742620465
 31
0.0
  0
LINE
  5
26B
330
1F
100
AcDbEntity
  8
C4
 62
     7
100
AcDbLine
 10
66.46101974095612
 20
318.2145742621024
 30
0.0
 11
1046.459019741283
 21
318.2145742621024
 31
0.0
  0
LINE
  5
26C
330
1F
100
AcDbEntity
  8
C4
 62
     7
100
AcDbLine
 10
1033.959019741269
 20
315.7145742621024
 30
0.0
 11
1046.459019741283
 21
315.7145742621024
 31
0.0
  0
LINE
  5
26D
330
1F
100
AcDbEntity
  8
C4
 62
     7
100
AcDbLine
 10
78.9630197409638
 20
315.7145742621024
 30
0.0
 11
66.46101974095612
 21
315.7145742621024
 31
0.0
  0
LINE
  5
26E
330
1F
100
AcDbEntity
  8
C4
 62
     7
100
AcDbLine
 10
1031.459019741269
 20
167.50657426206
 30
0.0
 11
1031.459019741269
 21
317.2145742621097
 31
0.0
  0
LINE
  5
26F
330
1F
100
AcDbEntity
  8
C4
 62
     7
100
AcDbLine
 10
1046.459019741283
 20
318.2145742621024
 30
0.0
 11
1046.459019741283
 21
315.7145742621024
 31
0.0
  0
LINE
  5
270
330
1F
100
AcDbEntity
  8
C4
 62
     7
100
AcDbLine
 10
66.46101974095612
 20
318.2145742621024
 30
0.0
 11
66.46101974095612
 21
315.7145742621024
 31
0.0
  0
LINE
  5
271
330
1F
100
AcDbEntity
  8
C4
 62
     7
100
AcDbLine
 10
81.46101974095612
 20
167.5075742620602
 30
0.0
 11
81.4630197409638
 21
317.2145742621097
 31
0.0
  0
LINE
  5
272
330
1F
100
AcDbEntity
  8
C4
 62
     7
100
AcDbLine
 10
646.9610197411453
 20
125.7795742620465
 30
0.0
 11
646.9610197411453
 21
121.214574262044
 31
0.0
  0
LINE
  5
273
330
1F
100
AcDbEntity
  8
C4
 62
     7
100
AcDbLine
 10
635.9610197411471
 20
118.7145742620438
 30
0.0
 11
476.9610197411034
 21
118.714574262044
 31
0.0
  0
LINE
  5
274
330
1F
100
AcDbEntity
  8
C4
 62
     7
100
AcDbLine
 10
635.9610197411453
 20
121.214574262044
 30
0.0
 11
635.9610197411453
 21
118.714574262044
 31
0.0
  0
LINE
  5
275
330
1F
100
AcDbEntity
  8
C4
 62
     7
100
AcDbLine
 10
84.46301974097835
 20
303.2145742620988
 30
0.0
 11
1028.459019741254
 21
303.2145742620988
 31
0.0
  0
LINE
  5
276
330
1F
100
AcDbEntity
  8
C4
 62
     7
100
AcDbLine
 10
84.46301974097835
 20
311.8145742621046
 30
0.0
 11
1028.459019741254
 21
311.8145742621046
 31
0.0
  0
LINE
  5
277
330
1F
100
AcDbEntity
  8
C4
 62
     7
100
AcDbLine
 10
635.9610197411453
 20
121.214574262044
 30
0.0
 11
646.9610197411453
 21
121.214574262044
 31
0.0
  0
LINE
  5
278
330
1F
100
AcDbEntity
  8
C4
 62
     7
100
AcDbLine
 10
646.9610197411453
 20
118.714574262044
 30
0.0
 11
635.9610197411453
 21
118.714574262044
 31
0.0
  0
LINE
  5
279
330
1F
100
AcDbEntity
  8
C4
 62
     7
100
AcDbLine
 10
649.4610197411453
 20
121.214574262044
 30
0.0
 11
649.4610197411453
 21
125.7795742620465
 31
0.0
  0
LINE
  5
27A
330
1F
100
AcDbEntity
  8
C4
 62
     7
100
AcDbLine
 10
1033.959019741269
 20
167.5075742620602
 30
0.0
 11
1033.959019741269
 21
315.7145742621024
 31
0.0
  0
LINE
  5
27B
330
1F
100
AcDbEntity
  8
C4
 62
     7
100
AcDbLine
 10
78.96101974095612
 20
167.5075742620602
 30
0.0
 11
78.9630197409638
 21
315.7145742621024
 31
0.0
  0
LINE
  5
27C
330
1F
100
AcDbEntity
  8
C4
 62
     7
100
AcDbLine
 10
635.9610197411471
 20
121.214574262044
 30
0.0
 11
476.9610197411034
 21
121.214574262044
 31
0.0
  0
LINE
  5
27D
330
1F
100
AcDbEntity
  8
C4
 62
     7
100
AcDbLine
 10
648.8946497207394
 20
128.2145742620442
 30
0.0
 11
464.0273897614948
 21
128.214574262044
 31
0.0
  0
LINE
  5
27E
330
1F
100
AcDbEntity
  8
C4
 62
     7
100
AcDbLine
 10
110.6760197409817
 20
137.5175742620477
 30
0.0
 11
463.5260197410894
 21
128.2785742620463
 31
0.0
  0
LINE
  5
27F
330
1F
100
AcDbEntity
  8
C4
 62
     7
100
AcDbLine
 10
110.6100197409901
 20
135.0185742620479
 30
0.0
 11
463.4610197410871
 21
125.7795742620465
 31
0.0
  0
LINE
  5
280
330
1F
100
AcDbEntity
  8
C4
 62
     7
100
AcDbLine
 10
465.9610197410871
 20
125.7795742620465
 30
0.0
 11
465.9610197410871
 21
121.214574262044
 31
0.0
  0
LINE
  5
281
330
1F
100
AcDbEntity
  8
C4
 62
     7
100
AcDbLine
 10
476.9610197411016
 20
121.214574262044
 30
0.0
 11
476.9610197411016
 21
118.714574262044
 31
0.0
  0
LINE
  5
282
330
1F
100
AcDbEntity
  8
C4
 62
     7
100
AcDbLine
 10
476.9610197411016
 20
121.214574262044
 30
0.0
 11
465.9610197410871
 21
121.214574262044
 31
0.0
  0
LINE
  5
283
330
1F
100
AcDbEntity
  8
C4
 62
     7
100
AcDbLine
 10
465.9610197410871
 20
118.714574262044
 30
0.0
 11
476.9610197411016
 21
118.714574262044
 31
0.0
  0
LINE
  5
284
330
1F
100
AcDbEntity
  8
C4
 62
     7
100
AcDbLine
 10
463.4610197410871
 20
121.214574262044
 30
0.0
 11
463.4610197410871
 21
125.7795742620465
 31
0.0
  0
CIRCLE
  5
285
330
1F
100
AcDbEntity
  8
C4
 62
     7
100
AcDbCircle
 10
556.4620197411127
 20
827.5075742621918
 30
0.0
 40
90.50000000002811
  0
ARC
  5
286
330
1F
100
AcDbEntity
  8
C4
 62
     7
100
AcDbCircle
 10
971.4600197412506
 20
932.5145742622187
 30
0.0
 40
60.00000000001863
100
AcDbArc
 50
0.0
 51
90.00021045916418
  0
CIRCLE
  5
287
330
1F
100
AcDbEntity
  8
C4
 62
     7
100
AcDbCircle
 10
556.4620197411127
 20
827.5075742621918
 30
0.0
 40
79.50000000002468
  0
ARC
  5
288
330
1F
100
AcDbEntity
  8
C4
 62
     7
100
AcDbCircle
 10
141.4620197409818
 20
932.5145742622187
 30
0.0
 40
60.00000000001863
100
AcDbArc
 50
90.00021045916418
 51
179.9998479604956
  0
ARC
  5
289
330
1F
100
AcDbEntity
  8
C4
 62
     7
100
AcDbCircle
 10
929.0000197412296
 20
869.2495742621975
 30
0.0
 40
100.0000000000311
100
AcDbArc
 50
2.918367519608708
 51
87.45799672214774
  0
ARC
  5
28A
102
{ACAD_REACTORS
330
3AE
102
}
330
1F
100
AcDbEntity
  8
C4
 62
     7
100
AcDbCircle
 10
141.4620197409818
 20
1012.514574262244
 30
0.0
 40
60.00000000001863
100
AcDbArc
 50
90.00021045916418
 51
179.9998479604956
  0
ARC
  5
28B
330
1F
100
AcDbEntity
  8
C4
 62
     7
100
AcDbCircle
 10
141.4620197409818
 20
1012.514574262244
 30
0.0
 40
75.00000000002329
100
AcDbArc
 50
90.00021045916418
 51
179.9998479604956
  0
ARC
  5
28C
330
1F
100
AcDbEntity
  8
C4
 62
     7
100
AcDbCircle
 10
971.4600197412506
 20
1012.514574262244
 30
0.0
 40
60.00000000001863
100
AcDbArc
 50
0.0
 51
90.00021045916418
  0
ARC
  5
28D
330
1F
100
AcDbEntity
  8
C4
 62
     7
100
AcDbCircle
 10
971.4600197412506
 20
1012.514574262244
 30
0.0
 40
75.00000000002329
100
AcDbArc
 50
0.0
 51
90.00021045916418
  0
ARC
  5
28E
330
1F
100
AcDbEntity
  8
C4
 62
     7
100
AcDbCircle
 10
971.4600197412506
 20
612.5145742621205
 30
0.0
 40
60.00000000001863
100
AcDbArc
 50
270.0000584197119
 51
0.0
  0
ARC
  5
28F
330
1F
100
AcDbEntity
  8
C4
 62
     7
100
AcDbCircle
 10
971.4600197412506
 20
612.5145742621205
 30
0.0
 40
75.00000000002329
100
AcDbArc
 50
270.0000584197119
 51
0.0
  0
ARC
  5
290
330
1F
100
AcDbEntity
  8
C4
 62
     7
100
AcDbCircle
 10
141.4620197409818
 20
612.5145742621205
 30
0.0
 40
60.00000000001863
100
AcDbArc
 50
179.9998479604956
 51
270.0000584197119
  0
ARC
  5
291
330
1F
100
AcDbEntity
  8
C4
 62
     7
100
AcDbCircle
 10
141.4620197409818
 20
612.5145742621205
 30
0.0
 40
75.00000000002329
100
AcDbArc
 50
179.9998479604956
 51
270.0000584197119
  0
ARC
  5
292
330
1F
100
AcDbEntity
  8
C4
 62
     7
100
AcDbCircle
 10
2081.4600197416
 20
772.5145742621678
 30
0.0
 40
2000.000000000621
100
AcDbArc
 50
177.1293294068925
 51
182.9184949689339
  0
ARC
  5
293
330
1F
100
AcDbEntity
  8
C4
 62
     7
100
AcDbCircle
 10
-968.5379802593675
 20
772.5145742621678
 30
0.0
 40
2000.000000000621
100
AcDbArc
 50
357.0816625969388
 51
2.918367519608667
  0
ARC
  5
294
330
1F
100
AcDbEntity
  8
C4
 62
     7
100
AcDbCircle
 10
929.0000197412296
 20
675.780574262142
 30
0.0
 40
100.0000000000311
100
AcDbArc
 50
272.541699198875
 51
357.0816625969387
  0
ARC
  5
295
330
1F
100
AcDbEntity
  8
C4
 62
     7
100
AcDbCircle
 10
556.4610197411089
 20
-7522.485425740406
 30
0.0
 40
8500.00000000264
100
AcDbArc
 50
87.45799672214777
 51
92.54185123825037
  0
ARC
  5
296
330
1F
100
AcDbEntity
  8
C4
 62
     7
100
AcDbCircle
 10
556.4630197411166
 20
9067.514574264744
 30
0.0
 40
8500.00000000264
100
AcDbArc
 50
267.4578446827365
 51
272.541699198875
  0
ARC
  5
297
330
1F
100
AcDbEntity
  8
C4
 62
     7
100
AcDbCircle
 10
183.926019740989
 20
869.2495742621975
 30
0.0
 40
100.0000000000311
100
AcDbArc
 50
92.54185123825035
 51
177.0817739098744
  0
ARC
  5
298
102
{ACAD_REACTORS
330
396
102
}
330
1F
100
AcDbEntity
  8
C4
 62
     7
100
AcDbCircle
 10
183.9240197410104
 20
675.7825742621424
 30
0.0
 40
100.0000000000311
100
AcDbArc
 50
182.9184949689339
 51
267.4578446827365
  0
ARC
  5
299
330
1F
100
AcDbEntity
  8
C4
 62
     7
100
AcDbCircle
 10
1032.459019741254
 20
317.2145742621097
 30
0.0
 40
1.000000000000311
100
AcDbArc
 50
90.00021045916418
 51
179.9998479604956
  0
ARC
  5
29A
330
1F
100
AcDbEntity
  8
C4
 62
     7
100
AcDbCircle
 10
649.4610197411453
 20
125.7795742620465
 30
0.0
 40
2.500000000000776
100
AcDbArc
 50
91.50021396675606
 51
179.9998479604956
  0
ARC
  5
29B
330
1F
100
AcDbEntity
  8
C4
 62
     7
100
AcDbCircle
 10
1028.459019741254
 20
314.8145742621046
 30
0.0
 40
3.000000000000932
100
AcDbArc
 50
270.0000584197119
 51
0.0
  0
ARC
  5
29C
330
1F
100
AcDbEntity
  8
C4
 62
     7
100
AcDbCircle
 10
1028.459019741254
 20
306.2145742621024
 30
0.0
 40
3.000000000000932
100
AcDbArc
 50
270.0000584197119
 51
0.0
  0
ARC
  5
29D
330
1F
100
AcDbEntity
  8
C4
 62
     7
100
AcDbCircle
 10
84.46301974097835
 20
306.2145742621024
 30
0.0
 40
3.000000000000932
100
AcDbArc
 50
179.9987020449342
 51
270.0000584197119
  0
ARC
  5
29E
330
1F
100
AcDbEntity
  8
C4
 62
     7
100
AcDbCircle
 10
111.4610197409707
 20
167.5075742620602
 30
0.0
 40
32.50000000001009
100
AcDbArc
 50
179.9992750027149
 51
268.500054911928
  0
ARC
  5
29F
330
1F
100
AcDbEntity
  8
C4
 62
     7
100
AcDbCircle
 10
111.4610197409707
 20
167.50657426206
 30
0.0
 40
30.00000000000932
100
AcDbArc
 50
179.9992750027149
 51
268.500054911928
  0
ARC
  5
2A0
330
1F
100
AcDbEntity
  8
C4
 62
     7
100
AcDbCircle
 10
84.46301974097835
 20
314.8145742621046
 30
0.0
 40
3.000000000000932
100
AcDbArc
 50
179.9987020449342
 51
270.0000584197119
  0
ARC
  5
2A1
330
1F
100
AcDbEntity
  8
C4
 62
     7
100
AcDbCircle
 10
646.9610197411453
 20
121.214574262044
 30
0.0
 40
2.500000000000776
100
AcDbArc
 50
270.0000584197119
 51
0.0
  0
ARC
  5
2A2
330
1F
100
AcDbEntity
  8
C4
 62
     7
100
AcDbCircle
 10
80.4630197409638
 20
317.2145742621097
 30
0.0
 40
1.000000000000311
100
AcDbArc
 50
0.0
 51
90.00021045916418
  0
ARC
  5
2A3
330
1F
100
AcDbEntity
  8
C4
 62
     7
100
AcDbCircle
 10
463.4610197410871
 20
125.7795742620465
 30
0.0
 40
2.500000000000776
100
AcDbArc
 50
0.0
 51
88.5002069515701
  0
ARC
  5
2A4
330
1F
100
AcDbEntity
  8
C4
 62
     7
100
AcDbCircle
 10
465.9610197410871
 20
121.214574262044
 30
0.0
 40
2.500000000000776
100
AcDbArc
 50
180.0004209182762
 51
270.0000584197119
  0
ARC
  5
2A5
330
1F
100
AcDbEntity
  8
C4
 62
     7
100
AcDbCircle
 10
1001.459019741269
 20
167.50657426206
 30
0.0
 40
30.00000000000932
100
AcDbArc
 50
271.5000619273047
 51
0.0
  0
ARC
  5
2A6
330
1F
100
AcDbEntity
  8
C4
 62
     7
100
AcDbCircle
 10
1001.459019741269
 20
167.5075742620602
 30
0.0
 40
32.50000000001009
100
AcDbArc
 50
271.5000619273047
 51
0.0
  0
LINE
  5
2A7
330
1F
100
AcDbEntity
  8
C4
 62
     7
100
AcDbLine
 10
1471.960003952066
 20
1073.506111237802
 30
0.0
 11
1474.359966057927
 21
1073.506111237802
 31
0.0
  0
LINE
  5
2A8
330
1F
100
AcDbEntity
  8
C4
 62
     7
100
AcDbLine
 10
1478.359902901022
 20
995.5073427973073
 30
0.0
 11
1478.359902901022
 21
1069.506174394704
 31
0.0
  0
LINE
  5
2A9
330
1F
100
AcDbEntity
  8
C4
 62
     7
100
AcDbLine
 10
1477.35991869025
 20
995.5073427973073
 30
0.0
 11
1477.35991869025
 21
1069.506174394704
 31
0.0
  0
LINE
  5
2AA
330
1F
100
AcDbEntity
  8
C4
 62
     7
100
AcDbLine
 10
1471.960003952066
 20
1073.506111237802
 30
0.0
 11
1471.960003952066
 21
1087.505890188666
 31
0.0
  0
LINE
  5
2AB
330
1F
100
AcDbEntity
  8
C4
 62
     7
100
AcDbLine
 10
1667.759912374553
 20
737.0160031869962
 30
0.0
 11
1663.38998137346
 21
737.0160031869962
 31
0.0
  0
LINE
  5
2AC
330
1F
100
AcDbEntity
  8
C4
 62
     7
100
AcDbLine
 10
1656.760121275729
 20
596.7309853964632
 30
0.0
 11
1660.890877698228
 21
734.5814907821341
 31
0.0
  0
LINE
  5
2AD
330
1F
100
AcDbEntity
  8
C4
 62
     7
100
AcDbLine
 10
1660.960019741283
 20
919.5416331423689
 30
0.0
 11
1660.96001974128
 21
735.1034855103678
 31
0.0
  0
LINE
  5
2AE
330
1F
100
AcDbEntity
  8
C4
 62
     7
100
AcDbLine
 10
1667.759912374553
 20
736.0160189762207
 30
0.0
 11
1663.38998137346
 21
736.0160189762207
 31
0.0
  0
LINE
  5
2AF
330
1F
100
AcDbEntity
  8
C4
 62
     7
100
AcDbLine
 10
1657.760012083432
 20
596.7047998813684
 30
0.0
 11
1661.890519168318
 21
734.5553115333034
 31
0.0
  0
LINE
  5
2B0
330
1F
100
AcDbEntity
  8
C4
 62
     7
100
AcDbLine
 10
1471.960003952066
 20
1072.506127027031
 30
0.0
 11
1474.359966057927
 21
1072.506127027031
 31
0.0
  0
LINE
  5
2B1
330
1F
100
AcDbEntity
  8
C4
 62
     7
100
AcDbLine
 10
1471.960003952066
 20
552.513337439517
 30
0.0
 11
1482.959830270592
 21
552.5163373921512
 31
0.0
  0
LINE
  5
2B2
330
1F
100
AcDbEntity
  8
C4
 62
     7
100
AcDbLine
 10
1480.35987132258
 20
993.5073743757582
 30
0.0
 11
1482.959830270592
 21
993.5073743757582
 31
0.0
  0
LINE
  5
2B3
330
1F
100
AcDbEntity
  8
C4
 62
     7
100
AcDbLine
 10
1485.959782902915
 20
989.5074375326546
 30
0.0
 11
1485.959782902915
 21
982.5075480572284
 31
0.0
  0
LINE
  5
2B4
330
1F
100
AcDbEntity
  8
C4
 62
     7
100
AcDbLine
 10
1470.96001974128
 20
1087.505890188666
 30
0.0
 11
1471.960003952066
 21
1087.505890188666
 31
0.0
  0
LINE
  5
2B5
330
1F
100
AcDbEntity
  8
C4
 62
     7
100
AcDbLine
 10
1630.70106307591
 20
978.5076112141248
 30
0.0
 11
1490.959703956796
 21
978.5076112141248
 31
0.0
  0
LINE
  5
2B6
330
1F
100
AcDbEntity
  8
C4
 62
     7
100
AcDbLine
 10
1470.96001974128
 20
537.514574262095
 30
0.0
 11
1470.96001974128
 21
1087.505890188666
 31
0.0
  0
LINE
  5
2B7
330
1F
100
AcDbEntity
  8
C4
 62
     7
100
AcDbLine
 10
1630.700787801281
 20
977.5076270033476
 30
0.0
 11
1490.959703956796
 21
977.5076270033476
 31
0.0
  0
LINE
  5
2B8
330
1F
100
AcDbEntity
  8
C4
 62
     7
100
AcDbLine
 10
1470.96001974128
 20
537.514574262095
 30
0.0
 11
1471.960003952066
 21
537.514574262095
 31
0.0
  0
LINE
  5
2B9
330
1F
100
AcDbEntity
  8
C4
 62
     7
100
AcDbLine
 10
1667.759912374553
 20
918.013145337374
 30
0.0
 11
1662.911467662401
 21
918.013145337374
 31
0.0
  0
ARC
  5
2BA
330
1F
100
AcDbEntity
  8
C4
 62
     7
100
AcDbCircle
 10
1662.911467662401
 20
920.0231136010332
 30
0.0
 40
2.009968263658912
100
AcDbArc
 50
181.4592635419398
 51
270.0
  0
ARC
  5
2BB
330
1F
100
AcDbEntity
  8
C4
 62
     7
100
AcDbCircle
 10
1662.911467662401
 20
920.0231136010332
 30
0.0
 40
2.009968263658912
100
AcDbArc
 50
181.4592635419398
 51
270.0
  0
LINE
  5
2BC
330
1F
100
AcDbEntity
  8
C4
 62
     7
100
AcDbLine
 10
1661.690525082303
 20
948.297339493449
 30
0.0
 11
1661.889940228087
 21
920.4721984539281
 31
0.0
  0
LINE
  5
2BD
330
1F
100
AcDbEntity
  8
C4
 62
     7
100
AcDbLine
 10
1660.690584790263
 20
948.2720746194288
 30
0.0
 11
1660.902151264133
 21
919.9719273470962
 31
0.0
  0
LINE
  5
2BE
330
1F
100
AcDbEntity
  8
C4
 62
     7
100
AcDbLine
 10
1667.759912374553
 20
919.0131295481513
 30
0.0
 11
1663.38998137346
 21
919.0131295481513
 31
0.0
  0
LINE
  5
2BF
330
1F
100
AcDbEntity
  8
C4
 62
     7
100
AcDbLine
 10
1485.959782902915
 20
555.5162900244775
 30
0.0
 11
1485.959782902915
 21
562.5161794999092
 31
0.0
  0
LINE
  5
2C0
330
1F
100
AcDbEntity
  8
C4
 62
     7
100
AcDbLine
 10
1626.770857907526
 20
567.5161005537846
 30
0.0
 11
1490.959703956796
 21
567.5161005537846
 31
0.0
  0
LINE
  5
2C1
330
1F
100
AcDbEntity
  8
C4
 62
     7
100
AcDbLine
 10
1626.7711074088
 20
566.5161163430073
 30
0.0
 11
1490.959703956796
 21
566.5161163430073
 31
0.0
  0
LINE
  5
2C2
330
1F
100
AcDbEntity
  8
C4
 62
     7
100
AcDbLine
 10
1486.959767113701
 20
989.5074375326546
 30
0.0
 11
1486.959767113701
 21
982.5075480572284
 31
0.0
  0
LINE
  5
2C3
330
1F
100
AcDbEntity
  8
C4
 62
     7
100
AcDbLine
 10
1480.35987132258
 20
992.507390164981
 30
0.0
 11
1482.959830270592
 21
992.507390164981
 31
0.0
  0
LINE
  5
2C4
330
1F
100
AcDbEntity
  8
C4
 62
     7
100
AcDbLine
 10
1486.959767113701
 20
555.5162900244775
 30
0.0
 11
1486.959767113701
 21
562.5161794999092
 31
0.0
  0
LINE
  5
2C5
330
1F
100
AcDbEntity
  8
C4
 62
     7
100
AcDbLine
 10
1471.960058491691
 20
551.5133532361776
 30
0.0
 11
1482.96088479444
 21
551.5163531888118
 31
0.0
  0
LINE
  5
2C6
330
1F
100
AcDbEntity
  8
C4
 62
     7
100
AcDbLine
 10
1471.960003952066
 20
551.5133532287434
 30
0.0
 11
1471.960003952066
 21
537.514574262095
 31
0.0
  0
LINE
  5
2C7
330
1F
100
AcDbEntity
  8
C4
 62
     7
100
AcDbLine
 10
1668.959893427483
 20
917.8131484952225
 30
0.0
 11
1668.959893427483
 21
906.5133269134528
 31
0.0
  0
LINE
  5
2C8
330
1F
100
AcDbEntity
  8
C4
 62
     7
100
AcDbLine
 10
1667.959909216711
 20
906.5133269134528
 30
0.0
 11
1668.959893427483
 21
906.5133269134528
 31
0.0
  0
LINE
  5
2C9
330
1F
100
AcDbEntity
  8
C4
 62
     7
100
AcDbLine
 10
1667.959909216711
 20
917.8131484952225
 30
0.0
 11
1667.959909216711
 21
906.5133269134528
 31
0.0
  0
LINE
  5
2CA
330
1F
100
AcDbEntity
  8
C4
 62
     7
100
AcDbLine
 10
1667.959909216711
 20
748.5158216109137
 30
0.0
 11
1668.959893427483
 21
748.5158216109137
 31
0.0
  0
LINE
  5
2CB
330
1F
100
AcDbEntity
  8
C4
 62
     7
100
AcDbLine
 10
1667.959909216711
 20
737.2160000291494
 30
0.0
 11
1667.959909216711
 21
748.5158216109137
 31
0.0
  0
LINE
  5
2CC
330
1F
100
AcDbEntity
  8
C4
 62
     7
100
AcDbLine
 10
1667.959909216715
 20
906.5133269134526
 30
0.0
 11
1667.959909216711
 21
748.5158216109137
 31
0.0
  0
LINE
  5
2CD
330
1F
100
AcDbEntity
  8
C4
 62
     7
100
AcDbLine
 10
1668.959893427487
 20
906.5133269134526
 30
0.0
 11
1668.959893427483
 21
748.5158216109137
 31
0.0
  0
LINE
  5
2CE
330
1F
100
AcDbEntity
  8
C4
 62
     7
100
AcDbLine
 10
1668.959893427483
 20
737.2160000291494
 30
0.0
 11
1668.959893427483
 21
748.5158216109137
 31
0.0
  0
ARC
  5
2CF
330
1F
100
AcDbEntity
  8
C4
 62
     7
100
AcDbCircle
 10
1490.959703956796
 20
562.5161794999092
 30
0.0
 40
3.999936843102311
100
AcDbArc
 50
90.00021045916513
 51
180.0
  0
ARC
  5
2D0
330
1F
100
AcDbEntity
  8
C4
 62
     7
100
AcDbCircle
 10
1482.959830270592
 20
555.5162900244775
 30
0.0
 40
3.999936843102311
100
AcDbArc
 50
270.0000584197126
 51
0.0
  0
ARC
  5
2D1
330
1F
100
AcDbEntity
  8
C4
 62
     7
100
AcDbCircle
 10
1667.759912374553
 20
917.8131484952225
 30
0.0
 40
0.1999968421551157
100
AcDbArc
 50
0.0
 51
90.0002104591912
  0
ARC
  5
2D2
330
1F
100
AcDbEntity
  8
C4
 62
     7
100
AcDbCircle
 10
1667.759912374553
 20
917.8131484952225
 30
0.0
 40
1.199981052930694
100
AcDbArc
 50
0.0
 51
90.0002104591695
  0
ARC
  5
2D3
330
1F
100
AcDbEntity
  8
C4
 62
     7
100
AcDbCircle
 10
1474.359966057927
 20
1069.506174394704
 30
0.0
 40
2.999952632326734
100
AcDbArc
 50
0.0
 51
90.00021045916513
  0
ARC
  5
2D4
330
1F
100
AcDbEntity
  8
C4
 62
     7
100
AcDbCircle
 10
1474.359966057927
 20
1069.506174394704
 30
0.0
 40
3.999936843102311
100
AcDbArc
 50
0.0
 51
90.00021045916513
  0
ARC
  5
2D5
330
1F
100
AcDbEntity
  8
C4
 62
     7
100
AcDbCircle
 10
1663.38998137346
 20
734.5160426600576
 30
0.0
 40
2.499960526938944
100
AcDbArc
 50
90.00021045916253
 51
178.4998444528622
  0
ARC
  5
2D6
330
1F
100
AcDbEntity
  8
C4
 62
     7
100
AcDbCircle
 10
1667.759912374553
 20
737.2160000291494
 30
0.0
 40
1.199981052930694
100
AcDbArc
 50
270.0000584197115
 51
0.0
  0
ARC
  5
2D7
330
1F
100
AcDbEntity
  8
C4
 62
     7
100
AcDbCircle
 10
1663.38998137346
 20
920.5131058643144
 30
0.0
 40
1.499976316163367
100
AcDbArc
 50
181.5004244259477
 51
270.0000584197136
  0
ARC
  5
2D8
330
1F
100
AcDbEntity
  8
C4
 62
     7
100
AcDbCircle
 10
1667.759912374553
 20
737.2160000291494
 30
0.0
 40
0.1999968421551157
100
AcDbArc
 50
270.0000584197223
 51
0.0
  0
ARC
  5
2D9
330
1F
100
AcDbEntity
  8
C4
 62
     7
100
AcDbCircle
 10
1490.959703956796
 20
562.5161794999092
 30
0.0
 40
4.999921053877888
100
AcDbArc
 50
90.00021045916513
 51
180.0
  0
ARC
  5
2DA
330
1F
100
AcDbEntity
  8
C4
 62
     7
100
AcDbCircle
 10
1482.959830270592
 20
555.5162900244775
 30
0.0
 40
2.999952632326734
100
AcDbArc
 50
270.0000584197136
 51
0.0
  0
ARC
  5
2DB
330
1F
100
AcDbEntity
  8
C4
 62
     7
100
AcDbCircle
 10
1663.38998137346
 20
734.5160426600576
 30
0.0
 40
1.499976316163367
100
AcDbArc
 50
90.0002104591608
 51
178.4998444528641
  0
ARC
  5
2DC
330
1F
100
AcDbEntity
  8
C4
 62
     7
100
AcDbCircle
 10
1490.959703956796
 20
982.5075480572284
 30
0.0
 40
4.999921053877888
100
AcDbArc
 50
180.0
 51
270.0000584197119
  0
ARC
  5
2DD
330
1F
100
AcDbEntity
  8
C4
 62
     7
100
AcDbCircle
 10
1480.35987132258
 20
995.5073427973073
 30
0.0
 40
2.999952632326734
100
AcDbArc
 50
180.0
 51
270.0000584197136
  0
ARC
  5
2DE
330
1F
100
AcDbEntity
  8
C4
 62
     7
100
AcDbCircle
 10
1482.959830270592
 20
989.5074375326546
 30
0.0
 40
2.999952632326734
100
AcDbArc
 50
0.0
 51
90.00021045916513
  0
ARC
  5
2DF
330
1F
100
AcDbEntity
  8
C4
 62
     7
100
AcDbCircle
 10
1471.960003952066
 20
551.5133532287434
 30
0.0
 40
0.9999842107755779
100
AcDbArc
 50
90.01396144624775
 51
180.0
  0
ARC
  5
2E0
330
1F
100
AcDbEntity
  8
C4
 62
     7
100
AcDbCircle
 10
1471.960003952066
 20
1073.506111237802
 30
0.0
 40
0.9999842107755779
100
AcDbArc
 50
180.0
 51
270.0000584197093
  0
ARC
  5
2E1
330
1F
100
AcDbEntity
  8
C4
 62
     7
100
AcDbCircle
 10
1480.35987132258
 20
995.5073427973073
 30
0.0
 40
1.999968421551156
100
AcDbArc
 50
180.0
 51
270.0000584197093
  0
ARC
  5
2E2
330
1F
100
AcDbEntity
  8
C4
 62
     7
100
AcDbCircle
 10
1482.959830270592
 20
989.5074375326546
 30
0.0
 40
3.999936843102311
100
AcDbArc
 50
0.0
 51
90.00021045916513
  0
ARC
  5
2E3
330
1F
100
AcDbEntity
  8
C4
 62
     7
100
AcDbCircle
 10
1490.959703956796
 20
982.5075480572284
 30
0.0
 40
3.999936843102311
100
AcDbArc
 50
180.0
 51
270.0000584197126
  0
ARC
  5
2E4
330
1F
100
AcDbEntity
  8
C4
 62
     7
100
AcDbCircle
 10
1630.700787801281
 20
947.5081006800808
 30
0.0
 40
29.99952632326733
100
AcDbArc
 50
1.459263541944053
 51
90.0
  0
ARC
  5
2E5
330
1F
100
AcDbEntity
  8
C4
 62
     7
100
AcDbCircle
 10
1630.70106307591
 20
947.5081006800808
 30
0.0
 40
30.9995105340429
100
AcDbArc
 50
1.458892057736535
 51
90.0
  0
ARC
  5
2E6
330
1F
100
AcDbEntity
  8
C4
 62
     7
100
AcDbCircle
 10
1626.770857907526
 20
597.5156268770513
 30
0.0
 40
29.99952632326733
100
AcDbArc
 50
270.0
 51
358.50125058309
  0
ARC
  5
2E7
330
1F
100
AcDbEntity
  8
C4
 62
     7
100
AcDbCircle
 10
1626.7711074088
 20
597.5156268770513
 30
0.0
 40
30.9995105340429
100
AcDbArc
 50
270.0
 51
358.5011936382605
  0
DIMENSION
  5
2E8
330
1F
100
AcDbEntity
  8
C寸法
 62
     7
370
    13
100
AcDbDimension
  2
*D17
 10
1031.462019741184
 20
402.5145742621406
 30
0.0
 11
556.4620197410685
 21
420.0145742621406
 31
0.0
 70
    32
 71
     5
 42
950.0000000002317
  3
実寸
100
AcDbAlignedDimension
 13
81.46201974095268
 23
812.5145742621824
 33
0.0
 14
1031.462019741184
 24
772.515099895081
 34
0.0
100
AcDbRotatedDimension
1001
ACAD
1000
DSTYLE
1002
{
1070
   340
1005
F3
1070
   144
1040
1.0
1002
}
  0
DIMENSION
  5
2E9
330
1F
100
AcDbEntity
  8
C寸法
 62
     7
370
    13
100
AcDbDimension
  2
*D18
 10
1311.462019740953
 20
552.5145742622624
 30
0.0
 11
1293.962019740953
 21
812.5145742622624
 31
0.0
 70
    32
 71
     5
 42
520.0
  3
実寸
100
AcDbAlignedDimension
 13
1061.462019740953
 23
1072.514574262262
 33
0.0
 14
1061.462019740953
 24
552.5145742622624
 34
0.0
 50
90.0
100
AcDbRotatedDimension
1001
ACAD
1000
DSTYLE
1002
{
1070
   340
1005
F3
1070
   144
1040
1.0
1002
}
  0
DIMENSION
  5
2EA
330
1F
100
AcDbEntity
  8
C寸法
 62
     7
370
    13
100
AcDbDimension
  2
*D19
 10
1261.462019740953
 20
992.5145742622624
 30
0.0
 11
1243.962019740953
 21
1032.514574262262
 31
0.0
 70
    32
 71
     5
 42
80.0
  3
実寸
100
AcDbAlignedDimension
 13
981.7560655598304
 23
1072.514574262262
 33
0.0
 14
1061.462019740953
 24
992.5145742622624
 34
0.0
 50
90.0
100
AcDbRotatedDimension
1001
ACAD
1000
DSTYLE
1002
{
1070
   340
1005
F3
1070
   144
1040
1.0
1002
}
  0
DIMENSION
  5
2EB
330
1F
100
AcDbEntity
  8
C寸法
 62
     7
370
    13
100
AcDbDimension
  2
*D20
 10
1261.462019740953
 20
552.5145742622624
 30
0.0
 11
1243.962019740953
 21
772.5145742622624
 31
0.0
 70
    32
 71
     5
 42
440.0
  3
実寸
100
AcDbAlignedDimension
 13
1061.462019740953
 23
992.5145742622624
 33
0.0
 14
1061.462019740953
 24
552.5145742622624
 34
0.0
 50
90.0
100
AcDbRotatedDimension
1001
ACAD
1000
DSTYLE
1002
{
1070
   340
1005
F3
1070
   144
1040
1.0
1002
}
  0
DIMENSION
  5
2EC
330
1F
100
AcDbEntity
  8
C寸法
 62
     7
370
    13
100
AcDbDimension
  2
*D21
 10
1211.462019740953
 20
567.5145742622624
 30
0.0
 11
1193.962019740953
 21
772.5145742622624
 31
0.0
 70
    32
 71
     5
 42
410.0
  3
実寸
100
AcDbAlignedDimension
 13
1061.462019740953
 23
977.5145742622624
 33
0.0
 14
1061.462019740953
 24
567.5145742622624
 34
0.0
 50
90.0
100
AcDbRotatedDimension
1001
ACAD
1000
DSTYLE
1002
{
1070
   340
1005
F3
1070
   144
1040
1.0
1002
}
  0
DIMENSION
  5
2ED
330
1F
100
AcDbEntity
  8
C寸法
 62
     7
370
    13
100
AcDbDimension
  2
*D22
 10
1211.462019740953
 20
992.5145742622369
 30
0.0
 11
1211.462019740953
 21
903.9691873499908
 31
0.0
 70
   160
 71
     5
 42
15.00000000748425
  3
実寸
100
AcDbAlignedDimension
 13
556.4722975056048
 23
977.5145742547527
 33
0.0
 14
860.9703813571764
 24
992.5145742622369
 34
0.0
 50
90.0
100
AcDbRotatedDimension
1001
ACAD
1000
DSTYLE
1002
{
1070
   340
1005
F3
1070
   172
1070
     1
1070
   144
1040
1.0
1002
}
  0
DIMENSION
  5
2EE
330
1F
100
AcDbEntity
  8
C寸法
 62
     7
370
    13
100
AcDbDimension
  2
*D23
 10
1211.462019740953
 20
552.514574262264
 30
0.0
 11
1211.462019740953
 21
478.9691873575021
 31
0.0
 70
   160
 71
     5
 42
14.99999999984107
  3
実寸
100
AcDbAlignedDimension
 13
556.463019741115
 23
567.514574262105
 33
0.0
 14
556.4620197411128
 24
552.514574262264
 34
0.0
 50
90.0
100
AcDbRotatedDimension
1001
ACAD
1000
DSTYLE
1002
{
1070
   340
1005
F3
1070
   172
1070
     1
1070
   144
1040
1.0
1002
}
  0
DIMENSION
  5
2EF
330
1F
100
AcDbEntity
  8
C寸法
 62
     7
370
    13
100
AcDbDimension
  2
*D24
 10
1161.462019740953
 20
827.5145742621862
 30
0.0
 11
1143.962019740953
 21
902.5145742622243
 31
0.0
 70
    32
 71
     5
 42
150.0000000000762
  3
実寸
100
AcDbAlignedDimension
 13
1061.462019740953
 23
977.5145742622624
 33
0.0
 14
1059.784267328238
 24
827.5145742621862
 34
0.0
 50
90.0
100
AcDbRotatedDimension
1001
ACAD
1000
DSTYLE
1002
{
1070
   340
1005
F3
1070
   144
1040
1.0
1002
}
  0
DIMENSION
  5
2F0
330
1F
100
AcDbEntity
  8
C寸法
 62
     7
370
    13
100
AcDbDimension
  2
*D25
 10
1211.461019740956
 20
128.2145742621022
 30
0.0
 11
1193.961019740956
 21
223.2145742621024
 31
0.0
 70
    32
 71
     5
 42
190.0000000000005
  3
実寸
100
AcDbAlignedDimension
 13
1061.461019740956
 23
318.2145742621026
 33
0.0
 14
635.9610197411453
 24
128.2145742621022
 34
0.0
 50
90.0
100
AcDbRotatedDimension
1001
ACAD
1000
DSTYLE
1002
{
1070
   340
1005
F3
1070
   144
1040
1.0
1002
}
  0
LINE
  5
2F1
330
1F
100
AcDbEntity
  8
C寸法
  6
CENTER
 62
     7
 48
20.0
370
    13
100
AcDbLine
 10
499.6910764673048
 20
1032.514574262372
 30
0.0
 11
611.9017067516088
 21
1032.514574262372
 31
0.0
  0
CIRCLE
  5
2F2
330
1F
100
AcDbEntity
  8
C寸法
 62
     7
100
AcDbCircle
 10
556.4690492107234
 20
1032.514574262372
 30
0.0
 40
18.00000000001637
  0
DIMENSION
  5
2F3
330
1F
100
AcDbEntity
  8
C寸法
 62
     7
370
    13
100
AcDbDimension
  2
*D26
 10
1161.462019740953
 20
1072.514574262262
 30
0.0
 11
1143.962019740953
 21
1147.752669500358
 31
0.0
 70
    32
 71
     5
 42
39.99999999989088
  3
実寸
100
AcDbAlignedDimension
 13
597.6842783169816
 23
1032.514574262372
 33
0.0
 14
925.7089275821113
 24
1072.514574262262
 34
0.0
 50
90.0
100
AcDbRotatedDimension
1001
ACAD
1000
DSTYLE
1002
{
1070
   340
1005
F3
1070
   172
1070
     1
1070
   144
1040
1.0
1002
}
  0
DIMENSION
  5
2F4
330
1F
100
AcDbEntity
  8
C寸法
 62
     7
370
    13
100
AcDbDimension
  2
*D27
 10
1161.461019740956
 20
303.2145742620988
 30
0.0
 11
1143.961019740956
 21
229.6691873573369
 31
0.0
 70
    32
 71
     5
 42
15.00000000000387
  3
実寸
100
AcDbAlignedDimension
 13
1037.074927901835
 23
318.2145742621026
 33
0.0
 14
1019.747680805888
 24
303.2145742620988
 34
0.0
 50
90.0
100
AcDbRotatedDimension
1001
ACAD
1000
DSTYLE
1002
{
1070
   340
1005
F3
1070
   172
1070
     1
1070
   144
1040
1.0
1002
}
  0
LINE
  5
2F5
330
1F
100
AcDbEntity
  8
C4
 62
     7
100
AcDbLine
 10
1485.959782902919
 20
982.5075480572284
 30
0.0
 11
1485.959782902919
 21
874.3408843245795
 31
0.0
  0
LINE
  5
2F6
330
1F
100
AcDbEntity
  8
C4
 62
     7
100
AcDbLine
 10
1485.959782902919
 20
670.6893166948848
 30
0.0
 11
1485.959782902919
 21
562.5161794999092
 31
0.0
  0
DIMENSION
  5
2F7
330
1F
100
AcDbEntity
  8
C寸法
 62
     7
370
    13
100
AcDbDimension
  2
*D28
 10
466.1516879703325
 20
667.5362130390315
 30
0.0
 11
570.6382769656233
 21
667.5362130390315
 31
0.0
 70
   160
  1
Φ<>
 71
     5
 42
180.8103317708083
 52
-270.0
  3
実寸
100
AcDbAlignedDimension
 13
646.9620197411408
 23
827.5075742621918
 33
0.0
 14
466.1516879703325
 24
827.2617469763227
 34
0.0
 50
180.0
100
AcDbRotatedDimension
1001
ACAD
1000
DSTYLE
1002
{
1070
   271
1070
     0
1070
   340
1005
F3
1070
   144
1040
1.0
1002
}
  0
DIMENSION
  5
394
102
{ACAD_REACTORS
330
396
102
}
102
{ACAD_XDICTIONARY
360
395
102
}
330
1F
100
AcDbEntity
  8
0
370
    13
100
AcDbDimension
  2
*D29
 10
183.9240197410104
 20
675.7825742621424
 30
0.0
 11
178.1064766396384
 21
671.6328285310603
 31
0.0
 70
   164
  1
4-<>
 71
     5
 42
100.0000000000311
  3
JIS-1
100
AcDbRadialDimension
 15
102.5133449349399
 25
617.7110491605365
 35
0.0
 40
0.0
1001
ACAD_DSTYLE_DIMRADIAL_EXTENSION
1070
   387
1070
     0
1070
   388
1040
3.19253000000058
1070
   390
1040
4.668020000001362
1001
ACAD
1000
DSTYLE
1002
{
1070
   140
1040
25.0
1070
   340
1005
F3
1070
   147
1040
5.0
1070
    41
1040
25.0
1070
   344
1005
90
1070
   173
1070
     1
1002
}
  0
DIMENSION
  5
39F
102
{ACAD_XDICTIONARY
360
3A0
102
}
330
1F
100
AcDbEntity
  8
0
370
    13
100
AcDbDimension
  2
*D30
 10
149.1662286613802
 20
604.2600647045508
 30
0.0
 11
211.3640256314291
 21
644.8993464410305
 31
0.0
 70
   164
  1
4-<>
 71
     5
 42
60.00000000001858
  3
JIS-1
100
AcDbRadialDimension
 15
199.3949479395578
 25
637.0788970981059
 35
0.0
 40
0.0
1001
ACAD_DSTYLE_DIMRADIAL_EXTENSION
1070
   387
1070
     0
1070
   388
1040
3.141589999999848
1070
   390
1040
4.71239000000101
1001
ACAD
1000
DSTYLE
1002
{
1070
   140
1040
25.0
1070
   147
1040
5.0
1070
   340
1005
F3
1070
    41
1040
25.0
1070
   344
1005
90
1070
   173
1070
     1
1002
}
  0
DIMENSION
  5
3AC
102
{ACAD_REACTORS
330
3AE
102
}
102
{ACAD_XDICTIONARY
360
3AD
102
}
330
1F
100
AcDbEntity
  8
0
370
    13
100
AcDbDimension
  2
*D31
 10
141.4620197409818
 20
1012.514574262244
 30
0.0
 11
235.2676633754908
 21
896.8422422716015
 31
0.0
 70
   164
  1
2-<>
 71
     5
 42
60.00000000001855
  3
JIS-1
100
AcDbRadialDimension
 15
179.254334140522
 25
965.9126325395163
 35
0.0
 40
0.0
1001
ACAD_DSTYLE_DIMRADIAL_EXTENSION
1070
   387
1070
     0
1070
   388
1040
1.570800000000252
1070
   390
1040
3.141589999999848
1001
ACAD
1000
DSTYLE
1002
{
1070
   140
1040
25.0
1070
   147
1040
5.0
1070
   340
1005
F3
1070
    41
1040
25.0
1070
   344
1005
90
1070
   173
1070
     1
1002
}
  0
DIMENSION
  5
3D1
330
1F
100
AcDbEntity
  8
0
370
    13
100
AcDbDimension
  2
*D34
 10
574.7790259907367
 20
1122.41903522588
 30
0.0
 11
706.7135498002606
 21
1122.41903522588
 31
0.0
 70
   160
  1
Φ36水栓穴
 71
     5
 42
35.76954141613567
  3
JIS-1
100
AcDbAlignedDimension
 13
539.0094845746011
 23
1031.838018749028
 33
0.0
 14
574.7790259907367
 24
1031.838018749028
 34
0.0
100
AcDbRotatedDimension
1001
ACAD
1000
DSTYLE
1002
{
1070
   140
1040
25.0
1070
   340
1005
F3
1070
   147
1040
5.0
1070
    41
1040
25.0
1002
}
  0
ENDSEC
  0
SECTION
  2
OBJECTS
  0
DICTIONARY
  5
C
330
0
100
AcDbDictionary
281
     1
  3
ACAD_COLOR
350
F5
  3
ACAD_DETAILVIEWSTYLE
350
DA
  3
ACAD_GROUP
350
D
  3
ACAD_IMAGE_VARS
350
6A
  3
ACAD_LAYOUT
350
1A
  3
ACAD_MATERIAL
350
97
  3
ACAD_MLEADERSTYLE
350
3F
  3
ACAD_MLINESTYLE
350
17
  3
ACAD_PLOTSETTINGS
350
19
  3
ACAD_PLOTSTYLENAME
350
E
  3
ACAD_SCALELIST
350
40
  3
ACAD_SECTIONVIEWSTYLE
350
DB
  3
ACAD_TABLESTYLE
350
3B
  3
ACDB_RECOMPOSE_DATA
350
3EF
  3
AcDbVariableDictionary
350
3D
  3
APPDATA
350
96
  0
DICTIONARY
  5
251
330
2
100
AcDbDictionary
280
     1
281
     1
  3
ACAD_LAYERSTATES
360
252
  0
DICTIONARY
  5
395
330
394
100
AcDbDictionary
280
     1
281
     1
  3
ACAD_DIMASSOC
360
396
  0
DICTIONARY
  5
3A0
330
39F
100
AcDbDictionary
280
     1
281
     1
  0
DICTIONARY
  5
3AD
330
3AC
100
AcDbDictionary
280
     1
281
     1
  3
ACAD_DIMASSOC
360
3AE
  0
DICTIONARY
  5
F5
102
{ACAD_REACTORS
330
C
102
}
330
C
100
AcDbDictionary
281
     1
  0
DICTIONARY
  5
DA
102
{ACAD_REACTORS
330
C
102
}
330
C
100
AcDbDictionary
281
     1
  0
DICTIONARY
  5
D
102
{ACAD_REACTORS
330
C
102
}
330
C
100
AcDbDictionary
281
     1
  0
RASTERVARIABLES
  5
6A
102
{ACAD_REACTORS
330
C
102
}
330
C
100
AcDbRasterVariables
 90
        0
 70
     1
 71
     1
 72
     1
  0
DICTIONARY
  5
1A
102
{ACAD_REACTORS
330
C
102
}
330
C
100
AcDbDictionary
281
     1
  3
Model
350
22
  3
Sheet1
350
1E
  3
Sheet2
350
26
  0
DICTIONARY
  5
97
102
{ACAD_REACTORS
330
C
102
}
330
C
100
AcDbDictionary
281
     1
  3
ByBlock
350
99
  3
ByLayer
350
98
  3
Global
350
9A
  0
DICTIONARY
  5
3F
102
{ACAD_REACTORS
330
C
102
}
330
C
100
AcDbDictionary
281
     1
  3
Standard
350
DC
  0
DICTIONARY
  5
17
102
{ACAD_REACTORS
330
C
102
}
330
C
100
AcDbDictionary
281
     1
  3
Standard
350
18
  0
DICTIONARY
  5
19
102
{ACAD_REACTORS
330
C
102
}
330
C
100
AcDbDictionary
281
     1
  0
ACDBDICTIONARYWDFLT
  5
E
102
{ACAD_REACTORS
330
C
102
}
330
C
100
AcDbDictionary
281
     1
  3
Normal
350
F
100
AcDbDictionaryWithDefault
340
F
  0
DICTIONARY
  5
40
102
{ACAD_REACTORS
330
C
102
}
330
C
100
AcDbDictionary
281
     1
  3
A0
350
41
  3
A1
350
42
  3
A2
350
43
  3
A3
350
44
  3
A4
350
45
  3
A5
350
46
  3
A6
350
47
  3
A7
350
48
  3
A8
350
49
  3
A9
350
4A
  3
B0
350
4B
  3
B1
350
4C
  3
B2
350
4D
  3
B3
350
4E
  3
B4
350
4F
  3
B5
350
50
  3
B6
350
51
  3
B7
350
52
  3
B8
350
53
  3
B9
350
54
  3
C0
350
55
  3
C1
350
56
  3
C2
350
57
  3
C3
350
58
  3
C4
350
59
  3
C5
350
5A
  3
C6
350
5B
  3
C7
350
5C
  3
C8
350
5D
  3
C9
350
5E
  3
D0
350
5F
  3
D1
350
60
  3
D2
350
61
  0
DICTIONARY
  5
DB
102
{ACAD_REACTORS
330
C
102
}
330
C
100
AcDbDictionary
281
     1
  0
DICTIONARY
  5
3B
102
{ACAD_REACTORS
330
C
102
}
330
C
100
AcDbDictionary
281
     1
  3
Standard
350
3C
  0
XRECORD
  5
3EF
102
{ACAD_REACTORS
330
C
102
}
330
C
100
AcDbXrecord
280
     1
 90
        1
330
3C
  0
DICTIONARY
  5
3D
102
{ACAD_REACTORS
330
C
102
}
330
C
100
AcDbDictionary
281
     1
  3
CANNOSCALE
350
62
  3
CMLEADERSTYLE
350
392
  3
CTABLESTYLE
350
3E
  3
LIGHTSINBLOCKS
350
6F
  3
XCLIPFRAME
350
70
  0
DICTIONARY
  5
96
102
{ACAD_REACTORS
330
C
102
}
330
C
100
AcDbDictionary
281
     1
  0
DICTIONARY
  5
252
102
{ACAD_REACTORS
330
251
102
}
330
251
100
AcDbDictionary
281
     1
  0
DIMASSOC
  5
396
102
{ACAD_REACTORS
330
395
102
}
330
395
100
AcDbDimAssoc
330
394
 90
        2
 70
     0
 71
     1
  1
AcDbOsnapPointRef
 72
     3
331
298
 73
     0
 91
        0
 40
0.0
 10
0.0
 20
0.0
 30
0.0
 75
     0
  0
DIMASSOC
  5
3AE
102
{ACAD_REACTORS
330
3AD
102
}
330
3AD
100
AcDbDimAssoc
330
3AC
 90
        2
 70
     0
 71
     1
  1
AcDbOsnapPointRef
 72
     3
331
28A
 73
     0
 91
        0
 40
0.0
 10
0.0
 20
0.0
 30
0.0
 75
     0
  0
LAYOUT
  5
22
102
{ACAD_REACTORS
330
1A
102
}
330
1A
100
AcDbPlotSettings
  1

  2
none_device
  4
ISO_A3_(420.00_x_297.00_MM)
  6

 40
7.5
 41
20.0
 42
7.5
 43
20.0
 44
420.0
 45
297.0
 46
20.78282828282826
 47
0.0
 48
0.0
 49
0.0
140
0.0
141
0.0
142
1.0
143
1.155642023346303
 70
  1204
 72
     1
 73
     0
 74
     1
  7
monochrome.ctb
 75
     0
 76
     0
 77
     2
 78
   300
147
0.8653198653198654
148
-134.1869158878504
149
0.0
100
AcDbLayout
  1
Model
 70
     1
 71
     0
 10
0.0
 20
0.0
 11
420.0
 21
297.0
 12
0.0
 22
0.0
 32
0.0
 14
4.187561697926867
 24
4.046082742528824
 34
0.0
 15
1804.243220940473
 25
1205.594570650022
 35
0.0
146
0.0
 13
0.0
 23
0.0
 33
0.0
 16
1.0
 26
0.0
 36
0.0
 17
0.0
 27
1.0
 37
0.0
 76
     0
330
1F
331
29
  0
LAYOUT
  5
1E
102
{ACAD_REACTORS
330
1A
102
}
330
1A
100
AcDbPlotSettings
  1

  2
none_device
  4

  6

 40
0.0
 41
0.0
 42
0.0
 43
0.0
 44
0.0
 45
0.0
 46
0.0
 47
0.0
 48
0.0
 49
0.0
140
0.0
141
0.0
142
1.0
143
1.0
 70
   688
 72
     0
 73
     0
 74
     5
  7

 75
    16
 76
     0
 77
     2
 78
   300
147
1.0
148
0.0
149
0.0
100
AcDbLayout
  1
Sheet1
 70
     1
 71
     1
 10
0.0
 20
0.0
 11
420.0
 21
297.0
 12
0.0
 22
0.0
 32
0.0
 14
1.000000000000000E+20
 24
1.000000000000000E+20
 34
1.000000000000000E+20
 15
-1.000000000000000E+20
 25
-1.000000000000000E+20
 35
-1.000000000000000E+20
146
0.0
 13
0.0
 23
0.0
 33
0.0
 16
1.0
 26
0.0
 36
0.0
 17
0.0
 27
1.0
 37
0.0
 76
     0
330
1B
  0
LAYOUT
  5
26
102
{ACAD_REACTORS
330
1A
102
}
330
1A
100
AcDbPlotSettings
  1

  2
none_device
  4

  6

 40
0.0
 41
0.0
 42
0.0
 43
0.0
 44
0.0
 45
0.0
 46
0.0
 47
0.0
 48
0.0
 49
0.0
140
0.0
141
0.0
142
1.0
143
1.0
 70
   688
 72
     0
 73
     0
 74
     5
  7

 75
    16
 76
     0
 77
     2
 78
   300
147
1.0
148
0.0
149
0.0
100
AcDbLayout
  1
Sheet2
 70
     1
 71
     2
 10
0.0
 20
0.0
 11
0.0
 21
0.0
 12
0.0
 22
0.0
 32
0.0
 14
0.0
 24
0.0
 34
0.0
 15
0.0
 25
0.0
 35
0.0
146
0.0
 13
0.0
 23
0.0
 33
0.0
 16
1.0
 26
0.0
 36
0.0
 17
0.0
 27
1.0
 37
0.0
 76
     0
330
23
  0
MATERIAL
  5
99
102
{ACAD_REACTORS
330
97
102
}
330
97
100
AcDbMaterial
  1
ByBlock
  0
MATERIAL
  5
98
102
{ACAD_REACTORS
330
97
102
}
330
97
100
AcDbMaterial
  1
ByLayer
  0
MATERIAL
  5
9A
102
{ACAD_REACTORS
330
97
102
}
330
97
100
AcDbMaterial
  1
Global
  0
MLEADERSTYLE
  5
DC
102
{ACAD_REACTORS
330
3F
102
}
330
3F
100
AcDbMLeaderStyle
170
     2
171
     1
172
     0
 90
        2
 40
0.0
 41
0.0
173
     1
 91
-1056964608
340
14
 92
       -2
290
     1
 42
2.0
291
     1
 43
8.0
  3
Standard
341
0
 44
4.0
300

342
11
174
     1
178
     6
175
     1
176
     0
 93
-1056964608
 45
4.0
292
     0
297
     0
 46
4.0
343
0
 94
-1056964608
 47
1.0
 49
1.0
140
1.0
293
     1
141
0.0
294
     1
177
     0
142
1.0
295
     0
296
     0
143
3.75
1001
ACAD_MLEADERVER
1070
     2
  0
MLINESTYLE
  5
18
102
{ACAD_REACTORS
330
17
102
}
330
17
100
AcDbMlineStyle
  2
Standard
 70
     0
  3

 62
   256
 51
90.0
 52
90.0
 71
     2
 49
0.5
 62
   256
  6
BYLAYER
 49
-0.5
 62
   256
  6
BYLAYER
  0
ACDBPLACEHOLDER
  5
F
102
{ACAD_REACTORS
330
E
102
}
330
E
  0
SCALE
  5
41
102
{ACAD_REACTORS
330
40
102
}
330
40
100
AcDbScale
 70
     0
300
1:1
140
1.0
141
1.0
290
     1
  0
SCALE
  5
42
102
{ACAD_REACTORS
330
40
102
}
330
40
100
AcDbScale
 70
     0
300
1:2
140
1.0
141
2.0
290
     0
  0
SCALE
  5
43
102
{ACAD_REACTORS
330
40
102
}
330
40
100
AcDbScale
 70
     0
300
1:4
140
1.0
141
4.0
290
     0
  0
SCALE
  5
44
102
{ACAD_REACTORS
330
40
102
}
330
40
100
AcDbScale
 70
     0
300
1:5
140
1.0
141
5.0
290
     0
  0
SCALE
  5
45
102
{ACAD_REACTORS
330
40
102
}
330
40
100
AcDbScale
 70
     0
300
1:8
140
1.0
141
8.0
290
     0
  0
SCALE
  5
46
102
{ACAD_REACTORS
330
40
102
}
330
40
100
AcDbScale
 70
     0
300
1:10
140
1.0
141
10.0
290
     0
  0
SCALE
  5
47
102
{ACAD_REACTORS
330
40
102
}
330
40
100
AcDbScale
 70
     0
300
1:16
140
1.0
141
16.0
290
     0
  0
SCALE
  5
48
102
{ACAD_REACTORS
330
40
102
}
330
40
100
AcDbScale
 70
     0
300
1:20
140
1.0
141
20.0
290
     0
  0
SCALE
  5
49
102
{ACAD_REACTORS
330
40
102
}
330
40
100
AcDbScale
 70
     0
300
1:30
140
1.0
141
30.0
290
     0
  0
SCALE
  5
4A
102
{ACAD_REACTORS
330
40
102
}
330
40
100
AcDbScale
 70
     0
300
1:40
140
1.0
141
40.0
290
     0
  0
SCALE
  5
4B
102
{ACAD_REACTORS
330
40
102
}
330
40
100
AcDbScale
 70
     0
300
1:50
140
1.0
141
50.0
290
     0
  0
SCALE
  5
4C
102
{ACAD_REACTORS
330
40
102
}
330
40
100
AcDbScale
 70
     0
300
1:100
140
1.0
141
100.0
290
     0
  0
SCALE
  5
4D
102
{ACAD_REACTORS
330
40
102
}
330
40
100
AcDbScale
 70
     0
300
2:1
140
2.0
141
1.0
290
     0
  0
SCALE
  5
4E
102
{ACAD_REACTORS
330
40
102
}
330
40
100
AcDbScale
 70
     0
300
4:1
140
4.0
141
1.0
290
     0
  0
SCALE
  5
4F
102
{ACAD_REACTORS
330
40
102
}
330
40
100
AcDbScale
 70
     0
300
8:1
140
8.0
141
1.0
290
     0
  0
SCALE
  5
50
102
{ACAD_REACTORS
330
40
102
}
330
40
100
AcDbScale
 70
     0
300
10:1
140
10.0
141
1.0
290
     0
  0
SCALE
  5
51
102
{ACAD_REACTORS
330
40
102
}
330
40
100
AcDbScale
 70
     0
300
100:1
140
100.0
141
1.0
290
     0
  0
SCALE
  5
52
102
{ACAD_REACTORS
330
40
102
}
330
40
100
AcDbScale
 70
     0
300
1/128" = 1'-0"
140
0.0078125
141
12.0
290
     0
  0
SCALE
  5
53
102
{ACAD_REACTORS
330
40
102
}
330
40
100
AcDbScale
 70
     0
300
1/64" = 1'-0"
140
0.015625
141
12.0
290
     0
  0
SCALE
  5
54
102
{ACAD_REACTORS
330
40
102
}
330
40
100
AcDbScale
 70
     0
300
1/32" = 1'-0"
140
0.03125
141
12.0
290
     0
  0
SCALE
  5
55
102
{ACAD_REACTORS
330
40
102
}
330
40
100
AcDbScale
 70
     0
300
1/16" = 1'-0"
140
0.0625
141
12.0
290
     0
  0
SCALE
  5
56
102
{ACAD_REACTORS
330
40
102
}
330
40
100
AcDbScale
 70
     0
300
3/32" = 1'-0"
140
0.09375
141
12.0
290
     0
  0
SCALE
  5
57
102
{ACAD_REACTORS
330
40
102
}
330
40
100
AcDbScale
 70
     0
300
1/8" = 1'-0"
140
0.125
141
12.0
290
     0
  0
SCALE
  5
58
102
{ACAD_REACTORS
330
40
102
}
330
40
100
AcDbScale
 70
     0
300
3/16" = 1'-0"
140
0.1875
141
12.0
290
     0
  0
SCALE
  5
59
102
{ACAD_REACTORS
330
40
102
}
330
40
100
AcDbScale
 70
     0
300
1/4" = 1'-0"
140
0.25
141
12.0
290
     0
  0
SCALE
  5
5A
102
{ACAD_REACTORS
330
40
102
}
330
40
100
AcDbScale
 70
     0
300
3/8" = 1'-0"
140
0.375
141
12.0
290
     0
  0
SCALE
  5
5B
102
{ACAD_REACTORS
330
40
102
}
330
40
100
AcDbScale
 70
     0
300
1/2" = 1'-0"
140
0.5
141
12.0
290
     0
  0
SCALE
  5
5C
102
{ACAD_REACTORS
330
40
102
}
330
40
100
AcDbScale
 70
     0
300
3/4" = 1'-0"
140
0.75
141
12.0
290
     0
  0
SCALE
  5
5D
102
{ACAD_REACTORS
330
40
102
}
330
40
100
AcDbScale
 70
     0
300
1" = 1'-0"
140
1.0
141
12.0
290
     0
  0
SCALE
  5
5E
102
{ACAD_REACTORS
330
40
102
}
330
40
100
AcDbScale
 70
     0
300
1-1/2" = 1'-0"
140
1.5
141
12.0
290
     0
  0
SCALE
  5
5F
102
{ACAD_REACTORS
330
40
102
}
330
40
100
AcDbScale
 70
     0
300
3" = 1'-0"
140
3.0
141
12.0
290
     0
  0
SCALE
  5
60
102
{ACAD_REACTORS
330
40
102
}
330
40
100
AcDbScale
 70
     0
300
6" = 1'-0"
140
6.0
141
12.0
290
     0
  0
SCALE
  5
61
102
{ACAD_REACTORS
330
40
102
}
330
40
100
AcDbScale
 70
     0
300
1'-0" = 1'-0"
140
12.0
141
12.0
290
     0
  0
TABLESTYLE
  5
3C
102
{ACAD_REACTORS
330
3B
102
}
102
{ACAD_XDICTIONARY
360
3EB
102
}
330
3B
100
AcDbTableStyle
  3
Standard
 70
     0
 71
     0
 40
1.5
 41
1.5
280
     0
281
     0
  7
Standard
140
4.5
170
     2
 62
     0
 63
   257
283
     0
274
    -2
284
     1
 64
     0
275
    -2
285
     1
 65
     0
276
    -2
286
     1
 66
     0
277
    -2
287
     1
 67
     0
278
    -2
288
     1
 68
     0
279
    -2
289
     1
 69
     0
  7
Standard
140
6.0
170
     5
 62
     0
 63
   257
283
     0
274
    -2
284
     1
 64
     0
275
    -2
285
     1
 65
     0
276
    -2
286
     1
 66
     0
277
    -2
287
     1
 67
     0
278
    -2
288
     1
 68
     0
279
    -2
289
     1
 69
     0
  7
Standard
140
4.5
170
     5
 62
     0
 63
   257
283
     0
274
    -2
284
     1
 64
     0
275
    -2
285
     1
 65
     0
276
    -2
286
     1
 66
     0
277
    -2
287
     1
 67
     0
278
    -2
288
     1
 68
     0
279
    -2
289
     1
 69
     0
  0
DICTIONARYVAR
  5
62
102
{ACAD_REACTORS
330
3D
102
}
330
3D
100
DictionaryVariables
280
     0
  1
1:1
  0
DICTIONARYVAR
  5
392
102
{ACAD_REACTORS
330
3D
102
}
330
3D
100
DictionaryVariables
280
     0
  1
Standard
  0
DICTIONARYVAR
  5
3E
102
{ACAD_REACTORS
330
3D
102
}
330
3D
100
DictionaryVariables
280
     0
  1
Standard
  0
DICTIONARYVAR
  5
6F
102
{ACAD_REACTORS
330
3D
102
}
330
3D
100
DictionaryVariables
280
     0
  1
0
  0
DICTIONARYVAR
  5
70
102
{ACAD_REACTORS
330
3D
102
}
330
3D
100
DictionaryVariables
280
     0
  1
0
  0
DICTIONARY
  5
3EB
330
3C
100
AcDbDictionary
280
     1
281
     1
  3
ACAD_ROUNDTRIP_2008_TABLESTYLE_CELLSTYLEMAP
360
3ED
  3
ACAD_XREC_ROUNDTRIP
360
3EC
  0
CELLSTYLEMAP
  5
3ED
102
{ACAD_REACTORS
330
3EB
102
}
330
3EB
100
AcDbCellStyleMap
 90
        3
300
CELLSTYLE
  1
TABLEFORMAT_BEGIN
 90
        5
170
     1
 91
        0
 92
    32768
 62
   257
 93
        1
300
CONTENTFORMAT
  1
CONTENTFORMAT_BEGIN
 90
        0
 91
        0
 92
      512
 93
        0
300

 40
0.0
140
1.0
 94
        5
 62
     0
340
11
144
6.0
309
CONTENTFORMAT_END
171
     1
301
MARGIN
  1
CELLMARGIN_BEGIN
 40
1.5
 40
1.5
 40
1.5
 40
1.5
 40
0.18
 40
0.18
309
CELLMARGIN_END
 94
        6
 95
        1
302
GRIDFORMAT
  1
GRIDFORMAT_BEGIN
 90
        0
 91
        1
 62
     0
 92
       -2
340
0
 93
        0
 40
0.045
309
GRIDFORMAT_END
 95
        2
302
GRIDFORMAT
  1
GRIDFORMAT_BEGIN
 90
        0
 91
        1
 62
     0
 92
       -2
340
0
 93
        0
 40
0.045
309
GRIDFORMAT_END
 95
        4
302
GRIDFORMAT
  1
GRIDFORMAT_BEGIN
 90
        0
 91
        1
 62
     0
 92
       -2
340
0
 93
        0
 40
0.045
309
GRIDFORMAT_END
 95
        8
302
GRIDFORMAT
  1
GRIDFORMAT_BEGIN
 90
        0
 91
        1
 62
     0
 92
       -2
340
0
 93
        0
 40
0.045
309
GRIDFORMAT_END
 95
       16
302
GRIDFORMAT
  1
GRIDFORMAT_BEGIN
 90
        0
 91
        1
 62
     0
 92
       -2
340
0
 93
        0
 40
0.045
309
GRIDFORMAT_END
 95
       32
302
GRIDFORMAT
  1
GRIDFORMAT_BEGIN
 90
        0
 91
        1
 62
     0
 92
       -2
340
0
 93
        0
 40
0.045
309
GRIDFORMAT_END
309
TABLEFORMAT_END
  1
CELLSTYLE_BEGIN
 90
        1
 91
        1
300
_TITLE
309
CELLSTYLE_END
300
CELLSTYLE
  1
TABLEFORMAT_BEGIN
 90
        5
170
     1
 91
        0
 92
        0
 62
   257
 93
        1
300
CONTENTFORMAT
  1
CONTENTFORMAT_BEGIN
 90
        0
 91
        0
 92
      512
 93
        0
300

 40
0.0
140
1.0
 94
        5
 62
     0
340
11
144
4.5
309
CONTENTFORMAT_END
171
     1
301
MARGIN
  1
CELLMARGIN_BEGIN
 40
1.5
 40
1.5
 40
1.5
 40
1.5
 40
0.18
 40
0.18
309
CELLMARGIN_END
 94
        6
 95
        1
302
GRIDFORMAT
  1
GRIDFORMAT_BEGIN
 90
        0
 91
        1
 62
     0
 92
       -2
340
0
 93
        0
 40
0.045
309
GRIDFORMAT_END
 95
        2
302
GRIDFORMAT
  1
GRIDFORMAT_BEGIN
 90
        0
 91
        1
 62
     0
 92
       -2
340
0
 93
        0
 40
0.045
309
GRIDFORMAT_END
 95
        4
302
GRIDFORMAT
  1
GRIDFORMAT_BEGIN
 90
        0
 91
        1
 62
     0
 92
       -2
340
0
 93
        0
 40
0.045
309
GRIDFORMAT_END
 95
        8
302
GRIDFORMAT
  1
GRIDFORMAT_BEGIN
 90
        0
 91
        1
 62
     0
 92
       -2
340
0
 93
        0
 40
0.045
309
GRIDFORMAT_END
 95
       16
302
GRIDFORMAT
  1
GRIDFORMAT_BEGIN
 90
        0
 91
        1
 62
     0
 92
       -2
340
0
 93
        0
 40
0.045
309
GRIDFORMAT_END
 95
       32
302
GRIDFORMAT
  1
GRIDFORMAT_BEGIN
 90
        0
 91
        1
 62
     0
 92
       -2
340
0
 93
        0
 40
0.045
309
GRIDFORMAT_END
309
TABLEFORMAT_END
  1
CELLSTYLE_BEGIN
 90
        2
 91
        1
300
_HEADER
309
CELLSTYLE_END
300
CELLSTYLE
  1
TABLEFORMAT_BEGIN
 90
        5
170
     1
 91
        0
 92
        0
 62
   257
 93
        1
300
CONTENTFORMAT
  1
CONTENTFORMAT_BEGIN
 90
        0
 91
        0
 92
      512
 93
        0
300

 40
0.0
140
1.0
 94
        2
 62
     0
340
11
144
4.5
309
CONTENTFORMAT_END
171
     1
301
MARGIN
  1
CELLMARGIN_BEGIN
 40
1.5
 40
1.5
 40
1.5
 40
1.5
 40
0.18
 40
0.18
309
CELLMARGIN_END
 94
        6
 95
        1
302
GRIDFORMAT
  1
GRIDFORMAT_BEGIN
 90
        0
 91
        1
 62
     0
 92
       -2
340
0
 93
        0
 40
0.045
309
GRIDFORMAT_END
 95
        2
302
GRIDFORMAT
  1
GRIDFORMAT_BEGIN
 90
        0
 91
        1
 62
     0
 92
       -2
340
0
 93
        0
 40
0.045
309
GRIDFORMAT_END
 95
        4
302
GRIDFORMAT
  1
GRIDFORMAT_BEGIN
 90
        0
 91
        1
 62
     0
 92
       -2
340
0
 93
        0
 40
0.045
309
GRIDFORMAT_END
 95
        8
302
GRIDFORMAT
  1
GRIDFORMAT_BEGIN
 90
        0
 91
        1
 62
     0
 92
       -2
340
0
 93
        0
 40
0.045
309
GRIDFORMAT_END
 95
       16
302
GRIDFORMAT
  1
GRIDFORMAT_BEGIN
 90
        0
 91
        1
 62
     0
 92
       -2
340
0
 93
        0
 40
0.045
309
GRIDFORMAT_END
 95
       32
302
GRIDFORMAT
  1
GRIDFORMAT_BEGIN
 90
        0
 91
        1
 62
     0
 92
       -2
340
0
 93
        0
 40
0.045
309
GRIDFORMAT_END
309
TABLEFORMAT_END
  1
CELLSTYLE_BEGIN
 90
        3
 91
        2
300
_DATA
309
CELLSTYLE_END
  0
XRECORD
  5
3EC
102
{ACAD_REACTORS
330
3EB
102
}
330
3EB
100
AcDbXrecord
280
     1
102
ACAD_ROUNDTRIP_PRE2007_TABLESTYLE
 90
      512
 91
        0
  1

 92
      512
 93
        0
  2

 94
      512
 95
        0
  3

  0
ENDSEC
  0
EOF
