  0
SECTION
  2
HEADER
  9
$ACADVER
  1
AC1024
  9
$ACADMAINTVER
 70
   155
  9
$DWGCODEPAGE
  3
ANSI_932
  9
$LASTSAVEDBY
  1
takase
  9
$INSBASE
 10
0.0
 20
0.0
 30
0.0
  9
$EXTMIN
 10
39.89502083734033
 20
-633.4176021011649
 30
0.0
  9
$EXTMAX
 10
629.8950208314168
 20
-217.033208599219
 30
0.0
  9
$LIMMIN
 10
0.0
 20
0.0
  9
$LIMMAX
 10
210.0
 20
297.0
  9
$ORTHOMODE
 70
     0
  9
$REGENMODE
 70
     1
  9
$FILLMODE
 70
     1
  9
$QTEXTMODE
 70
     0
  9
$MIRRTEXT
 70
     1
  9
$LTSCALE
 40
1.0
  9
$ATTMODE
 70
     1
  9
$TEXTSIZE
 40
5.0
  9
$TRACEWID
 40
1.0
  9
$TEXTSTYLE
  7
symbols
  9
$CLAYER
  8
外形線
  9
$CELTYPE
  6
ByLayer
  9
$CECOLOR
 62
   256
  9
$CELTSCALE
 40
1.0
  9
$DISPSILH
 70
     0
  9
$DIMSCALE
 40
1.0
  9
$DIMASZ
 40
1.75
  9
$DIMEXO
 40
7.0
  9
$DIMDLI
 40
9.375
  9
$DIMRND
 40
0.0
  9
$DIMDLE
 40
0.0
  9
$DIMEXE
 40
1.25
  9
$DIMTP
 40
0.0
  9
$DIMTM
 40
0.0
  9
$DIMTXT
 40
3.5
  9
$DIMCEN
 40
3.5
  9
$DIMTSZ
 40
0.0
  9
$DIMTOL
 70
     0
  9
$DIMLIM
 70
     0
  9
$DIMTIH
 70
     0
  9
$DIMTOH
 70
     0
  9
$DIMSE1
 70
     0
  9
$DIMSE2
 70
     0
  9
$DIMTAD
 70
     1
  9
$DIMZIN
 70
     8
  9
$DIMBLK
  1

  9
$DIMASO
 70
     1
  9
$DIMSHO
 70
     1
  9
$DIMPOST
  1

  9
$DIMAPOST
  1

  9
$DIMALT
 70
     0
  9
$DIMALTD
 70
     3
  9
$DIMALTF
 40
0.03937007874016
  9
$DIMLFAC
 40
1.0
  9
$DIMTOFL
 70
     1
  9
$DIMTVP
 40
0.0
  9
$DIMTIX
 70
     0
  9
$DIMSOXD
 70
     0
  9
$DIMSAH
 70
     0
  9
$DIMBLK1
  1

  9
$DIMBLK2
  1

  9
$DIMSTYLE
  2
ISO-25
  9
$DIMCLRD
 70
   256
  9
$DIMCLRE
 70
   256
  9
$DIMCLRT
 70
   256
  9
$DIMTFAC
 40
1.0
  9
$DIMGAP
 40
0.7
  9
$DIMJUST
 70
     0
  9
$DIMSD1
 70
     0
  9
$DIMSD2
 70
     0
  9
$DIMTOLJ
 70
     0
  9
$DIMTZIN
 70
     8
  9
$DIMALTZ
 70
     0
  9
$DIMALTTZ
 70
     0
  9
$DIMUPT
 70
     0
  9
$DIMDEC
 70
     2
  9
$DIMTDEC
 70
     2
  9
$DIMALTU
 70
     2
  9
$DIMALTTD
 70
     3
  9
$DIMTXSTY
  7
Standard
  9
$DIMAUNIT
 70
     0
  9
$DIMADEC
 70
     0
  9
$DIMALTRND
 40
0.0
  9
$DIMAZIN
 70
     0
  9
$DIMDSEP
 70
    46
  9
$DIMATFIT
 70
     3
  9
$DIMFRAC
 70
     0
  9
$DIMLDRBLK
  1

  9
$DIMLUNIT
 70
     2
  9
$DIMLWD
 70
    -2
  9
$DIMLWE
 70
    -2
  9
$DIMTMOVE
 70
     0
  9
$DIMFXL
 40
1.0
  9
$DIMFXLON
 70
     0
  9
$DIMJOGANG
 40
0.7853981633974483
  9
$DIMTFILL
 70
     0
  9
$DIMTFILLCLR
 70
     0
  9
$DIMARCSYM
 70
     0
  9
$DIMLTYPE
  6

  9
$DIMLTEX1
  6

  9
$DIMLTEX2
  6

  9
$DIMTXTDIRECTION
 70
     0
  9
$LUNITS
 70
     2
  9
$LUPREC
 70
     4
  9
$SKETCHINC
 40
1.0
  9
$FILLETRAD
 40
2.0
  9
$AUNITS
 70
     0
  9
$AUPREC
 70
     0
  9
$MENU
  1
.
  9
$ELEVATION
 40
0.0
  9
$PELEVATION
 40
0.0
  9
$THICKNESS
 40
0.0
  9
$LIMCHECK
 70
     0
  9
$CHAMFERA
 40
10.0
  9
$CHAMFERB
 40
10.0
  9
$CHAMFERC
 40
20.0
  9
$CHAMFERD
 40
0.0
  9
$SKPOLY
 70
     0
  9
$TDCREATE
 40
2455175.492175382
  9
$TDUCREATE
 40
2455175.117175382
  9
$TDUPDATE
 40
2457729.733021436
  9
$TDUUPDATE
 40
2457729.358021435
  9
$TDINDWG
 40
0.1197936806
  9
$TDUSRTIMER
 40
0.1197935648
  9
$USRTIMER
 70
     1
  9
$ANGBASE
 50
0.0
  9
$ANGDIR
 70
     0
  9
$PDMODE
 70
     0
  9
$PDSIZE
 40
0.0
  9
$PLINEWID
 40
0.0
  9
$SPLFRAME
 70
     0
  9
$SPLINETYPE
 70
     6
  9
$SPLINESEGS
 70
     8
  9
$HANDSEED
  5
3E0C
  9
$SURFTAB1
 70
     6
  9
$SURFTAB2
 70
     6
  9
$SURFTYPE
 70
     6
  9
$SURFU
 70
     6
  9
$SURFV
 70
     6
  9
$UCSBASE
  2

  9
$UCSNAME
  2

  9
$UCSORG
 10
39.89502083734033
 20
-633.0332085950423
 30
0.0
  9
$UCSXDIR
 10
1.0
 20
0.0
 30
0.0
  9
$UCSYDIR
 10
0.0
 20
1.0
 30
0.0
  9
$UCSORTHOREF
  2

  9
$UCSORTHOVIEW
 70
     0
  9
$UCSORGTOP
 10
0.0
 20
0.0
 30
0.0
  9
$UCSORGBOTTOM
 10
0.0
 20
0.0
 30
0.0
  9
$UCSORGLEFT
 10
0.0
 20
0.0
 30
0.0
  9
$UCSORGRIGHT
 10
0.0
 20
0.0
 30
0.0
  9
$UCSORGFRONT
 10
0.0
 20
0.0
 30
0.0
  9
$UCSORGBACK
 10
0.0
 20
0.0
 30
0.0
  9
$PUCSBASE
  2

  9
$PUCSNAME
  2

  9
$PUCSORG
 10
0.0
 20
0.0
 30
0.0
  9
$PUCSXDIR
 10
1.0
 20
0.0
 30
0.0
  9
$PUCSYDIR
 10
0.0
 20
1.0
 30
0.0
  9
$PUCSORTHOREF
  2

  9
$PUCSORTHOVIEW
 70
     0
  9
$PUCSORGTOP
 10
0.0
 20
0.0
 30
0.0
  9
$PUCSORGBOTTOM
 10
0.0
 20
0.0
 30
0.0
  9
$PUCSORGLEFT
 10
0.0
 20
0.0
 30
0.0
  9
$PUCSORGRIGHT
 10
0.0
 20
0.0
 30
0.0
  9
$PUCSORGFRONT
 10
0.0
 20
0.0
 30
0.0
  9
$PUCSORGBACK
 10
0.0
 20
0.0
 30
0.0
  9
$USERI1
 70
     0
  9
$USERI2
 70
     0
  9
$USERI3
 70
     0
  9
$USERI4
 70
     0
  9
$USERI5
 70
     0
  9
$USERR1
 40
0.0
  9
$USERR2
 40
0.0
  9
$USERR3
 40
0.0
  9
$USERR4
 40
0.0
  9
$USERR5
 40
0.0
  9
$WORLDVIEW
 70
     1
  9
$SHADEDGE
 70
     3
  9
$SHADEDIF
 70
    70
  9
$TILEMODE
 70
     1
  9
$MAXACTVP
 70
    64
  9
$PINSBASE
 10
0.0
 20
0.0
 30
0.0
  9
$PLIMCHECK
 70
     0
  9
$PEXTMIN
 10
1.000000000000000E+20
 20
1.000000000000000E+20
 30
1.000000000000000E+20
  9
$PEXTMAX
 10
-1.000000000000000E+20
 20
-1.000000000000000E+20
 30
-1.000000000000000E+20
  9
$PLIMMIN
 10
0.0
 20
0.0
  9
$PLIMMAX
 10
420.0
 20
297.0
  9
$UNITMODE
 70
     0
  9
$VISRETAIN
 70
     1
  9
$PLINEGEN
 70
     0
  9
$PSLTSCALE
 70
     1
  9
$TREEDEPTH
 70
  3020
  9
$CMLSTYLE
  2
Standard
  9
$CMLJUST
 70
     0
  9
$CMLSCALE
 40
20.0
  9
$PROXYGRAPHICS
 70
     1
  9
$MEASUREMENT
 70
     1
  9
$CELWEIGHT
370
    -1
  9
$ENDCAPS
280
     0
  9
$JOINSTYLE
280
     0
  9
$LWDISPLAY
290
     0
  9
$INSUNITS
 70
     4
  9
$HYPERLINKBASE
  1

  9
$STYLESHEET
  1
MONOCHROME.STB
  9
$XEDIT
290
     1
  9
$CEPSNTYPE
380
     0
  9
$PSTYLEMODE
290
     0
  9
$FINGERPRINTGUID
  2
{E3C53965-147C-4B87-A988-E3E6194F7297}
  9
$VERSIONGUID
  2
{8D7CB2B7-65E0-4E35-AF39-162AC345B15D}
  9
$EXTNAMES
290
     1
  9
$PSVPSCALE
 40
0.0
  9
$OLESTARTUP
290
     0
  9
$SORTENTS
280
   127
  9
$INDEXCTL
280
     0
  9
$HIDETEXT
280
     1
  9
$XCLIPFRAME
280
     2
  9
$HALOGAP
280
     0
  9
$OBSCOLOR
 70
   257
  9
$OBSLTYPE
280
     0
  9
$INTERSECTIONDISPLAY
280
     0
  9
$INTERSECTIONCOLOR
 70
   257
  9
$DIMASSOC
280
     2
  9
$PROJECTNAME
  1

  9
$CAMERADISPLAY
290
     0
  9
$LENSLENGTH
 40
50.0
  9
$CAMERAHEIGHT
 40
0.0
  9
$STEPSPERSEC
 40
2.0
  9
$STEPSIZE
 40
6.0
  9
$3DDWFPREC
 40
2.0
  9
$PSOLWIDTH
 40
0.25
  9
$PSOLHEIGHT
 40
4.0
  9
$LOFTANG1
 40
1.570796326794896
  9
$LOFTANG2
 40
1.570796326794896
  9
$LOFTMAG1
 40
0.0
  9
$LOFTMAG2
 40
0.0
  9
$LOFTPARAM
 70
     7
  9
$LOFTNORMALS
280
     1
  9
$LATITUDE
 40
37.795
  9
$LONGITUDE
 40
-122.394
  9
$NORTHDIRECTION
 40
0.0
  9
$TIMEZONE
 70
 -8000
  9
$LIGHTGLYPHDISPLAY
280
     1
  9
$TILEMODELIGHTSYNCH
280
     1
  9
$CMATERIAL
347
3D20
  9
$SOLIDHIST
280
     0
  9
$SHOWHIST
280
     1
  9
$DWFFRAME
280
     2
  9
$DGNFRAME
280
     0
  9
$REALWORLDSCALE
290
     1
  9
$INTERFERECOLOR
 62
     1
  9
$INTERFEREOBJVS
345
3D42
  9
$INTERFEREVPVS
346
3D3F
  9
$CSHADOW
280
     0
  9
$SHADOWPLANELOCATION
 40
0.0
  0
ENDSEC
  0
SECTION
  2
CLASSES
  0
CLASS
  1
ACDBDICTIONARYWDFLT
  2
AcDbDictionaryWithDefault
  3
ObjectDBX Classes
 90
        0
 91
        1
280
     0
281
     0
  0
CLASS
  1
DICTIONARYVAR
  2
AcDbDictionaryVar
  3
ObjectDBX Classes
 90
        0
 91
       11
280
     0
281
     0
  0
CLASS
  1
DIMASSOC
  2
AcDbDimAssoc
  3
"AcDbDimAssoc|Product Desc:     AcDim ARX App For Dimension|Company:          Autodesk, Inc.|WEB Address:      www.autodesk.com"
 90
        0
 91
       10
280
     0
281
     0
  0
CLASS
  1
MATERIAL
  2
AcDbMaterial
  3
ObjectDBX Classes
 90
     1153
 91
        3
280
     0
281
     0
  0
CLASS
  1
VISUALSTYLE
  2
AcDbVisualStyle
  3
ObjectDBX Classes
 90
     4095
 91
       24
280
     0
281
     0
  0
CLASS
  1
TABLESTYLE
  2
AcDbTableStyle
  3
ObjectDBX Classes
 90
     4095
 91
        1
280
     0
281
     0
  0
CLASS
  1
SCALE
  2
AcDbScale
  3
ObjectDBX Classes
 90
     1153
 91
       17
280
     0
281
     0
  0
CLASS
  1
MLEADERSTYLE
  2
AcDbMLeaderStyle
  3
ACDB_MLEADERSTYLE_CLASS
 90
     4095
 91
        1
280
     0
281
     0
  0
CLASS
  1
ACDBSECTIONVIEWSTYLE
  2
AcDbSectionViewStyle
  3
ObjectDBX Classes
 90
     1025
 91
        1
280
     0
281
     0
  0
CLASS
  1
ACDBDETAILVIEWSTYLE
  2
AcDbDetailViewStyle
  3
ObjectDBX Classes
 90
     1025
 91
        1
280
     0
281
     0
  0
CLASS
  1
CELLSTYLEMAP
  2
AcDbCellStyleMap
  3
ObjectDBX Classes
 90
     1152
 91
        2
280
     0
281
     0
  0
ENDSEC
  0
SECTION
  2
TABLES
  0
TABLE
  2
VPORT
  5
8
330
0
100
AcDbSymbolTable
 70
     1
  0
VPORT
  5
3D1D
330
8
100
AcDbSymbolTableRecord
100
AcDbViewportTableRecord
  2
*Active
 70
     0
 10
0.0
 20
0.0
 11
1.0
 21
1.0
 12
504.2161505112137
 22
-431.830913615011
 13
0.0
 23
0.0
 14
1.0
 24
1.0
 15
1.0
 25
1.0
 16
0.0
 26
0.0
 36
1.0
 17
0.0
 27
0.0
 37
0.0
 40
487.2777469945986
 41
1.989197530864197
 42
50.0
 43
0.0
 44
0.0
 50
0.0
 51
0.0
 71
     0
 72
   100
 73
     1
 74
     3
 75
     0
 76
     0
 77
     0
 78
     0
281
     0
 65
     1
110
39.89502083734033
120
-633.0332085950423
130
0.0
111
1.0
121
0.0
131
0.0
112
0.0
122
1.0
132
0.0
 79
     0
146
0.0
348
3D3E
 60
     3
 61
     5
292
     1
282
     1
141
0.0
142
0.0
 63
   250
421
  3355443
1001
ACAD_NAV_VCDISPLAY
1070
     3
  0
ENDTAB
  0
TABLE
  2
LTYPE
  5
5
330
0
100
AcDbSymbolTable
 70
     5
  0
LTYPE
  5
14
330
5
100
AcDbSymbolTableRecord
100
AcDbLinetypeTableRecord
  2
ByBlock
 70
     0
  3

 72
    65
 73
     0
 40
0.0
  0
LTYPE
  5
15
330
5
100
AcDbSymbolTableRecord
100
AcDbLinetypeTableRecord
  2
ByLayer
 70
     0
  3

 72
    65
 73
     0
 40
0.0
  0
LTYPE
  5
16
330
5
100
AcDbSymbolTableRecord
100
AcDbLinetypeTableRecord
  2
Continuous
 70
     0
  3
Solid line
 72
    65
 73
     0
 40
0.0
  0
LTYPE
  5
2D
330
5
100
AcDbSymbolTableRecord
100
AcDbLinetypeTableRecord
  2
HIDDEN
 70
     0
  3
Hidden __ __ __ __ __ __ __ __ __ __ __ __ __ _
 72
    65
 73
     2
 40
9.524999999999996
 49
6.349999999999998
 74
     0
 49
-3.174999999999998
 74
     0
  0
LTYPE
  5
2E
330
5
100
AcDbSymbolTableRecord
100
AcDbLinetypeTableRecord
  2
CENTER
 70
     0
  3
Center ____ _ ____ _ ____ _ ____ _ ____ _ ____
 72
    65
 73
     4
 40
50.8
 49
31.75
 74
     0
 49
-6.349999999999998
 74
     0
 49
6.349999999999998
 74
     0
 49
-6.349999999999998
 74
     0
  0
LTYPE
  5
9E
330
5
100
AcDbSymbolTableRecord
100
AcDbLinetypeTableRecord
  2
HIDDEN2
 70
     0
  3
Hidden (.5x) _ _ _ _ _ _ _ _ _ _ _ _ _ _ _ _ _
 72
    65
 73
     2
 40
4.762499999999998
 49
3.174999999999998
 74
     0
 49
-1.587499999999999
 74
     0
  0
LTYPE
  5
9F
330
5
100
AcDbSymbolTableRecord
100
AcDbLinetypeTableRecord
  2
CENTER2
 70
     0
  3
Center (.5x) ___ _ ___ _ ___ _ ___ _ ___ _ ___
 72
    65
 73
     4
 40
28.575
 49
19.05
 74
     0
 49
-3.174999999999998
 74
     0
 49
3.174999999999998
 74
     0
 49
-3.174999999999998
 74
     0
  0
ENDTAB
  0
TABLE
  2
LAYER
  5
2
102
{ACAD_XDICTIONARY
360
3714
102
}
330
0
100
AcDbSymbolTable
 70
    10
  0
LAYER
  5
10
102
{ACAD_XDICTIONARY
360
3D73
102
}
330
2
100
AcDbSymbolTableRecord
100
AcDbLayerTableRecord
  2
0
 70
     0
 62
     7
  6
Continuous
370
    -3
390
F
347
3D30
  0
LAYER
  5
2F
102
{ACAD_XDICTIONARY
360
3D75
102
}
330
2
100
AcDbSymbolTableRecord
100
AcDbLayerTableRecord
  2
外形線
 70
     0
 62
     7
  6
Continuous
370
    30
390
F
347
3D30
  0
LAYER
  5
30
102
{ACAD_XDICTIONARY
360
3D77
102
}
330
2
100
AcDbSymbolTableRecord
100
AcDbLayerTableRecord
  2
中心線
 70
     0
 62
     7
  6
CENTER2
370
    13
390
F
347
3D30
  0
LAYER
  5
31
102
{ACAD_XDICTIONARY
360
3D79
102
}
330
2
100
AcDbSymbolTableRecord
100
AcDbLayerTableRecord
  2
かくれ線
 70
     0
 62
     7
  6
HIDDEN2
370
    13
390
F
347
3D30
  0
LAYER
  5
32
102
{ACAD_XDICTIONARY
360
3D7B
102
}
330
2
100
AcDbSymbolTableRecord
100
AcDbLayerTableRecord
  2
図枠
 70
     0
 62
     7
  6
Continuous
370
    -3
390
F
347
3D30
  0
LAYER
  5
33
102
{ACAD_XDICTIONARY
360
3D7D
102
}
330
2
100
AcDbSymbolTableRecord
100
AcDbLayerTableRecord
  2
文字
 70
     0
 62
     7
  6
Continuous
370
    25
390
F
347
3D30
  0
LAYER
  5
34
102
{ACAD_XDICTIONARY
360
3D7F
102
}
330
2
100
AcDbSymbolTableRecord
100
AcDbLayerTableRecord
  2
ハッチング
 70
     0
 62
   253
  6
Continuous
370
    13
390
F
347
3D30
  0
LAYER
  5
35
102
{ACAD_XDICTIONARY
360
3D81
102
}
330
2
100
AcDbSymbolTableRecord
100
AcDbLayerTableRecord
  2
補助線
 70
     0
 62
     5
  6
Continuous
370
    -3
390
F
347
3D30
  0
LAYER
  5
36
102
{ACAD_XDICTIONARY
360
3D83
102
}
330
2
100
AcDbSymbolTableRecord
100
AcDbLayerTableRecord
  2
寸法線
 70
     0
 62
     7
  6
Continuous
370
    13
390
F
347
3D30
  0
LAYER
  5
13E
330
2
100
AcDbSymbolTableRecord
100
AcDbLayerTableRecord
  2
Defpoints
 70
     0
 62
     7
  6
Continuous
290
     0
370
    -3
390
F
347
3D30
  0
ENDTAB
  0
TABLE
  2
STYLE
  5
3
330
0
100
AcDbSymbolTable
 70
     4
  0
STYLE
  5
11
330
3
100
AcDbSymbolTableRecord
100
AcDbTextStyleTableRecord
  2
Standard
 70
     0
 40
0.0
 41
1.0
 50
0.0
 71
     0
 42
2.5
  3
isocp.shx
  4
extfont.shx
  0
STYLE
  5
2C
330
3
100
AcDbSymbolTableRecord
100
AcDbTextStyleTableRecord
  2

 70
     1
 40
0.0
 41
1.0
 50
0.0
 71
     0
 42
2.5
  3
ltypeshp.shx
  4

  0
STYLE
  5
4C
330
3
100
AcDbSymbolTableRecord
100
AcDbTextStyleTableRecord
  2
symbols
 70
     0
 40
0.0
 41
1.0
 50
0.0
 71
     0
 42
5.0
  3
MS Gothic.ttf
  4

1001
ACAD
1000
MS Gothic
1071
    32817
  0
STYLE
  5
128F
330
3
100
AcDbSymbolTableRecord
100
AcDbTextStyleTableRecord
  2
ｽﾀｲﾙ1
 70
     0
 40
0.0
 41
1.0
 50
0.0
 71
     0
 42
5.0
  3
isocp.shx
  4
extfont.shx
  0
ENDTAB
  0
TABLE
  2
VIEW
  5
6
330
0
100
AcDbSymbolTable
 70
     0
  0
ENDTAB
  0
TABLE
  2
UCS
  5
7
330
0
100
AcDbSymbolTable
 70
     0
  0
ENDTAB
  0
TABLE
  2
APPID
  5
9
330
0
100
AcDbSymbolTable
 70
     2
  0
APPID
  5
12
330
9
100
AcDbSymbolTableRecord
100
AcDbRegAppTableRecord
  2
ACAD
 70
     0
  0
APPID
  5
3D8E
330
9
100
AcDbSymbolTableRecord
100
AcDbRegAppTableRecord
  2
ACAD_NAV_VCDISPLAY
 70
     0
  0
ENDTAB
  0
TABLE
  2
DIMSTYLE
  5
A
330
0
100
AcDbSymbolTable
 70
     2
100
AcDbDimStyleTable
 71
     1
340
27
  0
DIMSTYLE
105
27
102
{ACAD_REACTORS
330
3AC7
330
3AD2
330
3AD5
330
3AE1
330
3BB6
330
3BBE
330
3BC1
102
}
330
A
100
AcDbSymbolTableRecord
100
AcDbDimStyleTableRecord
  2
ISO-25
 70
     0
 41
2.5
 42
0.625
 43
3.75
 44
1.25
 73
     0
 74
     0
 77
     1
 78
     8
140
3.5
141
2.5
143
0.03937007874016
147
0.625
171
     3
172
     1
271
     2
272
     2
274
     3
283
     0
284
     8
340
11
  0
DIMSTYLE
105
FCC
330
A
100
AcDbSymbolTableRecord
100
AcDbDimStyleTableRecord
  2
STANDARD
 70
     0
 41
3.0
 42
1.0
 43
7.5
 44
2.0
 45
2.0
 77
     1
 78
     1
140
5.0
141
0.0
147
2.0
171
     0
172
     1
176
     1
177
     1
178
     1
271
     2
272
     2
279
     2
284
     1
285
     1
286
     1
340
11
  0
ENDTAB
  0
TABLE
  2
BLOCK_RECORD
  5
1
330
0
100
AcDbSymbolTable
 70
    11
  0
BLOCK_RECORD
  5
1F
330
1
100
AcDbSymbolTableRecord
100
AcDbBlockTableRecord
  2
*Model_Space
340
22
 70
     0
280
     1
281
     0
  0
BLOCK_RECORD
  5
1B
330
1
100
AcDbSymbolTableRecord
100
AcDbBlockTableRecord
  2
*Paper_Space
340
1E
 70
     0
280
     1
281
     0
  0
BLOCK_RECORD
  5
23
330
1
100
AcDbSymbolTableRecord
100
AcDbBlockTableRecord
  2
*Paper_Space0
340
26
 70
     0
280
     1
281
     0
  0
BLOCK_RECORD
  5
3BEE
330
1
100
AcDbSymbolTableRecord
100
AcDbBlockTableRecord
  2
*D1
340
0
 70
     0
280
     1
281
     0
  0
BLOCK_RECORD
  5
3BFA
330
1
100
AcDbSymbolTableRecord
100
AcDbBlockTableRecord
  2
*D2
340
0
 70
     0
280
     1
281
     0
  0
BLOCK_RECORD
  5
3C06
330
1
100
AcDbSymbolTableRecord
100
AcDbBlockTableRecord
  2
*D3
340
0
 70
     0
280
     1
281
     0
  0
BLOCK_RECORD
  5
3C12
330
1
100
AcDbSymbolTableRecord
100
AcDbBlockTableRecord
  2
*D4
340
0
 70
     0
280
     1
281
     0
  0
BLOCK_RECORD
  5
3C1E
330
1
100
AcDbSymbolTableRecord
100
AcDbBlockTableRecord
  2
*D5
340
0
 70
     0
280
     1
281
     0
  0
BLOCK_RECORD
  5
3C37
330
1
100
AcDbSymbolTableRecord
100
AcDbBlockTableRecord
  2
*D6
340
0
 70
     0
280
     1
281
     0
  0
BLOCK_RECORD
  5
3C43
330
1
100
AcDbSymbolTableRecord
100
AcDbBlockTableRecord
  2
*D7
340
0
 70
     0
280
     1
281
     0
  0
BLOCK_RECORD
  5
3C4F
330
1
100
AcDbSymbolTableRecord
100
AcDbBlockTableRecord
  2
*D8
340
0
 70
     0
280
     1
281
     0
  0
BLOCK_RECORD
  5
3C5B
330
1
100
AcDbSymbolTableRecord
100
AcDbBlockTableRecord
  2
*D9
340
0
 70
     0
280
     1
281
     0
  0
BLOCK_RECORD
  5
3C68
330
1
100
AcDbSymbolTableRecord
100
AcDbBlockTableRecord
  2
*D10
340
0
 70
     0
280
     1
281
     0
  0
ENDTAB
  0
ENDSEC
  0
SECTION
  2
BLOCKS
  0
BLOCK
  5
20
330
1F
100
AcDbEntity
  8
0
100
AcDbBlockBegin
  2
*Model_Space
 70
     0
 10
0.0
 20
0.0
 30
0.0
  3
*Model_Space
  1

  0
ENDBLK
  5
21
330
1F
100
AcDbEntity
  8
0
100
AcDbBlockEnd
  0
BLOCK
  5
1C
330
1B
100
AcDbEntity
 67
     1
  8
0
100
AcDbBlockBegin
  2
*Paper_Space
 70
     0
 10
0.0
 20
0.0
 30
0.0
  3
*Paper_Space
  1

  0
ENDBLK
  5
1D
330
1B
100
AcDbEntity
 67
     1
  8
0
100
AcDbBlockEnd
  0
BLOCK
  5
24
330
23
100
AcDbEntity
 67
     1
  8
0
100
AcDbBlockBegin
  2
*Paper_Space0
 70
     0
 10
0.0
 20
0.0
 30
0.0
  3
*Paper_Space0
  1

  0
ENDBLK
  5
25
330
23
100
AcDbEntity
 67
     1
  8
0
100
AcDbBlockEnd
  0
BLOCK
  5
3BF8
330
3BEE
100
AcDbEntity
  8
0
100
AcDbBlockBegin
  2
*D1
 70
     1
 10
0.0
 20
0.0
 30
0.0
  3
*D1
  1

  0
LINE
  5
3BEF
330
3BEE
100
AcDbEntity
  8
寸法線
440
 16777216
370
    -2
100
AcDbLine
 10
191.36317024271
 20
-584.3921682114105
 30
0.0
 11
191.36317024271
 21
-595.7200013311888
 31
0.0
  0
LINE
  5
3BF0
330
3BEE
100
AcDbEntity
  8
寸法線
440
 16777216
370
    -2
100
AcDbLine
 10
516.3631702427099
 20
-478.9117320667285
 30
0.0
 11
516.3631702427099
 21
-595.7200013311888
 31
0.0
  0
LINE
  5
3BF1
330
3BEE
100
AcDbEntity
  8
寸法線
440
 16777216
370
    -2
100
AcDbLine
 10
194.86317024271
 20
-593.220001331189
 30
0.0
 11
512.8631702427099
 21
-593.220001331189
 31
0.0
  0
SOLID
  5
3BF2
330
3BEE
100
AcDbEntity
  8
寸法線
440
 16777216
100
AcDbTrace
 10
194.86317024271
 20
-592.6366679978555
 30
0.0
 11
194.86317024271
 21
-593.8033346645222
 31
0.0
 12
191.36317024271
 22
-593.220001331189
 32
0.0
 13
191.36317024271
 23
-593.220001331189
 33
0.0
  0
SOLID
  5
3BF3
330
3BEE
100
AcDbEntity
  8
寸法線
440
 16777216
100
AcDbTrace
 10
512.8631702427099
 20
-592.6366679978555
 30
0.0
 11
512.8631702427099
 21
-593.8033346645222
 31
0.0
 12
516.3631702427099
 22
-593.220001331189
 32
0.0
 13
516.3631702427099
 23
-593.220001331189
 33
0.0
  0
MTEXT
  5
3BF4
330
3BEE
100
AcDbEntity
  8
寸法線
440
 16777216
100
AcDbMText
 10
353.8631702427101
 20
-588.3193123548108
 30
0.0
 40
7.0
 41
0.0
 46
0.0
 71
     5
 72
     1
  1
325
 73
     1
 44
1.0
  0
POINT
  5
3BF5
330
3BEE
100
AcDbEntity
  8
Defpoints
 62
     0
440
 16777216
100
AcDbPoint
 10
191.36317024271
 20
-570.3921682114105
 30
0.0
  0
POINT
  5
3BF6
330
3BEE
100
AcDbEntity
  8
Defpoints
 62
     0
440
 16777216
100
AcDbPoint
 10
516.3631702427099
 20
-464.9117320667285
 30
0.0
  0
POINT
  5
3BF7
330
3BEE
100
AcDbEntity
  8
Defpoints
 62
     0
440
 16777216
100
AcDbPoint
 10
516.3631702427099
 20
-593.220001331189
 30
0.0
  0
ENDBLK
  5
3BF9
330
3BEE
100
AcDbEntity
  8
0
100
AcDbBlockEnd
  0
BLOCK
  5
3C04
330
3BFA
100
AcDbEntity
  8
0
100
AcDbBlockBegin
  2
*D2
 70
     1
 10
0.0
 20
0.0
 30
0.0
  3
*D2
  1

  0
LINE
  5
3BFB
330
3BFA
100
AcDbEntity
  8
寸法線
440
 16777216
370
    -2
100
AcDbLine
 10
346.1588362532268
 20
-282.0714286613723
 30
0.0
 11
359.5592891434055
 21
-282.0714286613723
 31
0.0
  0
LINE
  5
3BFC
330
3BFA
100
AcDbEntity
  8
寸法線
440
 16777216
370
    -2
100
AcDbLine
 10
343.7588362532272
 20
-382.0714286613723
 30
0.0
 11
359.5592891434055
 21
-382.0714286613723
 31
0.0
  0
LINE
  5
3BFD
330
3BFA
100
AcDbEntity
  8
寸法線
440
 16777216
370
    -2
100
AcDbLine
 10
357.0592891434055
 20
-285.5714286613724
 30
0.0
 11
357.0592891434055
 21
-378.5714286613723
 31
0.0
  0
SOLID
  5
3BFE
330
3BFA
100
AcDbEntity
  8
寸法線
440
 16777216
100
AcDbTrace
 10
356.4759558100722
 20
-285.5714286613724
 30
0.0
 11
357.6426224767388
 21
-285.5714286613724
 31
0.0
 12
357.0592891434055
 22
-282.0714286613723
 32
0.0
 13
357.0592891434055
 23
-282.0714286613723
 33
0.0
  0
SOLID
  5
3BFF
330
3BFA
100
AcDbEntity
  8
寸法線
440
 16777216
100
AcDbTrace
 10
356.4759558100722
 20
-378.5714286613723
 30
0.0
 11
357.6426224767388
 21
-378.5714286613723
 31
0.0
 12
357.0592891434055
 22
-382.0714286613723
 32
0.0
 13
357.0592891434055
 23
-382.0714286613723
 33
0.0
  0
MTEXT
  5
3C00
330
3BFA
100
AcDbEntity
  8
寸法線
440
 16777216
100
AcDbMText
 10
352.1592891434056
 20
-332.0714286613723
 30
0.0
 40
7.0
 41
0.0
 46
0.0
 71
     5
 72
     1
  1
100
 11
0.0000000000000001
 21
1.0
 31
0.0
 73
     1
 44
1.0
  0
POINT
  5
3C01
330
3BFA
100
AcDbEntity
  8
Defpoints
 62
     0
440
 16777216
100
AcDbPoint
 10
332.1588362532269
 20
-282.0714286613723
 30
0.0
  0
POINT
  5
3C02
330
3BFA
100
AcDbEntity
  8
Defpoints
 62
     0
440
 16777216
100
AcDbPoint
 10
329.7588362532271
 20
-382.0714286613723
 30
0.0
  0
POINT
  5
3C03
330
3BFA
100
AcDbEntity
  8
Defpoints
 62
     0
440
 16777216
100
AcDbPoint
 10
357.0592891434055
 20
-382.0714286613723
 30
0.0
  0
ENDBLK
  5
3C05
330
3BFA
100
AcDbEntity
  8
0
100
AcDbBlockEnd
  0
BLOCK
  5
3C10
330
3C06
100
AcDbEntity
  8
0
100
AcDbBlockBegin
  2
*D3
 70
     1
 10
0.0
 20
0.0
 30
0.0
  3
*D3
  1

  0
LINE
  5
3C07
330
3C06
100
AcDbEntity
  8
寸法線
440
 16777216
370
    -2
100
AcDbLine
 10
162.4631702427099
 20
-327.4117320667281
 30
0.0
 11
133.6928114358354
 21
-327.4117320667281
 31
0.0
  0
LINE
  5
3C08
330
3C06
100
AcDbEntity
  8
寸法線
440
 16777216
370
    -2
100
AcDbLine
 10
158.36317024271
 20
-543.4117320667285
 30
0.0
 11
133.6928114358354
 21
-543.4117320667285
 31
0.0
  0
LINE
  5
3C09
330
3C06
100
AcDbEntity
  8
寸法線
440
 16777216
370
    -2
100
AcDbLine
 10
136.1928114358354
 20
-330.9117320667281
 30
0.0
 11
136.1928114358354
 21
-539.9117320667285
 31
0.0
  0
SOLID
  5
3C0A
330
3C06
100
AcDbEntity
  8
寸法線
440
 16777216
100
AcDbTrace
 10
135.6094781025021
 20
-330.9117320667281
 30
0.0
 11
136.7761447691688
 21
-330.9117320667281
 31
0.0
 12
136.1928114358354
 22
-327.4117320667281
 32
0.0
 13
136.1928114358354
 23
-327.4117320667281
 33
0.0
  0
SOLID
  5
3C0B
330
3C06
100
AcDbEntity
  8
寸法線
440
 16777216
100
AcDbTrace
 10
135.6094781025021
 20
-539.9117320667285
 30
0.0
 11
136.7761447691687
 21
-539.9117320667285
 31
0.0
 12
136.1928114358354
 22
-543.4117320667285
 32
0.0
 13
136.1928114358354
 23
-543.4117320667285
 33
0.0
  0
MTEXT
  5
3C0C
330
3C06
100
AcDbEntity
  8
寸法線
440
 16777216
100
AcDbMText
 10
131.2921224594576
 20
-435.4117320667283
 30
0.0
 40
7.0
 41
0.0
 46
0.0
 71
     5
 72
     1
  1
205～225
 11
0.0000000000000001
 21
1.0
 31
0.0
 73
     1
 44
1.0
  0
POINT
  5
3C0D
330
3C06
100
AcDbEntity
  8
Defpoints
 62
     0
440
 16777216
100
AcDbPoint
 10
176.4631702427099
 20
-327.4117320667281
 30
0.0
  0
POINT
  5
3C0E
330
3C06
100
AcDbEntity
  8
Defpoints
 62
     0
440
 16777216
100
AcDbPoint
 10
172.36317024271
 20
-543.4117320667285
 30
0.0
  0
POINT
  5
3C0F
330
3C06
100
AcDbEntity
  8
Defpoints
 62
     0
440
 16777216
100
AcDbPoint
 10
136.1928114358354
 20
-543.4117320667285
 30
0.0
  0
ENDBLK
  5
3C11
330
3C06
100
AcDbEntity
  8
0
100
AcDbBlockEnd
  0
BLOCK
  5
3C1C
330
3C12
100
AcDbEntity
  8
0
100
AcDbBlockBegin
  2
*D4
 70
     1
 10
0.0
 20
0.0
 30
0.0
  3
*D4
  1

  0
LINE
  5
3C13
330
3C12
100
AcDbEntity
  8
寸法線
440
 16777216
370
    -2
100
AcDbLine
 10
177.36317024271
 20
-452.4117320667285
 30
0.0
 11
149.9262171660541
 21
-452.4117320667285
 31
0.0
  0
LINE
  5
3C14
330
3C12
100
AcDbEntity
  8
寸法線
440
 16777216
370
    -2
100
AcDbLine
 10
162.4631702427099
 20
-327.4117320667281
 30
0.0
 11
149.9262171660541
 21
-327.4117320667281
 31
0.0
  0
LINE
  5
3C15
330
3C12
100
AcDbEntity
  8
寸法線
440
 16777216
370
    -2
100
AcDbLine
 10
152.4262171660541
 20
-448.9117320667283
 30
0.0
 11
152.4262171660541
 21
-330.9117320667281
 31
0.0
  0
SOLID
  5
3C16
330
3C12
100
AcDbEntity
  8
寸法線
440
 16777216
100
AcDbTrace
 10
151.8428838327207
 20
-448.9117320667283
 30
0.0
 11
153.0095504993874
 21
-448.9117320667283
 31
0.0
 12
152.4262171660541
 22
-452.4117320667285
 32
0.0
 13
152.4262171660541
 23
-452.4117320667285
 33
0.0
  0
SOLID
  5
3C17
330
3C12
100
AcDbEntity
  8
寸法線
440
 16777216
100
AcDbTrace
 10
151.8428838327208
 20
-330.9117320667281
 30
0.0
 11
153.0095504993874
 21
-330.9117320667281
 31
0.0
 12
152.4262171660541
 22
-327.4117320667281
 32
0.0
 13
152.4262171660541
 23
-327.4117320667281
 33
0.0
  0
MTEXT
  5
3C18
330
3C12
100
AcDbEntity
  8
寸法線
440
 16777216
100
AcDbMText
 10
147.5262171660542
 20
-389.9117320667282
 30
0.0
 40
7.0
 41
0.0
 46
0.0
 71
     5
 72
     1
  1
115～135
 11
0.0000000000000001
 21
1.0
 31
0.0
 73
     1
 44
1.0
  0
POINT
  5
3C19
330
3C12
100
AcDbEntity
  8
Defpoints
 62
     0
440
 16777216
100
AcDbPoint
 10
191.36317024271
 20
-452.4117320667285
 30
0.0
  0
POINT
  5
3C1A
330
3C12
100
AcDbEntity
  8
Defpoints
 62
     0
440
 16777216
100
AcDbPoint
 10
176.4631702427099
 20
-327.4117320667281
 30
0.0
  0
POINT
  5
3C1B
330
3C12
100
AcDbEntity
  8
Defpoints
 62
     0
440
 16777216
100
AcDbPoint
 10
152.4262171660541
 20
-327.4117320667281
 30
0.0
  0
ENDBLK
  5
3C1D
330
3C12
100
AcDbEntity
  8
0
100
AcDbBlockEnd
  0
BLOCK
  5
3C28
330
3C1E
100
AcDbEntity
  8
0
100
AcDbBlockBegin
  2
*D5
 70
     1
 10
0.0
 20
0.0
 30
0.0
  3
*D5
  1

  0
LINE
  5
3C1F
330
3C1E
100
AcDbEntity
  8
寸法線
440
 16777216
370
    -2
100
AcDbLine
 10
158.36317024271
 20
-543.4117320667285
 30
0.0
 11
149.9262171660541
 21
-543.4117320667285
 31
0.0
  0
LINE
  5
3C20
330
3C1E
100
AcDbEntity
  8
寸法線
440
 16777216
370
    -2
100
AcDbLine
 10
177.36317024271
 20
-452.4117320667285
 30
0.0
 11
149.9262171660541
 21
-452.4117320667285
 31
0.0
  0
LINE
  5
3C21
330
3C1E
100
AcDbEntity
  8
寸法線
440
 16777216
370
    -2
100
AcDbLine
 10
152.4262171660541
 20
-539.9117320667285
 30
0.0
 11
152.4262171660541
 21
-455.9117320667285
 31
0.0
  0
SOLID
  5
3C22
330
3C1E
100
AcDbEntity
  8
寸法線
440
 16777216
100
AcDbTrace
 10
151.8428838327208
 20
-539.9117320667285
 30
0.0
 11
153.0095504993874
 21
-539.9117320667285
 31
0.0
 12
152.4262171660541
 22
-543.4117320667285
 32
0.0
 13
152.4262171660541
 23
-543.4117320667285
 33
0.0
  0
SOLID
  5
3C23
330
3C1E
100
AcDbEntity
  8
寸法線
440
 16777216
100
AcDbTrace
 10
151.8428838327208
 20
-455.9117320667285
 30
0.0
 11
153.0095504993874
 21
-455.9117320667285
 31
0.0
 12
152.4262171660541
 22
-452.4117320667285
 32
0.0
 13
152.4262171660541
 23
-452.4117320667285
 33
0.0
  0
MTEXT
  5
3C24
330
3C1E
100
AcDbEntity
  8
寸法線
440
 16777216
100
AcDbMText
 10
147.5262171660542
 20
-497.9117320667285
 30
0.0
 40
7.0
 41
0.0
 46
0.0
 71
     5
 72
     1
  1
91
 11
0.0000000000000001
 21
1.0
 31
0.0
 73
     1
 44
1.0
  0
POINT
  5
3C25
330
3C1E
100
AcDbEntity
  8
Defpoints
 62
     0
440
 16777216
100
AcDbPoint
 10
172.36317024271
 20
-543.4117320667285
 30
0.0
  0
POINT
  5
3C26
330
3C1E
100
AcDbEntity
  8
Defpoints
 62
     0
440
 16777216
100
AcDbPoint
 10
191.36317024271
 20
-452.4117320667285
 30
0.0
  0
POINT
  5
3C27
330
3C1E
100
AcDbEntity
  8
Defpoints
 62
     0
440
 16777216
100
AcDbPoint
 10
152.4262171660541
 20
-452.4117320667285
 30
0.0
  0
ENDBLK
  5
3C29
330
3C1E
100
AcDbEntity
  8
0
100
AcDbBlockEnd
  0
BLOCK
  5
3C41
330
3C37
100
AcDbEntity
  8
0
100
AcDbBlockBegin
  2
*D6
 70
     1
 10
0.0
 20
0.0
 30
0.0
  3
*D6
  1

  0
LINE
  5
3C86
330
3C37
100
AcDbEntity
  8
寸法線
440
 16777216
370
    -2
100
AcDbLine
 10
304.7588362532251
 20
-346.4214286613725
 30
0.0
 11
304.7588362532251
 21
-344.2865482039965
 31
0.0
  0
LINE
  5
3C87
330
3C37
100
AcDbEntity
  8
寸法線
440
 16777216
370
    -2
100
AcDbLine
 10
329.7588362532271
 20
-346.4214286613723
 30
0.0
 11
329.7588362532271
 21
-344.2865482039965
 31
0.0
  0
LINE
  5
3C88
330
3C37
100
AcDbEntity
  8
寸法線
440
 16777216
370
    -2
100
AcDbLine
 10
308.2588362532251
 20
-341.7865482039965
 30
0.0
 11
326.258836253227
 21
-341.7865482039965
 31
0.0
  0
SOLID
  5
3C89
330
3C37
100
AcDbEntity
  8
寸法線
440
 16777216
100
AcDbTrace
 10
308.2588362532251
 20
-341.2032148706631
 30
0.0
 11
308.2588362532251
 21
-342.3698815373299
 31
0.0
 12
304.7588362532251
 22
-341.7865482039965
 32
0.0
 13
304.7588362532251
 23
-341.7865482039965
 33
0.0
  0
SOLID
  5
3C8A
330
3C37
100
AcDbEntity
  8
寸法線
440
 16777216
100
AcDbTrace
 10
326.258836253227
 20
-341.2032148706631
 30
0.0
 11
326.258836253227
 21
-342.3698815373299
 31
0.0
 12
329.7588362532271
 22
-341.7865482039965
 32
0.0
 13
329.7588362532271
 23
-341.7865482039965
 33
0.0
  0
MTEXT
  5
3C8B
330
3C37
100
AcDbEntity
  8
寸法線
440
 16777216
100
AcDbMText
 10
317.2588362532262
 20
-336.8858592276185
 30
0.0
 40
7.0
 41
0.0
 46
0.0
 71
     5
 72
     1
  1
%%c25
 73
     1
 44
1.0
  0
POINT
  5
3C8C
330
3C37
100
AcDbEntity
  8
Defpoints
 62
     0
440
 16777216
100
AcDbPoint
 10
304.7588362532251
 20
-332.4214286613726
 30
0.0
  0
POINT
  5
3C8D
330
3C37
100
AcDbEntity
  8
Defpoints
 62
     0
440
 16777216
100
AcDbPoint
 10
329.7588362532271
 20
-332.4214286613723
 30
0.0
  0
POINT
  5
3C8E
330
3C37
100
AcDbEntity
  8
Defpoints
 62
     0
440
 16777216
100
AcDbPoint
 10
329.7588362532271
 20
-341.7865482039965
 30
0.0
  0
ENDBLK
  5
3C42
330
3C37
100
AcDbEntity
  8
0
100
AcDbBlockEnd
  0
BLOCK
  5
3C4D
330
3C43
100
AcDbEntity
  8
0
100
AcDbBlockBegin
  2
*D7
 70
     1
 10
0.0
 20
0.0
 30
0.0
  3
*D7
  1

  0
LINE
  5
3C44
330
3C43
100
AcDbEntity
  8
寸法線
440
 16777216
370
    -2
100
AcDbLine
 10
302.358836253227
 20
-268.0714286613726
 30
0.0
 11
302.358836253227
 21
-257.680587932829
 31
0.0
  0
LINE
  5
3C45
330
3C43
100
AcDbEntity
  8
寸法線
440
 16777216
370
    -2
100
AcDbLine
 10
332.1588362532271
 20
-268.0714286613723
 30
0.0
 11
332.1588362532271
 21
-257.680587932829
 31
0.0
  0
LINE
  5
3C46
330
3C43
100
AcDbEntity
  8
寸法線
440
 16777216
370
    -2
100
AcDbLine
 10
305.858836253227
 20
-260.180587932829
 30
0.0
 11
328.658836253227
 21
-260.180587932829
 31
0.0
  0
SOLID
  5
3C47
330
3C43
100
AcDbEntity
  8
寸法線
440
 16777216
100
AcDbTrace
 10
305.858836253227
 20
-259.5972545994957
 30
0.0
 11
305.858836253227
 21
-260.7639212661623
 31
0.0
 12
302.358836253227
 22
-260.180587932829
 32
0.0
 13
302.358836253227
 23
-260.180587932829
 33
0.0
  0
SOLID
  5
3C48
330
3C43
100
AcDbEntity
  8
寸法線
440
 16777216
100
AcDbTrace
 10
328.658836253227
 20
-259.5972545994957
 30
0.0
 11
328.658836253227
 21
-260.7639212661623
 31
0.0
 12
332.1588362532271
 22
-260.180587932829
 32
0.0
 13
332.1588362532271
 23
-260.180587932829
 33
0.0
  0
MTEXT
  5
3C49
330
3C43
100
AcDbEntity
  8
寸法線
440
 16777216
100
AcDbMText
 10
317.258836253227
 20
-255.279898956451
 30
0.0
 40
7.0
 41
0.0
 46
0.0
 71
     5
 72
     1
  1
%%c29.8
 73
     1
 44
1.0
  0
POINT
  5
3C4A
330
3C43
100
AcDbEntity
  8
Defpoints
 62
     0
440
 16777216
100
AcDbPoint
 10
302.358836253227
 20
-282.0714286613726
 30
0.0
  0
POINT
  5
3C4B
330
3C43
100
AcDbEntity
  8
Defpoints
 62
     0
440
 16777216
100
AcDbPoint
 10
332.1588362532271
 20
-282.0714286613723
 30
0.0
  0
POINT
  5
3C4C
330
3C43
100
AcDbEntity
  8
Defpoints
 62
     0
440
 16777216
100
AcDbPoint
 10
332.1588362532271
 20
-260.180587932829
 30
0.0
  0
ENDBLK
  5
3C4E
330
3C43
100
AcDbEntity
  8
0
100
AcDbBlockEnd
  0
BLOCK
  5
3C59
330
3C4F
100
AcDbEntity
  8
0
100
AcDbBlockBegin
  2
*D8
 70
     1
 10
0.0
 20
0.0
 30
0.0
  3
*D8
  1

  0
LINE
  5
3C7D
330
3C4F
100
AcDbEntity
  8
寸法線
440
 16777216
370
    -2
100
AcDbLine
 10
524.6222856162424
 20
-422.4117320667279
 30
0.0
 11
536.9339550672987
 21
-422.4117320667279
 31
0.0
  0
LINE
  5
3C7E
330
3C4F
100
AcDbEntity
  8
寸法線
440
 16777216
370
    -2
100
AcDbLine
 10
524.6222856162424
 20
-482.4117320667278
 30
0.0
 11
536.9339550672987
 21
-482.4117320667278
 31
0.0
  0
LINE
  5
3C7F
330
3C4F
100
AcDbEntity
  8
寸法線
440
 16777216
370
    -2
100
AcDbLine
 10
534.4339550672986
 20
-425.9117320667279
 30
0.0
 11
534.4339550672986
 21
-478.9117320667278
 31
0.0
  0
SOLID
  5
3C80
330
3C4F
100
AcDbEntity
  8
寸法線
440
 16777216
100
AcDbTrace
 10
533.8506217339653
 20
-425.9117320667279
 30
0.0
 11
535.0172884006321
 21
-425.9117320667279
 31
0.0
 12
534.4339550672986
 22
-422.4117320667279
 32
0.0
 13
534.4339550672986
 23
-422.4117320667279
 33
0.0
  0
SOLID
  5
3C81
330
3C4F
100
AcDbEntity
  8
寸法線
440
 16777216
100
AcDbTrace
 10
533.8506217339653
 20
-478.9117320667278
 30
0.0
 11
535.0172884006321
 21
-478.9117320667278
 31
0.0
 12
534.4339550672986
 22
-482.4117320667278
 32
0.0
 13
534.4339550672986
 23
-482.4117320667278
 33
0.0
  0
MTEXT
  5
3C82
330
3C4F
100
AcDbEntity
  8
寸法線
440
 16777216
100
AcDbMText
 10
529.5339550672988
 20
-452.4117320667278
 30
0.0
 40
7.0
 41
0.0
 46
0.0
 71
     5
 72
     1
  1
%%c60
 11
0.0000000000000001
 21
1.0
 31
0.0
 73
     1
 44
1.0
  0
POINT
  5
3C83
330
3C4F
100
AcDbEntity
  8
Defpoints
 62
     0
440
 16777216
100
AcDbPoint
 10
510.6222856162424
 20
-422.4117320667279
 30
0.0
  0
POINT
  5
3C84
330
3C4F
100
AcDbEntity
  8
Defpoints
 62
     0
440
 16777216
100
AcDbPoint
 10
510.6222856162424
 20
-482.4117320667278
 30
0.0
  0
POINT
  5
3C85
330
3C4F
100
AcDbEntity
  8
Defpoints
 62
     0
440
 16777216
100
AcDbPoint
 10
534.4339550672986
 20
-482.4117320667278
 30
0.0
  0
ENDBLK
  5
3C5A
330
3C4F
100
AcDbEntity
  8
0
100
AcDbBlockEnd
  0
BLOCK
  5
3C66
330
3C5B
100
AcDbEntity
  8
0
100
AcDbBlockBegin
  2
*D9
 70
     1
 10
0.0
 20
0.0
 30
0.0
  3
*D9
  1

  0
LINE
  5
3CEC
330
3C5B
100
AcDbEntity
  8
寸法線
440
 16777216
370
    -2
100
AcDbLine
 10
377.2927279294762
 20
-464.9117320667283
 30
0.0
 11
373.5609544028081
 21
-464.9117320667283
 31
0.0
  0
LINE
  5
3CED
330
3C5B
100
AcDbEntity
  8
寸法線
440
 16777216
370
    -2
100
AcDbLine
 10
377.2927279294763
 20
-439.9117320667283
 30
0.0
 11
373.5609544028081
 21
-439.9117320667283
 31
0.0
  0
LINE
  5
3CEE
330
3C5B
100
AcDbEntity
  8
寸法線
440
 16777216
370
    -2
100
AcDbLine
 10
371.0609544028081
 20
-443.4117320667282
 30
0.0
 11
371.0609544028081
 21
-461.4117320667283
 31
0.0
  0
LINE
  5
3CEF
330
3C5B
100
AcDbEntity
  8
寸法線
440
 16777216
370
    -2
100
AcDbLine
 10
371.0609544028081
 20
-464.9117320667283
 30
0.0
 11
371.0609544028081
 21
-485.5016815603895
 31
0.0
  0
SOLID
  5
3CF0
330
3C5B
100
AcDbEntity
  8
寸法線
440
 16777216
100
AcDbTrace
 10
370.4776210694748
 20
-443.4117320667282
 30
0.0
 11
371.6442877361413
 21
-443.4117320667282
 31
0.0
 12
371.0609544028081
 22
-439.9117320667283
 32
0.0
 13
371.0609544028081
 23
-439.9117320667283
 33
0.0
  0
SOLID
  5
3CF1
330
3C5B
100
AcDbEntity
  8
寸法線
440
 16777216
100
AcDbTrace
 10
370.4776210694748
 20
-461.4117320667283
 30
0.0
 11
371.6442877361413
 21
-461.4117320667283
 31
0.0
 12
371.0609544028081
 22
-464.9117320667283
 32
0.0
 13
371.0609544028081
 23
-464.9117320667283
 33
0.0
  0
MTEXT
  5
3CF2
330
3C5B
100
AcDbEntity
  8
寸法線
440
 16777216
100
AcDbMText
 10
366.1602654264302
 20
-476.9567068135589
 30
0.0
 40
7.0
 41
0.0
 46
0.0
 71
     5
 72
     1
  1
%%c25
 11
0.0000000000000001
 21
1.0
 31
0.0
 73
     1
 44
1.0
  0
POINT
  5
3CF3
330
3C5B
100
AcDbEntity
  8
Defpoints
 62
     0
440
 16777216
100
AcDbPoint
 10
363.2927279294762
 20
-464.9117320667283
 30
0.0
  0
POINT
  5
3CF4
330
3C5B
100
AcDbEntity
  8
Defpoints
 62
     0
440
 16777216
100
AcDbPoint
 10
363.2927279294763
 20
-439.9117320667283
 30
0.0
  0
POINT
  5
3CF5
330
3C5B
100
AcDbEntity
  8
Defpoints
 62
     0
440
 16777216
100
AcDbPoint
 10
371.0609544028081
 20
-439.9117320667283
 30
0.0
  0
ENDBLK
  5
3C67
330
3C5B
100
AcDbEntity
  8
0
100
AcDbBlockEnd
  0
BLOCK
  5
3C72
330
3C68
100
AcDbEntity
  8
0
100
AcDbBlockBegin
  2
*D10
 70
     1
 10
0.0
 20
0.0
 30
0.0
  3
*D10
  1

  0
LINE
  5
3C74
330
3C68
100
AcDbEntity
  8
寸法線
440
 16777216
370
    -2
100
AcDbLine
 10
510.6222856162424
 20
-496.4117320667279
 30
0.0
 11
510.6222856162424
 21
-509.5317247947531
 31
0.0
  0
LINE
  5
3C75
330
3C68
100
AcDbEntity
  8
寸法線
440
 16777216
370
    -2
100
AcDbLine
 10
494.6222856162428
 20
-480.411732066728
 30
0.0
 11
494.6222856162428
 21
-509.5317247947531
 31
0.0
  0
LINE
  5
3C76
330
3C68
100
AcDbEntity
  8
寸法線
440
 16777216
370
    -2
100
AcDbLine
 10
507.1222856162424
 20
-507.0317247947531
 30
0.0
 11
498.1222856162428
 21
-507.0317247947531
 31
0.0
  0
SOLID
  5
3C77
330
3C68
100
AcDbEntity
  8
寸法線
440
 16777216
100
AcDbTrace
 10
507.1222856162424
 20
-506.4483914614198
 30
0.0
 11
507.1222856162424
 21
-507.6150581280863
 31
0.0
 12
510.6222856162424
 22
-507.0317247947531
 32
0.0
 13
510.6222856162424
 23
-507.0317247947531
 33
0.0
  0
SOLID
  5
3C78
330
3C68
100
AcDbEntity
  8
寸法線
440
 16777216
100
AcDbTrace
 10
498.1222856162428
 20
-506.4483914614198
 30
0.0
 11
498.1222856162428
 21
-507.6150581280863
 31
0.0
 12
494.6222856162428
 22
-507.0317247947531
 32
0.0
 13
494.6222856162428
 23
-507.0317247947531
 33
0.0
  0
MTEXT
  5
3C79
330
3C68
100
AcDbEntity
  8
寸法線
440
 16777216
100
AcDbMText
 10
502.6222856162426
 20
-502.131724794753
 30
0.0
 40
7.0
 41
0.0
 46
0.0
 71
     5
 72
     1
  1
16
 73
     1
 44
1.0
  0
POINT
  5
3C7A
330
3C68
100
AcDbEntity
  8
Defpoints
 62
     0
440
 16777216
100
AcDbPoint
 10
510.6222856162424
 20
-482.4117320667278
 30
0.0
  0
POINT
  5
3C7B
330
3C68
100
AcDbEntity
  8
Defpoints
 62
     0
440
 16777216
100
AcDbPoint
 10
494.6222856162428
 20
-466.4117320667279
 30
0.0
  0
POINT
  5
3C7C
330
3C68
100
AcDbEntity
  8
Defpoints
 62
     0
440
 16777216
100
AcDbPoint
 10
494.6222856162428
 20
-507.0317247947531
 30
0.0
  0
ENDBLK
  5
3C73
330
3C68
100
AcDbEntity
  8
0
100
AcDbBlockEnd
  0
ENDSEC
  0
SECTION
  2
ENTITIES
  0
MTEXT
  5
54
330
1F
100
AcDbEntity
  8
図枠
100
AcDbMText
 10
88.0
 20
12.0
 30
0.0
 40
5.0
 41
16.0
 46
0.0
 71
     1
 72
     5
  1

  7
symbols
 73
     1
 44
1.0
  0
MTEXT
  5
C3
330
1F
100
AcDbEntity
  8
外形線
100
AcDbMText
 10
1.0
 20
13.0
 30
0.0
 40
5.0
 41
0.0
 46
0.0
 71
     1
 72
     5
  1

  7
symbols
 73
     1
 44
1.0
  0
MTEXT
  5
3242
330
1F
100
AcDbEntity
  8
図枠
100
AcDbMText
 10
-637.0954545794806
 20
-562.4091501563412
 30
0.0
 40
5.0
 41
50.0
 46
0.0
 71
     5
 72
     5
  1

  7
symbols
 73
     1
 44
1.0
  0
DIMENSION
  5
3AC7
102
{ACAD_XDICTIONARY
360
3AC8
102
}
102
{ACAD_REACTORS
330
3AC9
102
}
330
1F
100
AcDbEntity
  8
寸法線
100
AcDbDimension
280
     0
  2
*D1
 10
516.3631702427099
 20
-593.220001331189
 30
0.0
 11
353.8631702427101
 21
-588.3193123548108
 31
0.0
 70
    32
 71
     5
 42
324.9999999999999
 73
     0
 74
     0
 75
     0
  3
ISO-25
100
AcDbAlignedDimension
 13
191.36317024271
 23
-570.3921682114105
 33
0.0
 14
516.3631702427099
 24
-464.9117320667285
 34
0.0
100
AcDbRotatedDimension
1001
ACAD
1000
DSTYLE
1002
{
1070
    41
1040
3.5
1070
    42
1040
14.0
1070
    43
1040
9.375
1070
    44
1040
2.5
1070
    47
1040
0.3
1070
    48
1040
0.3
1070
   140
1040
7.0
1070
   141
1040
7.0
1070
   147
1040
1.399999999999999
1070
   176
1070
   256
1070
   177
1070
   256
1070
   178
1070
   256
1002
}
  0
LINE
  5
3ACD
102
{ACAD_REACTORS
330
3BC0
102
}
330
1F
100
AcDbEntity
  8
外形線
100
AcDbLine
 10
231.96317024271
 20
-439.9117320667282
 30
0.0
 11
494.6222856162425
 21
-439.9117320667283
 31
0.0
  0
LINE
  5
3ACE
102
{ACAD_REACTORS
330
3BC0
102
}
330
1F
100
AcDbEntity
  8
外形線
100
AcDbLine
 10
231.9631702427101
 20
-464.9117320667282
 30
0.0
 11
494.6222856162424
 21
-464.9117320667285
 31
0.0
  0
LINE
  5
3ACF
102
{ACAD_REACTORS
330
3AE3
330
3AD7
102
}
330
1F
100
AcDbEntity
  8
中心線
100
AcDbLine
 10
191.36317024271
 20
-452.4117320667285
 30
0.0
 11
520.2534394425916
 21
-452.4117320667285
 31
0.0
  0
LWPOLYLINE
  5
3AD0
330
1F
100
AcDbEntity
  8
図枠
100
AcDbPolyline
 90
        4
 70
     1
 43
0.0
 10
629.8950208314168
 20
-633.0332085950426
 10
629.8950208314168
 20
-217.033208599219
 10
39.89502083734033
 20
-217.033208599219
 10
39.89502083734033
 20
-633.0332085950423
  0
DIMENSION
  5
3AD2
102
{ACAD_XDICTIONARY
360
3AD3
102
}
102
{ACAD_REACTORS
330
3AD4
102
}
330
1F
100
AcDbEntity
  8
寸法線
100
AcDbDimension
280
     0
  2
*D3
 10
136.1928114358354
 20
-543.4117320667285
 30
0.0
 11
131.2921224594576
 21
-435.4117320667283
 31
0.0
 70
    32
  1
205～225
 71
     5
 42
216.0000000000005
 73
     0
 74
     0
 75
     0
  3
ISO-25
100
AcDbAlignedDimension
 13
176.4631702427099
 23
-327.4117320667281
 33
0.0
 14
172.36317024271
 24
-543.4117320667285
 34
0.0
 50
90.0
100
AcDbRotatedDimension
1001
ACAD
1000
DSTYLE
1002
{
1070
    41
1040
3.5
1070
    42
1040
14.0
1070
    43
1040
9.375
1070
    44
1040
2.5
1070
    47
1040
0.3
1070
    48
1040
0.3
1070
   140
1040
7.0
1070
   141
1040
7.0
1070
   147
1040
1.399999999999999
1070
   176
1070
   256
1070
   177
1070
   256
1070
   178
1070
   256
1002
}
  0
DIMENSION
  5
3AD5
102
{ACAD_XDICTIONARY
360
3AD6
102
}
102
{ACAD_REACTORS
330
3AD7
102
}
330
1F
100
AcDbEntity
  8
寸法線
100
AcDbDimension
280
     0
  2
*D4
 10
152.4262171660541
 20
-327.4117320667281
 30
0.0
 11
147.5262171660542
 21
-389.9117320667282
 31
0.0
 70
    32
  1
115～135
 71
     5
 42
125.0000000000004
 73
     0
 74
     0
 75
     0
  3
ISO-25
100
AcDbAlignedDimension
 13
191.36317024271
 23
-452.4117320667285
 33
0.0
 14
176.4631702427099
 24
-327.4117320667281
 34
0.0
 50
90.0
100
AcDbRotatedDimension
1001
ACAD
1000
DSTYLE
1002
{
1070
   279
1070
     1
1070
    41
1040
3.5
1070
    42
1040
14.0
1070
    43
1040
9.375
1070
    44
1040
2.5
1070
    47
1040
0.3
1070
    48
1040
0.3
1070
   140
1040
7.0
1070
   141
1040
7.0
1070
   147
1040
1.399999999999999
1070
   176
1070
   256
1070
   177
1070
   256
1070
   178
1070
   256
1002
}
  0
LINE
  5
3ADC
330
1F
100
AcDbEntity
  8
外形線
100
AcDbLine
 10
172.3131702427099
 20
-540.4117320667285
 30
0.0
 11
172.31317024271
 21
-419.9117320667282
 31
0.0
  0
LINE
  5
3ADD
330
1F
100
AcDbEntity
  8
外形線
100
AcDbLine
 10
210.4131702427099
 20
-434.9117320667285
 30
0.0
 11
210.4131702427099
 21
-419.911732066728
 31
0.0
  0
LINE
  5
3ADF
102
{ACAD_REACTORS
330
3AC9
330
3AE5
102
}
330
1F
100
AcDbEntity
  8
中心線
100
AcDbLine
 10
191.36317024271
 20
-570.3921682114105
 30
0.0
 11
191.36317024271
 21
-323.1210039999969
 31
0.0
  0
DIMENSION
  5
3AE1
102
{ACAD_XDICTIONARY
360
3AE2
102
}
102
{ACAD_REACTORS
330
3AE3
102
}
330
1F
100
AcDbEntity
  8
寸法線
100
AcDbDimension
280
     0
  2
*D5
 10
152.4262171660541
 20
-452.4117320667285
 30
0.0
 11
147.5262171660542
 21
-497.9117320667285
 31
0.0
 70
    32
 71
     5
 42
91.00000000000006
 73
     0
 74
     0
 75
     0
  3
ISO-25
100
AcDbAlignedDimension
 13
172.36317024271
 23
-543.4117320667285
 33
0.0
 14
191.36317024271
 24
-452.4117320667285
 34
0.0
 50
90.0
100
AcDbRotatedDimension
1001
ACAD
1000
DSTYLE
1002
{
1070
    41
1040
3.5
1070
    42
1040
14.0
1070
    43
1040
9.375
1070
    44
1040
2.5
1070
    47
1040
0.3
1070
    48
1040
0.3
1070
   140
1040
7.0
1070
   141
1040
7.0
1070
   147
1040
1.399999999999999
1070
   176
1070
   256
1070
   177
1070
   256
1070
   178
1070
   256
1002
}
  0
MTEXT
  5
3AE4
102
{ACAD_REACTORS
330
3AED
102
}
330
1F
100
AcDbEntity
  8
文字
100
AcDbMText
 10
149.7971401605872
 20
-573.4574019940482
 30
0.0
 40
7.0
 41
0.0
 46
0.0
 71
     6
 72
     1
  1
キャップ取外し\P清掃可能
  7
symbols
 73
     1
 44
1.0
  0
HATCH
  5
3AE5
330
1F
100
AcDbEntity
  8
ハッチング
100
AcDbHatch
 10
0.0
 20
0.0
 30
0.0
210
0.0
220
0.0
230
1.0
  2
SOLID
 70
     1
 71
     1
 91
        2
 92
        7
 72
     1
 73
     1
 93
        4
 10
176.23817024271
 20
-561.5396156647567
 42
1.0
 10
176.23817024271
 20
-563.7896156647567
 42
0.0
 10
191.36317024271
 20
-563.7896156647567
 42
0.0
 10
191.36317024271
 20
-561.5396156647569
 42
0.0
 97
        4
330
3AE8
330
3AEE
330
3AEC
330
3ADF
 92
        7
 72
     1
 73
     1
 93
        4
 10
191.36317024271
 20
-561.5396156647569
 42
0.0
 10
191.36317024271
 20
-563.7896156647569
 42
0.0
 10
206.48817024271
 20
-563.7896156647567
 42
1.0
 10
206.48817024271
 20
-561.5396156647567
 42
0.0
 97
        4
330
3AE8
330
3ADF
330
3AEC
330
3AF8
 75
     0
 76
     1
 47
0.0380513029142808
 98
        2
 10
189.5071428511548
 20
-562.5884312550165
 10
194.45478741484
 20
-562.2079171913973
450
        0
451
        0
460
0.0
461
0.0
452
        0
462
0.0
453
        0
470

  0
HATCH
  5
3AE6
330
1F
100
AcDbEntity
  8
ハッチング
100
AcDbHatch
 10
0.0
 20
0.0
 30
0.0
210
0.0
220
0.0
230
1.0
  2
LINE
 70
     0
 71
     0
 91
        3
 92
        7
 72
     0
 73
     1
 93
        6
 10
204.86317024271
 20
-556.9896156647567
 10
191.36317024271
 20
-556.9896156647567
 10
177.86317024271
 20
-556.9896156647567
 10
177.86317024271
 20
-561.5396156647569
 10
191.3631702427101
 20
-561.5396156647569
 10
204.86317024271
 20
-561.5396156647569
 97
        0
 92
        7
 72
     0
 73
     1
 93
        4
 10
177.86317024271
 20
-556.9896156647567
 10
177.36317024271
 20
-556.9896156647567
 10
177.3631702427099
 20
-561.5396156647569
 10
177.86317024271
 20
-561.5396156647569
 97
        0
 92
        7
 72
     0
 73
     1
 93
        4
 10
205.36317024271
 20
-556.9896156647567
 10
204.86317024271
 20
-556.9896156647567
 10
204.86317024271
 20
-561.5396156647569
 10
205.3631702427101
 20
-561.5396156647569
 97
        0
 75
     0
 76
     1
 52
1.5
 41
0.5
 77
     0
 78
     1
 53
1.499999999999995
 43
191.36317024271
 44
-465.4896156647568
 45
-0.0415559054387486
 46
1.586956003398696
 79
     0
 47
0.0424816144084754
 98
        3
 10
191.7145977460508
 20
-558.9192032045166
 10
177.560436314253
 20
-558.8342392612496
 10
205.061163782426
 20
-558.7492774333025
  0
LINE
  5
3AE7
330
1F
100
AcDbEntity
  8
外形線
100
AcDbLine
 10
205.36317024271
 20
-556.9896156647567
 30
0.0
 11
177.36317024271
 21
-556.9896156647567
 31
0.0
  0
LINE
  5
3AE8
102
{ACAD_REACTORS
330
3AE5
102
}
330
1F
100
AcDbEntity
  8
外形線
100
AcDbLine
 10
206.48817024271
 20
-561.5396156647569
 30
0.0
 11
176.23817024271
 21
-561.5396156647569
 31
0.0
  0
LINE
  5
3AE9
330
1F
100
AcDbEntity
  8
外形線
100
AcDbLine
 10
203.8631702427099
 20
-554.4896156647568
 30
0.0
 11
178.86317024271
 21
-554.4896156647568
 31
0.0
  0
LINE
  5
3AEA
330
1F
100
AcDbEntity
  8
外形線
100
AcDbLine
 10
204.36317024271
 20
-555.9896156647567
 30
0.0
 11
178.36317024271
 21
-555.9896156647567
 31
0.0
  0
LINE
  5
3AEB
330
1F
100
AcDbEntity
  8
外形線
100
AcDbLine
 10
175.61317024271
 20
-565.4896156647567
 30
0.0
 11
207.11317024271
 21
-565.4896156647567
 31
0.0
  0
LINE
  5
3AEC
102
{ACAD_REACTORS
330
3AE5
102
}
330
1F
100
AcDbEntity
  8
外形線
100
AcDbLine
 10
207.11317024271
 20
-563.7896156647569
 30
0.0
 11
175.61317024271
 21
-563.7896156647569
 31
0.0
  0
LEADER
  5
3AED
330
1F
100
AcDbEntity
  8
文字
100
AcDbLeader
  3
ISO-25
 73
     0
 75
     1
 40
20.65651438240271
 41
61.86294416243654
 76
     3
 10
168.3175449068277
 20
-566.9735031623973
 30
0.0
 10
154.6971401605872
 20
-573.4574019940482
 30
0.0
 10
151.1971401605872
 20
-573.4574019940482
 30
0.0
340
3AE4
1001
ACAD
1000
DSTYLE
1002
{
1070
    77
1070
     0
1070
    41
1040
3.5
1070
    42
1040
20.0
1070
   140
1040
15.0
1070
   147
1040
1.399999999999999
1070
   340
1005
0
1002
}
  0
ARC
  5
3AEE
102
{ACAD_REACTORS
330
3AE5
102
}
330
1F
100
AcDbEntity
  8
外形線
100
AcDbCircle
 10
176.23817024271
 20
-562.6646156647567
 30
0.0
 40
1.125
100
AcDbArc
 50
90.0
 51
270.0
  0
LINE
  5
3AEF
330
1F
100
AcDbEntity
  8
外形線
100
AcDbLine
 10
175.61317024271
 20
-563.7896156647569
 30
0.0
 11
175.11317024271
 21
-564.2896156647569
 31
0.0
  0
LINE
  5
3AF0
330
1F
100
AcDbEntity
  8
外形線
100
AcDbLine
 10
175.11317024271
 20
-564.9896156647567
 30
0.0
 11
175.11317024271
 21
-564.2896156647569
 31
0.0
  0
LINE
  5
3AF1
330
1F
100
AcDbEntity
  8
外形線
100
AcDbLine
 10
175.11317024271
 20
-564.9896156647567
 30
0.0
 11
175.61317024271
 21
-565.4896156647567
 31
0.0
  0
LINE
  5
3AF2
330
1F
100
AcDbEntity
  8
外形線
100
AcDbLine
 10
177.86317024271
 20
-561.5396156647569
 30
0.0
 11
177.86317024271
 21
-556.4896156647567
 31
0.0
  0
LINE
  5
3AF3
330
1F
100
AcDbEntity
  8
外形線
100
AcDbLine
 10
178.36317024271
 20
-555.9896156647567
 30
0.0
 11
177.36317024271
 21
-556.9896156647567
 31
0.0
  0
LINE
  5
3AF4
330
1F
100
AcDbEntity
  8
外形線
100
AcDbLine
 10
177.3631702427099
 20
-561.5396156647569
 30
0.0
 11
177.36317024271
 21
-556.9896156647567
 31
0.0
  0
LINE
  5
3AF5
330
1F
100
AcDbEntity
  8
外形線
100
AcDbLine
 10
178.36317024271
 20
-555.9896156647567
 30
0.0
 11
178.36317024271
 21
-555.9896156647567
 31
0.0
  0
LINE
  5
3AF6
330
1F
100
AcDbEntity
  8
外形線
100
AcDbLine
 10
178.3631702427101
 20
-554.9896156647568
 30
0.0
 11
178.36317024271
 21
-555.9896156647567
 31
0.0
  0
LINE
  5
3AF7
330
1F
100
AcDbEntity
  8
外形線
100
AcDbLine
 10
178.8631702427101
 20
-554.4896156647568
 30
0.0
 11
178.3631702427101
 21
-554.9896156647568
 31
0.0
  0
ARC
  5
3AF8
102
{ACAD_REACTORS
330
3AE5
102
}
330
1F
100
AcDbEntity
  8
外形線
100
AcDbCircle
 10
206.48817024271
 20
-562.6646156647567
 30
0.0
 40
1.125
100
AcDbArc
 50
270.0
 51
90.0
  0
LINE
  5
3AF9
330
1F
100
AcDbEntity
  8
外形線
100
AcDbLine
 10
207.11317024271
 20
-563.7896156647569
 30
0.0
 11
207.61317024271
 21
-564.2896156647569
 31
0.0
  0
LINE
  5
3AFA
330
1F
100
AcDbEntity
  8
外形線
100
AcDbLine
 10
207.61317024271
 20
-564.9896156647567
 30
0.0
 11
207.61317024271
 21
-564.2896156647569
 31
0.0
  0
LINE
  5
3AFB
330
1F
100
AcDbEntity
  8
外形線
100
AcDbLine
 10
207.61317024271
 20
-564.9896156647567
 30
0.0
 11
207.11317024271
 21
-565.4896156647567
 31
0.0
  0
LINE
  5
3AFC
330
1F
100
AcDbEntity
  8
外形線
100
AcDbLine
 10
204.36317024271
 20
-555.9896156647567
 30
0.0
 11
205.36317024271
 21
-556.9896156647567
 31
0.0
  0
LINE
  5
3AFD
330
1F
100
AcDbEntity
  8
外形線
100
AcDbLine
 10
204.86317024271
 20
-561.5396156647569
 30
0.0
 11
204.86317024271
 21
-556.4896156647567
 31
0.0
  0
LINE
  5
3AFE
330
1F
100
AcDbEntity
  8
外形線
100
AcDbLine
 10
205.3631702427101
 20
-561.5396156647569
 30
0.0
 11
205.36317024271
 21
-556.9896156647567
 31
0.0
  0
LINE
  5
3AFF
330
1F
100
AcDbEntity
  8
外形線
100
AcDbLine
 10
204.3631702427099
 20
-554.9896156647568
 30
0.0
 11
204.36317024271
 21
-555.9896156647567
 31
0.0
  0
LINE
  5
3B00
330
1F
100
AcDbEntity
  8
外形線
100
AcDbLine
 10
204.36317024271
 20
-555.9896156647567
 30
0.0
 11
204.36317024271
 21
-555.9896156647567
 31
0.0
  0
LINE
  5
3B01
330
1F
100
AcDbEntity
  8
外形線
100
AcDbLine
 10
203.8631702427099
 20
-554.4896156647568
 30
0.0
 11
204.3631702427099
 21
-554.9896156647568
 31
0.0
  0
LINE
  5
3B05
330
1F
100
AcDbEntity
  8
外形線
100
AcDbLine
 10
210.4131702427099
 20
-540.4117320667285
 30
0.0
 11
210.4131702427097
 21
-469.9117320667283
 31
0.0
  0
LINE
  5
3B09
102
{ACAD_REACTORS
330
3AE3
330
3AD4
102
}
330
1F
100
AcDbEntity
  8
外形線
100
AcDbLine
 10
210.36317024271
 20
-543.4117320667285
 30
0.0
 11
172.36317024271
 21
-543.4117320667285
 31
0.0
  0
LINE
  5
3B0A
330
1F
100
AcDbEntity
  8
外形線
100
AcDbLine
 10
210.4131702427099
 20
-540.4117320667285
 30
0.0
 11
172.3131702427099
 21
-540.4117320667285
 31
0.0
  0
LINE
  5
3B0B
330
1F
100
AcDbEntity
  8
外形線
100
AcDbLine
 10
172.36317024271
 20
-543.4117320667285
 30
0.0
 11
172.36317024271
 21
-540.4117320667285
 31
0.0
  0
LINE
  5
3B0C
330
1F
100
AcDbEntity
  8
外形線
100
AcDbLine
 10
210.36317024271
 20
-543.4117320667285
 30
0.0
 11
210.36317024271
 21
-540.4117320667285
 31
0.0
  0
LINE
  5
3B12
330
1F
100
AcDbEntity
  8
外形線
100
AcDbLine
 10
220.4131702427099
 20
-452.4117320667285
 30
0.0
 11
220.4131702427099
 21
-469.9117320667283
 31
0.0
  0
ELLIPSE
  5
3B16
330
1F
100
AcDbEntity
  8
外形線
100
AcDbEllipse
 10
210.4131702427099
 20
-452.4117320667285
 30
0.0
 11
0.0
 21
17.5
 31
0.0
210
0.0
220
0.0
230
1.0
 40
0.7457142857142865
 41
0.0
 42
3.141592653589792
  0
LINE
  5
3B18
330
1F
100
AcDbEntity
  8
外形線
100
AcDbLine
 10
210.4131702427098
 20
-469.9117320667283
 30
0.0
 11
220.4131702427099
 21
-469.9117320667283
 31
0.0
  0
LINE
  5
3B1C
330
1F
100
AcDbEntity
  8
外形線
100
AcDbLine
 10
221.4131702427097
 20
-468.2617320667283
 30
0.0
 11
220.4131702427099
 21
-468.2617320667283
 31
0.0
  0
LINE
  5
3B1D
330
1F
100
AcDbEntity
  8
外形線
100
AcDbLine
 10
221.0631702427099
 20
-468.2617320667283
 30
0.0
 11
221.4131702427097
 21
-467.9117320667288
 31
0.0
  0
LINE
  5
3B23
330
1F
100
AcDbEntity
  8
外形線
100
AcDbLine
 10
210.4131702427099
 20
-434.9117320667285
 30
0.0
 11
220.4131702427099
 21
-434.9117320667285
 31
0.0
  0
LINE
  5
3B2E
330
1F
100
AcDbEntity
  8
外形線
100
AcDbLine
 10
220.4131702427099
 20
-452.4117320667285
 30
0.0
 11
220.4131702427099
 21
-434.9117320667285
 31
0.0
  0
LINE
  5
3B32
330
1F
100
AcDbEntity
  8
外形線
100
AcDbLine
 10
221.4131702427102
 20
-436.5617320667284
 30
0.0
 11
220.4131702427099
 21
-436.5617320667284
 31
0.0
  0
LINE
  5
3B33
330
1F
100
AcDbEntity
  8
外形線
100
AcDbLine
 10
221.0631702427099
 20
-436.5617320667284
 30
0.0
 11
221.4131702427102
 21
-436.9117320667285
 31
0.0
  0
LINE
  5
3B3C
330
1F
100
AcDbEntity
  8
外形線
100
AcDbLine
 10
221.4131702427103
 20
-471.4117320667285
 30
0.0
 11
231.96317024271
 21
-471.4117320667285
 31
0.0
  0
LINE
  5
3B48
330
1F
100
AcDbEntity
  8
外形線
100
AcDbLine
 10
221.4131702427097
 20
-471.4117320667285
 30
0.0
 11
221.4131702427103
 21
-433.4117320667285
 31
0.0
  0
LINE
  5
3B49
330
1F
100
AcDbEntity
  8
外形線
100
AcDbLine
 10
231.96317024271
 20
-433.4117320667285
 30
0.0
 11
231.96317024271
 21
-471.4117320667285
 31
0.0
  0
LINE
  5
3B50
330
1F
100
AcDbEntity
  8
外形線
100
AcDbLine
 10
231.9631702427091
 20
-446.5669732044488
 30
0.0
 11
221.4131702427089
 21
-446.5669732044488
 31
0.0
  0
LINE
  5
3B52
330
1F
100
AcDbEntity
  8
外形線
100
AcDbLine
 10
221.4131702427103
 20
-433.4117320667285
 30
0.0
 11
231.96317024271
 21
-433.4117320667285
 31
0.0
  0
LINE
  5
3B56
330
1F
100
AcDbEntity
  8
外形線
100
AcDbLine
 10
203.86317024271
 20
-406.0617320667281
 30
0.0
 11
203.86317024271
 21
-342.6117320667283
 31
0.0
  0
LINE
  5
3B57
330
1F
100
AcDbEntity
  8
外形線
100
AcDbLine
 10
178.8631702427097
 20
-406.0617320667281
 30
0.0
 11
178.86317024271
 21
-342.6117320667283
 31
0.0
  0
LINE
  5
3B5C
330
1F
100
AcDbEntity
  8
外形線
100
AcDbLine
 10
210.4131702427099
 20
-419.911732066728
 30
0.0
 11
172.31317024271
 21
-419.911732066728
 31
0.0
  0
LINE
  5
3B5D
330
1F
100
AcDbEntity
  8
外形線
100
AcDbLine
 10
210.36317024271
 20
-417.4117320667278
 30
0.0
 11
172.36317024271
 21
-417.4117320667285
 31
0.0
  0
LINE
  5
3B60
330
1F
100
AcDbEntity
  8
外形線
100
AcDbLine
 10
172.36317024271
 20
-417.4117320667285
 30
0.0
 11
172.36317024271
 21
-419.911732066728
 31
0.0
  0
LINE
  5
3B62
330
1F
100
AcDbEntity
  8
外形線
100
AcDbLine
 10
175.4631702427101
 20
-416.6117320667281
 30
0.0
 11
175.4631702427101
 21
-417.4117320667282
 31
0.0
  0
LINE
  5
3B64
330
1F
100
AcDbEntity
  8
外形線
100
AcDbLine
 10
176.16317024271
 20
-416.6117320667281
 30
0.0
 11
175.4631702427101
 21
-417.3117320667284
 31
0.0
  0
LINE
  5
3B6F
330
1F
100
AcDbEntity
  8
外形線
100
AcDbLine
 10
210.36317024271
 20
-416.6117320667281
 30
0.0
 11
172.3631702427099
 21
-416.6117320667281
 31
0.0
  0
LINE
  5
3B70
330
1F
100
AcDbEntity
  8
外形線
100
AcDbLine
 10
191.36317024271
 20
-406.0617320667281
 30
0.0
 11
172.36317024271
 21
-406.0617320667281
 31
0.0
  0
LINE
  5
3B71
330
1F
100
AcDbEntity
  8
外形線
100
AcDbLine
 10
172.36317024271
 20
-406.0617320667281
 30
0.0
 11
210.36317024271
 21
-406.0617320667281
 31
0.0
  0
LINE
  5
3B72
330
1F
100
AcDbEntity
  8
外形線
100
AcDbLine
 10
172.36317024271
 20
-416.6117320667281
 30
0.0
 11
172.36317024271
 21
-406.0617320667281
 31
0.0
  0
LINE
  5
3B73
330
1F
100
AcDbEntity
  8
外形線
100
AcDbLine
 10
185.5184113804297
 20
-406.0617320667291
 30
0.0
 11
185.5184113804306
 21
-416.6117320667288
 31
0.0
  0
LINE
  5
3B75
330
1F
100
AcDbEntity
  8
外形線
100
AcDbLine
 10
207.2631702427099
 20
-416.6117320667281
 30
0.0
 11
207.2631702427099
 21
-417.4117320667282
 31
0.0
  0
LINE
  5
3B77
330
1F
100
AcDbEntity
  8
外形線
100
AcDbLine
 10
206.5631702427099
 20
-416.6117320667281
 30
0.0
 11
207.2631702427099
 21
-417.3117320667284
 31
0.0
  0
LINE
  5
3B7B
330
1F
100
AcDbEntity
  8
外形線
100
AcDbLine
 10
210.36317024271
 20
-417.4117320667278
 30
0.0
 11
210.36317024271
 21
-419.911732066728
 31
0.0
  0
LINE
  5
3B94
330
1F
100
AcDbEntity
  8
外形線
100
AcDbLine
 10
210.36317024271
 20
-416.6117320667281
 30
0.0
 11
210.36317024271
 21
-406.0617320667281
 31
0.0
  0
LINE
  5
3B95
102
{ACAD_REACTORS
330
3AD7
330
3AD4
102
}
330
1F
100
AcDbEntity
  8
外形線
100
AcDbLine
 10
176.4631702427099
 20
-327.4117320667281
 30
0.0
 11
206.2631702427099
 21
-327.4117320667285
 31
0.0
  0
LINE
  5
3B96
330
1F
100
AcDbEntity
  8
外形線
100
AcDbLine
 10
206.2631702427099
 20
-328.1117320667297
 30
0.0
 11
176.4631702427099
 21
-328.1117320667283
 31
0.0
  0
LINE
  5
3B98
330
1F
100
AcDbEntity
  8
外形線
100
AcDbLine
 10
210.36317024271
 20
-342.6117320667283
 30
0.0
 11
172.36317024271
 21
-342.6117320667283
 31
0.0
  0
LINE
  5
3B9A
330
1F
100
AcDbEntity
  8
外形線
100
AcDbLine
 10
172.36317024271
 20
-332.0617320667284
 30
0.0
 11
172.36317024271
 21
-342.6117320667283
 31
0.0
  0
LINE
  5
3B9B
330
1F
100
AcDbEntity
  8
外形線
100
AcDbLine
 10
176.4631702427099
 20
-327.4117320667283
 30
0.0
 11
176.4631702427099
 21
-328.1117320667283
 31
0.0
  0
LINE
  5
3B9C
330
1F
100
AcDbEntity
  8
外形線
100
AcDbLine
 10
179.1131702427098
 20
-332.0617320667284
 30
0.0
 11
179.1131702427099
 21
-328.1117320667283
 31
0.0
  0
LINE
  5
3B9D
330
1F
100
AcDbEntity
  8
外形線
100
AcDbLine
 10
210.36317024271
 20
-332.0617320667284
 30
0.0
 11
210.36317024271
 21
-342.6117320667283
 31
0.0
  0
LINE
  5
3B9E
330
1F
100
AcDbEntity
  8
かくれ線
100
AcDbLine
 10
206.86317024271
 20
-333.0617320667282
 30
0.0
 11
206.86317024271
 21
-341.1117320667283
 31
0.0
  0
LINE
  5
3BA1
330
1F
100
AcDbEntity
  8
かくれ線
100
AcDbLine
 10
204.61317024271
 20
-341.1117320667283
 30
0.0
 11
206.86317024271
 21
-341.1117320667283
 31
0.0
  0
LINE
  5
3BA2
330
1F
100
AcDbEntity
  8
かくれ線
100
AcDbLine
 10
204.61317024271
 20
-342.6117320667283
 30
0.0
 11
204.61317024271
 21
-341.1117320667283
 31
0.0
  0
LINE
  5
3BA4
330
1F
100
AcDbEntity
  8
かくれ線
100
AcDbLine
 10
207.86317024271
 20
-332.0617320667284
 30
0.0
 11
206.86317024271
 21
-333.0617320667284
 31
0.0
  0
LINE
  5
3BA5
330
1F
100
AcDbEntity
  8
かくれ線
100
AcDbLine
 10
207.86317024271
 20
-332.0617320667284
 30
0.0
 11
207.86317024271
 21
-340.0617320667284
 31
0.0
  0
LINE
  5
3BA6
330
1F
100
AcDbEntity
  8
かくれ線
100
AcDbLine
 10
206.86317024271
 20
-333.0617320667284
 30
0.0
 11
207.86317024271
 21
-333.0617320667284
 31
0.0
  0
LINE
  5
3BA7
330
1F
100
AcDbEntity
  8
かくれ線
100
AcDbLine
 10
207.86317024271
 20
-340.0617320667284
 30
0.0
 11
206.86317024271
 21
-341.0617320667284
 31
0.0
  0
LINE
  5
3BA8
330
1F
100
AcDbEntity
  8
かくれ線
100
AcDbLine
 10
207.86317024271
 20
-340.0617320667284
 30
0.0
 11
206.86317024271
 21
-340.0617320667284
 31
0.0
  0
LINE
  5
3BAA
330
1F
100
AcDbEntity
  8
外形線
100
AcDbLine
 10
206.2631702427099
 20
-327.4117320667283
 30
0.0
 11
206.2631702427099
 21
-328.1117320667283
 31
0.0
  0
DIMENSION
  5
3BB6
102
{ACAD_XDICTIONARY
360
3BB7
102
}
102
{ACAD_REACTORS
330
3BB8
102
}
330
1F
100
AcDbEntity
  8
寸法線
100
AcDbDimension
280
     0
  2
*D8
 10
534.4339550672986
 20
-482.4117320667278
 30
0.0
 11
529.5339550672988
 21
-452.4117320667278
 31
0.0
 70
    32
  1
%%c<>
 71
     5
 42
59.99999999999989
 73
     0
 74
     0
 75
     0
  3
ISO-25
100
AcDbAlignedDimension
 13
510.6222856162424
 23
-422.4117320667279
 33
0.0
 14
510.6222856162424
 24
-482.4117320667278
 34
0.0
 50
90.0
100
AcDbRotatedDimension
1001
ACAD
1000
DSTYLE
1002
{
1070
    41
1040
3.5
1070
    42
1040
14.0
1070
    43
1040
9.375
1070
    44
1040
2.5
1070
    47
1040
0.3
1070
    48
1040
0.3
1070
   140
1040
7.0
1070
   141
1040
7.0
1070
   147
1040
1.399999999999999
1070
   176
1070
   256
1070
   177
1070
   256
1070
   178
1070
   256
1002
}
  0
ARC
  5
3BB9
102
{ACAD_REACTORS
330
3BB8
102
}
330
1F
100
AcDbEntity
  8
外形線
100
AcDbCircle
 10
510.6222856162424
 20
-438.4117320667278
 30
0.0
 40
15.99999999999988
100
AcDbArc
 50
90.0
 51
180.0
  0
LINE
  5
3BBB
330
1F
100
AcDbEntity
  8
図枠
100
AcDbLine
 10
595.8950208317567
 20
-461.0332085967788
 30
0.0
 11
595.8950208317567
 21
-217.033208599219
 31
0.0
  0
LINE
  5
3BBC
330
1F
100
AcDbEntity
  8
図枠
100
AcDbLine
 10
605.8950208316574
 20
-217.033208599219
 30
0.0
 11
605.8950208316574
 21
-461.0332085967693
 31
0.0
  0
LINE
  5
3BBD
330
1F
100
AcDbEntity
  8
図枠
100
AcDbLine
 10
615.8950208315571
 20
-217.033208599219
 30
0.0
 11
615.8950208315571
 21
-461.0332085967693
 31
0.0
  0
DIMENSION
  5
3BBE
102
{ACAD_XDICTIONARY
360
3BBF
102
}
102
{ACAD_REACTORS
330
3BC0
102
}
330
1F
100
AcDbEntity
  8
寸法線
100
AcDbDimension
280
     0
  2
*D9
 10
371.0609544028081
 20
-439.9117320667283
 30
0.0
 11
371.0609544028081
 21
-476.9567068135589
 31
0.0
 70
   160
  1
%%c<>
 71
     5
 42
25.00000000000011
 73
     0
 74
     0
 75
     0
  3
ISO-25
100
AcDbAlignedDimension
 13
363.2927279294762
 23
-464.9117320667283
 33
0.0
 14
363.2927279294763
 24
-439.9117320667283
 34
0.0
 50
90.0
100
AcDbRotatedDimension
1001
ACAD
1000
DSTYLE
1002
{
1070
    41
1040
3.5
1070
    42
1040
14.0
1070
    43
1040
9.375
1070
    44
1040
2.5
1070
    47
1040
0.3
1070
    48
1040
0.3
1070
   140
1040
7.0
1070
   141
1040
7.0
1070
   147
1040
1.399999999999999
1070
   176
1070
   256
1070
   177
1070
   256
1070
   178
1070
   256
1002
}
  0
DIMENSION
  5
3BC1
102
{ACAD_XDICTIONARY
360
3BC2
102
}
102
{ACAD_REACTORS
330
3BC3
102
}
330
1F
100
AcDbEntity
  8
寸法線
100
AcDbDimension
280
     0
  2
*D10
 10
494.6222856162428
 20
-507.0317247947531
 30
0.0
 11
502.6222856162426
 21
-502.131724794753
 31
0.0
 70
    32
 71
     5
 42
15.99999999999954
 73
     0
 74
     0
 75
     0
  3
ISO-25
100
AcDbAlignedDimension
 13
510.6222856162424
 23
-482.4117320667278
 33
0.0
 14
494.6222856162428
 24
-466.4117320667279
 34
0.0
100
AcDbRotatedDimension
1001
ACAD
1000
DSTYLE
1002
{
1070
    41
1040
3.5
1070
    42
1040
14.0
1070
    43
1040
9.375
1070
    44
1040
2.5
1070
    47
1040
0.3
1070
    48
1040
0.3
1070
   140
1040
7.0
1070
   141
1040
7.0
1070
   147
1040
1.399999999999999
1070
   176
1070
   256
1070
   177
1070
   256
1070
   178
1070
   256
1002
}
  0
LINE
  5
3BC4
330
1F
100
AcDbEntity
  8
外形線
100
AcDbLine
 10
516.3631702427099
 20
-439.9117320667283
 30
0.0
 11
516.3631702427099
 21
-464.9117320667283
 31
0.0
  0
ARC
  5
3BC5
102
{ACAD_REACTORS
330
3BC3
330
3BB8
102
}
330
1F
100
AcDbEntity
  8
外形線
100
AcDbCircle
 10
510.6222856162424
 20
-466.411732066728
 30
0.0
 40
15.99999999999988
100
AcDbArc
 50
180.0
 51
270.0
  0
LINE
  5
3BC7
330
1F
100
AcDbEntity
  8
外形線
100
AcDbLine
 10
510.6222856162424
 20
-482.411732066728
 30
0.0
 11
510.6222856162424
 21
-422.4117320667279
 31
0.0
  0
LINE
  5
3BC8
330
1F
100
AcDbEntity
  8
外形線
100
AcDbLine
 10
494.6222856162424
 20
-466.411732066728
 30
0.0
 11
494.6222856162424
 21
-438.4117320667278
 31
0.0
  0
LINE
  5
3BC9
330
1F
100
AcDbEntity
  8
外形線
100
AcDbLine
 10
510.6222856162426
 20
-439.9117320667283
 30
0.0
 11
516.3631702427099
 21
-439.9117320667283
 31
0.0
  0
MTEXT
  5
3BCA
330
1F
100
AcDbEntity
  8
文字
100
AcDbMText
 10
610.8950208316075
 20
-574.0332085956329
 30
0.0
 40
6.999999999929999
 41
82.0
 46
0.0
 71
     5
 72
     5
  1
2010/07/05
  7
symbols
 11
0.0000000000000001
 21
1.0
 31
0.0
 73
     1
 44
1.0
  0
MTEXT
  5
3BCB
330
1F
100
AcDbEntity
  8
図枠
100
AcDbMText
 10
622.8950208314869
 20
-583.0332085955426
 30
0.0
 40
8.999999999909997
 41
100.0
 46
0.0
 71
     5
 72
     5
  1
PICOLO
  7
symbols
 11
0.0000000000000001
 21
1.0
 31
0.0
 73
     1
 44
1.0
  0
LINE
  5
3BCC
330
1F
100
AcDbEntity
  8
図枠
100
AcDbLine
 10
615.8950208315571
 20
-533.0332085960463
 30
0.0
 11
615.8950208315571
 21
-633.0332085950426
 31
0.0
  0
LINE
  5
3BCD
330
1F
100
AcDbEntity
  8
図枠
100
AcDbLine
 10
605.8950208316574
 20
-633.0332085950426
 30
0.0
 11
605.8950208316574
 21
-461.0332085967693
 31
0.0
  0
MTEXT
  5
3BCE
330
1F
100
AcDbEntity
  8
図枠
100
AcDbMText
 10
610.8950208316075
 20
-625.0876528626695
 30
0.0
 40
5.999999999939999
 41
15.53558963406084
 46
0.0
 71
     5
 72
     5
  1
日付
  7
symbols
 11
0.0000000000000001
 21
1.0
 31
0.0
 73
     1
 44
1.0
  0
LINE
  5
3BCF
330
1F
100
AcDbEntity
  8
図枠
100
AcDbLine
 10
605.8950208316574
 20
-615.0332085952231
 30
0.0
 11
615.8950208315571
 21
-615.0332085952231
 31
0.0
  0
LINE
  5
3BD0
330
1F
100
AcDbEntity
  8
図枠
100
AcDbLine
 10
605.8950208316574
 20
-461.0332085967693
 30
0.0
 11
615.8950208315571
 21
-461.0332085967693
 31
0.0
  0
LINE
  5
3BD1
330
1F
100
AcDbEntity
  8
図枠
100
AcDbLine
 10
605.8950208316574
 20
-485.0332085965284
 30
0.0
 11
629.8950208314168
 21
-485.0332085965284
 31
0.0
  0
MTEXT
  5
3BD2
330
1F
100
AcDbEntity
  8
図枠
100
AcDbMText
 10
606.8950208316477
 20
-484.0332085965383
 30
0.0
 40
4.999999999949801
 41
12.84335908427895
 46
0.0
 71
     1
 72
     5
  1
尺度
  7
symbols
 11
0.0000000000000003
 21
1.0
 31
0.0
 73
     1
 44
1.0
  0
MTEXT
  5
3BD3
330
1F
100
AcDbEntity
  8
図枠
100
AcDbMText
 10
607.8950208316377
 20
-459.0332085967894
 30
0.0
 40
4.999999999949801
 41
26.06333693106516
 46
0.0
 71
     1
 72
     5
  1
社内品番
  7
symbols
 11
0.0000000000000003
 21
1.0
 31
0.0
 73
     1
 44
1.0
  0
LINE
  5
3BD4
330
1F
100
AcDbEntity
  8
図枠
100
AcDbLine
 10
605.8950208316574
 20
-509.0332085962871
 30
0.0
 11
629.8950208314168
 21
-509.0332085962871
 31
0.0
  0
LINE
  5
3BD5
330
1F
100
AcDbEntity
  8
図枠
100
AcDbLine
 10
605.8950208316574
 20
-533.0332085960463
 30
0.0
 11
629.8950208314168
 21
-533.0332085960463
 31
0.0
  0
MTEXT
  5
3BD6
330
1F
100
AcDbEntity
  8
図枠
100
AcDbMText
 10
606.8950208316477
 20
-532.0332085960561
 30
0.0
 40
4.999999999949801
 41
13.25372567807307
 46
0.0
 71
     1
 72
     5
  1
承認
  7
symbols
 11
0.0000000000000003
 21
1.0
 31
0.0
 73
     1
 44
1.0
  0
MTEXT
  5
3BD7
330
1F
100
AcDbEntity
  8
図枠
100
AcDbMText
 10
606.8950208316477
 20
-508.0332085962977
 30
0.0
 40
4.999999999949801
 41
13.04854238117601
 46
0.0
 71
     1
 72
     5
  1
作図
  7
symbols
 11
0.0000000000000003
 21
1.0
 31
0.0
 73
     1
 44
1.0
  0
MTEXT
  5
3BD8
330
1F
100
AcDbEntity
  8
図枠
100
AcDbMText
 10
600.8950208317068
 20
-453.033208596859
 30
0.0
 40
4.999999999949999
 41
15.99999999984
 46
0.0
 71
     5
 72
     5
  1
番号
  7
symbols
 11
0.0000000000000001
 21
1.0
 31
0.0
 73
     1
 44
1.0
  0
LINE
  5
3BD9
330
1F
100
AcDbEntity
  8
図枠
100
AcDbLine
 10
605.8950208316566
 20
-461.0332085967788
 30
0.0
 11
595.8950208317567
 21
-461.0332085967788
 31
0.0
  0
LINE
  5
3BDA
330
1F
100
AcDbEntity
  8
図枠
100
AcDbLine
 10
595.8950208317567
 20
-445.0332085969388
 30
0.0
 11
605.8950208316566
 21
-445.0332085969388
 31
0.0
  0
MTEXT
  5
3BDB
330
1F
100
AcDbEntity
  8
文字
100
AcDbMText
 10
616.522307237605
 20
-482.7697899524634
 30
0.0
 40
7.999999999919998
 41
20.03831199231505
 46
0.0
 71
     1
 72
     5
  1
Free
  7
symbols
 11
0.0000000000000003
 21
1.0
 31
0.0
 73
     1
 44
1.0
  0
LINE
  5
3BDC
330
1F
100
AcDbEntity
  8
図枠
100
AcDbLine
 10
615.8950208315571
 20
-461.0332085967693
 30
0.0
 11
629.8950208314168
 21
-461.0332085967693
 31
0.0
  0
MTEXT
  5
3BDE
330
1F
100
AcDbEntity
  8
図枠
100
AcDbMText
 10
600.8950208317071
 20
-291.0332085984789
 30
0.0
 40
4.999999999949999
 41
43.99999999955999
 46
0.0
 71
     5
 72
     5
  1
処理
  7
symbols
 11
0.0000000000000001
 21
1.0
 31
0.0
 73
     1
 44
1.0
  0
LINE
  5
3BDF
330
1F
100
AcDbEntity
  8
図枠
100
AcDbLine
 10
615.8950208315571
 20
-347.0332085979141
 30
0.0
 11
605.8950208316574
 21
-347.0332085979141
 31
0.0
  0
MTEXT
  5
3BE0
330
1F
100
AcDbEntity
  8
図枠
100
AcDbMText
 10
610.8950208316075
 20
-339.0332085979939
 30
0.0
 40
5.099999999948999
 41
15.99999999984
 46
0.0
 71
     5
 72
     5
  1
型番
  7
symbols
 11
0.0000000000000001
 21
1.0
 31
0.0
 73
     1
 44
1.0
  0
MTEXT
  5
3BE1
330
1F
100
AcDbEntity
  8
図枠
100
AcDbMText
 10
600.8950208317071
 20
-399.0332085973991
 30
0.0
 40
4.999999999949999
 41
91.99999999907999
 46
0.0
 71
     5
 72
     5
  1
部品名
  7
symbols
 11
0.0000000000000001
 21
1.0
 31
0.0
 73
     1
 44
1.0
  0
MTEXT
  5
3BE2
330
1F
100
AcDbEntity
  8
図枠
100
AcDbMText
 10
600.8950208317071
 20
-328.033208598109
 30
0.0
 40
4.999999999949999
 41
29.9999999997
 46
0.0
 71
     5
 72
     5
  1
材質
  7
symbols
 11
0.0000000000000001
 21
1.0
 31
0.0
 73
     1
 44
1.0
  0
LINE
  5
3BE3
330
1F
100
AcDbEntity
  8
図枠
100
AcDbLine
 10
595.8950208317567
 20
-343.033208597959
 30
0.0
 11
605.8950208316566
 21
-343.033208597959
 31
0.0
  0
LINE
  5
3BE4
330
1F
100
AcDbEntity
  8
図枠
100
AcDbLine
 10
595.8950208317567
 20
-353.033208597859
 30
0.0
 11
605.8950208316566
 21
-353.033208597859
 31
0.0
  0
MTEXT
  5
3BE5
330
1F
100
AcDbEntity
  8
図枠
100
AcDbMText
 10
600.8950208317068
 20
-348.033208597909
 30
0.0
 40
4.999999999949999
 41
9.999999999899999
 46
0.0
 71
     5
 72
     5
  1
数
  7
symbols
 11
0.0000000000000001
 21
1.0
 31
0.0
 73
     1
 44
1.0
  0
LINE
  5
3BE6
330
1F
100
AcDbEntity
  8
図枠
100
AcDbLine
 10
595.8950208317567
 20
-313.0332085982591
 30
0.0
 11
605.8950208316566
 21
-313.0332085982591
 31
0.0
  0
MTEXT
  5
3BE7
330
1F
100
AcDbEntity
  8
図枠
100
AcDbMText
 10
617.8950208315373
 20
-371.0332085976734
 30
0.0
 40
7.999999999919681
 41
19.79007760181779
 46
0.0
 71
     1
 72
     5
  1
御中
  7
symbols
 11
0.0000000000000003
 21
1.0
 31
0.0
 73
     1
 44
1.0
  0
MTEXT
  5
3BE8
330
1F
100
AcDbEntity
  8
図枠
100
AcDbMText
 10
622.8950208314869
 20
-339.0332085979939
 30
0.0
 40
4.999999999949999
 41
15.99999999984
 46
0.0
 71
     5
 72
     5
  1
品名
  7
symbols
 11
0.0000000000000001
 21
1.0
 31
0.0
 73
     1
 44
1.0
  0
LINE
  5
3BE9
330
1F
100
AcDbEntity
  8
図枠
100
AcDbLine
 10
615.8950208315571
 20
-347.0332085979141
 30
0.0
 11
629.8950208314168
 21
-347.0332085979141
 31
0.0
  0
MTEXT
  5
3BEA
330
1F
100
AcDbEntity
  8
文字
100
AcDbMText
 10
610.8950208316075
 20
-274.0332085986438
 30
0.0
 40
7.999999999919998
 41
113.99999999886
 46
0.0
 71
     5
 72
     5
  1
Parts
  7
symbols
 11
0.0000000000000001
 21
1.0
 31
0.0
 73
     1
 44
1.0
  0
LINE
  5
3BEB
330
1F
100
AcDbEntity
  8
図枠
100
AcDbLine
 10
595.8950208317567
 20
-269.0332085986991
 30
0.0
 11
605.8950208316566
 21
-269.0332085986991
 31
0.0
  0
MTEXT
  5
3BEC
330
1F
100
AcDbEntity
  8
図枠
100
AcDbMText
 10
600.8950208317071
 20
-243.033208598959
 30
0.0
 40
4.999999999949999
 41
51.99999999947999
 46
0.0
 71
     5
 72
     5
  1
備考
  7
symbols
 11
0.0000000000000001
 21
1.0
 31
0.0
 73
     1
 44
1.0
  0
MTEXT
  5
3BED
330
1F
100
AcDbEntity
  8
文字
100
AcDbMText
 10
622.8950208314869
 20
-274.0332085986438
 30
0.0
 40
9.599999999903998
 41
113.99999999886
 46
0.0
 71
     5
 72
     5
  1
FP25
  7
symbols
 11
0.0000000000000001
 21
1.0
 31
0.0
 73
     1
 44
1.0
  0
LINE
  5
3CB6
330
1F
100
AcDbEntity
  8
外形線
100
AcDbLine
 10
197.2079291049903
 20
-406.0617320667293
 30
0.0
 11
197.2079291049892
 21
-416.6117320667289
 31
0.0
  0
LINE
  5
3CB7
330
1F
100
AcDbEntity
  8
外形線
100
AcDbLine
 10
172.36317024271
 20
-332.0617320667284
 30
0.0
 11
210.36317024271
 21
-332.0617320667284
 31
0.0
  0
LINE
  5
3CB8
330
1F
100
AcDbEntity
  8
外形線
100
AcDbLine
 10
203.86317024271
 20
-332.0617320667285
 30
0.0
 11
203.86317024271
 21
-328.1117320667286
 31
0.0
  0
LINE
  5
3CD6
330
1F
100
AcDbEntity
  8
外形線
100
AcDbLine
 10
231.9631702427091
 20
-458.2564909290081
 30
0.0
 11
221.4131702427089
 21
-458.2564909290081
 31
0.0
  0
LINE
  5
3CEB
102
{ACAD_REACTORS
330
3AC9
102
}
330
1F
100
AcDbEntity
  8
外形線
100
AcDbLine
 10
510.6222856162424
 20
-464.9117320667285
 30
0.0
 11
516.3631702427099
 21
-464.9117320667285
 31
0.0
  0
ENDSEC
  0
SECTION
  2
OBJECTS
  0
DICTIONARY
  5
C
330
0
100
AcDbDictionary
281
     1
  3
ACAD_CIP_PREVIOUS_PRODUCT_INFO
350
3D72
  3
ACAD_COLOR
350
3D51
  3
ACAD_DETAILVIEWSTYLE
350
3D6A
  3
ACAD_GROUP
350
D
  3
ACAD_LAYOUT
350
1A
  3
ACAD_MATERIAL
350
3D1F
  3
ACAD_MLEADERSTYLE
350
3D66
  3
ACAD_MLINESTYLE
350
17
  3
ACAD_PLOTSETTINGS
350
19
  3
ACAD_PLOTSTYLENAME
350
E
  3
ACAD_SCALELIST
350
3D54
  3
ACAD_SECTIONVIEWSTYLE
350
3D68
  3
ACAD_TABLESTYLE
350
3D52
  3
ACAD_VISUALSTYLE
350
3D38
  3
ACDB_RECOMPOSE_DATA
350
3DD3
  3
AcDbVariableDictionary
350
C7
  0
DICTIONARY
  5
3714
330
2
100
AcDbDictionary
280
     1
281
     1
  3
ACAD_LAYERFILTERS
360
3CFF
  3
ACAD_LAYERSTATES
360
3715
  0
DICTIONARY
  5
3D73
330
10
100
AcDbDictionary
280
     1
281
     1
  3
ADSK_XREC_LAYER_RECONCILED
360
3D74
  0
DICTIONARY
  5
3D75
330
2F
100
AcDbDictionary
280
     1
281
     1
  3
ADSK_XREC_LAYER_RECONCILED
360
3D76
  0
DICTIONARY
  5
3D77
330
30
100
AcDbDictionary
280
     1
281
     1
  3
ADSK_XREC_LAYER_RECONCILED
360
3D78
  0
DICTIONARY
  5
3D79
330
31
100
AcDbDictionary
280
     1
281
     1
  3
ADSK_XREC_LAYER_RECONCILED
360
3D7A
  0
DICTIONARY
  5
3D7B
330
32
100
AcDbDictionary
280
     1
281
     1
  3
ADSK_XREC_LAYER_RECONCILED
360
3D7C
  0
DICTIONARY
  5
3D7D
330
33
100
AcDbDictionary
280
     1
281
     1
  3
ADSK_XREC_LAYER_RECONCILED
360
3D7E
  0
DICTIONARY
  5
3D7F
330
34
100
AcDbDictionary
280
     1
281
     1
  3
ADSK_XREC_LAYER_RECONCILED
360
3D80
  0
DICTIONARY
  5
3D81
330
35
100
AcDbDictionary
280
     1
281
     1
  3
ADSK_XREC_LAYER_RECONCILED
360
3D82
  0
DICTIONARY
  5
3D83
330
36
100
AcDbDictionary
280
     1
281
     1
  3
ADSK_XREC_LAYER_RECONCILED
360
3D84
  0
DICTIONARY
  5
3AC8
330
3AC7
100
AcDbDictionary
280
     1
281
     1
  3
ACAD_DIMASSOC
360
3AC9
  0
DICTIONARY
  5
3AD3
330
3AD2
100
AcDbDictionary
280
     1
281
     1
  3
ACAD_DIMASSOC
360
3AD4
  0
DICTIONARY
  5
3AD6
330
3AD5
100
AcDbDictionary
280
     1
281
     1
  3
ACAD_DIMASSOC
360
3AD7
  0
DICTIONARY
  5
3AE2
330
3AE1
100
AcDbDictionary
280
     1
281
     1
  3
ACAD_DIMASSOC
360
3AE3
  0
DICTIONARY
  5
3BB7
330
3BB6
100
AcDbDictionary
280
     1
281
     1
  3
ACAD_DIMASSOC
360
3BB8
  0
DICTIONARY
  5
3BBF
330
3BBE
100
AcDbDictionary
280
     1
281
     1
  3
ACAD_DIMASSOC
360
3BC0
  0
DICTIONARY
  5
3BC2
330
3BC1
100
AcDbDictionary
280
     1
281
     1
  3
ACAD_DIMASSOC
360
3BC3
  0
XRECORD
  5
3D72
102
{ACAD_REACTORS
330
C
102
}
330
C
100
AcDbXrecord
280
     1
300
ACD
300
2014
300
DSPRM_F_S
  0
DICTIONARY
  5
3D51
102
{ACAD_REACTORS
330
C
102
}
330
C
100
AcDbDictionary
281
     1
  0
DICTIONARY
  5
3D6A
102
{ACAD_REACTORS
330
C
102
}
330
C
100
AcDbDictionary
281
     1
  3
Metric50
350
3D6B
  0
DICTIONARY
  5
D
102
{ACAD_REACTORS
330
C
102
}
330
C
100
AcDbDictionary
281
     1
  0
DICTIONARY
  5
1A
102
{ACAD_REACTORS
330
C
102
}
330
C
100
AcDbDictionary
281
     1
  3
Model
350
22
  3
ﾚｲｱｳﾄ1
350
1E
  3
ﾚｲｱｳﾄ2
350
26
  0
DICTIONARY
  5
3D1F
102
{ACAD_REACTORS
330
C
102
}
330
C
100
AcDbDictionary
281
     1
  3
ByBlock
350
3D28
  3
ByLayer
350
3D20
  3
Global
350
3D30
  0
DICTIONARY
  5
3D66
102
{ACAD_REACTORS
330
C
102
}
330
C
100
AcDbDictionary
281
     1
  3
Standard
350
3D67
  0
DICTIONARY
  5
17
102
{ACAD_REACTORS
330
C
102
}
330
C
100
AcDbDictionary
281
     1
  3
Standard
350
18
  0
DICTIONARY
  5
19
102
{ACAD_REACTORS
330
C
102
}
330
C
100
AcDbDictionary
281
     1
  0
ACDBDICTIONARYWDFLT
  5
E
102
{ACAD_REACTORS
330
C
102
}
330
C
100
AcDbDictionary
281
     1
  3
Normal
350
F
100
AcDbDictionaryWithDefault
340
F
  0
DICTIONARY
  5
3D54
102
{ACAD_REACTORS
330
C
102
}
330
C
100
AcDbDictionary
281
     1
  3
A0
350
3D55
  3
A1
350
3D56
  3
A2
350
3D57
  3
A3
350
3D58
  3
A4
350
3D59
  3
A5
350
3D5A
  3
A6
350
3D5B
  3
A7
350
3D5C
  3
A8
350
3D5D
  3
A9
350
3D5E
  3
B0
350
3D5F
  3
B1
350
3D60
  3
B2
350
3D61
  3
B3
350
3D62
  3
B4
350
3D63
  3
B5
350
3D64
  3
B6
350
3D65
  0
DICTIONARY
  5
3D68
102
{ACAD_REACTORS
330
C
102
}
330
C
100
AcDbDictionary
281
     1
  3
Metric50
350
3D69
  0
DICTIONARY
  5
3D52
102
{ACAD_REACTORS
330
C
102
}
330
C
100
AcDbDictionary
281
     1
  3
Standard
350
3D53
  0
DICTIONARY
  5
3D38
102
{ACAD_REACTORS
330
C
102
}
330
C
100
AcDbDictionary
281
     1
  3
2dWireframe
350
3D3E
  3
Basic
350
3D3D
  3
Brighten
350
3D44
  3
ColorChange
350
3D48
  3
Conceptual
350
3D41
  3
Dim
350
3D43
  3
EdgeColorOff
350
3D50
  3
Facepattern
350
3D47
  3
Flat
350
3D39
  3
FlatWithEdges
350
3D3A
  3
Gouraud
350
3D3B
  3
GouraudWithEdges
350
3D3C
  3
Hidden
350
3D40
  3
JitterOff
350
3D4E
  3
Linepattern
350
3D46
  3
OverhangOff
350
3D4F
  3
Realistic
350
3D42
  3
Shaded
350
3D4D
  3
Shaded with edges
350
3D4C
  3
Shades of Gray
350
3D49
  3
Sketchy
350
3D4A
  3
Thicken
350
3D45
  3
Wireframe
350
3D3F
  3
X-Ray
350
3D4B
  0
XRECORD
  5
3DD3
102
{ACAD_REACTORS
330
C
102
}
330
C
100
AcDbXrecord
280
     1
 90
        1
330
3D53
  0
DICTIONARY
  5
C7
102
{ACAD_REACTORS
330
C
102
}
330
C
100
AcDbDictionary
281
     1
  3
CANNOSCALE
350
3D8A
  3
CMLEADERSTYLE
350
3D86
  3
CTABLESTYLE
350
3D85
  3
CVIEWDETAILSTYLE
350
3D87
  3
CVIEWSECTIONSTYLE
350
3D88
  3
DIMASSOC
350
C9
  3
HIDETEXT
350
C8
  3
LAYEREVAL
350
3D8C
  3
LAYERNOTIFY
350
3D8D
  3
LIGHTINGUNITS
350
3D8B
  3
MSLTSCALE
350
3D89
  0
DICTIONARY
  5
3CFF
102
{ACAD_REACTORS
330
3714
102
}
330
3714
100
AcDbDictionary
280
     1
281
     1
  0
DICTIONARY
  5
3715
102
{ACAD_REACTORS
330
3714
102
}
330
3714
100
AcDbDictionary
281
     1
  0
XRECORD
  5
3D74
102
{ACAD_REACTORS
330
3D73
102
}
330
3D73
100
AcDbXrecord
280
     1
290
     1
  0
XRECORD
  5
3D76
102
{ACAD_REACTORS
330
3D75
102
}
330
3D75
100
AcDbXrecord
280
     1
290
     1
  0
XRECORD
  5
3D78
102
{ACAD_REACTORS
330
3D77
102
}
330
3D77
100
AcDbXrecord
280
     1
290
     1
  0
XRECORD
  5
3D7A
102
{ACAD_REACTORS
330
3D79
102
}
330
3D79
100
AcDbXrecord
280
     1
290
     1
  0
XRECORD
  5
3D7C
102
{ACAD_REACTORS
330
3D7B
102
}
330
3D7B
100
AcDbXrecord
280
     1
290
     1
  0
XRECORD
  5
3D7E
102
{ACAD_REACTORS
330
3D7D
102
}
330
3D7D
100
AcDbXrecord
280
     1
290
     1
  0
XRECORD
  5
3D80
102
{ACAD_REACTORS
330
3D7F
102
}
330
3D7F
100
AcDbXrecord
280
     1
290
     1
  0
XRECORD
  5
3D82
102
{ACAD_REACTORS
330
3D81
102
}
330
3D81
100
AcDbXrecord
280
     1
290
     1
  0
XRECORD
  5
3D84
102
{ACAD_REACTORS
330
3D83
102
}
330
3D83
100
AcDbXrecord
280
     1
290
     1
  0
DIMASSOC
  5
3AC9
102
{ACAD_REACTORS
330
3AC8
102
}
330
3AC8
100
AcDbDimAssoc
330
3AC7
 90
        3
 70
     0
 71
     0
  1
AcDbOsnapPointRef
 72
    13
331
3ADF
 73
     2
 91
        0
 40
0.0
 10
191.36317024271
 20
-570.3921682114105
 30
0.0
 75
     0
  1
AcDbOsnapPointRef
 72
     1
331
3CEB
 73
     2
 91
        0
 40
0.9999999999999996
 10
516.3631702427099
 20
-464.9117320667285
 30
0.0
 75
     0
  0
DIMASSOC
  5
3AD4
102
{ACAD_REACTORS
330
3AD3
102
}
330
3AD3
100
AcDbDimAssoc
330
3AD2
 90
        3
 70
     0
 71
     0
  1
AcDbOsnapPointRef
 72
    13
331
3B95
 73
     2
 91
        0
 40
0.0
 10
176.4631702427099
 20
-327.4117320667281
 30
0.0
 75
     0
  1
AcDbOsnapPointRef
 72
     1
331
3B09
 73
     2
 91
        0
 40
1.0
 10
172.36317024271
 20
-543.4117320667285
 30
0.0
 75
     0
  0
DIMASSOC
  5
3AD7
102
{ACAD_REACTORS
330
3AD6
102
}
330
3AD6
100
AcDbDimAssoc
330
3AD5
 90
        3
 70
     0
 71
     0
  1
AcDbOsnapPointRef
 72
    13
331
3ACF
 73
     2
 91
        0
 40
0.0
 10
191.36317024271
 20
-452.4117320667285
 30
0.0
 75
     0
  1
AcDbOsnapPointRef
 72
    13
331
3B95
 73
     2
 91
        0
 40
0.0
 10
176.4631702427099
 20
-327.4117320667281
 30
0.0
 75
     0
  0
DIMASSOC
  5
3AE3
102
{ACAD_REACTORS
330
3AE2
102
}
330
3AE2
100
AcDbDimAssoc
330
3AE1
 90
        3
 70
     0
 71
     0
  1
AcDbOsnapPointRef
 72
     1
331
3B09
 73
     2
 91
        0
 40
1.0
 10
172.36317024271
 20
-543.4117320667285
 30
0.0
 75
     0
  1
AcDbOsnapPointRef
 72
    13
331
3ACF
 73
     2
 91
        0
 40
0.0
 10
191.36317024271
 20
-452.4117320667285
 30
0.0
 75
     0
  0
DIMASSOC
  5
3BB8
102
{ACAD_REACTORS
330
3BB7
102
}
330
3BB7
100
AcDbDimAssoc
330
3BB6
 90
        3
 70
     0
 71
     0
  1
AcDbOsnapPointRef
 72
    13
331
3BB9
 73
     2
 91
        0
 40
1.570796326794889
 10
510.6222856162424
 20
-422.4117320667279
 30
0.0
 75
     0
  1
AcDbOsnapPointRef
 72
     1
331
3BC5
 73
     2
 91
        0
 40
4.712388980384681
 10
510.6222856162424
 20
-482.4117320667278
 30
0.0
 75
     0
  0
DIMASSOC
  5
3BC0
102
{ACAD_REACTORS
330
3BBF
102
}
330
3BBF
100
AcDbDimAssoc
330
3BBE
 90
        3
 70
     0
 71
     0
  1
AcDbOsnapPointRef
 72
     2
331
3ACE
 73
     2
 91
        0
 40
0.5
 10
363.2927279294762
 20
-464.9117320667283
 30
0.0
 75
     0
  1
AcDbOsnapPointRef
 72
     2
331
3ACD
 73
     2
 91
        0
 40
0.5000000000000002
 10
363.2927279294763
 20
-439.9117320667283
 30
0.0
 75
     0
  0
DIMASSOC
  5
3BC3
102
{ACAD_REACTORS
330
3BC2
102
}
330
3BC2
100
AcDbDimAssoc
330
3BC1
 90
        3
 70
     0
 71
     0
  1
AcDbOsnapPointRef
 72
     1
331
3BC5
 73
     2
 91
        0
 40
4.712388980384681
 10
510.6222856162424
 20
-482.4117320667278
 30
0.0
 75
     0
  1
AcDbOsnapPointRef
 72
    13
331
3BC5
 73
     2
 91
        0
 40
3.141592653589792
 10
494.6222856162425
 20
-466.411732066728
 30
0.0
 75
     0
  0
ACDBDETAILVIEWSTYLE
  5
3D6B
102
{ACAD_XDICTIONARY
360
3E0A
102
}
102
{ACAD_REACTORS
330
3D6A
102
}
330
3D6A
100
AcDbModelDocViewStyle
 70
     0
  3
Metric50
290
     0
100
AcDbDetailViewStyle
 70
     0
 71
     0
 90
        3
 71
     1
340
11
 62
   256
 40
5.0
340
0
 62
   256
 40
5.0
300

 40
0.0
280
     1
 71
     2
340
16
 90
       25
 62
   256
 71
     3
340
11
 62
   256
 40
5.0
 90
        0
 40
15.0
 90
        1
300
%<\AcVar ViewDetailId>% (%<\AcVar ViewScale \f "%sn">%)
 71
     4
340
16
 90
       25
 62
   256
340
16
 90
       25
 62
   256
280
     0
  0
LAYOUT
  5
22
102
{ACAD_REACTORS
330
1A
102
}
330
1A
100
AcDbPlotSettings
  1

  2
OKI MC860(PCL) (コピー 1)
  4
A4
  6

 40
5.027083396911621
 41
5.027085304260253
 42
5.027084350585936
 43
5.027069091796875
 44
209.9733276367186
 45
296.9259948730469
 46
0.0
 47
1.669999999999999
 48
39.89502083734033
 49
-633.0332085950426
140
629.8950208314168
141
-217.033208599219
142
1.0
143
2.080841077095044
 70
 11956
 72
     1
 73
     1
 74
     4
  7
monochrome.stb
 75
     0
147
0.4805749035846835
 76
     0
 77
     2
 78
   300
148
-39.89502083734033
149
633.0332085950426
100
AcDbLayout
  1
Model
 70
     1
 71
     0
 10
0.0
 20
0.0
 11
12.0
 21
9.0
 12
0.0
 22
0.0
 32
0.0
 14
0.0
 24
0.0
 34
0.0
 15
0.0
 25
0.0
 35
0.0
146
0.0
 13
0.0
 23
0.0
 33
0.0
 16
1.0
 26
0.0
 36
0.0
 17
0.0
 27
1.0
 37
0.0
 76
     0
330
1F
331
3D1D
  0
LAYOUT
  5
1E
102
{ACAD_REACTORS
330
1A
102
}
330
1A
100
AcDbPlotSettings
  1

  2
EPSON PM-3000C ESC/P R (コピー 3)
  4

  6

 40
0.0
 41
0.0
 42
0.0
 43
0.0
 44
0.0
 45
0.0
 46
0.0
 47
0.0
 48
0.0
 49
0.0
140
0.0
141
0.0
142
1.0
143
1.0
 70
   688
 72
     0
 73
     0
 74
     5
  7
monochrome.stb
 75
    16
147
1.0
 76
     0
 77
     2
 78
   300
148
0.0
149
0.0
100
AcDbLayout
  1
ﾚｲｱｳﾄ1
 70
     1
 71
     1
 10
0.0
 20
0.0
 11
420.0
 21
297.0
 12
0.0
 22
0.0
 32
0.0
 14
1.000000000000000E+20
 24
1.000000000000000E+20
 34
1.000000000000000E+20
 15
-1.000000000000000E+20
 25
-1.000000000000000E+20
 35
-1.000000000000000E+20
146
0.0
 13
0.0
 23
0.0
 33
0.0
 16
1.0
 26
0.0
 36
0.0
 17
0.0
 27
1.0
 37
0.0
 76
     0
330
1B
  0
LAYOUT
  5
26
102
{ACAD_REACTORS
330
1A
102
}
330
1A
100
AcDbPlotSettings
  1

  2
EPSON PM-3000C ESC/P R (コピー 3)
  4

  6

 40
0.0
 41
0.0
 42
0.0
 43
0.0
 44
0.0
 45
0.0
 46
0.0
 47
0.0
 48
0.0
 49
0.0
140
0.0
141
0.0
142
1.0
143
1.0
 70
   688
 72
     0
 73
     0
 74
     5
  7
monochrome.stb
 75
    16
147
1.0
 76
     0
 77
     2
 78
   300
148
0.0
149
0.0
100
AcDbLayout
  1
ﾚｲｱｳﾄ2
 70
     1
 71
     2
 10
0.0
 20
0.0
 11
12.0
 21
9.0
 12
0.0
 22
0.0
 32
0.0
 14
0.0
 24
0.0
 34
0.0
 15
0.0
 25
0.0
 35
0.0
146
0.0
 13
0.0
 23
0.0
 33
0.0
 16
1.0
 26
0.0
 36
0.0
 17
0.0
 27
1.0
 37
0.0
 76
     0
330
23
  0
MATERIAL
  5
3D28
102
{ACAD_XDICTIONARY
360
3D29
102
}
102
{ACAD_REACTORS
330
3D1F
102
}
330
3D1F
100
AcDbMaterial
  1
ByBlock
 72
     0
 43
0.0008202099737533
 43
0.0
 43
0.0
 43
0.0
 43
0.0
 43
0.0008202099737533
 43
0.0
 43
0.0
 43
0.0
 43
0.0
 43
1.0
 43
0.0
 43
0.0
 43
0.0
 43
0.0
 43
1.0
 77
     0
 47
0.0008202099737533
 47
0.0
 47
0.0
 47
0.0
 47
0.0
 47
0.0008202099737533
 47
0.0
 47
0.0
 47
0.0
 47
0.0
 47
1.0
 47
0.0
 47
0.0
 47
0.0
 47
0.0
 47
1.0
171
     0
 49
0.0008202099737533
 49
0.0
 49
0.0
 49
0.0
 49
0.0
 49
0.0008202099737533
 49
0.0
 49
0.0
 49
0.0
 49
0.0
 49
1.0
 49
0.0
 49
0.0
 49
0.0
 49
0.0
 49
1.0
175
     0
142
0.0008202099737533
142
0.0
142
0.0
142
0.0
142
0.0
142
0.0008202099737533
142
0.0
142
0.0
142
0.0
142
0.0
142
1.0
142
0.0
142
0.0
142
0.0
142
0.0
142
1.0
179
     0
144
0.0008202099737533
144
0.0
144
0.0
144
0.0
144
0.0
144
0.0008202099737533
144
0.0
144
0.0
144
0.0
144
0.0
144
1.0
144
0.0
144
0.0
144
0.0
144
0.0
144
1.0
147
0.0008202099737533
147
0.0
147
0.0
147
0.0
147
0.0
147
0.0008202099737533
147
0.0
147
0.0
147
0.0
147
0.0
147
1.0
147
0.0
147
0.0
147
0.0
147
0.0
147
1.0
  0
MATERIAL
  5
3D20
102
{ACAD_XDICTIONARY
360
3D21
102
}
102
{ACAD_REACTORS
330
3D1F
102
}
330
3D1F
100
AcDbMaterial
  1
ByLayer
 72
     0
 43
0.0008202099737533
 43
0.0
 43
0.0
 43
0.0
 43
0.0
 43
0.0008202099737533
 43
0.0
 43
0.0
 43
0.0
 43
0.0
 43
1.0
 43
0.0
 43
0.0
 43
0.0
 43
0.0
 43
1.0
 77
     0
 47
0.0008202099737533
 47
0.0
 47
0.0
 47
0.0
 47
0.0
 47
0.0008202099737533
 47
0.0
 47
0.0
 47
0.0
 47
0.0
 47
1.0
 47
0.0
 47
0.0
 47
0.0
 47
0.0
 47
1.0
171
     0
 49
0.0008202099737533
 49
0.0
 49
0.0
 49
0.0
 49
0.0
 49
0.0008202099737533
 49
0.0
 49
0.0
 49
0.0
 49
0.0
 49
1.0
 49
0.0
 49
0.0
 49
0.0
 49
0.0
 49
1.0
175
     0
142
0.0008202099737533
142
0.0
142
0.0
142
0.0
142
0.0
142
0.0008202099737533
142
0.0
142
0.0
142
0.0
142
0.0
142
1.0
142
0.0
142
0.0
142
0.0
142
0.0
142
1.0
179
     0
144
0.0008202099737533
144
0.0
144
0.0
144
0.0
144
0.0
144
0.0008202099737533
144
0.0
144
0.0
144
0.0
144
0.0
144
1.0
144
0.0
144
0.0
144
0.0
144
0.0
144
1.0
147
0.0008202099737533
147
0.0
147
0.0
147
0.0
147
0.0
147
0.0008202099737533
147
0.0
147
0.0
147
0.0
147
0.0
147
1.0
147
0.0
147
0.0
147
0.0
147
0.0
147
1.0
  0
MATERIAL
  5
3D30
102
{ACAD_XDICTIONARY
360
3D31
102
}
102
{ACAD_REACTORS
330
3D1F
102
}
330
3D1F
100
AcDbMaterial
  1
Global
 72
     0
 43
0.0008202099737533
 43
0.0
 43
0.0
 43
0.0
 43
0.0
 43
0.0008202099737533
 43
0.0
 43
0.0
 43
0.0
 43
0.0
 43
1.0
 43
0.0
 43
0.0
 43
0.0
 43
0.0
 43
1.0
 77
     0
 47
0.0008202099737533
 47
0.0
 47
0.0
 47
0.0
 47
0.0
 47
0.0008202099737533
 47
0.0
 47
0.0
 47
0.0
 47
0.0
 47
1.0
 47
0.0
 47
0.0
 47
0.0
 47
0.0
 47
1.0
171
     0
 49
0.0008202099737533
 49
0.0
 49
0.0
 49
0.0
 49
0.0
 49
0.0008202099737533
 49
0.0
 49
0.0
 49
0.0
 49
0.0
 49
1.0
 49
0.0
 49
0.0
 49
0.0
 49
0.0
 49
1.0
175
     0
142
0.0008202099737533
142
0.0
142
0.0
142
0.0
142
0.0
142
0.0008202099737533
142
0.0
142
0.0
142
0.0
142
0.0
142
1.0
142
0.0
142
0.0
142
0.0
142
0.0
142
1.0
179
     0
144
0.0008202099737533
144
0.0
144
0.0
144
0.0
144
0.0
144
0.0008202099737533
144
0.0
144
0.0
144
0.0
144
0.0
144
1.0
144
0.0
144
0.0
144
0.0
144
0.0
144
1.0
147
0.0008202099737533
147
0.0
147
0.0
147
0.0
147
0.0
147
0.0008202099737533
147
0.0
147
0.0
147
0.0
147
0.0
147
1.0
147
0.0
147
0.0
147
0.0
147
0.0
147
1.0
  0
MLEADERSTYLE
  5
3D67
102
{ACAD_XDICTIONARY
360
3E06
102
}
102
{ACAD_REACTORS
330
3D66
102
}
330
3D66
100
AcDbMLeaderStyle
179
     2
170
     2
171
     1
172
     0
 90
        2
 40
0.0
 41
0.0
173
     1
 91
-1056964608
340
14
 92
       -2
290
     1
 42
2.0
291
     1
 43
0.36
  3
Standard
 44
4.0
300

342
11
174
     1
178
     6
175
     1
176
     0
 93
-1056964608
 45
4.0
292
     0
297
     0
 46
4.0
 94
-1056964608
 47
1.0
 49
1.0
140
1.0
293
     1
141
0.0
294
     1
177
     0
142
1.0
295
     0
296
     0
143
0.125
271
     0
272
     9
273
     9
  0
MLINESTYLE
  5
18
102
{ACAD_REACTORS
330
17
102
}
330
17
100
AcDbMlineStyle
  2
STANDARD
 70
     0
  3

 62
   256
 51
90.0
 52
90.0
 71
     2
 49
0.5
 62
   256
  6
BYLAYER
 49
-0.5
 62
   256
  6
BYLAYER
  0
ACDBPLACEHOLDER
  5
F
102
{ACAD_REACTORS
330
E
102
}
330
E
  0
SCALE
  5
3D55
102
{ACAD_REACTORS
330
3D54
102
}
330
3D54
100
AcDbScale
 70
     0
300
1:1
140
1.0
141
1.0
290
     1
  0
SCALE
  5
3D56
102
{ACAD_REACTORS
330
3D54
102
}
330
3D54
100
AcDbScale
 70
     0
300
1:2
140
1.0
141
2.0
290
     0
  0
SCALE
  5
3D57
102
{ACAD_REACTORS
330
3D54
102
}
330
3D54
100
AcDbScale
 70
     0
300
1:4
140
1.0
141
4.0
290
     0
  0
SCALE
  5
3D58
102
{ACAD_REACTORS
330
3D54
102
}
330
3D54
100
AcDbScale
 70
     0
300
1:5
140
1.0
141
5.0
290
     0
  0
SCALE
  5
3D59
102
{ACAD_REACTORS
330
3D54
102
}
330
3D54
100
AcDbScale
 70
     0
300
1:8
140
1.0
141
8.0
290
     0
  0
SCALE
  5
3D5A
102
{ACAD_REACTORS
330
3D54
102
}
330
3D54
100
AcDbScale
 70
     0
300
1:10
140
1.0
141
10.0
290
     0
  0
SCALE
  5
3D5B
102
{ACAD_REACTORS
330
3D54
102
}
330
3D54
100
AcDbScale
 70
     0
300
1:16
140
1.0
141
16.0
290
     0
  0
SCALE
  5
3D5C
102
{ACAD_REACTORS
330
3D54
102
}
330
3D54
100
AcDbScale
 70
     0
300
1:20
140
1.0
141
20.0
290
     0
  0
SCALE
  5
3D5D
102
{ACAD_REACTORS
330
3D54
102
}
330
3D54
100
AcDbScale
 70
     0
300
1:30
140
1.0
141
30.0
290
     0
  0
SCALE
  5
3D5E
102
{ACAD_REACTORS
330
3D54
102
}
330
3D54
100
AcDbScale
 70
     0
300
1:40
140
1.0
141
40.0
290
     0
  0
SCALE
  5
3D5F
102
{ACAD_REACTORS
330
3D54
102
}
330
3D54
100
AcDbScale
 70
     0
300
1:50
140
1.0
141
50.0
290
     0
  0
SCALE
  5
3D60
102
{ACAD_REACTORS
330
3D54
102
}
330
3D54
100
AcDbScale
 70
     0
300
1:100
140
1.0
141
100.0
290
     0
  0
SCALE
  5
3D61
102
{ACAD_REACTORS
330
3D54
102
}
330
3D54
100
AcDbScale
 70
     0
300
2:1
140
2.0
141
1.0
290
     0
  0
SCALE
  5
3D62
102
{ACAD_REACTORS
330
3D54
102
}
330
3D54
100
AcDbScale
 70
     0
300
4:1
140
4.0
141
1.0
290
     0
  0
SCALE
  5
3D63
102
{ACAD_REACTORS
330
3D54
102
}
330
3D54
100
AcDbScale
 70
     0
300
8:1
140
8.0
141
1.0
290
     0
  0
SCALE
  5
3D64
102
{ACAD_REACTORS
330
3D54
102
}
330
3D54
100
AcDbScale
 70
     0
300
10:1
140
10.0
141
1.0
290
     0
  0
SCALE
  5
3D65
102
{ACAD_REACTORS
330
3D54
102
}
330
3D54
100
AcDbScale
 70
     0
300
100:1
140
100.0
141
1.0
290
     0
  0
ACDBSECTIONVIEWSTYLE
  5
3D69
102
{ACAD_XDICTIONARY
360
3E08
102
}
102
{ACAD_REACTORS
330
3D68
102
}
330
3D68
100
AcDbModelDocViewStyle
 70
     0
  3
Metric50
290
     0
100
AcDbSectionViewStyle
 70
     0
 71
     0
 90
      102
 71
     1
340
11
 62
   256
 40
5.0
340
0
340
0
 62
   256
 40
5.0
300
I, O, Q, S, X, Z
 40
10.0
 90
        0
 40
2.5
 90
        0
 71
     2
340
16
 90
       25
 62
   256
340
16
 90
       50
 62
   256
 40
5.0
 40
2.5
 40
5.0
 71
     3
340
11
 62
   256
 40
5.0
 90
        0
 40
15.0
 90
        1
300
%<\AcVar ViewSectionStartId>%-%<\AcVar ViewSectionEndId>% (%<\AcVar ViewScale \f "%sn">%)
 71
     4
 62
   256
 62
   257
300
ANSI31
 40
1.0
 90
        0
290
     0
290
     0
 90
        6
 40
0.0
 40
1.570796326794896
 40
0.2617993877991494
 40
1.308996938995747
 40
-0.2617993877991494
 40
1.832595714594045
  0
TABLESTYLE
  5
3D53
102
{ACAD_XDICTIONARY
360
3D8F
102
}
102
{ACAD_REACTORS
330
3D52
102
}
330
3D52
100
AcDbTableStyle
280
     0
  3
Standard
 70
     0
 71
     0
 40
1.5
 41
1.5
280
     0
281
     0
  7
Standard
140
4.5
170
     2
 62
     0
 63
     7
283
     0
 90
      512
 91
        0
  1

274
    -2
284
     1
 64
     0
275
    -2
285
     1
 65
     0
276
    -2
286
     1
 66
     0
277
    -2
287
     1
 67
     0
278
    -2
288
     1
 68
     0
279
    -2
289
     1
 69
     0
  7
Standard
140
6.0
170
     5
 62
     0
 63
     7
283
     0
 90
      512
 91
        0
  1

274
    -2
284
     1
 64
     0
275
    -2
285
     1
 65
     0
276
    -2
286
     1
 66
     0
277
    -2
287
     1
 67
     0
278
    -2
288
     1
 68
     0
279
    -2
289
     1
 69
     0
  7
Standard
140
4.5
170
     5
 62
     0
 63
     7
283
     0
 90
      512
 91
        0
  1

274
    -2
284
     1
 64
     0
275
    -2
285
     1
 65
     0
276
    -2
286
     1
 66
     0
277
    -2
287
     1
 67
     0
278
    -2
288
     1
 68
     0
279
    -2
289
     1
 69
     0
  0
VISUALSTYLE
  5
3D3E
102
{ACAD_XDICTIONARY
360
3DE0
102
}
102
{ACAD_REACTORS
330
3D38
102
}
330
3D38
100
AcDbVisualStyle
  2
2dWireframe
 70
     4
177
     2
291
     0
 71
     0
176
     1
 72
     2
176
     1
 73
     0
176
     1
 90
        0
176
     1
 40
0.6
176
     1
 41
30.0
176
     1
 63
     7
421
 16777215
176
     1
 74
     1
176
     1
 91
        4
176
     1
 64
     7
176
     1
 65
   257
176
     1
 75
     1
176
     1
175
     1
176
     1
 42
1.0
176
     1
 92
        0
176
     1
 66
   257
176
     1
 43
1.0
176
     1
 76
     1
176
     1
 77
     6
176
     1
 78
     2
176
     1
 67
     7
176
     1
 79
     5
176
     1
170
     0
176
     1
171
     0
176
     1
290
     0
176
     1
 93
        1
176
     1
 44
0.0
176
     1
173
     0
176
     1
1001
ACAD
1000
AcDbSavedByObjectVersion
1070
     0
  0
VISUALSTYLE
  5
3D3D
102
{ACAD_XDICTIONARY
360
3DDE
102
}
102
{ACAD_REACTORS
330
3D38
102
}
330
3D38
100
AcDbVisualStyle
  2
Basic
 70
     7
177
     2
291
     1
 71
     1
176
     1
 72
     0
176
     1
 73
     1
176
     1
 90
        0
176
     1
 40
0.6
176
     1
 41
30.0
176
     1
 63
     7
421
 16777215
176
     1
 74
     0
176
     1
 91
        4
176
     1
 64
     7
176
     1
 65
   257
176
     1
 75
     1
176
     1
175
     1
176
     1
 42
1.0
176
     1
 92
        8
176
     1
 66
     7
176
     1
 43
1.0
176
     1
 76
     1
176
     1
 77
     6
176
     1
 78
     2
176
     1
 67
     7
176
     1
 79
     5
176
     1
170
     0
176
     1
171
     0
176
     1
290
     0
176
     1
 93
        1
176
     1
 44
0.0
176
     1
173
     0
176
     1
1001
ACAD
1000
AcDbSavedByObjectVersion
1070
     0
  0
VISUALSTYLE
  5
3D44
102
{ACAD_XDICTIONARY
360
3DEC
102
}
102
{ACAD_REACTORS
330
3D38
102
}
330
3D38
100
AcDbVisualStyle
  2
Brighten
 70
    12
177
     2
291
     1
 71
     2
176
     1
 72
     2
176
     1
 73
     0
176
     1
 90
        0
176
     1
 40
0.6
176
     1
 41
30.0
176
     1
 63
     7
421
 16777215
176
     1
 74
     1
176
     1
 91
        4
176
     1
 64
     7
176
     1
 65
   257
176
     1
 75
     1
176
     1
175
     1
176
     1
 42
1.0
176
     1
 92
        8
176
     1
 66
     7
176
     1
 43
1.0
176
     1
 76
     1
176
     1
 77
     6
176
     1
 78
     2
176
     1
 67
     7
176
     1
 79
     5
176
     1
170
     0
176
     1
171
     0
176
     1
290
     0
176
     1
 93
        1
176
     1
 44
50.0
176
     1
173
     0
176
     1
1001
ACAD
1000
AcDbSavedByObjectVersion
1070
     0
  0
VISUALSTYLE
  5
3D48
102
{ACAD_XDICTIONARY
360
3DF4
102
}
102
{ACAD_REACTORS
330
3D38
102
}
330
3D38
100
AcDbVisualStyle
  2
ColorChange
 70
    16
177
     2
291
     1
 71
     2
176
     1
 72
     2
176
     1
 73
     3
176
     1
 90
        0
176
     1
 40
0.6
176
     1
 41
30.0
176
     1
 63
     8
421
  8421504
176
     1
 74
     1
176
     1
 91
        4
176
     1
 64
     7
176
     1
 65
   257
176
     1
 75
     1
176
     1
175
     1
176
     1
 42
1.0
176
     1
 92
        8
176
     1
 66
     8
424
  8421504
176
     1
 43
1.0
176
     1
 76
     1
176
     1
 77
     6
176
     1
 78
     2
176
     1
 67
     7
176
     1
 79
     5
176
     1
170
     0
176
     1
171
     0
176
     1
290
     0
176
     1
 93
        1
176
     1
 44
0.0
176
     1
173
     0
176
     1
1001
ACAD
1000
AcDbSavedByObjectVersion
1070
     0
  0
VISUALSTYLE
  5
3D41
102
{ACAD_XDICTIONARY
360
3DE6
102
}
102
{ACAD_REACTORS
330
3D38
102
}
330
3D38
100
AcDbVisualStyle
  2
Conceptual
 70
     9
177
     2
291
     0
 71
     3
176
     1
 72
     2
176
     1
 73
     0
176
     1
 90
        0
176
     1
 40
0.6
176
     1
 41
30.0
176
     1
 63
     7
421
 16777215
176
     1
 74
     2
176
     1
 91
        2
176
     1
 64
     7
176
     1
 65
   257
176
     1
 75
     1
176
     1
175
     1
176
     1
 42
179.0
176
     1
 92
        8
176
     1
 66
     7
176
     1
 43
1.0
176
     1
 76
     1
176
     1
 77
     6
176
     1
 78
     2
176
     1
 67
     7
176
     1
 79
     3
176
     1
170
     0
176
     1
171
     0
176
     1
290
     0
176
     1
 93
        1
176
     1
 44
0.0
176
     1
173
     0
176
     1
1001
ACAD
1000
AcDbSavedByObjectVersion
1070
     0
  0
VISUALSTYLE
  5
3D43
102
{ACAD_XDICTIONARY
360
3DEA
102
}
102
{ACAD_REACTORS
330
3D38
102
}
330
3D38
100
AcDbVisualStyle
  2
Dim
 70
    11
177
     2
291
     1
 71
     2
176
     1
 72
     2
176
     1
 73
     0
176
     1
 90
        0
176
     1
 40
0.6
176
     1
 41
30.0
176
     1
 63
     7
421
 16777215
176
     1
 74
     1
176
     1
 91
        4
176
     1
 64
     7
176
     1
 65
   257
176
     1
 75
     1
176
     1
175
     1
176
     1
 42
1.0
176
     1
 92
        8
176
     1
 66
     7
176
     1
 43
1.0
176
     1
 76
     1
176
     1
 77
     6
176
     1
 78
     2
176
     1
 67
     7
176
     1
 79
     5
176
     1
170
     0
176
     1
171
     0
176
     1
290
     0
176
     1
 93
        1
176
     1
 44
-50.0
176
     1
173
     0
176
     1
1001
ACAD
1000
AcDbSavedByObjectVersion
1070
     0
  0
VISUALSTYLE
  5
3D50
102
{ACAD_XDICTIONARY
360
3E04
102
}
102
{ACAD_REACTORS
330
3D38
102
}
330
3D38
100
AcDbVisualStyle
  2
EdgeColorOff
 70
    22
177
     2
291
     1
 71
     2
176
     0
 72
     2
176
     0
 73
     0
176
     0
 90
        0
176
     0
 40
0.6
176
     0
 41
30.0
176
     0
 63
     7
421
 16777215
176
     0
 74
     1
176
     0
 91
        4
176
     0
 64
     7
176
     0
 65
   257
176
     0
 75
     1
176
     0
175
     1
176
     0
 42
1.0
176
     0
 92
        8
176
     2
 66
     7
176
     0
 43
1.0
176
     0
 76
     1
176
     0
 77
     6
176
     0
 78
     2
176
     0
 67
     7
176
     0
 79
     5
176
     0
170
     0
176
     0
171
     0
176
     0
290
     0
176
     0
 93
        1
176
     0
 44
0.0
176
     0
173
     0
176
     0
1001
ACAD
1000
AcDbSavedByObjectVersion
1070
     0
  0
VISUALSTYLE
  5
3D47
102
{ACAD_XDICTIONARY
360
3DF2
102
}
102
{ACAD_REACTORS
330
3D38
102
}
330
3D38
100
AcDbVisualStyle
  2
Facepattern
 70
    15
177
     2
291
     1
 71
     2
176
     1
 72
     2
176
     1
 73
     0
176
     1
 90
        0
176
     1
 40
0.6
176
     1
 41
30.0
176
     1
 63
     7
421
 16777215
176
     1
 74
     1
176
     1
 91
        4
176
     1
 64
     7
176
     1
 65
   257
176
     1
 75
     1
176
     1
175
     1
176
     1
 42
1.0
176
     1
 92
        8
176
     1
 66
     7
176
     1
 43
1.0
176
     1
 76
     1
176
     1
 77
     6
176
     1
 78
     2
176
     1
 67
     7
176
     1
 79
     5
176
     1
170
     0
176
     1
171
     0
176
     1
290
     0
176
     1
 93
        1
176
     1
 44
0.0
176
     1
173
     0
176
     1
1001
ACAD
1000
AcDbSavedByObjectVersion
1070
     0
  0
VISUALSTYLE
  5
3D39
102
{ACAD_XDICTIONARY
360
3DD6
102
}
102
{ACAD_REACTORS
330
3D38
102
}
330
3D38
100
AcDbVisualStyle
  2
Flat
 70
     0
177
     2
291
     1
 71
     2
176
     1
 72
     1
176
     1
 73
     1
176
     1
 90
        2
176
     1
 40
0.6
176
     1
 41
30.0
176
     1
 63
     7
421
 16777215
176
     1
 74
     0
176
     1
 91
        0
176
     1
 64
     7
176
     1
 65
   257
176
     1
 75
     1
176
     1
175
     1
176
     1
 42
1.0
176
     1
 92
        8
176
     1
 66
     7
176
     1
 43
1.0
176
     1
 76
     1
176
     1
 77
     6
176
     1
 78
     2
176
     1
 67
     7
176
     1
 79
     5
176
     1
170
     0
176
     1
171
     0
176
     1
290
     0
176
     1
 93
       13
176
     1
 44
0.0
176
     1
173
     0
176
     1
1001
ACAD
1000
AcDbSavedByObjectVersion
1070
     0
  0
VISUALSTYLE
  5
3D3A
102
{ACAD_XDICTIONARY
360
3DD8
102
}
102
{ACAD_REACTORS
330
3D38
102
}
330
3D38
100
AcDbVisualStyle
  2
FlatWithEdges
 70
     1
177
     2
291
     1
 71
     2
176
     1
 72
     1
176
     1
 73
     1
176
     1
 90
        2
176
     1
 40
0.6
176
     1
 41
30.0
176
     1
 63
     7
421
 16777215
176
     1
 74
     1
176
     1
 91
        0
176
     1
 64
     7
176
     1
 65
   257
176
     1
 75
     1
176
     1
175
     1
176
     1
 42
1.0
176
     1
 92
        0
176
     1
 66
   257
176
     1
 43
1.0
176
     1
 76
     1
176
     1
 77
     6
176
     1
 78
     2
176
     1
 67
     7
176
     1
 79
     5
176
     1
170
     0
176
     1
171
     0
176
     1
290
     0
176
     1
 93
       13
176
     1
 44
0.0
176
     1
173
     0
176
     1
1001
ACAD
1000
AcDbSavedByObjectVersion
1070
     0
  0
VISUALSTYLE
  5
3D3B
102
{ACAD_XDICTIONARY
360
3DDA
102
}
102
{ACAD_REACTORS
330
3D38
102
}
330
3D38
100
AcDbVisualStyle
  2
Gouraud
 70
     2
177
     2
291
     1
 71
     2
176
     1
 72
     2
176
     1
 73
     1
176
     1
 90
        2
176
     1
 40
0.6
176
     1
 41
30.0
176
     1
 63
     7
421
 16777215
176
     1
 74
     0
176
     1
 91
        0
176
     1
 64
     7
176
     1
 65
   257
176
     1
 75
     1
176
     1
175
     1
176
     1
 42
1.0
176
     1
 92
        0
176
     1
 66
     7
176
     1
 43
1.0
176
     1
 76
     1
176
     1
 77
     6
176
     1
 78
     2
176
     1
 67
     7
176
     1
 79
     5
176
     1
170
     0
176
     1
171
     0
176
     1
290
     0
176
     1
 93
       13
176
     1
 44
0.0
176
     1
173
     0
176
     1
1001
ACAD
1000
AcDbSavedByObjectVersion
1070
     0
  0
VISUALSTYLE
  5
3D3C
102
{ACAD_XDICTIONARY
360
3DDC
102
}
102
{ACAD_REACTORS
330
3D38
102
}
330
3D38
100
AcDbVisualStyle
  2
GouraudWithEdges
 70
     3
177
     2
291
     1
 71
     2
176
     1
 72
     2
176
     1
 73
     1
176
     1
 90
        2
176
     1
 40
0.6
176
     1
 41
30.0
176
     1
 63
     7
421
 16777215
176
     1
 74
     1
176
     1
 91
        0
176
     1
 64
     7
176
     1
 65
   257
176
     1
 75
     1
176
     1
175
     1
176
     1
 42
1.0
176
     1
 92
        0
176
     1
 66
   257
176
     1
 43
1.0
176
     1
 76
     1
176
     1
 77
     6
176
     1
 78
     2
176
     1
 67
     7
176
     1
 79
     5
176
     1
170
     0
176
     1
171
     0
176
     1
290
     0
176
     1
 93
       13
176
     1
 44
0.0
176
     1
173
     0
176
     1
1001
ACAD
1000
AcDbSavedByObjectVersion
1070
     0
  0
VISUALSTYLE
  5
3D40
102
{ACAD_XDICTIONARY
360
3DE4
102
}
102
{ACAD_REACTORS
330
3D38
102
}
330
3D38
100
AcDbVisualStyle
  2
Hidden
 70
     6
177
     2
291
     0
 71
     1
176
     1
 72
     2
176
     1
 73
     2
176
     1
 90
        0
176
     1
 40
0.6
176
     1
 41
30.0
176
     1
 63
     7
421
 16777215
176
     1
 74
     2
176
     1
 91
        2
176
     1
 64
     7
176
     1
 65
   257
176
     1
 75
     2
176
     1
175
     1
176
     1
 42
40.0
176
     1
 92
        0
176
     1
 66
   257
176
     1
 43
1.0
176
     1
 76
     1
176
     1
 77
     6
176
     1
 78
     2
176
     1
 67
     7
176
     1
 79
     3
176
     1
170
     0
176
     1
171
     0
176
     1
290
     0
176
     1
 93
        1
176
     1
 44
0.0
176
     1
173
     0
176
     1
1001
ACAD
1000
AcDbSavedByObjectVersion
1070
     0
  0
VISUALSTYLE
  5
3D4E
102
{ACAD_XDICTIONARY
360
3E00
102
}
102
{ACAD_REACTORS
330
3D38
102
}
330
3D38
100
AcDbVisualStyle
  2
JitterOff
 70
    20
177
     2
291
     1
 71
     2
176
     0
 72
     2
176
     0
 73
     0
176
     0
 90
        0
176
     0
 40
0.6
176
     0
 41
30.0
176
     0
 63
     7
421
 16777215
176
     0
 74
     1
176
     0
 91
        4
176
     0
 64
     7
176
     0
 65
   257
176
     0
 75
     1
176
     0
175
     1
176
     0
 42
1.0
176
     0
 92
       10
176
     2
 66
     7
176
     0
 43
1.0
176
     0
 76
     1
176
     0
 77
     6
176
     0
 78
     2
176
     0
 67
     7
176
     0
 79
     5
176
     0
170
     0
176
     0
171
     0
176
     0
290
     0
176
     0
 93
        1
176
     0
 44
0.0
176
     0
173
     0
176
     0
1001
ACAD
1000
AcDbSavedByObjectVersion
1070
     0
  0
VISUALSTYLE
  5
3D46
102
{ACAD_XDICTIONARY
360
3DF0
102
}
102
{ACAD_REACTORS
330
3D38
102
}
330
3D38
100
AcDbVisualStyle
  2
Linepattern
 70
    14
177
     2
291
     1
 71
     2
176
     1
 72
     2
176
     1
 73
     0
176
     1
 90
        0
176
     1
 40
0.6
176
     1
 41
30.0
176
     1
 63
     7
421
 16777215
176
     1
 74
     1
176
     1
 91
        4
176
     1
 64
     7
176
     1
 65
   257
176
     1
 75
     7
176
     1
175
     7
176
     1
 42
1.0
176
     1
 92
        8
176
     1
 66
     7
176
     1
 43
1.0
176
     1
 76
     1
176
     1
 77
     6
176
     1
 78
     2
176
     1
 67
     7
176
     1
 79
     5
176
     1
170
     0
176
     1
171
     0
176
     1
290
     0
176
     1
 93
        1
176
     1
 44
0.0
176
     1
173
     0
176
     1
1001
ACAD
1000
AcDbSavedByObjectVersion
1070
     0
  0
VISUALSTYLE
  5
3D4F
102
{ACAD_XDICTIONARY
360
3E02
102
}
102
{ACAD_REACTORS
330
3D38
102
}
330
3D38
100
AcDbVisualStyle
  2
OverhangOff
 70
    21
177
     2
291
     1
 71
     2
176
     0
 72
     2
176
     0
 73
     0
176
     0
 90
        0
176
     0
 40
0.6
176
     0
 41
30.0
176
     0
 63
     7
421
 16777215
176
     0
 74
     1
176
     0
 91
        4
176
     0
 64
     7
176
     0
 65
   257
176
     0
 75
     1
176
     0
175
     1
176
     0
 42
1.0
176
     0
 92
        9
176
     2
 66
     7
176
     0
 43
1.0
176
     0
 76
     1
176
     0
 77
     6
176
     0
 78
     2
176
     0
 67
     7
176
     0
 79
     5
176
     0
170
     0
176
     0
171
     0
176
     0
290
     0
176
     0
 93
        1
176
     0
 44
0.0
176
     0
173
     0
176
     0
1001
ACAD
1000
AcDbSavedByObjectVersion
1070
     0
  0
VISUALSTYLE
  5
3D42
102
{ACAD_XDICTIONARY
360
3DE8
102
}
102
{ACAD_REACTORS
330
3D38
102
}
330
3D38
100
AcDbVisualStyle
  2
Realistic
 70
     8
177
     2
291
     0
 71
     2
176
     1
 72
     3
176
     1
 73
     0
176
     1
 90
        2
176
     1
 40
0.6
176
     1
 41
30.0
176
     1
 63
     7
421
 16777215
176
     1
 74
     0
176
     1
 91
        0
176
     1
 64
     7
176
     1
 65
   257
176
     1
 75
     1
176
     1
175
     1
176
     1
 42
1.0
176
     1
 92
        8
176
     1
 66
   257
176
     1
 43
1.0
176
     1
 76
     1
176
     1
 77
     6
176
     1
 78
     2
176
     1
 67
     7
176
     1
 79
     3
176
     1
170
     0
176
     1
171
     0
176
     1
290
     0
176
     1
 93
       13
176
     1
 44
0.0
176
     1
173
     0
176
     1
1001
ACAD
1000
AcDbSavedByObjectVersion
1070
     0
  0
VISUALSTYLE
  5
3D4D
102
{ACAD_XDICTIONARY
360
3DFE
102
}
102
{ACAD_REACTORS
330
3D38
102
}
330
3D38
100
AcDbVisualStyle
  2
Shaded
 70
    27
177
     2
291
     0
 71
     2
176
     1
 72
     2
176
     1
 73
     1
176
     1
 90
        2
176
     1
 40
0.6
176
     1
 41
30.0
176
     1
 63
     7
421
 16777215
176
     1
 74
     0
176
     1
 91
        4
176
     1
 64
     7
176
     1
 65
   257
176
     1
 75
     1
176
     1
175
     1
176
     1
 42
1.0
176
     1
 92
        8
176
     1
 66
   257
176
     1
 43
1.0
176
     1
 76
     1
176
     1
 77
     6
176
     1
 78
     2
176
     1
 67
     8
425
  7895160
176
     1
 79
     3
176
     1
170
     0
176
     1
171
     0
176
     1
290
     0
176
     1
 93
        5
176
     1
 44
0.0
176
     1
173
     0
176
     1
1001
ACAD
1000
AcDbSavedByObjectVersion
1070
     0
  0
VISUALSTYLE
  5
3D4C
102
{ACAD_XDICTIONARY
360
3DFC
102
}
102
{ACAD_REACTORS
330
3D38
102
}
330
3D38
100
AcDbVisualStyle
  2
Shaded with edges
 70
    26
177
     2
291
     0
 71
     2
176
     1
 72
     2
176
     1
 73
     1
176
     1
 90
        2
176
     1
 40
0.6
176
     1
 41
30.0
176
     1
 63
     7
421
 16777215
176
     1
 74
     1
176
     1
 91
       10
176
     1
 64
     7
176
     1
 65
   257
176
     1
 75
     2
176
     1
175
     1
176
     1
 42
1.0
176
     1
 92
        8
176
     1
 66
   257
176
     1
 43
1.0
176
     1
 76
     1
176
     1
 77
     6
176
     1
 78
     2
176
     1
 67
     7
176
     1
 79
     3
176
     1
170
     0
176
     1
171
     0
176
     1
290
     0
176
     1
 93
        5
176
     1
 44
0.0
176
     1
173
     0
176
     1
1001
ACAD
1000
AcDbSavedByObjectVersion
1070
     0
  0
VISUALSTYLE
  5
3D49
102
{ACAD_XDICTIONARY
360
3DF6
102
}
102
{ACAD_REACTORS
330
3D38
102
}
330
3D38
100
AcDbVisualStyle
  2
Shades of Gray
 70
    23
177
     2
291
     0
 71
     2
176
     1
 72
     2
176
     1
 73
     3
176
     1
 90
        0
176
     1
 40
0.6
176
     1
 41
30.0
176
     1
 63
     7
421
 16777215
176
     1
 74
     2
176
     1
 91
        2
176
     1
 64
     7
176
     1
 65
     7
176
     1
 75
     1
176
     1
175
     1
176
     1
 42
40.0
176
     1
 92
        8
176
     1
 66
     7
176
     1
 43
1.0
176
     1
 76
     1
176
     1
 77
     6
176
     1
 78
     2
176
     1
 67
     7
176
     1
 79
     3
176
     1
170
     0
176
     1
171
     0
176
     1
290
     0
176
     1
 93
        1
176
     1
 44
0.0
176
     1
173
     0
176
     1
1001
ACAD
1000
AcDbSavedByObjectVersion
1070
     0
  0
VISUALSTYLE
  5
3D4A
102
{ACAD_XDICTIONARY
360
3DF8
102
}
102
{ACAD_REACTORS
330
3D38
102
}
330
3D38
100
AcDbVisualStyle
  2
Sketchy
 70
    24
177
     2
291
     0
 71
     1
176
     1
 72
     2
176
     1
 73
     2
176
     1
 90
        0
176
     1
 40
0.6
176
     1
 41
30.0
176
     1
 63
     7
421
 16777215
176
     1
 74
     2
176
     1
 91
        2
176
     1
 64
     7
176
     1
 65
     7
176
     1
 75
     1
176
     1
175
     1
176
     1
 42
40.0
176
     1
 92
       11
176
     1
 66
     7
176
     1
 43
1.0
176
     1
 76
     1
176
     1
 77
     6
176
     1
 78
     2
176
     1
 67
     7
176
     1
 79
     6
176
     1
170
     0
176
     1
171
     0
176
     1
290
     0
176
     1
 93
        1
176
     1
 44
0.0
176
     1
173
     0
176
     1
1001
ACAD
1000
AcDbSavedByObjectVersion
1070
     0
  0
VISUALSTYLE
  5
3D45
102
{ACAD_XDICTIONARY
360
3DEE
102
}
102
{ACAD_REACTORS
330
3D38
102
}
330
3D38
100
AcDbVisualStyle
  2
Thicken
 70
    13
177
     2
291
     1
 71
     2
176
     1
 72
     2
176
     1
 73
     0
176
     1
 90
        0
176
     1
 40
0.6
176
     1
 41
30.0
176
     1
 63
     7
421
 16777215
176
     1
 74
     1
176
     1
 91
        4
176
     1
 64
     7
176
     1
 65
   257
176
     1
 75
     1
176
     1
175
     1
176
     1
 42
1.0
176
     1
 92
       12
176
     1
 66
     7
176
     1
 43
1.0
176
     1
 76
     1
176
     1
 77
     6
176
     1
 78
     2
176
     1
 67
     7
176
     1
 79
     5
176
     1
170
     0
176
     1
171
     0
176
     1
290
     0
176
     1
 93
        1
176
     1
 44
0.0
176
     1
173
     0
176
     1
1001
ACAD
1000
AcDbSavedByObjectVersion
1070
     0
  0
VISUALSTYLE
  5
3D3F
102
{ACAD_XDICTIONARY
360
3DE2
102
}
102
{ACAD_REACTORS
330
3D38
102
}
330
3D38
100
AcDbVisualStyle
  2
Wireframe
 70
     5
177
     2
291
     0
 71
     0
176
     1
 72
     2
176
     1
 73
     0
176
     1
 90
        0
176
     1
 40
0.6
176
     1
 41
30.0
176
     1
 63
     7
421
 16777215
176
     1
 74
     1
176
     1
 91
        4
176
     1
 64
     7
176
     1
 65
   257
176
     1
 75
     1
176
     1
175
     1
176
     1
 42
1.0
176
     1
 92
        0
176
     1
 66
   257
176
     1
 43
1.0
176
     1
 76
     1
176
     1
 77
     6
176
     1
 78
     2
176
     1
 67
     7
176
     1
 79
     3
176
     1
170
     0
176
     1
171
     0
176
     1
290
     0
176
     1
 93
        1
176
     1
 44
0.0
176
     1
173
     0
176
     1
1001
ACAD
1000
AcDbSavedByObjectVersion
1070
     0
  0
VISUALSTYLE
  5
3D4B
102
{ACAD_XDICTIONARY
360
3DFA
102
}
102
{ACAD_REACTORS
330
3D38
102
}
330
3D38
100
AcDbVisualStyle
  2
X-Ray
 70
    25
177
     2
291
     0
 71
     2
176
     1
 72
     2
176
     1
 73
     1
176
     1
 90
        1
176
     1
 40
0.5
176
     1
 41
30.0
176
     1
 63
     7
421
 16777215
176
     1
 74
     1
176
     1
 91
        0
176
     1
 64
     7
176
     1
 65
   257
176
     1
 75
     1
176
     1
175
     1
176
     1
 42
1.0
176
     1
 92
        8
176
     1
 66
     7
176
     1
 43
1.0
176
     1
 76
     1
176
     1
 77
     6
176
     1
 78
     2
176
     1
 67
     7
176
     1
 79
     3
176
     1
170
     0
176
     1
171
     0
176
     1
290
     0
176
     1
 93
       13
176
     1
 44
0.0
176
     1
173
     0
176
     1
1001
ACAD
1000
AcDbSavedByObjectVersion
1070
     0
  0
DICTIONARYVAR
  5
3D8A
102
{ACAD_REACTORS
330
C7
102
}
330
C7
100
DictionaryVariables
280
     0
  1
1:1
  0
DICTIONARYVAR
  5
3D86
102
{ACAD_REACTORS
330
C7
102
}
330
C7
100
DictionaryVariables
280
     0
  1
STANDARD
  0
DICTIONARYVAR
  5
3D85
102
{ACAD_REACTORS
330
C7
102
}
330
C7
100
DictionaryVariables
280
     0
  1
STANDARD
  0
DICTIONARYVAR
  5
3D87
102
{ACAD_REACTORS
330
C7
102
}
330
C7
100
DictionaryVariables
280
     0
  1
Metric50
  0
DICTIONARYVAR
  5
3D88
102
{ACAD_REACTORS
330
C7
102
}
330
C7
100
DictionaryVariables
280
     0
  1
Metric50
  0
DICTIONARYVAR
  5
C9
102
{ACAD_REACTORS
330
C7
102
}
330
C7
100
DictionaryVariables
280
     0
  1
2
  0
DICTIONARYVAR
  5
C8
102
{ACAD_REACTORS
330
C7
102
}
330
C7
100
DictionaryVariables
280
     0
  1
1
  0
DICTIONARYVAR
  5
3D8C
102
{ACAD_REACTORS
330
C7
102
}
330
C7
100
DictionaryVariables
280
     0
  1
1
  0
DICTIONARYVAR
  5
3D8D
102
{ACAD_REACTORS
330
C7
102
}
330
C7
100
DictionaryVariables
280
     0
  1
15
  0
DICTIONARYVAR
  5
3D8B
102
{ACAD_REACTORS
330
C7
102
}
330
C7
100
DictionaryVariables
280
     0
  1
0
  0
DICTIONARYVAR
  5
3D89
102
{ACAD_REACTORS
330
C7
102
}
330
C7
100
DictionaryVariables
280
     0
  1
0
  0
DICTIONARY
  5
3E0A
330
3D6B
100
AcDbDictionary
280
     1
281
     1
  3
ACAD_XREC_ROUNDTRIP
360
3E0B
  0
DICTIONARY
  5
3D29
330
3D28
100
AcDbDictionary
280
     1
281
     1
  3
BUMPTILE
360
3D2B
  3
DIFFUSETILE
360
3D2A
  3
OPACITYTILE
360
3D2E
  3
REFLECTIONTILE
360
3D2D
  3
REFRACTIONTILE
360
3D2F
  3
SPECULARTILE
360
3D2C
  0
DICTIONARY
  5
3D21
330
3D20
100
AcDbDictionary
280
     1
281
     1
  3
BUMPTILE
360
3D23
  3
DIFFUSETILE
360
3D22
  3
OPACITYTILE
360
3D26
  3
REFLECTIONTILE
360
3D25
  3
REFRACTIONTILE
360
3D27
  3
SPECULARTILE
360
3D24
  0
DICTIONARY
  5
3D31
330
3D30
100
AcDbDictionary
280
     1
281
     1
  3
BUMPTILE
360
3D33
  3
DIFFUSETILE
360
3D32
  3
OPACITYTILE
360
3D36
  3
REFLECTIONTILE
360
3D35
  3
REFRACTIONTILE
360
3D37
  3
SPECULARTILE
360
3D34
  0
DICTIONARY
  5
3E06
330
3D67
100
AcDbDictionary
280
     1
281
     1
  3
ACAD_XREC_ROUNDTRIP
360
3E07
  0
DICTIONARY
  5
3E08
330
3D69
100
AcDbDictionary
280
     1
281
     1
  3
ACAD_XREC_ROUNDTRIP
360
3E09
  0
DICTIONARY
  5
3D8F
330
3D53
100
AcDbDictionary
280
     1
281
     1
  3
ACAD_ROUNDTRIP_2008_TABLESTYLE_CELLSTYLEMAP
360
3DD2
  0
DICTIONARY
  5
3DE0
330
3D3E
100
AcDbDictionary
280
     1
281
     1
  3
ACAD_XREC_ROUNDTRIP
360
3DE1
  0
DICTIONARY
  5
3DDE
330
3D3D
100
AcDbDictionary
280
     1
281
     1
  3
ACAD_XREC_ROUNDTRIP
360
3DDF
  0
DICTIONARY
  5
3DEC
330
3D44
100
AcDbDictionary
280
     1
281
     1
  3
ACAD_XREC_ROUNDTRIP
360
3DED
  0
DICTIONARY
  5
3DF4
330
3D48
100
AcDbDictionary
280
     1
281
     1
  3
ACAD_XREC_ROUNDTRIP
360
3DF5
  0
DICTIONARY
  5
3DE6
330
3D41
100
AcDbDictionary
280
     1
281
     1
  3
ACAD_XREC_ROUNDTRIP
360
3DE7
  0
DICTIONARY
  5
3DEA
330
3D43
100
AcDbDictionary
280
     1
281
     1
  3
ACAD_XREC_ROUNDTRIP
360
3DEB
  0
DICTIONARY
  5
3E04
330
3D50
100
AcDbDictionary
280
     1
281
     1
  3
ACAD_XREC_ROUNDTRIP
360
3E05
  0
DICTIONARY
  5
3DF2
330
3D47
100
AcDbDictionary
280
     1
281
     1
  3
ACAD_XREC_ROUNDTRIP
360
3DF3
  0
DICTIONARY
  5
3DD6
330
3D39
100
AcDbDictionary
280
     1
281
     1
  3
ACAD_XREC_ROUNDTRIP
360
3DD7
  0
DICTIONARY
  5
3DD8
330
3D3A
100
AcDbDictionary
280
     1
281
     1
  3
ACAD_XREC_ROUNDTRIP
360
3DD9
  0
DICTIONARY
  5
3DDA
330
3D3B
100
AcDbDictionary
280
     1
281
     1
  3
ACAD_XREC_ROUNDTRIP
360
3DDB
  0
DICTIONARY
  5
3DDC
330
3D3C
100
AcDbDictionary
280
     1
281
     1
  3
ACAD_XREC_ROUNDTRIP
360
3DDD
  0
DICTIONARY
  5
3DE4
330
3D40
100
AcDbDictionary
280
     1
281
     1
  3
ACAD_XREC_ROUNDTRIP
360
3DE5
  0
DICTIONARY
  5
3E00
330
3D4E
100
AcDbDictionary
280
     1
281
     1
  3
ACAD_XREC_ROUNDTRIP
360
3E01
  0
DICTIONARY
  5
3DF0
330
3D46
100
AcDbDictionary
280
     1
281
     1
  3
ACAD_XREC_ROUNDTRIP
360
3DF1
  0
DICTIONARY
  5
3E02
330
3D4F
100
AcDbDictionary
280
     1
281
     1
  3
ACAD_XREC_ROUNDTRIP
360
3E03
  0
DICTIONARY
  5
3DE8
330
3D42
100
AcDbDictionary
280
     1
281
     1
  3
ACAD_XREC_ROUNDTRIP
360
3DE9
  0
DICTIONARY
  5
3DFE
330
3D4D
100
AcDbDictionary
280
     1
281
     1
  3
ACAD_XREC_ROUNDTRIP
360
3DFF
  0
DICTIONARY
  5
3DFC
330
3D4C
100
AcDbDictionary
280
     1
281
     1
  3
ACAD_XREC_ROUNDTRIP
360
3DFD
  0
DICTIONARY
  5
3DF6
330
3D49
100
AcDbDictionary
280
     1
281
     1
  3
ACAD_XREC_ROUNDTRIP
360
3DF7
  0
DICTIONARY
  5
3DF8
330
3D4A
100
AcDbDictionary
280
     1
281
     1
  3
ACAD_XREC_ROUNDTRIP
360
3DF9
  0
DICTIONARY
  5
3DEE
330
3D45
100
AcDbDictionary
280
     1
281
     1
  3
ACAD_XREC_ROUNDTRIP
360
3DEF
  0
DICTIONARY
  5
3DE2
330
3D3F
100
AcDbDictionary
280
     1
281
     1
  3
ACAD_XREC_ROUNDTRIP
360
3DE3
  0
DICTIONARY
  5
3DFA
330
3D4B
100
AcDbDictionary
280
     1
281
     1
  3
ACAD_XREC_ROUNDTRIP
360
3DFB
  0
XRECORD
  5
3E0B
102
{ACAD_REACTORS
330
3E0A
102
}
330
3E0A
100
AcDbXrecord
280
     1
102
DISPLAYNAME
  1
Metric50
102
FLAGS
 90
        0
  0
XRECORD
  5
3D2B
102
{ACAD_REACTORS
330
3D29
102
}
330
3D29
100
AcDbXrecord
280
     1
270
     1
271
     1
  0
XRECORD
  5
3D2A
102
{ACAD_REACTORS
330
3D29
102
}
330
3D29
100
AcDbXrecord
280
     1
270
     1
271
     1
  0
XRECORD
  5
3D2E
102
{ACAD_REACTORS
330
3D29
102
}
330
3D29
100
AcDbXrecord
280
     1
270
     1
271
     1
  0
XRECORD
  5
3D2D
102
{ACAD_REACTORS
330
3D29
102
}
330
3D29
100
AcDbXrecord
280
     1
270
     1
271
     1
  0
XRECORD
  5
3D2F
102
{ACAD_REACTORS
330
3D29
102
}
330
3D29
100
AcDbXrecord
280
     1
270
     1
271
     1
  0
XRECORD
  5
3D2C
102
{ACAD_REACTORS
330
3D29
102
}
330
3D29
100
AcDbXrecord
280
     1
270
     1
271
     1
  0
XRECORD
  5
3D23
102
{ACAD_REACTORS
330
3D21
102
}
330
3D21
100
AcDbXrecord
280
     1
270
     1
271
     1
  0
XRECORD
  5
3D22
102
{ACAD_REACTORS
330
3D21
102
}
330
3D21
100
AcDbXrecord
280
     1
270
     1
271
     1
  0
XRECORD
  5
3D26
102
{ACAD_REACTORS
330
3D21
102
}
330
3D21
100
AcDbXrecord
280
     1
270
     1
271
     1
  0
XRECORD
  5
3D25
102
{ACAD_REACTORS
330
3D21
102
}
330
3D21
100
AcDbXrecord
280
     1
270
     1
271
     1
  0
XRECORD
  5
3D27
102
{ACAD_REACTORS
330
3D21
102
}
330
3D21
100
AcDbXrecord
280
     1
270
     1
271
     1
  0
XRECORD
  5
3D24
102
{ACAD_REACTORS
330
3D21
102
}
330
3D21
100
AcDbXrecord
280
     1
270
     1
271
     1
  0
XRECORD
  5
3D33
102
{ACAD_REACTORS
330
3D31
102
}
330
3D31
100
AcDbXrecord
280
     1
270
     1
271
     1
  0
XRECORD
  5
3D32
102
{ACAD_REACTORS
330
3D31
102
}
330
3D31
100
AcDbXrecord
280
     1
270
     1
271
     1
  0
XRECORD
  5
3D36
102
{ACAD_REACTORS
330
3D31
102
}
330
3D31
100
AcDbXrecord
280
     1
270
     1
271
     1
  0
XRECORD
  5
3D35
102
{ACAD_REACTORS
330
3D31
102
}
330
3D31
100
AcDbXrecord
280
     1
270
     1
271
     1
  0
XRECORD
  5
3D37
102
{ACAD_REACTORS
330
3D31
102
}
330
3D31
100
AcDbXrecord
280
     1
270
     1
271
     1
  0
XRECORD
  5
3D34
102
{ACAD_REACTORS
330
3D31
102
}
330
3D31
100
AcDbXrecord
280
     1
270
     1
271
     1
  0
XRECORD
  5
3E07
102
{ACAD_REACTORS
330
3E06
102
}
330
3E06
100
AcDbXrecord
280
     1
102
ACAD_ROUNDTRIP_2012_MLEADER_STYLE
298
     1
  0
XRECORD
  5
3E09
102
{ACAD_REACTORS
330
3E08
102
}
330
3E08
100
AcDbXrecord
280
     1
102
DISPLAYNAME
  1
Metric50
102
FLAGS
 90
        0
  0
CELLSTYLEMAP
  5
3DD2
102
{ACAD_REACTORS
330
3D8F
102
}
330
3D8F
100
AcDbCellStyleMap
 90
        3
300
CELLSTYLE
  1
TABLEFORMAT_BEGIN
 90
        5
170
     1
 91
        0
 92
    32768
 62
   257
 93
        1
300
CONTENTFORMAT
  1
CONTENTFORMAT_BEGIN
 90
        0
 91
        0
 92
      512
 93
        0
300

 40
0.0
140
1.0
 94
        5
 62
     0
340
11
144
6.0
309
CONTENTFORMAT_END
171
     1
301
MARGIN
  1
CELLMARGIN_BEGIN
 40
1.5
 40
1.5
 40
1.5
 40
1.5
 40
0.18
 40
0.18
309
CELLMARGIN_END
 94
        6
 95
        1
302
GRIDFORMAT
  1
GRIDFORMAT_BEGIN
 90
        0
 91
        1
 62
     0
 92
       -2
340
0
 93
        0
 40
1.125
309
GRIDFORMAT_END
 95
        2
302
GRIDFORMAT
  1
GRIDFORMAT_BEGIN
 90
        0
 91
        1
 62
     0
 92
       -2
340
0
 93
        0
 40
1.125
309
GRIDFORMAT_END
 95
        4
302
GRIDFORMAT
  1
GRIDFORMAT_BEGIN
 90
        0
 91
        1
 62
     0
 92
       -2
340
0
 93
        0
 40
1.125
309
GRIDFORMAT_END
 95
        8
302
GRIDFORMAT
  1
GRIDFORMAT_BEGIN
 90
        0
 91
        1
 62
     0
 92
       -2
340
0
 93
        0
 40
1.125
309
GRIDFORMAT_END
 95
       16
302
GRIDFORMAT
  1
GRIDFORMAT_BEGIN
 90
        0
 91
        1
 62
     0
 92
       -2
340
0
 93
        0
 40
1.125
309
GRIDFORMAT_END
 95
       32
302
GRIDFORMAT
  1
GRIDFORMAT_BEGIN
 90
        0
 91
        1
 62
     0
 92
       -2
340
0
 93
        0
 40
1.125
309
GRIDFORMAT_END
309
TABLEFORMAT_END
  1
CELLSTYLE_BEGIN
 90
        1
 91
        1
300
_TITLE
309
CELLSTYLE_END
300
CELLSTYLE
  1
TABLEFORMAT_BEGIN
 90
        5
170
     1
 91
        0
 92
        0
 62
   257
 93
        1
300
CONTENTFORMAT
  1
CONTENTFORMAT_BEGIN
 90
        0
 91
        0
 92
      512
 93
        0
300

 40
0.0
140
1.0
 94
        5
 62
     0
340
11
144
4.5
309
CONTENTFORMAT_END
171
     1
301
MARGIN
  1
CELLMARGIN_BEGIN
 40
1.5
 40
1.5
 40
1.5
 40
1.5
 40
0.18
 40
0.18
309
CELLMARGIN_END
 94
        6
 95
        1
302
GRIDFORMAT
  1
GRIDFORMAT_BEGIN
 90
        0
 91
        1
 62
     0
 92
       -2
340
0
 93
        0
 40
1.125
309
GRIDFORMAT_END
 95
        2
302
GRIDFORMAT
  1
GRIDFORMAT_BEGIN
 90
        0
 91
        1
 62
     0
 92
       -2
340
0
 93
        0
 40
1.125
309
GRIDFORMAT_END
 95
        4
302
GRIDFORMAT
  1
GRIDFORMAT_BEGIN
 90
        0
 91
        1
 62
     0
 92
       -2
340
0
 93
        0
 40
1.125
309
GRIDFORMAT_END
 95
        8
302
GRIDFORMAT
  1
GRIDFORMAT_BEGIN
 90
        0
 91
        1
 62
     0
 92
       -2
340
0
 93
        0
 40
1.125
309
GRIDFORMAT_END
 95
       16
302
GRIDFORMAT
  1
GRIDFORMAT_BEGIN
 90
        0
 91
        1
 62
     0
 92
       -2
340
0
 93
        0
 40
1.125
309
GRIDFORMAT_END
 95
       32
302
GRIDFORMAT
  1
GRIDFORMAT_BEGIN
 90
        0
 91
        1
 62
     0
 92
       -2
340
0
 93
        0
 40
1.125
309
GRIDFORMAT_END
309
TABLEFORMAT_END
  1
CELLSTYLE_BEGIN
 90
        2
 91
        1
300
_HEADER
309
CELLSTYLE_END
300
CELLSTYLE
  1
TABLEFORMAT_BEGIN
 90
        5
170
     1
 91
        0
 92
        0
 62
   257
 93
        1
300
CONTENTFORMAT
  1
CONTENTFORMAT_BEGIN
 90
        0
 91
        0
 92
      512
 93
        0
300

 40
0.0
140
1.0
 94
        2
 62
     0
340
11
144
4.5
309
CONTENTFORMAT_END
171
     1
301
MARGIN
  1
CELLMARGIN_BEGIN
 40
1.5
 40
1.5
 40
1.5
 40
1.5
 40
0.18
 40
0.18
309
CELLMARGIN_END
 94
        6
 95
        1
302
GRIDFORMAT
  1
GRIDFORMAT_BEGIN
 90
        0
 91
        1
 62
     0
 92
       -2
340
0
 93
        0
 40
1.125
309
GRIDFORMAT_END
 95
        2
302
GRIDFORMAT
  1
GRIDFORMAT_BEGIN
 90
        0
 91
        1
 62
     0
 92
       -2
340
0
 93
        0
 40
1.125
309
GRIDFORMAT_END
 95
        4
302
GRIDFORMAT
  1
GRIDFORMAT_BEGIN
 90
        0
 91
        1
 62
     0
 92
       -2
340
0
 93
        0
 40
1.125
309
GRIDFORMAT_END
 95
        8
302
GRIDFORMAT
  1
GRIDFORMAT_BEGIN
 90
        0
 91
        1
 62
     0
 92
       -2
340
0
 93
        0
 40
1.125
309
GRIDFORMAT_END
 95
       16
302
GRIDFORMAT
  1
GRIDFORMAT_BEGIN
 90
        0
 91
        1
 62
     0
 92
       -2
340
0
 93
        0
 40
1.125
309
GRIDFORMAT_END
 95
       32
302
GRIDFORMAT
  1
GRIDFORMAT_BEGIN
 90
        0
 91
        1
 62
     0
 92
       -2
340
0
 93
        0
 40
1.125
309
GRIDFORMAT_END
309
TABLEFORMAT_END
  1
CELLSTYLE_BEGIN
 90
        3
 91
        2
300
_DATA
309
CELLSTYLE_END
  0
XRECORD
  5
3DE1
102
{ACAD_REACTORS
330
3DE0
102
}
330
3DE0
100
AcDbXrecord
280
     1
102
RTVSPost2010Prop28
280
     1
102
RTVSPost2010PropOp28
 70
     1
102
RTVSPost2010Prop29
280
     1
102
RTVSPost2010PropOp29
 70
     1
102
RTVSPost2010Prop30
280
     0
102
RTVSPost2010PropOp30
 70
     1
102
RTVSPost2010Prop31
280
     0
102
RTVSPost2010PropOp31
 70
     1
102
RTVSPost2010Prop32
280
     0
102
RTVSPost2010PropOp32
 70
     1
102
RTVSPost2010Prop33
280
     0
102
RTVSPost2010PropOp33
 70
     1
102
RTVSPost2010Prop34
280
     0
102
RTVSPost2010PropOp34
 70
     1
102
RTVSPost2010Prop35
280
     0
102
RTVSPost2010PropOp35
 70
     1
102
RTVSPost2010Prop36
280
     0
102
RTVSPost2010PropOp36
 70
     1
102
RTVSPost2010Prop37
 90
       50
102
RTVSPost2010PropOp37
 70
     1
102
RTVSPost2010Prop38
140
0.0
102
RTVSPost2010PropOp38
 70
     1
102
RTVSPost2010Prop39
140
1.0
102
RTVSPost2010PropOp39
 70
     1
102
RTVSPost2010Prop40
 90
        0
102
RTVSPost2010PropOp40
 70
     1
102
RTVSPost2010Prop41ColorIndex
 90
       18
102
RTVSPost2010Prop41ColorRGB
 90
        0
102
RTVSPost2010PropOp41
 70
     1
102
RTVSPost2010Prop42
 90
       50
102
RTVSPost2010PropOp42
 70
     1
102
RTVSPost2010Prop43
 90
        3
102
RTVSPost2010PropOp43
 70
     1
102
RTVSPost2010Prop44ColorIndex
 90
        5
102
RTVSPost2010Prop44ColorRGB
 90
      255
102
RTVSPost2010PropOp44
 70
     1
102
RTVSPost2010Prop45
280
     0
102
RTVSPost2010PropOp45
 70
     1
102
RTVSPost2010Prop46
 90
       50
102
RTVSPost2010PropOp46
 70
     1
102
RTVSPost2010Prop47
 90
       50
102
RTVSPost2010PropOp47
 70
     1
102
RTVSPost2010Prop48
 90
       50
102
RTVSPost2010PropOp48
 70
     1
102
RTVSPost2010Prop49
280
     0
102
RTVSPost2010PropOp49
 70
     1
102
RTVSPost2010Prop50
 90
       50
102
RTVSPost2010PropOp50
 70
     1
102
RTVSPost2010Prop51ColorIndex
 90
      256
102
RTVSPost2010Prop51ColorRGB
 90
-16777216
102
RTVSPost2010PropOp51
 70
     0
102
RTVSPost2010Prop52
140
1.0
102
RTVSPost2010PropOp52
 70
     0
102
RTVSPost2010Prop53
 90
        2
102
RTVSPost2010PropOp53
 70
     1
102
RTVSPost2010Prop54
  1
strokes_ogs.tif
102
RTVSPost2010PropOp54
 70
     1
102
RTVSPost2010Prop55
280
     0
102
RTVSPost2010PropOp55
 70
     1
102
RTVSPost2010Prop56
140
1.0
102
RTVSPost2010PropOp56
 70
     1
102
RTVSPost2010Prop57
140
1.0
102
RTVSPost2010PropOp57
 70
     1
  0
XRECORD
  5
3DDF
102
{ACAD_REACTORS
330
3DDE
102
}
330
3DDE
100
AcDbXrecord
280
     1
102
RTVSPost2010Prop28
280
     0
102
RTVSPost2010PropOp28
 70
     1
102
RTVSPost2010Prop29
280
     1
102
RTVSPost2010PropOp29
 70
     1
102
RTVSPost2010Prop30
280
     1
102
RTVSPost2010PropOp30
 70
     1
102
RTVSPost2010Prop31
280
     0
102
RTVSPost2010PropOp31
 70
     1
102
RTVSPost2010Prop32
280
     0
102
RTVSPost2010PropOp32
 70
     1
102
RTVSPost2010Prop33
280
     0
102
RTVSPost2010PropOp33
 70
     1
102
RTVSPost2010Prop34
280
     0
102
RTVSPost2010PropOp34
 70
     1
102
RTVSPost2010Prop35
280
     0
102
RTVSPost2010PropOp35
 70
     1
102
RTVSPost2010Prop36
280
     0
102
RTVSPost2010PropOp36
 70
     1
102
RTVSPost2010Prop37
 90
       50
102
RTVSPost2010PropOp37
 70
     1
102
RTVSPost2010Prop38
140
0.0
102
RTVSPost2010PropOp38
 70
     1
102
RTVSPost2010Prop39
140
1.0
102
RTVSPost2010PropOp39
 70
     1
102
RTVSPost2010Prop40
 90
        0
102
RTVSPost2010PropOp40
 70
     1
102
RTVSPost2010Prop41ColorIndex
 90
       18
102
RTVSPost2010Prop41ColorRGB
 90
        0
102
RTVSPost2010PropOp41
 70
     1
102
RTVSPost2010Prop42
 90
       50
102
RTVSPost2010PropOp42
 70
     1
102
RTVSPost2010Prop43
 90
        3
102
RTVSPost2010PropOp43
 70
     1
102
RTVSPost2010Prop44ColorIndex
 90
        5
102
RTVSPost2010Prop44ColorRGB
 90
      255
102
RTVSPost2010PropOp44
 70
     1
102
RTVSPost2010Prop45
280
     0
102
RTVSPost2010PropOp45
 70
     1
102
RTVSPost2010Prop46
 90
       50
102
RTVSPost2010PropOp46
 70
     1
102
RTVSPost2010Prop47
 90
       50
102
RTVSPost2010PropOp47
 70
     1
102
RTVSPost2010Prop48
 90
       50
102
RTVSPost2010PropOp48
 70
     1
102
RTVSPost2010Prop49
280
     0
102
RTVSPost2010PropOp49
 70
     1
102
RTVSPost2010Prop50
 90
       50
102
RTVSPost2010PropOp50
 70
     1
102
RTVSPost2010Prop51ColorIndex
 90
      256
102
RTVSPost2010Prop51ColorRGB
 90
-16777216
102
RTVSPost2010PropOp51
 70
     0
102
RTVSPost2010Prop52
140
1.0
102
RTVSPost2010PropOp52
 70
     0
102
RTVSPost2010Prop53
 90
        2
102
RTVSPost2010PropOp53
 70
     1
102
RTVSPost2010Prop54
  1
strokes_ogs.tif
102
RTVSPost2010PropOp54
 70
     1
102
RTVSPost2010Prop55
280
     0
102
RTVSPost2010PropOp55
 70
     1
102
RTVSPost2010Prop56
140
1.0
102
RTVSPost2010PropOp56
 70
     1
102
RTVSPost2010Prop57
140
1.0
102
RTVSPost2010PropOp57
 70
     1
  0
XRECORD
  5
3DED
102
{ACAD_REACTORS
330
3DEC
102
}
330
3DEC
100
AcDbXrecord
280
     1
102
RTVSPost2010Prop28
280
     0
102
RTVSPost2010PropOp28
 70
     1
102
RTVSPost2010Prop29
280
     1
102
RTVSPost2010PropOp29
 70
     1
102
RTVSPost2010Prop30
280
     1
102
RTVSPost2010PropOp30
 70
     1
102
RTVSPost2010Prop31
280
     0
102
RTVSPost2010PropOp31
 70
     1
102
RTVSPost2010Prop32
280
     0
102
RTVSPost2010PropOp32
 70
     1
102
RTVSPost2010Prop33
280
     0
102
RTVSPost2010PropOp33
 70
     1
102
RTVSPost2010Prop34
280
     0
102
RTVSPost2010PropOp34
 70
     1
102
RTVSPost2010Prop35
280
     0
102
RTVSPost2010PropOp35
 70
     1
102
RTVSPost2010Prop36
280
     0
102
RTVSPost2010PropOp36
 70
     1
102
RTVSPost2010Prop37
 90
       50
102
RTVSPost2010PropOp37
 70
     1
102
RTVSPost2010Prop38
140
0.0
102
RTVSPost2010PropOp38
 70
     1
102
RTVSPost2010Prop39
140
1.0
102
RTVSPost2010PropOp39
 70
     1
102
RTVSPost2010Prop40
 90
        0
102
RTVSPost2010PropOp40
 70
     1
102
RTVSPost2010Prop41ColorIndex
 90
       18
102
RTVSPost2010Prop41ColorRGB
 90
        0
102
RTVSPost2010PropOp41
 70
     1
102
RTVSPost2010Prop42
 90
       50
102
RTVSPost2010PropOp42
 70
     1
102
RTVSPost2010Prop43
 90
        3
102
RTVSPost2010PropOp43
 70
     1
102
RTVSPost2010Prop44ColorIndex
 90
        5
102
RTVSPost2010Prop44ColorRGB
 90
      255
102
RTVSPost2010PropOp44
 70
     1
102
RTVSPost2010Prop45
280
     0
102
RTVSPost2010PropOp45
 70
     1
102
RTVSPost2010Prop46
 90
       50
102
RTVSPost2010PropOp46
 70
     1
102
RTVSPost2010Prop47
 90
       50
102
RTVSPost2010PropOp47
 70
     1
102
RTVSPost2010Prop48
 90
       50
102
RTVSPost2010PropOp48
 70
     1
102
RTVSPost2010Prop49
280
     0
102
RTVSPost2010PropOp49
 70
     1
102
RTVSPost2010Prop50
 90
       50
102
RTVSPost2010PropOp50
 70
     1
102
RTVSPost2010Prop51ColorIndex
 90
      256
102
RTVSPost2010Prop51ColorRGB
 90
-16777216
102
RTVSPost2010PropOp51
 70
     0
102
RTVSPost2010Prop52
140
1.0
102
RTVSPost2010PropOp52
 70
     0
102
RTVSPost2010Prop53
 90
        2
102
RTVSPost2010PropOp53
 70
     1
102
RTVSPost2010Prop54
  1
strokes_ogs.tif
102
RTVSPost2010PropOp54
 70
     1
102
RTVSPost2010Prop55
280
     0
102
RTVSPost2010PropOp55
 70
     1
102
RTVSPost2010Prop56
140
1.0
102
RTVSPost2010PropOp56
 70
     1
102
RTVSPost2010Prop57
140
1.0
102
RTVSPost2010PropOp57
 70
     1
  0
XRECORD
  5
3DF5
102
{ACAD_REACTORS
330
3DF4
102
}
330
3DF4
100
AcDbXrecord
280
     1
102
RTVSPost2010Prop28
280
     0
102
RTVSPost2010PropOp28
 70
     1
102
RTVSPost2010Prop29
280
     1
102
RTVSPost2010PropOp29
 70
     1
102
RTVSPost2010Prop30
280
     1
102
RTVSPost2010PropOp30
 70
     1
102
RTVSPost2010Prop31
280
     0
102
RTVSPost2010PropOp31
 70
     1
102
RTVSPost2010Prop32
280
     0
102
RTVSPost2010PropOp32
 70
     1
102
RTVSPost2010Prop33
280
     0
102
RTVSPost2010PropOp33
 70
     1
102
RTVSPost2010Prop34
280
     0
102
RTVSPost2010PropOp34
 70
     1
102
RTVSPost2010Prop35
280
     0
102
RTVSPost2010PropOp35
 70
     1
102
RTVSPost2010Prop36
280
     0
102
RTVSPost2010PropOp36
 70
     1
102
RTVSPost2010Prop37
 90
       50
102
RTVSPost2010PropOp37
 70
     1
102
RTVSPost2010Prop38
140
0.0
102
RTVSPost2010PropOp38
 70
     1
102
RTVSPost2010Prop39
140
1.0
102
RTVSPost2010PropOp39
 70
     1
102
RTVSPost2010Prop40
 90
        0
102
RTVSPost2010PropOp40
 70
     1
102
RTVSPost2010Prop41ColorIndex
 90
       18
102
RTVSPost2010Prop41ColorRGB
 90
        0
102
RTVSPost2010PropOp41
 70
     1
102
RTVSPost2010Prop42
 90
       50
102
RTVSPost2010PropOp42
 70
     1
102
RTVSPost2010Prop43
 90
        3
102
RTVSPost2010PropOp43
 70
     1
102
RTVSPost2010Prop44ColorIndex
 90
        5
102
RTVSPost2010Prop44ColorRGB
 90
      255
102
RTVSPost2010PropOp44
 70
     1
102
RTVSPost2010Prop45
280
     0
102
RTVSPost2010PropOp45
 70
     1
102
RTVSPost2010Prop46
 90
       50
102
RTVSPost2010PropOp46
 70
     1
102
RTVSPost2010Prop47
 90
       50
102
RTVSPost2010PropOp47
 70
     1
102
RTVSPost2010Prop48
 90
       50
102
RTVSPost2010PropOp48
 70
     1
102
RTVSPost2010Prop49
280
     0
102
RTVSPost2010PropOp49
 70
     1
102
RTVSPost2010Prop50
 90
       50
102
RTVSPost2010PropOp50
 70
     1
102
RTVSPost2010Prop51ColorIndex
 90
      256
102
RTVSPost2010Prop51ColorRGB
 90
-16777216
102
RTVSPost2010PropOp51
 70
     0
102
RTVSPost2010Prop52
140
1.0
102
RTVSPost2010PropOp52
 70
     0
102
RTVSPost2010Prop53
 90
        2
102
RTVSPost2010PropOp53
 70
     1
102
RTVSPost2010Prop54
  1
strokes_ogs.tif
102
RTVSPost2010PropOp54
 70
     1
102
RTVSPost2010Prop55
280
     0
102
RTVSPost2010PropOp55
 70
     1
102
RTVSPost2010Prop56
140
1.0
102
RTVSPost2010PropOp56
 70
     1
102
RTVSPost2010Prop57
140
1.0
102
RTVSPost2010PropOp57
 70
     1
  0
XRECORD
  5
3DE7
102
{ACAD_REACTORS
330
3DE6
102
}
330
3DE6
100
AcDbXrecord
280
     1
102
RTVSPost2010Prop28
280
     0
102
RTVSPost2010PropOp28
 70
     1
102
RTVSPost2010Prop29
280
     1
102
RTVSPost2010PropOp29
 70
     1
102
RTVSPost2010Prop30
280
     1
102
RTVSPost2010PropOp30
 70
     1
102
RTVSPost2010Prop31
280
     0
102
RTVSPost2010PropOp31
 70
     1
102
RTVSPost2010Prop32
280
     0
102
RTVSPost2010PropOp32
 70
     1
102
RTVSPost2010Prop33
280
     0
102
RTVSPost2010PropOp33
 70
     1
102
RTVSPost2010Prop34
280
     0
102
RTVSPost2010PropOp34
 70
     1
102
RTVSPost2010Prop35
280
     0
102
RTVSPost2010PropOp35
 70
     1
102
RTVSPost2010Prop36
280
     0
102
RTVSPost2010PropOp36
 70
     1
102
RTVSPost2010Prop37
 90
       50
102
RTVSPost2010PropOp37
 70
     1
102
RTVSPost2010Prop38
140
0.0
102
RTVSPost2010PropOp38
 70
     1
102
RTVSPost2010Prop39
140
1.0
102
RTVSPost2010PropOp39
 70
     1
102
RTVSPost2010Prop40
 90
        0
102
RTVSPost2010PropOp40
 70
     1
102
RTVSPost2010Prop41ColorIndex
 90
       18
102
RTVSPost2010Prop41ColorRGB
 90
        0
102
RTVSPost2010PropOp41
 70
     1
102
RTVSPost2010Prop42
 90
       50
102
RTVSPost2010PropOp42
 70
     1
102
RTVSPost2010Prop43
 90
        3
102
RTVSPost2010PropOp43
 70
     1
102
RTVSPost2010Prop44ColorIndex
 90
        5
102
RTVSPost2010Prop44ColorRGB
 90
      255
102
RTVSPost2010PropOp44
 70
     1
102
RTVSPost2010Prop45
280
     0
102
RTVSPost2010PropOp45
 70
     1
102
RTVSPost2010Prop46
 90
       50
102
RTVSPost2010PropOp46
 70
     1
102
RTVSPost2010Prop47
 90
       50
102
RTVSPost2010PropOp47
 70
     1
102
RTVSPost2010Prop48
 90
       50
102
RTVSPost2010PropOp48
 70
     1
102
RTVSPost2010Prop49
280
     0
102
RTVSPost2010PropOp49
 70
     1
102
RTVSPost2010Prop50
 90
       50
102
RTVSPost2010PropOp50
 70
     1
102
RTVSPost2010Prop51ColorIndex
 90
      256
102
RTVSPost2010Prop51ColorRGB
 90
-16777216
102
RTVSPost2010PropOp51
 70
     0
102
RTVSPost2010Prop52
140
1.0
102
RTVSPost2010PropOp52
 70
     0
102
RTVSPost2010Prop53
 90
        2
102
RTVSPost2010PropOp53
 70
     1
102
RTVSPost2010Prop54
  1
strokes_ogs.tif
102
RTVSPost2010PropOp54
 70
     1
102
RTVSPost2010Prop55
280
     0
102
RTVSPost2010PropOp55
 70
     1
102
RTVSPost2010Prop56
140
1.0
102
RTVSPost2010PropOp56
 70
     1
102
RTVSPost2010Prop57
140
1.0
102
RTVSPost2010PropOp57
 70
     1
  0
XRECORD
  5
3DEB
102
{ACAD_REACTORS
330
3DEA
102
}
330
3DEA
100
AcDbXrecord
280
     1
102
RTVSPost2010Prop28
280
     0
102
RTVSPost2010PropOp28
 70
     1
102
RTVSPost2010Prop29
280
     1
102
RTVSPost2010PropOp29
 70
     1
102
RTVSPost2010Prop30
280
     1
102
RTVSPost2010PropOp30
 70
     1
102
RTVSPost2010Prop31
280
     0
102
RTVSPost2010PropOp31
 70
     1
102
RTVSPost2010Prop32
280
     0
102
RTVSPost2010PropOp32
 70
     1
102
RTVSPost2010Prop33
280
     0
102
RTVSPost2010PropOp33
 70
     1
102
RTVSPost2010Prop34
280
     0
102
RTVSPost2010PropOp34
 70
     1
102
RTVSPost2010Prop35
280
     0
102
RTVSPost2010PropOp35
 70
     1
102
RTVSPost2010Prop36
280
     0
102
RTVSPost2010PropOp36
 70
     1
102
RTVSPost2010Prop37
 90
       50
102
RTVSPost2010PropOp37
 70
     1
102
RTVSPost2010Prop38
140
0.0
102
RTVSPost2010PropOp38
 70
     1
102
RTVSPost2010Prop39
140
1.0
102
RTVSPost2010PropOp39
 70
     1
102
RTVSPost2010Prop40
 90
        0
102
RTVSPost2010PropOp40
 70
     1
102
RTVSPost2010Prop41ColorIndex
 90
       18
102
RTVSPost2010Prop41ColorRGB
 90
        0
102
RTVSPost2010PropOp41
 70
     1
102
RTVSPost2010Prop42
 90
       50
102
RTVSPost2010PropOp42
 70
     1
102
RTVSPost2010Prop43
 90
        3
102
RTVSPost2010PropOp43
 70
     1
102
RTVSPost2010Prop44ColorIndex
 90
        5
102
RTVSPost2010Prop44ColorRGB
 90
      255
102
RTVSPost2010PropOp44
 70
     1
102
RTVSPost2010Prop45
280
     0
102
RTVSPost2010PropOp45
 70
     1
102
RTVSPost2010Prop46
 90
       50
102
RTVSPost2010PropOp46
 70
     1
102
RTVSPost2010Prop47
 90
       50
102
RTVSPost2010PropOp47
 70
     1
102
RTVSPost2010Prop48
 90
       50
102
RTVSPost2010PropOp48
 70
     1
102
RTVSPost2010Prop49
280
     0
102
RTVSPost2010PropOp49
 70
     1
102
RTVSPost2010Prop50
 90
       50
102
RTVSPost2010PropOp50
 70
     1
102
RTVSPost2010Prop51ColorIndex
 90
      256
102
RTVSPost2010Prop51ColorRGB
 90
-16777216
102
RTVSPost2010PropOp51
 70
     0
102
RTVSPost2010Prop52
140
1.0
102
RTVSPost2010PropOp52
 70
     0
102
RTVSPost2010Prop53
 90
        2
102
RTVSPost2010PropOp53
 70
     1
102
RTVSPost2010Prop54
  1
strokes_ogs.tif
102
RTVSPost2010PropOp54
 70
     1
102
RTVSPost2010Prop55
280
     0
102
RTVSPost2010PropOp55
 70
     1
102
RTVSPost2010Prop56
140
1.0
102
RTVSPost2010PropOp56
 70
     1
102
RTVSPost2010Prop57
140
1.0
102
RTVSPost2010PropOp57
 70
     1
  0
XRECORD
  5
3E05
102
{ACAD_REACTORS
330
3E04
102
}
330
3E04
100
AcDbXrecord
280
     1
102
RTVSPost2010Prop28
280
     0
102
RTVSPost2010PropOp28
 70
     0
102
RTVSPost2010Prop29
280
     1
102
RTVSPost2010PropOp29
 70
     0
102
RTVSPost2010Prop30
280
     1
102
RTVSPost2010PropOp30
 70
     0
102
RTVSPost2010Prop31
280
     0
102
RTVSPost2010PropOp31
 70
     0
102
RTVSPost2010Prop32
280
     0
102
RTVSPost2010PropOp32
 70
     0
102
RTVSPost2010Prop33
280
     0
102
RTVSPost2010PropOp33
 70
     0
102
RTVSPost2010Prop34
280
     0
102
RTVSPost2010PropOp34
 70
     0
102
RTVSPost2010Prop35
280
     0
102
RTVSPost2010PropOp35
 70
     0
102
RTVSPost2010Prop36
280
     0
102
RTVSPost2010PropOp36
 70
     0
102
RTVSPost2010Prop37
 90
       50
102
RTVSPost2010PropOp37
 70
     0
102
RTVSPost2010Prop38
140
0.0
102
RTVSPost2010PropOp38
 70
     0
102
RTVSPost2010Prop39
140
1.0
102
RTVSPost2010PropOp39
 70
     0
102
RTVSPost2010Prop40
 90
        0
102
RTVSPost2010PropOp40
 70
     0
102
RTVSPost2010Prop41ColorIndex
 90
       18
102
RTVSPost2010Prop41ColorRGB
 90
        0
102
RTVSPost2010PropOp41
 70
     0
102
RTVSPost2010Prop42
 90
       50
102
RTVSPost2010PropOp42
 70
     0
102
RTVSPost2010Prop43
 90
        3
102
RTVSPost2010PropOp43
 70
     0
102
RTVSPost2010Prop44ColorIndex
 90
        5
102
RTVSPost2010Prop44ColorRGB
 90
      255
102
RTVSPost2010PropOp44
 70
     0
102
RTVSPost2010Prop45
280
     0
102
RTVSPost2010PropOp45
 70
     0
102
RTVSPost2010Prop46
 90
       50
102
RTVSPost2010PropOp46
 70
     0
102
RTVSPost2010Prop47
 90
       50
102
RTVSPost2010PropOp47
 70
     0
102
RTVSPost2010Prop48
 90
       50
102
RTVSPost2010PropOp48
 70
     0
102
RTVSPost2010Prop49
280
     0
102
RTVSPost2010PropOp49
 70
     0
102
RTVSPost2010Prop50
 90
       50
102
RTVSPost2010PropOp50
 70
     0
102
RTVSPost2010Prop51ColorIndex
 90
      256
102
RTVSPost2010Prop51ColorRGB
 90
-16777216
102
RTVSPost2010PropOp51
 70
     0
102
RTVSPost2010Prop52
140
1.0
102
RTVSPost2010PropOp52
 70
     0
102
RTVSPost2010Prop53
 90
        2
102
RTVSPost2010PropOp53
 70
     0
102
RTVSPost2010Prop54
  1
strokes_ogs.tif
102
RTVSPost2010PropOp54
 70
     0
102
RTVSPost2010Prop55
280
     0
102
RTVSPost2010PropOp55
 70
     0
102
RTVSPost2010Prop56
140
1.0
102
RTVSPost2010PropOp56
 70
     0
102
RTVSPost2010Prop57
140
1.0
102
RTVSPost2010PropOp57
 70
     0
  0
XRECORD
  5
3DF3
102
{ACAD_REACTORS
330
3DF2
102
}
330
3DF2
100
AcDbXrecord
280
     1
102
RTVSPost2010Prop28
280
     0
102
RTVSPost2010PropOp28
 70
     1
102
RTVSPost2010Prop29
280
     1
102
RTVSPost2010PropOp29
 70
     1
102
RTVSPost2010Prop30
280
     1
102
RTVSPost2010PropOp30
 70
     1
102
RTVSPost2010Prop31
280
     0
102
RTVSPost2010PropOp31
 70
     1
102
RTVSPost2010Prop32
280
     0
102
RTVSPost2010PropOp32
 70
     1
102
RTVSPost2010Prop33
280
     0
102
RTVSPost2010PropOp33
 70
     1
102
RTVSPost2010Prop34
280
     0
102
RTVSPost2010PropOp34
 70
     1
102
RTVSPost2010Prop35
280
     0
102
RTVSPost2010PropOp35
 70
     1
102
RTVSPost2010Prop36
280
     0
102
RTVSPost2010PropOp36
 70
     1
102
RTVSPost2010Prop37
 90
       50
102
RTVSPost2010PropOp37
 70
     1
102
RTVSPost2010Prop38
140
0.0
102
RTVSPost2010PropOp38
 70
     1
102
RTVSPost2010Prop39
140
1.0
102
RTVSPost2010PropOp39
 70
     1
102
RTVSPost2010Prop40
 90
        0
102
RTVSPost2010PropOp40
 70
     1
102
RTVSPost2010Prop41ColorIndex
 90
       18
102
RTVSPost2010Prop41ColorRGB
 90
        0
102
RTVSPost2010PropOp41
 70
     1
102
RTVSPost2010Prop42
 90
       50
102
RTVSPost2010PropOp42
 70
     1
102
RTVSPost2010Prop43
 90
        3
102
RTVSPost2010PropOp43
 70
     1
102
RTVSPost2010Prop44ColorIndex
 90
        5
102
RTVSPost2010Prop44ColorRGB
 90
      255
102
RTVSPost2010PropOp44
 70
     1
102
RTVSPost2010Prop45
280
     0
102
RTVSPost2010PropOp45
 70
     1
102
RTVSPost2010Prop46
 90
       50
102
RTVSPost2010PropOp46
 70
     1
102
RTVSPost2010Prop47
 90
       50
102
RTVSPost2010PropOp47
 70
     1
102
RTVSPost2010Prop48
 90
       50
102
RTVSPost2010PropOp48
 70
     1
102
RTVSPost2010Prop49
280
     0
102
RTVSPost2010PropOp49
 70
     1
102
RTVSPost2010Prop50
 90
       50
102
RTVSPost2010PropOp50
 70
     1
102
RTVSPost2010Prop51ColorIndex
 90
      256
102
RTVSPost2010Prop51ColorRGB
 90
-16777216
102
RTVSPost2010PropOp51
 70
     0
102
RTVSPost2010Prop52
140
1.0
102
RTVSPost2010PropOp52
 70
     0
102
RTVSPost2010Prop53
 90
        2
102
RTVSPost2010PropOp53
 70
     1
102
RTVSPost2010Prop54
  1
strokes_ogs.tif
102
RTVSPost2010PropOp54
 70
     1
102
RTVSPost2010Prop55
280
     0
102
RTVSPost2010PropOp55
 70
     1
102
RTVSPost2010Prop56
140
1.0
102
RTVSPost2010PropOp56
 70
     1
102
RTVSPost2010Prop57
140
1.0
102
RTVSPost2010PropOp57
 70
     1
  0
XRECORD
  5
3DD7
102
{ACAD_REACTORS
330
3DD6
102
}
330
3DD6
100
AcDbXrecord
280
     1
102
RTVSPost2010Prop28
280
     0
102
RTVSPost2010PropOp28
 70
     1
102
RTVSPost2010Prop29
280
     1
102
RTVSPost2010PropOp29
 70
     1
102
RTVSPost2010Prop30
280
     1
102
RTVSPost2010PropOp30
 70
     1
102
RTVSPost2010Prop31
280
     0
102
RTVSPost2010PropOp31
 70
     1
102
RTVSPost2010Prop32
280
     0
102
RTVSPost2010PropOp32
 70
     1
102
RTVSPost2010Prop33
280
     0
102
RTVSPost2010PropOp33
 70
     1
102
RTVSPost2010Prop34
280
     0
102
RTVSPost2010PropOp34
 70
     1
102
RTVSPost2010Prop35
280
     0
102
RTVSPost2010PropOp35
 70
     1
102
RTVSPost2010Prop36
280
     0
102
RTVSPost2010PropOp36
 70
     1
102
RTVSPost2010Prop37
 90
       50
102
RTVSPost2010PropOp37
 70
     1
102
RTVSPost2010Prop38
140
0.0
102
RTVSPost2010PropOp38
 70
     1
102
RTVSPost2010Prop39
140
1.0
102
RTVSPost2010PropOp39
 70
     1
102
RTVSPost2010Prop40
 90
        0
102
RTVSPost2010PropOp40
 70
     1
102
RTVSPost2010Prop41ColorIndex
 90
       18
102
RTVSPost2010Prop41ColorRGB
 90
        0
102
RTVSPost2010PropOp41
 70
     1
102
RTVSPost2010Prop42
 90
       50
102
RTVSPost2010PropOp42
 70
     1
102
RTVSPost2010Prop43
 90
        3
102
RTVSPost2010PropOp43
 70
     1
102
RTVSPost2010Prop44ColorIndex
 90
        5
102
RTVSPost2010Prop44ColorRGB
 90
      255
102
RTVSPost2010PropOp44
 70
     1
102
RTVSPost2010Prop45
280
     0
102
RTVSPost2010PropOp45
 70
     1
102
RTVSPost2010Prop46
 90
       50
102
RTVSPost2010PropOp46
 70
     1
102
RTVSPost2010Prop47
 90
       50
102
RTVSPost2010PropOp47
 70
     1
102
RTVSPost2010Prop48
 90
       50
102
RTVSPost2010PropOp48
 70
     1
102
RTVSPost2010Prop49
280
     0
102
RTVSPost2010PropOp49
 70
     1
102
RTVSPost2010Prop50
 90
       50
102
RTVSPost2010PropOp50
 70
     1
102
RTVSPost2010Prop51ColorIndex
 90
      256
102
RTVSPost2010Prop51ColorRGB
 90
-16777216
102
RTVSPost2010PropOp51
 70
     0
102
RTVSPost2010Prop52
140
1.0
102
RTVSPost2010PropOp52
 70
     0
102
RTVSPost2010Prop53
 90
        2
102
RTVSPost2010PropOp53
 70
     1
102
RTVSPost2010Prop54
  1
strokes_ogs.tif
102
RTVSPost2010PropOp54
 70
     1
102
RTVSPost2010Prop55
280
     0
102
RTVSPost2010PropOp55
 70
     1
102
RTVSPost2010Prop56
140
1.0
102
RTVSPost2010PropOp56
 70
     1
102
RTVSPost2010Prop57
140
1.0
102
RTVSPost2010PropOp57
 70
     1
  0
XRECORD
  5
3DD9
102
{ACAD_REACTORS
330
3DD8
102
}
330
3DD8
100
AcDbXrecord
280
     1
102
RTVSPost2010Prop28
280
     0
102
RTVSPost2010PropOp28
 70
     1
102
RTVSPost2010Prop29
280
     1
102
RTVSPost2010PropOp29
 70
     1
102
RTVSPost2010Prop30
280
     1
102
RTVSPost2010PropOp30
 70
     1
102
RTVSPost2010Prop31
280
     0
102
RTVSPost2010PropOp31
 70
     1
102
RTVSPost2010Prop32
280
     0
102
RTVSPost2010PropOp32
 70
     1
102
RTVSPost2010Prop33
280
     0
102
RTVSPost2010PropOp33
 70
     1
102
RTVSPost2010Prop34
280
     0
102
RTVSPost2010PropOp34
 70
     1
102
RTVSPost2010Prop35
280
     0
102
RTVSPost2010PropOp35
 70
     1
102
RTVSPost2010Prop36
280
     0
102
RTVSPost2010PropOp36
 70
     1
102
RTVSPost2010Prop37
 90
       50
102
RTVSPost2010PropOp37
 70
     1
102
RTVSPost2010Prop38
140
0.0
102
RTVSPost2010PropOp38
 70
     1
102
RTVSPost2010Prop39
140
1.0
102
RTVSPost2010PropOp39
 70
     1
102
RTVSPost2010Prop40
 90
        0
102
RTVSPost2010PropOp40
 70
     1
102
RTVSPost2010Prop41ColorIndex
 90
       18
102
RTVSPost2010Prop41ColorRGB
 90
        0
102
RTVSPost2010PropOp41
 70
     1
102
RTVSPost2010Prop42
 90
       50
102
RTVSPost2010PropOp42
 70
     1
102
RTVSPost2010Prop43
 90
        3
102
RTVSPost2010PropOp43
 70
     1
102
RTVSPost2010Prop44ColorIndex
 90
        5
102
RTVSPost2010Prop44ColorRGB
 90
      255
102
RTVSPost2010PropOp44
 70
     1
102
RTVSPost2010Prop45
280
     0
102
RTVSPost2010PropOp45
 70
     1
102
RTVSPost2010Prop46
 90
       50
102
RTVSPost2010PropOp46
 70
     1
102
RTVSPost2010Prop47
 90
       50
102
RTVSPost2010PropOp47
 70
     1
102
RTVSPost2010Prop48
 90
       50
102
RTVSPost2010PropOp48
 70
     1
102
RTVSPost2010Prop49
280
     0
102
RTVSPost2010PropOp49
 70
     1
102
RTVSPost2010Prop50
 90
       50
102
RTVSPost2010PropOp50
 70
     1
102
RTVSPost2010Prop51ColorIndex
 90
      256
102
RTVSPost2010Prop51ColorRGB
 90
-16777216
102
RTVSPost2010PropOp51
 70
     0
102
RTVSPost2010Prop52
140
1.0
102
RTVSPost2010PropOp52
 70
     0
102
RTVSPost2010Prop53
 90
        2
102
RTVSPost2010PropOp53
 70
     1
102
RTVSPost2010Prop54
  1
strokes_ogs.tif
102
RTVSPost2010PropOp54
 70
     1
102
RTVSPost2010Prop55
280
     0
102
RTVSPost2010PropOp55
 70
     1
102
RTVSPost2010Prop56
140
1.0
102
RTVSPost2010PropOp56
 70
     1
102
RTVSPost2010Prop57
140
1.0
102
RTVSPost2010PropOp57
 70
     1
  0
XRECORD
  5
3DDB
102
{ACAD_REACTORS
330
3DDA
102
}
330
3DDA
100
AcDbXrecord
280
     1
102
RTVSPost2010Prop28
280
     0
102
RTVSPost2010PropOp28
 70
     1
102
RTVSPost2010Prop29
280
     1
102
RTVSPost2010PropOp29
 70
     1
102
RTVSPost2010Prop30
280
     1
102
RTVSPost2010PropOp30
 70
     1
102
RTVSPost2010Prop31
280
     0
102
RTVSPost2010PropOp31
 70
     1
102
RTVSPost2010Prop32
280
     0
102
RTVSPost2010PropOp32
 70
     1
102
RTVSPost2010Prop33
280
     0
102
RTVSPost2010PropOp33
 70
     1
102
RTVSPost2010Prop34
280
     0
102
RTVSPost2010PropOp34
 70
     1
102
RTVSPost2010Prop35
280
     0
102
RTVSPost2010PropOp35
 70
     1
102
RTVSPost2010Prop36
280
     0
102
RTVSPost2010PropOp36
 70
     1
102
RTVSPost2010Prop37
 90
       50
102
RTVSPost2010PropOp37
 70
     1
102
RTVSPost2010Prop38
140
0.0
102
RTVSPost2010PropOp38
 70
     1
102
RTVSPost2010Prop39
140
1.0
102
RTVSPost2010PropOp39
 70
     1
102
RTVSPost2010Prop40
 90
        0
102
RTVSPost2010PropOp40
 70
     1
102
RTVSPost2010Prop41ColorIndex
 90
       18
102
RTVSPost2010Prop41ColorRGB
 90
        0
102
RTVSPost2010PropOp41
 70
     1
102
RTVSPost2010Prop42
 90
       50
102
RTVSPost2010PropOp42
 70
     1
102
RTVSPost2010Prop43
 90
        3
102
RTVSPost2010PropOp43
 70
     1
102
RTVSPost2010Prop44ColorIndex
 90
        5
102
RTVSPost2010Prop44ColorRGB
 90
      255
102
RTVSPost2010PropOp44
 70
     1
102
RTVSPost2010Prop45
280
     0
102
RTVSPost2010PropOp45
 70
     1
102
RTVSPost2010Prop46
 90
       50
102
RTVSPost2010PropOp46
 70
     1
102
RTVSPost2010Prop47
 90
       50
102
RTVSPost2010PropOp47
 70
     1
102
RTVSPost2010Prop48
 90
       50
102
RTVSPost2010PropOp48
 70
     1
102
RTVSPost2010Prop49
280
     0
102
RTVSPost2010PropOp49
 70
     1
102
RTVSPost2010Prop50
 90
       50
102
RTVSPost2010PropOp50
 70
     1
102
RTVSPost2010Prop51ColorIndex
 90
      256
102
RTVSPost2010Prop51ColorRGB
 90
-16777216
102
RTVSPost2010PropOp51
 70
     0
102
RTVSPost2010Prop52
140
1.0
102
RTVSPost2010PropOp52
 70
     0
102
RTVSPost2010Prop53
 90
        2
102
RTVSPost2010PropOp53
 70
     1
102
RTVSPost2010Prop54
  1
strokes_ogs.tif
102
RTVSPost2010PropOp54
 70
     1
102
RTVSPost2010Prop55
280
     0
102
RTVSPost2010PropOp55
 70
     1
102
RTVSPost2010Prop56
140
1.0
102
RTVSPost2010PropOp56
 70
     1
102
RTVSPost2010Prop57
140
1.0
102
RTVSPost2010PropOp57
 70
     1
  0
XRECORD
  5
3DDD
102
{ACAD_REACTORS
330
3DDC
102
}
330
3DDC
100
AcDbXrecord
280
     1
102
RTVSPost2010Prop28
280
     0
102
RTVSPost2010PropOp28
 70
     1
102
RTVSPost2010Prop29
280
     1
102
RTVSPost2010PropOp29
 70
     1
102
RTVSPost2010Prop30
280
     1
102
RTVSPost2010PropOp30
 70
     1
102
RTVSPost2010Prop31
280
     0
102
RTVSPost2010PropOp31
 70
     1
102
RTVSPost2010Prop32
280
     0
102
RTVSPost2010PropOp32
 70
     1
102
RTVSPost2010Prop33
280
     0
102
RTVSPost2010PropOp33
 70
     1
102
RTVSPost2010Prop34
280
     0
102
RTVSPost2010PropOp34
 70
     1
102
RTVSPost2010Prop35
280
     0
102
RTVSPost2010PropOp35
 70
     1
102
RTVSPost2010Prop36
280
     0
102
RTVSPost2010PropOp36
 70
     1
102
RTVSPost2010Prop37
 90
       50
102
RTVSPost2010PropOp37
 70
     1
102
RTVSPost2010Prop38
140
0.0
102
RTVSPost2010PropOp38
 70
     1
102
RTVSPost2010Prop39
140
1.0
102
RTVSPost2010PropOp39
 70
     1
102
RTVSPost2010Prop40
 90
        0
102
RTVSPost2010PropOp40
 70
     1
102
RTVSPost2010Prop41ColorIndex
 90
       18
102
RTVSPost2010Prop41ColorRGB
 90
        0
102
RTVSPost2010PropOp41
 70
     1
102
RTVSPost2010Prop42
 90
       50
102
RTVSPost2010PropOp42
 70
     1
102
RTVSPost2010Prop43
 90
        3
102
RTVSPost2010PropOp43
 70
     1
102
RTVSPost2010Prop44ColorIndex
 90
        5
102
RTVSPost2010Prop44ColorRGB
 90
      255
102
RTVSPost2010PropOp44
 70
     1
102
RTVSPost2010Prop45
280
     0
102
RTVSPost2010PropOp45
 70
     1
102
RTVSPost2010Prop46
 90
       50
102
RTVSPost2010PropOp46
 70
     1
102
RTVSPost2010Prop47
 90
       50
102
RTVSPost2010PropOp47
 70
     1
102
RTVSPost2010Prop48
 90
       50
102
RTVSPost2010PropOp48
 70
     1
102
RTVSPost2010Prop49
280
     0
102
RTVSPost2010PropOp49
 70
     1
102
RTVSPost2010Prop50
 90
       50
102
RTVSPost2010PropOp50
 70
     1
102
RTVSPost2010Prop51ColorIndex
 90
      256
102
RTVSPost2010Prop51ColorRGB
 90
-16777216
102
RTVSPost2010PropOp51
 70
     0
102
RTVSPost2010Prop52
140
1.0
102
RTVSPost2010PropOp52
 70
     0
102
RTVSPost2010Prop53
 90
        2
102
RTVSPost2010PropOp53
 70
     1
102
RTVSPost2010Prop54
  1
strokes_ogs.tif
102
RTVSPost2010PropOp54
 70
     1
102
RTVSPost2010Prop55
280
     0
102
RTVSPost2010PropOp55
 70
     1
102
RTVSPost2010Prop56
140
1.0
102
RTVSPost2010PropOp56
 70
     1
102
RTVSPost2010Prop57
140
1.0
102
RTVSPost2010PropOp57
 70
     1
  0
XRECORD
  5
3DE5
102
{ACAD_REACTORS
330
3DE4
102
}
330
3DE4
100
AcDbXrecord
280
     1
102
RTVSPost2010Prop28
280
     0
102
RTVSPost2010PropOp28
 70
     1
102
RTVSPost2010Prop29
280
     1
102
RTVSPost2010PropOp29
 70
     1
102
RTVSPost2010Prop30
280
     1
102
RTVSPost2010PropOp30
 70
     1
102
RTVSPost2010Prop31
280
     0
102
RTVSPost2010PropOp31
 70
     1
102
RTVSPost2010Prop32
280
     0
102
RTVSPost2010PropOp32
 70
     1
102
RTVSPost2010Prop33
280
     0
102
RTVSPost2010PropOp33
 70
     1
102
RTVSPost2010Prop34
280
     0
102
RTVSPost2010PropOp34
 70
     1
102
RTVSPost2010Prop35
280
     0
102
RTVSPost2010PropOp35
 70
     1
102
RTVSPost2010Prop36
280
     0
102
RTVSPost2010PropOp36
 70
     1
102
RTVSPost2010Prop37
 90
       50
102
RTVSPost2010PropOp37
 70
     1
102
RTVSPost2010Prop38
140
0.0
102
RTVSPost2010PropOp38
 70
     1
102
RTVSPost2010Prop39
140
1.0
102
RTVSPost2010PropOp39
 70
     1
102
RTVSPost2010Prop40
 90
        0
102
RTVSPost2010PropOp40
 70
     1
102
RTVSPost2010Prop41ColorIndex
 90
       18
102
RTVSPost2010Prop41ColorRGB
 90
        0
102
RTVSPost2010PropOp41
 70
     1
102
RTVSPost2010Prop42
 90
       50
102
RTVSPost2010PropOp42
 70
     1
102
RTVSPost2010Prop43
 90
        3
102
RTVSPost2010PropOp43
 70
     1
102
RTVSPost2010Prop44ColorIndex
 90
        5
102
RTVSPost2010Prop44ColorRGB
 90
      255
102
RTVSPost2010PropOp44
 70
     1
102
RTVSPost2010Prop45
280
     0
102
RTVSPost2010PropOp45
 70
     1
102
RTVSPost2010Prop46
 90
       50
102
RTVSPost2010PropOp46
 70
     1
102
RTVSPost2010Prop47
 90
       50
102
RTVSPost2010PropOp47
 70
     1
102
RTVSPost2010Prop48
 90
       50
102
RTVSPost2010PropOp48
 70
     1
102
RTVSPost2010Prop49
280
     0
102
RTVSPost2010PropOp49
 70
     1
102
RTVSPost2010Prop50
 90
       50
102
RTVSPost2010PropOp50
 70
     1
102
RTVSPost2010Prop51ColorIndex
 90
      256
102
RTVSPost2010Prop51ColorRGB
 90
-16777216
102
RTVSPost2010PropOp51
 70
     0
102
RTVSPost2010Prop52
140
1.0
102
RTVSPost2010PropOp52
 70
     0
102
RTVSPost2010Prop53
 90
        2
102
RTVSPost2010PropOp53
 70
     1
102
RTVSPost2010Prop54
  1
strokes_ogs.tif
102
RTVSPost2010PropOp54
 70
     1
102
RTVSPost2010Prop55
280
     0
102
RTVSPost2010PropOp55
 70
     1
102
RTVSPost2010Prop56
140
1.0
102
RTVSPost2010PropOp56
 70
     1
102
RTVSPost2010Prop57
140
1.0
102
RTVSPost2010PropOp57
 70
     1
  0
XRECORD
  5
3E01
102
{ACAD_REACTORS
330
3E00
102
}
330
3E00
100
AcDbXrecord
280
     1
102
RTVSPost2010Prop28
280
     0
102
RTVSPost2010PropOp28
 70
     0
102
RTVSPost2010Prop29
280
     1
102
RTVSPost2010PropOp29
 70
     0
102
RTVSPost2010Prop30
280
     1
102
RTVSPost2010PropOp30
 70
     0
102
RTVSPost2010Prop31
280
     0
102
RTVSPost2010PropOp31
 70
     0
102
RTVSPost2010Prop32
280
     0
102
RTVSPost2010PropOp32
 70
     0
102
RTVSPost2010Prop33
280
     0
102
RTVSPost2010PropOp33
 70
     0
102
RTVSPost2010Prop34
280
     0
102
RTVSPost2010PropOp34
 70
     0
102
RTVSPost2010Prop35
280
     0
102
RTVSPost2010PropOp35
 70
     0
102
RTVSPost2010Prop36
280
     0
102
RTVSPost2010PropOp36
 70
     0
102
RTVSPost2010Prop37
 90
       50
102
RTVSPost2010PropOp37
 70
     0
102
RTVSPost2010Prop38
140
0.0
102
RTVSPost2010PropOp38
 70
     0
102
RTVSPost2010Prop39
140
1.0
102
RTVSPost2010PropOp39
 70
     0
102
RTVSPost2010Prop40
 90
        0
102
RTVSPost2010PropOp40
 70
     0
102
RTVSPost2010Prop41ColorIndex
 90
       18
102
RTVSPost2010Prop41ColorRGB
 90
        0
102
RTVSPost2010PropOp41
 70
     0
102
RTVSPost2010Prop42
 90
       50
102
RTVSPost2010PropOp42
 70
     0
102
RTVSPost2010Prop43
 90
        3
102
RTVSPost2010PropOp43
 70
     0
102
RTVSPost2010Prop44ColorIndex
 90
        5
102
RTVSPost2010Prop44ColorRGB
 90
      255
102
RTVSPost2010PropOp44
 70
     0
102
RTVSPost2010Prop45
280
     0
102
RTVSPost2010PropOp45
 70
     0
102
RTVSPost2010Prop46
 90
       50
102
RTVSPost2010PropOp46
 70
     0
102
RTVSPost2010Prop47
 90
       50
102
RTVSPost2010PropOp47
 70
     0
102
RTVSPost2010Prop48
 90
       50
102
RTVSPost2010PropOp48
 70
     0
102
RTVSPost2010Prop49
280
     0
102
RTVSPost2010PropOp49
 70
     0
102
RTVSPost2010Prop50
 90
       50
102
RTVSPost2010PropOp50
 70
     0
102
RTVSPost2010Prop51ColorIndex
 90
      256
102
RTVSPost2010Prop51ColorRGB
 90
-16777216
102
RTVSPost2010PropOp51
 70
     0
102
RTVSPost2010Prop52
140
1.0
102
RTVSPost2010PropOp52
 70
     0
102
RTVSPost2010Prop53
 90
        2
102
RTVSPost2010PropOp53
 70
     0
102
RTVSPost2010Prop54
  1
strokes_ogs.tif
102
RTVSPost2010PropOp54
 70
     0
102
RTVSPost2010Prop55
280
     0
102
RTVSPost2010PropOp55
 70
     0
102
RTVSPost2010Prop56
140
1.0
102
RTVSPost2010PropOp56
 70
     0
102
RTVSPost2010Prop57
140
1.0
102
RTVSPost2010PropOp57
 70
     0
  0
XRECORD
  5
3DF1
102
{ACAD_REACTORS
330
3DF0
102
}
330
3DF0
100
AcDbXrecord
280
     1
102
RTVSPost2010Prop28
280
     0
102
RTVSPost2010PropOp28
 70
     1
102
RTVSPost2010Prop29
280
     1
102
RTVSPost2010PropOp29
 70
     1
102
RTVSPost2010Prop30
280
     1
102
RTVSPost2010PropOp30
 70
     1
102
RTVSPost2010Prop31
280
     0
102
RTVSPost2010PropOp31
 70
     1
102
RTVSPost2010Prop32
280
     0
102
RTVSPost2010PropOp32
 70
     1
102
RTVSPost2010Prop33
280
     0
102
RTVSPost2010PropOp33
 70
     1
102
RTVSPost2010Prop34
280
     0
102
RTVSPost2010PropOp34
 70
     1
102
RTVSPost2010Prop35
280
     0
102
RTVSPost2010PropOp35
 70
     1
102
RTVSPost2010Prop36
280
     0
102
RTVSPost2010PropOp36
 70
     1
102
RTVSPost2010Prop37
 90
       50
102
RTVSPost2010PropOp37
 70
     1
102
RTVSPost2010Prop38
140
0.0
102
RTVSPost2010PropOp38
 70
     1
102
RTVSPost2010Prop39
140
1.0
102
RTVSPost2010PropOp39
 70
     1
102
RTVSPost2010Prop40
 90
        0
102
RTVSPost2010PropOp40
 70
     1
102
RTVSPost2010Prop41ColorIndex
 90
       18
102
RTVSPost2010Prop41ColorRGB
 90
        0
102
RTVSPost2010PropOp41
 70
     1
102
RTVSPost2010Prop42
 90
       50
102
RTVSPost2010PropOp42
 70
     1
102
RTVSPost2010Prop43
 90
        3
102
RTVSPost2010PropOp43
 70
     1
102
RTVSPost2010Prop44ColorIndex
 90
        5
102
RTVSPost2010Prop44ColorRGB
 90
      255
102
RTVSPost2010PropOp44
 70
     1
102
RTVSPost2010Prop45
280
     0
102
RTVSPost2010PropOp45
 70
     1
102
RTVSPost2010Prop46
 90
       50
102
RTVSPost2010PropOp46
 70
     1
102
RTVSPost2010Prop47
 90
       50
102
RTVSPost2010PropOp47
 70
     1
102
RTVSPost2010Prop48
 90
       50
102
RTVSPost2010PropOp48
 70
     1
102
RTVSPost2010Prop49
280
     0
102
RTVSPost2010PropOp49
 70
     1
102
RTVSPost2010Prop50
 90
       50
102
RTVSPost2010PropOp50
 70
     1
102
RTVSPost2010Prop51ColorIndex
 90
      256
102
RTVSPost2010Prop51ColorRGB
 90
-16777216
102
RTVSPost2010PropOp51
 70
     0
102
RTVSPost2010Prop52
140
1.0
102
RTVSPost2010PropOp52
 70
     0
102
RTVSPost2010Prop53
 90
        2
102
RTVSPost2010PropOp53
 70
     1
102
RTVSPost2010Prop54
  1
strokes_ogs.tif
102
RTVSPost2010PropOp54
 70
     1
102
RTVSPost2010Prop55
280
     0
102
RTVSPost2010PropOp55
 70
     1
102
RTVSPost2010Prop56
140
1.0
102
RTVSPost2010PropOp56
 70
     1
102
RTVSPost2010Prop57
140
1.0
102
RTVSPost2010PropOp57
 70
     1
  0
XRECORD
  5
3E03
102
{ACAD_REACTORS
330
3E02
102
}
330
3E02
100
AcDbXrecord
280
     1
102
RTVSPost2010Prop28
280
     0
102
RTVSPost2010PropOp28
 70
     0
102
RTVSPost2010Prop29
280
     1
102
RTVSPost2010PropOp29
 70
     0
102
RTVSPost2010Prop30
280
     1
102
RTVSPost2010PropOp30
 70
     0
102
RTVSPost2010Prop31
280
     0
102
RTVSPost2010PropOp31
 70
     0
102
RTVSPost2010Prop32
280
     0
102
RTVSPost2010PropOp32
 70
     0
102
RTVSPost2010Prop33
280
     0
102
RTVSPost2010PropOp33
 70
     0
102
RTVSPost2010Prop34
280
     0
102
RTVSPost2010PropOp34
 70
     0
102
RTVSPost2010Prop35
280
     0
102
RTVSPost2010PropOp35
 70
     0
102
RTVSPost2010Prop36
280
     0
102
RTVSPost2010PropOp36
 70
     0
102
RTVSPost2010Prop37
 90
       50
102
RTVSPost2010PropOp37
 70
     0
102
RTVSPost2010Prop38
140
0.0
102
RTVSPost2010PropOp38
 70
     0
102
RTVSPost2010Prop39
140
1.0
102
RTVSPost2010PropOp39
 70
     0
102
RTVSPost2010Prop40
 90
        0
102
RTVSPost2010PropOp40
 70
     0
102
RTVSPost2010Prop41ColorIndex
 90
       18
102
RTVSPost2010Prop41ColorRGB
 90
        0
102
RTVSPost2010PropOp41
 70
     0
102
RTVSPost2010Prop42
 90
       50
102
RTVSPost2010PropOp42
 70
     0
102
RTVSPost2010Prop43
 90
        3
102
RTVSPost2010PropOp43
 70
     0
102
RTVSPost2010Prop44ColorIndex
 90
        5
102
RTVSPost2010Prop44ColorRGB
 90
      255
102
RTVSPost2010PropOp44
 70
     0
102
RTVSPost2010Prop45
280
     0
102
RTVSPost2010PropOp45
 70
     0
102
RTVSPost2010Prop46
 90
       50
102
RTVSPost2010PropOp46
 70
     0
102
RTVSPost2010Prop47
 90
       50
102
RTVSPost2010PropOp47
 70
     0
102
RTVSPost2010Prop48
 90
       50
102
RTVSPost2010PropOp48
 70
     0
102
RTVSPost2010Prop49
280
     0
102
RTVSPost2010PropOp49
 70
     0
102
RTVSPost2010Prop50
 90
       50
102
RTVSPost2010PropOp50
 70
     0
102
RTVSPost2010Prop51ColorIndex
 90
      256
102
RTVSPost2010Prop51ColorRGB
 90
-16777216
102
RTVSPost2010PropOp51
 70
     0
102
RTVSPost2010Prop52
140
1.0
102
RTVSPost2010PropOp52
 70
     0
102
RTVSPost2010Prop53
 90
        2
102
RTVSPost2010PropOp53
 70
     0
102
RTVSPost2010Prop54
  1
strokes_ogs.tif
102
RTVSPost2010PropOp54
 70
     0
102
RTVSPost2010Prop55
280
     0
102
RTVSPost2010PropOp55
 70
     0
102
RTVSPost2010Prop56
140
1.0
102
RTVSPost2010PropOp56
 70
     0
102
RTVSPost2010Prop57
140
1.0
102
RTVSPost2010PropOp57
 70
     0
  0
XRECORD
  5
3DE9
102
{ACAD_REACTORS
330
3DE8
102
}
330
3DE8
100
AcDbXrecord
280
     1
102
RTVSPost2010Prop28
280
     0
102
RTVSPost2010PropOp28
 70
     1
102
RTVSPost2010Prop29
280
     1
102
RTVSPost2010PropOp29
 70
     1
102
RTVSPost2010Prop30
280
     1
102
RTVSPost2010PropOp30
 70
     1
102
RTVSPost2010Prop31
280
     0
102
RTVSPost2010PropOp31
 70
     1
102
RTVSPost2010Prop32
280
     0
102
RTVSPost2010PropOp32
 70
     1
102
RTVSPost2010Prop33
280
     0
102
RTVSPost2010PropOp33
 70
     1
102
RTVSPost2010Prop34
280
     0
102
RTVSPost2010PropOp34
 70
     1
102
RTVSPost2010Prop35
280
     0
102
RTVSPost2010PropOp35
 70
     1
102
RTVSPost2010Prop36
280
     0
102
RTVSPost2010PropOp36
 70
     1
102
RTVSPost2010Prop37
 90
       50
102
RTVSPost2010PropOp37
 70
     1
102
RTVSPost2010Prop38
140
0.0
102
RTVSPost2010PropOp38
 70
     1
102
RTVSPost2010Prop39
140
1.0
102
RTVSPost2010PropOp39
 70
     1
102
RTVSPost2010Prop40
 90
        0
102
RTVSPost2010PropOp40
 70
     1
102
RTVSPost2010Prop41ColorIndex
 90
       18
102
RTVSPost2010Prop41ColorRGB
 90
        0
102
RTVSPost2010PropOp41
 70
     1
102
RTVSPost2010Prop42
 90
       50
102
RTVSPost2010PropOp42
 70
     1
102
RTVSPost2010Prop43
 90
        3
102
RTVSPost2010PropOp43
 70
     1
102
RTVSPost2010Prop44ColorIndex
 90
        5
102
RTVSPost2010Prop44ColorRGB
 90
      255
102
RTVSPost2010PropOp44
 70
     1
102
RTVSPost2010Prop45
280
     0
102
RTVSPost2010PropOp45
 70
     1
102
RTVSPost2010Prop46
 90
       50
102
RTVSPost2010PropOp46
 70
     1
102
RTVSPost2010Prop47
 90
       50
102
RTVSPost2010PropOp47
 70
     1
102
RTVSPost2010Prop48
 90
       50
102
RTVSPost2010PropOp48
 70
     1
102
RTVSPost2010Prop49
280
     0
102
RTVSPost2010PropOp49
 70
     1
102
RTVSPost2010Prop50
 90
       50
102
RTVSPost2010PropOp50
 70
     1
102
RTVSPost2010Prop51ColorIndex
 90
      256
102
RTVSPost2010Prop51ColorRGB
 90
-16777216
102
RTVSPost2010PropOp51
 70
     0
102
RTVSPost2010Prop52
140
1.0
102
RTVSPost2010PropOp52
 70
     0
102
RTVSPost2010Prop53
 90
        2
102
RTVSPost2010PropOp53
 70
     1
102
RTVSPost2010Prop54
  1
strokes_ogs.tif
102
RTVSPost2010PropOp54
 70
     1
102
RTVSPost2010Prop55
280
     0
102
RTVSPost2010PropOp55
 70
     1
102
RTVSPost2010Prop56
140
1.0
102
RTVSPost2010PropOp56
 70
     1
102
RTVSPost2010Prop57
140
1.0
102
RTVSPost2010PropOp57
 70
     1
  0
XRECORD
  5
3DFF
102
{ACAD_REACTORS
330
3DFE
102
}
330
3DFE
100
AcDbXrecord
280
     1
102
RTVSPost2010Prop28
280
     0
102
RTVSPost2010PropOp28
 70
     1
102
RTVSPost2010Prop29
280
     1
102
RTVSPost2010PropOp29
 70
     1
102
RTVSPost2010Prop30
280
     1
102
RTVSPost2010PropOp30
 70
     1
102
RTVSPost2010Prop31
280
     0
102
RTVSPost2010PropOp31
 70
     1
102
RTVSPost2010Prop32
280
     0
102
RTVSPost2010PropOp32
 70
     1
102
RTVSPost2010Prop33
280
     0
102
RTVSPost2010PropOp33
 70
     1
102
RTVSPost2010Prop34
280
     0
102
RTVSPost2010PropOp34
 70
     1
102
RTVSPost2010Prop35
280
     0
102
RTVSPost2010PropOp35
 70
     1
102
RTVSPost2010Prop36
280
     0
102
RTVSPost2010PropOp36
 70
     1
102
RTVSPost2010Prop37
 90
       50
102
RTVSPost2010PropOp37
 70
     1
102
RTVSPost2010Prop38
140
0.0
102
RTVSPost2010PropOp38
 70
     1
102
RTVSPost2010Prop39
140
1.0
102
RTVSPost2010PropOp39
 70
     1
102
RTVSPost2010Prop40
 90
        0
102
RTVSPost2010PropOp40
 70
     1
102
RTVSPost2010Prop41ColorIndex
 90
       18
102
RTVSPost2010Prop41ColorRGB
 90
        0
102
RTVSPost2010PropOp41
 70
     1
102
RTVSPost2010Prop42
 90
       50
102
RTVSPost2010PropOp42
 70
     1
102
RTVSPost2010Prop43
 90
        3
102
RTVSPost2010PropOp43
 70
     1
102
RTVSPost2010Prop44ColorIndex
 90
        5
102
RTVSPost2010Prop44ColorRGB
 90
      255
102
RTVSPost2010PropOp44
 70
     1
102
RTVSPost2010Prop45
280
     0
102
RTVSPost2010PropOp45
 70
     1
102
RTVSPost2010Prop46
 90
       50
102
RTVSPost2010PropOp46
 70
     1
102
RTVSPost2010Prop47
 90
       50
102
RTVSPost2010PropOp47
 70
     1
102
RTVSPost2010Prop48
 90
       50
102
RTVSPost2010PropOp48
 70
     1
102
RTVSPost2010Prop49
280
     0
102
RTVSPost2010PropOp49
 70
     1
102
RTVSPost2010Prop50
 90
       50
102
RTVSPost2010PropOp50
 70
     1
102
RTVSPost2010Prop51ColorIndex
 90
      256
102
RTVSPost2010Prop51ColorRGB
 90
-16777216
102
RTVSPost2010PropOp51
 70
     0
102
RTVSPost2010Prop52
140
1.0
102
RTVSPost2010PropOp52
 70
     0
102
RTVSPost2010Prop53
 90
        2
102
RTVSPost2010PropOp53
 70
     1
102
RTVSPost2010Prop54
  1
strokes_ogs.tif
102
RTVSPost2010PropOp54
 70
     1
102
RTVSPost2010Prop55
280
     0
102
RTVSPost2010PropOp55
 70
     1
102
RTVSPost2010Prop56
140
1.0
102
RTVSPost2010PropOp56
 70
     1
102
RTVSPost2010Prop57
140
1.0
102
RTVSPost2010PropOp57
 70
     1
  0
XRECORD
  5
3DFD
102
{ACAD_REACTORS
330
3DFC
102
}
330
3DFC
100
AcDbXrecord
280
     1
102
RTVSPost2010Prop28
280
     0
102
RTVSPost2010PropOp28
 70
     1
102
RTVSPost2010Prop29
280
     1
102
RTVSPost2010PropOp29
 70
     1
102
RTVSPost2010Prop30
280
     1
102
RTVSPost2010PropOp30
 70
     1
102
RTVSPost2010Prop31
280
     0
102
RTVSPost2010PropOp31
 70
     1
102
RTVSPost2010Prop32
280
     0
102
RTVSPost2010PropOp32
 70
     1
102
RTVSPost2010Prop33
280
     0
102
RTVSPost2010PropOp33
 70
     1
102
RTVSPost2010Prop34
280
     0
102
RTVSPost2010PropOp34
 70
     1
102
RTVSPost2010Prop35
280
     0
102
RTVSPost2010PropOp35
 70
     1
102
RTVSPost2010Prop36
280
     0
102
RTVSPost2010PropOp36
 70
     1
102
RTVSPost2010Prop37
 90
       50
102
RTVSPost2010PropOp37
 70
     1
102
RTVSPost2010Prop38
140
0.0
102
RTVSPost2010PropOp38
 70
     1
102
RTVSPost2010Prop39
140
1.0
102
RTVSPost2010PropOp39
 70
     1
102
RTVSPost2010Prop40
 90
        0
102
RTVSPost2010PropOp40
 70
     1
102
RTVSPost2010Prop41ColorIndex
 90
       18
102
RTVSPost2010Prop41ColorRGB
 90
        0
102
RTVSPost2010PropOp41
 70
     1
102
RTVSPost2010Prop42
 90
       50
102
RTVSPost2010PropOp42
 70
     1
102
RTVSPost2010Prop43
 90
        3
102
RTVSPost2010PropOp43
 70
     1
102
RTVSPost2010Prop44ColorIndex
 90
        5
102
RTVSPost2010Prop44ColorRGB
 90
      255
102
RTVSPost2010PropOp44
 70
     1
102
RTVSPost2010Prop45
280
     0
102
RTVSPost2010PropOp45
 70
     1
102
RTVSPost2010Prop46
 90
       50
102
RTVSPost2010PropOp46
 70
     1
102
RTVSPost2010Prop47
 90
       50
102
RTVSPost2010PropOp47
 70
     1
102
RTVSPost2010Prop48
 90
       50
102
RTVSPost2010PropOp48
 70
     1
102
RTVSPost2010Prop49
280
     0
102
RTVSPost2010PropOp49
 70
     1
102
RTVSPost2010Prop50
 90
       50
102
RTVSPost2010PropOp50
 70
     1
102
RTVSPost2010Prop51ColorIndex
 90
      256
102
RTVSPost2010Prop51ColorRGB
 90
-16777216
102
RTVSPost2010PropOp51
 70
     0
102
RTVSPost2010Prop52
140
1.0
102
RTVSPost2010PropOp52
 70
     0
102
RTVSPost2010Prop53
 90
        2
102
RTVSPost2010PropOp53
 70
     1
102
RTVSPost2010Prop54
  1
strokes_ogs.tif
102
RTVSPost2010PropOp54
 70
     1
102
RTVSPost2010Prop55
280
     0
102
RTVSPost2010PropOp55
 70
     1
102
RTVSPost2010Prop56
140
1.0
102
RTVSPost2010PropOp56
 70
     1
102
RTVSPost2010Prop57
140
1.0
102
RTVSPost2010PropOp57
 70
     1
  0
XRECORD
  5
3DF7
102
{ACAD_REACTORS
330
3DF6
102
}
330
3DF6
100
AcDbXrecord
280
     1
102
RTVSPost2010Prop28
280
     0
102
RTVSPost2010PropOp28
 70
     1
102
RTVSPost2010Prop29
280
     1
102
RTVSPost2010PropOp29
 70
     1
102
RTVSPost2010Prop30
280
     1
102
RTVSPost2010PropOp30
 70
     1
102
RTVSPost2010Prop31
280
     0
102
RTVSPost2010PropOp31
 70
     1
102
RTVSPost2010Prop32
280
     0
102
RTVSPost2010PropOp32
 70
     1
102
RTVSPost2010Prop33
280
     0
102
RTVSPost2010PropOp33
 70
     1
102
RTVSPost2010Prop34
280
     0
102
RTVSPost2010PropOp34
 70
     1
102
RTVSPost2010Prop35
280
     0
102
RTVSPost2010PropOp35
 70
     1
102
RTVSPost2010Prop36
280
     0
102
RTVSPost2010PropOp36
 70
     1
102
RTVSPost2010Prop37
 90
       50
102
RTVSPost2010PropOp37
 70
     1
102
RTVSPost2010Prop38
140
0.0
102
RTVSPost2010PropOp38
 70
     1
102
RTVSPost2010Prop39
140
1.0
102
RTVSPost2010PropOp39
 70
     1
102
RTVSPost2010Prop40
 90
        0
102
RTVSPost2010PropOp40
 70
     1
102
RTVSPost2010Prop41ColorIndex
 90
       18
102
RTVSPost2010Prop41ColorRGB
 90
        0
102
RTVSPost2010PropOp41
 70
     1
102
RTVSPost2010Prop42
 90
       50
102
RTVSPost2010PropOp42
 70
     1
102
RTVSPost2010Prop43
 90
        3
102
RTVSPost2010PropOp43
 70
     1
102
RTVSPost2010Prop44ColorIndex
 90
        5
102
RTVSPost2010Prop44ColorRGB
 90
      255
102
RTVSPost2010PropOp44
 70
     1
102
RTVSPost2010Prop45
280
     0
102
RTVSPost2010PropOp45
 70
     1
102
RTVSPost2010Prop46
 90
       50
102
RTVSPost2010PropOp46
 70
     1
102
RTVSPost2010Prop47
 90
       50
102
RTVSPost2010PropOp47
 70
     1
102
RTVSPost2010Prop48
 90
       50
102
RTVSPost2010PropOp48
 70
     1
102
RTVSPost2010Prop49
280
     0
102
RTVSPost2010PropOp49
 70
     1
102
RTVSPost2010Prop50
 90
       50
102
RTVSPost2010PropOp50
 70
     1
102
RTVSPost2010Prop51ColorIndex
 90
      256
102
RTVSPost2010Prop51ColorRGB
 90
-16777216
102
RTVSPost2010PropOp51
 70
     0
102
RTVSPost2010Prop52
140
1.0
102
RTVSPost2010PropOp52
 70
     0
102
RTVSPost2010Prop53
 90
        2
102
RTVSPost2010PropOp53
 70
     1
102
RTVSPost2010Prop54
  1
strokes_ogs.tif
102
RTVSPost2010PropOp54
 70
     1
102
RTVSPost2010Prop55
280
     0
102
RTVSPost2010PropOp55
 70
     1
102
RTVSPost2010Prop56
140
1.0
102
RTVSPost2010PropOp56
 70
     1
102
RTVSPost2010Prop57
140
1.0
102
RTVSPost2010PropOp57
 70
     1
  0
XRECORD
  5
3DF9
102
{ACAD_REACTORS
330
3DF8
102
}
330
3DF8
100
AcDbXrecord
280
     1
102
RTVSPost2010Prop28
280
     0
102
RTVSPost2010PropOp28
 70
     1
102
RTVSPost2010Prop29
280
     1
102
RTVSPost2010PropOp29
 70
     1
102
RTVSPost2010Prop30
280
     1
102
RTVSPost2010PropOp30
 70
     1
102
RTVSPost2010Prop31
280
     0
102
RTVSPost2010PropOp31
 70
     1
102
RTVSPost2010Prop32
280
     0
102
RTVSPost2010PropOp32
 70
     1
102
RTVSPost2010Prop33
280
     0
102
RTVSPost2010PropOp33
 70
     1
102
RTVSPost2010Prop34
280
     0
102
RTVSPost2010PropOp34
 70
     1
102
RTVSPost2010Prop35
280
     0
102
RTVSPost2010PropOp35
 70
     1
102
RTVSPost2010Prop36
280
     0
102
RTVSPost2010PropOp36
 70
     1
102
RTVSPost2010Prop37
 90
       50
102
RTVSPost2010PropOp37
 70
     1
102
RTVSPost2010Prop38
140
0.0
102
RTVSPost2010PropOp38
 70
     1
102
RTVSPost2010Prop39
140
1.0
102
RTVSPost2010PropOp39
 70
     1
102
RTVSPost2010Prop40
 90
        0
102
RTVSPost2010PropOp40
 70
     1
102
RTVSPost2010Prop41ColorIndex
 90
       18
102
RTVSPost2010Prop41ColorRGB
 90
        0
102
RTVSPost2010PropOp41
 70
     1
102
RTVSPost2010Prop42
 90
       50
102
RTVSPost2010PropOp42
 70
     1
102
RTVSPost2010Prop43
 90
        3
102
RTVSPost2010PropOp43
 70
     1
102
RTVSPost2010Prop44ColorIndex
 90
        5
102
RTVSPost2010Prop44ColorRGB
 90
      255
102
RTVSPost2010PropOp44
 70
     1
102
RTVSPost2010Prop45
280
     0
102
RTVSPost2010PropOp45
 70
     1
102
RTVSPost2010Prop46
 90
       50
102
RTVSPost2010PropOp46
 70
     1
102
RTVSPost2010Prop47
 90
       50
102
RTVSPost2010PropOp47
 70
     1
102
RTVSPost2010Prop48
 90
       50
102
RTVSPost2010PropOp48
 70
     1
102
RTVSPost2010Prop49
280
     0
102
RTVSPost2010PropOp49
 70
     1
102
RTVSPost2010Prop50
 90
       50
102
RTVSPost2010PropOp50
 70
     1
102
RTVSPost2010Prop51ColorIndex
 90
      256
102
RTVSPost2010Prop51ColorRGB
 90
-16777216
102
RTVSPost2010PropOp51
 70
     0
102
RTVSPost2010Prop52
140
1.0
102
RTVSPost2010PropOp52
 70
     0
102
RTVSPost2010Prop53
 90
        2
102
RTVSPost2010PropOp53
 70
     1
102
RTVSPost2010Prop54
  1
strokes_ogs.tif
102
RTVSPost2010PropOp54
 70
     1
102
RTVSPost2010Prop55
280
     0
102
RTVSPost2010PropOp55
 70
     1
102
RTVSPost2010Prop56
140
1.0
102
RTVSPost2010PropOp56
 70
     1
102
RTVSPost2010Prop57
140
1.0
102
RTVSPost2010PropOp57
 70
     1
  0
XRECORD
  5
3DEF
102
{ACAD_REACTORS
330
3DEE
102
}
330
3DEE
100
AcDbXrecord
280
     1
102
RTVSPost2010Prop28
280
     0
102
RTVSPost2010PropOp28
 70
     1
102
RTVSPost2010Prop29
280
     1
102
RTVSPost2010PropOp29
 70
     1
102
RTVSPost2010Prop30
280
     1
102
RTVSPost2010PropOp30
 70
     1
102
RTVSPost2010Prop31
280
     0
102
RTVSPost2010PropOp31
 70
     1
102
RTVSPost2010Prop32
280
     0
102
RTVSPost2010PropOp32
 70
     1
102
RTVSPost2010Prop33
280
     0
102
RTVSPost2010PropOp33
 70
     1
102
RTVSPost2010Prop34
280
     0
102
RTVSPost2010PropOp34
 70
     1
102
RTVSPost2010Prop35
280
     0
102
RTVSPost2010PropOp35
 70
     1
102
RTVSPost2010Prop36
280
     0
102
RTVSPost2010PropOp36
 70
     1
102
RTVSPost2010Prop37
 90
       50
102
RTVSPost2010PropOp37
 70
     1
102
RTVSPost2010Prop38
140
0.0
102
RTVSPost2010PropOp38
 70
     1
102
RTVSPost2010Prop39
140
1.0
102
RTVSPost2010PropOp39
 70
     1
102
RTVSPost2010Prop40
 90
        0
102
RTVSPost2010PropOp40
 70
     1
102
RTVSPost2010Prop41ColorIndex
 90
       18
102
RTVSPost2010Prop41ColorRGB
 90
        0
102
RTVSPost2010PropOp41
 70
     1
102
RTVSPost2010Prop42
 90
       50
102
RTVSPost2010PropOp42
 70
     1
102
RTVSPost2010Prop43
 90
        3
102
RTVSPost2010PropOp43
 70
     1
102
RTVSPost2010Prop44ColorIndex
 90
        5
102
RTVSPost2010Prop44ColorRGB
 90
      255
102
RTVSPost2010PropOp44
 70
     1
102
RTVSPost2010Prop45
280
     0
102
RTVSPost2010PropOp45
 70
     1
102
RTVSPost2010Prop46
 90
       50
102
RTVSPost2010PropOp46
 70
     1
102
RTVSPost2010Prop47
 90
       50
102
RTVSPost2010PropOp47
 70
     1
102
RTVSPost2010Prop48
 90
       50
102
RTVSPost2010PropOp48
 70
     1
102
RTVSPost2010Prop49
280
     0
102
RTVSPost2010PropOp49
 70
     1
102
RTVSPost2010Prop50
 90
       50
102
RTVSPost2010PropOp50
 70
     1
102
RTVSPost2010Prop51ColorIndex
 90
      256
102
RTVSPost2010Prop51ColorRGB
 90
-16777216
102
RTVSPost2010PropOp51
 70
     0
102
RTVSPost2010Prop52
140
1.0
102
RTVSPost2010PropOp52
 70
     0
102
RTVSPost2010Prop53
 90
        2
102
RTVSPost2010PropOp53
 70
     1
102
RTVSPost2010Prop54
  1
strokes_ogs.tif
102
RTVSPost2010PropOp54
 70
     1
102
RTVSPost2010Prop55
280
     0
102
RTVSPost2010PropOp55
 70
     1
102
RTVSPost2010Prop56
140
1.0
102
RTVSPost2010PropOp56
 70
     1
102
RTVSPost2010Prop57
140
1.0
102
RTVSPost2010PropOp57
 70
     1
  0
XRECORD
  5
3DE3
102
{ACAD_REACTORS
330
3DE2
102
}
330
3DE2
100
AcDbXrecord
280
     1
102
RTVSPost2010Prop28
280
     0
102
RTVSPost2010PropOp28
 70
     1
102
RTVSPost2010Prop29
280
     1
102
RTVSPost2010PropOp29
 70
     1
102
RTVSPost2010Prop30
280
     1
102
RTVSPost2010PropOp30
 70
     1
102
RTVSPost2010Prop31
280
     0
102
RTVSPost2010PropOp31
 70
     1
102
RTVSPost2010Prop32
280
     0
102
RTVSPost2010PropOp32
 70
     1
102
RTVSPost2010Prop33
280
     0
102
RTVSPost2010PropOp33
 70
     1
102
RTVSPost2010Prop34
280
     0
102
RTVSPost2010PropOp34
 70
     1
102
RTVSPost2010Prop35
280
     0
102
RTVSPost2010PropOp35
 70
     1
102
RTVSPost2010Prop36
280
     0
102
RTVSPost2010PropOp36
 70
     1
102
RTVSPost2010Prop37
 90
       50
102
RTVSPost2010PropOp37
 70
     1
102
RTVSPost2010Prop38
140
0.0
102
RTVSPost2010PropOp38
 70
     1
102
RTVSPost2010Prop39
140
1.0
102
RTVSPost2010PropOp39
 70
     1
102
RTVSPost2010Prop40
 90
        0
102
RTVSPost2010PropOp40
 70
     1
102
RTVSPost2010Prop41ColorIndex
 90
       18
102
RTVSPost2010Prop41ColorRGB
 90
        0
102
RTVSPost2010PropOp41
 70
     1
102
RTVSPost2010Prop42
 90
       50
102
RTVSPost2010PropOp42
 70
     1
102
RTVSPost2010Prop43
 90
        3
102
RTVSPost2010PropOp43
 70
     1
102
RTVSPost2010Prop44ColorIndex
 90
        5
102
RTVSPost2010Prop44ColorRGB
 90
      255
102
RTVSPost2010PropOp44
 70
     1
102
RTVSPost2010Prop45
280
     0
102
RTVSPost2010PropOp45
 70
     1
102
RTVSPost2010Prop46
 90
       50
102
RTVSPost2010PropOp46
 70
     1
102
RTVSPost2010Prop47
 90
       50
102
RTVSPost2010PropOp47
 70
     1
102
RTVSPost2010Prop48
 90
       50
102
RTVSPost2010PropOp48
 70
     1
102
RTVSPost2010Prop49
280
     0
102
RTVSPost2010PropOp49
 70
     1
102
RTVSPost2010Prop50
 90
       50
102
RTVSPost2010PropOp50
 70
     1
102
RTVSPost2010Prop51ColorIndex
 90
      256
102
RTVSPost2010Prop51ColorRGB
 90
-16777216
102
RTVSPost2010PropOp51
 70
     0
102
RTVSPost2010Prop52
140
1.0
102
RTVSPost2010PropOp52
 70
     0
102
RTVSPost2010Prop53
 90
        2
102
RTVSPost2010PropOp53
 70
     1
102
RTVSPost2010Prop54
  1
strokes_ogs.tif
102
RTVSPost2010PropOp54
 70
     1
102
RTVSPost2010Prop55
280
     0
102
RTVSPost2010PropOp55
 70
     1
102
RTVSPost2010Prop56
140
1.0
102
RTVSPost2010PropOp56
 70
     1
102
RTVSPost2010Prop57
140
1.0
102
RTVSPost2010PropOp57
 70
     1
  0
XRECORD
  5
3DFB
102
{ACAD_REACTORS
330
3DFA
102
}
330
3DFA
100
AcDbXrecord
280
     1
102
RTVSPost2010Prop28
280
     0
102
RTVSPost2010PropOp28
 70
     1
102
RTVSPost2010Prop29
280
     1
102
RTVSPost2010PropOp29
 70
     1
102
RTVSPost2010Prop30
280
     1
102
RTVSPost2010PropOp30
 70
     1
102
RTVSPost2010Prop31
280
     0
102
RTVSPost2010PropOp31
 70
     1
102
RTVSPost2010Prop32
280
     0
102
RTVSPost2010PropOp32
 70
     1
102
RTVSPost2010Prop33
280
     0
102
RTVSPost2010PropOp33
 70
     1
102
RTVSPost2010Prop34
280
     0
102
RTVSPost2010PropOp34
 70
     1
102
RTVSPost2010Prop35
280
     0
102
RTVSPost2010PropOp35
 70
     1
102
RTVSPost2010Prop36
280
     0
102
RTVSPost2010PropOp36
 70
     1
102
RTVSPost2010Prop37
 90
       50
102
RTVSPost2010PropOp37
 70
     1
102
RTVSPost2010Prop38
140
0.0
102
RTVSPost2010PropOp38
 70
     1
102
RTVSPost2010Prop39
140
1.0
102
RTVSPost2010PropOp39
 70
     1
102
RTVSPost2010Prop40
 90
        0
102
RTVSPost2010PropOp40
 70
     1
102
RTVSPost2010Prop41ColorIndex
 90
       18
102
RTVSPost2010Prop41ColorRGB
 90
        0
102
RTVSPost2010PropOp41
 70
     1
102
RTVSPost2010Prop42
 90
       50
102
RTVSPost2010PropOp42
 70
     1
102
RTVSPost2010Prop43
 90
        3
102
RTVSPost2010PropOp43
 70
     1
102
RTVSPost2010Prop44ColorIndex
 90
        5
102
RTVSPost2010Prop44ColorRGB
 90
      255
102
RTVSPost2010PropOp44
 70
     1
102
RTVSPost2010Prop45
280
     0
102
RTVSPost2010PropOp45
 70
     1
102
RTVSPost2010Prop46
 90
       50
102
RTVSPost2010PropOp46
 70
     1
102
RTVSPost2010Prop47
 90
       50
102
RTVSPost2010PropOp47
 70
     1
102
RTVSPost2010Prop48
 90
       50
102
RTVSPost2010PropOp48
 70
     1
102
RTVSPost2010Prop49
280
     0
102
RTVSPost2010PropOp49
 70
     1
102
RTVSPost2010Prop50
 90
       50
102
RTVSPost2010PropOp50
 70
     1
102
RTVSPost2010Prop51ColorIndex
 90
      256
102
RTVSPost2010Prop51ColorRGB
 90
-16777216
102
RTVSPost2010PropOp51
 70
     0
102
RTVSPost2010Prop52
140
1.0
102
RTVSPost2010PropOp52
 70
     0
102
RTVSPost2010Prop53
 90
        2
102
RTVSPost2010PropOp53
 70
     1
102
RTVSPost2010Prop54
  1
strokes_ogs.tif
102
RTVSPost2010PropOp54
 70
     1
102
RTVSPost2010Prop55
280
     0
102
RTVSPost2010PropOp55
 70
     1
102
RTVSPost2010Prop56
140
1.0
102
RTVSPost2010PropOp56
 70
     1
102
RTVSPost2010Prop57
140
1.0
102
RTVSPost2010PropOp57
 70
     1
  0
ENDSEC
  0
EOF
