  0
SECTION
  2
HEADER
  9
$ACADVER
  1
AC1024
  9
$ACADMAINTVER
 70
   155
  9
$DWGCODEPAGE
  3
ANSI_932
  9
$LASTSAVEDBY
  1
user
  9
$INSBASE
 10
0.0
 20
0.0
 30
0.0
  9
$EXTMIN
 10
446.0361769786953
 20
500.0391951922635
 30
0.0
  9
$EXTMAX
 10
713.373280886895
 20
882.1406667984426
 30
0.0
  9
$LIMMIN
 10
0.0
 20
0.0
  9
$LIMMAX
 10
210.0
 20
297.0
  9
$ORTHOMODE
 70
     1
  9
$REGENMODE
 70
     1
  9
$FILLMODE
 70
     1
  9
$QTEXTMODE
 70
     0
  9
$MIRRTEXT
 70
     1
  9
$LTSCALE
 40
1.0
  9
$ATTMODE
 70
     1
  9
$TEXTSIZE
 40
5.0
  9
$TRACEWID
 40
1.0
  9
$TEXTSTYLE
  7
symbols
  9
$CLAYER
  8
外形線
  9
$CELTYPE
  6
ByLayer
  9
$CECOLOR
 62
   256
  9
$CELTSCALE
 40
1.0
  9
$DISPSILH
 70
     0
  9
$DIMSCALE
 40
1.0
  9
$DIMASZ
 40
3.5
  9
$DIMEXO
 40
14.0
  9
$DIMDLI
 40
9.375
  9
$DIMRND
 40
0.0
  9
$DIMDLE
 40
0.0
  9
$DIMEXE
 40
2.5
  9
$DIMTP
 40
0.3
  9
$DIMTM
 40
0.3
  9
$DIMTXT
 40
7.0
  9
$DIMCEN
 40
7.0
  9
$DIMTSZ
 40
0.0
  9
$DIMTOL
 70
     0
  9
$DIMLIM
 70
     0
  9
$DIMTIH
 70
     0
  9
$DIMTOH
 70
     0
  9
$DIMSE1
 70
     0
  9
$DIMSE2
 70
     0
  9
$DIMTAD
 70
     1
  9
$DIMZIN
 70
     8
  9
$DIMBLK
  1

  9
$DIMASO
 70
     1
  9
$DIMSHO
 70
     1
  9
$DIMPOST
  1

  9
$DIMAPOST
  1

  9
$DIMALT
 70
     0
  9
$DIMALTD
 70
     3
  9
$DIMALTF
 40
0.03937007874016
  9
$DIMLFAC
 40
1.0
  9
$DIMTOFL
 70
     1
  9
$DIMTVP
 40
0.0
  9
$DIMTIX
 70
     0
  9
$DIMSOXD
 70
     0
  9
$DIMSAH
 70
     0
  9
$DIMBLK1
  1

  9
$DIMBLK2
  1

  9
$DIMSTYLE
  2
ISO-25
  9
$DIMCLRD
 70
   256
  9
$DIMCLRE
 70
   256
  9
$DIMCLRT
 70
   256
  9
$DIMTFAC
 40
1.0
  9
$DIMGAP
 40
1.399999999999999
  9
$DIMJUST
 70
     0
  9
$DIMSD1
 70
     0
  9
$DIMSD2
 70
     0
  9
$DIMTOLJ
 70
     0
  9
$DIMTZIN
 70
     8
  9
$DIMALTZ
 70
     0
  9
$DIMALTTZ
 70
     0
  9
$DIMUPT
 70
     0
  9
$DIMDEC
 70
     2
  9
$DIMTDEC
 70
     2
  9
$DIMALTU
 70
     2
  9
$DIMALTTD
 70
     3
  9
$DIMTXSTY
  7
Standard
  9
$DIMAUNIT
 70
     0
  9
$DIMADEC
 70
     0
  9
$DIMALTRND
 40
0.0
  9
$DIMAZIN
 70
     0
  9
$DIMDSEP
 70
    46
  9
$DIMATFIT
 70
     3
  9
$DIMFRAC
 70
     0
  9
$DIMLDRBLK
  1

  9
$DIMLUNIT
 70
     2
  9
$DIMLWD
 70
    -2
  9
$DIMLWE
 70
    -2
  9
$DIMTMOVE
 70
     0
  9
$DIMFXL
 40
1.0
  9
$DIMFXLON
 70
     0
  9
$DIMJOGANG
 40
0.7853981633974483
  9
$DIMTFILL
 70
     0
  9
$DIMTFILLCLR
 70
     0
  9
$DIMARCSYM
 70
     0
  9
$DIMLTYPE
  6

  9
$DIMLTEX1
  6

  9
$DIMLTEX2
  6

  9
$DIMTXTDIRECTION
 70
     0
  9
$LUNITS
 70
     2
  9
$LUPREC
 70
     4
  9
$SKETCHINC
 40
1.0
  9
$FILLETRAD
 40
127.388535
  9
$AUNITS
 70
     0
  9
$AUPREC
 70
     0
  9
$MENU
  1
.
  9
$ELEVATION
 40
0.0
  9
$PELEVATION
 40
0.0
  9
$THICKNESS
 40
0.0
  9
$LIMCHECK
 70
     0
  9
$CHAMFERA
 40
1.0
  9
$CHAMFERB
 40
1.0
  9
$CHAMFERC
 40
20.0
  9
$CHAMFERD
 40
0.0
  9
$SKPOLY
 70
     0
  9
$TDCREATE
 40
2454988.428164780
  9
$TDUCREATE
 40
2454988.053164780
  9
$TDUPDATE
 40
2456990.518690336
  9
$TDUUPDATE
 40
2456990.143690336
  9
$TDINDWG
 40
1.1005030093
  9
$TDUSRTIMER
 40
1.1005030093
  9
$USRTIMER
 70
     1
  9
$ANGBASE
 50
0.0
  9
$ANGDIR
 70
     0
  9
$PDMODE
 70
     0
  9
$PDSIZE
 40
0.0
  9
$PLINEWID
 40
0.0
  9
$SPLFRAME
 70
     0
  9
$SPLINETYPE
 70
     6
  9
$SPLINESEGS
 70
     8
  9
$HANDSEED
  5
A363
  9
$SURFTAB1
 70
     6
  9
$SURFTAB2
 70
     6
  9
$SURFTYPE
 70
     6
  9
$SURFU
 70
     6
  9
$SURFV
 70
     6
  9
$UCSBASE
  2

  9
$UCSNAME
  2

  9
$UCSORG
 10
446.2821888226134
 20
311.2391951941589
 30
0.0
  9
$UCSXDIR
 10
1.0
 20
0.0
 30
0.0
  9
$UCSYDIR
 10
0.0
 20
1.0
 30
0.0
  9
$UCSORTHOREF
  2

  9
$UCSORTHOVIEW
 70
     0
  9
$UCSORGTOP
 10
0.0
 20
0.0
 30
0.0
  9
$UCSORGBOTTOM
 10
0.0
 20
0.0
 30
0.0
  9
$UCSORGLEFT
 10
0.0
 20
0.0
 30
0.0
  9
$UCSORGRIGHT
 10
0.0
 20
0.0
 30
0.0
  9
$UCSORGFRONT
 10
0.0
 20
0.0
 30
0.0
  9
$UCSORGBACK
 10
0.0
 20
0.0
 30
0.0
  9
$PUCSBASE
  2

  9
$PUCSNAME
  2

  9
$PUCSORG
 10
0.0
 20
0.0
 30
0.0
  9
$PUCSXDIR
 10
1.0
 20
0.0
 30
0.0
  9
$PUCSYDIR
 10
0.0
 20
1.0
 30
0.0
  9
$PUCSORTHOREF
  2

  9
$PUCSORTHOVIEW
 70
     0
  9
$PUCSORGTOP
 10
0.0
 20
0.0
 30
0.0
  9
$PUCSORGBOTTOM
 10
0.0
 20
0.0
 30
0.0
  9
$PUCSORGLEFT
 10
0.0
 20
0.0
 30
0.0
  9
$PUCSORGRIGHT
 10
0.0
 20
0.0
 30
0.0
  9
$PUCSORGFRONT
 10
0.0
 20
0.0
 30
0.0
  9
$PUCSORGBACK
 10
0.0
 20
0.0
 30
0.0
  9
$USERI1
 70
     0
  9
$USERI2
 70
     0
  9
$USERI3
 70
     0
  9
$USERI4
 70
     0
  9
$USERI5
 70
     0
  9
$USERR1
 40
0.0
  9
$USERR2
 40
0.0
  9
$USERR3
 40
0.0
  9
$USERR4
 40
0.0
  9
$USERR5
 40
0.0
  9
$WORLDVIEW
 70
     1
  9
$SHADEDGE
 70
     3
  9
$SHADEDIF
 70
    70
  9
$TILEMODE
 70
     1
  9
$MAXACTVP
 70
    64
  9
$PINSBASE
 10
0.0
 20
0.0
 30
0.0
  9
$PLIMCHECK
 70
     0
  9
$PEXTMIN
 10
1.000000000000000E+20
 20
1.000000000000000E+20
 30
1.000000000000000E+20
  9
$PEXTMAX
 10
-1.000000000000000E+20
 20
-1.000000000000000E+20
 30
-1.000000000000000E+20
  9
$PLIMMIN
 10
0.0
 20
0.0
  9
$PLIMMAX
 10
420.0
 20
297.0
  9
$UNITMODE
 70
     0
  9
$VISRETAIN
 70
     1
  9
$PLINEGEN
 70
     0
  9
$PSLTSCALE
 70
     1
  9
$TREEDEPTH
 70
  3020
  9
$CMLSTYLE
  2
Standard
  9
$CMLJUST
 70
     0
  9
$CMLSCALE
 40
20.0
  9
$PROXYGRAPHICS
 70
     1
  9
$MEASUREMENT
 70
     1
  9
$CELWEIGHT
370
    -1
  9
$ENDCAPS
280
     0
  9
$JOINSTYLE
280
     0
  9
$LWDISPLAY
290
     0
  9
$INSUNITS
 70
     4
  9
$HYPERLINKBASE
  1

  9
$STYLESHEET
  1
fuji.stb
  9
$XEDIT
290
     1
  9
$CEPSNTYPE
380
     0
  9
$PSTYLEMODE
290
     0
  9
$FINGERPRINTGUID
  2
{E3C53965-147C-4B87-A988-E3E6194F7297}
  9
$VERSIONGUID
  2
{EC2D8CCB-C560-448C-A5F3-483EF2502F64}
  9
$EXTNAMES
290
     1
  9
$PSVPSCALE
 40
0.0
  9
$OLESTARTUP
290
     0
  9
$SORTENTS
280
   127
  9
$INDEXCTL
280
     0
  9
$HIDETEXT
280
     1
  9
$XCLIPFRAME
280
     2
  9
$HALOGAP
280
     0
  9
$OBSCOLOR
 70
   257
  9
$OBSLTYPE
280
     0
  9
$INTERSECTIONDISPLAY
280
     0
  9
$INTERSECTIONCOLOR
 70
   257
  9
$DIMASSOC
280
     2
  9
$PROJECTNAME
  1

  9
$CAMERADISPLAY
290
     0
  9
$LENSLENGTH
 40
50.0
  9
$CAMERAHEIGHT
 40
0.0
  9
$STEPSPERSEC
 40
2.0
  9
$STEPSIZE
 40
6.0
  9
$3DDWFPREC
 40
2.0
  9
$PSOLWIDTH
 40
0.25
  9
$PSOLHEIGHT
 40
4.0
  9
$LOFTANG1
 40
1.570796326794896
  9
$LOFTANG2
 40
1.570796326794896
  9
$LOFTMAG1
 40
0.0
  9
$LOFTMAG2
 40
0.0
  9
$LOFTPARAM
 70
     7
  9
$LOFTNORMALS
280
     1
  9
$LATITUDE
 40
37.795
  9
$LONGITUDE
 40
-122.394
  9
$NORTHDIRECTION
 40
0.0
  9
$TIMEZONE
 70
 -8000
  9
$LIGHTGLYPHDISPLAY
280
     1
  9
$TILEMODELIGHTSYNCH
280
     1
  9
$CMATERIAL
347
A0FA
  9
$SOLIDHIST
280
     0
  9
$SHOWHIST
280
     1
  9
$DWFFRAME
280
     2
  9
$DGNFRAME
280
     0
  9
$REALWORLDSCALE
290
     1
  9
$INTERFERECOLOR
 62
     1
  9
$INTERFEREOBJVS
345
A11C
  9
$INTERFEREVPVS
346
A119
  9
$CSHADOW
280
     0
  9
$SHADOWPLANELOCATION
 40
0.0
  0
ENDSEC
  0
SECTION
  2
CLASSES
  0
CLASS
  1
ACDBDICTIONARYWDFLT
  2
AcDbDictionaryWithDefault
  3
ObjectDBX Classes
 90
        0
 91
        1
280
     0
281
     0
  0
CLASS
  1
DICTIONARYVAR
  2
AcDbDictionaryVar
  3
ObjectDBX Classes
 90
        0
 91
       12
280
     0
281
     0
  0
CLASS
  1
DIMASSOC
  2
AcDbDimAssoc
  3
"AcDbDimAssoc|Product Desc:     AcDim ARX App For Dimension|Company:          Autodesk, Inc.|WEB Address:      www.autodesk.com"
 90
        0
 91
        0
280
     0
281
     0
  0
CLASS
  1
MATERIAL
  2
AcDbMaterial
  3
ObjectDBX Classes
 90
     1153
 91
        3
280
     0
281
     0
  0
CLASS
  1
VISUALSTYLE
  2
AcDbVisualStyle
  3
ObjectDBX Classes
 90
     4095
 91
       24
280
     0
281
     0
  0
CLASS
  1
TABLESTYLE
  2
AcDbTableStyle
  3
ObjectDBX Classes
 90
     4095
 91
        1
280
     0
281
     0
  0
CLASS
  1
SCALE
  2
AcDbScale
  3
ObjectDBX Classes
 90
     1153
 91
       17
280
     0
281
     0
  0
CLASS
  1
MLEADERSTYLE
  2
AcDbMLeaderStyle
  3
ACDB_MLEADERSTYLE_CLASS
 90
     4095
 91
        1
280
     0
281
     0
  0
CLASS
  1
ACDBSECTIONVIEWSTYLE
  2
AcDbSectionViewStyle
  3
ObjectDBX Classes
 90
     1025
 91
        1
280
     0
281
     0
  0
CLASS
  1
ACDBDETAILVIEWSTYLE
  2
AcDbDetailViewStyle
  3
ObjectDBX Classes
 90
     1025
 91
        1
280
     0
281
     0
  0
CLASS
  1
PLOTSETTINGS
  2
AcDbPlotSettings
  3
ObjectDBX Classes
 90
        0
 91
        1
280
     0
281
     0
  0
CLASS
  1
CELLSTYLEMAP
  2
AcDbCellStyleMap
  3
ObjectDBX Classes
 90
     1152
 91
        1
280
     0
281
     0
  0
ENDSEC
  0
SECTION
  2
TABLES
  0
TABLE
  2
VPORT
  5
8
330
0
100
AcDbSymbolTable
 70
     1
  0
VPORT
  5
A0F7
330
8
100
AcDbSymbolTableRecord
100
AcDbViewportTableRecord
  2
*Active
 70
     0
 10
0.0
 20
0.0
 11
1.0
 21
1.0
 12
609.1812457471011
 22
780.0487685364421
 13
0.0
 23
0.0
 14
1.0
 24
1.0
 15
1.0
 25
1.0
 16
0.0
 26
0.0
 36
1.0
 17
0.0
 27
0.0
 37
0.0
 40
330.2632129189619
 41
2.430167597765362
 42
50.0
 43
0.0
 44
0.0
 50
0.0
 51
0.0
 71
     0
 72
   100
 73
     1
 74
     3
 75
     0
 76
     0
 77
     0
 78
     0
281
     0
 65
     1
110
446.2821888226134
120
311.2391951941589
130
0.0
111
1.0
121
0.0
131
0.0
112
0.0
122
1.0
132
0.0
 79
     0
146
0.0
348
A118
 60
     3
 61
     5
292
     1
282
     1
141
0.0
142
0.0
 63
   250
421
  3355443
1001
ACAD_NAV_VCDISPLAY
1070
     3
  0
ENDTAB
  0
TABLE
  2
LTYPE
  5
5
330
0
100
AcDbSymbolTable
 70
     6
  0
LTYPE
  5
14
330
5
100
AcDbSymbolTableRecord
100
AcDbLinetypeTableRecord
  2
ByBlock
 70
     0
  3

 72
    65
 73
     0
 40
0.0
  0
LTYPE
  5
15
330
5
100
AcDbSymbolTableRecord
100
AcDbLinetypeTableRecord
  2
ByLayer
 70
     0
  3

 72
    65
 73
     0
 40
0.0
  0
LTYPE
  5
16
330
5
100
AcDbSymbolTableRecord
100
AcDbLinetypeTableRecord
  2
Continuous
 70
     0
  3
Solid line
 72
    65
 73
     0
 40
0.0
  0
LTYPE
  5
2D
330
5
100
AcDbSymbolTableRecord
100
AcDbLinetypeTableRecord
  2
HIDDEN
 70
     0
  3
Hidden __ __ __ __ __ __ __ __ __ __ __ __ __ _
 72
    65
 73
     2
 40
9.524999999999998
 49
6.349999999999999
 74
     0
 49
-3.174999999999999
 74
     0
  0
LTYPE
  5
2E
330
5
100
AcDbSymbolTableRecord
100
AcDbLinetypeTableRecord
  2
CENTER
 70
     0
  3
Center ____ _ ____ _ ____ _ ____ _ ____ _ ____
 72
    65
 73
     4
 40
50.8
 49
31.75
 74
     0
 49
-6.349999999999999
 74
     0
 49
6.349999999999999
 74
     0
 49
-6.349999999999999
 74
     0
  0
LTYPE
  5
9E
330
5
100
AcDbSymbolTableRecord
100
AcDbLinetypeTableRecord
  2
HIDDEN2
 70
     0
  3
Hidden (.5x) _ _ _ _ _ _ _ _ _ _ _ _ _ _ _ _ _
 72
    65
 73
     2
 40
4.762499999999999
 49
3.174999999999999
 74
     0
 49
-1.587499999999999
 74
     0
  0
LTYPE
  5
9F
330
5
100
AcDbSymbolTableRecord
100
AcDbLinetypeTableRecord
  2
CENTER2
 70
     0
  3
Center (.5x) ___ _ ___ _ ___ _ ___ _ ___ _ ___
 72
    65
 73
     4
 40
28.575
 49
19.05
 74
     0
 49
-3.174999999999999
 74
     0
 49
3.174999999999999
 74
     0
 49
-3.174999999999999
 74
     0
  0
LTYPE
  5
9A37
330
5
100
AcDbSymbolTableRecord
100
AcDbLinetypeTableRecord
  2
STYLE_01
 70
     0
  3

 72
    65
 73
     4
 40
1.142998149736059
 49
0.7620005327761776
 74
     0
 49
-0.1269992056532938
 74
     0
 49
0.1269992056532938
 74
     0
 49
-0.1269992056532938
 74
     0
  0
ENDTAB
  0
TABLE
  2
LAYER
  5
2
102
{ACAD_XDICTIONARY
360
4E76
102
}
330
0
100
AcDbSymbolTable
 70
    12
  0
LAYER
  5
10
102
{ACAD_XDICTIONARY
360
A1BC
102
}
330
2
100
AcDbSymbolTableRecord
100
AcDbLayerTableRecord
  2
0
 70
     0
 62
     7
  6
Continuous
370
    -3
390
F
347
A10A
  0
LAYER
  5
2F
102
{ACAD_XDICTIONARY
360
A1BE
102
}
330
2
100
AcDbSymbolTableRecord
100
AcDbLayerTableRecord
  2
外形線
 70
     0
 62
     7
  6
Continuous
370
    30
390
F
347
A10A
  0
LAYER
  5
30
102
{ACAD_XDICTIONARY
360
A1C0
102
}
330
2
100
AcDbSymbolTableRecord
100
AcDbLayerTableRecord
  2
中心線
 70
     0
 62
     1
  6
CENTER2
370
    13
390
F
347
A10A
  0
LAYER
  5
31
102
{ACAD_XDICTIONARY
360
A1C2
102
}
330
2
100
AcDbSymbolTableRecord
100
AcDbLayerTableRecord
  2
かくれ線
 70
     0
 62
     3
  6
HIDDEN2
370
     9
390
F
347
A10A
  0
LAYER
  5
32
102
{ACAD_XDICTIONARY
360
A1C4
102
}
330
2
100
AcDbSymbolTableRecord
100
AcDbLayerTableRecord
  2
図枠
 70
     0
 62
     1
  6
Continuous
370
    -3
390
F
347
A10A
  0
LAYER
  5
33
102
{ACAD_XDICTIONARY
360
A1C6
102
}
330
2
100
AcDbSymbolTableRecord
100
AcDbLayerTableRecord
  2
文字
 70
     0
 62
     4
  6
Continuous
370
    25
390
F
347
A10A
  0
LAYER
  5
34
102
{ACAD_XDICTIONARY
360
A1C8
102
}
330
2
100
AcDbSymbolTableRecord
100
AcDbLayerTableRecord
  2
ハッチング
 70
     0
 62
   253
  6
Continuous
370
    13
390
F
347
A10A
  0
LAYER
  5
35
102
{ACAD_XDICTIONARY
360
A1CA
102
}
330
2
100
AcDbSymbolTableRecord
100
AcDbLayerTableRecord
  2
補助線
 70
     0
 62
     5
  6
Continuous
370
    -3
390
F
347
A10A
  0
LAYER
  5
36
102
{ACAD_XDICTIONARY
360
A1CC
102
}
330
2
100
AcDbSymbolTableRecord
100
AcDbLayerTableRecord
  2
寸法線
 70
     0
 62
     2
  6
Continuous
370
     5
390
F
347
A10A
  0
LAYER
  5
13E
330
2
100
AcDbSymbolTableRecord
100
AcDbLayerTableRecord
  2
Defpoints
 70
     0
 62
     7
  6
Continuous
290
     0
370
    -3
390
F
347
A10A
  0
LAYER
  5
9A38
102
{ACAD_XDICTIONARY
360
A1CE
102
}
330
2
100
AcDbSymbolTableRecord
100
AcDbLayerTableRecord
  2
notes
 70
     0
 62
     7
  6
Continuous
370
    -3
390
F
347
A10A
  0
LAYER
  5
9A39
102
{ACAD_XDICTIONARY
360
A1D0
102
}
330
2
100
AcDbSymbolTableRecord
100
AcDbLayerTableRecord
  2
AWK73-9930
 70
     0
 62
     7
  6
Continuous
370
    -3
390
F
347
A10A
  0
ENDTAB
  0
TABLE
  2
STYLE
  5
3
330
0
100
AcDbSymbolTable
 70
     5
  0
STYLE
  5
11
330
3
100
AcDbSymbolTableRecord
100
AcDbTextStyleTableRecord
  2
Standard
 70
     0
 40
0.0
 41
1.0
 50
0.0
 71
     0
 42
2.5
  3
isocp.shx
  4
extfont.shx
  0
STYLE
  5
2C
330
3
100
AcDbSymbolTableRecord
100
AcDbTextStyleTableRecord
  2

 70
     1
 40
0.0
 41
1.0
 50
0.0
 71
     0
 42
2.5
  3
ltypeshp.shx
  4

  0
STYLE
  5
4C
330
3
100
AcDbSymbolTableRecord
100
AcDbTextStyleTableRecord
  2
symbols
 70
     0
 40
0.0
 41
1.0
 50
0.0
 71
     0
 42
5.0
  3

  4

1001
ACAD
1000
MS Gothic
1071
    32817
  0
STYLE
  5
128F
330
3
100
AcDbSymbolTableRecord
100
AcDbTextStyleTableRecord
  2
ｽﾀｲﾙ1
 70
     0
 40
0.0
 41
1.0
 50
0.0
 71
     0
 42
5.0
  3
isocp.shx
  4
extfont.shx
  0
STYLE
  5
9A3A
330
3
100
AcDbSymbolTableRecord
100
AcDbTextStyleTableRecord
  2
ＭＳ ゴシック
 70
     0
 40
0.0
 41
1.0
 50
0.0
 71
     0
 42
0.0
  3
txt.shx
  4
ＭＳ ゴシック
1001
ACAD
1000
ＭＳ ゴシック
1071
        0
  0
ENDTAB
  0
TABLE
  2
VIEW
  5
6
330
0
100
AcDbSymbolTable
 70
     0
  0
ENDTAB
  0
TABLE
  2
UCS
  5
7
330
0
100
AcDbSymbolTable
 70
     0
  0
ENDTAB
  0
TABLE
  2
APPID
  5
9
330
0
100
AcDbSymbolTable
 70
     3
  0
APPID
  5
12
330
9
100
AcDbSymbolTableRecord
100
AcDbRegAppTableRecord
  2
ACAD
 70
     0
  0
APPID
  5
A178
330
9
100
AcDbSymbolTableRecord
100
AcDbRegAppTableRecord
  2
ACAD_NAV_VCDISPLAY
 70
     0
  0
APPID
  5
A1AB
330
9
100
AcDbSymbolTableRecord
100
AcDbRegAppTableRecord
  2
ACAD_EXEMPT_FROM_CAD_STANDARDS
 70
     0
  0
ENDTAB
  0
TABLE
  2
DIMSTYLE
  5
A
330
0
100
AcDbSymbolTable
 70
     5
100
AcDbDimStyleTable
 71
     1
340
27
  0
DIMSTYLE
105
27
330
A
100
AcDbSymbolTableRecord
100
AcDbDimStyleTableRecord
  2
ISO-25
 70
     0
 41
2.5
 42
0.625
 43
3.75
 44
1.25
 73
     0
 74
     0
 77
     1
 78
     8
140
3.5
141
2.5
143
0.03937007874016
147
0.625
171
     3
172
     1
271
     2
272
     2
274
     3
283
     0
284
     8
340
11
  0
DIMSTYLE
105
FCC
330
A
100
AcDbSymbolTableRecord
100
AcDbDimStyleTableRecord
  2
STANDARD
 70
     0
 41
3.0
 42
1.0
 43
7.5
 44
2.0
 45
2.0
 77
     1
 78
     1
140
5.0
141
0.0
147
2.0
171
     0
172
     1
176
     1
177
     1
178
     1
271
     2
272
     2
279
     2
284
     1
285
     1
286
     1
340
11
  0
DIMSTYLE
105
3A3A
330
A
100
AcDbSymbolTableRecord
100
AcDbDimStyleTableRecord
  2
GEN-ISO
 70
     0
 41
2.5
 42
1.0
 43
10.0
 44
2.0
 47
0.1
 48
0.1
 73
     0
 74
     0
 77
     1
 78
     8
140
3.5
141
-2.0
147
1.5
172
     1
178
     2
271
     2
272
     5
283
     0
284
     8
285
     8
286
     8
340
11
  0
DIMSTYLE
105
9A3B
102
{ACAD_REACTORS
330
A202
330
A212
330
A219
330
A21A
102
}
330
A
100
AcDbSymbolTableRecord
100
AcDbDimStyleTableRecord
  2
tfrom線あり
 70
     0
  3
<>
  4
[]
 41
0.3999755859375
 42
2.5
 43
1.0
 44
0.0
 73
     0
 74
     0
 77
     1
 78
    11
140
2.44326171875
141
0.0
143
0.0393700787401575
147
0.5
171
     3
174
     1
179
     2
271
     1
272
     1
273
     4
276
     2
284
    11
285
    15
286
    15
289
     0
340
9A3A
341
99E3
342
99E3
  0
DIMSTYLE
105
9A3C
330
A
100
AcDbSymbolTableRecord
100
AcDbDimStyleTableRecord
  2
JIS
 70
     0
  3
<>
  4
[]
 41
3.174999999999999
 42
0.0
 43
6.999999999999939
 44
1.99999999999962
 73
     0
 74
     0
 77
     1
 78
    11
140
2.44326171875
141
0.0
143
0.0393700787401575
147
1.000000000001079
171
     3
174
     1
179
     2
271
     1
272
     1
273
     4
276
     2
284
    11
285
    15
286
    15
289
     0
340
9A3A
341
99EB
342
99EB
  0
ENDTAB
  0
TABLE
  2
BLOCK_RECORD
  5
1
330
0
100
AcDbSymbolTable
 70
    12
  0
BLOCK_RECORD
  5
1F
330
1
100
AcDbSymbolTableRecord
100
AcDbBlockTableRecord
  2
*Model_Space
340
22
 70
     0
280
     1
281
     0
  0
BLOCK_RECORD
  5
1B
330
1
100
AcDbSymbolTableRecord
100
AcDbBlockTableRecord
  2
*Paper_Space
340
1E
 70
     0
280
     1
281
     0
  0
BLOCK_RECORD
  5
23
330
1
100
AcDbSymbolTableRecord
100
AcDbBlockTableRecord
  2
*Paper_Space0
340
26
 70
     0
280
     1
281
     0
  0
BLOCK_RECORD
  5
4001
330
1
100
AcDbSymbolTableRecord
100
AcDbBlockTableRecord
  2
A$C3EC05008
340
0
 70
     0
280
     1
281
     0
  0
BLOCK_RECORD
  5
99E3
330
1
100
AcDbSymbolTableRecord
100
AcDbBlockTableRecord
  2
_DOT
340
0
102
{BLKREFS
331
A18A
331
A18B
331
A193
331
A194
331
A19C
331
A19D
331
A1A5
331
A1A6
331
A2A1
331
A2A2
331
A2AA
331
A2AB
331
A2B3
331
A2B4
331
A2BC
331
A2BD
102
}
 70
     0
280
     1
281
     0
  0
BLOCK_RECORD
  5
99EB
330
1
100
AcDbSymbolTableRecord
100
AcDbBlockTableRecord
  2
VW_FILLEDARROW
340
0
 70
     0
280
     1
281
     0
  0
BLOCK_RECORD
  5
9A98
330
1
100
AcDbSymbolTableRecord
100
AcDbBlockTableRecord
  2
*D4
340
0
 70
     0
280
     1
281
     0
  0
BLOCK_RECORD
  5
9AB0
330
1
100
AcDbSymbolTableRecord
100
AcDbBlockTableRecord
  2
*D5
340
0
 70
     0
280
     1
281
     0
  0
BLOCK_RECORD
  5
9ABC
330
1
100
AcDbSymbolTableRecord
100
AcDbBlockTableRecord
  2
*D6
340
0
 70
     0
280
     1
281
     0
  0
BLOCK_RECORD
  5
9AC8
330
1
100
AcDbSymbolTableRecord
100
AcDbBlockTableRecord
  2
*D7
340
0
 70
     0
280
     1
281
     0
  0
BLOCK_RECORD
  5
A24A
330
1
100
AcDbSymbolTableRecord
100
AcDbBlockTableRecord
  2
*D8
340
0
 70
     0
280
     1
281
     0
  0
BLOCK_RECORD
  5
A256
330
1
100
AcDbSymbolTableRecord
100
AcDbBlockTableRecord
  2
*D9
340
0
 70
     0
280
     1
281
     0
  0
BLOCK_RECORD
  5
A262
330
1
100
AcDbSymbolTableRecord
100
AcDbBlockTableRecord
  2
*D10
340
0
 70
     0
280
     1
281
     0
  0
BLOCK_RECORD
  5
A26E
330
1
100
AcDbSymbolTableRecord
100
AcDbBlockTableRecord
  2
*D11
340
0
 70
     0
280
     1
281
     0
  0
ENDTAB
  0
ENDSEC
  0
SECTION
  2
BLOCKS
  0
BLOCK
  5
20
330
1F
100
AcDbEntity
  8
0
100
AcDbBlockBegin
  2
*Model_Space
 70
     0
 10
0.0
 20
0.0
 30
0.0
  3
*Model_Space
  1

  0
ENDBLK
  5
21
330
1F
100
AcDbEntity
  8
0
100
AcDbBlockEnd
  0
BLOCK
  5
1C
330
1B
100
AcDbEntity
 67
     1
  8
0
100
AcDbBlockBegin
  2
*Paper_Space
 70
     0
 10
0.0
 20
0.0
 30
0.0
  3
*Paper_Space
  1

  0
ENDBLK
  5
1D
330
1B
100
AcDbEntity
 67
     1
  8
0
100
AcDbBlockEnd
  0
BLOCK
  5
24
330
23
100
AcDbEntity
 67
     1
  8
0
100
AcDbBlockBegin
  2
*Paper_Space0
 70
     0
 10
0.0
 20
0.0
 30
0.0
  3
*Paper_Space0
  1

  0
ENDBLK
  5
25
330
23
100
AcDbEntity
 67
     1
  8
0
100
AcDbBlockEnd
  0
BLOCK
  5
4007
330
4001
100
AcDbEntity
  8
0
100
AcDbBlockBegin
  2
A$C3EC05008
 70
     0
 10
0.0
 20
0.0
 30
0.0
  3
A$C3EC05008
  1

  0
ELLIPSE
  5
4002
330
4001
100
AcDbEntity
  8
0
100
AcDbEllipse
 10
4.125000920420006
 20
5.000000232240438
 30
0.0
 11
0.0
 21
-5.000000000000852
 31
0.0
210
0.0
220
0.0
230
-1.0
 40
0.8249999999998593
 41
0.0
 42
6.283185307179586
  0
ELLIPSE
  5
4003
330
4001
100
AcDbEntity
  8
0
100
AcDbEllipse
 10
34.37500092042001
 20
5.000000232240438
 30
0.0
 11
0.0
 21
-5.000000000000852
 31
0.0
210
0.0
220
0.0
230
1.0
 40
0.8249999999998593
 41
0.0
 42
6.283185307179586
  0
LINE
  5
4004
330
4001
100
AcDbEntity
  8
0
100
AcDbLine
 10
4.125000920418301
 20
0.0000002322412911
 30
0.0
 11
34.37500092042171
 21
0.0000002322412911
 31
0.0
  0
LINE
  5
4005
330
4001
100
AcDbEntity
  8
0
100
AcDbLine
 10
4.125000920420859
 20
10.00000023224129
 30
0.0
 11
34.37500092041915
 21
10.00000023224129
 31
0.0
  0
ELLIPSE
  5
4006
330
4001
100
AcDbEntity
  8
0
100
AcDbEllipse
 10
19.25000092042001
 20
5.000000232241291
 30
0.0
 11
-8.0
 21
0.0
 31
0.0
210
0.0
220
0.0
230
1.0
 40
0.625
 41
0.0
 42
6.283185307179586
  0
ENDBLK
  5
4008
330
4001
100
AcDbEntity
  8
0
100
AcDbBlockEnd
  0
BLOCK
  5
99E9
330
99E3
100
AcDbEntity
  8
0
100
AcDbBlockBegin
  2
_DOT
 70
     0
 10
0.0
 20
0.0
 30
0.0
  3
_DOT
  1

  0
POLYLINE
  5
99E4
330
99E3
100
AcDbEntity
  8
0
  6
ByBlock
 62
     0
370
    -2
100
AcDb2dPolyline
 66
     1
 10
0.0
 20
0.0
 30
0.0
 70
     1
 40
0.5
 41
0.5
  0
VERTEX
  5
99E5
330
99E4
100
AcDbEntity
  8
0
  6
ByBlock
 62
     0
370
    -2
100
AcDbVertex
100
AcDb2dVertex
 10
-0.25
 20
0.0
 30
0.0
 42
1.0
  0
VERTEX
  5
99E6
330
99E4
100
AcDbEntity
  8
0
  6
ByBlock
 62
     0
370
    -2
100
AcDbVertex
100
AcDb2dVertex
 10
0.25
 20
0.0
 30
0.0
 42
1.0
  0
SEQEND
  5
99E7
330
99E4
100
AcDbEntity
  8
0
  0
LINE
  5
99E8
330
99E3
100
AcDbEntity
  8
0
  6
ByBlock
 62
     0
370
    -2
100
AcDbLine
 10
-0.5
 20
0.0
 30
0.0
 11
-1.0
 21
0.0
 31
0.0
  0
ENDBLK
  5
99EA
330
99E3
100
AcDbEntity
  8
0
100
AcDbBlockEnd
  0
BLOCK
  5
99ED
330
99EB
100
AcDbEntity
  8
0
  6
ByBlock
 62
     0
370
    -2
100
AcDbBlockBegin
  2
VW_FILLEDARROW
 70
     0
 10
0.0
 20
0.0
 30
0.0
  3
VW_FILLEDARROW
  1

  0
SOLID
  5
99EC
330
99EB
100
AcDbEntity
  8
0
 62
     0
370
    -2
100
AcDbTrace
 10
0.0
 20
0.0
 30
0.0
 11
-0.99993896484375
 21
-0.2679328381102956
 31
0.0
 12
-0.99993896484375
 22
0.2679328381102958
 32
0.0
 13
-0.99993896484375
 23
0.2679328381102958
 33
0.0
  0
ENDBLK
  5
99EE
330
99EB
100
AcDbEntity
  8
0
100
AcDbBlockEnd
  0
BLOCK
  5
9AA2
330
9A98
100
AcDbEntity
  8
0
100
AcDbBlockBegin
  2
*D4
 70
     1
 10
0.0
 20
0.0
 30
0.0
  3
*D4
  1

  0
LINE
  5
A187
330
9A98
100
AcDbEntity
  8
notes
  6
Continuous
 62
     0
440
 16777216
370
    -2
100
AcDbLine
 10
561.6627360017594
 20
657.8342772539913
 30
0.0
 11
561.6627360017594
 21
680.3342772539913
 31
0.0
  0
LINE
  5
A188
330
9A98
100
AcDbEntity
  8
notes
  6
Continuous
 62
     0
440
 16777216
370
    -2
100
AcDbLine
 10
497.6608636360654
 20
657.8342772539913
 30
0.0
 11
497.6608636360654
 21
680.3342772539913
 31
0.0
  0
LINE
  5
A189
330
9A98
100
AcDbEntity
  8
notes
  6
Continuous
 62
     0
440
 16777216
370
    -2
100
AcDbLine
 10
561.2627604158219
 20
680.3342772539913
 30
0.0
 11
498.0608392220029
 21
680.3342772539913
 31
0.0
  0
INSERT
  5
A18A
330
9A98
100
AcDbEntity
  8
notes
  6
Continuous
 62
     0
440
 16777216
370
    -2
100
AcDbBlockReference
  2
_DOT
 10
561.6627360017594
 20
680.3342772539913
 30
0.0
 41
0.3999755859375
 42
0.3999755859375
 43
0.3999755859375
  0
INSERT
  5
A18B
330
9A98
100
AcDbEntity
  8
notes
  6
Continuous
 62
     0
440
 16777216
370
    -2
100
AcDbBlockReference
  2
_DOT
 10
497.6608636360654
 20
680.3342772539913
 30
0.0
 41
0.3999755859375
 42
0.3999755859375
 43
0.3999755859375
 50
180.0
  0
MTEXT
  5
A18C
330
9A98
100
AcDbEntity
  8
notes
  6
Continuous
 62
     0
440
 16777216
370
     5
100
AcDbMText
 10
529.6617998189124
 20
682.0559081133662
 30
0.0
 40
2.44326171875
 41
0.0
 46
0.0
 71
     5
 72
     1
  1
\A1;φ64
 73
     1
 44
1.0
  0
POINT
  5
A18D
330
9A98
100
AcDbEntity
  8
Defpoints
  6
Continuous
 62
     0
440
 16777216
100
AcDbPoint
 10
561.6627360017594
 20
655.3342772539913
 30
0.0
  0
POINT
  5
A18E
330
9A98
100
AcDbEntity
  8
Defpoints
  6
Continuous
 62
     0
440
 16777216
100
AcDbPoint
 10
497.6608636360654
 20
655.3342772539913
 30
0.0
  0
POINT
  5
A18F
330
9A98
100
AcDbEntity
  8
Defpoints
  6
Continuous
 62
     0
440
 16777216
100
AcDbPoint
 10
497.6608636360654
 20
680.3342772539913
 30
0.0
  0
ENDBLK
  5
9AA3
330
9A98
100
AcDbEntity
  8
0
100
AcDbBlockEnd
  0
BLOCK
  5
9ABA
330
9AB0
100
AcDbEntity
  8
0
100
AcDbBlockBegin
  2
*D5
 70
     1
 10
0.0
 20
0.0
 30
0.0
  3
*D5
  1

  0
LINE
  5
A190
330
9AB0
100
AcDbEntity
  8
notes
  6
Continuous
 62
     0
440
 16777216
370
    -2
100
AcDbLine
 10
495.7104044524769
 20
618.2955390464426
 30
0.0
 11
473.0610899339509
 21
618.2955390464426
 31
0.0
  0
LINE
  5
A191
330
9AB0
100
AcDbEntity
  8
notes
  6
Continuous
 62
     0
440
 16777216
370
    -2
100
AcDbLine
 10
495.561089933951
 20
649.2761886991088
 30
0.0
 11
473.061089933951
 21
649.2761886991088
 31
0.0
  0
LINE
  5
A192
330
9AB0
100
AcDbEntity
  8
notes
  6
Continuous
 62
     0
440
 16777216
370
    -2
100
AcDbLine
 10
473.0610899339509
 20
618.6955146323801
 30
0.0
 11
473.061089933951
 21
648.8762131131713
 31
0.0
  0
INSERT
  5
A193
330
9AB0
100
AcDbEntity
  8
notes
  6
Continuous
 62
     0
440
 16777216
370
    -2
100
AcDbBlockReference
  2
_DOT
 10
473.0610899339509
 20
618.2955390464426
 30
0.0
 41
0.3999755859375
 42
0.3999755859375
 43
0.3999755859375
 50
270.0
  0
INSERT
  5
A194
330
9AB0
100
AcDbEntity
  8
notes
  6
Continuous
 62
     0
440
 16777216
370
    -2
100
AcDbBlockReference
  2
_DOT
 10
473.061089933951
 20
649.2761886991088
 30
0.0
 41
0.3999755859375
 42
0.3999755859375
 43
0.3999755859375
 50
90.0
  0
MTEXT
  5
A195
330
9AB0
100
AcDbEntity
  8
notes
  6
Continuous
 62
     0
440
 16777216
370
     5
100
AcDbMText
 10
471.3394590745759
 20
633.7858638727758
 30
0.0
 40
2.44326171875
 41
0.0
 46
0.0
 71
     5
 72
     1
  1
\A1;MAX.50
  7
ＭＳ ゴシック
 11
0.0000000000000001
 21
1.0
 31
0.0
 73
     1
 44
1.0
  0
POINT
  5
A196
330
9AB0
100
AcDbEntity
  8
Defpoints
  6
Continuous
 62
     0
440
 16777216
100
AcDbPoint
 10
498.2104044524769
 20
618.2955390464426
 30
0.0
  0
POINT
  5
A197
330
9AB0
100
AcDbEntity
  8
Defpoints
  6
Continuous
 62
     0
440
 16777216
100
AcDbPoint
 10
498.061089933951
 20
649.2761886991088
 30
0.0
  0
POINT
  5
A198
330
9AB0
100
AcDbEntity
  8
Defpoints
  6
Continuous
 62
     0
440
 16777216
100
AcDbPoint
 10
473.061089933951
 20
649.2761886991088
 30
0.0
  0
ENDBLK
  5
9ABB
330
9AB0
100
AcDbEntity
  8
0
100
AcDbBlockEnd
  0
BLOCK
  5
9AC6
330
9ABC
100
AcDbEntity
  8
0
100
AcDbBlockBegin
  2
*D6
 70
     1
 10
0.0
 20
0.0
 30
0.0
  3
*D6
  1

  0
LINE
  5
A199
330
9ABC
100
AcDbEntity
  8
notes
  6
Continuous
 62
     0
440
 16777216
370
    -2
100
AcDbLine
 10
563.6147798913227
 20
618.2955390464426
 30
0.0
 11
579.662561475244
 21
618.2955390464426
 31
0.0
  0
LINE
  5
A19A
330
9ABC
100
AcDbEntity
  8
notes
  6
Continuous
 62
     0
440
 16777216
370
    -2
100
AcDbLine
 10
557.1625614752441
 20
587.2951686083115
 30
0.0
 11
579.662561475244
 21
587.2951686083115
 31
0.0
  0
LINE
  5
A19B
330
9ABC
100
AcDbEntity
  8
notes
  6
Continuous
 62
     0
440
 16777216
370
    -2
100
AcDbLine
 10
579.662561475244
 20
617.8955634605052
 30
0.0
 11
579.662561475244
 21
587.6951441942489
 31
0.0
  0
INSERT
  5
A19C
330
9ABC
100
AcDbEntity
  8
notes
  6
Continuous
 62
     0
440
 16777216
370
    -2
100
AcDbBlockReference
  2
_DOT
 10
579.662561475244
 20
618.2955390464426
 30
0.0
 41
0.3999755859375
 42
0.3999755859375
 43
0.3999755859375
 50
90.0
  0
INSERT
  5
A19D
330
9ABC
100
AcDbEntity
  8
notes
  6
Continuous
 62
     0
440
 16777216
370
    -2
100
AcDbBlockReference
  2
_DOT
 10
579.662561475244
 20
587.2951686083115
 30
0.0
 41
0.3999755859375
 42
0.3999755859375
 43
0.3999755859375
 50
270.0
  0
MTEXT
  5
A19E
330
9ABC
100
AcDbEntity
  8
notes
  6
Continuous
 62
     0
440
 16777216
370
     5
100
AcDbMText
 10
577.9409306158689
 20
602.7953538273772
 30
0.0
 40
2.44326171875
 41
0.0
 46
0.0
 71
     5
 72
     1
  1
\A1;31
  7
ＭＳ ゴシック
 11
0.0000000000000001
 21
1.0
 31
0.0
 73
     1
 44
1.0
  0
POINT
  5
A19F
330
9ABC
100
AcDbEntity
  8
Defpoints
  6
Continuous
 62
     0
440
 16777216
100
AcDbPoint
 10
561.1147798913227
 20
618.2955390464426
 30
0.0
  0
POINT
  5
A1A0
330
9ABC
100
AcDbEntity
  8
Defpoints
  6
Continuous
 62
     0
440
 16777216
100
AcDbPoint
 10
554.662561475244
 20
587.2951686083115
 30
0.0
  0
POINT
  5
A1A1
330
9ABC
100
AcDbEntity
  8
Defpoints
  6
Continuous
 62
     0
440
 16777216
100
AcDbPoint
 10
579.662561475244
 20
587.2951686083115
 30
0.0
  0
ENDBLK
  5
9AC7
330
9ABC
100
AcDbEntity
  8
0
100
AcDbBlockEnd
  0
BLOCK
  5
9AD2
330
9AC8
100
AcDbEntity
  8
0
100
AcDbBlockBegin
  2
*D7
 70
     1
 10
0.0
 20
0.0
 30
0.0
  3
*D7
  1

  0
LINE
  5
A1A2
330
9AC8
100
AcDbEntity
  8
notes
  6
Continuous
 62
     0
440
 16777216
370
    -2
100
AcDbLine
 10
551.4114874138433
 20
577.2949695928441
 30
0.0
 11
579.662561475244
 21
577.2949695928441
 31
0.0
  0
LINE
  5
A1A3
330
9AC8
100
AcDbEntity
  8
notes
  6
Continuous
 62
     0
440
 16777216
370
    -2
100
AcDbLine
 10
557.1625614752441
 20
587.2951686083115
 30
0.0
 11
579.662561475244
 21
587.2951686083115
 31
0.0
  0
LINE
  5
A1A4
330
9AC8
100
AcDbEntity
  8
notes
  6
Continuous
 62
     0
440
 16777216
370
    -2
100
AcDbLine
 10
579.662561475244
 20
577.6949451787816
 30
0.0
 11
579.662561475244
 21
586.895193022374
 31
0.0
  0
INSERT
  5
A1A5
330
9AC8
100
AcDbEntity
  8
notes
  6
Continuous
 62
     0
440
 16777216
370
    -2
100
AcDbBlockReference
  2
_DOT
 10
579.662561475244
 20
577.2949695928441
 30
0.0
 41
0.3999755859375
 42
0.3999755859375
 43
0.3999755859375
 50
270.0
  0
INSERT
  5
A1A6
330
9AC8
100
AcDbEntity
  8
notes
  6
Continuous
 62
     0
440
 16777216
370
    -2
100
AcDbBlockReference
  2
_DOT
 10
579.662561475244
 20
587.2951686083115
 30
0.0
 41
0.3999755859375
 42
0.3999755859375
 43
0.3999755859375
 50
90.0
  0
MTEXT
  5
A1A7
330
9AC8
100
AcDbEntity
  8
notes
  6
Continuous
 62
     0
440
 16777216
370
     5
100
AcDbMText
 10
577.9409306158689
 20
582.2950691005779
 30
0.0
 40
2.44326171875
 41
0.0
 46
0.0
 71
     5
 72
     1
  1
\A1;10
  7
ＭＳ ゴシック
 11
0.0000000000000001
 21
1.0
 31
0.0
 73
     1
 44
1.0
  0
POINT
  5
A1A8
330
9AC8
100
AcDbEntity
  8
Defpoints
  6
Continuous
 62
     0
440
 16777216
100
AcDbPoint
 10
548.9114874138433
 20
577.2949695928441
 30
0.0
  0
POINT
  5
A1A9
330
9AC8
100
AcDbEntity
  8
Defpoints
  6
Continuous
 62
     0
440
 16777216
100
AcDbPoint
 10
554.662561475244
 20
587.2951686083115
 30
0.0
  0
POINT
  5
A1AA
330
9AC8
100
AcDbEntity
  8
Defpoints
  6
Continuous
 62
     0
440
 16777216
100
AcDbPoint
 10
579.662561475244
 20
587.2951686083115
 30
0.0
  0
ENDBLK
  5
9AD3
330
9AC8
100
AcDbEntity
  8
0
100
AcDbBlockEnd
  0
BLOCK
  5
A24B
330
A24A
100
AcDbEntity
  8
0
100
AcDbBlockBegin
  2
*D8
 70
     1
 10
0.0
 20
0.0
 30
0.0
  3
*D8
  1

  0
LINE
  5
A29E
330
A24A
100
AcDbEntity
  8
notes
  6
Continuous
 62
     0
440
 16777216
370
    -2
100
AcDbLine
 10
561.6627360017596
 20
851.3847986932852
 30
0.0
 11
561.6627360017596
 21
873.8847986932851
 31
0.0
  0
LINE
  5
A29F
330
A24A
100
AcDbEntity
  8
notes
  6
Continuous
 62
     0
440
 16777216
370
    -2
100
AcDbLine
 10
497.6608636360656
 20
851.3847986932852
 30
0.0
 11
497.6608636360656
 21
873.8847986932851
 31
0.0
  0
LINE
  5
A2A0
330
A24A
100
AcDbEntity
  8
notes
  6
Continuous
 62
     0
440
 16777216
370
    -2
100
AcDbLine
 10
561.2627604158221
 20
873.8847986932851
 30
0.0
 11
498.0608392220031
 21
873.8847986932851
 31
0.0
  0
INSERT
  5
A2A1
330
A24A
100
AcDbEntity
  8
notes
  6
Continuous
 62
     0
440
 16777216
370
    -2
100
AcDbBlockReference
  2
_DOT
 10
561.6627360017596
 20
873.8847986932851
 30
0.0
 41
0.3999755859375
 42
0.3999755859375
 43
0.3999755859375
  0
INSERT
  5
A2A2
330
A24A
100
AcDbEntity
  8
notes
  6
Continuous
 62
     0
440
 16777216
370
    -2
100
AcDbBlockReference
  2
_DOT
 10
497.6608636360656
 20
873.8847986932851
 30
0.0
 41
0.3999755859375
 42
0.3999755859375
 43
0.3999755859375
 50
180.0
  0
MTEXT
  5
A2A3
330
A24A
100
AcDbEntity
  8
notes
  6
Continuous
 62
     0
440
 16777216
370
     5
100
AcDbMText
 10
529.6617998189126
 20
875.60642955266
 30
0.0
 40
2.44326171875
 41
0.0
 46
0.0
 71
     5
 72
     1
  1
\A1;φ64
 73
     1
 44
1.0
  0
POINT
  5
A2A4
330
A24A
100
AcDbEntity
  8
Defpoints
  6
Continuous
 62
     0
440
 16777216
100
AcDbPoint
 10
561.6627360017596
 20
848.8847986932851
 30
0.0
  0
POINT
  5
A2A5
330
A24A
100
AcDbEntity
  8
Defpoints
  6
Continuous
 62
     0
440
 16777216
100
AcDbPoint
 10
497.6608636360656
 20
848.8847986932851
 30
0.0
  0
POINT
  5
A2A6
330
A24A
100
AcDbEntity
  8
Defpoints
  6
Continuous
 62
     0
440
 16777216
100
AcDbPoint
 10
497.6608636360656
 20
873.8847986932851
 30
0.0
  0
ENDBLK
  5
A24C
330
A24A
100
AcDbEntity
  8
0
100
AcDbBlockEnd
  0
BLOCK
  5
A257
330
A256
100
AcDbEntity
  8
0
100
AcDbBlockBegin
  2
*D9
 70
     1
 10
0.0
 20
0.0
 30
0.0
  3
*D9
  1

  0
LINE
  5
A2A7
330
A256
100
AcDbEntity
  8
notes
  6
Continuous
 62
     0
440
 16777216
370
    -2
100
AcDbLine
 10
495.7104044524771
 20
811.8460604857364
 30
0.0
 11
473.0610899339512
 21
811.8460604857364
 31
0.0
  0
LINE
  5
A2A8
330
A256
100
AcDbEntity
  8
notes
  6
Continuous
 62
     0
440
 16777216
370
    -2
100
AcDbLine
 10
495.5610899339513
 20
842.8267101384026
 30
0.0
 11
473.0610899339512
 21
842.8267101384026
 31
0.0
  0
LINE
  5
A2A9
330
A256
100
AcDbEntity
  8
notes
  6
Continuous
 62
     0
440
 16777216
370
    -2
100
AcDbLine
 10
473.0610899339512
 20
812.2460360716738
 30
0.0
 11
473.0610899339512
 21
842.4267345524651
 31
0.0
  0
INSERT
  5
A2AA
330
A256
100
AcDbEntity
  8
notes
  6
Continuous
 62
     0
440
 16777216
370
    -2
100
AcDbBlockReference
  2
_DOT
 10
473.0610899339512
 20
811.8460604857364
 30
0.0
 41
0.3999755859375
 42
0.3999755859375
 43
0.3999755859375
 50
270.0
  0
INSERT
  5
A2AB
330
A256
100
AcDbEntity
  8
notes
  6
Continuous
 62
     0
440
 16777216
370
    -2
100
AcDbBlockReference
  2
_DOT
 10
473.0610899339512
 20
842.8267101384026
 30
0.0
 41
0.3999755859375
 42
0.3999755859375
 43
0.3999755859375
 50
90.0
  0
MTEXT
  5
A2AC
330
A256
100
AcDbEntity
  8
notes
  6
Continuous
 62
     0
440
 16777216
370
     5
100
AcDbMText
 10
471.3394590745761
 20
827.3363853120695
 30
0.0
 40
2.44326171875
 41
0.0
 46
0.0
 71
     5
 72
     1
  1
\A1;MAX.50
  7
ＭＳ ゴシック
 11
0.0000000000000001
 21
1.0
 31
0.0
 73
     1
 44
1.0
  0
POINT
  5
A2AD
330
A256
100
AcDbEntity
  8
Defpoints
  6
Continuous
 62
     0
440
 16777216
100
AcDbPoint
 10
498.2104044524771
 20
811.8460604857364
 30
0.0
  0
POINT
  5
A2AE
330
A256
100
AcDbEntity
  8
Defpoints
  6
Continuous
 62
     0
440
 16777216
100
AcDbPoint
 10
498.0610899339512
 20
842.8267101384026
 30
0.0
  0
POINT
  5
A2AF
330
A256
100
AcDbEntity
  8
Defpoints
  6
Continuous
 62
     0
440
 16777216
100
AcDbPoint
 10
473.0610899339512
 20
842.8267101384026
 30
0.0
  0
ENDBLK
  5
A258
330
A256
100
AcDbEntity
  8
0
100
AcDbBlockEnd
  0
BLOCK
  5
A263
330
A262
100
AcDbEntity
  8
0
100
AcDbBlockBegin
  2
*D10
 70
     1
 10
0.0
 20
0.0
 30
0.0
  3
*D10
  1

  0
LINE
  5
A2B0
330
A262
100
AcDbEntity
  8
notes
  6
Continuous
 62
     0
440
 16777216
370
    -2
100
AcDbLine
 10
563.614779891323
 20
811.8460604857364
 30
0.0
 11
579.6625614752442
 21
811.8460604857364
 31
0.0
  0
LINE
  5
A2B1
330
A262
100
AcDbEntity
  8
notes
  6
Continuous
 62
     0
440
 16777216
370
    -2
100
AcDbLine
 10
557.1625614752442
 20
780.8456900476053
 30
0.0
 11
579.6625614752442
 21
780.8456900476053
 31
0.0
  0
LINE
  5
A2B2
330
A262
100
AcDbEntity
  8
notes
  6
Continuous
 62
     0
440
 16777216
370
    -2
100
AcDbLine
 10
579.6625614752442
 20
811.4460848997989
 30
0.0
 11
579.6625614752442
 21
781.2456656335427
 31
0.0
  0
INSERT
  5
A2B3
330
A262
100
AcDbEntity
  8
notes
  6
Continuous
 62
     0
440
 16777216
370
    -2
100
AcDbBlockReference
  2
_DOT
 10
579.6625614752442
 20
811.8460604857364
 30
0.0
 41
0.3999755859375
 42
0.3999755859375
 43
0.3999755859375
 50
90.0
  0
INSERT
  5
A2B4
330
A262
100
AcDbEntity
  8
notes
  6
Continuous
 62
     0
440
 16777216
370
    -2
100
AcDbBlockReference
  2
_DOT
 10
579.6625614752442
 20
780.8456900476053
 30
0.0
 41
0.3999755859375
 42
0.3999755859375
 43
0.3999755859375
 50
270.0
  0
MTEXT
  5
A2B5
330
A262
100
AcDbEntity
  8
notes
  6
Continuous
 62
     0
440
 16777216
370
     5
100
AcDbMText
 10
577.940930615869
 20
796.345875266671
 30
0.0
 40
2.44326171875
 41
0.0
 46
0.0
 71
     5
 72
     1
  1
\A1;31
  7
ＭＳ ゴシック
 11
0.0000000000000001
 21
1.0
 31
0.0
 73
     1
 44
1.0
  0
POINT
  5
A2B6
330
A262
100
AcDbEntity
  8
Defpoints
  6
Continuous
 62
     0
440
 16777216
100
AcDbPoint
 10
561.1147798913229
 20
811.8460604857364
 30
0.0
  0
POINT
  5
A2B7
330
A262
100
AcDbEntity
  8
Defpoints
  6
Continuous
 62
     0
440
 16777216
100
AcDbPoint
 10
554.6625614752442
 20
780.8456900476053
 30
0.0
  0
POINT
  5
A2B8
330
A262
100
AcDbEntity
  8
Defpoints
  6
Continuous
 62
     0
440
 16777216
100
AcDbPoint
 10
579.6625614752442
 20
780.8456900476053
 30
0.0
  0
ENDBLK
  5
A264
330
A262
100
AcDbEntity
  8
0
100
AcDbBlockEnd
  0
BLOCK
  5
A26F
330
A26E
100
AcDbEntity
  8
0
100
AcDbBlockBegin
  2
*D11
 70
     1
 10
0.0
 20
0.0
 30
0.0
  3
*D11
  1

  0
LINE
  5
A2B9
330
A26E
100
AcDbEntity
  8
notes
  6
Continuous
 62
     0
440
 16777216
370
    -2
100
AcDbLine
 10
551.4114874138435
 20
770.8454910321379
 30
0.0
 11
579.6625614752442
 21
770.8454910321379
 31
0.0
  0
LINE
  5
A2BA
330
A26E
100
AcDbEntity
  8
notes
  6
Continuous
 62
     0
440
 16777216
370
    -2
100
AcDbLine
 10
557.1625614752442
 20
780.8456900476053
 30
0.0
 11
579.6625614752442
 21
780.8456900476053
 31
0.0
  0
LINE
  5
A2BB
330
A26E
100
AcDbEntity
  8
notes
  6
Continuous
 62
     0
440
 16777216
370
    -2
100
AcDbLine
 10
579.6625614752442
 20
771.2454666180754
 30
0.0
 11
579.6625614752442
 21
780.4457144616678
 31
0.0
  0
INSERT
  5
A2BC
330
A26E
100
AcDbEntity
  8
notes
  6
Continuous
 62
     0
440
 16777216
370
    -2
100
AcDbBlockReference
  2
_DOT
 10
579.6625614752442
 20
770.8454910321379
 30
0.0
 41
0.3999755859375
 42
0.3999755859375
 43
0.3999755859375
 50
270.0
  0
INSERT
  5
A2BD
330
A26E
100
AcDbEntity
  8
notes
  6
Continuous
 62
     0
440
 16777216
370
    -2
100
AcDbBlockReference
  2
_DOT
 10
579.6625614752442
 20
780.8456900476053
 30
0.0
 41
0.3999755859375
 42
0.3999755859375
 43
0.3999755859375
 50
90.0
  0
MTEXT
  5
A2BE
330
A26E
100
AcDbEntity
  8
notes
  6
Continuous
 62
     0
440
 16777216
370
     5
100
AcDbMText
 10
577.940930615869
 20
775.8455905398717
 30
0.0
 40
2.44326171875
 41
0.0
 46
0.0
 71
     5
 72
     1
  1
\A1;10
  7
ＭＳ ゴシック
 11
0.0000000000000001
 21
1.0
 31
0.0
 73
     1
 44
1.0
  0
POINT
  5
A2BF
330
A26E
100
AcDbEntity
  8
Defpoints
  6
Continuous
 62
     0
440
 16777216
100
AcDbPoint
 10
548.9114874138436
 20
770.8454910321379
 30
0.0
  0
POINT
  5
A2C0
330
A26E
100
AcDbEntity
  8
Defpoints
  6
Continuous
 62
     0
440
 16777216
100
AcDbPoint
 10
554.6625614752442
 20
780.8456900476053
 30
0.0
  0
POINT
  5
A2C1
330
A26E
100
AcDbEntity
  8
Defpoints
  6
Continuous
 62
     0
440
 16777216
100
AcDbPoint
 10
579.6625614752442
 20
780.8456900476053
 30
0.0
  0
ENDBLK
  5
A270
330
A26E
100
AcDbEntity
  8
0
100
AcDbBlockEnd
  0
ENDSEC
  0
SECTION
  2
ENTITIES
  0
MTEXT
  5
54
330
1F
100
AcDbEntity
  8
図枠
 62
     0
100
AcDbMText
 10
88.0
 20
12.0
 30
0.0
 40
5.0
 41
16.0
 46
0.0
 71
     1
 72
     5
  1

  7
symbols
 73
     1
 44
1.0
  0
MTEXT
  5
C3
330
1F
100
AcDbEntity
  8
外形線
 62
     0
100
AcDbMText
 10
1.0
 20
13.0
 30
0.0
 40
5.0
 41
0.0
 46
0.0
 71
     1
 72
     5
  1

  7
symbols
 73
     1
 44
1.0
  0
MTEXT
  5
3242
330
1F
100
AcDbEntity
  8
図枠
 62
     0
100
AcDbMText
 10
-637.0954545794806
 20
-562.4091501563412
 30
0.0
 40
5.0
 41
50.0
 46
0.0
 71
     5
 72
     5
  1

  7
symbols
 73
     1
 44
1.0
  0
MTEXT
  5
A1E0
102
{ACAD_REACTORS
330
A1E1
102
}
330
1F
100
AcDbEntity
  8
文字
 62
     0
100
AcDbMText
 10
614.1910979901283
 20
842.2488248780625
 30
0.0
 40
3.0
 41
0.0
 46
0.0
 71
     4
 72
     1
  1
排水口金部
  7
symbols
 73
     1
 44
1.0
  0
LEADER
  5
A1E1
330
1F
100
AcDbEntity
  8
文字
 62
     0
100
AcDbLeader
  3
ISO-25
 73
     0
 40
3.563451776649745
 41
19.0507614213198
 76
     2
 10
564.7064861980769
 20
839.1105532319002
 30
0.0
 10
612.7910979901283
 20
842.2488248780625
 30
0.0
340
A1E0
1001
ACAD
1000
DSTYLE
1002
{
1070
    77
1070
     0
1070
    41
1040
3.5
1070
    42
1040
14.0
1070
    43
1040
9.375
1070
    44
1040
2.5
1070
    47
1040
0.3
1070
    48
1040
0.3
1070
   140
1040
7.0
1070
   141
1040
7.0
1070
   147
1040
1.399999999999999
1070
   176
1070
     0
1070
   177
1070
   256
1070
   178
1070
   256
1002
}
  0
MTEXT
  5
A1E2
102
{ACAD_REACTORS
330
A1E3
102
}
330
1F
100
AcDbEntity
  8
文字
 62
     0
100
AcDbMText
 10
590.8824440960882
 20
768.1696365094822
 30
0.0
 40
3.0
 41
0.0
 46
0.0
 71
     4
 72
     1
  1
受け金具部
  7
symbols
 73
     1
 44
1.0
  0
LEADER
  5
A1E3
330
1F
100
AcDbEntity
  8
文字
 62
     0
100
AcDbLeader
  3
ISO-25
 73
     0
 74
     0
 75
     1
 40
3.532994923857867
 41
18.8984771573604
 76
     3
 10
554.6625614752442
 20
793.1472342955299
 30
0.0
 10
585.9824440960882
 20
768.1696365094822
 30
0.0
 10
589.4824440960881
 20
768.1696365094822
 30
0.0
340
A1E2
1001
ACAD
1000
DSTYLE
1002
{
1070
    77
1070
     0
1070
    41
1040
3.5
1070
    42
1040
14.0
1070
    43
1040
9.375
1070
    44
1040
2.5
1070
    47
1040
0.3
1070
    48
1040
0.3
1070
   140
1040
7.0
1070
   141
1040
7.0
1070
   147
1040
1.399999999999999
1070
   176
1070
     0
1070
   177
1070
   256
1070
   178
1070
   256
1002
}
  0
MTEXT
  5
A1E4
102
{ACAD_REACTORS
330
A1E5
102
}
330
1F
100
AcDbEntity
  8
文字
 62
     0
100
AcDbMText
 10
588.5161174840393
 20
861.7885914148798
 30
0.0
 40
3.0
 41
0.0
 46
0.0
 71
     4
 72
     1
  1
ポップアップ目皿\P(プッシュして開閉）
  7
symbols
 73
     1
 44
1.0
  0
LEADER
  5
A1E5
330
1F
100
AcDbEntity
  8
文字
 62
     0
100
AcDbLeader
  3
ISO-25
 73
     0
 74
     0
 75
     1
 40
8.98984771573604
 41
33.47208121827411
 76
     3
 10
561.6627360017596
 20
848.8260548025396
 30
0.0
 10
583.6161174840393
 20
861.7885914148798
 30
0.0
 10
587.1161174840393
 20
861.7885914148798
 30
0.0
340
A1E4
1001
ACAD
1000
DSTYLE
1002
{
1070
    77
1070
     0
1070
    41
1040
3.5
1070
    42
1040
14.0
1070
    43
1040
9.375
1070
    44
1040
2.5
1070
    47
1040
0.3
1070
    48
1040
0.3
1070
   140
1040
7.0
1070
   141
1040
7.0
1070
   147
1040
1.399999999999999
1070
   176
1070
     0
1070
   177
1070
   256
1070
   178
1070
   256
1002
}
  0
LINE
  5
A1E6
330
1F
100
AcDbEntity
  8
図枠
 62
     0
100
AcDbLine
 10
510.2821888219715
 20
702.5497166314673
 30
0.0
 11
446.2821888226137
 21
702.5497166314673
 31
0.0
  0
MTEXT
  5
A1E7
330
1F
100
AcDbEntity
  8
図枠
 62
     0
100
AcDbMText
 10
478.2821888222938
 20
698.0697166315121
 30
0.0
 40
5.7599999999424
 41
64.0
 46
0.0
 71
     5
 72
     5
  1
PICOLO
  7
symbols
 73
     1
 44
1.0
  0
LWPOLYLINE
  5
A1E8
330
1F
100
AcDbEntity
  8
図枠
 62
     0
100
AcDbPolyline
 90
        4
 70
     1
 43
0.0
 10
446.2821888226137
 20
693.5897166315572
 10
712.5221888199408
 20
693.5897166315572
 10
712.5221888199409
 20
882.1406667984422
 10
446.2821888226139
 20
882.1406667984426
  0
LINE
  5
A1E9
330
1F
100
AcDbEntity
  8
図枠
 62
     0
100
AcDbLine
 10
446.2821888226137
 20
708.9497166314031
 30
0.0
 11
556.3621888215086
 21
708.9497166314031
 31
0.0
  0
MTEXT
  5
A1EA
330
1F
100
AcDbEntity
  8
図枠
 62
     0
100
AcDbMText
 10
451.3673444913325
 20
705.7497166314351
 30
0.0
 40
3.8399999999616
 41
9.942777365798937
 46
0.0
 71
     5
 72
     5
  1
日付
  7
symbols
 73
     1
 44
1.0
  0
LINE
  5
A1EB
330
1F
100
AcDbEntity
  8
図枠
 62
     0
100
AcDbLine
 10
457.8021888224982
 20
708.9497166314031
 30
0.0
 11
457.8021888224982
 21
702.5497166314673
 31
0.0
  0
MTEXT
  5
A1EC
330
1F
100
AcDbEntity
  8
文字
 62
     0
100
AcDbMText
 10
676.0421888203088
 20
698.0697166315121
 30
0.0
 40
4.0
 41
72.95999999999999
 46
0.0
 71
     5
 72
     5
  1
P6プッシュ式排水口金32
  7
symbols
 73
     1
 44
1.0
  0
LINE
  5
A1ED
330
1F
100
AcDbEntity
  8
図枠
 62
     0
100
AcDbLine
 10
712.5221888199408
 20
702.5497166314673
 30
0.0
 11
556.3621888215085
 21
702.5497166314673
 31
0.0
  0
LINE
  5
A1EE
330
1F
100
AcDbEntity
  8
図枠
 62
     0
100
AcDbLine
 10
712.5221888199409
 20
708.9497166314031
 30
0.0
 11
556.3621888215086
 21
708.9497166314031
 31
0.0
  0
MTEXT
  5
A1EF
330
1F
100
AcDbEntity
  8
図枠
 62
     0
100
AcDbMText
 10
557.6421888214958
 20
707.6697166314159
 30
0.0
 40
3.199999999967872
 41
16.6805356358817
 46
0.0
 71
     1
 72
     5
  1
社内品番
  7
symbols
 73
     1
 44
1.0
  0
MTEXT
  5
A1F0
330
1F
100
AcDbEntity
  8
図枠
 62
     0
100
AcDbMText
 10
510.9221888219649
 20
708.3097166314094
 30
0.0
 40
3.199999999967872
 41
8.482384433966766
 46
0.0
 71
     1
 72
     5
  1
承認
  7
symbols
 73
     1
 44
1.0
  0
MTEXT
  5
A1F1
330
1F
100
AcDbEntity
  8
文字
 62
     0
100
AcDbMText
 10
484.042188822236
 20
705.7497166314351
 30
0.0
 40
4.479999999955199
 41
52.48
 46
0.0
 71
     5
 72
     5
  1
2012/01/10
  7
symbols
 73
     1
 44
1.0
  0
LINE
  5
A1F2
330
1F
100
AcDbEntity
  8
図枠
 62
     0
100
AcDbLine
 10
510.2821888219715
 20
708.9497166314031
 30
0.0
 11
510.2821888219715
 21
693.5897166315574
 31
0.0
  0
LINE
  5
A1F3
330
1F
100
AcDbEntity
  8
図枠
 62
     0
100
AcDbLine
 10
525.6421888218173
 20
708.9497166314031
 30
0.0
 11
525.6421888218171
 21
693.5897166315574
 31
0.0
  0
MTEXT
  5
A1F4
330
1F
100
AcDbEntity
  8
図枠
 62
     0
100
AcDbMText
 10
526.2821888218105
 20
708.3097166314094
 30
0.0
 40
3.199999999967872
 41
8.351067123952645
 46
0.0
 71
     1
 72
     5
  1
作図
  7
symbols
 73
     1
 44
1.0
  0
LINE
  5
A1F5
330
1F
100
AcDbEntity
  8
図枠
 62
     0
100
AcDbLine
 10
556.3621888215085
 20
702.5497166314673
 30
0.0
 11
556.3621888215085
 21
693.5897166315574
 31
0.0
  0
LINE
  5
A1F6
330
1F
100
AcDbEntity
  8
図枠
 62
     0
100
AcDbLine
 10
541.0021888216629
 20
708.9497166314031
 30
0.0
 11
541.0021888216627
 21
693.5897166315574
 31
0.0
  0
MTEXT
  5
A1F7
330
1F
100
AcDbEntity
  8
文字
 62
     0
100
AcDbMText
 10
542.4507767538643
 20
702.1482533315968
 30
0.0
 40
5.1199999999488
 41
12.82451967508163
 46
0.0
 71
     1
 72
     5
  1
Free
  7
symbols
 73
     1
 44
1.0
  0
MTEXT
  5
A1F8
330
1F
100
AcDbEntity
  8
図枠
 62
     0
100
AcDbMText
 10
541.6421888216565
 20
708.3097166314094
 30
0.0
 40
3.199999999967872
 41
8.219749813938527
 46
0.0
 71
     1
 72
     5
  1
尺度
  7
symbols
 73
     1
 44
1.0
  0
LINE
  5
A1F9
330
1F
100
AcDbEntity
  8
図枠
 62
     0
100
AcDbLine
 10
556.3621888215086
 20
708.9497166314031
 30
0.0
 11
556.3621888215085
 21
702.5497166314673
 31
0.0
  0
LINE
  5
A1FA
330
1F
100
AcDbEntity
  8
図枠
 62
     0
100
AcDbLine
 10
629.3221888207759
 20
702.5497166314673
 30
0.0
 11
629.3221888207759
 21
693.5897166315574
 31
0.0
  0
MTEXT
  5
A1FB
330
1F
100
AcDbEntity
  8
図枠
 62
     0
100
AcDbMText
 10
613.9621888209299
 20
701.2697166314801
 30
0.0
 40
5.119999999948596
 41
12.66564966516338
 46
0.0
 71
     1
 72
     5
  1
御中
  7
symbols
 73
     1
 44
1.0
  0
LINE
  5
A1FC
330
1F
100
AcDbEntity
  8
図枠
 62
     0
100
AcDbLine
 10
629.3221888207759
 20
702.5497166314673
 30
0.0
 11
629.3221888207762
 21
708.9497166314031
 31
0.0
  0
MTEXT
  5
A1FD
330
1F
100
AcDbEntity
  8
図枠
 62
     0
100
AcDbMText
 10
634.4421888207248
 20
705.7497166314351
 30
0.0
 40
3.26399999996736
 41
10.2399999998976
 46
0.0
 71
     5
 72
     5
  1
型番
  7
symbols
 73
     1
 44
1.0
  0
MTEXT
  5
A1FE
330
1F
100
AcDbEntity
  8
図枠
 62
     0
100
AcDbMText
 10
634.4421888207248
 20
698.0697166315121
 30
0.0
 40
3.199999999967999
 41
10.2399999998976
 46
0.0
 71
     5
 72
     5
  1
品名
  7
symbols
 73
     1
 44
1.0
  0
MTEXT
  5
A1FF
330
1F
100
AcDbEntity
  8
文字
 62
     0
100
AcDbMText
 10
676.0421888203088
 20
705.7497166314351
 30
0.0
 40
5.1199999999488
 41
72.95999999927039
 46
0.0
 71
     5
 72
     5
  1
Parts
  7
symbols
 73
     1
 44
1.0
  0
MTEXT
  5
A200
102
{ACAD_REACTORS
330
A201
102
}
330
1F
100
AcDbEntity
  8
文字
 62
     0
100
AcDbMText
 10
585.8473822891403
 20
812.4535085682783
 30
0.0
 40
3.0
 41
0.0
 46
0.0
 71
     4
 72
     1
  1
締付けボルト\P（4mm六角レンチ必要）　
  7
symbols
 73
     1
 44
1.0
  0
LEADER
  5
A201
330
1F
100
AcDbEntity
  8
文字
 62
     0
100
AcDbLeader
  3
ISO-25
 73
     0
 74
     0
 75
     1
 40
8.822335025380709
 41
38.2994923857868
 76
     3
 10
539.2356764053352
 20
828.1041244411589
 30
0.0
 10
580.9473822891403
 20
812.4535085682783
 30
0.0
 10
584.4473822891403
 20
812.4535085682783
 30
0.0
340
A200
1001
ACAD
1000
DSTYLE
1002
{
1070
    77
1070
     0
1070
    41
1040
3.5
1070
    42
1040
14.0
1070
    43
1040
9.375
1070
    44
1040
2.5
1070
    47
1040
0.3
1070
    48
1040
0.3
1070
   140
1040
7.0
1070
   141
1040
7.0
1070
   147
1040
1.399999999999999
1070
   176
1070
     0
1070
   177
1070
   256
1070
   178
1070
   256
1002
}
  0
DIMENSION
  5
A202
330
1F
100
AcDbEntity
  8
notes
  6
Continuous
 62
     0
370
     5
100
AcDbDimension
280
     0
  2
*D8
 10
497.6608636360656
 20
873.8847986932851
 30
0.0
 11
529.6617998189126
 21
875.60642955266
 31
0.0
 70
    32
 71
     5
 42
64.001872365694
 73
     0
 74
     0
 75
     0
  3
tfrom線あり
100
AcDbAlignedDimension
 13
561.6627360017596
 23
848.8847986932851
 33
0.0
 14
497.6608636360656
 24
848.8847986932851
 34
0.0
100
AcDbRotatedDimension
1001
ACAD
1000
DSTYLE
1002
{
1070
   279
1070
     2
1070
   340
1005
11
1070
     3
1000
φ<>
1002
}
  0
LINE
  5
A203
330
1F
100
AcDbEntity
  8
AWK73-9930
  6
Continuous
 62
     0
370
    15
100
AcDbLine
 10
507.3721179287736
 20
838.1726047685246
 30
0.0
 11
551.9495448461925
 21
838.1726047685246
 31
0.0
  0
LINE
  5
A204
330
1F
100
AcDbEntity
  8
AWK73-9930
  6
Continuous
 62
     0
370
    15
100
AcDbLine
 10
505.6620441034006
 20
839.768931920587
 30
0.0
 11
553.6631402403986
 21
839.768931920587
 31
0.0
  0
LWPOLYLINE
  5
A205
330
1F
100
AcDbEntity
  8
AWK73-9930
  6
Continuous
 62
     0
370
    15
100
AcDbPolyline
 90
        5
 70
   128
 43
0.0
 10
498.0610899339512
 20
841.826232432907
 10
561.2647987236146
 20
841.826232432907
 10
561.2647987236146
 20
842.8267101384026
 10
498.0610899339512
 20
842.8267101384026
 10
498.0610899339512
 20
841.826232432907
  0
LINE
  5
A206
330
1F
100
AcDbEntity
  8
AWK73-9930
  6
Continuous
 62
     0
370
    15
100
AcDbLine
 10
508.9106913519731
 20
833.7500425494258
 30
0.0
 11
550.4123800505271
 21
833.7500425494258
 31
0.0
  0
LWPOLYLINE
  5
A207
330
1F
100
AcDbEntity
  8
AWK73-9930
  6
Continuous
 62
     0
370
    15
100
AcDbPolyline
 90
        4
 70
   128
 43
0.0
 10
508.9106913519731
 20
833.7178201946025
 10
508.9106913519731
 20
831.784831062092
 10
550.4123800505271
 20
831.784831062092
 10
550.4123800505271
 20
833.7178201946025
  0
LWPOLYLINE
  5
A208
330
1F
100
AcDbEntity
  8
AWK73-9930
  6
Continuous
 62
     0
370
    15
100
AcDbPolyline
 90
       41
 70
   128
 43
0.0
 10
561.6627360017596
 20
847.8262814108111
 10
561.6627360017596
 20
848.8260548025396
 42
0.003569248040987
 10
560.8817064806976
 20
849.2802348130158
 10
560.2962915235452
 20
849.615093017068
 42
0.0142712011626596
 10
558.3108819253862
 20
850.6767340850965
 10
557.7026308901336
 20
850.9799852358124
 42
0.0142116804054548
 10
554.469042592214
 20
852.4789571017709
 10
554.4602149031857
 20
852.4827483645912
 42
0.0141474285839078
 10
551.1647015138292
 20
853.7889449435752
 10
551.1573058405079
 20
853.7916367674151
 42
0.0140842843766651
 10
547.8082545211468
 20
854.9048282515396
 10
547.8022416269364
 20
854.9066404984351
 42
0.014025507529649
 10
544.4080413910592
 20
855.8266212941671
 10
544.4033608946824
 20
855.8277500170497
 42
0.0139739800369984
 10
540.9723995950976
 20
856.5543367746354
 10
540.9690106635312
 20
856.5549560623303
 42
0.0139322995566523
 10
537.5096611207732
 20
857.0879850444789
 10
537.5075131143225
 20
857.0882549928141
 42
0.0139018023556007
 10
534.0281679207341
 20
857.4275749379411
 42
0.0138819870323057
 10
530.5362111524932
 20
857.5731083560958
 42
0.0138820829079651
 10
527.0421245688281
 20
857.5245873750532
 42
0.0138976291445034
 10
523.554302610622
 20
857.2820143146804
 42
0.0139149183837815
 10
520.0838414218756
 20
856.845813012128
 10
520.0810596657079
 20
856.8453844437653
 42
0.0139508663405849
 10
516.6347536671678
 20
856.2155483044762
 10
516.6307054644962
 20
856.214691121896
 42
0.0139975010502796
 10
513.2169332069411
 20
855.3913767002613
 10
513.2115757385268
 20
855.3899247996996
 42
0.0140527213344352
 10
509.8387199441999
 20
854.3733049580069
 10
509.8320060897417
 20
854.3710736817329
 42
0.0141138344381667
 10
506.5084554846539
 20
853.1613421806092
 10
506.5003352917333
 20
853.1581242007769
 42
0.0141776494981673
 10
503.2344788573677
 20
851.7554990086759
 10
502.8252653675076
 20
851.5658334206641
 42
0.0142371581597094
 10
500.4135697388169
 20
850.3634846356936
 10
499.8217204413454
 20
850.0470700728159
 42
0.0071404823851611
 10
498.6373226333175
 20
849.3919499013122
 10
498.4419838129447
 20
849.2802307930142
 42
0.003570998907396
 10
497.6608636360656
 20
848.8260548025396
 10
497.6608636360656
 20
847.8262814108111
 10
561.6627360017596
 20
847.8262814108111
  0
LWPOLYLINE
  5
A209
330
1F
100
AcDbEntity
  8
AWK73-9930
  6
Continuous
 62
     0
370
    15
100
AcDbPolyline
 90
        6
 70
   128
 43
0.0
 10
550.4123800505271
 20
780.8456900476053
 10
550.4123800505271
 20
772.3456793550553
 10
548.9114874138436
 20
770.8454910321379
 10
510.4105275180067
 20
770.8454910321379
 10
508.9106913519731
 20
772.3456793550553
 10
508.9106913519731
 20
780.8456900476053
  0
LWPOLYLINE
  5
A20A
330
1F
100
AcDbEntity
  8
AWK73-9930
  6
Continuous
 62
     0
370
    15
100
AcDbPolyline
 90
        5
 70
   128
 43
0.0
 10
561.1147798913229
 20
808.8488532518512
 10
561.1147798913229
 20
811.8460604857364
 10
498.2104044524771
 20
811.8460604857364
 10
498.2104044524771
 20
808.8488532518512
 10
561.1147798913229
 20
808.8488532518512
  0
LINE
  5
A20B
330
1F
100
AcDbEntity
  8
AWK73-9930
  6
Continuous
 62
     0
370
    15
100
AcDbLine
 10
560.6133084894841
 20
805.4487785434544
 30
0.0
 11
498.7099389914578
 21
805.4487785434544
 31
0.0
  0
LWPOLYLINE
  5
A20C
330
1F
100
AcDbEntity
  8
AWK73-9930
  6
Continuous
 62
     0
370
    15
100
AcDbPolyline
 90
        4
 70
   128
 43
0.0
 10
504.6606860056977
 20
805.4487785434544
 10
504.6606860056977
 20
780.8456900476053
 10
554.6625614752442
 20
780.8456900476053
 10
554.6625614752442
 20
805.4487785434544
  0
LINE
  5
A20D
330
1F
100
AcDbEntity
  8
AWK73-9930
  6
Continuous
 62
     0
370
     5
100
AcDbLine
 10
508.9106913519731
 20
772.3456793550553
 30
0.0
 11
550.4123800505271
 21
772.3456793550553
 31
0.0
  0
LINE
  5
A20E
330
1F
100
AcDbEntity
  8
AWK73-9930
  6
Continuous
 62
     0
370
    15
100
AcDbLine
 10
497.6608636360656
 20
848.8260548025396
 30
0.0
 11
561.6627360017596
 21
848.8260548025396
 31
0.0
  0
LINE
  5
A20F
330
1F
100
AcDbEntity
  8
AWK73-9930
  6
STYLE_01
 62
     0
370
     9
100
AcDbLine
 10
529.6618878581334
 20
864.8403890712438
 30
0.0
 11
529.6618878581334
 21
761.9133838437615
 31
0.0
  0
LINE
  5
A210
330
1F
100
AcDbEntity
  8
AWK73-9930
  6
Continuous
 62
     0
370
     5
100
AcDbLine
 10
510.4105275180067
 20
770.8454910321379
 30
0.0
 11
510.4105275180067
 21
780.8456900476053
 31
0.0
  0
LINE
  5
A211
330
1F
100
AcDbEntity
  8
AWK73-9930
  6
Continuous
 62
     0
370
    15
100
AcDbLine
 10
498.0610899339512
 20
841.826232432907
 30
0.0
 11
505.6620441034006
 21
839.768931920587
 31
0.0
  0
DIMENSION
  5
A212
330
1F
100
AcDbEntity
  8
notes
  6
Continuous
 62
     0
370
     5
100
AcDbDimension
280
     0
  2
*D9
 10
473.0610899339512
 20
842.8267101384026
 30
0.0
 11
471.3394590745761
 21
827.3363853120695
 31
0.0
 70
    32
  1
MAX.50
 71
     5
 42
30.98064965266622
 73
     0
 74
     0
 75
     0
  3
tfrom線あり
100
AcDbAlignedDimension
 13
498.2104044524771
 23
811.8460604857364
 33
0.0
 14
498.0610899339512
 24
842.8267101384026
 34
0.0
 50
90.0
100
AcDbRotatedDimension
1001
ACAD
1000
DSTYLE
1002
{
1070
   279
1070
     2
1070
   340
1005
9A3A
1002
}
  0
LWPOLYLINE
  5
A213
330
1F
100
AcDbEntity
  8
AWK73-9930
  6
Continuous
 62
     0
370
    15
100
AcDbPolyline
 90
       49
 70
   128
 43
0.0
 10
498.7099389914578
 20
808.8488532518512
 10
498.709045888499
 20
808.8488502681643
 42
0.0124442569184911
 10
498.6830557191438
 20
808.8481164220457
 42
0.0140765873539204
 10
498.6571432450741
 20
808.8460059560574
 10
498.6562886175966
 20
808.8459120695475
 42
0.0139996459612352
 10
498.6289624933692
 20
808.8421332253556
 10
498.6289394808632
 20
808.8421293836905
 42
0.0139362149333324
 10
498.6019126775723
 20
808.8368395117013
 10
498.6018983967792
 20
808.8368363009291
 42
0.0138885481933461
 10
498.5752359250214
 20
808.830058652542
 42
0.0138552348807121
 10
498.5489963353879
 20
808.8218147353831
 42
0.0138472540973784
 10
498.5232581257946
 20
808.812131866197
 42
0.0138582073893028
 10
498.4980855474964
 20
808.8010341394438
 42
0.0138787271650143
 10
498.4735582853341
 20
808.7885540417905
 10
498.4735427332521
 20
808.7885455771493
 42
0.0139214895358298
 10
498.4497163126993
 20
808.7747040775694
 10
498.4496938876577
 20
808.7746902011813
 42
0.0139801012180769
 10
498.4266325349913
 20
808.7595124955674
 10
498.4266032372129
 20
808.7594920171451
 42
0.0140523261579424
 10
498.4043712397173
 20
808.7430034825779
 10
498.4016281043509
 20
808.7408469448927
 42
0.0141350456886951
 10
498.3855790342481
 20
808.7274788800769
 10
498.384300119244
 20
808.7263508792288
 42
0.0070614722258565
 10
498.3713528059756
 20
808.7146021534685
 42
0.0113561972811683
 10
498.3588489093468
 20
808.702386534358
 10
498.355169386878
 20
808.6986247824116
 42
0.0139520208903816
 10
498.3364291979082
 20
808.6783646758613
 10
498.3364089190522
 20
808.6783414866326
 42
0.0134270538476567
 10
498.3188443753529
 20
808.6571329645057
 10
498.3188296014345
 20
808.6571141175168
 42
0.0133933836648699
 10
498.3024558362308
 20
808.6350328452398
 10
498.3024459664853
 20
808.6350187618695
 42
0.0133728409295846
 10
498.2872960396084
 20
808.6121217098124
 42
0.0133660767598141
 10
498.2733974325141
 20
808.5884575724403
 42
0.0133895121303139
 10
498.2607927110034
 20
808.5640988199875
 42
0.013433093692141
 10
498.2495142799393
 20
808.5391033028104
 42
0.0134969709076652
 10
498.2395945483108
 20
808.513528842208
 42
0.0135721521047157
 10
498.231070375557
 20
808.4874479801596
 10
498.2310660456874
 20
808.4874334039842
 42
0.0136676855966053
 10
498.2239667847493
 20
808.4608978669935
 10
498.2239613180476
 20
808.4608749413137
 42
0.0137771725287332
 10
498.2183188246567
 20
808.4339439510095
 10
498.2183129387463
 20
808.4339114164453
 42
0.0138958801025731
 10
498.2141588255076
 20
808.4066443798574
 10
498.213839630835
 20
808.4040707877534
 42
0.017551892692653
 10
498.2112364233612
 20
808.3746649047643
 10
498.2110996237119
 20
808.3720957348141
 42
0.0124073239706574
 10
498.2104075696493
 20
808.3477196054172
 10
498.2104044524771
 20
808.3459732224786
  0
LWPOLYLINE
  5
A214
330
1F
100
AcDbEntity
  8
AWK73-9930
  6
Continuous
 62
     0
370
    15
100
AcDbPolyline
 90
       34
 70
   128
 43
0.0
 10
498.2104044524771
 20
808.3459732224786
 10
498.2104044524771
 20
805.946024062694
 10
498.2104205751752
 20
805.9430955989537
 42
0.023199158013714
 10
498.2127514433054
 20
805.8982212379223
 10
498.2127664923896
 20
805.8980686151809
 42
0.0228453587782126
 10
498.2191696085724
 20
805.8539004219623
 10
498.2191874784534
 20
805.8538073292751
 42
0.0225592004716144
 10
498.2295251143482
 20
805.8105846922744
 10
498.2295377082378
 20
805.8105408746806
 42
0.0222922942134623
 10
498.243676449359
 20
805.7685032113305
 42
0.0220661019322142
 10
498.2614826121785
 20
805.7278854553324
 42
0.0218904848885035
 10
498.2827847301682
 20
805.6889899978351
 10
498.2828024918558
 20
805.6889606888976
 42
0.021808472346344
 10
498.3074560329928
 20
805.6520155118464
 10
498.3099319477428
 20
805.6486343221914
 42
0.0216646390673617
 10
498.3326415591977
 20
805.6202841143623
 42
0.0144856709331533
 10
498.3573523811078
 20
805.5936344155679
 10
498.3574868874089
 20
805.5934975309801
 42
0.0187875685871695
 10
498.3841863329812
 20
805.568293708502
 10
498.3852717685427
 20
805.5673435885173
 42
0.0238141549050472
 10
498.4162629016786
 20
805.5427200085137
 10
498.4185264903349
 20
805.5410910557483
 42
0.0234542194862616
 10
498.4559912457402
 20
805.5167119811839
 10
498.4560364176799
 20
805.5166855152965
 42
0.0230606026208613
 10
498.4955123878621
 20
805.4959394010476
 42
0.0226865421371516
 10
498.5367190540251
 20
805.4788859525915
 42
0.0223584837097442
 10
498.5792931065511
 20
805.4656082565584
 10
498.5793336831506
 20
805.4655975663445
 42
0.0220952725074226
 10
498.6230013345662
 20
805.4561338644353
 10
498.6243681176124
 20
805.4559003198392
 42
0.0219008930287896
 10
498.6662651166457
 20
805.4506169133638
 10
498.6676182248906
 20
805.4505061890107
 42
0.0190613687038246
 10
498.707106135284
 20
805.448786209688
 10
498.7099389914578
 20
805.4487785434544
  0
LWPOLYLINE
  5
A215
330
1F
100
AcDbEntity
  8
AWK73-9930
  6
Continuous
 62
     0
370
    15
100
AcDbPolyline
 90
       29
 70
   128
 43
0.0
 10
508.9106913519731
 20
833.7178201946025
 10
507.3721179287736
 20
838.1726047685246
 42
0.0023303207285302
 10
507.3643544427163
 20
838.1946694854118
 10
507.350647661518
 20
838.233053406188
 42
0.0186005959381508
 10
507.3117450375234
 20
838.3304020567852
 10
507.295115739434
 20
838.3679035608279
 42
0.0184834213452165
 10
507.214196506116
 20
838.5335795340216
 10
507.213976611501
 20
838.5339905042737
 42
0.0183706984562323
 10
507.1215463833364
 20
838.6924550238999
 10
507.1213648877114
 20
838.6927414644711
 42
0.0182743708694552
 10
507.0179632297309
 20
838.8434554777649
 10
507.0178329686436
 20
838.843631213594
 42
0.0182051530063855
 10
506.9039937352967
 20
838.986066996696
 10
506.903919040667
 20
838.9861537793159
 42
0.0181623427588957
 10
506.7801860450885
 20
839.1197736564048
 42
0.0181543626545147
 10
506.64709257214
 20
839.2440546090865
 42
0.0181817179863547
 10
506.5053368760032
 20
839.3583362538288
 10
506.5052604884363
 20
839.3583933825585
 42
0.0182411732892067
 10
506.355407911687
 20
839.4621640626397
 10
506.3552352449683
 20
839.4622745384568
 42
0.0183295359116766
 10
506.1978489587468
 20
839.5550258025901
 10
506.1975640378509
 20
839.5551799334466
 42
0.0184408965372182
 10
506.0332098780905
 20
839.636404146865
 10
506.0327938924524
 20
839.6365909739643
 42
0.0185670128166909
 10
505.8620408140755
 20
839.7057821675899
 10
505.8614730850745
 20
839.7059880301377
 42
0.0186910408256245
 10
505.6848956241815
 20
839.7626448731443
 10
505.6845817012012
 20
839.7627328045714
 42
0.0023436473272575
 10
505.6620441034006
 20
839.768931920587
 42
0.0023436473272575
  0
LINE
  5
A216
330
1F
100
AcDbEntity
  8
AWK73-9930
  6
Continuous
 62
     0
370
    15
100
AcDbLine
 10
527.8010908867022
 20
831.784831062092
 30
0.0
 11
527.8010908867022
 21
811.8460604857364
 31
0.0
  0
LINE
  5
A217
330
1F
100
AcDbEntity
  8
AWK73-9930
  6
Continuous
 62
     0
370
    15
100
AcDbLine
 10
527.3112406620125
 20
831.784831062092
 30
0.0
 11
527.3112406620125
 21
811.8460604857364
 31
0.0
  0
LINE
  5
A218
330
1F
100
AcDbEntity
  8
AWK73-9930
  6
Continuous
 62
     0
370
    15
100
AcDbLine
 10
512.1616276202862
 20
847.8262814108111
 30
0.0
 11
512.1616276202862
 21
842.8267101384026
 31
0.0
  0
DIMENSION
  5
A219
330
1F
100
AcDbEntity
  8
notes
  6
Continuous
 62
     0
370
     5
100
AcDbDimension
280
     0
  2
*D10
 10
579.6625614752442
 20
780.8456900476053
 30
0.0
 11
577.940930615869
 21
796.345875266671
 31
0.0
 70
    32
 71
     5
 42
31.00037043813109
 73
     0
 74
     0
 75
     0
  3
tfrom線あり
100
AcDbAlignedDimension
 13
561.1147798913229
 23
811.8460604857364
 33
0.0
 14
554.6625614752442
 24
780.8456900476053
 34
0.0
 50
90.0
100
AcDbRotatedDimension
1001
ACAD
1000
DSTYLE
1002
{
1070
   279
1070
     2
1070
   340
1005
9A3A
1002
}
  0
DIMENSION
  5
A21A
330
1F
100
AcDbEntity
  8
notes
  6
Continuous
 62
     0
370
     5
100
AcDbDimension
280
     0
  2
*D11
 10
579.6625614752442
 20
780.8456900476053
 30
0.0
 11
577.940930615869
 21
775.8455905398717
 31
0.0
 70
    32
 71
     5
 42
10.00019901546739
 73
     0
 74
     0
 75
     0
  3
tfrom線あり
100
AcDbAlignedDimension
 13
548.9114874138436
 23
770.8454910321379
 33
0.0
 14
554.6625614752442
 24
780.8456900476053
 34
0.0
 50
90.0
100
AcDbRotatedDimension
1001
ACAD
1000
DSTYLE
1002
{
1070
   279
1070
     2
1070
   340
1005
9A3A
1002
}
  0
LINE
  5
A21B
330
1F
100
AcDbEntity
  8
AWK73-9930
  6
Continuous
 62
     0
370
     5
100
AcDbLine
 10
548.9114874138436
 20
770.8454910321379
 30
0.0
 11
548.9114874138436
 21
780.8456900476053
 31
0.0
  0
LINE
  5
A21C
330
1F
100
AcDbEntity
  8
AWK73-9930
  6
Continuous
 62
     0
370
    15
100
AcDbLine
 10
561.2647987236146
 20
841.826232432907
 30
0.0
 11
553.6631402403986
 21
839.768931920587
 31
0.0
  0
LINE
  5
A21D
330
1F
100
AcDbEntity
  8
AWK73-9930
  6
Continuous
 62
     0
370
    15
100
AcDbLine
 10
550.4123800505271
 20
833.7178201946025
 30
0.0
 11
551.9495448461925
 21
838.1726047685246
 31
0.0
  0
LINE
  5
A21E
330
1F
100
AcDbEntity
  8
AWK73-9930
  6
Continuous
 62
     0
370
    15
100
AcDbLine
 10
531.5226848295647
 20
831.784831062092
 30
0.0
 11
531.5226848295647
 21
811.8460604857364
 31
0.0
  0
LINE
  5
A21F
330
1F
100
AcDbEntity
  8
AWK73-9930
  6
Continuous
 62
     0
370
    15
100
AcDbLine
 10
532.0125350542544
 20
831.784831062092
 30
0.0
 11
532.0125350542544
 21
811.8460604857364
 31
0.0
  0
LWPOLYLINE
  5
A220
330
1F
100
AcDbEntity
  8
AWK73-9930
  6
Continuous
 62
     0
370
    15
100
AcDbPolyline
 90
       37
 70
   128
 43
0.0
 10
553.6631402403986
 20
839.768931920587
 42
0.0016301228294357
 10
553.6473150942669
 20
839.764630623952
 10
553.6197521142744
 20
839.7570423812357
 42
0.0130572001023752
 10
553.5493731285137
 20
839.735674786762
 10
553.5220720114498
 20
839.726600931851
 42
0.013014667557498
 10
553.4002965639151
 20
839.6825761953055
 10
553.3999862779914
 20
839.682454799059
 42
0.0129662905393019
 10
553.2812751878241
 20
839.6324235814581
 10
553.2810238648048
 20
839.6323098992283
 42
0.0129163662472324
 10
553.1655564946154
 20
839.576443708048
 10
553.1653586372781
 20
839.576341590814
 42
0.0128670680666488
 10
553.0533140603942
 20
839.5148124508468
 10
553.0531645090364
 20
839.5147252430797
 42
0.01282051037594
 10
552.9447214303204
 20
839.4477056224632
 10
552.944615412814
 20
839.447636284086
 42
0.012778522285276
 10
552.839952132957
 20
839.3752989709177
 10
552.8398852944669
 20
839.3752502059733
 42
0.0127426259399772
 10
552.7391796911484
 20
839.2977681772526
 42
0.012709921392112
 10
552.6425776437259
 20
839.2152888686505
 42
0.0126935261833838
 10
552.5503195081914
 20
839.1280365661737
 42
0.0126856388230752
 10
552.4625788083144
 20
839.0361867020933
 42
0.0126784216098408
 10
552.3795801851052
 20
838.9399769934453
 10
552.379529306439
 20
838.9399149005866
 42
0.0126837826503165
 10
552.301416730153
 20
838.8394942400733
 10
552.3013447194566
 20
838.8393966538734
 42
0.0126970750791874
 10
552.2282888864515
 20
838.7349434863264
 10
552.2281986743305
 20
838.7348072656786
 42
0.0127174950179515
 10
552.1603705667371
 20
838.626500680616
 10
552.1602649494503
 20
838.6263220918099
 42
0.0127434477640705
 10
552.0978353323567
 20
838.5143414472608
 10
552.0977174412378
 20
838.5141167035062
 42
0.0127745948305036
 10
552.040857305757
 20
838.3986422083717
 10
552.0374555328658
 20
838.3912638872775
 42
0.0128053951908832
 10
551.9925147654525
 20
838.2868360479482
 10
551.9895468624086
 20
838.2794223030236
 42
0.0096244463773525
 10
551.9549766583828
 20
838.1880052964048
 42
0.0016043098802454
 10
551.9495448461925
 20
838.1726047685246
 42
0.0016043098802454
  0
LINE
  5
A221
330
1F
100
AcDbEntity
  8
AWK73-9930
  6
Continuous
 62
     0
370
    15
100
AcDbLine
 10
547.1612677037724
 20
847.8262814108111
 30
0.0
 11
547.1612677037724
 21
842.8267101384026
 31
0.0
  0
LWPOLYLINE
  5
A222
330
1F
100
AcDbEntity
  8
AWK73-9930
  6
Continuous
 62
     0
370
    15
100
AcDbPolyline
 90
       51
 70
   128
 43
0.0
 10
561.1147798913229
 20
808.3459732224786
 10
561.1147769152453
 20
808.3468788489108
 42
0.0123373122097484
 10
561.1140481338057
 20
808.3729376019636
 42
0.0140066973325145
 10
561.1119482795916
 20
808.3989195343161
 10
561.1118549929874
 20
808.3997747023612
 42
0.013974234941058
 10
561.1080965633296
 20
808.4271169305292
 10
561.1080909671995
 20
808.4271506318451
 42
0.0139459821396504
 10
561.1028255395344
 20
808.4541735028105
 10
561.1028207141266
 20
808.4541950481161
 42
0.0139236222881211
 10
561.0960689406296
 20
808.4808398820101
 42
0.0139031831890558
 10
561.0878486930037
 20
808.5070580573452
 42
0.0139017955248024
 10
561.0781867062619
 20
808.5327700165853
 42
0.0139086551979633
 10
561.0671048755762
 20
808.5579177389426
 42
0.0139113727638281
 10
561.054636690837
 20
808.5824218704205
 10
561.0546250795119
 20
808.5824432008244
 42
0.0139278199099989
 10
561.0407882761533
 20
808.6062575190544
 10
561.0407691822879
 20
808.6062883699133
 42
0.0139504022939569
 10
561.0255869908883
 20
808.6293552042929
 10
561.0255590390411
 20
808.62939519684
 42
0.0139774514791146
 10
561.0090547908026
 20
808.6516568737037
 10
561.0090164977459
 20
808.651705616141
 42
0.0140099719554028
 10
560.9912135089957
 20
808.6731043763903
 10
560.9899975463827
 20
808.6744853371252
 42
0.017583942064725
 10
560.9683573125326
 20
808.697385805538
 10
560.9658175296813
 20
808.6998908902096
 10
560.9651623128242
 20
808.7005517662054
 42
0.0119348480506322
 10
560.9462466100572
 20
808.7187412778666
 42
0.0136412224271385
 10
560.9264274005704
 20
808.7359383960023
 10
560.9257576848863
 20
808.7364882148204
 42
0.0136991230923139
 10
560.9039091545751
 20
808.7534450690117
 10
560.9038574825158
 20
808.7534829505385
 42
0.0137551912727591
 10
560.8812167435912
 20
808.7691423446576
 10
560.881175446279
 20
808.7691692592766
 42
0.0138095116568848
 10
560.8577903862165
 20
808.7835058551942
 10
560.8577605041432
 20
808.7835230580799
 42
0.0138620333076306
 10
560.8336790086427
 20
808.7965114872135
 10
560.8336615813909
 20
808.7965202720234
 42
0.0139124728231827
 10
560.8089315340107
 20
808.8081351207984
 42
0.0139580351054448
 10
560.7835968856411
 20
808.8183526274738
 42
0.0140101810638839
 10
560.7577239893585
 20
808.827139870004
 42
0.0140437209049391
 10
560.7313883854144
 20
808.8344660993925
 10
560.7313617760515
 20
808.8344727026369
 42
0.0140767707539624
 10
560.7046025174554
 20
808.8403187756444
 10
560.7045591841938
 20
808.8403269719766
 42
0.0141018141122861
 10
560.6774261106607
 20
808.8446705171168
 10
560.6773651622074
 20
808.8446785184887
 42
0.014121391795297
 10
560.6499080447888
 20
808.8474970429547
 10
560.6480826666689
 20
808.8476324647016
 42
0.0176421122147279
 10
560.6168524150785
 20
808.8488439342832
 10
560.6150593861525
 20
808.8488501947345
 10
560.6133084894841
 20
808.8488532518512
  0
LWPOLYLINE
  5
A223
330
1F
100
AcDbEntity
  8
AWK73-9930
  6
Continuous
 62
     0
370
    15
100
AcDbPolyline
 90
       52
 70
   128
 43
0.0
 10
560.6133084894841
 20
805.4487785434544
 10
560.6142328614828
 20
805.4487813688705
 42
0.0117151390183895
 10
560.6402995130833
 20
805.4494719258528
 42
0.0134450653851184
 10
560.666296177224
 20
805.4514724956534
 10
560.6671520353507
 20
805.4515615607366
 42
0.01355817258414
 10
560.6944022207294
 20
805.4551465373652
 10
560.6944629097674
 20
805.4551562019373
 42
0.013667467108946
 10
560.7213566943023
 20
805.4601961878933
 10
560.7214009851081
 20
805.4602057480346
 42
0.013771529620959
 10
560.7478897202413
 20
805.4666916100877
 10
560.7479173715378
 20
805.466699193505
 42
0.0138688613981445
 10
560.7739523296945
 20
805.4746218973059
 42
0.013951940231079
 10
560.7994955445478
 20
805.4839761430166
 42
0.0140398451363869
 10
560.8244703749201
 20
805.494743438694
 42
0.0141029795501801
 10
560.8488057781719
 20
805.5069010717526
 10
560.8488278188993
 20
805.506912871102
 42
0.0141550022217254
 10
560.8724809934279
 20
805.5204503984718
 10
560.8725188627508
 20
805.5204735193852
 42
0.0141904144239167
 10
560.8954413724691
 20
805.5353777351056
 10
560.8954944818501
 20
805.5354144520997
 42
0.0142070614503121
 10
560.9176380907679
 20
805.5516721109119
 10
560.9177056423828
 20
805.5517247243829
 42
0.0142094280154847
 10
560.9390220948512
 20
805.5693228399222
 10
560.9404288741656
 20
805.570553084056
 42
0.017743880266795
 10
560.963296280704
 20
805.5920293680292
 10
560.9658175296813
 20
805.5945714931468
 10
560.9664807734739
 20
805.5952218489151
 42
0.0122183676466702
 10
560.9847302216999
 20
805.6140130405474
 42
0.0139263173605787
 10
561.0019711147856
 20
805.6337305531524
 10
561.00252172116
 20
805.6343968189226
 42
0.0139437109176372
 10
561.019509251118
 20
805.6561611382949
 10
561.019546449303
 20
805.6562116386325
 42
0.0139587312522098
 10
561.0352221584703
 20
805.6787864991884
 10
561.0352484904256
 20
805.6788267751462
 42
0.0139725441846221
 10
561.0495890143006
 20
805.7021596205814
 10
561.0496059204065
 20
805.7021889333705
 42
0.013986144762017
 10
561.0625879298099
 20
805.7262271862873
 10
561.0625968253748
 20
805.7262448202486
 42
0.0140002566255695
 10
561.0741970090288
 20
805.7509358875977
 42
0.0140122621025176
 10
561.084394345547
 20
805.7762324176891
 42
0.0140352660493547
 10
561.0931580257743
 20
805.8020634780545
 42
0.0140470549583118
 10
561.1004606530946
 20
805.8283536820267
 10
561.1004661260544
 20
805.8283757738777
 42
0.0140627337879325
 10
561.1062897590886
 20
805.8550791876514
 10
561.1062967101483
 20
805.8551160054006
 42
0.0140768100856796
 10
561.1106209883896
 20
805.8821786477023
 10
561.1106278312995
 20
805.8822308681424
 42
0.0140915501074954
 10
561.1134322674092
 20
805.9095987729552
 10
561.1135659915048
 20
805.9114041703397
 42
0.0176114419819963
 10
561.114770631711
 20
805.9425043674009
 10
561.1147768466703
 20
805.9442823134117
 10
561.1147798913229
 20
805.946024062694
  0
LINE
  5
A224
330
1F
100
AcDbEntity
  8
AWK73-9930
  6
Continuous
 62
     0
370
    15
100
AcDbLine
 10
561.1147798913229
 20
808.3459732224786
 30
0.0
 11
561.1147798913229
 21
805.946024062694
 31
0.0
  0
LEADER
  5
A225
330
1F
100
AcDbEntity
  8
文字
 62
     0
100
AcDbLeader
  3
ISO-25
 73
     0
 74
     0
 75
     1
 40
3.532994923857867
 41
30.60913705583756
 76
     3
 10
559.1726861972733
 20
834.4918981475915
 30
0.0
 10
571.2737058612582
 20
829.2886106583607
 30
0.0
 10
574.7737058612582
 20
829.2886106583607
 30
0.0
340
A226
1001
ACAD
1000
DSTYLE
1002
{
1070
    77
1070
     0
1070
    41
1040
3.5
1070
    42
1040
14.0
1070
    43
1040
9.375
1070
    44
1040
2.5
1070
    47
1040
0.3
1070
    48
1040
0.3
1070
   140
1040
7.0
1070
   141
1040
7.0
1070
   147
1040
1.399999999999999
1070
   176
1070
     0
1070
   177
1070
   256
1070
   178
1070
   256
1002
}
  0
MTEXT
  5
A226
102
{ACAD_REACTORS
330
A225
102
}
330
1F
100
AcDbEntity
  8
文字
 62
     0
100
AcDbMText
 10
576.1737058612582
 20
829.2886106583607
 30
0.0
 40
3.0
 41
0.0
 46
0.0
 71
     4
 72
     1
  1
スポンジパッキン
  7
symbols
 73
     1
 44
1.0
  0
MTEXT
  5
A227
102
{ACAD_REACTORS
330
A228
102
}
330
1F
100
AcDbEntity
  8
文字
 62
     0
100
AcDbMText
 10
591.5623624605248
 20
785.8062772306928
 30
0.0
 40
3.0
 41
0.0
 46
0.0
 71
     4
 72
     1
  1
異型パッキン
  7
symbols
 73
     1
 44
1.0
  0
LEADER
  5
A228
330
1F
100
AcDbEntity
  8
文字
 62
     0
100
AcDbLeader
  3
ISO-25
 73
     0
 74
     0
 75
     1
 40
3.426395939086293
 41
22.9492385786802
 76
     3
 10
560.3062859410682
 20
812.1937027979788
 30
0.0
 10
586.6623624605248
 20
785.8062772306928
 30
0.0
 10
590.1623624605248
 20
785.8062772306928
 30
0.0
340
A227
1001
ACAD
1000
DSTYLE
1002
{
1070
    77
1070
     0
1070
    41
1040
3.5
1070
    42
1040
14.0
1070
    43
1040
9.375
1070
    44
1040
2.5
1070
    47
1040
0.3
1070
    48
1040
0.3
1070
   140
1040
7.0
1070
   141
1040
7.0
1070
   147
1040
1.399999999999999
1070
   176
1070
     0
1070
   177
1070
   256
1070
   178
1070
   256
1002
}
  0
MTEXT
  5
A229
102
{ACAD_REACTORS
330
A22B
102
}
330
1F
100
AcDbEntity
  8
文字
 62
     0
100
AcDbMText
 10
577.5349194689542
 20
730.3184865472844
 30
0.0
 40
3.0
 41
0.0
 46
0.0
 71
     4
 72
     1
  1
袋ナット(1"1/4)
  7
symbols
 73
     1
 44
1.0
  0
MTEXT
  5
A22A
102
{ACAD_REACTORS
330
A22C
102
}
330
1F
100
AcDbEntity
  8
文字
 62
     0
100
AcDbMText
 10
577.5349194689542
 20
750.9046625168325
 30
0.0
 40
3.0
 41
0.0
 46
0.0
 71
     4
 72
     1
  1
平パッキン
  7
symbols
 73
     1
 44
1.0
  0
LEADER
  5
A22B
330
1F
100
AcDbEntity
  8
文字
 62
     0
100
AcDbLeader
  3
ISO-25
 73
     0
 74
     0
 75
     1
 40
3.639593908629441
 41
28.12690355329949
 76
     3
 10
554.9879883737239
 20
738.8168048365778
 30
0.0
 10
572.6349194689541
 20
730.3184865472844
 30
0.0
 10
576.1349194689541
 20
730.3184865472844
 30
0.0
340
A229
1001
ACAD
1000
DSTYLE
1002
{
1070
    77
1070
     0
1070
    41
1040
3.5
1070
    42
1040
14.0
1070
    43
1040
9.375
1070
    44
1040
2.5
1070
    47
1040
0.3
1070
    48
1040
0.3
1070
   140
1040
7.0
1070
   141
1040
7.0
1070
   147
1040
1.399999999999999
1070
   176
1070
     0
1070
   177
1070
   256
1070
   178
1070
   256
1002
}
  0
LEADER
  5
A22C
330
1F
100
AcDbEntity
  8
文字
 62
     0
100
AcDbLeader
  3
ISO-25
 73
     0
 74
     0
 75
     1
 40
3.365482233502537
 41
18.91370558375634
 76
     3
 10
550.4123800505271
 20
758.5956793550553
 30
0.0
 10
572.6349194689541
 20
750.9046625168325
 30
0.0
 10
576.1349194689541
 20
750.9046625168325
 30
0.0
340
A22A
1001
ACAD
1000
DSTYLE
1002
{
1070
    77
1070
     0
1070
    41
1040
3.5
1070
    42
1040
14.0
1070
    43
1040
9.375
1070
    44
1040
2.5
1070
    47
1040
0.3
1070
    48
1040
0.3
1070
   140
1040
7.0
1070
   141
1040
7.0
1070
   147
1040
1.399999999999999
1070
   176
1070
     0
1070
   177
1070
   256
1070
   178
1070
   256
1002
}
  0
ELLIPSE
  5
A22D
330
1F
100
AcDbEntity
  8
外形線
 62
     0
100
AcDbEllipse
 10
510.6093289748758
 20
740.4133838437615
 30
0.0
 11
-5.669270235224303
 21
0.0
 31
0.0
210
0.0
220
0.0
230
-1.0
 40
0.3527790909619276
 41
3.141592653589793
 42
5.390273084777303
  0
ELLIPSE
  5
A22E
330
1F
100
AcDbEntity
  8
外形線
 62
     0
100
AcDbEllipse
 10
510.6093289748758
 20
746.9133838437614
 30
0.0
 11
-5.669270235224303
 21
0.0
 31
0.0
210
0.0
220
0.0
230
1.0
 40
0.3527790909619276
 41
3.141592653589793
 42
5.390273084777303
  0
LINE
  5
A22F
330
1F
100
AcDbEntity
  8
外形線
 62
     0
100
AcDbLine
 10
507.6618878581334
 20
748.9133838437615
 30
0.0
 11
551.6618878558439
 21
748.9133838437615
 31
0.0
  0
LINE
  5
A230
330
1F
100
AcDbEntity
  8
外形線
 62
     0
100
AcDbLine
 10
507.6618878581335
 20
738.4133838437614
 30
0.0
 11
551.661887855844
 21
738.4133838437614
 31
0.0
  0
LINE
  5
A231
330
1F
100
AcDbEntity
  8
外形線
 62
     0
100
AcDbLine
 10
504.9118878581334
 20
740.4133838437615
 30
0.0
 11
507.6618878581334
 21
738.4133838437614
 31
0.0
  0
LINE
  5
A232
330
1F
100
AcDbEntity
  8
外形線
 62
     0
100
AcDbLine
 10
504.9118878581334
 20
746.9133838437614
 30
0.0
 11
507.6618878581334
 21
748.9133838437615
 31
0.0
  0
LINE
  5
A233
330
1F
100
AcDbEntity
  8
外形線
 62
     0
100
AcDbLine
 10
504.9118878581334
 20
740.4133838437615
 30
0.0
 11
504.9118878581334
 21
746.9133838437614
 31
0.0
  0
HATCH
  5
A234
330
1F
100
AcDbEntity
  8
ハッチング
 62
     0
100
AcDbHatch
 10
0.0
 20
0.0
 30
0.0
210
0.0
220
0.0
230
1.0
  2
SOLID
 70
     1
 71
     1
 91
        2
 92
        7
 72
     0
 73
     1
 93
        4
 10
544.4118878581334
 20
759.9133838437615
 10
544.4118878581334
 20
761.9133838437615
 10
509.6618878581335
 20
761.9133838437615
 10
509.6618878581335
 20
759.9133838437615
 97
        4
330
A236
330
A23D
330
A235
330
A247
 92
        7
 72
     0
 73
     1
 93
        4
 10
549.6618878581334
 20
759.9133838437615
 10
549.6618878581334
 20
761.9133838437615
 10
544.4118878581334
 20
761.9133838437615
 10
544.4118878581334
 20
759.9133838437615
 97
        4
330
A236
330
A247
330
A235
330
A248
 75
     0
 76
     1
 47
0.0795662181419485
 98
        2
 10
531.0442737395986
 20
760.7225125827526
 10
546.483162447864
 20
760.8020782516705
450
        0
451
        0
460
0.0
461
0.0
452
        0
462
0.0
453
        0
470

  0
LINE
  5
A235
102
{ACAD_REACTORS
330
A234
102
}
330
1F
100
AcDbEntity
  8
外形線
 62
     0
100
AcDbLine
 10
509.6618878581335
 20
759.9133838437615
 30
0.0
 11
549.6618878581334
 21
759.9133838437615
 31
0.0
  0
LINE
  5
A236
102
{ACAD_REACTORS
330
A234
102
}
330
1F
100
AcDbEntity
  8
外形線
 62
     0
100
AcDbLine
 10
509.6618878581335
 20
761.9133838437615
 30
0.0
 11
549.6618878581334
 21
761.9133838437615
 31
0.0
  0
ELLIPSE
  5
A237
330
1F
100
AcDbEntity
  8
外形線
 62
     0
100
AcDbEllipse
 10
529.6618878581334
 20
740.4133838437615
 30
0.0
 11
-11.3385404704486
 21
0.0
 31
0.0
210
0.0
220
0.0
230
1.0
 40
0.1763895454809688
 41
0.0
 42
3.141592653589793
  0
ELLIPSE
  5
A238
330
1F
100
AcDbEntity
  8
外形線
 62
     0
100
AcDbEllipse
 10
529.6618878581334
 20
746.9133838437614
 30
0.0
 11
-11.3385404704486
 21
0.0
 31
0.0
210
0.0
220
0.0
230
1.0
 40
0.1763895454809688
 41
3.141592653589793
 42
6.283185307179586
  0
LINE
  5
A239
330
1F
100
AcDbEntity
  8
外形線
 62
     0
100
AcDbLine
 10
518.3233473876848
 20
740.4133838437615
 30
0.0
 11
518.3233473876848
 21
746.9133838437614
 31
0.0
  0
LINE
  5
A23A
330
1F
100
AcDbEntity
  8
外形線
 62
     0
100
AcDbLine
 10
516.2785992101001
 20
740.4133838437615
 30
0.0
 11
516.2785992101001
 21
746.9133838437614
 31
0.0
  0
LINE
  5
A23B
330
1F
100
AcDbEntity
  8
外形線
 62
     0
100
AcDbLine
 10
516.2785992101
 20
740.4133838437615
 30
0.0
 11
518.3233473876848
 21
740.4133838437615
 31
0.0
  0
LINE
  5
A23C
330
1F
100
AcDbEntity
  8
外形線
 62
     0
100
AcDbLine
 10
516.2785992101001
 20
746.9133838437614
 30
0.0
 11
518.3233473876848
 21
746.9133838437614
 31
0.0
  0
LINE
  5
A23D
102
{ACAD_REACTORS
330
A234
102
}
330
1F
100
AcDbEntity
  8
外形線
 62
     0
100
AcDbLine
 10
509.6618878581335
 20
761.9133838437615
 30
0.0
 11
509.6618878581335
 21
759.9133838437615
 31
0.0
  0
ELLIPSE
  5
A23E
330
1F
100
AcDbEntity
  8
外形線
 62
     0
100
AcDbEllipse
 10
548.7144467391016
 20
740.4133838437615
 30
0.0
 11
5.669270235224303
 21
0.0
 31
0.0
210
0.0
220
0.0
230
1.0
 40
0.3527790909619276
 41
3.141592653589793
 42
5.390273084777303
  0
ELLIPSE
  5
A23F
330
1F
100
AcDbEntity
  8
外形線
 62
     0
100
AcDbEllipse
 10
548.7144467391016
 20
746.9133838437614
 30
0.0
 11
5.669270235224303
 21
0.0
 31
0.0
210
0.0
220
0.0
230
-1.0
 40
0.3527790909619276
 41
3.141592653589793
 42
5.390273084777303
  0
LINE
  5
A240
330
1F
100
AcDbEntity
  8
外形線
 62
     0
100
AcDbLine
 10
541.0004283285822
 20
740.4133838437615
 30
0.0
 11
543.0451765061668
 21
740.4133838437615
 31
0.0
  0
LINE
  5
A241
330
1F
100
AcDbEntity
  8
外形線
 62
     0
100
AcDbLine
 10
541.0004283285821
 20
746.9133838437614
 30
0.0
 11
543.0451765061668
 21
746.9133838437614
 31
0.0
  0
LINE
  5
A242
330
1F
100
AcDbEntity
  8
外形線
 62
     0
100
AcDbLine
 10
543.0451765061668
 20
740.4133270035834
 30
0.0
 11
543.0451765061668
 21
746.9134406839396
 31
0.0
  0
LINE
  5
A243
330
1F
100
AcDbEntity
  8
外形線
 62
     0
100
AcDbLine
 10
541.0004283285821
 20
740.4133838437615
 30
0.0
 11
541.0004283285821
 21
746.9133838437614
 31
0.0
  0
LINE
  5
A244
330
1F
100
AcDbEntity
  8
外形線
 62
     0
100
AcDbLine
 10
554.411887855844
 20
740.4133838437615
 30
0.0
 11
551.661887855844
 21
738.4133838437614
 31
0.0
  0
LINE
  5
A245
330
1F
100
AcDbEntity
  8
外形線
 62
     0
100
AcDbLine
 10
554.411887855844
 20
746.9133838437614
 30
0.0
 11
551.661887855844
 21
748.9133838437615
 31
0.0
  0
LINE
  5
A246
330
1F
100
AcDbEntity
  8
外形線
 62
     0
100
AcDbLine
 10
554.411887855844
 20
740.4133838437615
 30
0.0
 11
554.411887855844
 21
746.9133838437614
 31
0.0
  0
LINE
  5
A247
102
{ACAD_REACTORS
330
A234
102
}
330
1F
100
AcDbEntity
  8
かくれ線
 62
     0
100
AcDbLine
 10
544.4118878581334
 20
761.9133838437615
 30
0.0
 11
544.4118878581334
 21
759.9133838437615
 31
0.0
  0
LINE
  5
A248
102
{ACAD_REACTORS
330
A234
102
}
330
1F
100
AcDbEntity
  8
外形線
 62
     0
100
AcDbLine
 10
549.6618878581334
 20
761.9133838437615
 30
0.0
 11
549.6618878581334
 21
759.9133838437615
 31
0.0
  0
ENDSEC
  0
SECTION
  2
OBJECTS
  0
DICTIONARY
  5
C
330
0
100
AcDbDictionary
281
     1
  3
ACAD_CIP_PREVIOUS_PRODUCT_INFO
350
A14D
  3
ACAD_COLOR
350
A12B
  3
ACAD_DETAILVIEWSTYLE
350
A144
  3
ACAD_GROUP
350
D
  3
ACAD_LAYOUT
350
1A
  3
ACAD_MATERIAL
350
A0F9
  3
ACAD_MLEADERSTYLE
350
A140
  3
ACAD_MLINESTYLE
350
17
  3
ACAD_PLOTSETTINGS
350
19
  3
ACAD_PLOTSTYLENAME
350
E
  3
ACAD_SCALELIST
350
A12E
  3
ACAD_SECTIONVIEWSTYLE
350
A142
  3
ACAD_TABLESTYLE
350
A12C
  3
ACAD_VISUALSTYLE
350
A112
  3
AcadDim
350
63E6
  3
ACDB_RECOMPOSE_DATA
350
A325
  3
AcDbVariableDictionary
350
C7
  3
AcDsDecomposeData
350
A32B
  0
DICTIONARY
  5
4E76
330
2
100
AcDbDictionary
280
     1
281
     1
  3
ACAD_LAYERFILTERS
360
539A
  3
ACAD_LAYERSTATES
360
4E77
  0
DICTIONARY
  5
A1BC
330
10
100
AcDbDictionary
280
     1
281
     1
  3
ADSK_XREC_LAYER_RECONCILED
360
A1BD
  0
DICTIONARY
  5
A1BE
330
2F
100
AcDbDictionary
280
     1
281
     1
  3
ADSK_XREC_LAYER_RECONCILED
360
A1BF
  0
DICTIONARY
  5
A1C0
330
30
100
AcDbDictionary
280
     1
281
     1
  3
ADSK_XREC_LAYER_RECONCILED
360
A1C1
  0
DICTIONARY
  5
A1C2
330
31
100
AcDbDictionary
280
     1
281
     1
  3
ADSK_XREC_LAYER_RECONCILED
360
A1C3
  0
DICTIONARY
  5
A1C4
330
32
100
AcDbDictionary
280
     1
281
     1
  3
ADSK_XREC_LAYER_RECONCILED
360
A1C5
  0
DICTIONARY
  5
A1C6
330
33
100
AcDbDictionary
280
     1
281
     1
  3
ADSK_XREC_LAYER_RECONCILED
360
A1C7
  0
DICTIONARY
  5
A1C8
330
34
100
AcDbDictionary
280
     1
281
     1
  3
ADSK_XREC_LAYER_RECONCILED
360
A1C9
  0
DICTIONARY
  5
A1CA
330
35
100
AcDbDictionary
280
     1
281
     1
  3
ADSK_XREC_LAYER_RECONCILED
360
A1CB
  0
DICTIONARY
  5
A1CC
330
36
100
AcDbDictionary
280
     1
281
     1
  3
ADSK_XREC_LAYER_RECONCILED
360
A1CD
  0
DICTIONARY
  5
A1CE
330
9A38
100
AcDbDictionary
280
     1
281
     1
  3
ADSK_XREC_LAYER_RECONCILED
360
A1CF
  0
DICTIONARY
  5
A1D0
330
9A39
100
AcDbDictionary
280
     1
281
     1
  3
ADSK_XREC_LAYER_RECONCILED
360
A1D1
  0
XRECORD
  5
A14D
102
{ACAD_REACTORS
330
C
102
}
330
C
100
AcDbXrecord
280
     1
300
ACD
300
2014
300
DSPRM_F_S
  0
DICTIONARY
  5
A12B
102
{ACAD_REACTORS
330
C
102
}
330
C
100
AcDbDictionary
281
     1
  0
DICTIONARY
  5
A144
102
{ACAD_REACTORS
330
C
102
}
330
C
100
AcDbDictionary
281
     1
  3
Metric50
350
A145
  0
DICTIONARY
  5
D
102
{ACAD_REACTORS
330
C
102
}
330
C
100
AcDbDictionary
281
     1
  0
DICTIONARY
  5
1A
102
{ACAD_REACTORS
330
C
102
}
330
C
100
AcDbDictionary
281
     1
  3
Model
350
22
  3
ﾚｲｱｳﾄ1
350
1E
  3
ﾚｲｱｳﾄ2
350
26
  0
DICTIONARY
  5
A0F9
102
{ACAD_REACTORS
330
C
102
}
330
C
100
AcDbDictionary
281
     1
  3
ByBlock
350
A102
  3
ByLayer
350
A0FA
  3
Global
350
A10A
  0
DICTIONARY
  5
A140
102
{ACAD_REACTORS
330
C
102
}
330
C
100
AcDbDictionary
281
     1
  3
Standard
350
A141
  0
DICTIONARY
  5
17
102
{ACAD_REACTORS
330
C
102
}
330
C
100
AcDbDictionary
281
     1
  3
Standard
350
18
  0
DICTIONARY
  5
19
102
{ACAD_REACTORS
330
C
102
}
330
C
100
AcDbDictionary
281
     1
  0
ACDBDICTIONARYWDFLT
  5
E
102
{ACAD_REACTORS
330
C
102
}
330
C
100
AcDbDictionary
281
     1
  3
Normal
350
F
100
AcDbDictionaryWithDefault
340
F
  0
DICTIONARY
  5
A12E
102
{ACAD_REACTORS
330
C
102
}
330
C
100
AcDbDictionary
281
     1
  3
A0
350
A12F
  3
A1
350
A130
  3
A2
350
A131
  3
A3
350
A132
  3
A4
350
A133
  3
A5
350
A134
  3
A6
350
A135
  3
A7
350
A136
  3
A8
350
A137
  3
A9
350
A138
  3
B0
350
A139
  3
B1
350
A13A
  3
B2
350
A13B
  3
B3
350
A13C
  3
B4
350
A13D
  3
B5
350
A13E
  3
B6
350
A13F
  0
DICTIONARY
  5
A142
102
{ACAD_REACTORS
330
C
102
}
330
C
100
AcDbDictionary
281
     1
  3
Metric50
350
A143
  0
DICTIONARY
  5
A12C
102
{ACAD_REACTORS
330
C
102
}
330
C
100
AcDbDictionary
281
     1
  3
Standard
350
A12D
  0
DICTIONARY
  5
A112
102
{ACAD_REACTORS
330
C
102
}
330
C
100
AcDbDictionary
281
     1
  3
2dWireframe
350
A118
  3
Basic
350
A117
  3
Brighten
350
A11E
  3
ColorChange
350
A122
  3
Conceptual
350
A11B
  3
Dim
350
A11D
  3
EdgeColorOff
350
A12A
  3
Facepattern
350
A121
  3
Flat
350
A113
  3
FlatWithEdges
350
A114
  3
Gouraud
350
A115
  3
GouraudWithEdges
350
A116
  3
Hidden
350
A11A
  3
JitterOff
350
A128
  3
Linepattern
350
A120
  3
OverhangOff
350
A129
  3
Realistic
350
A11C
  3
Shaded
350
A127
  3
Shaded with edges
350
A126
  3
Shades of Gray
350
A123
  3
Sketchy
350
A124
  3
Thicken
350
A11F
  3
Wireframe
350
A119
  3
X-Ray
350
A125
  0
XRECORD
  5
63E6
102
{ACAD_REACTORS
330
C
102
}
330
C
100
AcDbXrecord
280
     1
 90
   990106
  3

 60
     0
 61
     0
 62
     1
 63
     3
 64
     0
 65
     0
 66
     0
 67
     3
 68
     1
 69
     0
 70
     0
 71
     0
 72
     0
 40
0.0
170
     0
340
0
  0
XRECORD
  5
A325
102
{ACAD_REACTORS
330
C
102
}
330
C
100
AcDbXrecord
280
     1
 90
        1
330
A12D
330
A202
330
A212
330
A219
330
A21A
  0
DICTIONARY
  5
C7
102
{ACAD_REACTORS
330
C
102
}
330
C
100
AcDbDictionary
281
     1
  3
CANNOSCALE
350
A313
  3
CMLEADERSTYLE
350
A30F
  3
CTABLESTYLE
350
A30E
  3
CVIEWDETAILSTYLE
350
A310
  3
CVIEWSECTIONSTYLE
350
A311
  3
DIMASSOC
350
C9
  3
EXPORTMODELSPACE
350
A2F1
  3
HIDETEXT
350
C8
  3
LAYEREVAL
350
A315
  3
LAYERNOTIFY
350
A316
  3
LIGHTINGUNITS
350
A314
  3
MSLTSCALE
350
A312
  0
DICTIONARY
  5
A32B
102
{ACAD_REACTORS
330
C
102
}
330
C
100
AcDbDictionary
281
     1
  3
AcDsRecords
350
A32D
  3
AcDsSchemas
350
A32C
1001
ACAD
1070
     2
  0
DICTIONARY
  5
539A
102
{ACAD_REACTORS
330
4E76
102
}
330
4E76
100
AcDbDictionary
280
     1
281
     1
  0
DICTIONARY
  5
4E77
102
{ACAD_REACTORS
330
4E76
102
}
330
4E76
100
AcDbDictionary
281
     1
  0
XRECORD
  5
A1BD
102
{ACAD_REACTORS
330
A1BC
102
}
330
A1BC
100
AcDbXrecord
280
     1
290
     1
  0
XRECORD
  5
A1BF
102
{ACAD_REACTORS
330
A1BE
102
}
330
A1BE
100
AcDbXrecord
280
     1
290
     1
  0
XRECORD
  5
A1C1
102
{ACAD_REACTORS
330
A1C0
102
}
330
A1C0
100
AcDbXrecord
280
     1
290
     1
  0
XRECORD
  5
A1C3
102
{ACAD_REACTORS
330
A1C2
102
}
330
A1C2
100
AcDbXrecord
280
     1
290
     1
  0
XRECORD
  5
A1C5
102
{ACAD_REACTORS
330
A1C4
102
}
330
A1C4
100
AcDbXrecord
280
     1
290
     1
  0
XRECORD
  5
A1C7
102
{ACAD_REACTORS
330
A1C6
102
}
330
A1C6
100
AcDbXrecord
280
     1
290
     1
  0
XRECORD
  5
A1C9
102
{ACAD_REACTORS
330
A1C8
102
}
330
A1C8
100
AcDbXrecord
280
     1
290
     1
  0
XRECORD
  5
A1CB
102
{ACAD_REACTORS
330
A1CA
102
}
330
A1CA
100
AcDbXrecord
280
     1
290
     1
  0
XRECORD
  5
A1CD
102
{ACAD_REACTORS
330
A1CC
102
}
330
A1CC
100
AcDbXrecord
280
     1
290
     1
  0
XRECORD
  5
A1CF
102
{ACAD_REACTORS
330
A1CE
102
}
330
A1CE
100
AcDbXrecord
280
     1
290
     1
  0
XRECORD
  5
A1D1
102
{ACAD_REACTORS
330
A1D0
102
}
330
A1D0
100
AcDbXrecord
280
     1
290
     1
  0
ACDBDETAILVIEWSTYLE
  5
A145
102
{ACAD_XDICTIONARY
360
A30B
102
}
102
{ACAD_REACTORS
330
A144
102
}
330
A144
100
AcDbModelDocViewStyle
 70
     0
  3
Metric50
290
     0
100
AcDbDetailViewStyle
 70
     0
 71
     0
 90
        3
 71
     1
340
11
 62
   256
 40
5.0
340
0
 62
   256
 40
5.0
300

 40
0.0
280
     1
 71
     2
340
16
 90
       25
 62
   256
 71
     3
340
11
 62
   256
 40
5.0
 90
        0
 40
15.0
 90
        1
300
%<\AcVar ViewDetailId>% (%<\AcVar ViewScale \f "%sn">%)
 71
     4
340
16
 90
       25
 62
   256
340
16
 90
       25
 62
   256
280
     0
  0
LAYOUT
  5
22
102
{ACAD_XDICTIONARY
360
A2EF
102
}
102
{ACAD_REACTORS
330
1A
102
}
330
1A
100
AcDbPlotSettings
  1

  2
Acrobat Distiller
  4
A4
  6

 40
3.174999952316284
 41
3.174999952316284
 42
3.175003051757812
 43
3.17498779296875
 44
209.9098358154297
 45
297.0318298339844
 46
0.0
 47
1.04
 48
5742.847877648761
 49
-3164.311832205966
140
7240.447877648759
141
-1040.311832205965
142
1.0
143
0.5112093119451115
 70
 11956
 72
     1
 73
     0
 74
     1
  7
fuji.stb
 75
     0
147
1.956145900776099
 76
     0
 77
     2
 78
   300
148
662.1220667901736
149
418.4309810453121
100
AcDbLayout
  1
Model
 70
     1
 71
     0
 10
0.0
 20
0.0
 11
12.0
 21
9.0
 12
0.0
 22
0.0
 32
0.0
 14
0.0
 24
0.0
 34
0.0
 15
0.0
 25
0.0
 35
0.0
146
0.0
 13
0.0
 23
0.0
 33
0.0
 16
1.0
 26
0.0
 36
0.0
 17
0.0
 27
1.0
 37
0.0
 76
     0
330
1F
331
A0F7
  0
LAYOUT
  5
1E
102
{ACAD_REACTORS
330
1A
102
}
330
1A
100
AcDbPlotSettings
  1

  2
EPSON PM-3000C ESC/P R (コピー 3)
  4

  6

 40
0.0
 41
0.0
 42
0.0
 43
0.0
 44
0.0
 45
0.0
 46
0.0
 47
0.0
 48
0.0
 49
0.0
140
0.0
141
0.0
142
1.0
143
1.0
 70
   688
 72
     0
 73
     0
 74
     5
  7
fuji.stb
 75
    16
147
1.0
 76
     0
 77
     2
 78
   300
148
0.0
149
0.0
100
AcDbLayout
  1
ﾚｲｱｳﾄ1
 70
     1
 71
     1
 10
0.0
 20
0.0
 11
420.0
 21
297.0
 12
0.0
 22
0.0
 32
0.0
 14
1.000000000000000E+20
 24
1.000000000000000E+20
 34
1.000000000000000E+20
 15
-1.000000000000000E+20
 25
-1.000000000000000E+20
 35
-1.000000000000000E+20
146
0.0
 13
0.0
 23
0.0
 33
0.0
 16
1.0
 26
0.0
 36
0.0
 17
0.0
 27
1.0
 37
0.0
 76
     0
330
1B
  0
LAYOUT
  5
26
102
{ACAD_REACTORS
330
1A
102
}
330
1A
100
AcDbPlotSettings
  1

  2
EPSON PM-3000C ESC/P R (コピー 3)
  4

  6

 40
0.0
 41
0.0
 42
0.0
 43
0.0
 44
0.0
 45
0.0
 46
0.0
 47
0.0
 48
0.0
 49
0.0
140
0.0
141
0.0
142
1.0
143
1.0
 70
   688
 72
     0
 73
     0
 74
     5
  7
fuji.stb
 75
    16
147
1.0
 76
     0
 77
     2
 78
   300
148
0.0
149
0.0
100
AcDbLayout
  1
ﾚｲｱｳﾄ2
 70
     1
 71
     2
 10
0.0
 20
0.0
 11
12.0
 21
9.0
 12
0.0
 22
0.0
 32
0.0
 14
0.0
 24
0.0
 34
0.0
 15
0.0
 25
0.0
 35
0.0
146
0.0
 13
0.0
 23
0.0
 33
0.0
 16
1.0
 26
0.0
 36
0.0
 17
0.0
 27
1.0
 37
0.0
 76
     0
330
23
  0
MATERIAL
  5
A102
102
{ACAD_XDICTIONARY
360
A103
102
}
102
{ACAD_REACTORS
330
A0F9
102
}
330
A0F9
100
AcDbMaterial
  1
ByBlock
 72
     0
 43
0.0008202099737533
 43
0.0
 43
0.0
 43
0.0
 43
0.0
 43
0.0008202099737533
 43
0.0
 43
0.0
 43
0.0
 43
0.0
 43
1.0
 43
0.0
 43
0.0
 43
0.0
 43
0.0
 43
1.0
 77
     0
 47
0.0008202099737533
 47
0.0
 47
0.0
 47
0.0
 47
0.0
 47
0.0008202099737533
 47
0.0
 47
0.0
 47
0.0
 47
0.0
 47
1.0
 47
0.0
 47
0.0
 47
0.0
 47
0.0
 47
1.0
171
     0
 49
0.0008202099737533
 49
0.0
 49
0.0
 49
0.0
 49
0.0
 49
0.0008202099737533
 49
0.0
 49
0.0
 49
0.0
 49
0.0
 49
1.0
 49
0.0
 49
0.0
 49
0.0
 49
0.0
 49
1.0
175
     0
142
0.0008202099737533
142
0.0
142
0.0
142
0.0
142
0.0
142
0.0008202099737533
142
0.0
142
0.0
142
0.0
142
0.0
142
1.0
142
0.0
142
0.0
142
0.0
142
0.0
142
1.0
179
     0
144
0.0008202099737533
144
0.0
144
0.0
144
0.0
144
0.0
144
0.0008202099737533
144
0.0
144
0.0
144
0.0
144
0.0
144
1.0
144
0.0
144
0.0
144
0.0
144
0.0
144
1.0
147
0.0008202099737533
147
0.0
147
0.0
147
0.0
147
0.0
147
0.0008202099737533
147
0.0
147
0.0
147
0.0
147
0.0
147
1.0
147
0.0
147
0.0
147
0.0
147
0.0
147
1.0
  0
MATERIAL
  5
A0FA
102
{ACAD_XDICTIONARY
360
A0FB
102
}
102
{ACAD_REACTORS
330
A0F9
102
}
330
A0F9
100
AcDbMaterial
  1
ByLayer
 72
     0
 43
0.0008202099737533
 43
0.0
 43
0.0
 43
0.0
 43
0.0
 43
0.0008202099737533
 43
0.0
 43
0.0
 43
0.0
 43
0.0
 43
1.0
 43
0.0
 43
0.0
 43
0.0
 43
0.0
 43
1.0
 77
     0
 47
0.0008202099737533
 47
0.0
 47
0.0
 47
0.0
 47
0.0
 47
0.0008202099737533
 47
0.0
 47
0.0
 47
0.0
 47
0.0
 47
1.0
 47
0.0
 47
0.0
 47
0.0
 47
0.0
 47
1.0
171
     0
 49
0.0008202099737533
 49
0.0
 49
0.0
 49
0.0
 49
0.0
 49
0.0008202099737533
 49
0.0
 49
0.0
 49
0.0
 49
0.0
 49
1.0
 49
0.0
 49
0.0
 49
0.0
 49
0.0
 49
1.0
175
     0
142
0.0008202099737533
142
0.0
142
0.0
142
0.0
142
0.0
142
0.0008202099737533
142
0.0
142
0.0
142
0.0
142
0.0
142
1.0
142
0.0
142
0.0
142
0.0
142
0.0
142
1.0
179
     0
144
0.0008202099737533
144
0.0
144
0.0
144
0.0
144
0.0
144
0.0008202099737533
144
0.0
144
0.0
144
0.0
144
0.0
144
1.0
144
0.0
144
0.0
144
0.0
144
0.0
144
1.0
147
0.0008202099737533
147
0.0
147
0.0
147
0.0
147
0.0
147
0.0008202099737533
147
0.0
147
0.0
147
0.0
147
0.0
147
1.0
147
0.0
147
0.0
147
0.0
147
0.0
147
1.0
  0
MATERIAL
  5
A10A
102
{ACAD_XDICTIONARY
360
A10B
102
}
102
{ACAD_REACTORS
330
A0F9
102
}
330
A0F9
100
AcDbMaterial
  1
Global
 72
     0
 43
0.0008202099737533
 43
0.0
 43
0.0
 43
0.0
 43
0.0
 43
0.0008202099737533
 43
0.0
 43
0.0
 43
0.0
 43
0.0
 43
1.0
 43
0.0
 43
0.0
 43
0.0
 43
0.0
 43
1.0
 77
     0
 47
0.0008202099737533
 47
0.0
 47
0.0
 47
0.0
 47
0.0
 47
0.0008202099737533
 47
0.0
 47
0.0
 47
0.0
 47
0.0
 47
1.0
 47
0.0
 47
0.0
 47
0.0
 47
0.0
 47
1.0
171
     0
 49
0.0008202099737533
 49
0.0
 49
0.0
 49
0.0
 49
0.0
 49
0.0008202099737533
 49
0.0
 49
0.0
 49
0.0
 49
0.0
 49
1.0
 49
0.0
 49
0.0
 49
0.0
 49
0.0
 49
1.0
175
     0
142
0.0008202099737533
142
0.0
142
0.0
142
0.0
142
0.0
142
0.0008202099737533
142
0.0
142
0.0
142
0.0
142
0.0
142
1.0
142
0.0
142
0.0
142
0.0
142
0.0
142
1.0
179
     0
144
0.0008202099737533
144
0.0
144
0.0
144
0.0
144
0.0
144
0.0008202099737533
144
0.0
144
0.0
144
0.0
144
0.0
144
1.0
144
0.0
144
0.0
144
0.0
144
0.0
144
1.0
147
0.0008202099737533
147
0.0
147
0.0
147
0.0
147
0.0
147
0.0008202099737533
147
0.0
147
0.0
147
0.0
147
0.0
147
1.0
147
0.0
147
0.0
147
0.0
147
0.0
147
1.0
  0
MLEADERSTYLE
  5
A141
102
{ACAD_XDICTIONARY
360
A35E
102
}
102
{ACAD_REACTORS
330
A140
102
}
330
A140
100
AcDbMLeaderStyle
179
     2
170
     2
171
     1
172
     0
 90
        2
 40
0.0
 41
0.0
173
     1
 91
-1056964608
340
14
 92
       -2
290
     1
 42
2.0
291
     1
 43
0.36
  3
Standard
 44
4.0
300

342
11
174
     1
178
     6
175
     1
176
     0
 93
-1056964608
 45
4.0
292
     0
297
     0
 46
4.0
 94
-1056964608
 47
1.0
 49
1.0
140
1.0
293
     1
141
0.0
294
     1
177
     0
142
1.0
295
     0
296
     0
143
0.125
271
     0
272
     9
273
     9
  0
MLINESTYLE
  5
18
102
{ACAD_REACTORS
330
17
102
}
330
17
100
AcDbMlineStyle
  2
STANDARD
 70
     0
  3

 62
   256
 51
90.0
 52
90.0
 71
     2
 49
0.5
 62
   256
  6
BYLAYER
 49
-0.5
 62
   256
  6
BYLAYER
  0
ACDBPLACEHOLDER
  5
F
102
{ACAD_REACTORS
330
E
102
}
330
E
  0
SCALE
  5
A12F
102
{ACAD_REACTORS
330
A12E
102
}
330
A12E
100
AcDbScale
 70
     0
300
1:1
140
1.0
141
1.0
290
     1
  0
SCALE
  5
A130
102
{ACAD_REACTORS
330
A12E
102
}
330
A12E
100
AcDbScale
 70
     0
300
1:2
140
1.0
141
2.0
290
     0
  0
SCALE
  5
A131
102
{ACAD_REACTORS
330
A12E
102
}
330
A12E
100
AcDbScale
 70
     0
300
1:4
140
1.0
141
4.0
290
     0
  0
SCALE
  5
A132
102
{ACAD_REACTORS
330
A12E
102
}
330
A12E
100
AcDbScale
 70
     0
300
1:5
140
1.0
141
5.0
290
     0
  0
SCALE
  5
A133
102
{ACAD_REACTORS
330
A12E
102
}
330
A12E
100
AcDbScale
 70
     0
300
1:8
140
1.0
141
8.0
290
     0
  0
SCALE
  5
A134
102
{ACAD_REACTORS
330
A12E
102
}
330
A12E
100
AcDbScale
 70
     0
300
1:10
140
1.0
141
10.0
290
     0
  0
SCALE
  5
A135
102
{ACAD_REACTORS
330
A12E
102
}
330
A12E
100
AcDbScale
 70
     0
300
1:16
140
1.0
141
16.0
290
     0
  0
SCALE
  5
A136
102
{ACAD_REACTORS
330
A12E
102
}
330
A12E
100
AcDbScale
 70
     0
300
1:20
140
1.0
141
20.0
290
     0
  0
SCALE
  5
A137
102
{ACAD_REACTORS
330
A12E
102
}
330
A12E
100
AcDbScale
 70
     0
300
1:30
140
1.0
141
30.0
290
     0
  0
SCALE
  5
A138
102
{ACAD_REACTORS
330
A12E
102
}
330
A12E
100
AcDbScale
 70
     0
300
1:40
140
1.0
141
40.0
290
     0
  0
SCALE
  5
A139
102
{ACAD_REACTORS
330
A12E
102
}
330
A12E
100
AcDbScale
 70
     0
300
1:50
140
1.0
141
50.0
290
     0
  0
SCALE
  5
A13A
102
{ACAD_REACTORS
330
A12E
102
}
330
A12E
100
AcDbScale
 70
     0
300
1:100
140
1.0
141
100.0
290
     0
  0
SCALE
  5
A13B
102
{ACAD_REACTORS
330
A12E
102
}
330
A12E
100
AcDbScale
 70
     0
300
2:1
140
2.0
141
1.0
290
     0
  0
SCALE
  5
A13C
102
{ACAD_REACTORS
330
A12E
102
}
330
A12E
100
AcDbScale
 70
     0
300
4:1
140
4.0
141
1.0
290
     0
  0
SCALE
  5
A13D
102
{ACAD_REACTORS
330
A12E
102
}
330
A12E
100
AcDbScale
 70
     0
300
8:1
140
8.0
141
1.0
290
     0
  0
SCALE
  5
A13E
102
{ACAD_REACTORS
330
A12E
102
}
330
A12E
100
AcDbScale
 70
     0
300
10:1
140
10.0
141
1.0
290
     0
  0
SCALE
  5
A13F
102
{ACAD_REACTORS
330
A12E
102
}
330
A12E
100
AcDbScale
 70
     0
300
100:1
140
100.0
141
1.0
290
     0
  0
ACDBSECTIONVIEWSTYLE
  5
A143
102
{ACAD_XDICTIONARY
360
A309
102
}
102
{ACAD_REACTORS
330
A142
102
}
330
A142
100
AcDbModelDocViewStyle
 70
     0
  3
Metric50
290
     0
100
AcDbSectionViewStyle
 70
     0
 71
     0
 90
      102
 71
     1
340
11
 62
   256
 40
5.0
340
0
340
0
 62
   256
 40
5.0
300
I, O, Q, S, X, Z
 40
10.0
 90
        0
 40
2.5
 90
        0
 71
     2
340
16
 90
       25
 62
   256
340
16
 90
       50
 62
   256
 40
5.0
 40
2.5
 40
5.0
 71
     3
340
11
 62
   256
 40
5.0
 90
        0
 40
15.0
 90
        1
300
%<\AcVar ViewSectionStartId>%-%<\AcVar ViewSectionEndId>% (%<\AcVar ViewScale \f "%sn">%)
 71
     4
 62
   256
 62
   257
300
ANSI31
 40
1.0
 90
        0
290
     0
290
     0
 90
        6
 40
0.0
 40
1.570796326794896
 40
0.2617993877991494
 40
1.308996938995747
 40
-0.2617993877991494
 40
1.832595714594046
  0
TABLESTYLE
  5
A12D
102
{ACAD_XDICTIONARY
360
A323
102
}
102
{ACAD_REACTORS
330
A12C
102
}
330
A12C
100
AcDbTableStyle
280
     0
  3
Standard
 70
     0
 71
     0
 40
1.5
 41
1.5
280
     0
281
     0
  7
Standard
140
4.5
170
     2
 62
     0
 63
     7
283
     0
 90
      512
 91
        0
  1

274
    -2
284
     1
 64
     0
275
    -2
285
     1
 65
     0
276
    -2
286
     1
 66
     0
277
    -2
287
     1
 67
     0
278
    -2
288
     1
 68
     0
279
    -2
289
     1
 69
     0
  7
Standard
140
6.0
170
     5
 62
     0
 63
     7
283
     0
 90
      512
 91
        0
  1

274
    -2
284
     1
 64
     0
275
    -2
285
     1
 65
     0
276
    -2
286
     1
 66
     0
277
    -2
287
     1
 67
     0
278
    -2
288
     1
 68
     0
279
    -2
289
     1
 69
     0
  7
Standard
140
4.5
170
     5
 62
     0
 63
     7
283
     0
 90
      512
 91
        0
  1

274
    -2
284
     1
 64
     0
275
    -2
285
     1
 65
     0
276
    -2
286
     1
 66
     0
277
    -2
287
     1
 67
     0
278
    -2
288
     1
 68
     0
279
    -2
289
     1
 69
     0
  0
VISUALSTYLE
  5
A118
102
{ACAD_XDICTIONARY
360
A338
102
}
102
{ACAD_REACTORS
330
A112
102
}
330
A112
100
AcDbVisualStyle
  2
2dWireframe
 70
     4
177
     2
291
     0
 71
     0
176
     1
 72
     2
176
     1
 73
     0
176
     1
 90
        0
176
     1
 40
0.6
176
     1
 41
30.0
176
     1
 63
     7
421
 16777215
176
     1
 74
     1
176
     1
 91
        4
176
     1
 64
     7
176
     1
 65
   257
176
     1
 75
     1
176
     1
175
     1
176
     1
 42
1.0
176
     1
 92
        0
176
     1
 66
   257
176
     1
 43
1.0
176
     1
 76
     1
176
     1
 77
     6
176
     1
 78
     2
176
     1
 67
     7
176
     1
 79
     5
176
     1
170
     0
176
     1
171
     0
176
     1
290
     0
176
     1
 93
        1
176
     1
 44
0.0
176
     1
173
     0
176
     1
1001
ACAD
1000
AcDbSavedByObjectVersion
1070
     0
  0
VISUALSTYLE
  5
A117
102
{ACAD_XDICTIONARY
360
A336
102
}
102
{ACAD_REACTORS
330
A112
102
}
330
A112
100
AcDbVisualStyle
  2
Basic
 70
     7
177
     2
291
     1
 71
     1
176
     1
 72
     0
176
     1
 73
     1
176
     1
 90
        0
176
     1
 40
0.6
176
     1
 41
30.0
176
     1
 63
     7
421
 16777215
176
     1
 74
     0
176
     1
 91
        4
176
     1
 64
     7
176
     1
 65
   257
176
     1
 75
     1
176
     1
175
     1
176
     1
 42
1.0
176
     1
 92
        8
176
     1
 66
     7
176
     1
 43
1.0
176
     1
 76
     1
176
     1
 77
     6
176
     1
 78
     2
176
     1
 67
     7
176
     1
 79
     5
176
     1
170
     0
176
     1
171
     0
176
     1
290
     0
176
     1
 93
        1
176
     1
 44
0.0
176
     1
173
     0
176
     1
1001
ACAD
1000
AcDbSavedByObjectVersion
1070
     0
  0
VISUALSTYLE
  5
A11E
102
{ACAD_XDICTIONARY
360
A344
102
}
102
{ACAD_REACTORS
330
A112
102
}
330
A112
100
AcDbVisualStyle
  2
Brighten
 70
    12
177
     2
291
     1
 71
     2
176
     1
 72
     2
176
     1
 73
     0
176
     1
 90
        0
176
     1
 40
0.6
176
     1
 41
30.0
176
     1
 63
     7
421
 16777215
176
     1
 74
     1
176
     1
 91
        4
176
     1
 64
     7
176
     1
 65
   257
176
     1
 75
     1
176
     1
175
     1
176
     1
 42
1.0
176
     1
 92
        8
176
     1
 66
     7
176
     1
 43
1.0
176
     1
 76
     1
176
     1
 77
     6
176
     1
 78
     2
176
     1
 67
     7
176
     1
 79
     5
176
     1
170
     0
176
     1
171
     0
176
     1
290
     0
176
     1
 93
        1
176
     1
 44
50.0
176
     1
173
     0
176
     1
1001
ACAD
1000
AcDbSavedByObjectVersion
1070
     0
  0
VISUALSTYLE
  5
A122
102
{ACAD_XDICTIONARY
360
A34C
102
}
102
{ACAD_REACTORS
330
A112
102
}
330
A112
100
AcDbVisualStyle
  2
ColorChange
 70
    16
177
     2
291
     1
 71
     2
176
     1
 72
     2
176
     1
 73
     3
176
     1
 90
        0
176
     1
 40
0.6
176
     1
 41
30.0
176
     1
 63
     8
421
  8421504
176
     1
 74
     1
176
     1
 91
        4
176
     1
 64
     7
176
     1
 65
   257
176
     1
 75
     1
176
     1
175
     1
176
     1
 42
1.0
176
     1
 92
        8
176
     1
 66
     8
424
  8421504
176
     1
 43
1.0
176
     1
 76
     1
176
     1
 77
     6
176
     1
 78
     2
176
     1
 67
     7
176
     1
 79
     5
176
     1
170
     0
176
     1
171
     0
176
     1
290
     0
176
     1
 93
        1
176
     1
 44
0.0
176
     1
173
     0
176
     1
1001
ACAD
1000
AcDbSavedByObjectVersion
1070
     0
  0
VISUALSTYLE
  5
A11B
102
{ACAD_XDICTIONARY
360
A33E
102
}
102
{ACAD_REACTORS
330
A112
102
}
330
A112
100
AcDbVisualStyle
  2
Conceptual
 70
     9
177
     2
291
     0
 71
     3
176
     1
 72
     2
176
     1
 73
     0
176
     1
 90
        0
176
     1
 40
0.6
176
     1
 41
30.0
176
     1
 63
     7
421
 16777215
176
     1
 74
     2
176
     1
 91
        2
176
     1
 64
     7
176
     1
 65
   257
176
     1
 75
     1
176
     1
175
     1
176
     1
 42
179.0
176
     1
 92
        8
176
     1
 66
     7
176
     1
 43
1.0
176
     1
 76
     1
176
     1
 77
     6
176
     1
 78
     2
176
     1
 67
     7
176
     1
 79
     3
176
     1
170
     0
176
     1
171
     0
176
     1
290
     0
176
     1
 93
        1
176
     1
 44
0.0
176
     1
173
     0
176
     1
1001
ACAD
1000
AcDbSavedByObjectVersion
1070
     0
  0
VISUALSTYLE
  5
A11D
102
{ACAD_XDICTIONARY
360
A342
102
}
102
{ACAD_REACTORS
330
A112
102
}
330
A112
100
AcDbVisualStyle
  2
Dim
 70
    11
177
     2
291
     1
 71
     2
176
     1
 72
     2
176
     1
 73
     0
176
     1
 90
        0
176
     1
 40
0.6
176
     1
 41
30.0
176
     1
 63
     7
421
 16777215
176
     1
 74
     1
176
     1
 91
        4
176
     1
 64
     7
176
     1
 65
   257
176
     1
 75
     1
176
     1
175
     1
176
     1
 42
1.0
176
     1
 92
        8
176
     1
 66
     7
176
     1
 43
1.0
176
     1
 76
     1
176
     1
 77
     6
176
     1
 78
     2
176
     1
 67
     7
176
     1
 79
     5
176
     1
170
     0
176
     1
171
     0
176
     1
290
     0
176
     1
 93
        1
176
     1
 44
-50.0
176
     1
173
     0
176
     1
1001
ACAD
1000
AcDbSavedByObjectVersion
1070
     0
  0
VISUALSTYLE
  5
A12A
102
{ACAD_XDICTIONARY
360
A35C
102
}
102
{ACAD_REACTORS
330
A112
102
}
330
A112
100
AcDbVisualStyle
  2
EdgeColorOff
 70
    22
177
     2
291
     1
 71
     2
176
     0
 72
     2
176
     0
 73
     0
176
     0
 90
        0
176
     0
 40
0.6
176
     0
 41
30.0
176
     0
 63
     7
421
 16777215
176
     0
 74
     1
176
     0
 91
        4
176
     0
 64
     7
176
     0
 65
   257
176
     0
 75
     1
176
     0
175
     1
176
     0
 42
1.0
176
     0
 92
        8
176
     2
 66
     7
176
     0
 43
1.0
176
     0
 76
     1
176
     0
 77
     6
176
     0
 78
     2
176
     0
 67
     7
176
     0
 79
     5
176
     0
170
     0
176
     0
171
     0
176
     0
290
     0
176
     0
 93
        1
176
     0
 44
0.0
176
     0
173
     0
176
     0
1001
ACAD
1000
AcDbSavedByObjectVersion
1070
     0
  0
VISUALSTYLE
  5
A121
102
{ACAD_XDICTIONARY
360
A34A
102
}
102
{ACAD_REACTORS
330
A112
102
}
330
A112
100
AcDbVisualStyle
  2
Facepattern
 70
    15
177
     2
291
     1
 71
     2
176
     1
 72
     2
176
     1
 73
     0
176
     1
 90
        0
176
     1
 40
0.6
176
     1
 41
30.0
176
     1
 63
     7
421
 16777215
176
     1
 74
     1
176
     1
 91
        4
176
     1
 64
     7
176
     1
 65
   257
176
     1
 75
     1
176
     1
175
     1
176
     1
 42
1.0
176
     1
 92
        8
176
     1
 66
     7
176
     1
 43
1.0
176
     1
 76
     1
176
     1
 77
     6
176
     1
 78
     2
176
     1
 67
     7
176
     1
 79
     5
176
     1
170
     0
176
     1
171
     0
176
     1
290
     0
176
     1
 93
        1
176
     1
 44
0.0
176
     1
173
     0
176
     1
1001
ACAD
1000
AcDbSavedByObjectVersion
1070
     0
  0
VISUALSTYLE
  5
A113
102
{ACAD_XDICTIONARY
360
A32E
102
}
102
{ACAD_REACTORS
330
A112
102
}
330
A112
100
AcDbVisualStyle
  2
Flat
 70
     0
177
     2
291
     1
 71
     2
176
     1
 72
     1
176
     1
 73
     1
176
     1
 90
        2
176
     1
 40
0.6
176
     1
 41
30.0
176
     1
 63
     7
421
 16777215
176
     1
 74
     0
176
     1
 91
        0
176
     1
 64
     7
176
     1
 65
   257
176
     1
 75
     1
176
     1
175
     1
176
     1
 42
1.0
176
     1
 92
        8
176
     1
 66
     7
176
     1
 43
1.0
176
     1
 76
     1
176
     1
 77
     6
176
     1
 78
     2
176
     1
 67
     7
176
     1
 79
     5
176
     1
170
     0
176
     1
171
     0
176
     1
290
     0
176
     1
 93
       13
176
     1
 44
0.0
176
     1
173
     0
176
     1
1001
ACAD
1000
AcDbSavedByObjectVersion
1070
     0
  0
VISUALSTYLE
  5
A114
102
{ACAD_XDICTIONARY
360
A330
102
}
102
{ACAD_REACTORS
330
A112
102
}
330
A112
100
AcDbVisualStyle
  2
FlatWithEdges
 70
     1
177
     2
291
     1
 71
     2
176
     1
 72
     1
176
     1
 73
     1
176
     1
 90
        2
176
     1
 40
0.6
176
     1
 41
30.0
176
     1
 63
     7
421
 16777215
176
     1
 74
     1
176
     1
 91
        0
176
     1
 64
     7
176
     1
 65
   257
176
     1
 75
     1
176
     1
175
     1
176
     1
 42
1.0
176
     1
 92
        0
176
     1
 66
   257
176
     1
 43
1.0
176
     1
 76
     1
176
     1
 77
     6
176
     1
 78
     2
176
     1
 67
     7
176
     1
 79
     5
176
     1
170
     0
176
     1
171
     0
176
     1
290
     0
176
     1
 93
       13
176
     1
 44
0.0
176
     1
173
     0
176
     1
1001
ACAD
1000
AcDbSavedByObjectVersion
1070
     0
  0
VISUALSTYLE
  5
A115
102
{ACAD_XDICTIONARY
360
A332
102
}
102
{ACAD_REACTORS
330
A112
102
}
330
A112
100
AcDbVisualStyle
  2
Gouraud
 70
     2
177
     2
291
     1
 71
     2
176
     1
 72
     2
176
     1
 73
     1
176
     1
 90
        2
176
     1
 40
0.6
176
     1
 41
30.0
176
     1
 63
     7
421
 16777215
176
     1
 74
     0
176
     1
 91
        0
176
     1
 64
     7
176
     1
 65
   257
176
     1
 75
     1
176
     1
175
     1
176
     1
 42
1.0
176
     1
 92
        0
176
     1
 66
     7
176
     1
 43
1.0
176
     1
 76
     1
176
     1
 77
     6
176
     1
 78
     2
176
     1
 67
     7
176
     1
 79
     5
176
     1
170
     0
176
     1
171
     0
176
     1
290
     0
176
     1
 93
       13
176
     1
 44
0.0
176
     1
173
     0
176
     1
1001
ACAD
1000
AcDbSavedByObjectVersion
1070
     0
  0
VISUALSTYLE
  5
A116
102
{ACAD_XDICTIONARY
360
A334
102
}
102
{ACAD_REACTORS
330
A112
102
}
330
A112
100
AcDbVisualStyle
  2
GouraudWithEdges
 70
     3
177
     2
291
     1
 71
     2
176
     1
 72
     2
176
     1
 73
     1
176
     1
 90
        2
176
     1
 40
0.6
176
     1
 41
30.0
176
     1
 63
     7
421
 16777215
176
     1
 74
     1
176
     1
 91
        0
176
     1
 64
     7
176
     1
 65
   257
176
     1
 75
     1
176
     1
175
     1
176
     1
 42
1.0
176
     1
 92
        0
176
     1
 66
   257
176
     1
 43
1.0
176
     1
 76
     1
176
     1
 77
     6
176
     1
 78
     2
176
     1
 67
     7
176
     1
 79
     5
176
     1
170
     0
176
     1
171
     0
176
     1
290
     0
176
     1
 93
       13
176
     1
 44
0.0
176
     1
173
     0
176
     1
1001
ACAD
1000
AcDbSavedByObjectVersion
1070
     0
  0
VISUALSTYLE
  5
A11A
102
{ACAD_XDICTIONARY
360
A33C
102
}
102
{ACAD_REACTORS
330
A112
102
}
330
A112
100
AcDbVisualStyle
  2
Hidden
 70
     6
177
     2
291
     0
 71
     1
176
     1
 72
     2
176
     1
 73
     2
176
     1
 90
        0
176
     1
 40
0.6
176
     1
 41
30.0
176
     1
 63
     7
421
 16777215
176
     1
 74
     2
176
     1
 91
        2
176
     1
 64
     7
176
     1
 65
   257
176
     1
 75
     2
176
     1
175
     1
176
     1
 42
40.0
176
     1
 92
        0
176
     1
 66
   257
176
     1
 43
1.0
176
     1
 76
     1
176
     1
 77
     6
176
     1
 78
     2
176
     1
 67
     7
176
     1
 79
     3
176
     1
170
     0
176
     1
171
     0
176
     1
290
     0
176
     1
 93
        1
176
     1
 44
0.0
176
     1
173
     0
176
     1
1001
ACAD
1000
AcDbSavedByObjectVersion
1070
     0
  0
VISUALSTYLE
  5
A128
102
{ACAD_XDICTIONARY
360
A358
102
}
102
{ACAD_REACTORS
330
A112
102
}
330
A112
100
AcDbVisualStyle
  2
JitterOff
 70
    20
177
     2
291
     1
 71
     2
176
     0
 72
     2
176
     0
 73
     0
176
     0
 90
        0
176
     0
 40
0.6
176
     0
 41
30.0
176
     0
 63
     7
421
 16777215
176
     0
 74
     1
176
     0
 91
        4
176
     0
 64
     7
176
     0
 65
   257
176
     0
 75
     1
176
     0
175
     1
176
     0
 42
1.0
176
     0
 92
       10
176
     2
 66
     7
176
     0
 43
1.0
176
     0
 76
     1
176
     0
 77
     6
176
     0
 78
     2
176
     0
 67
     7
176
     0
 79
     5
176
     0
170
     0
176
     0
171
     0
176
     0
290
     0
176
     0
 93
        1
176
     0
 44
0.0
176
     0
173
     0
176
     0
1001
ACAD
1000
AcDbSavedByObjectVersion
1070
     0
  0
VISUALSTYLE
  5
A120
102
{ACAD_XDICTIONARY
360
A348
102
}
102
{ACAD_REACTORS
330
A112
102
}
330
A112
100
AcDbVisualStyle
  2
Linepattern
 70
    14
177
     2
291
     1
 71
     2
176
     1
 72
     2
176
     1
 73
     0
176
     1
 90
        0
176
     1
 40
0.6
176
     1
 41
30.0
176
     1
 63
     7
421
 16777215
176
     1
 74
     1
176
     1
 91
        4
176
     1
 64
     7
176
     1
 65
   257
176
     1
 75
     7
176
     1
175
     7
176
     1
 42
1.0
176
     1
 92
        8
176
     1
 66
     7
176
     1
 43
1.0
176
     1
 76
     1
176
     1
 77
     6
176
     1
 78
     2
176
     1
 67
     7
176
     1
 79
     5
176
     1
170
     0
176
     1
171
     0
176
     1
290
     0
176
     1
 93
        1
176
     1
 44
0.0
176
     1
173
     0
176
     1
1001
ACAD
1000
AcDbSavedByObjectVersion
1070
     0
  0
VISUALSTYLE
  5
A129
102
{ACAD_XDICTIONARY
360
A35A
102
}
102
{ACAD_REACTORS
330
A112
102
}
330
A112
100
AcDbVisualStyle
  2
OverhangOff
 70
    21
177
     2
291
     1
 71
     2
176
     0
 72
     2
176
     0
 73
     0
176
     0
 90
        0
176
     0
 40
0.6
176
     0
 41
30.0
176
     0
 63
     7
421
 16777215
176
     0
 74
     1
176
     0
 91
        4
176
     0
 64
     7
176
     0
 65
   257
176
     0
 75
     1
176
     0
175
     1
176
     0
 42
1.0
176
     0
 92
        9
176
     2
 66
     7
176
     0
 43
1.0
176
     0
 76
     1
176
     0
 77
     6
176
     0
 78
     2
176
     0
 67
     7
176
     0
 79
     5
176
     0
170
     0
176
     0
171
     0
176
     0
290
     0
176
     0
 93
        1
176
     0
 44
0.0
176
     0
173
     0
176
     0
1001
ACAD
1000
AcDbSavedByObjectVersion
1070
     0
  0
VISUALSTYLE
  5
A11C
102
{ACAD_XDICTIONARY
360
A340
102
}
102
{ACAD_REACTORS
330
A112
102
}
330
A112
100
AcDbVisualStyle
  2
Realistic
 70
     8
177
     2
291
     0
 71
     2
176
     1
 72
     3
176
     1
 73
     0
176
     1
 90
        2
176
     1
 40
0.6
176
     1
 41
30.0
176
     1
 63
     7
421
 16777215
176
     1
 74
     0
176
     1
 91
        0
176
     1
 64
     7
176
     1
 65
   257
176
     1
 75
     1
176
     1
175
     1
176
     1
 42
1.0
176
     1
 92
        8
176
     1
 66
   257
176
     1
 43
1.0
176
     1
 76
     1
176
     1
 77
     6
176
     1
 78
     2
176
     1
 67
     7
176
     1
 79
     3
176
     1
170
     0
176
     1
171
     0
176
     1
290
     0
176
     1
 93
       13
176
     1
 44
0.0
176
     1
173
     0
176
     1
1001
ACAD
1000
AcDbSavedByObjectVersion
1070
     0
  0
VISUALSTYLE
  5
A127
102
{ACAD_XDICTIONARY
360
A356
102
}
102
{ACAD_REACTORS
330
A112
102
}
330
A112
100
AcDbVisualStyle
  2
Shaded
 70
    27
177
     2
291
     0
 71
     2
176
     1
 72
     2
176
     1
 73
     1
176
     1
 90
        2
176
     1
 40
0.6
176
     1
 41
30.0
176
     1
 63
     7
421
 16777215
176
     1
 74
     0
176
     1
 91
        4
176
     1
 64
     7
176
     1
 65
   257
176
     1
 75
     1
176
     1
175
     1
176
     1
 42
1.0
176
     1
 92
        8
176
     1
 66
   257
176
     1
 43
1.0
176
     1
 76
     1
176
     1
 77
     6
176
     1
 78
     2
176
     1
 67
     8
425
  7895160
176
     1
 79
     3
176
     1
170
     0
176
     1
171
     0
176
     1
290
     0
176
     1
 93
        5
176
     1
 44
0.0
176
     1
173
     0
176
     1
1001
ACAD
1000
AcDbSavedByObjectVersion
1070
     0
  0
VISUALSTYLE
  5
A126
102
{ACAD_XDICTIONARY
360
A354
102
}
102
{ACAD_REACTORS
330
A112
102
}
330
A112
100
AcDbVisualStyle
  2
Shaded with edges
 70
    26
177
     2
291
     0
 71
     2
176
     1
 72
     2
176
     1
 73
     1
176
     1
 90
        2
176
     1
 40
0.6
176
     1
 41
30.0
176
     1
 63
     7
421
 16777215
176
     1
 74
     1
176
     1
 91
       10
176
     1
 64
     7
176
     1
 65
   257
176
     1
 75
     2
176
     1
175
     1
176
     1
 42
1.0
176
     1
 92
        8
176
     1
 66
   257
176
     1
 43
1.0
176
     1
 76
     1
176
     1
 77
     6
176
     1
 78
     2
176
     1
 67
     7
176
     1
 79
     3
176
     1
170
     0
176
     1
171
     0
176
     1
290
     0
176
     1
 93
        5
176
     1
 44
0.0
176
     1
173
     0
176
     1
1001
ACAD
1000
AcDbSavedByObjectVersion
1070
     0
  0
VISUALSTYLE
  5
A123
102
{ACAD_XDICTIONARY
360
A34E
102
}
102
{ACAD_REACTORS
330
A112
102
}
330
A112
100
AcDbVisualStyle
  2
Shades of Gray
 70
    23
177
     2
291
     0
 71
     2
176
     1
 72
     2
176
     1
 73
     3
176
     1
 90
        0
176
     1
 40
0.6
176
     1
 41
30.0
176
     1
 63
     7
421
 16777215
176
     1
 74
     2
176
     1
 91
        2
176
     1
 64
     7
176
     1
 65
     7
176
     1
 75
     1
176
     1
175
     1
176
     1
 42
40.0
176
     1
 92
        8
176
     1
 66
     7
176
     1
 43
1.0
176
     1
 76
     1
176
     1
 77
     6
176
     1
 78
     2
176
     1
 67
     7
176
     1
 79
     3
176
     1
170
     0
176
     1
171
     0
176
     1
290
     0
176
     1
 93
        1
176
     1
 44
0.0
176
     1
173
     0
176
     1
1001
ACAD
1000
AcDbSavedByObjectVersion
1070
     0
  0
VISUALSTYLE
  5
A124
102
{ACAD_XDICTIONARY
360
A350
102
}
102
{ACAD_REACTORS
330
A112
102
}
330
A112
100
AcDbVisualStyle
  2
Sketchy
 70
    24
177
     2
291
     0
 71
     1
176
     1
 72
     2
176
     1
 73
     2
176
     1
 90
        0
176
     1
 40
0.6
176
     1
 41
30.0
176
     1
 63
     7
421
 16777215
176
     1
 74
     2
176
     1
 91
        2
176
     1
 64
     7
176
     1
 65
     7
176
     1
 75
     1
176
     1
175
     1
176
     1
 42
40.0
176
     1
 92
       11
176
     1
 66
     7
176
     1
 43
1.0
176
     1
 76
     1
176
     1
 77
     6
176
     1
 78
     2
176
     1
 67
     7
176
     1
 79
     6
176
     1
170
     0
176
     1
171
     0
176
     1
290
     0
176
     1
 93
        1
176
     1
 44
0.0
176
     1
173
     0
176
     1
1001
ACAD
1000
AcDbSavedByObjectVersion
1070
     0
  0
VISUALSTYLE
  5
A11F
102
{ACAD_XDICTIONARY
360
A346
102
}
102
{ACAD_REACTORS
330
A112
102
}
330
A112
100
AcDbVisualStyle
  2
Thicken
 70
    13
177
     2
291
     1
 71
     2
176
     1
 72
     2
176
     1
 73
     0
176
     1
 90
        0
176
     1
 40
0.6
176
     1
 41
30.0
176
     1
 63
     7
421
 16777215
176
     1
 74
     1
176
     1
 91
        4
176
     1
 64
     7
176
     1
 65
   257
176
     1
 75
     1
176
     1
175
     1
176
     1
 42
1.0
176
     1
 92
       12
176
     1
 66
     7
176
     1
 43
1.0
176
     1
 76
     1
176
     1
 77
     6
176
     1
 78
     2
176
     1
 67
     7
176
     1
 79
     5
176
     1
170
     0
176
     1
171
     0
176
     1
290
     0
176
     1
 93
        1
176
     1
 44
0.0
176
     1
173
     0
176
     1
1001
ACAD
1000
AcDbSavedByObjectVersion
1070
     0
  0
VISUALSTYLE
  5
A119
102
{ACAD_XDICTIONARY
360
A33A
102
}
102
{ACAD_REACTORS
330
A112
102
}
330
A112
100
AcDbVisualStyle
  2
Wireframe
 70
     5
177
     2
291
     0
 71
     0
176
     1
 72
     2
176
     1
 73
     0
176
     1
 90
        0
176
     1
 40
0.6
176
     1
 41
30.0
176
     1
 63
     7
421
 16777215
176
     1
 74
     1
176
     1
 91
        4
176
     1
 64
     7
176
     1
 65
   257
176
     1
 75
     1
176
     1
175
     1
176
     1
 42
1.0
176
     1
 92
        0
176
     1
 66
   257
176
     1
 43
1.0
176
     1
 76
     1
176
     1
 77
     6
176
     1
 78
     2
176
     1
 67
     7
176
     1
 79
     3
176
     1
170
     0
176
     1
171
     0
176
     1
290
     0
176
     1
 93
        1
176
     1
 44
0.0
176
     1
173
     0
176
     1
1001
ACAD
1000
AcDbSavedByObjectVersion
1070
     0
  0
VISUALSTYLE
  5
A125
102
{ACAD_XDICTIONARY
360
A352
102
}
102
{ACAD_REACTORS
330
A112
102
}
330
A112
100
AcDbVisualStyle
  2
X-Ray
 70
    25
177
     2
291
     0
 71
     2
176
     1
 72
     2
176
     1
 73
     1
176
     1
 90
        1
176
     1
 40
0.5
176
     1
 41
30.0
176
     1
 63
     7
421
 16777215
176
     1
 74
     1
176
     1
 91
        0
176
     1
 64
     7
176
     1
 65
   257
176
     1
 75
     1
176
     1
175
     1
176
     1
 42
1.0
176
     1
 92
        8
176
     1
 66
     7
176
     1
 43
1.0
176
     1
 76
     1
176
     1
 77
     6
176
     1
 78
     2
176
     1
 67
     7
176
     1
 79
     3
176
     1
170
     0
176
     1
171
     0
176
     1
290
     0
176
     1
 93
       13
176
     1
 44
0.0
176
     1
173
     0
176
     1
1001
ACAD
1000
AcDbSavedByObjectVersion
1070
     0
  0
DICTIONARYVAR
  5
A313
102
{ACAD_REACTORS
330
C7
102
}
330
C7
100
DictionaryVariables
280
     0
  1
1:1
  0
DICTIONARYVAR
  5
A30F
102
{ACAD_REACTORS
330
C7
102
}
330
C7
100
DictionaryVariables
280
     0
  1
STANDARD
  0
DICTIONARYVAR
  5
A30E
102
{ACAD_REACTORS
330
C7
102
}
330
C7
100
DictionaryVariables
280
     0
  1
STANDARD
  0
DICTIONARYVAR
  5
A310
102
{ACAD_REACTORS
330
C7
102
}
330
C7
100
DictionaryVariables
280
     0
  1
Metric50
  0
DICTIONARYVAR
  5
A311
102
{ACAD_REACTORS
330
C7
102
}
330
C7
100
DictionaryVariables
280
     0
  1
Metric50
  0
DICTIONARYVAR
  5
C9
102
{ACAD_REACTORS
330
C7
102
}
330
C7
100
DictionaryVariables
280
     0
  1
2
  0
DICTIONARYVAR
  5
A2F1
102
{ACAD_REACTORS
330
C7
102
}
330
C7
100
DictionaryVariables
280
     0
  1
2
  0
DICTIONARYVAR
  5
C8
102
{ACAD_REACTORS
330
C7
102
}
330
C7
100
DictionaryVariables
280
     0
  1
1
  0
DICTIONARYVAR
  5
A315
102
{ACAD_REACTORS
330
C7
102
}
330
C7
100
DictionaryVariables
280
     0
  1
1
  0
DICTIONARYVAR
  5
A316
102
{ACAD_REACTORS
330
C7
102
}
330
C7
100
DictionaryVariables
280
     0
  1
15
  0
DICTIONARYVAR
  5
A314
102
{ACAD_REACTORS
330
C7
102
}
330
C7
100
DictionaryVariables
280
     0
  1
0
  0
DICTIONARYVAR
  5
A312
102
{ACAD_REACTORS
330
C7
102
}
330
C7
100
DictionaryVariables
280
     0
  1
0
  0
DICTIONARY
  5
A32D
102
{ACAD_REACTORS
330
A32B
102
}
330
A32B
100
AcDbDictionary
281
     1
  0
DICTIONARY
  5
A32C
102
{ACAD_REACTORS
330
A32B
102
}
330
A32B
100
AcDbDictionary
281
     1
  3
8796083606112
350
A326
  3
8796083606128
350
A327
  3
8796083606144
350
A328
  3
8796083606160
350
A329
  3
8796083606176
350
A32A
  0
DICTIONARY
  5
A30B
330
A145
100
AcDbDictionary
280
     1
281
     1
  3
ACAD_XREC_ROUNDTRIP
360
A361
  0
DICTIONARY
  5
A2EF
330
22
100
AcDbDictionary
280
     1
281
     1
  3
AcPublish_PlotSettingsOverride
360
A2F0
  0
DICTIONARY
  5
A103
330
A102
100
AcDbDictionary
280
     1
281
     1
  3
BUMPTILE
360
A105
  3
DIFFUSETILE
360
A104
  3
OPACITYTILE
360
A108
  3
REFLECTIONTILE
360
A107
  3
REFRACTIONTILE
360
A109
  3
SPECULARTILE
360
A106
  0
DICTIONARY
  5
A0FB
330
A0FA
100
AcDbDictionary
280
     1
281
     1
  3
BUMPTILE
360
A0FD
  3
DIFFUSETILE
360
A0FC
  3
OPACITYTILE
360
A100
  3
REFLECTIONTILE
360
A0FF
  3
REFRACTIONTILE
360
A101
  3
SPECULARTILE
360
A0FE
  0
DICTIONARY
  5
A10B
330
A10A
100
AcDbDictionary
280
     1
281
     1
  3
BUMPTILE
360
A10D
  3
DIFFUSETILE
360
A10C
  3
OPACITYTILE
360
A110
  3
REFLECTIONTILE
360
A10F
  3
REFRACTIONTILE
360
A111
  3
SPECULARTILE
360
A10E
  0
DICTIONARY
  5
A35E
330
A141
100
AcDbDictionary
280
     1
281
     1
  3
ACAD_XREC_ROUNDTRIP
360
A35F
  0
DICTIONARY
  5
A309
330
A143
100
AcDbDictionary
280
     1
281
     1
  3
ACAD_XREC_ROUNDTRIP
360
A360
  0
DICTIONARY
  5
A323
330
A12D
100
AcDbDictionary
280
     1
281
     1
  3
ACAD_ROUNDTRIP_2008_TABLESTYLE_CELLSTYLEMAP
360
A324
  0
DICTIONARY
  5
A338
330
A118
100
AcDbDictionary
280
     1
281
     1
  3
ACAD_XREC_ROUNDTRIP
360
A339
  0
DICTIONARY
  5
A336
330
A117
100
AcDbDictionary
280
     1
281
     1
  3
ACAD_XREC_ROUNDTRIP
360
A337
  0
DICTIONARY
  5
A344
330
A11E
100
AcDbDictionary
280
     1
281
     1
  3
ACAD_XREC_ROUNDTRIP
360
A345
  0
DICTIONARY
  5
A34C
330
A122
100
AcDbDictionary
280
     1
281
     1
  3
ACAD_XREC_ROUNDTRIP
360
A34D
  0
DICTIONARY
  5
A33E
330
A11B
100
AcDbDictionary
280
     1
281
     1
  3
ACAD_XREC_ROUNDTRIP
360
A33F
  0
DICTIONARY
  5
A342
330
A11D
100
AcDbDictionary
280
     1
281
     1
  3
ACAD_XREC_ROUNDTRIP
360
A343
  0
DICTIONARY
  5
A35C
330
A12A
100
AcDbDictionary
280
     1
281
     1
  3
ACAD_XREC_ROUNDTRIP
360
A35D
  0
DICTIONARY
  5
A34A
330
A121
100
AcDbDictionary
280
     1
281
     1
  3
ACAD_XREC_ROUNDTRIP
360
A34B
  0
DICTIONARY
  5
A32E
330
A113
100
AcDbDictionary
280
     1
281
     1
  3
ACAD_XREC_ROUNDTRIP
360
A32F
  0
DICTIONARY
  5
A330
330
A114
100
AcDbDictionary
280
     1
281
     1
  3
ACAD_XREC_ROUNDTRIP
360
A331
  0
DICTIONARY
  5
A332
330
A115
100
AcDbDictionary
280
     1
281
     1
  3
ACAD_XREC_ROUNDTRIP
360
A333
  0
DICTIONARY
  5
A334
330
A116
100
AcDbDictionary
280
     1
281
     1
  3
ACAD_XREC_ROUNDTRIP
360
A335
  0
DICTIONARY
  5
A33C
330
A11A
100
AcDbDictionary
280
     1
281
     1
  3
ACAD_XREC_ROUNDTRIP
360
A33D
  0
DICTIONARY
  5
A358
330
A128
100
AcDbDictionary
280
     1
281
     1
  3
ACAD_XREC_ROUNDTRIP
360
A359
  0
DICTIONARY
  5
A348
330
A120
100
AcDbDictionary
280
     1
281
     1
  3
ACAD_XREC_ROUNDTRIP
360
A349
  0
DICTIONARY
  5
A35A
330
A129
100
AcDbDictionary
280
     1
281
     1
  3
ACAD_XREC_ROUNDTRIP
360
A35B
  0
DICTIONARY
  5
A340
330
A11C
100
AcDbDictionary
280
     1
281
     1
  3
ACAD_XREC_ROUNDTRIP
360
A341
  0
DICTIONARY
  5
A356
330
A127
100
AcDbDictionary
280
     1
281
     1
  3
ACAD_XREC_ROUNDTRIP
360
A357
  0
DICTIONARY
  5
A354
330
A126
100
AcDbDictionary
280
     1
281
     1
  3
ACAD_XREC_ROUNDTRIP
360
A355
  0
DICTIONARY
  5
A34E
330
A123
100
AcDbDictionary
280
     1
281
     1
  3
ACAD_XREC_ROUNDTRIP
360
A34F
  0
DICTIONARY
  5
A350
330
A124
100
AcDbDictionary
280
     1
281
     1
  3
ACAD_XREC_ROUNDTRIP
360
A351
  0
DICTIONARY
  5
A346
330
A11F
100
AcDbDictionary
280
     1
281
     1
  3
ACAD_XREC_ROUNDTRIP
360
A347
  0
DICTIONARY
  5
A33A
330
A119
100
AcDbDictionary
280
     1
281
     1
  3
ACAD_XREC_ROUNDTRIP
360
A33B
  0
DICTIONARY
  5
A352
330
A125
100
AcDbDictionary
280
     1
281
     1
  3
ACAD_XREC_ROUNDTRIP
360
A353
  0
XRECORD
  5
A326
102
{ACAD_REACTORS
330
A32C
102
}
330
A32C
100
AcDbXrecord
280
     1
  1
AcDb_Thumbnail_Schema
102
{ATTRRECORD
341
A327
  2
AcDbDs::TreatedAsObjectData
280
     1
291
     1
102
ATTRRECORD}
102
{ATTRRECORD
341
A328
  2
AcDbDs::Legacy
280
     1
291
     1
102
ATTRRECORD}
  2
AcDbDs::ID
280
    10
 91
        8
102
{ATTRRECORD
341
A329
  2
AcDs:Indexable
280
     1
291
     1
102
ATTRRECORD}
102
{ATTRRECORD
341
A32A
  2
AcDbDs::HandleAttribute
280
     7
282
     1
102
ATTRRECORD}
  2
Thumbnail_Data
280
    15
 91
        0
  0
XRECORD
  5
A327
102
{ACAD_REACTORS
330
A32C
102
}
330
A32C
100
AcDbXrecord
280
     1
  1
AcDbDs::TreatedAsObjectDataSchema
  2
AcDbDs::TreatedAsObjectData
280
     1
 91
        0
  0
XRECORD
  5
A328
102
{ACAD_REACTORS
330
A32C
102
}
330
A32C
100
AcDbXrecord
280
     1
  1
AcDbDs::LegacySchema
  2
AcDbDs::Legacy
280
     1
 91
        0
  0
XRECORD
  5
A329
102
{ACAD_REACTORS
330
A32C
102
}
330
A32C
100
AcDbXrecord
280
     1
  1
AcDbDs::IndexedPropertySchema
  2
AcDs:Indexable
280
     1
 91
        0
  0
XRECORD
  5
A32A
102
{ACAD_REACTORS
330
A32C
102
}
330
A32C
100
AcDbXrecord
280
     1
  1
AcDbDs::HandleAttributeSchema
  2
AcDbDs::HandleAttribute
280
     7
 91
        1
284
     1
  0
XRECORD
  5
A361
102
{ACAD_REACTORS
330
A30B
102
}
330
A30B
100
AcDbXrecord
280
     1
102
DISPLAYNAME
  1
Metric50
102
FLAGS
 90
        0
  0
PLOTSETTINGS
  5
A2F0
102
{ACAD_REACTORS
330
A2EF
102
}
330
A2EF
100
AcDbPlotSettings
  1

  2
Acrobat Distiller
  4
ANSI_A_(8.50_x_11.00_Inches)
  6

 40
3.174999952316284
 41
3.174999952316284
 42
3.175003051757812
 43
3.17498779296875
 44
209.9098358154297
 45
297.0318298339844
 46
0.5095217751606498
 47
0.0
 48
446.2821888226139
 49
500.0391951922635
140
712.5221888199405
141
882.1406667984426
142
1.0
143
1.314500654256841
 70
 11956
 72
     1
 73
     0
 74
     4
  7
fuji.stb
 75
     0
147
0.7607451519796729
 76
     0
 77
     2
 78
   300
148
-446.2821888226139
149
-500.0391951922635
  0
XRECORD
  5
A105
102
{ACAD_REACTORS
330
A103
102
}
330
A103
100
AcDbXrecord
280
     1
270
     1
271
     1
  0
XRECORD
  5
A104
102
{ACAD_REACTORS
330
A103
102
}
330
A103
100
AcDbXrecord
280
     1
270
     1
271
     1
  0
XRECORD
  5
A108
102
{ACAD_REACTORS
330
A103
102
}
330
A103
100
AcDbXrecord
280
     1
270
     1
271
     1
  0
XRECORD
  5
A107
102
{ACAD_REACTORS
330
A103
102
}
330
A103
100
AcDbXrecord
280
     1
270
     1
271
     1
  0
XRECORD
  5
A109
102
{ACAD_REACTORS
330
A103
102
}
330
A103
100
AcDbXrecord
280
     1
270
     1
271
     1
  0
XRECORD
  5
A106
102
{ACAD_REACTORS
330
A103
102
}
330
A103
100
AcDbXrecord
280
     1
270
     1
271
     1
  0
XRECORD
  5
A0FD
102
{ACAD_REACTORS
330
A0FB
102
}
330
A0FB
100
AcDbXrecord
280
     1
270
     1
271
     1
  0
XRECORD
  5
A0FC
102
{ACAD_REACTORS
330
A0FB
102
}
330
A0FB
100
AcDbXrecord
280
     1
270
     1
271
     1
  0
XRECORD
  5
A100
102
{ACAD_REACTORS
330
A0FB
102
}
330
A0FB
100
AcDbXrecord
280
     1
270
     1
271
     1
  0
XRECORD
  5
A0FF
102
{ACAD_REACTORS
330
A0FB
102
}
330
A0FB
100
AcDbXrecord
280
     1
270
     1
271
     1
  0
XRECORD
  5
A101
102
{ACAD_REACTORS
330
A0FB
102
}
330
A0FB
100
AcDbXrecord
280
     1
270
     1
271
     1
  0
XRECORD
  5
A0FE
102
{ACAD_REACTORS
330
A0FB
102
}
330
A0FB
100
AcDbXrecord
280
     1
270
     1
271
     1
  0
XRECORD
  5
A10D
102
{ACAD_REACTORS
330
A10B
102
}
330
A10B
100
AcDbXrecord
280
     1
270
     1
271
     1
  0
XRECORD
  5
A10C
102
{ACAD_REACTORS
330
A10B
102
}
330
A10B
100
AcDbXrecord
280
     1
270
     1
271
     1
  0
XRECORD
  5
A110
102
{ACAD_REACTORS
330
A10B
102
}
330
A10B
100
AcDbXrecord
280
     1
270
     1
271
     1
  0
XRECORD
  5
A10F
102
{ACAD_REACTORS
330
A10B
102
}
330
A10B
100
AcDbXrecord
280
     1
270
     1
271
     1
  0
XRECORD
  5
A111
102
{ACAD_REACTORS
330
A10B
102
}
330
A10B
100
AcDbXrecord
280
     1
270
     1
271
     1
  0
XRECORD
  5
A10E
102
{ACAD_REACTORS
330
A10B
102
}
330
A10B
100
AcDbXrecord
280
     1
270
     1
271
     1
  0
XRECORD
  5
A35F
102
{ACAD_REACTORS
330
A35E
102
}
330
A35E
100
AcDbXrecord
280
     1
102
ACAD_ROUNDTRIP_2012_MLEADER_STYLE
298
     1
  0
XRECORD
  5
A360
102
{ACAD_REACTORS
330
A309
102
}
330
A309
100
AcDbXrecord
280
     1
102
DISPLAYNAME
  1
Metric50
102
FLAGS
 90
        0
  0
CELLSTYLEMAP
  5
A324
102
{ACAD_REACTORS
330
A323
102
}
330
A323
100
AcDbCellStyleMap
 90
        3
300
CELLSTYLE
  1
TABLEFORMAT_BEGIN
 90
        5
170
     1
 91
        0
 92
    32768
 62
   257
 93
        1
300
CONTENTFORMAT
  1
CONTENTFORMAT_BEGIN
 90
        0
 91
        0
 92
      512
 93
        0
300

 40
0.0
140
1.0
 94
        5
 62
     0
340
11
144
6.0
309
CONTENTFORMAT_END
171
     1
301
MARGIN
  1
CELLMARGIN_BEGIN
 40
1.5
 40
1.5
 40
1.5
 40
1.5
 40
4.5
 40
4.5
309
CELLMARGIN_END
 94
        6
 95
        1
302
GRIDFORMAT
  1
GRIDFORMAT_BEGIN
 90
        0
 91
        1
 62
     0
 92
       -2
340
0
 93
        0
 40
1.125
309
GRIDFORMAT_END
 95
        2
302
GRIDFORMAT
  1
GRIDFORMAT_BEGIN
 90
        0
 91
        1
 62
     0
 92
       -2
340
0
 93
        0
 40
1.125
309
GRIDFORMAT_END
 95
        4
302
GRIDFORMAT
  1
GRIDFORMAT_BEGIN
 90
        0
 91
        1
 62
     0
 92
       -2
340
0
 93
        0
 40
1.125
309
GRIDFORMAT_END
 95
        8
302
GRIDFORMAT
  1
GRIDFORMAT_BEGIN
 90
        0
 91
        1
 62
     0
 92
       -2
340
0
 93
        0
 40
1.125
309
GRIDFORMAT_END
 95
       16
302
GRIDFORMAT
  1
GRIDFORMAT_BEGIN
 90
        0
 91
        1
 62
     0
 92
       -2
340
0
 93
        0
 40
1.125
309
GRIDFORMAT_END
 95
       32
302
GRIDFORMAT
  1
GRIDFORMAT_BEGIN
 90
        0
 91
        1
 62
     0
 92
       -2
340
0
 93
        0
 40
1.125
309
GRIDFORMAT_END
309
TABLEFORMAT_END
  1
CELLSTYLE_BEGIN
 90
        1
 91
        1
300
_TITLE
309
CELLSTYLE_END
300
CELLSTYLE
  1
TABLEFORMAT_BEGIN
 90
        5
170
     1
 91
        0
 92
        0
 62
   257
 93
        1
300
CONTENTFORMAT
  1
CONTENTFORMAT_BEGIN
 90
        0
 91
        0
 92
      512
 93
        0
300

 40
0.0
140
1.0
 94
        5
 62
     0
340
11
144
4.5
309
CONTENTFORMAT_END
171
     1
301
MARGIN
  1
CELLMARGIN_BEGIN
 40
1.5
 40
1.5
 40
1.5
 40
1.5
 40
4.5
 40
4.5
309
CELLMARGIN_END
 94
        6
 95
        1
302
GRIDFORMAT
  1
GRIDFORMAT_BEGIN
 90
        0
 91
        1
 62
     0
 92
       -2
340
0
 93
        0
 40
1.125
309
GRIDFORMAT_END
 95
        2
302
GRIDFORMAT
  1
GRIDFORMAT_BEGIN
 90
        0
 91
        1
 62
     0
 92
       -2
340
0
 93
        0
 40
1.125
309
GRIDFORMAT_END
 95
        4
302
GRIDFORMAT
  1
GRIDFORMAT_BEGIN
 90
        0
 91
        1
 62
     0
 92
       -2
340
0
 93
        0
 40
1.125
309
GRIDFORMAT_END
 95
        8
302
GRIDFORMAT
  1
GRIDFORMAT_BEGIN
 90
        0
 91
        1
 62
     0
 92
       -2
340
0
 93
        0
 40
1.125
309
GRIDFORMAT_END
 95
       16
302
GRIDFORMAT
  1
GRIDFORMAT_BEGIN
 90
        0
 91
        1
 62
     0
 92
       -2
340
0
 93
        0
 40
1.125
309
GRIDFORMAT_END
 95
       32
302
GRIDFORMAT
  1
GRIDFORMAT_BEGIN
 90
        0
 91
        1
 62
     0
 92
       -2
340
0
 93
        0
 40
1.125
309
GRIDFORMAT_END
309
TABLEFORMAT_END
  1
CELLSTYLE_BEGIN
 90
        2
 91
        1
300
_HEADER
309
CELLSTYLE_END
300
CELLSTYLE
  1
TABLEFORMAT_BEGIN
 90
        5
170
     1
 91
        0
 92
        0
 62
   257
 93
        1
300
CONTENTFORMAT
  1
CONTENTFORMAT_BEGIN
 90
        0
 91
        0
 92
      512
 93
        0
300

 40
0.0
140
1.0
 94
        2
 62
     0
340
11
144
4.5
309
CONTENTFORMAT_END
171
     1
301
MARGIN
  1
CELLMARGIN_BEGIN
 40
1.5
 40
1.5
 40
1.5
 40
1.5
 40
4.5
 40
4.5
309
CELLMARGIN_END
 94
        6
 95
        1
302
GRIDFORMAT
  1
GRIDFORMAT_BEGIN
 90
        0
 91
        1
 62
     0
 92
       -2
340
0
 93
        0
 40
1.125
309
GRIDFORMAT_END
 95
        2
302
GRIDFORMAT
  1
GRIDFORMAT_BEGIN
 90
        0
 91
        1
 62
     0
 92
       -2
340
0
 93
        0
 40
1.125
309
GRIDFORMAT_END
 95
        4
302
GRIDFORMAT
  1
GRIDFORMAT_BEGIN
 90
        0
 91
        1
 62
     0
 92
       -2
340
0
 93
        0
 40
1.125
309
GRIDFORMAT_END
 95
        8
302
GRIDFORMAT
  1
GRIDFORMAT_BEGIN
 90
        0
 91
        1
 62
     0
 92
       -2
340
0
 93
        0
 40
1.125
309
GRIDFORMAT_END
 95
       16
302
GRIDFORMAT
  1
GRIDFORMAT_BEGIN
 90
        0
 91
        1
 62
     0
 92
       -2
340
0
 93
        0
 40
1.125
309
GRIDFORMAT_END
 95
       32
302
GRIDFORMAT
  1
GRIDFORMAT_BEGIN
 90
        0
 91
        1
 62
     0
 92
       -2
340
0
 93
        0
 40
1.125
309
GRIDFORMAT_END
309
TABLEFORMAT_END
  1
CELLSTYLE_BEGIN
 90
        3
 91
        2
300
_DATA
309
CELLSTYLE_END
  0
XRECORD
  5
A339
102
{ACAD_REACTORS
330
A338
102
}
330
A338
100
AcDbXrecord
280
     1
102
RTVSPost2010Prop28
280
     1
102
RTVSPost2010PropOp28
 70
     1
102
RTVSPost2010Prop29
280
     1
102
RTVSPost2010PropOp29
 70
     1
102
RTVSPost2010Prop30
280
     0
102
RTVSPost2010PropOp30
 70
     1
102
RTVSPost2010Prop31
280
     0
102
RTVSPost2010PropOp31
 70
     1
102
RTVSPost2010Prop32
280
     0
102
RTVSPost2010PropOp32
 70
     1
102
RTVSPost2010Prop33
280
     0
102
RTVSPost2010PropOp33
 70
     1
102
RTVSPost2010Prop34
280
     0
102
RTVSPost2010PropOp34
 70
     1
102
RTVSPost2010Prop35
280
     0
102
RTVSPost2010PropOp35
 70
     1
102
RTVSPost2010Prop36
280
     0
102
RTVSPost2010PropOp36
 70
     1
102
RTVSPost2010Prop37
 90
       50
102
RTVSPost2010PropOp37
 70
     1
102
RTVSPost2010Prop38
140
0.0
102
RTVSPost2010PropOp38
 70
     1
102
RTVSPost2010Prop39
140
1.0
102
RTVSPost2010PropOp39
 70
     1
102
RTVSPost2010Prop40
 90
        0
102
RTVSPost2010PropOp40
 70
     1
102
RTVSPost2010Prop41ColorIndex
 90
       18
102
RTVSPost2010Prop41ColorRGB
 90
        0
102
RTVSPost2010PropOp41
 70
     1
102
RTVSPost2010Prop42
 90
       50
102
RTVSPost2010PropOp42
 70
     1
102
RTVSPost2010Prop43
 90
        3
102
RTVSPost2010PropOp43
 70
     1
102
RTVSPost2010Prop44ColorIndex
 90
        5
102
RTVSPost2010Prop44ColorRGB
 90
      255
102
RTVSPost2010PropOp44
 70
     1
102
RTVSPost2010Prop45
280
     0
102
RTVSPost2010PropOp45
 70
     1
102
RTVSPost2010Prop46
 90
       50
102
RTVSPost2010PropOp46
 70
     1
102
RTVSPost2010Prop47
 90
       50
102
RTVSPost2010PropOp47
 70
     1
102
RTVSPost2010Prop48
 90
       50
102
RTVSPost2010PropOp48
 70
     1
102
RTVSPost2010Prop49
280
     0
102
RTVSPost2010PropOp49
 70
     1
102
RTVSPost2010Prop50
 90
       50
102
RTVSPost2010PropOp50
 70
     1
102
RTVSPost2010Prop51ColorIndex
 90
      256
102
RTVSPost2010Prop51ColorRGB
 90
-16777216
102
RTVSPost2010PropOp51
 70
     0
102
RTVSPost2010Prop52
140
1.0
102
RTVSPost2010PropOp52
 70
     0
102
RTVSPost2010Prop53
 90
        2
102
RTVSPost2010PropOp53
 70
     1
102
RTVSPost2010Prop54
  1
strokes_ogs.tif
102
RTVSPost2010PropOp54
 70
     1
102
RTVSPost2010Prop55
280
     0
102
RTVSPost2010PropOp55
 70
     1
102
RTVSPost2010Prop56
140
1.0
102
RTVSPost2010PropOp56
 70
     1
102
RTVSPost2010Prop57
140
1.0
102
RTVSPost2010PropOp57
 70
     1
  0
XRECORD
  5
A337
102
{ACAD_REACTORS
330
A336
102
}
330
A336
100
AcDbXrecord
280
     1
102
RTVSPost2010Prop28
280
     0
102
RTVSPost2010PropOp28
 70
     1
102
RTVSPost2010Prop29
280
     1
102
RTVSPost2010PropOp29
 70
     1
102
RTVSPost2010Prop30
280
     1
102
RTVSPost2010PropOp30
 70
     1
102
RTVSPost2010Prop31
280
     0
102
RTVSPost2010PropOp31
 70
     1
102
RTVSPost2010Prop32
280
     0
102
RTVSPost2010PropOp32
 70
     1
102
RTVSPost2010Prop33
280
     0
102
RTVSPost2010PropOp33
 70
     1
102
RTVSPost2010Prop34
280
     0
102
RTVSPost2010PropOp34
 70
     1
102
RTVSPost2010Prop35
280
     0
102
RTVSPost2010PropOp35
 70
     1
102
RTVSPost2010Prop36
280
     0
102
RTVSPost2010PropOp36
 70
     1
102
RTVSPost2010Prop37
 90
       50
102
RTVSPost2010PropOp37
 70
     1
102
RTVSPost2010Prop38
140
0.0
102
RTVSPost2010PropOp38
 70
     1
102
RTVSPost2010Prop39
140
1.0
102
RTVSPost2010PropOp39
 70
     1
102
RTVSPost2010Prop40
 90
        0
102
RTVSPost2010PropOp40
 70
     1
102
RTVSPost2010Prop41ColorIndex
 90
       18
102
RTVSPost2010Prop41ColorRGB
 90
        0
102
RTVSPost2010PropOp41
 70
     1
102
RTVSPost2010Prop42
 90
       50
102
RTVSPost2010PropOp42
 70
     1
102
RTVSPost2010Prop43
 90
        3
102
RTVSPost2010PropOp43
 70
     1
102
RTVSPost2010Prop44ColorIndex
 90
        5
102
RTVSPost2010Prop44ColorRGB
 90
      255
102
RTVSPost2010PropOp44
 70
     1
102
RTVSPost2010Prop45
280
     0
102
RTVSPost2010PropOp45
 70
     1
102
RTVSPost2010Prop46
 90
       50
102
RTVSPost2010PropOp46
 70
     1
102
RTVSPost2010Prop47
 90
       50
102
RTVSPost2010PropOp47
 70
     1
102
RTVSPost2010Prop48
 90
       50
102
RTVSPost2010PropOp48
 70
     1
102
RTVSPost2010Prop49
280
     0
102
RTVSPost2010PropOp49
 70
     1
102
RTVSPost2010Prop50
 90
       50
102
RTVSPost2010PropOp50
 70
     1
102
RTVSPost2010Prop51ColorIndex
 90
      256
102
RTVSPost2010Prop51ColorRGB
 90
-16777216
102
RTVSPost2010PropOp51
 70
     0
102
RTVSPost2010Prop52
140
1.0
102
RTVSPost2010PropOp52
 70
     0
102
RTVSPost2010Prop53
 90
        2
102
RTVSPost2010PropOp53
 70
     1
102
RTVSPost2010Prop54
  1
strokes_ogs.tif
102
RTVSPost2010PropOp54
 70
     1
102
RTVSPost2010Prop55
280
     0
102
RTVSPost2010PropOp55
 70
     1
102
RTVSPost2010Prop56
140
1.0
102
RTVSPost2010PropOp56
 70
     1
102
RTVSPost2010Prop57
140
1.0
102
RTVSPost2010PropOp57
 70
     1
  0
XRECORD
  5
A345
102
{ACAD_REACTORS
330
A344
102
}
330
A344
100
AcDbXrecord
280
     1
102
RTVSPost2010Prop28
280
     0
102
RTVSPost2010PropOp28
 70
     1
102
RTVSPost2010Prop29
280
     1
102
RTVSPost2010PropOp29
 70
     1
102
RTVSPost2010Prop30
280
     1
102
RTVSPost2010PropOp30
 70
     1
102
RTVSPost2010Prop31
280
     0
102
RTVSPost2010PropOp31
 70
     1
102
RTVSPost2010Prop32
280
     0
102
RTVSPost2010PropOp32
 70
     1
102
RTVSPost2010Prop33
280
     0
102
RTVSPost2010PropOp33
 70
     1
102
RTVSPost2010Prop34
280
     0
102
RTVSPost2010PropOp34
 70
     1
102
RTVSPost2010Prop35
280
     0
102
RTVSPost2010PropOp35
 70
     1
102
RTVSPost2010Prop36
280
     0
102
RTVSPost2010PropOp36
 70
     1
102
RTVSPost2010Prop37
 90
       50
102
RTVSPost2010PropOp37
 70
     1
102
RTVSPost2010Prop38
140
0.0
102
RTVSPost2010PropOp38
 70
     1
102
RTVSPost2010Prop39
140
1.0
102
RTVSPost2010PropOp39
 70
     1
102
RTVSPost2010Prop40
 90
        0
102
RTVSPost2010PropOp40
 70
     1
102
RTVSPost2010Prop41ColorIndex
 90
       18
102
RTVSPost2010Prop41ColorRGB
 90
        0
102
RTVSPost2010PropOp41
 70
     1
102
RTVSPost2010Prop42
 90
       50
102
RTVSPost2010PropOp42
 70
     1
102
RTVSPost2010Prop43
 90
        3
102
RTVSPost2010PropOp43
 70
     1
102
RTVSPost2010Prop44ColorIndex
 90
        5
102
RTVSPost2010Prop44ColorRGB
 90
      255
102
RTVSPost2010PropOp44
 70
     1
102
RTVSPost2010Prop45
280
     0
102
RTVSPost2010PropOp45
 70
     1
102
RTVSPost2010Prop46
 90
       50
102
RTVSPost2010PropOp46
 70
     1
102
RTVSPost2010Prop47
 90
       50
102
RTVSPost2010PropOp47
 70
     1
102
RTVSPost2010Prop48
 90
       50
102
RTVSPost2010PropOp48
 70
     1
102
RTVSPost2010Prop49
280
     0
102
RTVSPost2010PropOp49
 70
     1
102
RTVSPost2010Prop50
 90
       50
102
RTVSPost2010PropOp50
 70
     1
102
RTVSPost2010Prop51ColorIndex
 90
      256
102
RTVSPost2010Prop51ColorRGB
 90
-16777216
102
RTVSPost2010PropOp51
 70
     0
102
RTVSPost2010Prop52
140
1.0
102
RTVSPost2010PropOp52
 70
     0
102
RTVSPost2010Prop53
 90
        2
102
RTVSPost2010PropOp53
 70
     1
102
RTVSPost2010Prop54
  1
strokes_ogs.tif
102
RTVSPost2010PropOp54
 70
     1
102
RTVSPost2010Prop55
280
     0
102
RTVSPost2010PropOp55
 70
     1
102
RTVSPost2010Prop56
140
1.0
102
RTVSPost2010PropOp56
 70
     1
102
RTVSPost2010Prop57
140
1.0
102
RTVSPost2010PropOp57
 70
     1
  0
XRECORD
  5
A34D
102
{ACAD_REACTORS
330
A34C
102
}
330
A34C
100
AcDbXrecord
280
     1
102
RTVSPost2010Prop28
280
     0
102
RTVSPost2010PropOp28
 70
     1
102
RTVSPost2010Prop29
280
     1
102
RTVSPost2010PropOp29
 70
     1
102
RTVSPost2010Prop30
280
     1
102
RTVSPost2010PropOp30
 70
     1
102
RTVSPost2010Prop31
280
     0
102
RTVSPost2010PropOp31
 70
     1
102
RTVSPost2010Prop32
280
     0
102
RTVSPost2010PropOp32
 70
     1
102
RTVSPost2010Prop33
280
     0
102
RTVSPost2010PropOp33
 70
     1
102
RTVSPost2010Prop34
280
     0
102
RTVSPost2010PropOp34
 70
     1
102
RTVSPost2010Prop35
280
     0
102
RTVSPost2010PropOp35
 70
     1
102
RTVSPost2010Prop36
280
     0
102
RTVSPost2010PropOp36
 70
     1
102
RTVSPost2010Prop37
 90
       50
102
RTVSPost2010PropOp37
 70
     1
102
RTVSPost2010Prop38
140
0.0
102
RTVSPost2010PropOp38
 70
     1
102
RTVSPost2010Prop39
140
1.0
102
RTVSPost2010PropOp39
 70
     1
102
RTVSPost2010Prop40
 90
        0
102
RTVSPost2010PropOp40
 70
     1
102
RTVSPost2010Prop41ColorIndex
 90
       18
102
RTVSPost2010Prop41ColorRGB
 90
        0
102
RTVSPost2010PropOp41
 70
     1
102
RTVSPost2010Prop42
 90
       50
102
RTVSPost2010PropOp42
 70
     1
102
RTVSPost2010Prop43
 90
        3
102
RTVSPost2010PropOp43
 70
     1
102
RTVSPost2010Prop44ColorIndex
 90
        5
102
RTVSPost2010Prop44ColorRGB
 90
      255
102
RTVSPost2010PropOp44
 70
     1
102
RTVSPost2010Prop45
280
     0
102
RTVSPost2010PropOp45
 70
     1
102
RTVSPost2010Prop46
 90
       50
102
RTVSPost2010PropOp46
 70
     1
102
RTVSPost2010Prop47
 90
       50
102
RTVSPost2010PropOp47
 70
     1
102
RTVSPost2010Prop48
 90
       50
102
RTVSPost2010PropOp48
 70
     1
102
RTVSPost2010Prop49
280
     0
102
RTVSPost2010PropOp49
 70
     1
102
RTVSPost2010Prop50
 90
       50
102
RTVSPost2010PropOp50
 70
     1
102
RTVSPost2010Prop51ColorIndex
 90
      256
102
RTVSPost2010Prop51ColorRGB
 90
-16777216
102
RTVSPost2010PropOp51
 70
     0
102
RTVSPost2010Prop52
140
1.0
102
RTVSPost2010PropOp52
 70
     0
102
RTVSPost2010Prop53
 90
        2
102
RTVSPost2010PropOp53
 70
     1
102
RTVSPost2010Prop54
  1
strokes_ogs.tif
102
RTVSPost2010PropOp54
 70
     1
102
RTVSPost2010Prop55
280
     0
102
RTVSPost2010PropOp55
 70
     1
102
RTVSPost2010Prop56
140
1.0
102
RTVSPost2010PropOp56
 70
     1
102
RTVSPost2010Prop57
140
1.0
102
RTVSPost2010PropOp57
 70
     1
  0
XRECORD
  5
A33F
102
{ACAD_REACTORS
330
A33E
102
}
330
A33E
100
AcDbXrecord
280
     1
102
RTVSPost2010Prop28
280
     0
102
RTVSPost2010PropOp28
 70
     1
102
RTVSPost2010Prop29
280
     1
102
RTVSPost2010PropOp29
 70
     1
102
RTVSPost2010Prop30
280
     1
102
RTVSPost2010PropOp30
 70
     1
102
RTVSPost2010Prop31
280
     0
102
RTVSPost2010PropOp31
 70
     1
102
RTVSPost2010Prop32
280
     0
102
RTVSPost2010PropOp32
 70
     1
102
RTVSPost2010Prop33
280
     0
102
RTVSPost2010PropOp33
 70
     1
102
RTVSPost2010Prop34
280
     0
102
RTVSPost2010PropOp34
 70
     1
102
RTVSPost2010Prop35
280
     0
102
RTVSPost2010PropOp35
 70
     1
102
RTVSPost2010Prop36
280
     0
102
RTVSPost2010PropOp36
 70
     1
102
RTVSPost2010Prop37
 90
       50
102
RTVSPost2010PropOp37
 70
     1
102
RTVSPost2010Prop38
140
0.0
102
RTVSPost2010PropOp38
 70
     1
102
RTVSPost2010Prop39
140
1.0
102
RTVSPost2010PropOp39
 70
     1
102
RTVSPost2010Prop40
 90
        0
102
RTVSPost2010PropOp40
 70
     1
102
RTVSPost2010Prop41ColorIndex
 90
       18
102
RTVSPost2010Prop41ColorRGB
 90
        0
102
RTVSPost2010PropOp41
 70
     1
102
RTVSPost2010Prop42
 90
       50
102
RTVSPost2010PropOp42
 70
     1
102
RTVSPost2010Prop43
 90
        3
102
RTVSPost2010PropOp43
 70
     1
102
RTVSPost2010Prop44ColorIndex
 90
        5
102
RTVSPost2010Prop44ColorRGB
 90
      255
102
RTVSPost2010PropOp44
 70
     1
102
RTVSPost2010Prop45
280
     0
102
RTVSPost2010PropOp45
 70
     1
102
RTVSPost2010Prop46
 90
       50
102
RTVSPost2010PropOp46
 70
     1
102
RTVSPost2010Prop47
 90
       50
102
RTVSPost2010PropOp47
 70
     1
102
RTVSPost2010Prop48
 90
       50
102
RTVSPost2010PropOp48
 70
     1
102
RTVSPost2010Prop49
280
     0
102
RTVSPost2010PropOp49
 70
     1
102
RTVSPost2010Prop50
 90
       50
102
RTVSPost2010PropOp50
 70
     1
102
RTVSPost2010Prop51ColorIndex
 90
      256
102
RTVSPost2010Prop51ColorRGB
 90
-16777216
102
RTVSPost2010PropOp51
 70
     0
102
RTVSPost2010Prop52
140
1.0
102
RTVSPost2010PropOp52
 70
     0
102
RTVSPost2010Prop53
 90
        2
102
RTVSPost2010PropOp53
 70
     1
102
RTVSPost2010Prop54
  1
strokes_ogs.tif
102
RTVSPost2010PropOp54
 70
     1
102
RTVSPost2010Prop55
280
     0
102
RTVSPost2010PropOp55
 70
     1
102
RTVSPost2010Prop56
140
1.0
102
RTVSPost2010PropOp56
 70
     1
102
RTVSPost2010Prop57
140
1.0
102
RTVSPost2010PropOp57
 70
     1
  0
XRECORD
  5
A343
102
{ACAD_REACTORS
330
A342
102
}
330
A342
100
AcDbXrecord
280
     1
102
RTVSPost2010Prop28
280
     0
102
RTVSPost2010PropOp28
 70
     1
102
RTVSPost2010Prop29
280
     1
102
RTVSPost2010PropOp29
 70
     1
102
RTVSPost2010Prop30
280
     1
102
RTVSPost2010PropOp30
 70
     1
102
RTVSPost2010Prop31
280
     0
102
RTVSPost2010PropOp31
 70
     1
102
RTVSPost2010Prop32
280
     0
102
RTVSPost2010PropOp32
 70
     1
102
RTVSPost2010Prop33
280
     0
102
RTVSPost2010PropOp33
 70
     1
102
RTVSPost2010Prop34
280
     0
102
RTVSPost2010PropOp34
 70
     1
102
RTVSPost2010Prop35
280
     0
102
RTVSPost2010PropOp35
 70
     1
102
RTVSPost2010Prop36
280
     0
102
RTVSPost2010PropOp36
 70
     1
102
RTVSPost2010Prop37
 90
       50
102
RTVSPost2010PropOp37
 70
     1
102
RTVSPost2010Prop38
140
0.0
102
RTVSPost2010PropOp38
 70
     1
102
RTVSPost2010Prop39
140
1.0
102
RTVSPost2010PropOp39
 70
     1
102
RTVSPost2010Prop40
 90
        0
102
RTVSPost2010PropOp40
 70
     1
102
RTVSPost2010Prop41ColorIndex
 90
       18
102
RTVSPost2010Prop41ColorRGB
 90
        0
102
RTVSPost2010PropOp41
 70
     1
102
RTVSPost2010Prop42
 90
       50
102
RTVSPost2010PropOp42
 70
     1
102
RTVSPost2010Prop43
 90
        3
102
RTVSPost2010PropOp43
 70
     1
102
RTVSPost2010Prop44ColorIndex
 90
        5
102
RTVSPost2010Prop44ColorRGB
 90
      255
102
RTVSPost2010PropOp44
 70
     1
102
RTVSPost2010Prop45
280
     0
102
RTVSPost2010PropOp45
 70
     1
102
RTVSPost2010Prop46
 90
       50
102
RTVSPost2010PropOp46
 70
     1
102
RTVSPost2010Prop47
 90
       50
102
RTVSPost2010PropOp47
 70
     1
102
RTVSPost2010Prop48
 90
       50
102
RTVSPost2010PropOp48
 70
     1
102
RTVSPost2010Prop49
280
     0
102
RTVSPost2010PropOp49
 70
     1
102
RTVSPost2010Prop50
 90
       50
102
RTVSPost2010PropOp50
 70
     1
102
RTVSPost2010Prop51ColorIndex
 90
      256
102
RTVSPost2010Prop51ColorRGB
 90
-16777216
102
RTVSPost2010PropOp51
 70
     0
102
RTVSPost2010Prop52
140
1.0
102
RTVSPost2010PropOp52
 70
     0
102
RTVSPost2010Prop53
 90
        2
102
RTVSPost2010PropOp53
 70
     1
102
RTVSPost2010Prop54
  1
strokes_ogs.tif
102
RTVSPost2010PropOp54
 70
     1
102
RTVSPost2010Prop55
280
     0
102
RTVSPost2010PropOp55
 70
     1
102
RTVSPost2010Prop56
140
1.0
102
RTVSPost2010PropOp56
 70
     1
102
RTVSPost2010Prop57
140
1.0
102
RTVSPost2010PropOp57
 70
     1
  0
XRECORD
  5
A35D
102
{ACAD_REACTORS
330
A35C
102
}
330
A35C
100
AcDbXrecord
280
     1
102
RTVSPost2010Prop28
280
     0
102
RTVSPost2010PropOp28
 70
     0
102
RTVSPost2010Prop29
280
     1
102
RTVSPost2010PropOp29
 70
     0
102
RTVSPost2010Prop30
280
     1
102
RTVSPost2010PropOp30
 70
     0
102
RTVSPost2010Prop31
280
     0
102
RTVSPost2010PropOp31
 70
     0
102
RTVSPost2010Prop32
280
     0
102
RTVSPost2010PropOp32
 70
     0
102
RTVSPost2010Prop33
280
     0
102
RTVSPost2010PropOp33
 70
     0
102
RTVSPost2010Prop34
280
     0
102
RTVSPost2010PropOp34
 70
     0
102
RTVSPost2010Prop35
280
     0
102
RTVSPost2010PropOp35
 70
     0
102
RTVSPost2010Prop36
280
     0
102
RTVSPost2010PropOp36
 70
     0
102
RTVSPost2010Prop37
 90
       50
102
RTVSPost2010PropOp37
 70
     0
102
RTVSPost2010Prop38
140
0.0
102
RTVSPost2010PropOp38
 70
     0
102
RTVSPost2010Prop39
140
1.0
102
RTVSPost2010PropOp39
 70
     0
102
RTVSPost2010Prop40
 90
        0
102
RTVSPost2010PropOp40
 70
     0
102
RTVSPost2010Prop41ColorIndex
 90
       18
102
RTVSPost2010Prop41ColorRGB
 90
        0
102
RTVSPost2010PropOp41
 70
     0
102
RTVSPost2010Prop42
 90
       50
102
RTVSPost2010PropOp42
 70
     0
102
RTVSPost2010Prop43
 90
        3
102
RTVSPost2010PropOp43
 70
     0
102
RTVSPost2010Prop44ColorIndex
 90
        5
102
RTVSPost2010Prop44ColorRGB
 90
      255
102
RTVSPost2010PropOp44
 70
     0
102
RTVSPost2010Prop45
280
     0
102
RTVSPost2010PropOp45
 70
     0
102
RTVSPost2010Prop46
 90
       50
102
RTVSPost2010PropOp46
 70
     0
102
RTVSPost2010Prop47
 90
       50
102
RTVSPost2010PropOp47
 70
     0
102
RTVSPost2010Prop48
 90
       50
102
RTVSPost2010PropOp48
 70
     0
102
RTVSPost2010Prop49
280
     0
102
RTVSPost2010PropOp49
 70
     0
102
RTVSPost2010Prop50
 90
       50
102
RTVSPost2010PropOp50
 70
     0
102
RTVSPost2010Prop51ColorIndex
 90
      256
102
RTVSPost2010Prop51ColorRGB
 90
-16777216
102
RTVSPost2010PropOp51
 70
     0
102
RTVSPost2010Prop52
140
1.0
102
RTVSPost2010PropOp52
 70
     0
102
RTVSPost2010Prop53
 90
        2
102
RTVSPost2010PropOp53
 70
     0
102
RTVSPost2010Prop54
  1
strokes_ogs.tif
102
RTVSPost2010PropOp54
 70
     0
102
RTVSPost2010Prop55
280
     0
102
RTVSPost2010PropOp55
 70
     0
102
RTVSPost2010Prop56
140
1.0
102
RTVSPost2010PropOp56
 70
     0
102
RTVSPost2010Prop57
140
1.0
102
RTVSPost2010PropOp57
 70
     0
  0
XRECORD
  5
A34B
102
{ACAD_REACTORS
330
A34A
102
}
330
A34A
100
AcDbXrecord
280
     1
102
RTVSPost2010Prop28
280
     0
102
RTVSPost2010PropOp28
 70
     1
102
RTVSPost2010Prop29
280
     1
102
RTVSPost2010PropOp29
 70
     1
102
RTVSPost2010Prop30
280
     1
102
RTVSPost2010PropOp30
 70
     1
102
RTVSPost2010Prop31
280
     0
102
RTVSPost2010PropOp31
 70
     1
102
RTVSPost2010Prop32
280
     0
102
RTVSPost2010PropOp32
 70
     1
102
RTVSPost2010Prop33
280
     0
102
RTVSPost2010PropOp33
 70
     1
102
RTVSPost2010Prop34
280
     0
102
RTVSPost2010PropOp34
 70
     1
102
RTVSPost2010Prop35
280
     0
102
RTVSPost2010PropOp35
 70
     1
102
RTVSPost2010Prop36
280
     0
102
RTVSPost2010PropOp36
 70
     1
102
RTVSPost2010Prop37
 90
       50
102
RTVSPost2010PropOp37
 70
     1
102
RTVSPost2010Prop38
140
0.0
102
RTVSPost2010PropOp38
 70
     1
102
RTVSPost2010Prop39
140
1.0
102
RTVSPost2010PropOp39
 70
     1
102
RTVSPost2010Prop40
 90
        0
102
RTVSPost2010PropOp40
 70
     1
102
RTVSPost2010Prop41ColorIndex
 90
       18
102
RTVSPost2010Prop41ColorRGB
 90
        0
102
RTVSPost2010PropOp41
 70
     1
102
RTVSPost2010Prop42
 90
       50
102
RTVSPost2010PropOp42
 70
     1
102
RTVSPost2010Prop43
 90
        3
102
RTVSPost2010PropOp43
 70
     1
102
RTVSPost2010Prop44ColorIndex
 90
        5
102
RTVSPost2010Prop44ColorRGB
 90
      255
102
RTVSPost2010PropOp44
 70
     1
102
RTVSPost2010Prop45
280
     0
102
RTVSPost2010PropOp45
 70
     1
102
RTVSPost2010Prop46
 90
       50
102
RTVSPost2010PropOp46
 70
     1
102
RTVSPost2010Prop47
 90
       50
102
RTVSPost2010PropOp47
 70
     1
102
RTVSPost2010Prop48
 90
       50
102
RTVSPost2010PropOp48
 70
     1
102
RTVSPost2010Prop49
280
     0
102
RTVSPost2010PropOp49
 70
     1
102
RTVSPost2010Prop50
 90
       50
102
RTVSPost2010PropOp50
 70
     1
102
RTVSPost2010Prop51ColorIndex
 90
      256
102
RTVSPost2010Prop51ColorRGB
 90
-16777216
102
RTVSPost2010PropOp51
 70
     0
102
RTVSPost2010Prop52
140
1.0
102
RTVSPost2010PropOp52
 70
     0
102
RTVSPost2010Prop53
 90
        2
102
RTVSPost2010PropOp53
 70
     1
102
RTVSPost2010Prop54
  1
strokes_ogs.tif
102
RTVSPost2010PropOp54
 70
     1
102
RTVSPost2010Prop55
280
     0
102
RTVSPost2010PropOp55
 70
     1
102
RTVSPost2010Prop56
140
1.0
102
RTVSPost2010PropOp56
 70
     1
102
RTVSPost2010Prop57
140
1.0
102
RTVSPost2010PropOp57
 70
     1
  0
XRECORD
  5
A32F
102
{ACAD_REACTORS
330
A32E
102
}
330
A32E
100
AcDbXrecord
280
     1
102
RTVSPost2010Prop28
280
     0
102
RTVSPost2010PropOp28
 70
     1
102
RTVSPost2010Prop29
280
     1
102
RTVSPost2010PropOp29
 70
     1
102
RTVSPost2010Prop30
280
     1
102
RTVSPost2010PropOp30
 70
     1
102
RTVSPost2010Prop31
280
     0
102
RTVSPost2010PropOp31
 70
     1
102
RTVSPost2010Prop32
280
     0
102
RTVSPost2010PropOp32
 70
     1
102
RTVSPost2010Prop33
280
     0
102
RTVSPost2010PropOp33
 70
     1
102
RTVSPost2010Prop34
280
     0
102
RTVSPost2010PropOp34
 70
     1
102
RTVSPost2010Prop35
280
     0
102
RTVSPost2010PropOp35
 70
     1
102
RTVSPost2010Prop36
280
     0
102
RTVSPost2010PropOp36
 70
     1
102
RTVSPost2010Prop37
 90
       50
102
RTVSPost2010PropOp37
 70
     1
102
RTVSPost2010Prop38
140
0.0
102
RTVSPost2010PropOp38
 70
     1
102
RTVSPost2010Prop39
140
1.0
102
RTVSPost2010PropOp39
 70
     1
102
RTVSPost2010Prop40
 90
        0
102
RTVSPost2010PropOp40
 70
     1
102
RTVSPost2010Prop41ColorIndex
 90
       18
102
RTVSPost2010Prop41ColorRGB
 90
        0
102
RTVSPost2010PropOp41
 70
     1
102
RTVSPost2010Prop42
 90
       50
102
RTVSPost2010PropOp42
 70
     1
102
RTVSPost2010Prop43
 90
        3
102
RTVSPost2010PropOp43
 70
     1
102
RTVSPost2010Prop44ColorIndex
 90
        5
102
RTVSPost2010Prop44ColorRGB
 90
      255
102
RTVSPost2010PropOp44
 70
     1
102
RTVSPost2010Prop45
280
     0
102
RTVSPost2010PropOp45
 70
     1
102
RTVSPost2010Prop46
 90
       50
102
RTVSPost2010PropOp46
 70
     1
102
RTVSPost2010Prop47
 90
       50
102
RTVSPost2010PropOp47
 70
     1
102
RTVSPost2010Prop48
 90
       50
102
RTVSPost2010PropOp48
 70
     1
102
RTVSPost2010Prop49
280
     0
102
RTVSPost2010PropOp49
 70
     1
102
RTVSPost2010Prop50
 90
       50
102
RTVSPost2010PropOp50
 70
     1
102
RTVSPost2010Prop51ColorIndex
 90
      256
102
RTVSPost2010Prop51ColorRGB
 90
-16777216
102
RTVSPost2010PropOp51
 70
     0
102
RTVSPost2010Prop52
140
1.0
102
RTVSPost2010PropOp52
 70
     0
102
RTVSPost2010Prop53
 90
        2
102
RTVSPost2010PropOp53
 70
     1
102
RTVSPost2010Prop54
  1
strokes_ogs.tif
102
RTVSPost2010PropOp54
 70
     1
102
RTVSPost2010Prop55
280
     0
102
RTVSPost2010PropOp55
 70
     1
102
RTVSPost2010Prop56
140
1.0
102
RTVSPost2010PropOp56
 70
     1
102
RTVSPost2010Prop57
140
1.0
102
RTVSPost2010PropOp57
 70
     1
  0
XRECORD
  5
A331
102
{ACAD_REACTORS
330
A330
102
}
330
A330
100
AcDbXrecord
280
     1
102
RTVSPost2010Prop28
280
     0
102
RTVSPost2010PropOp28
 70
     1
102
RTVSPost2010Prop29
280
     1
102
RTVSPost2010PropOp29
 70
     1
102
RTVSPost2010Prop30
280
     1
102
RTVSPost2010PropOp30
 70
     1
102
RTVSPost2010Prop31
280
     0
102
RTVSPost2010PropOp31
 70
     1
102
RTVSPost2010Prop32
280
     0
102
RTVSPost2010PropOp32
 70
     1
102
RTVSPost2010Prop33
280
     0
102
RTVSPost2010PropOp33
 70
     1
102
RTVSPost2010Prop34
280
     0
102
RTVSPost2010PropOp34
 70
     1
102
RTVSPost2010Prop35
280
     0
102
RTVSPost2010PropOp35
 70
     1
102
RTVSPost2010Prop36
280
     0
102
RTVSPost2010PropOp36
 70
     1
102
RTVSPost2010Prop37
 90
       50
102
RTVSPost2010PropOp37
 70
     1
102
RTVSPost2010Prop38
140
0.0
102
RTVSPost2010PropOp38
 70
     1
102
RTVSPost2010Prop39
140
1.0
102
RTVSPost2010PropOp39
 70
     1
102
RTVSPost2010Prop40
 90
        0
102
RTVSPost2010PropOp40
 70
     1
102
RTVSPost2010Prop41ColorIndex
 90
       18
102
RTVSPost2010Prop41ColorRGB
 90
        0
102
RTVSPost2010PropOp41
 70
     1
102
RTVSPost2010Prop42
 90
       50
102
RTVSPost2010PropOp42
 70
     1
102
RTVSPost2010Prop43
 90
        3
102
RTVSPost2010PropOp43
 70
     1
102
RTVSPost2010Prop44ColorIndex
 90
        5
102
RTVSPost2010Prop44ColorRGB
 90
      255
102
RTVSPost2010PropOp44
 70
     1
102
RTVSPost2010Prop45
280
     0
102
RTVSPost2010PropOp45
 70
     1
102
RTVSPost2010Prop46
 90
       50
102
RTVSPost2010PropOp46
 70
     1
102
RTVSPost2010Prop47
 90
       50
102
RTVSPost2010PropOp47
 70
     1
102
RTVSPost2010Prop48
 90
       50
102
RTVSPost2010PropOp48
 70
     1
102
RTVSPost2010Prop49
280
     0
102
RTVSPost2010PropOp49
 70
     1
102
RTVSPost2010Prop50
 90
       50
102
RTVSPost2010PropOp50
 70
     1
102
RTVSPost2010Prop51ColorIndex
 90
      256
102
RTVSPost2010Prop51ColorRGB
 90
-16777216
102
RTVSPost2010PropOp51
 70
     0
102
RTVSPost2010Prop52
140
1.0
102
RTVSPost2010PropOp52
 70
     0
102
RTVSPost2010Prop53
 90
        2
102
RTVSPost2010PropOp53
 70
     1
102
RTVSPost2010Prop54
  1
strokes_ogs.tif
102
RTVSPost2010PropOp54
 70
     1
102
RTVSPost2010Prop55
280
     0
102
RTVSPost2010PropOp55
 70
     1
102
RTVSPost2010Prop56
140
1.0
102
RTVSPost2010PropOp56
 70
     1
102
RTVSPost2010Prop57
140
1.0
102
RTVSPost2010PropOp57
 70
     1
  0
XRECORD
  5
A333
102
{ACAD_REACTORS
330
A332
102
}
330
A332
100
AcDbXrecord
280
     1
102
RTVSPost2010Prop28
280
     0
102
RTVSPost2010PropOp28
 70
     1
102
RTVSPost2010Prop29
280
     1
102
RTVSPost2010PropOp29
 70
     1
102
RTVSPost2010Prop30
280
     1
102
RTVSPost2010PropOp30
 70
     1
102
RTVSPost2010Prop31
280
     0
102
RTVSPost2010PropOp31
 70
     1
102
RTVSPost2010Prop32
280
     0
102
RTVSPost2010PropOp32
 70
     1
102
RTVSPost2010Prop33
280
     0
102
RTVSPost2010PropOp33
 70
     1
102
RTVSPost2010Prop34
280
     0
102
RTVSPost2010PropOp34
 70
     1
102
RTVSPost2010Prop35
280
     0
102
RTVSPost2010PropOp35
 70
     1
102
RTVSPost2010Prop36
280
     0
102
RTVSPost2010PropOp36
 70
     1
102
RTVSPost2010Prop37
 90
       50
102
RTVSPost2010PropOp37
 70
     1
102
RTVSPost2010Prop38
140
0.0
102
RTVSPost2010PropOp38
 70
     1
102
RTVSPost2010Prop39
140
1.0
102
RTVSPost2010PropOp39
 70
     1
102
RTVSPost2010Prop40
 90
        0
102
RTVSPost2010PropOp40
 70
     1
102
RTVSPost2010Prop41ColorIndex
 90
       18
102
RTVSPost2010Prop41ColorRGB
 90
        0
102
RTVSPost2010PropOp41
 70
     1
102
RTVSPost2010Prop42
 90
       50
102
RTVSPost2010PropOp42
 70
     1
102
RTVSPost2010Prop43
 90
        3
102
RTVSPost2010PropOp43
 70
     1
102
RTVSPost2010Prop44ColorIndex
 90
        5
102
RTVSPost2010Prop44ColorRGB
 90
      255
102
RTVSPost2010PropOp44
 70
     1
102
RTVSPost2010Prop45
280
     0
102
RTVSPost2010PropOp45
 70
     1
102
RTVSPost2010Prop46
 90
       50
102
RTVSPost2010PropOp46
 70
     1
102
RTVSPost2010Prop47
 90
       50
102
RTVSPost2010PropOp47
 70
     1
102
RTVSPost2010Prop48
 90
       50
102
RTVSPost2010PropOp48
 70
     1
102
RTVSPost2010Prop49
280
     0
102
RTVSPost2010PropOp49
 70
     1
102
RTVSPost2010Prop50
 90
       50
102
RTVSPost2010PropOp50
 70
     1
102
RTVSPost2010Prop51ColorIndex
 90
      256
102
RTVSPost2010Prop51ColorRGB
 90
-16777216
102
RTVSPost2010PropOp51
 70
     0
102
RTVSPost2010Prop52
140
1.0
102
RTVSPost2010PropOp52
 70
     0
102
RTVSPost2010Prop53
 90
        2
102
RTVSPost2010PropOp53
 70
     1
102
RTVSPost2010Prop54
  1
strokes_ogs.tif
102
RTVSPost2010PropOp54
 70
     1
102
RTVSPost2010Prop55
280
     0
102
RTVSPost2010PropOp55
 70
     1
102
RTVSPost2010Prop56
140
1.0
102
RTVSPost2010PropOp56
 70
     1
102
RTVSPost2010Prop57
140
1.0
102
RTVSPost2010PropOp57
 70
     1
  0
XRECORD
  5
A335
102
{ACAD_REACTORS
330
A334
102
}
330
A334
100
AcDbXrecord
280
     1
102
RTVSPost2010Prop28
280
     0
102
RTVSPost2010PropOp28
 70
     1
102
RTVSPost2010Prop29
280
     1
102
RTVSPost2010PropOp29
 70
     1
102
RTVSPost2010Prop30
280
     1
102
RTVSPost2010PropOp30
 70
     1
102
RTVSPost2010Prop31
280
     0
102
RTVSPost2010PropOp31
 70
     1
102
RTVSPost2010Prop32
280
     0
102
RTVSPost2010PropOp32
 70
     1
102
RTVSPost2010Prop33
280
     0
102
RTVSPost2010PropOp33
 70
     1
102
RTVSPost2010Prop34
280
     0
102
RTVSPost2010PropOp34
 70
     1
102
RTVSPost2010Prop35
280
     0
102
RTVSPost2010PropOp35
 70
     1
102
RTVSPost2010Prop36
280
     0
102
RTVSPost2010PropOp36
 70
     1
102
RTVSPost2010Prop37
 90
       50
102
RTVSPost2010PropOp37
 70
     1
102
RTVSPost2010Prop38
140
0.0
102
RTVSPost2010PropOp38
 70
     1
102
RTVSPost2010Prop39
140
1.0
102
RTVSPost2010PropOp39
 70
     1
102
RTVSPost2010Prop40
 90
        0
102
RTVSPost2010PropOp40
 70
     1
102
RTVSPost2010Prop41ColorIndex
 90
       18
102
RTVSPost2010Prop41ColorRGB
 90
        0
102
RTVSPost2010PropOp41
 70
     1
102
RTVSPost2010Prop42
 90
       50
102
RTVSPost2010PropOp42
 70
     1
102
RTVSPost2010Prop43
 90
        3
102
RTVSPost2010PropOp43
 70
     1
102
RTVSPost2010Prop44ColorIndex
 90
        5
102
RTVSPost2010Prop44ColorRGB
 90
      255
102
RTVSPost2010PropOp44
 70
     1
102
RTVSPost2010Prop45
280
     0
102
RTVSPost2010PropOp45
 70
     1
102
RTVSPost2010Prop46
 90
       50
102
RTVSPost2010PropOp46
 70
     1
102
RTVSPost2010Prop47
 90
       50
102
RTVSPost2010PropOp47
 70
     1
102
RTVSPost2010Prop48
 90
       50
102
RTVSPost2010PropOp48
 70
     1
102
RTVSPost2010Prop49
280
     0
102
RTVSPost2010PropOp49
 70
     1
102
RTVSPost2010Prop50
 90
       50
102
RTVSPost2010PropOp50
 70
     1
102
RTVSPost2010Prop51ColorIndex
 90
      256
102
RTVSPost2010Prop51ColorRGB
 90
-16777216
102
RTVSPost2010PropOp51
 70
     0
102
RTVSPost2010Prop52
140
1.0
102
RTVSPost2010PropOp52
 70
     0
102
RTVSPost2010Prop53
 90
        2
102
RTVSPost2010PropOp53
 70
     1
102
RTVSPost2010Prop54
  1
strokes_ogs.tif
102
RTVSPost2010PropOp54
 70
     1
102
RTVSPost2010Prop55
280
     0
102
RTVSPost2010PropOp55
 70
     1
102
RTVSPost2010Prop56
140
1.0
102
RTVSPost2010PropOp56
 70
     1
102
RTVSPost2010Prop57
140
1.0
102
RTVSPost2010PropOp57
 70
     1
  0
XRECORD
  5
A33D
102
{ACAD_REACTORS
330
A33C
102
}
330
A33C
100
AcDbXrecord
280
     1
102
RTVSPost2010Prop28
280
     0
102
RTVSPost2010PropOp28
 70
     1
102
RTVSPost2010Prop29
280
     1
102
RTVSPost2010PropOp29
 70
     1
102
RTVSPost2010Prop30
280
     1
102
RTVSPost2010PropOp30
 70
     1
102
RTVSPost2010Prop31
280
     0
102
RTVSPost2010PropOp31
 70
     1
102
RTVSPost2010Prop32
280
     0
102
RTVSPost2010PropOp32
 70
     1
102
RTVSPost2010Prop33
280
     0
102
RTVSPost2010PropOp33
 70
     1
102
RTVSPost2010Prop34
280
     0
102
RTVSPost2010PropOp34
 70
     1
102
RTVSPost2010Prop35
280
     0
102
RTVSPost2010PropOp35
 70
     1
102
RTVSPost2010Prop36
280
     0
102
RTVSPost2010PropOp36
 70
     1
102
RTVSPost2010Prop37
 90
       50
102
RTVSPost2010PropOp37
 70
     1
102
RTVSPost2010Prop38
140
0.0
102
RTVSPost2010PropOp38
 70
     1
102
RTVSPost2010Prop39
140
1.0
102
RTVSPost2010PropOp39
 70
     1
102
RTVSPost2010Prop40
 90
        0
102
RTVSPost2010PropOp40
 70
     1
102
RTVSPost2010Prop41ColorIndex
 90
       18
102
RTVSPost2010Prop41ColorRGB
 90
        0
102
RTVSPost2010PropOp41
 70
     1
102
RTVSPost2010Prop42
 90
       50
102
RTVSPost2010PropOp42
 70
     1
102
RTVSPost2010Prop43
 90
        3
102
RTVSPost2010PropOp43
 70
     1
102
RTVSPost2010Prop44ColorIndex
 90
        5
102
RTVSPost2010Prop44ColorRGB
 90
      255
102
RTVSPost2010PropOp44
 70
     1
102
RTVSPost2010Prop45
280
     0
102
RTVSPost2010PropOp45
 70
     1
102
RTVSPost2010Prop46
 90
       50
102
RTVSPost2010PropOp46
 70
     1
102
RTVSPost2010Prop47
 90
       50
102
RTVSPost2010PropOp47
 70
     1
102
RTVSPost2010Prop48
 90
       50
102
RTVSPost2010PropOp48
 70
     1
102
RTVSPost2010Prop49
280
     0
102
RTVSPost2010PropOp49
 70
     1
102
RTVSPost2010Prop50
 90
       50
102
RTVSPost2010PropOp50
 70
     1
102
RTVSPost2010Prop51ColorIndex
 90
      256
102
RTVSPost2010Prop51ColorRGB
 90
-16777216
102
RTVSPost2010PropOp51
 70
     0
102
RTVSPost2010Prop52
140
1.0
102
RTVSPost2010PropOp52
 70
     0
102
RTVSPost2010Prop53
 90
        2
102
RTVSPost2010PropOp53
 70
     1
102
RTVSPost2010Prop54
  1
strokes_ogs.tif
102
RTVSPost2010PropOp54
 70
     1
102
RTVSPost2010Prop55
280
     0
102
RTVSPost2010PropOp55
 70
     1
102
RTVSPost2010Prop56
140
1.0
102
RTVSPost2010PropOp56
 70
     1
102
RTVSPost2010Prop57
140
1.0
102
RTVSPost2010PropOp57
 70
     1
  0
XRECORD
  5
A359
102
{ACAD_REACTORS
330
A358
102
}
330
A358
100
AcDbXrecord
280
     1
102
RTVSPost2010Prop28
280
     0
102
RTVSPost2010PropOp28
 70
     0
102
RTVSPost2010Prop29
280
     1
102
RTVSPost2010PropOp29
 70
     0
102
RTVSPost2010Prop30
280
     1
102
RTVSPost2010PropOp30
 70
     0
102
RTVSPost2010Prop31
280
     0
102
RTVSPost2010PropOp31
 70
     0
102
RTVSPost2010Prop32
280
     0
102
RTVSPost2010PropOp32
 70
     0
102
RTVSPost2010Prop33
280
     0
102
RTVSPost2010PropOp33
 70
     0
102
RTVSPost2010Prop34
280
     0
102
RTVSPost2010PropOp34
 70
     0
102
RTVSPost2010Prop35
280
     0
102
RTVSPost2010PropOp35
 70
     0
102
RTVSPost2010Prop36
280
     0
102
RTVSPost2010PropOp36
 70
     0
102
RTVSPost2010Prop37
 90
       50
102
RTVSPost2010PropOp37
 70
     0
102
RTVSPost2010Prop38
140
0.0
102
RTVSPost2010PropOp38
 70
     0
102
RTVSPost2010Prop39
140
1.0
102
RTVSPost2010PropOp39
 70
     0
102
RTVSPost2010Prop40
 90
        0
102
RTVSPost2010PropOp40
 70
     0
102
RTVSPost2010Prop41ColorIndex
 90
       18
102
RTVSPost2010Prop41ColorRGB
 90
        0
102
RTVSPost2010PropOp41
 70
     0
102
RTVSPost2010Prop42
 90
       50
102
RTVSPost2010PropOp42
 70
     0
102
RTVSPost2010Prop43
 90
        3
102
RTVSPost2010PropOp43
 70
     0
102
RTVSPost2010Prop44ColorIndex
 90
        5
102
RTVSPost2010Prop44ColorRGB
 90
      255
102
RTVSPost2010PropOp44
 70
     0
102
RTVSPost2010Prop45
280
     0
102
RTVSPost2010PropOp45
 70
     0
102
RTVSPost2010Prop46
 90
       50
102
RTVSPost2010PropOp46
 70
     0
102
RTVSPost2010Prop47
 90
       50
102
RTVSPost2010PropOp47
 70
     0
102
RTVSPost2010Prop48
 90
       50
102
RTVSPost2010PropOp48
 70
     0
102
RTVSPost2010Prop49
280
     0
102
RTVSPost2010PropOp49
 70
     0
102
RTVSPost2010Prop50
 90
       50
102
RTVSPost2010PropOp50
 70
     0
102
RTVSPost2010Prop51ColorIndex
 90
      256
102
RTVSPost2010Prop51ColorRGB
 90
-16777216
102
RTVSPost2010PropOp51
 70
     0
102
RTVSPost2010Prop52
140
1.0
102
RTVSPost2010PropOp52
 70
     0
102
RTVSPost2010Prop53
 90
        2
102
RTVSPost2010PropOp53
 70
     0
102
RTVSPost2010Prop54
  1
strokes_ogs.tif
102
RTVSPost2010PropOp54
 70
     0
102
RTVSPost2010Prop55
280
     0
102
RTVSPost2010PropOp55
 70
     0
102
RTVSPost2010Prop56
140
1.0
102
RTVSPost2010PropOp56
 70
     0
102
RTVSPost2010Prop57
140
1.0
102
RTVSPost2010PropOp57
 70
     0
  0
XRECORD
  5
A349
102
{ACAD_REACTORS
330
A348
102
}
330
A348
100
AcDbXrecord
280
     1
102
RTVSPost2010Prop28
280
     0
102
RTVSPost2010PropOp28
 70
     1
102
RTVSPost2010Prop29
280
     1
102
RTVSPost2010PropOp29
 70
     1
102
RTVSPost2010Prop30
280
     1
102
RTVSPost2010PropOp30
 70
     1
102
RTVSPost2010Prop31
280
     0
102
RTVSPost2010PropOp31
 70
     1
102
RTVSPost2010Prop32
280
     0
102
RTVSPost2010PropOp32
 70
     1
102
RTVSPost2010Prop33
280
     0
102
RTVSPost2010PropOp33
 70
     1
102
RTVSPost2010Prop34
280
     0
102
RTVSPost2010PropOp34
 70
     1
102
RTVSPost2010Prop35
280
     0
102
RTVSPost2010PropOp35
 70
     1
102
RTVSPost2010Prop36
280
     0
102
RTVSPost2010PropOp36
 70
     1
102
RTVSPost2010Prop37
 90
       50
102
RTVSPost2010PropOp37
 70
     1
102
RTVSPost2010Prop38
140
0.0
102
RTVSPost2010PropOp38
 70
     1
102
RTVSPost2010Prop39
140
1.0
102
RTVSPost2010PropOp39
 70
     1
102
RTVSPost2010Prop40
 90
        0
102
RTVSPost2010PropOp40
 70
     1
102
RTVSPost2010Prop41ColorIndex
 90
       18
102
RTVSPost2010Prop41ColorRGB
 90
        0
102
RTVSPost2010PropOp41
 70
     1
102
RTVSPost2010Prop42
 90
       50
102
RTVSPost2010PropOp42
 70
     1
102
RTVSPost2010Prop43
 90
        3
102
RTVSPost2010PropOp43
 70
     1
102
RTVSPost2010Prop44ColorIndex
 90
        5
102
RTVSPost2010Prop44ColorRGB
 90
      255
102
RTVSPost2010PropOp44
 70
     1
102
RTVSPost2010Prop45
280
     0
102
RTVSPost2010PropOp45
 70
     1
102
RTVSPost2010Prop46
 90
       50
102
RTVSPost2010PropOp46
 70
     1
102
RTVSPost2010Prop47
 90
       50
102
RTVSPost2010PropOp47
 70
     1
102
RTVSPost2010Prop48
 90
       50
102
RTVSPost2010PropOp48
 70
     1
102
RTVSPost2010Prop49
280
     0
102
RTVSPost2010PropOp49
 70
     1
102
RTVSPost2010Prop50
 90
       50
102
RTVSPost2010PropOp50
 70
     1
102
RTVSPost2010Prop51ColorIndex
 90
      256
102
RTVSPost2010Prop51ColorRGB
 90
-16777216
102
RTVSPost2010PropOp51
 70
     0
102
RTVSPost2010Prop52
140
1.0
102
RTVSPost2010PropOp52
 70
     0
102
RTVSPost2010Prop53
 90
        2
102
RTVSPost2010PropOp53
 70
     1
102
RTVSPost2010Prop54
  1
strokes_ogs.tif
102
RTVSPost2010PropOp54
 70
     1
102
RTVSPost2010Prop55
280
     0
102
RTVSPost2010PropOp55
 70
     1
102
RTVSPost2010Prop56
140
1.0
102
RTVSPost2010PropOp56
 70
     1
102
RTVSPost2010Prop57
140
1.0
102
RTVSPost2010PropOp57
 70
     1
  0
XRECORD
  5
A35B
102
{ACAD_REACTORS
330
A35A
102
}
330
A35A
100
AcDbXrecord
280
     1
102
RTVSPost2010Prop28
280
     0
102
RTVSPost2010PropOp28
 70
     0
102
RTVSPost2010Prop29
280
     1
102
RTVSPost2010PropOp29
 70
     0
102
RTVSPost2010Prop30
280
     1
102
RTVSPost2010PropOp30
 70
     0
102
RTVSPost2010Prop31
280
     0
102
RTVSPost2010PropOp31
 70
     0
102
RTVSPost2010Prop32
280
     0
102
RTVSPost2010PropOp32
 70
     0
102
RTVSPost2010Prop33
280
     0
102
RTVSPost2010PropOp33
 70
     0
102
RTVSPost2010Prop34
280
     0
102
RTVSPost2010PropOp34
 70
     0
102
RTVSPost2010Prop35
280
     0
102
RTVSPost2010PropOp35
 70
     0
102
RTVSPost2010Prop36
280
     0
102
RTVSPost2010PropOp36
 70
     0
102
RTVSPost2010Prop37
 90
       50
102
RTVSPost2010PropOp37
 70
     0
102
RTVSPost2010Prop38
140
0.0
102
RTVSPost2010PropOp38
 70
     0
102
RTVSPost2010Prop39
140
1.0
102
RTVSPost2010PropOp39
 70
     0
102
RTVSPost2010Prop40
 90
        0
102
RTVSPost2010PropOp40
 70
     0
102
RTVSPost2010Prop41ColorIndex
 90
       18
102
RTVSPost2010Prop41ColorRGB
 90
        0
102
RTVSPost2010PropOp41
 70
     0
102
RTVSPost2010Prop42
 90
       50
102
RTVSPost2010PropOp42
 70
     0
102
RTVSPost2010Prop43
 90
        3
102
RTVSPost2010PropOp43
 70
     0
102
RTVSPost2010Prop44ColorIndex
 90
        5
102
RTVSPost2010Prop44ColorRGB
 90
      255
102
RTVSPost2010PropOp44
 70
     0
102
RTVSPost2010Prop45
280
     0
102
RTVSPost2010PropOp45
 70
     0
102
RTVSPost2010Prop46
 90
       50
102
RTVSPost2010PropOp46
 70
     0
102
RTVSPost2010Prop47
 90
       50
102
RTVSPost2010PropOp47
 70
     0
102
RTVSPost2010Prop48
 90
       50
102
RTVSPost2010PropOp48
 70
     0
102
RTVSPost2010Prop49
280
     0
102
RTVSPost2010PropOp49
 70
     0
102
RTVSPost2010Prop50
 90
       50
102
RTVSPost2010PropOp50
 70
     0
102
RTVSPost2010Prop51ColorIndex
 90
      256
102
RTVSPost2010Prop51ColorRGB
 90
-16777216
102
RTVSPost2010PropOp51
 70
     0
102
RTVSPost2010Prop52
140
1.0
102
RTVSPost2010PropOp52
 70
     0
102
RTVSPost2010Prop53
 90
        2
102
RTVSPost2010PropOp53
 70
     0
102
RTVSPost2010Prop54
  1
strokes_ogs.tif
102
RTVSPost2010PropOp54
 70
     0
102
RTVSPost2010Prop55
280
     0
102
RTVSPost2010PropOp55
 70
     0
102
RTVSPost2010Prop56
140
1.0
102
RTVSPost2010PropOp56
 70
     0
102
RTVSPost2010Prop57
140
1.0
102
RTVSPost2010PropOp57
 70
     0
  0
XRECORD
  5
A341
102
{ACAD_REACTORS
330
A340
102
}
330
A340
100
AcDbXrecord
280
     1
102
RTVSPost2010Prop28
280
     0
102
RTVSPost2010PropOp28
 70
     1
102
RTVSPost2010Prop29
280
     1
102
RTVSPost2010PropOp29
 70
     1
102
RTVSPost2010Prop30
280
     1
102
RTVSPost2010PropOp30
 70
     1
102
RTVSPost2010Prop31
280
     0
102
RTVSPost2010PropOp31
 70
     1
102
RTVSPost2010Prop32
280
     0
102
RTVSPost2010PropOp32
 70
     1
102
RTVSPost2010Prop33
280
     0
102
RTVSPost2010PropOp33
 70
     1
102
RTVSPost2010Prop34
280
     0
102
RTVSPost2010PropOp34
 70
     1
102
RTVSPost2010Prop35
280
     0
102
RTVSPost2010PropOp35
 70
     1
102
RTVSPost2010Prop36
280
     0
102
RTVSPost2010PropOp36
 70
     1
102
RTVSPost2010Prop37
 90
       50
102
RTVSPost2010PropOp37
 70
     1
102
RTVSPost2010Prop38
140
0.0
102
RTVSPost2010PropOp38
 70
     1
102
RTVSPost2010Prop39
140
1.0
102
RTVSPost2010PropOp39
 70
     1
102
RTVSPost2010Prop40
 90
        0
102
RTVSPost2010PropOp40
 70
     1
102
RTVSPost2010Prop41ColorIndex
 90
       18
102
RTVSPost2010Prop41ColorRGB
 90
        0
102
RTVSPost2010PropOp41
 70
     1
102
RTVSPost2010Prop42
 90
       50
102
RTVSPost2010PropOp42
 70
     1
102
RTVSPost2010Prop43
 90
        3
102
RTVSPost2010PropOp43
 70
     1
102
RTVSPost2010Prop44ColorIndex
 90
        5
102
RTVSPost2010Prop44ColorRGB
 90
      255
102
RTVSPost2010PropOp44
 70
     1
102
RTVSPost2010Prop45
280
     0
102
RTVSPost2010PropOp45
 70
     1
102
RTVSPost2010Prop46
 90
       50
102
RTVSPost2010PropOp46
 70
     1
102
RTVSPost2010Prop47
 90
       50
102
RTVSPost2010PropOp47
 70
     1
102
RTVSPost2010Prop48
 90
       50
102
RTVSPost2010PropOp48
 70
     1
102
RTVSPost2010Prop49
280
     0
102
RTVSPost2010PropOp49
 70
     1
102
RTVSPost2010Prop50
 90
       50
102
RTVSPost2010PropOp50
 70
     1
102
RTVSPost2010Prop51ColorIndex
 90
      256
102
RTVSPost2010Prop51ColorRGB
 90
-16777216
102
RTVSPost2010PropOp51
 70
     0
102
RTVSPost2010Prop52
140
1.0
102
RTVSPost2010PropOp52
 70
     0
102
RTVSPost2010Prop53
 90
        2
102
RTVSPost2010PropOp53
 70
     1
102
RTVSPost2010Prop54
  1
strokes_ogs.tif
102
RTVSPost2010PropOp54
 70
     1
102
RTVSPost2010Prop55
280
     0
102
RTVSPost2010PropOp55
 70
     1
102
RTVSPost2010Prop56
140
1.0
102
RTVSPost2010PropOp56
 70
     1
102
RTVSPost2010Prop57
140
1.0
102
RTVSPost2010PropOp57
 70
     1
  0
XRECORD
  5
A357
102
{ACAD_REACTORS
330
A356
102
}
330
A356
100
AcDbXrecord
280
     1
102
RTVSPost2010Prop28
280
     0
102
RTVSPost2010PropOp28
 70
     1
102
RTVSPost2010Prop29
280
     1
102
RTVSPost2010PropOp29
 70
     1
102
RTVSPost2010Prop30
280
     1
102
RTVSPost2010PropOp30
 70
     1
102
RTVSPost2010Prop31
280
     0
102
RTVSPost2010PropOp31
 70
     1
102
RTVSPost2010Prop32
280
     0
102
RTVSPost2010PropOp32
 70
     1
102
RTVSPost2010Prop33
280
     0
102
RTVSPost2010PropOp33
 70
     1
102
RTVSPost2010Prop34
280
     0
102
RTVSPost2010PropOp34
 70
     1
102
RTVSPost2010Prop35
280
     0
102
RTVSPost2010PropOp35
 70
     1
102
RTVSPost2010Prop36
280
     0
102
RTVSPost2010PropOp36
 70
     1
102
RTVSPost2010Prop37
 90
       50
102
RTVSPost2010PropOp37
 70
     1
102
RTVSPost2010Prop38
140
0.0
102
RTVSPost2010PropOp38
 70
     1
102
RTVSPost2010Prop39
140
1.0
102
RTVSPost2010PropOp39
 70
     1
102
RTVSPost2010Prop40
 90
        0
102
RTVSPost2010PropOp40
 70
     1
102
RTVSPost2010Prop41ColorIndex
 90
       18
102
RTVSPost2010Prop41ColorRGB
 90
        0
102
RTVSPost2010PropOp41
 70
     1
102
RTVSPost2010Prop42
 90
       50
102
RTVSPost2010PropOp42
 70
     1
102
RTVSPost2010Prop43
 90
        3
102
RTVSPost2010PropOp43
 70
     1
102
RTVSPost2010Prop44ColorIndex
 90
        5
102
RTVSPost2010Prop44ColorRGB
 90
      255
102
RTVSPost2010PropOp44
 70
     1
102
RTVSPost2010Prop45
280
     0
102
RTVSPost2010PropOp45
 70
     1
102
RTVSPost2010Prop46
 90
       50
102
RTVSPost2010PropOp46
 70
     1
102
RTVSPost2010Prop47
 90
       50
102
RTVSPost2010PropOp47
 70
     1
102
RTVSPost2010Prop48
 90
       50
102
RTVSPost2010PropOp48
 70
     1
102
RTVSPost2010Prop49
280
     0
102
RTVSPost2010PropOp49
 70
     1
102
RTVSPost2010Prop50
 90
       50
102
RTVSPost2010PropOp50
 70
     1
102
RTVSPost2010Prop51ColorIndex
 90
      256
102
RTVSPost2010Prop51ColorRGB
 90
-16777216
102
RTVSPost2010PropOp51
 70
     0
102
RTVSPost2010Prop52
140
1.0
102
RTVSPost2010PropOp52
 70
     0
102
RTVSPost2010Prop53
 90
        2
102
RTVSPost2010PropOp53
 70
     1
102
RTVSPost2010Prop54
  1
strokes_ogs.tif
102
RTVSPost2010PropOp54
 70
     1
102
RTVSPost2010Prop55
280
     0
102
RTVSPost2010PropOp55
 70
     1
102
RTVSPost2010Prop56
140
1.0
102
RTVSPost2010PropOp56
 70
     1
102
RTVSPost2010Prop57
140
1.0
102
RTVSPost2010PropOp57
 70
     1
  0
XRECORD
  5
A355
102
{ACAD_REACTORS
330
A354
102
}
330
A354
100
AcDbXrecord
280
     1
102
RTVSPost2010Prop28
280
     0
102
RTVSPost2010PropOp28
 70
     1
102
RTVSPost2010Prop29
280
     1
102
RTVSPost2010PropOp29
 70
     1
102
RTVSPost2010Prop30
280
     1
102
RTVSPost2010PropOp30
 70
     1
102
RTVSPost2010Prop31
280
     0
102
RTVSPost2010PropOp31
 70
     1
102
RTVSPost2010Prop32
280
     0
102
RTVSPost2010PropOp32
 70
     1
102
RTVSPost2010Prop33
280
     0
102
RTVSPost2010PropOp33
 70
     1
102
RTVSPost2010Prop34
280
     0
102
RTVSPost2010PropOp34
 70
     1
102
RTVSPost2010Prop35
280
     0
102
RTVSPost2010PropOp35
 70
     1
102
RTVSPost2010Prop36
280
     0
102
RTVSPost2010PropOp36
 70
     1
102
RTVSPost2010Prop37
 90
       50
102
RTVSPost2010PropOp37
 70
     1
102
RTVSPost2010Prop38
140
0.0
102
RTVSPost2010PropOp38
 70
     1
102
RTVSPost2010Prop39
140
1.0
102
RTVSPost2010PropOp39
 70
     1
102
RTVSPost2010Prop40
 90
        0
102
RTVSPost2010PropOp40
 70
     1
102
RTVSPost2010Prop41ColorIndex
 90
       18
102
RTVSPost2010Prop41ColorRGB
 90
        0
102
RTVSPost2010PropOp41
 70
     1
102
RTVSPost2010Prop42
 90
       50
102
RTVSPost2010PropOp42
 70
     1
102
RTVSPost2010Prop43
 90
        3
102
RTVSPost2010PropOp43
 70
     1
102
RTVSPost2010Prop44ColorIndex
 90
        5
102
RTVSPost2010Prop44ColorRGB
 90
      255
102
RTVSPost2010PropOp44
 70
     1
102
RTVSPost2010Prop45
280
     0
102
RTVSPost2010PropOp45
 70
     1
102
RTVSPost2010Prop46
 90
       50
102
RTVSPost2010PropOp46
 70
     1
102
RTVSPost2010Prop47
 90
       50
102
RTVSPost2010PropOp47
 70
     1
102
RTVSPost2010Prop48
 90
       50
102
RTVSPost2010PropOp48
 70
     1
102
RTVSPost2010Prop49
280
     0
102
RTVSPost2010PropOp49
 70
     1
102
RTVSPost2010Prop50
 90
       50
102
RTVSPost2010PropOp50
 70
     1
102
RTVSPost2010Prop51ColorIndex
 90
      256
102
RTVSPost2010Prop51ColorRGB
 90
-16777216
102
RTVSPost2010PropOp51
 70
     0
102
RTVSPost2010Prop52
140
1.0
102
RTVSPost2010PropOp52
 70
     0
102
RTVSPost2010Prop53
 90
        2
102
RTVSPost2010PropOp53
 70
     1
102
RTVSPost2010Prop54
  1
strokes_ogs.tif
102
RTVSPost2010PropOp54
 70
     1
102
RTVSPost2010Prop55
280
     0
102
RTVSPost2010PropOp55
 70
     1
102
RTVSPost2010Prop56
140
1.0
102
RTVSPost2010PropOp56
 70
     1
102
RTVSPost2010Prop57
140
1.0
102
RTVSPost2010PropOp57
 70
     1
  0
XRECORD
  5
A34F
102
{ACAD_REACTORS
330
A34E
102
}
330
A34E
100
AcDbXrecord
280
     1
102
RTVSPost2010Prop28
280
     0
102
RTVSPost2010PropOp28
 70
     1
102
RTVSPost2010Prop29
280
     1
102
RTVSPost2010PropOp29
 70
     1
102
RTVSPost2010Prop30
280
     1
102
RTVSPost2010PropOp30
 70
     1
102
RTVSPost2010Prop31
280
     0
102
RTVSPost2010PropOp31
 70
     1
102
RTVSPost2010Prop32
280
     0
102
RTVSPost2010PropOp32
 70
     1
102
RTVSPost2010Prop33
280
     0
102
RTVSPost2010PropOp33
 70
     1
102
RTVSPost2010Prop34
280
     0
102
RTVSPost2010PropOp34
 70
     1
102
RTVSPost2010Prop35
280
     0
102
RTVSPost2010PropOp35
 70
     1
102
RTVSPost2010Prop36
280
     0
102
RTVSPost2010PropOp36
 70
     1
102
RTVSPost2010Prop37
 90
       50
102
RTVSPost2010PropOp37
 70
     1
102
RTVSPost2010Prop38
140
0.0
102
RTVSPost2010PropOp38
 70
     1
102
RTVSPost2010Prop39
140
1.0
102
RTVSPost2010PropOp39
 70
     1
102
RTVSPost2010Prop40
 90
        0
102
RTVSPost2010PropOp40
 70
     1
102
RTVSPost2010Prop41ColorIndex
 90
       18
102
RTVSPost2010Prop41ColorRGB
 90
        0
102
RTVSPost2010PropOp41
 70
     1
102
RTVSPost2010Prop42
 90
       50
102
RTVSPost2010PropOp42
 70
     1
102
RTVSPost2010Prop43
 90
        3
102
RTVSPost2010PropOp43
 70
     1
102
RTVSPost2010Prop44ColorIndex
 90
        5
102
RTVSPost2010Prop44ColorRGB
 90
      255
102
RTVSPost2010PropOp44
 70
     1
102
RTVSPost2010Prop45
280
     0
102
RTVSPost2010PropOp45
 70
     1
102
RTVSPost2010Prop46
 90
       50
102
RTVSPost2010PropOp46
 70
     1
102
RTVSPost2010Prop47
 90
       50
102
RTVSPost2010PropOp47
 70
     1
102
RTVSPost2010Prop48
 90
       50
102
RTVSPost2010PropOp48
 70
     1
102
RTVSPost2010Prop49
280
     0
102
RTVSPost2010PropOp49
 70
     1
102
RTVSPost2010Prop50
 90
       50
102
RTVSPost2010PropOp50
 70
     1
102
RTVSPost2010Prop51ColorIndex
 90
      256
102
RTVSPost2010Prop51ColorRGB
 90
-16777216
102
RTVSPost2010PropOp51
 70
     0
102
RTVSPost2010Prop52
140
1.0
102
RTVSPost2010PropOp52
 70
     0
102
RTVSPost2010Prop53
 90
        2
102
RTVSPost2010PropOp53
 70
     1
102
RTVSPost2010Prop54
  1
strokes_ogs.tif
102
RTVSPost2010PropOp54
 70
     1
102
RTVSPost2010Prop55
280
     0
102
RTVSPost2010PropOp55
 70
     1
102
RTVSPost2010Prop56
140
1.0
102
RTVSPost2010PropOp56
 70
     1
102
RTVSPost2010Prop57
140
1.0
102
RTVSPost2010PropOp57
 70
     1
  0
XRECORD
  5
A351
102
{ACAD_REACTORS
330
A350
102
}
330
A350
100
AcDbXrecord
280
     1
102
RTVSPost2010Prop28
280
     0
102
RTVSPost2010PropOp28
 70
     1
102
RTVSPost2010Prop29
280
     1
102
RTVSPost2010PropOp29
 70
     1
102
RTVSPost2010Prop30
280
     1
102
RTVSPost2010PropOp30
 70
     1
102
RTVSPost2010Prop31
280
     0
102
RTVSPost2010PropOp31
 70
     1
102
RTVSPost2010Prop32
280
     0
102
RTVSPost2010PropOp32
 70
     1
102
RTVSPost2010Prop33
280
     0
102
RTVSPost2010PropOp33
 70
     1
102
RTVSPost2010Prop34
280
     0
102
RTVSPost2010PropOp34
 70
     1
102
RTVSPost2010Prop35
280
     0
102
RTVSPost2010PropOp35
 70
     1
102
RTVSPost2010Prop36
280
     0
102
RTVSPost2010PropOp36
 70
     1
102
RTVSPost2010Prop37
 90
       50
102
RTVSPost2010PropOp37
 70
     1
102
RTVSPost2010Prop38
140
0.0
102
RTVSPost2010PropOp38
 70
     1
102
RTVSPost2010Prop39
140
1.0
102
RTVSPost2010PropOp39
 70
     1
102
RTVSPost2010Prop40
 90
        0
102
RTVSPost2010PropOp40
 70
     1
102
RTVSPost2010Prop41ColorIndex
 90
       18
102
RTVSPost2010Prop41ColorRGB
 90
        0
102
RTVSPost2010PropOp41
 70
     1
102
RTVSPost2010Prop42
 90
       50
102
RTVSPost2010PropOp42
 70
     1
102
RTVSPost2010Prop43
 90
        3
102
RTVSPost2010PropOp43
 70
     1
102
RTVSPost2010Prop44ColorIndex
 90
        5
102
RTVSPost2010Prop44ColorRGB
 90
      255
102
RTVSPost2010PropOp44
 70
     1
102
RTVSPost2010Prop45
280
     0
102
RTVSPost2010PropOp45
 70
     1
102
RTVSPost2010Prop46
 90
       50
102
RTVSPost2010PropOp46
 70
     1
102
RTVSPost2010Prop47
 90
       50
102
RTVSPost2010PropOp47
 70
     1
102
RTVSPost2010Prop48
 90
       50
102
RTVSPost2010PropOp48
 70
     1
102
RTVSPost2010Prop49
280
     0
102
RTVSPost2010PropOp49
 70
     1
102
RTVSPost2010Prop50
 90
       50
102
RTVSPost2010PropOp50
 70
     1
102
RTVSPost2010Prop51ColorIndex
 90
      256
102
RTVSPost2010Prop51ColorRGB
 90
-16777216
102
RTVSPost2010PropOp51
 70
     0
102
RTVSPost2010Prop52
140
1.0
102
RTVSPost2010PropOp52
 70
     0
102
RTVSPost2010Prop53
 90
        2
102
RTVSPost2010PropOp53
 70
     1
102
RTVSPost2010Prop54
  1
strokes_ogs.tif
102
RTVSPost2010PropOp54
 70
     1
102
RTVSPost2010Prop55
280
     0
102
RTVSPost2010PropOp55
 70
     1
102
RTVSPost2010Prop56
140
1.0
102
RTVSPost2010PropOp56
 70
     1
102
RTVSPost2010Prop57
140
1.0
102
RTVSPost2010PropOp57
 70
     1
  0
XRECORD
  5
A347
102
{ACAD_REACTORS
330
A346
102
}
330
A346
100
AcDbXrecord
280
     1
102
RTVSPost2010Prop28
280
     0
102
RTVSPost2010PropOp28
 70
     1
102
RTVSPost2010Prop29
280
     1
102
RTVSPost2010PropOp29
 70
     1
102
RTVSPost2010Prop30
280
     1
102
RTVSPost2010PropOp30
 70
     1
102
RTVSPost2010Prop31
280
     0
102
RTVSPost2010PropOp31
 70
     1
102
RTVSPost2010Prop32
280
     0
102
RTVSPost2010PropOp32
 70
     1
102
RTVSPost2010Prop33
280
     0
102
RTVSPost2010PropOp33
 70
     1
102
RTVSPost2010Prop34
280
     0
102
RTVSPost2010PropOp34
 70
     1
102
RTVSPost2010Prop35
280
     0
102
RTVSPost2010PropOp35
 70
     1
102
RTVSPost2010Prop36
280
     0
102
RTVSPost2010PropOp36
 70
     1
102
RTVSPost2010Prop37
 90
       50
102
RTVSPost2010PropOp37
 70
     1
102
RTVSPost2010Prop38
140
0.0
102
RTVSPost2010PropOp38
 70
     1
102
RTVSPost2010Prop39
140
1.0
102
RTVSPost2010PropOp39
 70
     1
102
RTVSPost2010Prop40
 90
        0
102
RTVSPost2010PropOp40
 70
     1
102
RTVSPost2010Prop41ColorIndex
 90
       18
102
RTVSPost2010Prop41ColorRGB
 90
        0
102
RTVSPost2010PropOp41
 70
     1
102
RTVSPost2010Prop42
 90
       50
102
RTVSPost2010PropOp42
 70
     1
102
RTVSPost2010Prop43
 90
        3
102
RTVSPost2010PropOp43
 70
     1
102
RTVSPost2010Prop44ColorIndex
 90
        5
102
RTVSPost2010Prop44ColorRGB
 90
      255
102
RTVSPost2010PropOp44
 70
     1
102
RTVSPost2010Prop45
280
     0
102
RTVSPost2010PropOp45
 70
     1
102
RTVSPost2010Prop46
 90
       50
102
RTVSPost2010PropOp46
 70
     1
102
RTVSPost2010Prop47
 90
       50
102
RTVSPost2010PropOp47
 70
     1
102
RTVSPost2010Prop48
 90
       50
102
RTVSPost2010PropOp48
 70
     1
102
RTVSPost2010Prop49
280
     0
102
RTVSPost2010PropOp49
 70
     1
102
RTVSPost2010Prop50
 90
       50
102
RTVSPost2010PropOp50
 70
     1
102
RTVSPost2010Prop51ColorIndex
 90
      256
102
RTVSPost2010Prop51ColorRGB
 90
-16777216
102
RTVSPost2010PropOp51
 70
     0
102
RTVSPost2010Prop52
140
1.0
102
RTVSPost2010PropOp52
 70
     0
102
RTVSPost2010Prop53
 90
        2
102
RTVSPost2010PropOp53
 70
     1
102
RTVSPost2010Prop54
  1
strokes_ogs.tif
102
RTVSPost2010PropOp54
 70
     1
102
RTVSPost2010Prop55
280
     0
102
RTVSPost2010PropOp55
 70
     1
102
RTVSPost2010Prop56
140
1.0
102
RTVSPost2010PropOp56
 70
     1
102
RTVSPost2010Prop57
140
1.0
102
RTVSPost2010PropOp57
 70
     1
  0
XRECORD
  5
A33B
102
{ACAD_REACTORS
330
A33A
102
}
330
A33A
100
AcDbXrecord
280
     1
102
RTVSPost2010Prop28
280
     0
102
RTVSPost2010PropOp28
 70
     1
102
RTVSPost2010Prop29
280
     1
102
RTVSPost2010PropOp29
 70
     1
102
RTVSPost2010Prop30
280
     1
102
RTVSPost2010PropOp30
 70
     1
102
RTVSPost2010Prop31
280
     0
102
RTVSPost2010PropOp31
 70
     1
102
RTVSPost2010Prop32
280
     0
102
RTVSPost2010PropOp32
 70
     1
102
RTVSPost2010Prop33
280
     0
102
RTVSPost2010PropOp33
 70
     1
102
RTVSPost2010Prop34
280
     0
102
RTVSPost2010PropOp34
 70
     1
102
RTVSPost2010Prop35
280
     0
102
RTVSPost2010PropOp35
 70
     1
102
RTVSPost2010Prop36
280
     0
102
RTVSPost2010PropOp36
 70
     1
102
RTVSPost2010Prop37
 90
       50
102
RTVSPost2010PropOp37
 70
     1
102
RTVSPost2010Prop38
140
0.0
102
RTVSPost2010PropOp38
 70
     1
102
RTVSPost2010Prop39
140
1.0
102
RTVSPost2010PropOp39
 70
     1
102
RTVSPost2010Prop40
 90
        0
102
RTVSPost2010PropOp40
 70
     1
102
RTVSPost2010Prop41ColorIndex
 90
       18
102
RTVSPost2010Prop41ColorRGB
 90
        0
102
RTVSPost2010PropOp41
 70
     1
102
RTVSPost2010Prop42
 90
       50
102
RTVSPost2010PropOp42
 70
     1
102
RTVSPost2010Prop43
 90
        3
102
RTVSPost2010PropOp43
 70
     1
102
RTVSPost2010Prop44ColorIndex
 90
        5
102
RTVSPost2010Prop44ColorRGB
 90
      255
102
RTVSPost2010PropOp44
 70
     1
102
RTVSPost2010Prop45
280
     0
102
RTVSPost2010PropOp45
 70
     1
102
RTVSPost2010Prop46
 90
       50
102
RTVSPost2010PropOp46
 70
     1
102
RTVSPost2010Prop47
 90
       50
102
RTVSPost2010PropOp47
 70
     1
102
RTVSPost2010Prop48
 90
       50
102
RTVSPost2010PropOp48
 70
     1
102
RTVSPost2010Prop49
280
     0
102
RTVSPost2010PropOp49
 70
     1
102
RTVSPost2010Prop50
 90
       50
102
RTVSPost2010PropOp50
 70
     1
102
RTVSPost2010Prop51ColorIndex
 90
      256
102
RTVSPost2010Prop51ColorRGB
 90
-16777216
102
RTVSPost2010PropOp51
 70
     0
102
RTVSPost2010Prop52
140
1.0
102
RTVSPost2010PropOp52
 70
     0
102
RTVSPost2010Prop53
 90
        2
102
RTVSPost2010PropOp53
 70
     1
102
RTVSPost2010Prop54
  1
strokes_ogs.tif
102
RTVSPost2010PropOp54
 70
     1
102
RTVSPost2010Prop55
280
     0
102
RTVSPost2010PropOp55
 70
     1
102
RTVSPost2010Prop56
140
1.0
102
RTVSPost2010PropOp56
 70
     1
102
RTVSPost2010Prop57
140
1.0
102
RTVSPost2010PropOp57
 70
     1
  0
XRECORD
  5
A353
102
{ACAD_REACTORS
330
A352
102
}
330
A352
100
AcDbXrecord
280
     1
102
RTVSPost2010Prop28
280
     0
102
RTVSPost2010PropOp28
 70
     1
102
RTVSPost2010Prop29
280
     1
102
RTVSPost2010PropOp29
 70
     1
102
RTVSPost2010Prop30
280
     1
102
RTVSPost2010PropOp30
 70
     1
102
RTVSPost2010Prop31
280
     0
102
RTVSPost2010PropOp31
 70
     1
102
RTVSPost2010Prop32
280
     0
102
RTVSPost2010PropOp32
 70
     1
102
RTVSPost2010Prop33
280
     0
102
RTVSPost2010PropOp33
 70
     1
102
RTVSPost2010Prop34
280
     0
102
RTVSPost2010PropOp34
 70
     1
102
RTVSPost2010Prop35
280
     0
102
RTVSPost2010PropOp35
 70
     1
102
RTVSPost2010Prop36
280
     0
102
RTVSPost2010PropOp36
 70
     1
102
RTVSPost2010Prop37
 90
       50
102
RTVSPost2010PropOp37
 70
     1
102
RTVSPost2010Prop38
140
0.0
102
RTVSPost2010PropOp38
 70
     1
102
RTVSPost2010Prop39
140
1.0
102
RTVSPost2010PropOp39
 70
     1
102
RTVSPost2010Prop40
 90
        0
102
RTVSPost2010PropOp40
 70
     1
102
RTVSPost2010Prop41ColorIndex
 90
       18
102
RTVSPost2010Prop41ColorRGB
 90
        0
102
RTVSPost2010PropOp41
 70
     1
102
RTVSPost2010Prop42
 90
       50
102
RTVSPost2010PropOp42
 70
     1
102
RTVSPost2010Prop43
 90
        3
102
RTVSPost2010PropOp43
 70
     1
102
RTVSPost2010Prop44ColorIndex
 90
        5
102
RTVSPost2010Prop44ColorRGB
 90
      255
102
RTVSPost2010PropOp44
 70
     1
102
RTVSPost2010Prop45
280
     0
102
RTVSPost2010PropOp45
 70
     1
102
RTVSPost2010Prop46
 90
       50
102
RTVSPost2010PropOp46
 70
     1
102
RTVSPost2010Prop47
 90
       50
102
RTVSPost2010PropOp47
 70
     1
102
RTVSPost2010Prop48
 90
       50
102
RTVSPost2010PropOp48
 70
     1
102
RTVSPost2010Prop49
280
     0
102
RTVSPost2010PropOp49
 70
     1
102
RTVSPost2010Prop50
 90
       50
102
RTVSPost2010PropOp50
 70
     1
102
RTVSPost2010Prop51ColorIndex
 90
      256
102
RTVSPost2010Prop51ColorRGB
 90
-16777216
102
RTVSPost2010PropOp51
 70
     0
102
RTVSPost2010Prop52
140
1.0
102
RTVSPost2010PropOp52
 70
     0
102
RTVSPost2010Prop53
 90
        2
102
RTVSPost2010PropOp53
 70
     1
102
RTVSPost2010Prop54
  1
strokes_ogs.tif
102
RTVSPost2010PropOp54
 70
     1
102
RTVSPost2010Prop55
280
     0
102
RTVSPost2010PropOp55
 70
     1
102
RTVSPost2010Prop56
140
1.0
102
RTVSPost2010PropOp56
 70
     1
102
RTVSPost2010Prop57
140
1.0
102
RTVSPost2010PropOp57
 70
     1
  0
ENDSEC
  0
EOF
