  0
SECTION
  2
HEADER
  9
$ACADVER
  1
AC1018
  9
$ACADMAINTVER
 70
     0
  9
$DWGCODEPAGE
  3
ANSI_932
  9
$LASTSAVEDBY
  1
小谷 浩和
  9
$INSBASE
 10
0.0
 20
0.0
 30
0.0
  9
$EXTMIN
 10
85.4002191002171
 20
67.5118951675098
 30
0.0
  9
$EXTMAX
 10
1885.455878342763
 20
1269.060383075003
 30
0.0
  9
$LIMMIN
 10
0.0
 20
0.0
  9
$LIMMAX
 10
420.0
 20
297.0
  9
$ORTHOMODE
 70
     0
  9
$REGENMODE
 70
     1
  9
$FILLMODE
 70
     1
  9
$QTEXTMODE
 70
     0
  9
$MIRRTEXT
 70
     0
  9
$LTSCALE
 40
1.0
  9
$ATTMODE
 70
     1
  9
$TEXTSIZE
 40
2.5
  9
$TRACEWID
 40
1.0
  9
$TEXTSTYLE
  7
Standard
  9
$CLAYER
  8
画層1
  9
$CELTYPE
  6
ByLayer
  9
$CECOLOR
 62
   256
  9
$CELTSCALE
 40
1.0
  9
$DISPSILH
 70
     0
  9
$DIMSCALE
 40
1.0
  9
$DIMASZ
 40
2.5
  9
$DIMEXO
 40
0.625
  9
$DIMDLI
 40
3.75
  9
$DIMRND
 40
0.0
  9
$DIMDLE
 40
0.0
  9
$DIMEXE
 40
1.25
  9
$DIMTP
 40
0.0
  9
$DIMTM
 40
0.0
  9
$DIMTXT
 40
2.5
  9
$DIMCEN
 40
2.5
  9
$DIMTSZ
 40
0.0
  9
$DIMTOL
 70
     0
  9
$DIMLIM
 70
     0
  9
$DIMTIH
 70
     0
  9
$DIMTOH
 70
     0
  9
$DIMSE1
 70
     0
  9
$DIMSE2
 70
     0
  9
$DIMTAD
 70
     1
  9
$DIMZIN
 70
     8
  9
$DIMBLK
  1
OPEN
  9
$DIMASO
 70
     1
  9
$DIMSHO
 70
     1
  9
$DIMPOST
  1

  9
$DIMAPOST
  1

  9
$DIMALT
 70
     0
  9
$DIMALTD
 70
     3
  9
$DIMALTF
 40
0.03937007874016
  9
$DIMLFAC
 40
1.0
  9
$DIMTOFL
 70
     1
  9
$DIMTVP
 40
0.0
  9
$DIMTIX
 70
     0
  9
$DIMSOXD
 70
     0
  9
$DIMSAH
 70
     0
  9
$DIMBLK1
  1

  9
$DIMBLK2
  1

  9
$DIMSTYLE
  2
JIS-1
  9
$DIMCLRD
 70
     0
  9
$DIMCLRE
 70
     0
  9
$DIMCLRT
 70
     0
  9
$DIMTFAC
 40
1.0
  9
$DIMGAP
 40
0.625
  9
$DIMJUST
 70
     0
  9
$DIMSD1
 70
     0
  9
$DIMSD2
 70
     0
  9
$DIMTOLJ
 70
     0
  9
$DIMTZIN
 70
     8
  9
$DIMALTZ
 70
     0
  9
$DIMALTTZ
 70
     0
  9
$DIMUPT
 70
     0
  9
$DIMDEC
 70
     2
  9
$DIMTDEC
 70
     2
  9
$DIMALTU
 70
     2
  9
$DIMALTTD
 70
     3
  9
$DIMTXSTY
  7
Standard
  9
$DIMAUNIT
 70
     0
  9
$DIMADEC
 70
     0
  9
$DIMALTRND
 40
0.0
  9
$DIMAZIN
 70
     0
  9
$DIMDSEP
 70
    44
  9
$DIMATFIT
 70
     3
  9
$DIMFRAC
 70
     0
  9
$DIMLDRBLK
  1
OPEN
  9
$DIMLUNIT
 70
     2
  9
$DIMLWD
 70
    -2
  9
$DIMLWE
 70
    -2
  9
$DIMTMOVE
 70
     0
  9
$LUNITS
 70
     2
  9
$LUPREC
 70
     3
  9
$SKETCHINC
 40
1.0
  9
$FILLETRAD
 40
10.0
  9
$AUNITS
 70
     0
  9
$AUPREC
 70
     0
  9
$MENU
  1
.
  9
$ELEVATION
 40
0.0
  9
$PELEVATION
 40
0.0
  9
$THICKNESS
 40
0.0
  9
$LIMCHECK
 70
     0
  9
$CHAMFERA
 40
10.0
  9
$CHAMFERB
 40
10.0
  9
$CHAMFERC
 40
20.0
  9
$CHAMFERD
 40
0.0
  9
$SKPOLY
 70
     0
  9
$TDCREATE
 40
2455023.012359514
  9
$TDUCREATE
 40
2455022.637359514
  9
$TDUPDATE
 40
2457242.562978704
  9
$TDUUPDATE
 40
2457242.187978704
  9
$TDINDWG
 40
0.0286693519
  9
$TDUSRTIMER
 40
2457242.176022327
  9
$USRTIMER
 70
     1
  9
$ANGBASE
 50
0.0
  9
$ANGDIR
 70
     0
  9
$PDMODE
 70
     0
  9
$PDSIZE
 40
0.0
  9
$PLINEWID
 40
0.0
  9
$SPLFRAME
 70
     0
  9
$SPLINETYPE
 70
     6
  9
$SPLINESEGS
 70
     8
  9
$HANDSEED
  5
44E
  9
$SURFTAB1
 70
     6
  9
$SURFTAB2
 70
     6
  9
$SURFTYPE
 70
     6
  9
$SURFU
 70
     6
  9
$SURFV
 70
     6
  9
$UCSBASE
  2

  9
$UCSNAME
  2

  9
$UCSORG
 10
0.0
 20
0.0
 30
0.0
  9
$UCSXDIR
 10
1.0
 20
0.0
 30
0.0
  9
$UCSYDIR
 10
0.0
 20
1.0
 30
0.0
  9
$UCSORTHOREF
  2

  9
$UCSORTHOVIEW
 70
     0
  9
$UCSORGTOP
 10
0.0
 20
0.0
 30
0.0
  9
$UCSORGBOTTOM
 10
0.0
 20
0.0
 30
0.0
  9
$UCSORGLEFT
 10
0.0
 20
0.0
 30
0.0
  9
$UCSORGRIGHT
 10
0.0
 20
0.0
 30
0.0
  9
$UCSORGFRONT
 10
0.0
 20
0.0
 30
0.0
  9
$UCSORGBACK
 10
0.0
 20
0.0
 30
0.0
  9
$PUCSBASE
  2

  9
$PUCSNAME
  2

  9
$PUCSORG
 10
0.0
 20
0.0
 30
0.0
  9
$PUCSXDIR
 10
1.0
 20
0.0
 30
0.0
  9
$PUCSYDIR
 10
0.0
 20
1.0
 30
0.0
  9
$PUCSORTHOREF
  2

  9
$PUCSORTHOVIEW
 70
     0
  9
$PUCSORGTOP
 10
0.0
 20
0.0
 30
0.0
  9
$PUCSORGBOTTOM
 10
0.0
 20
0.0
 30
0.0
  9
$PUCSORGLEFT
 10
0.0
 20
0.0
 30
0.0
  9
$PUCSORGRIGHT
 10
0.0
 20
0.0
 30
0.0
  9
$PUCSORGFRONT
 10
0.0
 20
0.0
 30
0.0
  9
$PUCSORGBACK
 10
0.0
 20
0.0
 30
0.0
  9
$USERI1
 70
     0
  9
$USERI2
 70
     0
  9
$USERI3
 70
     0
  9
$USERI4
 70
     0
  9
$USERI5
 70
     0
  9
$USERR1
 40
0.0
  9
$USERR2
 40
0.0
  9
$USERR3
 40
0.0
  9
$USERR4
 40
0.0
  9
$USERR5
 40
0.0
  9
$WORLDVIEW
 70
     1
  9
$SHADEDGE
 70
     3
  9
$SHADEDIF
 70
    70
  9
$TILEMODE
 70
     1
  9
$MAXACTVP
 70
    64
  9
$PINSBASE
 10
0.0
 20
0.0
 30
0.0
  9
$PLIMCHECK
 70
     0
  9
$PEXTMIN
 10
1.000000000000000E+20
 20
1.000000000000000E+20
 30
1.000000000000000E+20
  9
$PEXTMAX
 10
-1.000000000000000E+20
 20
-1.000000000000000E+20
 30
-1.000000000000000E+20
  9
$PLIMMIN
 10
0.0
 20
0.0
  9
$PLIMMAX
 10
0.0
 20
0.0
  9
$UNITMODE
 70
     0
  9
$VISRETAIN
 70
     1
  9
$PLINEGEN
 70
     0
  9
$PSLTSCALE
 70
     1
  9
$TREEDEPTH
 70
  3020
  9
$CMLSTYLE
  2
Standard
  9
$CMLJUST
 70
     0
  9
$CMLSCALE
 40
20.0
  9
$PROXYGRAPHICS
 70
     1
  9
$MEASUREMENT
 70
     1
  9
$CELWEIGHT
370
    -1
  9
$ENDCAPS
280
     0
  9
$JOINSTYLE
280
     0
  9
$LWDISPLAY
290
     0
  9
$INSUNITS
 70
     4
  9
$HYPERLINKBASE
  1

  9
$STYLESHEET
  1

  9
$XEDIT
290
     1
  9
$CEPSNTYPE
380
     0
  9
$PSTYLEMODE
290
     0
  9
$FINGERPRINTGUID
  2
{EC6BB858-51AA-46EC-B484-6C9CC7AB3E2E}
  9
$VERSIONGUID
  2
{FAEB1C32-E019-11D5-929B-00C0DF256EC4}
  9
$EXTNAMES
290
     1
  9
$PSVPSCALE
 40
0.0
  9
$OLESTARTUP
290
     0
  9
$SORTENTS
280
   127
  9
$INDEXCTL
280
     0
  9
$HIDETEXT
280
     1
  9
$XCLIPFRAME
290
     0
  9
$HALOGAP
280
     0
  9
$OBSCOLOR
 70
   257
  9
$OBSLTYPE
280
     0
  9
$INTERSECTIONDISPLAY
280
     0
  9
$INTERSECTIONCOLOR
 70
   257
  9
$DIMASSOC
280
     2
  9
$PROJECTNAME
  1

  0
ENDSEC
  0
SECTION
  2
CLASSES
  0
CLASS
  1
ACDBDICTIONARYWDFLT
  2
AcDbDictionaryWithDefault
  3
ObjectDBX Classes
 90
        0
 91
        4
280
     0
281
     0
  0
CLASS
  1
VISUALSTYLE
  2
AcDbVisualStyle
  3
ObjectDBX Classes
 90
     4095
 91
        4
280
     0
281
     0
  0
CLASS
  1
TABLESTYLE
  2
AcDbTableStyle
  3
ObjectDBX Classes
 90
     4095
 91
        4
280
     0
281
     0
  0
CLASS
  1
DICTIONARYVAR
  2
AcDbDictionaryVar
  3
ObjectDBX Classes
 90
        0
 91
        4
280
     0
281
     0
  0
CLASS
  1
SCALE
  2
AcDbScale
  3
ObjectDBX Classes
 90
     1153
 91
        4
280
     0
281
     0
  0
CLASS
  1
CELLSTYLEMAP
  2
AcDbCellStyleMap
  3
ObjectDBX Classes
 90
     1152
 91
        4
280
     0
281
     0
  0
CLASS
  1
RASTERVARIABLES
  2
AcDbRasterVariables
  3
ISM
 90
        0
 91
        4
280
     0
281
     0
  0
CLASS
  1
DIMASSOC
  2
AcDbDimAssoc
  3
"AcDbDimAssoc|Product Desc:     AcDim ARX App For Dimension|Company:          Autodesk, Inc.|WEB Address:      www.autodesk.com"
 90
        0
 91
        4
280
     0
281
     0
  0
CLASS
  1
MATERIAL
  2
AcDbMaterial
  3
ObjectDBX Classes
 90
     1153
 91
        4
280
     0
281
     0
  0
CLASS
  1
SUN
  2
AcDbSun
  3
SCENEOE
 90
     1153
 91
        4
280
     0
281
     0
  0
CLASS
  1
MLEADERSTYLE
  2
AcDbMLeaderStyle
  3
ACDB_MLEADERSTYLE_CLASS
 90
     4095
 91
        4
280
     0
281
     0
  0
CLASS
  1
SORTENTSTABLE
  2
AcDbSortentsTable
  3
ObjectDBX Classes
 90
        0
 91
        4
280
     0
281
     0
  0
ENDSEC
  0
SECTION
  2
TABLES
  0
TABLE
  2
VPORT
  5
8
330
0
100
AcDbSymbolTable
 70
     1
  0
VPORT
  5
29
330
8
100
AcDbSymbolTableRecord
100
AcDbViewportTableRecord
  2
*Active
 70
     0
 10
0.0
 20
0.0
 11
1.0
 21
1.0
 12
653.6713772171461
 22
613.5586857432606
 13
0.0
 23
0.0
 14
10.0
 24
10.0
 15
10.0
 25
10.0
 16
0.0
 26
0.0
 36
1.0
 17
-134.1869158878505
 27
0.0
 37
0.0
 40
2354.328159283315
 41
1.664884135472371
 42
50.0
 43
0.0
 44
0.0
 50
0.0
 51
0.0
 71
    16
 72
  1000
 73
     1
 74
     3
 75
     0
 76
     0
 77
     0
 78
     0
281
     0
 65
     1
110
0.0
120
0.0
130
0.0
111
1.0
121
0.0
131
0.0
112
0.0
122
1.0
132
0.0
 79
     0
146
0.0
  0
ENDTAB
  0
TABLE
  2
LTYPE
  5
5
330
0
100
AcDbSymbolTable
 70
     2
  0
LTYPE
  5
14
330
5
100
AcDbSymbolTableRecord
100
AcDbLinetypeTableRecord
  2
ByBlock
 70
     0
  3

 72
    65
 73
     0
 40
0.0
  0
LTYPE
  5
15
330
5
100
AcDbSymbolTableRecord
100
AcDbLinetypeTableRecord
  2
ByLayer
 70
     0
  3

 72
    65
 73
     0
 40
0.0
  0
LTYPE
  5
16
330
5
100
AcDbSymbolTableRecord
100
AcDbLinetypeTableRecord
  2
Continuous
 70
     0
  3
Solid line
 72
    65
 73
     0
 40
0.0
  0
LTYPE
  5
E2
330
5
100
AcDbSymbolTableRecord
100
AcDbLinetypeTableRecord
  2
CENTER
 70
     0
  3
 Center ____ _ ____ _ ____ _ ____ _ ____ _ ____
 72
    65
 73
     4
 40
2.0
 49
1.25
 74
     0
 49
-0.25
 74
     0
 49
0.25
 74
     0
 49
-0.25
 74
     0
  0
ENDTAB
  0
TABLE
  2
LAYER
  5
2
102
{ACAD_XDICTIONARY
360
260
102
}
330
0
100
AcDbSymbolTable
 70
     6
  0
LAYER
  5
10
330
2
100
AcDbSymbolTableRecord
100
AcDbLayerTableRecord
  2
0
 70
     0
 62
     7
  6
Continuous
370
    -3
390
F
  0
LAYER
  5
7E
330
2
100
AcDbSymbolTableRecord
100
AcDbLayerTableRecord
  2
Defpoints
 70
     0
 62
     7
  6
Continuous
290
     0
370
    -3
390
F
  0
LAYER
  5
DE
330
2
100
AcDbSymbolTableRecord
100
AcDbLayerTableRecord
  2
C2
 70
     0
 62
     1
  6
CENTER
370
    -3
390
F
  0
LAYER
  5
E3
330
2
100
AcDbSymbolTableRecord
100
AcDbLayerTableRecord
  2
C4
 70
     0
 62
     3
  6
Continuous
370
    -3
390
F
  0
LAYER
  5
E4
330
2
100
AcDbSymbolTableRecord
100
AcDbLayerTableRecord
  2
C寸法
 70
     0
 62
     4
  6
Continuous
370
    -3
390
F
  0
LAYER
  5
3E0
330
2
100
AcDbSymbolTableRecord
100
AcDbLayerTableRecord
  2
画層1
 70
     0
 62
     7
  6
Continuous
370
    -3
390
F
1001
AcAecLayerStandard
1000

1000

  0
ENDTAB
  0
TABLE
  2
STYLE
  5
3
330
0
100
AcDbSymbolTable
 70
     2
  0
STYLE
  5
11
330
3
100
AcDbSymbolTableRecord
100
AcDbTextStyleTableRecord
  2
Standard
 70
     0
 40
0.138
 41
1.0
 50
0.0
 71
     0
 42
2.5
  3
arial.ttf
  4

1001
ACAD
1000
Arial
1071
        0
  0
STYLE
  5
F3
330
3
100
AcDbSymbolTableRecord
100
AcDbTextStyleTableRecord
  2
KANJI
 70
     0
 40
0.0
 41
1.0
 50
0.0
 71
     0
 42
2.5
  3
romans
  4
bigfont
  0
ENDTAB
  0
TABLE
  2
VIEW
  5
6
330
0
100
AcDbSymbolTable
 70
     0
  0
ENDTAB
  0
TABLE
  2
UCS
  5
7
330
0
100
AcDbSymbolTable
 70
     0
  0
ENDTAB
  0
TABLE
  2
APPID
  5
9
330
0
100
AcDbSymbolTable
 70
     9
  0
APPID
  5
12
330
9
100
AcDbSymbolTableRecord
100
AcDbRegAppTableRecord
  2
ACAD
 70
     0
  0
APPID
  5
EE
330
9
100
AcDbSymbolTableRecord
100
AcDbRegAppTableRecord
  2
ACAD_DSTYLE_DIMBREAK
 70
     0
  0
APPID
  5
EF
330
9
100
AcDbSymbolTableRecord
100
AcDbRegAppTableRecord
  2
ACAD_DSTYLE_DIMJAG
 70
     0
  0
APPID
  5
F0
330
9
100
AcDbSymbolTableRecord
100
AcDbRegAppTableRecord
  2
ACAD_DSTYLE_DIMTALN
 70
     0
  0
APPID
  5
F1
330
9
100
AcDbSymbolTableRecord
100
AcDbRegAppTableRecord
  2
ACAD_NAV_VCDISPLAY
 70
     0
  0
APPID
  5
F2
330
9
100
AcDbSymbolTableRecord
100
AcDbRegAppTableRecord
  2
PLOTTRANSPARENCY
 70
     0
  0
APPID
  5
3B0
330
9
100
AcDbSymbolTableRecord
100
AcDbRegAppTableRecord
  2
ACAD_DSTYLE_DIMRADIAL_EXTENSION
 70
     0
  0
APPID
  5
3E1
330
9
100
AcDbSymbolTableRecord
100
AcDbRegAppTableRecord
  2
AcAecLayerStandard
 70
     0
  0
APPID
  5
42C
330
9
100
AcDbSymbolTableRecord
100
AcDbRegAppTableRecord
  2
ACAD_MLEADERVER
 70
     0
  0
ENDTAB
  0
TABLE
  2
DIMSTYLE
  5
A
330
0
100
AcDbSymbolTable
 70
     5
100
AcDbDimStyleTable
  0
DIMSTYLE
105
27
330
A
100
AcDbSymbolTableRecord
100
AcDbDimStyleTableRecord
  2
ISO-25
 70
     0
 41
2.5
 42
0.625
 43
3.75
 44
1.25
 73
     0
 74
     0
 77
     1
 78
     8
140
2.5
141
2.5
143
0.03937007874016
147
0.625
171
     3
172
     1
178
     0
271
     2
272
     2
274
     3
278
    44
283
     0
284
     8
340
11
  0
DIMSTYLE
105
72
330
A
100
AcDbSymbolTableRecord
100
AcDbDimStyleTableRecord
  2
GB-1
 70
     0
 41
2.5
 42
0.625
 43
3.75
 44
1.25
 73
     0
 74
     0
 77
     1
 78
     8
140
2.5
141
2.5
143
0.03937007874016
147
0.625
171
     3
172
     1
178
     0
271
     2
272
     2
274
     3
278
    44
283
     0
284
     8
340
11
341
76
342
76
  0
DIMSTYLE
105
8E
102
{ACAD_REACTORS
330
3C4
330
3FC
330
407
330
412
102
}
330
A
100
AcDbSymbolTableRecord
100
AcDbDimStyleTableRecord
  2
JIS-1
 70
     0
 41
2.5
 42
0.625
 43
3.75
 44
1.25
 73
     0
 74
     0
 77
     1
 78
     8
140
2.5
141
2.5
143
0.03937007874016
147
0.625
171
     3
172
     1
178
     0
271
     2
272
     2
274
     3
278
    44
283
     0
284
     8
340
11
341
90
342
90
  0
DIMSTYLE
105
E5
330
A
100
AcDbSymbolTableRecord
100
AcDbDimStyleTableRecord
  2
Standard
 70
     0
178
     0
340
11
  0
DIMSTYLE
105
E7
102
{ACAD_REACTORS
330
2F4
330
2F5
330
2F6
330
2F7
330
2F8
330
2F9
330
2FA
330
2FB
330
2FC
330
2FD
330
301
330
302
330
305
102
}
330
A
100
AcDbSymbolTableRecord
100
AcDbDimStyleTableRecord
  2
実寸
 70
     0
 41
25.0
 42
10.0
 43
6.0
 44
0.0
 47
5.0
 73
     0
 74
     0
 77
     1
 78
     8
140
25.0
141
0.0
144
5.0
147
5.0
178
     0
271
     1
272
     1
284
     8
340
11
341
90
342
90
1001
ACAD_DSTYLE_DIMBREAK
1070
   391
1040
0.125
1001
ACAD_DSTYLE_DIMJAG
1070
   388
1040
1.5
1001
ACAD_DSTYLE_DIMTALN
1070
   392
1070
     0
  0
ENDTAB
  0
TABLE
  2
BLOCK_RECORD
  5
1
330
0
100
AcDbSymbolTable
 70
    20
  0
BLOCK_RECORD
  5
1F
330
1
100
AcDbSymbolTableRecord
100
AcDbBlockTableRecord
  2
*Model_Space
340
22
  0
BLOCK_RECORD
  5
1B
330
1
100
AcDbSymbolTableRecord
100
AcDbBlockTableRecord
  2
*Paper_Space
340
1E
  0
BLOCK_RECORD
  5
23
330
1
100
AcDbSymbolTableRecord
100
AcDbBlockTableRecord
  2
*Paper_Space0
340
26
  0
BLOCK_RECORD
  5
76
330
1
100
AcDbSymbolTableRecord
100
AcDbBlockTableRecord
  2
_CLOSED
340
0
  0
BLOCK_RECORD
  5
90
330
1
100
AcDbSymbolTableRecord
100
AcDbBlockTableRecord
  2
_OPEN
340
0
102
{BLKREFS
331
310
331
311
331
31C
331
31D
331
328
331
329
331
334
331
335
331
340
331
341
331
34C
331
34D
331
358
331
359
331
367
331
368
331
373
331
374
331
382
331
383
331
390
331
391
331
0
331
39F
331
3AA
331
3AB
331
3CD
331
3CE
331
404
331
40F
331
41A
102
}
  0
BLOCK_RECORD
  5
30A
330
1
100
AcDbSymbolTableRecord
100
AcDbBlockTableRecord
  2
*D3
340
0
  0
BLOCK_RECORD
  5
316
330
1
100
AcDbSymbolTableRecord
100
AcDbBlockTableRecord
  2
*D4
340
0
  0
BLOCK_RECORD
  5
322
330
1
100
AcDbSymbolTableRecord
100
AcDbBlockTableRecord
  2
*D5
340
0
  0
BLOCK_RECORD
  5
32E
330
1
100
AcDbSymbolTableRecord
100
AcDbBlockTableRecord
  2
*D6
340
0
  0
BLOCK_RECORD
  5
33A
330
1
100
AcDbSymbolTableRecord
100
AcDbBlockTableRecord
  2
*D7
340
0
  0
BLOCK_RECORD
  5
346
330
1
100
AcDbSymbolTableRecord
100
AcDbBlockTableRecord
  2
*D8
340
0
  0
BLOCK_RECORD
  5
352
330
1
100
AcDbSymbolTableRecord
100
AcDbBlockTableRecord
  2
*D9
340
0
  0
BLOCK_RECORD
  5
35E
330
1
100
AcDbSymbolTableRecord
100
AcDbBlockTableRecord
  2
*D10
340
0
  0
BLOCK_RECORD
  5
36D
330
1
100
AcDbSymbolTableRecord
100
AcDbBlockTableRecord
  2
*D11
340
0
  0
BLOCK_RECORD
  5
379
330
1
100
AcDbSymbolTableRecord
100
AcDbBlockTableRecord
  2
*D12
340
0
  0
BLOCK_RECORD
  5
388
330
1
100
AcDbSymbolTableRecord
100
AcDbBlockTableRecord
  2
*D13
340
0
  0
BLOCK_RECORD
  5
396
330
1
100
AcDbSymbolTableRecord
100
AcDbBlockTableRecord
  2
*D14
340
0
  0
BLOCK_RECORD
  5
3A4
330
1
100
AcDbSymbolTableRecord
100
AcDbBlockTableRecord
  2
*D15
340
0
  0
BLOCK_RECORD
  5
3C5
330
1
100
AcDbSymbolTableRecord
100
AcDbBlockTableRecord
  2
*D16
340
0
  0
BLOCK_RECORD
  5
3FF
330
1
100
AcDbSymbolTableRecord
100
AcDbBlockTableRecord
  2
*D17
340
0
  0
BLOCK_RECORD
  5
40A
330
1
100
AcDbSymbolTableRecord
100
AcDbBlockTableRecord
  2
*D18
340
0
  0
BLOCK_RECORD
  5
415
330
1
100
AcDbSymbolTableRecord
100
AcDbBlockTableRecord
  2
*D19
340
0
  0
ENDTAB
  0
ENDSEC
  0
SECTION
  2
BLOCKS
  0
BLOCK
  5
20
330
1F
100
AcDbEntity
  8
0
100
AcDbBlockBegin
  2
*Model_Space
 70
     0
 10
0.0
 20
0.0
 30
0.0
  3
*Model_Space
  1
*Model_Space
  0
ENDBLK
  5
21
330
1F
100
AcDbEntity
  8
0
100
AcDbBlockEnd
  0
BLOCK
  5
1C
330
1B
100
AcDbEntity
 67
     1
  8
0
100
AcDbBlockBegin
  2
*Paper_Space
 70
     0
 10
0.0
 20
0.0
 30
0.0
  3
*Paper_Space
  1
*Paper_Space
  0
ENDBLK
  5
1D
330
1B
100
AcDbEntity
 67
     1
  8
0
100
AcDbBlockEnd
  0
BLOCK
  5
24
330
23
100
AcDbEntity
  8
0
100
AcDbBlockBegin
  2
*Paper_Space0
 70
     0
 10
0.0
 20
0.0
 30
0.0
  3
*Paper_Space0
  1
*Paper_Space0
  0
ENDBLK
  5
25
330
23
100
AcDbEntity
  8
0
100
AcDbBlockEnd
  0
BLOCK
  5
77
330
76
100
AcDbEntity
  8
0
100
AcDbBlockBegin
  2
_CLOSED
 70
     0
 10
0.0
 20
0.0
 30
0.0
  3
_CLOSED
  1
_CLOSED
  0
LINE
  5
78
330
76
100
AcDbEntity
  8
0
  6
ByBlock
 62
     0
370
    -2
100
AcDbLine
 10
-1.0
 20
0.166667
 30
0.0
 11
0.0
 21
0.0
 31
0.0
  0
LINE
  5
79
330
76
100
AcDbEntity
  8
0
  6
ByBlock
 62
     0
370
    -2
100
AcDbLine
 10
0.0
 20
0.0
 30
0.0
 11
-1.0
 21
-0.166667
 31
0.0
  0
LINE
  5
7A
330
76
100
AcDbEntity
  8
0
  6
ByBlock
 62
     0
370
    -2
100
AcDbLine
 10
-1.0
 20
0.166667
 30
0.0
 11
-1.0
 21
-0.166667
 31
0.0
  0
LINE
  5
7B
330
76
100
AcDbEntity
  8
0
  6
ByBlock
 62
     0
370
    -2
100
AcDbLine
 10
0.0
 20
0.0
 30
0.0
 11
-1.0
 21
0.0
 31
0.0
  0
ENDBLK
  5
7C
330
76
100
AcDbEntity
  8
0
100
AcDbBlockEnd
  0
BLOCK
  5
91
330
90
100
AcDbEntity
  8
0
100
AcDbBlockBegin
  2
_OPEN
 70
     0
 10
0.0
 20
0.0
 30
0.0
  3
_OPEN
  1
_OPEN
  0
LINE
  5
92
330
90
100
AcDbEntity
  8
0
  6
ByBlock
 62
     0
370
    -2
100
AcDbLine
 10
-1.0
 20
0.166667
 30
0.0
 11
0.0
 21
0.0
 31
0.0
  0
LINE
  5
93
330
90
100
AcDbEntity
  8
0
  6
ByBlock
 62
     0
370
    -2
100
AcDbLine
 10
-1.0
 20
-0.166667
 30
0.0
 11
0.0
 21
0.0
 31
0.0
  0
LINE
  5
94
330
90
100
AcDbEntity
  8
0
  6
ByBlock
 62
     0
370
    -2
100
AcDbLine
 10
0.0
 20
0.0
 30
0.0
 11
-1.0
 21
0.0
 31
0.0
  0
ENDBLK
  5
95
330
90
100
AcDbEntity
  8
0
100
AcDbBlockEnd
  0
BLOCK
  5
30B
330
30A
100
AcDbEntity
  8
0
100
AcDbBlockBegin
  2
*D3
 70
     1
 10
0.0
 20
0.0
 30
0.0
  3
*D3
  1
*D18
  0
LINE
  5
30D
330
30A
100
AcDbEntity
  8
C寸法
 62
     0
370
    -2
100
AcDbLine
 10
1017.908754992227
 20
1018.539196567183
 30
0.0
 11
1107.908754992227
 21
1018.539196567183
 31
0.0
  0
LINE
  5
30E
330
30A
100
AcDbEntity
  8
C寸法
 62
     0
370
    -2
100
AcDbLine
 10
935.8718002280907
 20
888.539196567325
 30
0.0
 11
1107.908754992227
 21
888.539196567325
 31
0.0
  0
LINE
  5
30F
330
30A
100
AcDbEntity
  8
C寸法
 62
     0
370
    -2
100
AcDbLine
 10
1107.908754992227
 20
993.5391965671832
 30
0.0
 11
1107.908754992227
 21
913.539196567325
 31
0.0
  0
INSERT
  5
310
330
30A
100
AcDbEntity
  8
C寸法
 62
     0
370
    -2
100
AcDbBlockReference
  2
_OPEN
 10
1107.908754992227
 20
1018.539196567183
 30
0.0
 41
25.0
 42
25.0
 43
25.0
 50
90.0
  0
INSERT
  5
311
330
30A
100
AcDbEntity
  8
C寸法
 62
     0
370
    -2
100
AcDbBlockReference
  2
_OPEN
 10
1107.908754992227
 20
888.539196567325
 30
0.0
 41
25.0
 42
25.0
 43
25.0
 50
270.0
  0
MTEXT
  5
312
330
30A
100
AcDbEntity
  8
C寸法
 62
     0
370
    13
100
AcDbMText
 10
1090.408754992227
 20
953.5391965672541
 30
0.0
 40
25.0
 41
0.0
 71
     5
 72
     1
  1
\A1;130
  7
KANJI
 11
0.0
 21
1.0
 31
0.0
 73
     1
 44
1.0
  0
POINT
  5
313
330
30A
100
AcDbEntity
  8
Defpoints
 62
     0
100
AcDbPoint
 10
1007.908754992227
 20
1018.539196567183
 30
0.0
  0
POINT
  5
314
330
30A
100
AcDbEntity
  8
Defpoints
 62
     0
100
AcDbPoint
 10
925.8718002280907
 20
888.539196567325
 30
0.0
  0
POINT
  5
315
330
30A
100
AcDbEntity
  8
Defpoints
 62
     0
100
AcDbPoint
 10
1107.908754992227
 20
888.539196567325
 30
0.0
  0
ENDBLK
  5
30C
330
30A
100
AcDbEntity
  8
0
100
AcDbBlockEnd
  0
BLOCK
  5
317
330
316
100
AcDbEntity
  8
0
100
AcDbBlockBegin
  2
*D4
 70
     1
 10
0.0
 20
0.0
 30
0.0
  3
*D4
  1
*D19
  0
LINE
  5
319
330
316
100
AcDbEntity
  8
C寸法
 62
     0
370
    -2
100
AcDbLine
 10
1017.908754992227
 20
1033.539196567325
 30
0.0
 11
1207.908754992227
 21
1033.539196567325
 31
0.0
  0
LINE
  5
31A
330
316
100
AcDbEntity
  8
C寸法
 62
     0
370
    -2
100
AcDbLine
 10
1017.908754992227
 20
1113.539196567325
 30
0.0
 11
1207.908754992227
 21
1113.539196567325
 31
0.0
  0
LINE
  5
31B
330
316
100
AcDbEntity
  8
C寸法
 62
     0
370
    -2
100
AcDbLine
 10
1207.908754992227
 20
1058.539196567325
 30
0.0
 11
1207.908754992227
 21
1088.539196567325
 31
0.0
  0
INSERT
  5
31C
330
316
100
AcDbEntity
  8
C寸法
 62
     0
370
    -2
100
AcDbBlockReference
  2
_OPEN
 10
1207.908754992227
 20
1033.539196567325
 30
0.0
 41
25.0
 42
25.0
 43
25.0
 50
270.0
  0
INSERT
  5
31D
330
316
100
AcDbEntity
  8
C寸法
 62
     0
370
    -2
100
AcDbBlockReference
  2
_OPEN
 10
1207.908754992227
 20
1113.539196567325
 30
0.0
 41
25.0
 42
25.0
 43
25.0
 50
90.0
  0
MTEXT
  5
31E
330
316
100
AcDbEntity
  8
C寸法
 62
     0
370
    13
100
AcDbMText
 10
1190.408754992227
 20
1073.539196567325
 30
0.0
 40
25.0
 41
0.0
 71
     5
 72
     1
  1
\A1;80
  7
KANJI
 11
0.0
 21
1.0
 31
0.0
 73
     1
 44
1.0
  0
POINT
  5
31F
330
316
100
AcDbEntity
  8
Defpoints
 62
     0
100
AcDbPoint
 10
1007.908754992227
 20
1033.539196567325
 30
0.0
  0
POINT
  5
320
330
316
100
AcDbEntity
  8
Defpoints
 62
     0
100
AcDbPoint
 10
1007.908754992227
 20
1113.539196567325
 30
0.0
  0
POINT
  5
321
330
316
100
AcDbEntity
  8
Defpoints
 62
     0
100
AcDbPoint
 10
1207.908754992227
 20
1113.539196567325
 30
0.0
  0
ENDBLK
  5
318
330
316
100
AcDbEntity
  8
0
100
AcDbBlockEnd
  0
BLOCK
  5
323
330
322
100
AcDbEntity
  8
0
100
AcDbBlockBegin
  2
*D5
 70
     1
 10
0.0
 20
0.0
 30
0.0
  3
*D5
  1
*D20
  0
LINE
  5
325
330
322
100
AcDbEntity
  8
C寸法
 62
     0
370
    -2
100
AcDbLine
 10
978.0851537313433
 20
629.3789443810405
 30
0.0
 11
978.0851537313433
 21
443.5391965673251
 31
0.0
  0
LINE
  5
326
330
322
100
AcDbEntity
  8
C寸法
 62
     0
370
    -2
100
AcDbLine
 10
328.0851537313433
 20
629.1454477473243
 30
0.0
 11
328.0851537313433
 21
443.5391965673251
 31
0.0
  0
LINE
  5
327
330
322
100
AcDbEntity
  8
C寸法
 62
     0
370
    -2
100
AcDbLine
 10
953.0851537313433
 20
443.5391965673251
 30
0.0
 11
353.0851537313433
 21
443.5391965673251
 31
0.0
  0
INSERT
  5
328
330
322
100
AcDbEntity
  8
C寸法
 62
     0
370
    -2
100
AcDbBlockReference
  2
_OPEN
 10
978.0851537313433
 20
443.5391965673251
 30
0.0
 41
25.0
 42
25.0
 43
25.0
 50
360.0
  0
INSERT
  5
329
330
322
100
AcDbEntity
  8
C寸法
 62
     0
370
    -2
100
AcDbBlockReference
  2
_OPEN
 10
328.0851537313433
 20
443.5391965673251
 30
0.0
 41
25.0
 42
25.0
 43
25.0
 50
180.0
  0
MTEXT
  5
32A
330
322
100
AcDbEntity
  8
C寸法
 62
     0
370
    13
100
AcDbMText
 10
653.0851537313433
 20
461.0391965673251
 30
0.0
 40
25.0
 41
0.0
 71
     5
 72
     1
  1
\A1;650
  7
KANJI
 73
     1
 44
1.0
  0
POINT
  5
32B
330
322
100
AcDbEntity
  8
Defpoints
 62
     0
100
AcDbPoint
 10
978.0851537313433
 20
639.3789443810405
 30
0.0
  0
POINT
  5
32C
330
322
100
AcDbEntity
  8
Defpoints
 62
     0
100
AcDbPoint
 10
328.0851537313433
 20
639.1454477473243
 30
0.0
  0
POINT
  5
32D
330
322
100
AcDbEntity
  8
Defpoints
 62
     0
100
AcDbPoint
 10
328.0851537313433
 20
443.5391965673251
 30
0.0
  0
ENDBLK
  5
324
330
322
100
AcDbEntity
  8
0
100
AcDbBlockEnd
  0
BLOCK
  5
32F
330
32E
100
AcDbEntity
  8
0
100
AcDbBlockBegin
  2
*D6
 70
     1
 10
0.0
 20
0.0
 30
0.0
  3
*D6
  1
*D21
  0
LINE
  5
331
330
32E
100
AcDbEntity
  8
C寸法
 62
     0
370
    -2
100
AcDbLine
 10
978.0851537313433
 20
583.5391965673251
 30
0.0
 11
978.0851537313433
 21
493.5391965673251
 31
0.0
  0
LINE
  5
332
330
32E
100
AcDbEntity
  8
C寸法
 62
     0
370
    -2
100
AcDbLine
 10
828.0831537313356
 20
583.5391965673251
 30
0.0
 11
828.0831537313356
 21
493.5391965673251
 31
0.0
  0
LINE
  5
333
330
32E
100
AcDbEntity
  8
C寸法
 62
     0
370
    -2
100
AcDbLine
 10
953.0851537313433
 20
493.5391965673251
 30
0.0
 11
853.0831537313356
 21
493.5391965673251
 31
0.0
  0
INSERT
  5
334
330
32E
100
AcDbEntity
  8
C寸法
 62
     0
370
    -2
100
AcDbBlockReference
  2
_OPEN
 10
978.0851537313433
 20
493.5391965673251
 30
0.0
 41
25.0
 42
25.0
 43
25.0
  0
INSERT
  5
335
330
32E
100
AcDbEntity
  8
C寸法
 62
     0
370
    -2
100
AcDbBlockReference
  2
_OPEN
 10
828.0831537313356
 20
493.5391965673251
 30
0.0
 41
25.0
 42
25.0
 43
25.0
 50
180.0
  0
MTEXT
  5
336
330
32E
100
AcDbEntity
  8
C寸法
 62
     0
370
    13
100
AcDbMText
 10
903.0841537313395
 20
511.0391965673251
 30
0.0
 40
25.0
 41
0.0
 71
     5
 72
     1
  1
\A1;150
  7
KANJI
 73
     1
 44
1.0
  0
POINT
  5
337
330
32E
100
AcDbEntity
  8
Defpoints
 62
     0
100
AcDbPoint
 10
978.0851537313433
 20
593.5391965673251
 30
0.0
  0
POINT
  5
338
330
32E
100
AcDbEntity
  8
Defpoints
 62
     0
100
AcDbPoint
 10
828.0831537313356
 20
593.5391965673251
 30
0.0
  0
POINT
  5
339
330
32E
100
AcDbEntity
  8
Defpoints
 62
     0
100
AcDbPoint
 10
828.0831537313356
 20
493.5391965673251
 30
0.0
  0
ENDBLK
  5
330
330
32E
100
AcDbEntity
  8
0
100
AcDbBlockEnd
  0
BLOCK
  5
33B
330
33A
100
AcDbEntity
  8
0
100
AcDbBlockBegin
  2
*D7
 70
     1
 10
0.0
 20
0.0
 30
0.0
  3
*D7
  1
*D22
  0
LINE
  5
33D
330
33A
100
AcDbEntity
  8
C寸法
 62
     0
370
    -2
100
AcDbLine
 10
932.4849165074547
 20
1113.539196567325
 30
0.0
 11
1257.908754992227
 21
1113.539196567325
 31
0.0
  0
LINE
  5
33E
330
33A
100
AcDbEntity
  8
C寸法
 62
     0
370
    -2
100
AcDbLine
 10
1017.908754992225
 20
593.5391965673251
 30
0.0
 11
1257.908754992227
 21
593.5391965673251
 31
0.0
  0
LINE
  5
33F
330
33A
100
AcDbEntity
  8
C寸法
 62
     0
370
    -2
100
AcDbLine
 10
1257.908754992227
 20
1088.539196567325
 30
0.0
 11
1257.908754992227
 21
618.5391965673251
 31
0.0
  0
INSERT
  5
340
330
33A
100
AcDbEntity
  8
C寸法
 62
     0
370
    -2
100
AcDbBlockReference
  2
_OPEN
 10
1257.908754992227
 20
1113.539196567325
 30
0.0
 41
25.0
 42
25.0
 43
25.0
 50
90.0
  0
INSERT
  5
341
330
33A
100
AcDbEntity
  8
C寸法
 62
     0
370
    -2
100
AcDbBlockReference
  2
_OPEN
 10
1257.908754992227
 20
593.5391965673251
 30
0.0
 41
25.0
 42
25.0
 43
25.0
 50
270.0
  0
MTEXT
  5
342
330
33A
100
AcDbEntity
  8
C寸法
 62
     0
370
    13
100
AcDbMText
 10
1240.408754992227
 20
853.5391965673252
 30
0.0
 40
25.0
 41
0.0
 71
     5
 72
     1
  1
\A1;520
  7
KANJI
 11
0.0
 21
1.0
 31
0.0
 73
     1
 44
1.0
  0
POINT
  5
343
330
33A
100
AcDbEntity
  8
Defpoints
 62
     0
100
AcDbPoint
 10
922.4849165074547
 20
1113.539196567325
 30
0.0
  0
POINT
  5
344
330
33A
100
AcDbEntity
  8
Defpoints
 62
     0
100
AcDbPoint
 10
1007.908754992225
 20
593.5391965673251
 30
0.0
  0
POINT
  5
345
330
33A
100
AcDbEntity
  8
Defpoints
 62
     0
100
AcDbPoint
 10
1257.908754992227
 20
593.5391965673251
 30
0.0
  0
ENDBLK
  5
33C
330
33A
100
AcDbEntity
  8
0
100
AcDbBlockEnd
  0
BLOCK
  5
347
330
346
100
AcDbEntity
  8
0
100
AcDbBlockBegin
  2
*D8
 70
     1
 10
0.0
 20
0.0
 30
0.0
  3
*D8
  1
*D23
  0
LINE
  5
349
330
346
100
AcDbEntity
  8
C寸法
 62
     0
370
    -2
100
AcDbLine
 10
640.9544928706308
 20
359.2391965673251
 30
0.0
 11
249.9424469619619
 21
359.239196567325
 31
0.0
  0
LINE
  5
34A
330
346
100
AcDbEntity
  8
C寸法
 62
     0
370
    -2
100
AcDbLine
 10
556.2895610281071
 20
169.2391965673251
 30
0.0
 11
249.9424469619619
 21
169.239196567325
 31
0.0
  0
LINE
  5
34B
330
346
100
AcDbEntity
  8
C寸法
 62
     0
370
    -2
100
AcDbLine
 10
249.9424469619619
 20
334.239196567325
 30
0.0
 11
249.9424469619619
 21
194.239196567325
 31
0.0
  0
INSERT
  5
34C
330
346
100
AcDbEntity
  8
C寸法
 62
     0
370
    -2
100
AcDbBlockReference
  2
_OPEN
 10
249.9424469619619
 20
359.239196567325
 30
0.0
 41
25.0
 42
25.0
 43
25.0
 50
90.00000000000001
  0
INSERT
  5
34D
330
346
100
AcDbEntity
  8
C寸法
 62
     0
370
    -2
100
AcDbBlockReference
  2
_OPEN
 10
249.9424469619619
 20
169.239196567325
 30
0.0
 41
25.0
 42
25.0
 43
25.0
 50
270.0
  0
MTEXT
  5
34E
330
346
100
AcDbEntity
  8
C寸法
 62
     0
370
    13
100
AcDbMText
 10
232.4424469619619
 20
264.239196567325
 30
0.0
 40
25.0
 41
0.0
 71
     5
 72
     1
  1
\A1;190
  7
KANJI
 11
-1.495879443705474E-16
 21
1.0
 31
0.0
 73
     1
 44
1.0
  0
POINT
  5
34F
330
346
100
AcDbEntity
  8
Defpoints
 62
     0
100
AcDbPoint
 10
650.9544928706308
 20
359.2391965673251
 30
0.0
  0
POINT
  5
350
330
346
100
AcDbEntity
  8
Defpoints
 62
     0
100
AcDbPoint
 10
566.2895610281071
 20
169.2391965673251
 30
0.0
  0
POINT
  5
351
330
346
100
AcDbEntity
  8
Defpoints
 62
     0
100
AcDbPoint
 10
249.9424469619619
 20
169.239196567325
 30
0.0
  0
ENDBLK
  5
348
330
346
100
AcDbEntity
  8
0
100
AcDbBlockEnd
  0
BLOCK
  5
353
330
352
100
AcDbEntity
  8
0
100
AcDbBlockBegin
  2
*D9
 70
     1
 10
0.0
 20
0.0
 30
0.0
  3
*D9
  1
*D24
  0
LINE
  5
355
330
352
100
AcDbEntity
  8
C寸法
 62
     0
370
    -2
100
AcDbLine
 10
1017.908754992225
 20
593.5391965673251
 30
0.0
 11
1207.908754992227
 21
593.5391965673251
 31
0.0
  0
LINE
  5
356
330
352
100
AcDbEntity
  8
C寸法
 62
     0
370
    -2
100
AcDbLine
 10
1017.908754992225
 20
1033.539196567325
 30
0.0
 11
1207.908754992227
 21
1033.539196567325
 31
0.0
  0
LINE
  5
357
330
352
100
AcDbEntity
  8
C寸法
 62
     0
370
    -2
100
AcDbLine
 10
1207.908754992227
 20
618.5391965673251
 30
0.0
 11
1207.908754992227
 21
1008.539196567325
 31
0.0
  0
INSERT
  5
358
330
352
100
AcDbEntity
  8
C寸法
 62
     0
370
    -2
100
AcDbBlockReference
  2
_OPEN
 10
1207.908754992227
 20
593.5391965673251
 30
0.0
 41
25.0
 42
25.0
 43
25.0
 50
270.0
  0
INSERT
  5
359
330
352
100
AcDbEntity
  8
C寸法
 62
     0
370
    -2
100
AcDbBlockReference
  2
_OPEN
 10
1207.908754992227
 20
1033.539196567325
 30
0.0
 41
25.0
 42
25.0
 43
25.0
 50
90.0
  0
MTEXT
  5
35A
330
352
100
AcDbEntity
  8
C寸法
 62
     0
370
    13
100
AcDbMText
 10
1190.408754992227
 20
813.5391965673252
 30
0.0
 40
25.0
 41
0.0
 71
     5
 72
     1
  1
\A1;440
  7
KANJI
 11
0.0
 21
1.0
 31
0.0
 73
     1
 44
1.0
  0
POINT
  5
35B
330
352
100
AcDbEntity
  8
Defpoints
 62
     0
100
AcDbPoint
 10
1007.908754992225
 20
593.5391965673251
 30
0.0
  0
POINT
  5
35C
330
352
100
AcDbEntity
  8
Defpoints
 62
     0
100
AcDbPoint
 10
1007.908754992225
 20
1033.539196567325
 30
0.0
  0
POINT
  5
35D
330
352
100
AcDbEntity
  8
Defpoints
 62
     0
100
AcDbPoint
 10
1207.908754992227
 20
1033.539196567325
 30
0.0
  0
ENDBLK
  5
354
330
352
100
AcDbEntity
  8
0
100
AcDbBlockEnd
  0
BLOCK
  5
35F
330
35E
100
AcDbEntity
  8
0
100
AcDbBlockBegin
  2
*D10
 70
     1
 10
0.0
 20
0.0
 30
0.0
  3
*D10
  1
*D25
  0
LINE
  5
361
330
35E
100
AcDbEntity
  8
C寸法
 62
     0
370
    -2
100
AcDbLine
 10
662.910754992233
 20
593.5391965673251
 30
0.0
 11
1157.908754992227
 21
593.5391965673251
 31
0.0
  0
LINE
  5
362
330
35E
100
AcDbEntity
  8
C寸法
 62
     0
370
    -2
100
AcDbLine
 10
1017.908754992224
 20
608.5391965673228
 30
0.0
 11
1157.908754992227
 21
608.5391965673228
 31
0.0
  0
LINE
  5
363
330
35E
100
AcDbEntity
  8
C寸法
 62
     0
370
    -2
100
AcDbLine
 10
1157.908754992227
 20
593.5391965673251
 30
0.0
 11
1157.908754992227
 21
496.4484227578013
 31
0.0
  0
LINE
  5
364
330
35E
100
AcDbEntity
  8
C寸法
 62
     0
370
    -2
100
AcDbLine
 10
1157.908754992227
 20
593.5391965673251
 30
0.0
 11
1157.908754992227
 21
608.5391965673228
 31
0.0
  0
LINE
  5
365
330
35E
100
AcDbEntity
  8
C寸法
 62
     0
370
    -2
100
AcDbLine
 10
1157.908754992227
 20
568.5391965673251
 30
0.0
 11
1157.908754992227
 21
543.5391965673251
 31
0.0
  0
LINE
  5
366
330
35E
100
AcDbEntity
  8
C寸法
 62
     0
370
    -2
100
AcDbLine
 10
1157.908754992227
 20
633.5391965673228
 30
0.0
 11
1157.908754992227
 21
658.5391965673228
 31
0.0
  0
INSERT
  5
367
330
35E
100
AcDbEntity
  8
C寸法
 62
     0
370
    -2
100
AcDbBlockReference
  2
_OPEN
 10
1157.908754992227
 20
593.5391965673251
 30
0.0
 41
25.0
 42
25.0
 43
25.0
 50
90.0
  0
INSERT
  5
368
330
35E
100
AcDbEntity
  8
C寸法
 62
     0
370
    -2
100
AcDbBlockReference
  2
_OPEN
 10
1157.908754992227
 20
608.5391965673228
 30
0.0
 41
25.0
 42
25.0
 43
25.0
 50
270.0
  0
MTEXT
  5
369
330
35E
100
AcDbEntity
  8
C寸法
 62
     0
370
    13
100
AcDbMText
 10
1140.408754992227
 20
519.9938096625632
 30
0.0
 40
25.0
 41
0.0
 71
     5
 72
     1
  1
\A1;15
  7
KANJI
 11
0.0
 21
1.0
 31
0.0
 73
     1
 44
1.0
  0
POINT
  5
36A
330
35E
100
AcDbEntity
  8
Defpoints
 62
     0
100
AcDbPoint
 10
652.910754992233
 20
593.5391965673251
 30
0.0
  0
POINT
  5
36B
330
35E
100
AcDbEntity
  8
Defpoints
 62
     0
100
AcDbPoint
 10
1007.908754992224
 20
608.5391965673228
 30
0.0
  0
POINT
  5
36C
330
35E
100
AcDbEntity
  8
Defpoints
 62
     0
100
AcDbPoint
 10
1157.908754992227
 20
608.5391965673228
 30
0.0
  0
ENDBLK
  5
360
330
35E
100
AcDbEntity
  8
0
100
AcDbBlockEnd
  0
BLOCK
  5
36E
330
36D
100
AcDbEntity
  8
0
100
AcDbBlockBegin
  2
*D11
 70
     1
 10
0.0
 20
0.0
 30
0.0
  3
*D11
  1
*D26
  0
LINE
  5
370
330
36D
100
AcDbEntity
  8
C寸法
 62
     0
370
    -2
100
AcDbLine
 10
662.9097224150153
 20
608.539196567467
 30
0.0
 11
1157.908754992227
 21
608.5391965674669
 31
0.0
  0
LINE
  5
371
330
36D
100
AcDbEntity
  8
C寸法
 62
     0
370
    -2
100
AcDbLine
 10
1017.908754992227
 20
1018.539196567325
 30
0.0
 11
1157.908754992227
 21
1018.539196567325
 31
0.0
  0
LINE
  5
372
330
36D
100
AcDbEntity
  8
C寸法
 62
     0
370
    -2
100
AcDbLine
 10
1157.908754992227
 20
633.5391965674669
 30
0.0
 11
1157.908754992227
 21
993.5391965673251
 31
0.0
  0
INSERT
  5
373
330
36D
100
AcDbEntity
  8
C寸法
 62
     0
370
    -2
100
AcDbBlockReference
  2
_OPEN
 10
1157.908754992227
 20
608.5391965674669
 30
0.0
 41
25.0
 42
25.0
 43
25.0
 50
270.0
  0
INSERT
  5
374
330
36D
100
AcDbEntity
  8
C寸法
 62
     0
370
    -2
100
AcDbBlockReference
  2
_OPEN
 10
1157.908754992227
 20
1018.539196567325
 30
0.0
 41
25.0
 42
25.0
 43
25.0
 50
90.0
  0
MTEXT
  5
375
330
36D
100
AcDbEntity
  8
C寸法
 62
     0
370
    13
100
AcDbMText
 10
1140.408754992227
 20
813.539196567396
 30
0.0
 40
25.0
 41
0.0
 71
     5
 72
     1
  1
\A1;410
  7
KANJI
 11
0.0
 21
1.0
 31
0.0
 73
     1
 44
1.0
  0
POINT
  5
376
330
36D
100
AcDbEntity
  8
Defpoints
 62
     0
100
AcDbPoint
 10
652.9097224150153
 20
608.539196567467
 30
0.0
  0
POINT
  5
377
330
36D
100
AcDbEntity
  8
Defpoints
 62
     0
100
AcDbPoint
 10
1007.908754992227
 20
1018.539196567325
 30
0.0
  0
POINT
  5
378
330
36D
100
AcDbEntity
  8
Defpoints
 62
     0
100
AcDbPoint
 10
1157.908754992227
 20
1018.539196567325
 30
0.0
  0
ENDBLK
  5
36F
330
36D
100
AcDbEntity
  8
0
100
AcDbBlockEnd
  0
BLOCK
  5
37A
330
379
100
AcDbEntity
  8
0
100
AcDbBlockBegin
  2
*D12
 70
     1
 10
0.0
 20
0.0
 30
0.0
  3
*D12
  1
*D27
  0
LINE
  5
37C
330
379
100
AcDbEntity
  8
C寸法
 62
     0
370
    -2
100
AcDbLine
 10
662.9107549922333
 20
1018.539196567325
 30
0.0
 11
1157.908754992227
 21
1018.539196567325
 31
0.0
  0
LINE
  5
37D
330
379
100
AcDbEntity
  8
C寸法
 62
     0
370
    -2
100
AcDbLine
 10
927.9087549922253
 20
1033.539196567325
 30
0.0
 11
1157.908754992227
 21
1033.539196567325
 31
0.0
  0
LINE
  5
37E
330
379
100
AcDbEntity
  8
C寸法
 62
     0
370
    -2
100
AcDbLine
 10
1157.908754992227
 20
1018.539196567325
 30
0.0
 11
1157.908754992227
 21
921.4484227578013
 31
0.0
  0
LINE
  5
37F
330
379
100
AcDbEntity
  8
C寸法
 62
     0
370
    -2
100
AcDbLine
 10
1157.908754992227
 20
1018.539196567325
 30
0.0
 11
1157.908754992227
 21
1033.539196567325
 31
0.0
  0
LINE
  5
380
330
379
100
AcDbEntity
  8
C寸法
 62
     0
370
    -2
100
AcDbLine
 10
1157.908754992227
 20
993.5391965673251
 30
0.0
 11
1157.908754992227
 21
968.5391965673251
 31
0.0
  0
LINE
  5
381
330
379
100
AcDbEntity
  8
C寸法
 62
     0
370
    -2
100
AcDbLine
 10
1157.908754992227
 20
1058.539196567325
 30
0.0
 11
1157.908754992227
 21
1083.539196567325
 31
0.0
  0
INSERT
  5
382
330
379
100
AcDbEntity
  8
C寸法
 62
     0
370
    -2
100
AcDbBlockReference
  2
_OPEN
 10
1157.908754992227
 20
1018.539196567325
 30
0.0
 41
25.0
 42
25.0
 43
25.0
 50
90.0
  0
INSERT
  5
383
330
379
100
AcDbEntity
  8
C寸法
 62
     0
370
    -2
100
AcDbBlockReference
  2
_OPEN
 10
1157.908754992227
 20
1033.539196567325
 30
0.0
 41
25.0
 42
25.0
 43
25.0
 50
270.0
  0
MTEXT
  5
384
330
379
100
AcDbEntity
  8
C寸法
 62
     0
370
    13
100
AcDbMText
 10
1140.408754992227
 20
944.9938096625632
 30
0.0
 40
25.0
 41
0.0
 71
     5
 72
     1
  1
\A1;15
  7
KANJI
 11
0.0
 21
1.0
 31
0.0
 73
     1
 44
1.0
  0
POINT
  5
385
330
379
100
AcDbEntity
  8
Defpoints
 62
     0
100
AcDbPoint
 10
652.9107549922333
 20
1018.539196567325
 30
0.0
  0
POINT
  5
386
330
379
100
AcDbEntity
  8
Defpoints
 62
     0
100
AcDbPoint
 10
917.9087549922253
 20
1033.539196567325
 30
0.0
  0
POINT
  5
387
330
379
100
AcDbEntity
  8
Defpoints
 62
     0
100
AcDbPoint
 10
1157.908754992227
 20
1033.539196567325
 30
0.0
  0
ENDBLK
  5
37B
330
379
100
AcDbEntity
  8
0
100
AcDbBlockEnd
  0
BLOCK
  5
389
330
388
100
AcDbEntity
  8
0
100
AcDbBlockBegin
  2
*D13
 70
     1
 10
0.0
 20
0.0
 30
0.0
  3
*D13
  1
*D28
  0
LINE
  5
38B
330
388
100
AcDbEntity
  8
画層1
 62
     0
370
    -2
100
AcDbLine
 10
701.9739446051901
 20
1073.539417831801
 30
0.0
 11
1107.908754992227
 21
1073.539417831801
 31
0.0
  0
LINE
  5
38C
330
388
100
AcDbEntity
  8
画層1
 62
     0
370
    -2
100
AcDbLine
 10
927.9085346000131
 20
1113.539196566921
 30
0.0
 11
1107.908754992227
 21
1113.539196566921
 31
0.0
  0
LINE
  5
38D
330
388
100
AcDbEntity
  8
画層1
 62
     0
370
    -2
100
AcDbLine
 10
1107.908754992227
 20
1138.539196566921
 30
0.0
 11
1107.908754992227
 21
1214.015387043111
 31
0.0
  0
LINE
  5
38E
330
388
100
AcDbEntity
  8
画層1
 62
     0
370
    -2
100
AcDbLine
 10
1107.908754992227
 20
1073.539417831801
 30
0.0
 11
1107.908754992227
 21
1113.539196566921
 31
0.0
  0
LINE
  5
38F
330
388
100
AcDbEntity
  8
画層1
 62
     0
370
    -2
100
AcDbLine
 10
1107.908754992227
 20
1048.539417831801
 30
0.0
 11
1107.908754992227
 21
1023.539417831801
 31
0.0
  0
INSERT
  5
390
330
388
100
AcDbEntity
  8
画層1
 62
     0
370
    -2
100
AcDbBlockReference
  2
_OPEN
 10
1107.908754992227
 20
1073.539417831801
 30
0.0
 41
25.0
 42
25.0
 43
25.0
 50
90.0
  0
INSERT
  5
391
330
388
100
AcDbEntity
  8
画層1
 62
     0
370
    -2
100
AcDbBlockReference
  2
_OPEN
 10
1107.908754992227
 20
1113.539196566921
 30
0.0
 41
25.0
 42
25.0
 43
25.0
 50
270.0
  0
MTEXT
  5
392
330
388
100
AcDbEntity
  8
画層1
 62
     0
370
    13
100
AcDbMText
 10
1090.408754992227
 20
1188.777291805016
 30
0.0
 40
25.0
 41
0.0
 71
     5
 72
     1
  1
\A1;40
  7
KANJI
 11
0.0
 21
1.0
 31
0.0
 73
     1
 44
1.0
  0
POINT
  5
393
330
388
100
AcDbEntity
  8
Defpoints
 62
     0
100
AcDbPoint
 10
691.9739446051901
 20
1073.539417831801
 30
0.0
  0
POINT
  5
394
330
388
100
AcDbEntity
  8
Defpoints
 62
     0
100
AcDbPoint
 10
917.9085346000131
 20
1113.539196566921
 30
0.0
  0
POINT
  5
395
330
388
100
AcDbEntity
  8
Defpoints
 62
     0
100
AcDbPoint
 10
1107.908754992227
 20
1113.539196566921
 30
0.0
  0
ENDBLK
  5
38A
330
388
100
AcDbEntity
  8
0
100
AcDbBlockEnd
  0
BLOCK
  5
397
330
396
100
AcDbEntity
  8
0
100
AcDbBlockBegin
  2
*D14
 70
     1
 10
0.0
 20
0.0
 30
0.0
  3
*D14
  1
*D29
  0
LINE
  5
399
330
396
100
AcDbEntity
  8
C寸法
 62
     0
370
    -2
100
AcDbLine
 10
313.4660932880664
 20
359.2391965673251
 30
0.0
 11
290.0221374413465
 21
359.2391965673251
 31
0.0
  0
LINE
  5
39A
330
396
100
AcDbEntity
  8
C寸法
 62
     0
370
    -2
100
AcDbLine
 10
338.1090081224916
 20
344.2391965673284
 30
0.0
 11
290.0221374413465
 21
344.2391965673284
 31
0.0
  0
LINE
  5
39B
330
396
100
AcDbEntity
  8
C寸法
 62
     0
370
    -2
100
AcDbLine
 10
290.0221374413465
 20
344.2391965673284
 30
0.0
 11
290.0221374413465
 21
247.1484227578044
 31
0.0
  0
LINE
  5
39C
330
396
100
AcDbEntity
  8
C寸法
 62
     0
370
    -2
100
AcDbLine
 10
290.0221374413465
 20
359.2391965673251
 30
0.0
 11
290.0221374413465
 21
344.2391965673284
 31
0.0
  0
LINE
  5
39D
330
396
100
AcDbEntity
  8
C寸法
 62
     0
370
    -2
100
AcDbLine
 10
290.0221374413465
 20
384.2391965673251
 30
0.0
 11
290.0221374413465
 21
409.2391965673251
 31
0.0
  0
LINE
  5
39E
330
396
100
AcDbEntity
  8
C寸法
 62
     0
370
    -2
100
AcDbLine
 10
290.0221374413465
 20
319.2391965673284
 30
0.0
 11
290.0221374413465
 21
294.2391965673284
 31
0.0
  0
INSERT
  5
39F
330
396
100
AcDbEntity
  8
C寸法
 62
     0
370
    -2
100
AcDbBlockReference
  2
_OPEN
 10
290.0221374413465
 20
359.2391965673251
 30
0.0
 41
25.0
 42
25.0
 43
25.0
 50
270.0
  0
INSERT
  5
3A0
330
396
100
AcDbEntity
  8
C寸法
 62
     0
370
    -2
100
AcDbBlockReference
  2
_OPEN
 10
290.0221374413465
 20
344.2391965673284
 30
0.0
 41
25.0
 42
25.0
 43
25.0
 50
90.0
  0
MTEXT
  5
3A1
330
396
100
AcDbEntity
  8
C寸法
 62
     0
370
    13
100
AcDbMText
 10
272.5221374413465
 20
270.6938096625664
 30
0.0
 40
25.0
 41
0.0
 71
     5
 72
     1
  1
\A1;15
  7
KANJI
 11
0.0
 21
1.0
 31
0.0
 73
     1
 44
1.0
  0
POINT
  5
3A2
330
396
100
AcDbEntity
  8
Defpoints
 62
     0
100
AcDbPoint
 10
323.4660932880664
 20
359.2391965673251
 30
0.0
  0
POINT
  5
3A3
330
396
100
AcDbEntity
  8
Defpoints
 62
     0
100
AcDbPoint
 10
348.1090081224916
 20
344.2391965673284
 30
0.0
  0
POINT
  5
448
330
396
100
AcDbEntity
  8
Defpoints
 62
     0
100
AcDbPoint
 10
290.0221374413465
 20
344.2391965673284
 30
0.0
  0
ENDBLK
  5
398
330
396
100
AcDbEntity
  8
0
100
AcDbBlockEnd
  0
BLOCK
  5
3A5
330
3A4
100
AcDbEntity
  8
0
100
AcDbBlockBegin
  2
*D15
 70
     1
 10
0.0
 20
0.0
 30
0.0
  3
*D15
  1
*D30
  0
LINE
  5
3A7
330
3A4
100
AcDbEntity
  8
C寸法
 62
     0
 48
20.0
370
    -2
100
AcDbLine
 10
737.5940845823234
 20
879.8514855430548
 30
0.0
 11
737.5940845823234
 21
752.612118570861
 31
0.0
  0
LINE
  5
3A8
330
3A4
100
AcDbEntity
  8
C寸法
 62
     0
 48
20.0
370
    -2
100
AcDbLine
 10
918.4044163531316
 20
879.6056582571856
 30
0.0
 11
918.4044163531316
 21
752.612118570861
 31
0.0
  0
LINE
  5
3A9
330
3A4
100
AcDbEntity
  8
C寸法
 62
     0
 48
20.0
370
    -2
100
AcDbLine
 10
762.5940845823234
 20
752.612118570861
 30
0.0
 11
893.4044163531316
 21
752.612118570861
 31
0.0
  0
INSERT
  5
3AA
330
3A4
100
AcDbEntity
  8
C寸法
 62
     0
370
    -2
100
AcDbBlockReference
  2
_OPEN
 10
737.5940845823234
 20
752.612118570861
 30
0.0
 41
25.0
 42
25.0
 43
25.0
 50
180.0
  0
INSERT
  5
3AB
330
3A4
100
AcDbEntity
  8
C寸法
 62
     0
370
    -2
100
AcDbBlockReference
  2
_OPEN
 10
918.4044163531316
 20
752.612118570861
 30
0.0
 41
25.0
 42
25.0
 43
25.0
  0
MTEXT
  5
3AC
330
3A4
100
AcDbEntity
  8
C寸法
 62
     0
370
    13
100
AcDbMText
 10
813.9178273578409
 20
770.112118570861
 30
0.0
 40
25.0
 41
0.0
 71
     5
 72
     1
  1
\A1;Φ181
  7
KANJI
 73
     1
 44
1.0
  0
POINT
  5
3AD
330
3A4
100
AcDbEntity
  8
Defpoints
 62
     0
100
AcDbPoint
 10
737.5940845823234
 20
889.8514855430548
 30
0.0
  0
POINT
  5
3AE
330
3A4
100
AcDbEntity
  8
Defpoints
 62
     0
100
AcDbPoint
 10
918.4044163531316
 20
889.6056582571856
 30
0.0
  0
POINT
  5
3AF
330
3A4
100
AcDbEntity
  8
Defpoints
 62
     0
100
AcDbPoint
 10
918.4044163531316
 20
752.612118570861
 30
0.0
  0
ENDBLK
  5
3A6
330
3A4
100
AcDbEntity
  8
0
100
AcDbBlockEnd
  0
BLOCK
  5
3C6
330
3C5
100
AcDbEntity
  8
0
100
AcDbBlockBegin
  2
*D16
 70
     1
 10
0.0
 20
0.0
 30
0.0
  3
*D16
  1
*D32
  0
LINE
  5
3C8
330
3C5
100
AcDbEntity
  8
0
  6
Continuous
 62
     0
370
    -2
100
AcDbLine
 10
671.0522945648852
 20
1073.722011657719
 30
0.0
 11
671.0522945648852
 21
1150.287265388132
 31
0.0
  0
LINE
  5
3C9
330
3C5
100
AcDbEntity
  8
0
  6
Continuous
 62
     0
370
    -2
100
AcDbLine
 10
634.9877920072256
 20
1074.003765583951
 30
0.0
 11
634.9877920072256
 21
1150.287265388132
 31
0.0
  0
LINE
  5
3CA
330
3C5
100
AcDbEntity
  8
0
  6
Continuous
 62
     0
370
    -2
100
AcDbLine
 10
609.9877920072256
 20
1149.037265388132
 30
0.0
 11
423.1187443881779
 21
1149.037265388132
 31
0.0
  0
LINE
  5
3CB
330
3C5
100
AcDbEntity
  8
0
  6
Continuous
 62
     0
370
    -2
100
AcDbLine
 10
671.0522945648852
 20
1149.037265388132
 30
0.0
 11
634.9877920072256
 21
1149.037265388132
 31
0.0
  0
LINE
  5
3CC
330
3C5
100
AcDbEntity
  8
0
  6
Continuous
 62
     0
370
    -2
100
AcDbLine
 10
696.0522945648852
 20
1149.037265388132
 30
0.0
 11
721.0522945648852
 21
1149.037265388132
 31
0.0
  0
INSERT
  5
3CD
330
3C5
100
AcDbEntity
  8
0
 62
     0
370
    -2
100
AcDbBlockReference
  2
_OPEN
 10
671.0522945648852
 20
1149.037265388132
 30
0.0
 41
25.0
 42
25.0
 43
25.0
 50
180.0
  0
INSERT
  5
3CE
330
3C5
100
AcDbEntity
  8
0
 62
     0
370
    -2
100
AcDbBlockReference
  2
_OPEN
 10
634.9877920072256
 20
1149.037265388132
 30
0.0
 41
25.0
 42
25.0
 43
25.0
  0
MTEXT
  5
3CF
330
3C5
100
AcDbEntity
  8
0
 62
     0
370
    13
100
AcDbMText
 10
504.0532681977018
 20
1165.537265388132
 30
0.0
 40
25.0
 41
0.0
 71
     5
 72
     1
  1
Φ36水栓穴
  7
KANJI
 73
     1
 44
1.0
  0
POINT
  5
3D0
330
3C5
100
AcDbEntity
  8
Defpoints
 62
     0
100
AcDbPoint
 10
671.0522945648852
 20
1073.097011657719
 30
0.0
  0
POINT
  5
3D1
330
3C5
100
AcDbEntity
  8
Defpoints
 62
     0
100
AcDbPoint
 10
634.9877920072256
 20
1073.378765583951
 30
0.0
  0
POINT
  5
3D2
330
3C5
100
AcDbEntity
  8
Defpoints
 62
     0
100
AcDbPoint
 10
634.9877920072256
 20
1149.037265388132
 30
0.0
  0
ENDBLK
  5
3C7
330
3C5
100
AcDbEntity
  8
0
100
AcDbBlockEnd
  0
BLOCK
  5
400
330
3FF
100
AcDbEntity
  8
0
100
AcDbBlockBegin
  2
*D17
 70
     1
 10
0.0
 20
0.0
 30
0.0
  3
*D17
  1
*D35
  0
LINE
  5
402
330
3FF
100
AcDbEntity
  8
画層1
 62
     0
370
    -2
100
AcDbLine
 10
344.6019089239753
 20
664.3313894272678
 30
0.0
 11
533.285162637319
 21
772.5215680130117
 31
0.0
  0
MTEXT
  5
403
330
3FF
100
AcDbEntity
  8
画層1
 62
     0
370
    13
100
AcDbMText
 10
457.7615289637844
 20
749.3893828523779
 30
0.0
 40
25.0
 41
0.0
 71
     5
 72
     1
  1
4-R100
  7
KANJI
 11
0.8675070579862141
 21
0.4974248730653739
 31
0.0
 73
     1
 44
1.0
  0
INSERT
  5
404
330
3FF
100
AcDbEntity
  8
画層1
 62
     0
370
    -2
100
AcDbBlockReference
  2
_OPEN
 10
344.6019089239753
 20
664.3313894272678
 30
0.0
 41
25.0
 42
25.0
 43
25.0
 50
209.8297767133959
  0
POINT
  5
405
330
3FF
100
AcDbEntity
  8
Defpoints
 62
     0
100
AcDbPoint
 10
344.6019089239753
 20
664.3313894272678
 30
0.0
  0
POINT
  5
406
330
3FF
100
AcDbEntity
  8
Defpoints
 62
     0
100
AcDbPoint
 10
398.3098377755277
 20
695.1272883720026
 30
0.0
  0
ENDBLK
  5
401
330
3FF
100
AcDbEntity
  8
0
100
AcDbBlockEnd
  0
BLOCK
  5
40B
330
40A
100
AcDbEntity
  8
0
100
AcDbBlockBegin
  2
*D18
 70
     1
 10
0.0
 20
0.0
 30
0.0
  3
*D18
  1
*D36
  0
LINE
  5
40D
330
40A
100
AcDbEntity
  8
画層1
 62
     0
370
    -2
100
AcDbLine
 10
335.7109958411936
 20
624.265529470467
 30
0.0
 11
534.8770759290654
 21
690.8453503055476
 31
0.0
  0
MTEXT
  5
40E
330
40A
100
AcDbEntity
  8
画層1
 62
     0
370
    13
100
AcDbMText
 10
467.569207748327
 20
686.7967402013119
 30
0.0
 40
25.0
 41
0.0
 71
     5
 72
     1
  1
4-R60
  7
KANJI
 11
0.9484099051803419
 21
0.3170467658813365
 31
0.0
 73
     1
 44
1.0
  0
INSERT
  5
40F
330
40A
100
AcDbEntity
  8
画層1
 62
     0
370
    -2
100
AcDbBlockReference
  2
_OPEN
 10
335.7109958411936
 20
624.265529470467
 30
0.0
 41
25.0
 42
25.0
 43
25.0
 50
198.4844194895845
  0
POINT
  5
410
330
40A
100
AcDbEntity
  8
Defpoints
 62
     0
100
AcDbPoint
 10
335.7109958411936
 20
624.265529470467
 30
0.0
  0
POINT
  5
411
330
40A
100
AcDbEntity
  8
Defpoints
 62
     0
100
AcDbPoint
 10
409.2797370396397
 20
648.8590426123327
 30
0.0
  0
ENDBLK
  5
40C
330
40A
100
AcDbEntity
  8
0
100
AcDbBlockEnd
  0
BLOCK
  5
416
330
415
100
AcDbEntity
  8
0
100
AcDbBlockBegin
  2
*D19
 70
     1
 10
0.0
 20
0.0
 30
0.0
  3
*D19
  1
*D37
  0
LINE
  5
418
330
415
100
AcDbEntity
  8
画層1
 62
     0
370
    -2
100
AcDbLine
 10
344.2340568699904
 20
1094.999397439653
 30
0.0
 11
471.8355270830109
 21
1030.715692787571
 31
0.0
  0
MTEXT
  5
419
330
415
100
AcDbEntity
  8
画層1
 62
     0
370
    13
100
AcDbMText
 10
421.996275184627
 20
1074.299534263319
 30
0.0
 40
25.0
 41
0.0
 71
     5
 72
     1
  1
4-R60
  7
KANJI
 11
0.8930709992051385
 21
-0.4499157592024708
 31
0.0
 73
     1
 44
1.0
  0
INSERT
  5
41A
330
415
100
AcDbEntity
  8
画層1
 62
     0
370
    -2
100
AcDbBlockReference
  2
_OPEN
 10
344.2340568699904
 20
1094.999397439653
 30
0.0
 41
25.0
 42
25.0
 43
25.0
 50
153.2617207227535
  0
POINT
  5
41B
330
415
100
AcDbEntity
  8
Defpoints
 62
     0
100
AcDbPoint
 10
344.2340568699904
 20
1094.999397439653
 30
0.0
  0
POINT
  5
41C
330
415
100
AcDbEntity
  8
Defpoints
 62
     0
100
AcDbPoint
 10
406.5123657158238
 20
1063.624520603256
 30
0.0
  0
ENDBLK
  5
417
330
415
100
AcDbEntity
  8
0
100
AcDbBlockEnd
  0
ENDSEC
  0
SECTION
  2
ENTITIES
  0
TEXT
  5
265
330
1F
100
AcDbEntity
  8
C寸法
 62
     7
100
AcDbText
 10
1267.237195170534
 20
203.9981149594878
 30
0.0
 40
30.0
  1
品　番　：R650BI 寸法図
  7
KANJI
100
AcDbText
  0
LINE
  5
266
330
1F
100
AcDbEntity
  8
0
100
AcDbLine
 10
1262.686222725383
 20
192.204482827001
 30
0.0
 11
1853.051358742359
 21
192.204482827001
 31
0.0
  0
TEXT
  5
267
330
1F
100
AcDbEntity
  8
C寸法
 62
     7
100
AcDbText
 10
1308.150133317249
 20
155.3199530339716
 30
0.0
 40
25.0
  1
※詳細はお問合せください
  7
KANJI
100
AcDbText
  0
LWPOLYLINE
  5
268
330
1F
100
AcDbEntity
  8
0
100
AcDbPolyline
 90
        4
 70
     1
 43
0.0
 10
85.4002191002171
 20
1269.060383075003
 10
85.4002191002171
 20
67.5118951675098
 10
1885.455878342763
 20
67.5118951675098
 10
1885.455878342763
 20
1269.060383075003
  0
LINE
  5
269
330
1F
100
AcDbEntity
  8
C4
 62
     0
100
AcDbLine
 10
918.0831537313356
 20
578.5391965673251
 30
0.0
 11
388.0851537313433
 21
578.5391965673251
 31
0.0
  0
LINE
  5
26A
330
1F
100
AcDbEntity
  8
C4
 62
     0
100
AcDbLine
 10
388.0851537313433
 20
1128.539196567325
 30
0.0
 11
918.0831537313356
 21
1128.539196567325
 31
0.0
  0
LINE
  5
26B
330
1F
100
AcDbEntity
  8
C4
 62
     0
100
AcDbLine
 10
388.0851537313433
 20
1113.539196567325
 30
0.0
 11
918.0831537313356
 21
1113.539196567325
 31
0.0
  0
LINE
  5
26C
330
1F
100
AcDbEntity
  8
C4
 62
     0
100
AcDbLine
 10
313.0851537313433
 20
653.5391965673251
 30
0.0
 11
313.0851537313433
 21
1053.539196567325
 31
0.0
  0
LINE
  5
26D
330
1F
100
AcDbEntity
  8
C4
 62
     0
100
AcDbLine
 10
993.0831537313356
 20
653.5391965673251
 30
0.0
 11
993.0831537313356
 21
1053.539196567325
 31
0.0
  0
LINE
  5
26E
330
1F
100
AcDbEntity
  8
C4
 62
     0
100
AcDbLine
 10
918.0831537313356
 20
593.5391965673251
 30
0.0
 11
388.0851537313433
 21
593.5391965673251
 31
0.0
  0
LINE
  5
26F
330
1F
100
AcDbEntity
  8
C4
 62
     0
100
AcDbLine
 10
388.0851537313433
 20
1033.539196567325
 30
0.0
 11
918.0831537313356
 21
1033.539196567325
 31
0.0
  0
LINE
  5
270
330
1F
100
AcDbEntity
  8
C4
 62
     0
100
AcDbLine
 10
978.0831537313356
 20
653.5391965673251
 30
0.0
 11
978.0831537313356
 21
1053.539196567325
 31
0.0
  0
LINE
  5
271
330
1F
100
AcDbEntity
  8
C4
 62
     0
100
AcDbLine
 10
328.0851537313433
 20
653.5391965673251
 30
0.0
 11
328.0851537313433
 21
1053.539196567325
 31
0.0
  0
LINE
  5
272
330
1F
100
AcDbEntity
  8
C2
  6
CENTER
 62
     0
 48
20.0
370
    13
100
AcDbLine
 10
728.0831537313356
 20
888.5391965673252
 30
0.0
 11
928.0831537313359
 21
888.539196567325
 31
0.0
  0
LINE
  5
273
330
1F
100
AcDbEntity
  8
C2
  6
CENTER
 62
     0
 48
20.0
370
    13
100
AcDbLine
 10
828.0831537313356
 20
593.5391965673251
 30
0.0
 11
828.0831537313356
 21
998.5391965673235
 31
0.0
  0
LINE
  5
274
330
1F
100
AcDbEntity
  8
C2
  6
CENTER
 62
     0
 48
20.0
370
    13
100
AcDbLine
 10
728.0831537313356
 20
853.539196567325
 30
0.0
 11
728.0831537313354
 21
888.539196567325
 31
0.0
  0
LINE
  5
275
330
1F
100
AcDbEntity
  8
C2
  6
CENTER
 62
     0
 48
20.0
370
    13
100
AcDbLine
 10
928.0831537313356
 20
853.539196567325
 30
0.0
 11
928.0831537313359
 21
888.5391965673251
 31
0.0
  0
LINE
  5
276
330
1F
100
AcDbEntity
  8
C4
 62
     0
100
AcDbLine
 10
948.8661631175278
 20
170.0320135814191
 30
0.0
 11
921.0231537313452
 21
169.3031965673272
 31
0.0
  0
LINE
  5
277
330
1F
100
AcDbEntity
  8
C4
 62
     0
100
AcDbLine
 10
948.9315805663796
 20
167.5331553882479
 30
0.0
 11
921.0831537313429
 21
166.8041965673247
 31
0.0
  0
LINE
  5
278
330
1F
100
AcDbEntity
  8
C4
 62
     0
100
AcDbLine
 10
313.0831537313356
 20
359.2391965673251
 30
0.0
 11
993.0811537313425
 21
359.2391965673251
 31
0.0
  0
LINE
  5
279
330
1F
100
AcDbEntity
  8
C4
 62
     0
100
AcDbLine
 10
980.5811537313425
 20
356.7391965673251
 30
0.0
 11
993.0811537313425
 21
356.7391965673251
 31
0.0
  0
LINE
  5
27A
330
1F
100
AcDbEntity
  8
C4
 62
     0
100
AcDbLine
 10
325.5851537313433
 20
356.7391965673251
 30
0.0
 11
313.0831537313356
 21
356.7391965673251
 31
0.0
  0
LINE
  5
27B
330
1F
100
AcDbEntity
  8
C4
 62
     0
100
AcDbLine
 10
978.0811537313425
 20
200.0217411604372
 30
0.0
 11
978.0811537313425
 21
358.239196567326
 31
0.0
  0
LINE
  5
27C
330
1F
100
AcDbEntity
  8
C4
 62
     0
100
AcDbLine
 10
993.0811537313425
 20
359.2391965673251
 30
0.0
 11
993.0811537313425
 21
356.7391965673251
 31
0.0
  0
LINE
  5
27D
330
1F
100
AcDbEntity
  8
C4
 62
     0
100
AcDbLine
 10
313.0831537313356
 20
359.2391965673251
 30
0.0
 11
313.0831537313356
 21
356.7391965673251
 31
0.0
  0
LINE
  5
27E
330
1F
100
AcDbEntity
  8
C4
 62
     0
100
AcDbLine
 10
328.083099601849
 20
209.1874524346049
 30
0.0
 11
328.0851537313433
 21
358.239196567326
 31
0.0
  0
LINE
  5
27F
330
1F
100
AcDbEntity
  8
C4
 62
     0
100
AcDbLine
 10
918.5831537313429
 20
166.8041965673247
 30
0.0
 11
918.5831537313429
 21
162.2391965673269
 31
0.0
  0
LINE
  5
280
330
1F
100
AcDbEntity
  8
C4
 62
     0
100
AcDbLine
 10
907.583153731352
 20
159.7391965673269
 30
0.0
 11
748.5831537313411
 21
159.7391965673269
 31
0.0
  0
LINE
  5
281
330
1F
100
AcDbEntity
  8
C4
 62
     0
100
AcDbLine
 10
907.5831537313502
 20
162.2391965673269
 30
0.0
 11
907.5831537313502
 21
159.7391965673269
 31
0.0
  0
LINE
  5
282
330
1F
100
AcDbEntity
  8
C4
 62
     0
100
AcDbLine
 10
331.0851537313433
 20
344.2391965673251
 30
0.0
 11
975.0811537313425
 21
344.2391965673251
 31
0.0
  0
LINE
  5
283
330
1F
100
AcDbEntity
  8
C4
 62
     0
100
AcDbLine
 10
331.0851537313433
 20
352.8391965673263
 30
0.0
 11
975.0811537313425
 21
352.8391965673263
 31
0.0
  0
LINE
  5
284
330
1F
100
AcDbEntity
  8
C4
 62
     0
100
AcDbLine
 10
907.5831537313502
 20
162.2391965673269
 30
0.0
 11
918.5831537313429
 21
162.2391965673269
 31
0.0
  0
LINE
  5
285
330
1F
100
AcDbEntity
  8
C4
 62
     0
100
AcDbLine
 10
918.5831537313429
 20
159.7391965673269
 30
0.0
 11
907.5831537313502
 21
159.7391965673269
 31
0.0
  0
LINE
  5
286
330
1F
100
AcDbEntity
  8
C4
 62
     0
100
AcDbLine
 10
921.0831537313429
 20
162.2391965673269
 30
0.0
 11
921.0831537313429
 21
166.8041965673247
 31
0.0
  0
LINE
  5
287
330
1F
100
AcDbEntity
  8
C4
 62
     0
100
AcDbLine
 10
980.5811537313425
 20
200.0220269321853
 30
0.0
 11
980.5811537313425
 21
356.7391965673251
 31
0.0
  0
LINE
  5
288
330
1F
100
AcDbEntity
  8
C4
 62
     0
100
AcDbLine
 10
325.5830990370746
 20
209.1874915804619
 30
0.0
 11
325.5851537313433
 21
356.7391965673251
 31
0.0
  0
LINE
  5
289
330
1F
100
AcDbEntity
  8
C4
 62
     0
100
AcDbLine
 10
907.583153731352
 20
162.2391965673269
 30
0.0
 11
748.5831537313411
 21
162.2391965673269
 31
0.0
  0
LINE
  5
28A
330
1F
100
AcDbEntity
  8
C4
 62
     0
100
AcDbLine
 10
920.5167837109516
 20
169.2391965673251
 30
0.0
 11
735.6478350066977
 21
169.2391965673251
 31
0.0
  0
LINE
  5
28B
330
1F
100
AcDbEntity
  8
C4
 62
     0
100
AcDbLine
 10
737.5831537313502
 20
166.8038043900215
 30
0.0
 11
737.5831537313502
 21
162.2391965673269
 31
0.0
  0
LINE
  5
28C
330
1F
100
AcDbEntity
  8
C4
 62
     0
100
AcDbLine
 10
748.5831537313429
 20
162.2391965673269
 30
0.0
 11
748.5831537313429
 21
159.7391965673269
 31
0.0
  0
LINE
  5
28D
330
1F
100
AcDbEntity
  8
C4
 62
     0
100
AcDbLine
 10
748.5831537313429
 20
162.2391965673269
 30
0.0
 11
737.5831537313502
 21
162.2391965673269
 31
0.0
  0
LINE
  5
28E
330
1F
100
AcDbEntity
  8
C4
 62
     0
100
AcDbLine
 10
737.5831537313502
 20
159.7391965673269
 30
0.0
 11
748.5831537313429
 21
159.7391965673269
 31
0.0
  0
LINE
  5
28F
330
1F
100
AcDbEntity
  8
C4
 62
     0
100
AcDbLine
 10
735.0851537313433
 20
162.2391965673269
 30
0.0
 11
735.0851537313433
 21
166.8037520181788
 31
0.0
  0
LINE
  5
290
330
1F
100
AcDbEntity
  8
C4
 62
     0
100
AcDbLine
 10
357.297791149766
 20
179.1973192457972
 30
0.0
 11
735.1485961021176
 21
169.3029477024602
 31
0.0
  0
LINE
  5
291
330
1F
100
AcDbEntity
  8
C4
 62
     0
100
AcDbLine
 10
357.2323482139186
 20
176.6981759481559
 30
0.0
 11
735.0851537313433
 21
166.8037520181788
 31
0.0
  0
CIRCLE
  5
292
330
1F
100
AcDbEntity
  8
C4
 62
     0
100
AcDbCircle
 10
828.0831537313356
 20
888.5331965673266
 30
0.0
 40
90.5
  0
ARC
  5
293
330
1F
100
AcDbEntity
  8
C4
 62
     0
100
AcDbCircle
 10
388.0851537313433
 20
973.5391965673251
 30
0.0
 40
60.0
100
AcDbArc
 50
89.99978954094004
 51
180.0
  0
CIRCLE
  5
294
330
1F
100
AcDbEntity
  8
C4
 62
     0
100
AcDbCircle
 10
828.0831537313356
 20
888.5331965673266
 30
0.0
 40
79.5
  0
ARC
  5
295
330
1F
100
AcDbEntity
  8
C4
 62
     0
100
AcDbCircle
 10
918.0831537313356
 20
973.5391965673251
 30
0.0
 40
60.0
100
AcDbArc
 50
0.0001520395044134
 51
89.99978954094004
  0
ARC
  5
296
330
1F
100
AcDbEntity
  8
C4
 62
     0
100
AcDbCircle
 10
918.0831537313356
 20
1053.539196567325
 30
0.0
 40
60.0
100
AcDbArc
 50
0.0001520395044134
 51
89.99978954094004
  0
ARC
  5
297
330
1F
100
AcDbEntity
  8
C4
 62
     0
100
AcDbCircle
 10
918.0831537313356
 20
1053.539196567325
 30
0.0
 40
75.0
100
AcDbArc
 50
0.0001520395044134
 51
89.99978954094004
  0
ARC
  5
298
330
1F
100
AcDbEntity
  8
C4
 62
     0
100
AcDbCircle
 10
388.0851537313433
 20
1053.539196567325
 30
0.0
 40
60.0
100
AcDbArc
 50
89.99978954094004
 51
180.0
  0
ARC
  5
299
330
1F
100
AcDbEntity
  8
C4
 62
     0
100
AcDbCircle
 10
388.0851537313433
 20
1053.539196567325
 30
0.0
 40
75.0
100
AcDbArc
 50
89.99978954094004
 51
180.0
  0
ARC
  5
29A
330
1F
100
AcDbEntity
  8
C4
 62
     0
100
AcDbCircle
 10
388.0851537313433
 20
653.5391965673251
 30
0.0
 40
60.0
100
AcDbArc
 50
180.0
 51
269.9999415803923
  0
ARC
  5
29B
330
1F
100
AcDbEntity
  8
C4
 62
     0
100
AcDbCircle
 10
388.0851537313433
 20
653.5391965673251
 30
0.0
 40
75.0
100
AcDbArc
 50
180.0
 51
269.9999415803923
  0
ARC
  5
29C
330
1F
100
AcDbEntity
  8
C4
 62
     0
100
AcDbCircle
 10
918.0831537313356
 20
653.5391965673251
 30
0.0
 40
60.0
100
AcDbArc
 50
269.9999415803923
 51
0.0001520395044134
  0
ARC
  5
29D
330
1F
100
AcDbEntity
  8
C4
 62
     0
100
AcDbCircle
 10
918.0831537313356
 20
653.5391965673251
 30
0.0
 40
75.0
100
AcDbArc
 50
269.9999415803923
 51
0.0001520395044134
  0
ARC
  5
29E
330
1F
100
AcDbEntity
  8
C4
 62
     0
100
AcDbCircle
 10
-1021.914846268658
 20
813.5391965673251
 30
0.0
 40
2000.0
100
AcDbArc
 50
357.0369599150237
 51
2.870670593113893
  0
ARC
  5
29F
330
1F
100
AcDbEntity
  8
C4
 62
     0
100
AcDbCircle
 10
2328.083153731336
 20
813.5391965673251
 30
0.0
 40
2000.0
100
AcDbArc
 50
177.0369562157172
 51
182.9630437842828
  0
ARC
  5
2A0
330
1F
100
AcDbEntity
  8
C4
 62
     0
100
AcDbCircle
 10
653.0831537313356
 20
-2731.460803432675
 30
0.0
 40
3750.0
100
AcDbArc
 50
86.50574503465315
 51
93.49422341211135
  0
ARC
  5
2A1
330
1F
100
AcDbEntity
  8
C4
 62
     0
100
AcDbCircle
 10
653.0831537313356
 20
4358.539196567325
 30
0.0
 40
3750.0
100
AcDbArc
 50
266.5057765878886
 51
273.4942549653468
  0
ARC
  5
2A2
330
1F
100
AcDbEntity
  8
C4
 62
     0
100
AcDbCircle
 10
875.5450198847689
 20
715.3248578126694
 30
0.0
 40
100.0
100
AcDbArc
 50
273.4942549653468
 51
357.0369599150237
  0
ARC
  5
2A3
330
1F
100
AcDbEntity
  8
C4
 62
     0
100
AcDbCircle
 10
430.6232939191837
 20
715.3247353020596
 30
0.0
 40
100.0
100
AcDbArc
 50
182.9630437842829
 51
266.5057765878886
  0
ARC
  5
2A4
330
1F
100
AcDbEntity
  8
C4
 62
     0
100
AcDbCircle
 10
430.6232939191837
 20
911.7536578325906
 30
0.0
 40
100.0
100
AcDbArc
 50
93.49422341211134
 51
177.0369562157172
  0
ARC
  5
2A5
330
1F
100
AcDbEntity
  8
C4
 62
     0
100
AcDbCircle
 10
875.5450198847689
 20
911.7535353219808
 30
0.0
 40
100.0
100
AcDbArc
 50
2.963040084976396
 51
86.50574503465315
  0
ARC
  5
2A6
330
1F
100
AcDbEntity
  8
C4
 62
     0
100
AcDbCircle
 10
979.0811537313425
 20
358.239196567326
 30
0.0
 40
1.0
100
AcDbArc
 50
90.00021045926839
 51
179.9998479604956
  0
ARC
  5
2A7
330
1F
100
AcDbEntity
  8
C4
 62
     0
100
AcDbCircle
 10
921.0831537313429
 20
166.8041965673247
 30
0.0
 40
2.5
100
AcDbArc
 50
91.50021396675655
 51
179.9998479604956
  0
ARC
  5
2A8
330
1F
100
AcDbEntity
  8
C4
 62
     0
100
AcDbCircle
 10
975.0811537313425
 20
355.8391965673236
 30
0.0
 40
3.0
100
AcDbArc
 50
270.0000584197119
 51
0.0
  0
ARC
  5
2A9
330
1F
100
AcDbEntity
  8
C4
 62
     0
100
AcDbCircle
 10
975.0811537313425
 20
347.2391965673269
 30
0.0
 40
3.0
100
AcDbArc
 50
270.0000584197119
 51
0.0
  0
ARC
  5
2AA
330
1F
100
AcDbEntity
  8
C4
 62
     0
100
AcDbCircle
 10
331.0851537313433
 20
347.2391965673269
 30
0.0
 40
3.0
100
AcDbArc
 50
179.9987020449342
 51
270.0000584197119
  0
ARC
  5
2AB
330
1F
100
AcDbEntity
  8
C4
 62
     0
100
AcDbCircle
 10
331.0851537313433
 20
355.8391965673236
 30
0.0
 40
3.0
100
AcDbArc
 50
179.9987020449342
 51
270.0000584197119
  0
ARC
  5
2AC
330
1F
100
AcDbEntity
  8
C4
 62
     0
100
AcDbCircle
 10
918.5831537313429
 20
162.2391965673269
 30
0.0
 40
2.5
100
AcDbArc
 50
270.0000584197119
 51
0.0
  0
ARC
  5
2AD
330
1F
100
AcDbEntity
  8
C4
 62
     0
100
AcDbCircle
 10
327.0851537313433
 20
358.239196567326
 30
0.0
 40
1.0
100
AcDbArc
 50
0.0
 51
90.00021045926839
  0
ARC
  5
2AE
330
1F
100
AcDbEntity
  8
C4
 62
     0
100
AcDbCircle
 10
737.5831537313502
 20
162.2391965673269
 30
0.0
 40
2.5
100
AcDbArc
 50
180.0004209183284
 51
270.0000584197119
  0
ARC
  5
2AF
330
1F
100
AcDbEntity
  8
C4
 62
     0
100
AcDbCircle
 10
735.0831537313502
 20
166.8038043900215
 30
0.0
 40
2.5
100
AcDbArc
 50
0.0
 51
88.50000000001032
  0
ARC
  5
2B0
330
1F
100
AcDbEntity
  8
C4
 62
     0
100
AcDbCircle
 10
948.0811537313425
 20
200.0217411604372
 30
0.0
 40
30.0
100
AcDbArc
 50
271.4994286360602
 51
0.0
  0
ARC
  5
2B1
330
1F
100
AcDbEntity
  8
C4
 62
     0
100
AcDbCircle
 10
948.0811537313425
 20
200.0220269321853
 30
0.0
 40
32.5
100
AcDbArc
 50
271.4994286360602
 51
0.0
  0
ARC
  5
2B2
330
1F
100
AcDbEntity
  8
C4
 62
     0
100
AcDbCircle
 10
358.0830995990041
 20
209.1870389950618
 30
0.0
 40
30.0
100
AcDbArc
 50
179.9992103886626
 51
268.5000000001146
  0
ARC
  5
2B3
330
1F
100
AcDbEntity
  8
C4
 62
     0
100
AcDbCircle
 10
358.0830990339168
 20
209.1870390098593
 30
0.0
 40
32.5
100
AcDbArc
 50
179.9992021419617
 51
268.5000000001146
  0
LINE
  5
2B4
330
1F
100
AcDbEntity
  8
C4
 62
     0
100
AcDbLine
 10
1418.408739202999
 20
1114.535628202618
 30
0.0
 11
1420.80870130886
 21
1114.535628202618
 31
0.0
  0
LINE
  5
2B5
330
1F
100
AcDbEntity
  8
C4
 62
     0
100
AcDbLine
 10
1424.808638151962
 20
1036.53685976212
 30
0.0
 11
1424.808638151962
 21
1110.535691359518
 31
0.0
  0
LINE
  5
2B6
330
1F
100
AcDbEntity
  8
C4
 62
     0
100
AcDbLine
 10
1423.80865394119
 20
1036.53685976212
 30
0.0
 11
1423.80865394119
 21
1110.535691359518
 31
0.0
  0
LINE
  5
2B7
330
1F
100
AcDbEntity
  8
C4
 62
     0
100
AcDbLine
 10
1418.408739202999
 20
1114.535628202618
 30
0.0
 11
1418.408739202999
 21
1128.535407153478
 31
0.0
  0
LINE
  5
2B8
330
1F
100
AcDbEntity
  8
C4
 62
     0
100
AcDbLine
 10
1614.2086476255
 20
798.0406254921297
 30
0.0
 11
1609.838716624408
 21
798.0406254921297
 31
0.0
  0
LINE
  5
2B9
330
1F
100
AcDbEntity
  8
C4
 62
     0
100
AcDbLine
 10
1603.371071260293
 20
643.9604044680598
 30
0.0
 11
1607.338756097467
 21
795.6066639231013
 31
0.0
  0
LINE
  5
2BA
330
1F
100
AcDbEntity
  8
C4
 62
     0
100
AcDbLine
 10
1607.408754992227
 20
980.5662570083255
 30
0.0
 11
1607.408754992227
 21
796.1281078154988
 31
0.0
  0
LINE
  5
2BB
330
1F
100
AcDbEntity
  8
C4
 62
     0
100
AcDbLine
 10
1614.2086476255
 20
797.0406412813553
 30
0.0
 11
1609.838716624408
 21
797.0406412813553
 31
0.0
  0
LINE
  5
2BC
330
1F
100
AcDbEntity
  8
C4
 62
     0
100
AcDbLine
 10
1604.370968234137
 20
643.9342189529654
 30
0.0
 11
1608.338671883344
 21
795.5754331917149
 31
0.0
  0
LINE
  5
2BD
330
1F
100
AcDbEntity
  8
C4
 62
     0
100
AcDbLine
 10
1418.408739202999
 20
1113.535643991844
 30
0.0
 11
1420.80870130886
 21
1113.535643991844
 31
0.0
  0
LINE
  5
2BE
330
1F
100
AcDbEntity
  8
C4
 62
     0
100
AcDbLine
 10
1418.408739202999
 20
593.5428544043026
 30
0.0
 11
1429.408565521532
 21
593.5458543569342
 31
0.0
  0
LINE
  5
2BF
330
1F
100
AcDbEntity
  8
C4
 62
     0
100
AcDbLine
 10
1426.808606573513
 20
1034.536891340569
 30
0.0
 11
1429.408565521532
 21
1034.536891340569
 31
0.0
  0
LINE
  5
2C0
330
1F
100
AcDbEntity
  8
C4
 62
     0
100
AcDbLine
 10
1432.408518153855
 20
1030.536954497466
 30
0.0
 11
1432.408518153855
 21
1017.337162915228
 31
0.0
  0
LINE
  5
2C1
330
1F
100
AcDbEntity
  8
C4
 62
     0
100
AcDbLine
 10
1417.408754992227
 20
1128.535407153478
 30
0.0
 11
1418.408739202999
 21
1128.535407153478
 31
0.0
  0
LINE
  5
2C2
330
1F
100
AcDbEntity
  8
C4
 62
     0
100
AcDbLine
 10
1577.307697272657
 20
1013.337226072125
 30
0.0
 11
1437.408439207736
 21
1013.337226072125
 31
0.0
  0
LINE
  5
2C3
330
1F
100
AcDbEntity
  8
C4
 62
     0
100
AcDbLine
 10
1417.408754992227
 20
578.5440912268773
 30
0.0
 11
1417.408754992227
 21
1128.535407153478
 31
0.0
  0
LINE
  5
2C4
330
1F
100
AcDbEntity
  8
C4
 62
     0
100
AcDbLine
 10
1577.307462221929
 20
1012.337241861348
 30
0.0
 11
1437.408439207736
 21
1012.337241861348
 31
0.0
  0
LINE
  5
2C5
330
1F
100
AcDbEntity
  8
C4
 62
     0
100
AcDbLine
 10
1417.408754992227
 20
578.5440912268773
 30
0.0
 11
1418.408739202999
 21
578.5440912268773
 31
0.0
  0
LINE
  5
2C6
330
1F
100
AcDbEntity
  8
C4
 62
     0
100
AcDbLine
 10
1614.2086476255
 20
979.0377676425205
 30
0.0
 11
1609.360204872771
 21
979.0377676425205
 31
0.0
  0
ARC
  5
2C7
330
1F
100
AcDbEntity
  8
C4
 62
     0
100
AcDbCircle
 10
1609.360204872771
 20
981.04773791615
 30
0.0
 40
2.009970273629303
100
AcDbArc
 50
181.4592635419447
 51
270.0
  0
LINE
  5
2C8
330
1F
100
AcDbEntity
  8
C4
 62
     0
100
AcDbLine
 10
1608.29715927905
 20
983.1269543514346
 30
0.0
 11
1608.338675479035
 21
981.4968207590767
 31
0.0
  0
LINE
  5
2C9
330
1F
100
AcDbEntity
  8
C4
 62
     0
100
AcDbLine
 10
1607.297259210916
 20
983.1016894774245
 30
0.0
 11
1607.35088646519
 21
980.9965516110265
 31
0.0
  0
LINE
  5
2CA
330
1F
100
AcDbEntity
  8
C4
 62
     0
100
AcDbLine
 10
1614.2086476255
 20
980.0377518532948
 30
0.0
 11
1609.838716624408
 21
980.0377518532948
 31
0.0
  0
LINE
  5
2CB
330
1F
100
AcDbEntity
  8
C4
 62
     0
100
AcDbLine
 10
1432.408518153855
 20
596.5458069892601
 30
0.0
 11
1432.408518153855
 21
609.7455985714979
 31
0.0
  0
LINE
  5
2CC
330
1F
100
AcDbEntity
  8
C4
 62
     0
100
AcDbLine
 10
1573.38180789209
 20
614.745519625378
 30
0.0
 11
1437.408439207736
 21
614.745519625378
 31
0.0
  0
LINE
  5
2CD
330
1F
100
AcDbEntity
  8
C4
 62
     0
100
AcDbLine
 10
1573.382063559505
 20
613.7455354146009
 30
0.0
 11
1437.408439207736
 21
613.7455354146009
 31
0.0
  0
LINE
  5
2CE
330
1F
100
AcDbEntity
  8
C4
 62
     0
100
AcDbLine
 10
1433.408502364634
 20
1030.536954497466
 30
0.0
 11
1433.408502364634
 21
1017.337162915228
 31
0.0
  0
LINE
  5
2CF
330
1F
100
AcDbEntity
  8
C4
 62
     0
100
AcDbLine
 10
1426.808606573513
 20
1033.536907129791
 30
0.0
 11
1429.408565521532
 21
1033.536907129791
 31
0.0
  0
LINE
  5
2D0
330
1F
100
AcDbEntity
  8
C4
 62
     0
100
AcDbLine
 10
1433.408502364634
 20
596.5458069892601
 30
0.0
 11
1433.408502364634
 21
609.7455985714979
 31
0.0
  0
LINE
  5
2D1
330
1F
100
AcDbEntity
  8
C4
 62
     0
100
AcDbLine
 10
1418.408793742631
 20
592.5428702009632
 30
0.0
 11
1429.409620045373
 21
592.5458701535948
 31
0.0
  0
LINE
  5
2D2
330
1F
100
AcDbEntity
  8
C4
 62
     0
100
AcDbLine
 10
1418.408739202999
 20
592.5428701935256
 30
0.0
 11
1418.408739202999
 21
578.5440912268773
 31
0.0
  0
LINE
  5
2D3
330
1F
100
AcDbEntity
  8
C4
 62
     0
100
AcDbLine
 10
1615.408628678431
 20
978.8377708003661
 30
0.0
 11
1615.408628678431
 21
967.5379492186
 31
0.0
  0
LINE
  5
2D4
330
1F
100
AcDbEntity
  8
C4
 62
     0
100
AcDbLine
 10
1614.408644467652
 20
967.5379492186
 30
0.0
 11
1615.408628678431
 21
967.5379492186
 31
0.0
  0
LINE
  5
2D5
330
1F
100
AcDbEntity
  8
C4
 62
     0
100
AcDbLine
 10
1614.408644467652
 20
978.8377708003661
 30
0.0
 11
1614.408644467652
 21
967.5379492186
 31
0.0
  0
LINE
  5
2D6
330
1F
100
AcDbEntity
  8
C4
 62
     0
100
AcDbLine
 10
1614.408644467652
 20
809.5404439160502
 30
0.0
 11
1615.408628678431
 21
809.5404439160502
 31
0.0
  0
LINE
  5
2D7
330
1F
100
AcDbEntity
  8
C4
 62
     0
100
AcDbLine
 10
1614.408644467652
 20
798.2406223342841
 30
0.0
 11
1614.408644467652
 21
809.5404439160502
 31
0.0
  0
LINE
  5
2D8
330
1F
100
AcDbEntity
  8
C4
 62
     0
100
AcDbLine
 10
1614.408644467652
 20
967.5379492186
 30
0.0
 11
1614.408644467652
 21
809.5404439160502
 31
0.0
  0
LINE
  5
2D9
330
1F
100
AcDbEntity
  8
C4
 62
     0
100
AcDbLine
 10
1615.408628678427
 20
967.5379492186
 30
0.0
 11
1615.408628678427
 21
809.5404439160502
 31
0.0
  0
LINE
  5
2DA
330
1F
100
AcDbEntity
  8
C4
 62
     0
100
AcDbLine
 10
1615.408628678431
 20
798.2406223342841
 30
0.0
 11
1615.408628678431
 21
809.5404439160502
 31
0.0
  0
ARC
  5
2DB
330
1F
100
AcDbEntity
  8
C4
 62
     0
100
AcDbCircle
 10
1437.408439207736
 20
609.7455985714979
 30
0.0
 40
3.999936843102541
100
AcDbArc
 50
90.00021045916513
 51
179.9998479604953
  0
ARC
  5
2DC
330
1F
100
AcDbEntity
  8
C4
 62
     0
100
AcDbCircle
 10
1429.408565521532
 20
596.5458069892601
 30
0.0
 40
3.999936843102541
100
AcDbArc
 50
270.000058419921
 51
0.0
  0
ARC
  5
2DD
330
1F
100
AcDbEntity
  8
C4
 62
     0
100
AcDbCircle
 10
1614.2086476255
 20
978.8377708003661
 30
0.0
 40
0.1999968421551273
100
AcDbArc
 50
0.0
 51
90.0002104591912
  0
ARC
  5
2DE
330
1F
100
AcDbEntity
  8
C4
 62
     0
100
AcDbCircle
 10
1614.2086476255
 20
978.8377708003661
 30
0.0
 40
1.199981052930763
100
AcDbArc
 50
0.0
 51
90.0002104591695
  0
ARC
  5
2DF
330
1F
100
AcDbEntity
  8
C4
 62
     0
100
AcDbCircle
 10
1420.80870130886
 20
1110.535691359518
 30
0.0
 40
2.999952632326908
100
AcDbArc
 50
0.0
 51
90.00021045916513
  0
ARC
  5
2E0
330
1F
100
AcDbEntity
  8
C4
 62
     0
100
AcDbCircle
 10
1420.80870130886
 20
1110.535691359518
 30
0.0
 40
3.999936843102541
100
AcDbArc
 50
0.0
 51
90.00021045916513
  0
ARC
  5
2E1
330
1F
100
AcDbEntity
  8
C4
 62
     0
100
AcDbCircle
 10
1609.838716624408
 20
795.5406649651896
 30
0.0
 40
2.499960526939089
100
AcDbArc
 50
90.00021045916253
 51
178.4998444528598
  0
ARC
  5
2E2
330
1F
100
AcDbEntity
  8
C4
 62
     0
100
AcDbCircle
 10
1614.2086476255
 20
798.2406223342841
 30
0.0
 40
1.199981052930763
100
AcDbArc
 50
270.0000584199178
 51
0.0
  0
ARC
  5
2E3
330
1F
100
AcDbEntity
  8
C4
 62
     0
100
AcDbCircle
 10
1609.838716624408
 20
981.5377281694605
 30
0.0
 40
1.499976316163453
100
AcDbArc
 50
181.5004244259518
 51
270.0000584199221
  0
ARC
  5
2E4
330
1F
100
AcDbEntity
  8
C4
 62
     0
100
AcDbCircle
 10
1614.2086476255
 20
798.2406223342841
 30
0.0
 40
0.1999968421551273
100
AcDbArc
 50
270.0000584199178
 51
0.0
  0
ARC
  5
2E5
330
1F
100
AcDbEntity
  8
C4
 62
     0
100
AcDbCircle
 10
1437.408439207736
 20
609.7455985714979
 30
0.0
 40
4.999921053878179
100
AcDbArc
 50
90.00021045916513
 51
179.999847960496
  0
ARC
  5
2E6
330
1F
100
AcDbEntity
  8
C4
 62
     0
100
AcDbCircle
 10
1429.408565521532
 20
596.5458069892601
 30
0.0
 40
2.999952632326908
100
AcDbArc
 50
270.0000584199221
 51
0.0
  0
ARC
  5
2E7
330
1F
100
AcDbEntity
  8
C4
 62
     0
100
AcDbCircle
 10
1609.838716624408
 20
795.5406649651896
 30
0.0
 40
1.499976316163453
100
AcDbArc
 50
90.0002104591608
 51
178.4998444528597
  0
ARC
  5
2E8
330
1F
100
AcDbEntity
  8
C4
 62
     0
100
AcDbCircle
 10
1437.408439207736
 20
1017.337162915228
 30
0.0
 40
4.999921053878179
100
AcDbArc
 50
179.999847960496
 51
270.0000584199204
  0
ARC
  5
2E9
330
1F
100
AcDbEntity
  8
C4
 62
     0
100
AcDbCircle
 10
1426.808606573513
 20
1036.53685976212
 30
0.0
 40
2.999952632326908
100
AcDbArc
 50
179.9998479604921
 51
270.0000584199221
  0
ARC
  5
2EA
330
1F
100
AcDbEntity
  8
C4
 62
     0
100
AcDbCircle
 10
1429.408565521532
 20
1030.536954497466
 30
0.0
 40
2.999952632326908
100
AcDbArc
 50
0.0
 51
90.00021045916513
  0
ARC
  5
2EB
330
1F
100
AcDbEntity
  8
C4
 62
     0
100
AcDbCircle
 10
1418.408739202999
 20
592.5428701935256
 30
0.0
 40
0.9999842107756365
100
AcDbArc
 50
90.01396144624776
 51
179.9998479604986
  0
ARC
  5
2EC
330
1F
100
AcDbEntity
  8
C4
 62
     0
100
AcDbCircle
 10
1418.408739202999
 20
1114.535628202618
 30
0.0
 40
0.9999842107756365
100
AcDbArc
 50
179.9998479604921
 51
270.0000584199178
  0
ARC
  5
2ED
330
1F
100
AcDbEntity
  8
C4
 62
     0
100
AcDbCircle
 10
1426.808606573513
 20
1036.53685976212
 30
0.0
 40
1.999968421551273
100
AcDbArc
 50
179.9998479604921
 51
270.0000584199178
  0
ARC
  5
2EE
330
1F
100
AcDbEntity
  8
C4
 62
     0
100
AcDbCircle
 10
1429.408565521532
 20
1030.536954497466
 30
0.0
 40
3.999936843102541
100
AcDbArc
 50
0.0
 51
90.00021045916513
  0
ARC
  5
2EF
330
1F
100
AcDbEntity
  8
C4
 62
     0
100
AcDbCircle
 10
1437.408439207736
 20
1017.337162915228
 30
0.0
 40
3.999936843102541
100
AcDbArc
 50
179.9998479604953
 51
270.000058419921
  0
ARC
  5
2F0
330
1F
100
AcDbEntity
  8
C4
 62
     0
100
AcDbCircle
 10
1573.38180789209
 20
644.7450459486479
 30
0.0
 40
29.99952632326908
100
AcDbArc
 50
270.0
 51
358.5012505830901
  0
ARC
  5
2F1
330
1F
100
AcDbEntity
  8
C4
 62
     0
100
AcDbCircle
 10
1573.382063559505
 20
644.7450459486479
 30
0.0
 40
30.9995105340447
100
AcDbArc
 50
270.0
 51
358.5011936383096
  0
ARC
  5
2F2
330
1F
100
AcDbEntity
  8
C4
 62
     0
100
AcDbCircle
 10
1577.307462221929
 20
982.3377155380806
 30
0.0
 40
29.99952632326908
100
AcDbArc
 50
1.459263541943542
 51
90.0
  0
ARC
  5
2F3
330
1F
100
AcDbEntity
  8
C4
 62
     0
100
AcDbCircle
 10
1577.307697272657
 20
982.3377155380806
 30
0.0
 40
30.9995105340447
100
AcDbArc
 50
1.4588920577396
 51
90.0
  0
DIMENSION
  5
2F4
330
1F
100
AcDbEntity
  8
C寸法
 62
     0
370
    13
100
AcDbDimension
  2
*D3
 10
1107.908754992227
 20
888.539196567325
 30
0.0
 11
1090.408754992227
 21
953.5391965672541
 31
0.0
 70
    32
 71
     5
 42
129.9999999998582
  3
実寸
100
AcDbAlignedDimension
 13
1007.908754992227
 23
1018.539196567183
 33
0.0
 14
925.8718002280907
 24
888.539196567325
 34
0.0
 50
90.0
100
AcDbRotatedDimension
1001
ACAD
1000
DSTYLE
1002
{
1070
   340
1005
F3
1070
   144
1040
1.0
1002
}
  0
DIMENSION
  5
2F5
330
1F
100
AcDbEntity
  8
C寸法
 62
     0
370
    13
100
AcDbDimension
  2
*D4
 10
1207.908754992227
 20
1113.539196567325
 30
0.0
 11
1190.408754992227
 21
1073.539196567325
 31
0.0
 70
    32
 71
     5
 42
80.0
  3
実寸
100
AcDbAlignedDimension
 13
1007.908754992227
 23
1033.539196567325
 33
0.0
 14
1007.908754992227
 24
1113.539196567325
 34
0.0
 50
90.0
100
AcDbRotatedDimension
1001
ACAD
1000
DSTYLE
1002
{
1070
   340
1005
F3
1070
   144
1040
1.0
1002
}
  0
DIMENSION
  5
2F6
330
1F
100
AcDbEntity
  8
C寸法
 62
     0
370
    13
100
AcDbDimension
  2
*D5
 10
328.0851537313433
 20
443.5391965673251
 30
0.0
 11
653.0851537313433
 21
461.0391965673251
 31
0.0
 70
    32
 71
     5
 42
650.0
 52
-89.99999999999999
  3
実寸
100
AcDbAlignedDimension
 13
978.0851537313433
 23
639.3789443810405
 33
0.0
 14
328.0851537313433
 24
639.1454477473243
 34
0.0
 50
180.0
100
AcDbRotatedDimension
1001
ACAD
1000
DSTYLE
1002
{
1070
   340
1005
F3
1070
   144
1040
1.0
1002
}
  0
DIMENSION
  5
2F7
330
1F
100
AcDbEntity
  8
C寸法
 62
     0
370
    13
100
AcDbDimension
  2
*D6
 10
828.0831537313356
 20
493.5391965673251
 30
0.0
 11
903.0841537313395
 21
511.0391965673251
 31
0.0
 70
    32
 71
     5
 42
150.0020000000077
 52
-89.99999999999999
  3
実寸
100
AcDbAlignedDimension
 13
978.0851537313433
 23
593.5391965673251
 33
0.0
 14
828.0831537313356
 24
593.5391965673251
 34
0.0
 50
180.0
100
AcDbRotatedDimension
1001
ACAD
1000
DSTYLE
1002
{
1070
   340
1005
F3
1070
   144
1040
1.0
1002
}
  0
DIMENSION
  5
2F8
330
1F
100
AcDbEntity
  8
C寸法
 62
     0
370
    13
100
AcDbDimension
  2
*D7
 10
1257.908754992227
 20
593.5391965673251
 30
0.0
 11
1240.408754992227
 21
853.5391965673252
 31
0.0
 70
    32
 71
     5
 42
520.0000000000001
  3
実寸
100
AcDbAlignedDimension
 13
922.4849165074547
 23
1113.539196567325
 33
0.0
 14
1007.908754992225
 24
593.5391965673251
 34
0.0
 50
90.0
100
AcDbRotatedDimension
1001
ACAD
1000
DSTYLE
1002
{
1070
   340
1005
F3
1070
   144
1040
1.0
1002
}
  0
DIMENSION
  5
2F9
330
1F
100
AcDbEntity
  8
C寸法
 62
     0
370
    13
100
AcDbDimension
  2
*D8
 10
249.9424469619619
 20
169.239196567325
 30
0.0
 11
249.9424469619619
 21
264.239196567325
 31
0.0
 70
   160
 71
     5
 42
190.0
 52
-90.0
  3
実寸
100
AcDbAlignedDimension
 13
650.9544928706308
 23
359.2391965673251
 33
0.0
 14
566.2895610281071
 24
169.2391965673251
 34
0.0
 50
90.00000000000001
100
AcDbRotatedDimension
1001
ACAD
1000
DSTYLE
1002
{
1070
   340
1005
F3
1070
   144
1040
1.0
1002
}
  0
DIMENSION
  5
2FA
330
1F
100
AcDbEntity
  8
C寸法
 62
     0
370
    13
100
AcDbDimension
  2
*D9
 10
1207.908754992227
 20
1033.539196567325
 30
0.0
 11
1190.408754992227
 21
813.5391965673252
 31
0.0
 70
    32
 71
     5
 42
440.0000000000001
  3
実寸
100
AcDbAlignedDimension
 13
1007.908754992225
 23
593.5391965673251
 33
0.0
 14
1007.908754992225
 24
1033.539196567325
 34
0.0
 50
90.0
100
AcDbRotatedDimension
1001
ACAD
1000
DSTYLE
1002
{
1070
   340
1005
F3
1070
   144
1040
1.0
1002
}
  0
DIMENSION
  5
2FB
330
1F
100
AcDbEntity
  8
C寸法
 62
     0
370
    13
100
AcDbDimension
  2
*D10
 10
1157.908754992227
 20
608.5391965673228
 30
0.0
 11
1157.908754992227
 21
519.9938096625632
 31
0.0
 70
   160
 71
     5
 42
14.99999999999775
  3
実寸
100
AcDbAlignedDimension
 13
652.910754992233
 23
593.5391965673251
 33
0.0
 14
1007.908754992224
 24
608.5391965673228
 34
0.0
 50
90.0
100
AcDbRotatedDimension
1001
ACAD
1000
DSTYLE
1002
{
1070
   340
1005
F3
1070
   172
1070
     1
1070
   144
1040
1.0
1002
}
  0
DIMENSION
  5
2FC
330
1F
100
AcDbEntity
  8
C寸法
 62
     0
370
    13
100
AcDbDimension
  2
*D11
 10
1157.908754992227
 20
1018.539196567325
 30
0.0
 11
1140.408754992227
 21
813.539196567396
 31
0.0
 70
    32
 71
     5
 42
409.9999999998581
  3
実寸
100
AcDbAlignedDimension
 13
652.9097224150153
 23
608.539196567467
 33
0.0
 14
1007.908754992227
 24
1018.539196567325
 34
0.0
 50
90.0
100
AcDbRotatedDimension
1001
ACAD
1000
DSTYLE
1002
{
1070
   340
1005
F3
1070
   144
1040
1.0
1002
}
  0
DIMENSION
  5
2FD
330
1F
100
AcDbEntity
  8
C寸法
 62
     0
370
    13
100
AcDbDimension
  2
*D12
 10
1157.908754992227
 20
1033.539196567325
 30
0.0
 11
1157.908754992227
 21
944.9938096625632
 31
0.0
 70
   160
 71
     5
 42
15.00000000000013
  3
実寸
100
AcDbAlignedDimension
 13
652.9107549922333
 23
1018.539196567325
 33
0.0
 14
917.9087549922253
 24
1033.539196567325
 34
0.0
 50
90.0
100
AcDbRotatedDimension
1001
ACAD
1000
DSTYLE
1002
{
1070
   340
1005
F3
1070
   172
1070
     1
1070
   144
1040
1.0
1002
}
  0
CIRCLE
  5
2FE
330
1F
100
AcDbEntity
  8
画層1
 62
     7
100
AcDbCircle
 10
653.0841246013301
 20
1073.539417831801
 30
0.0
 40
18.0
  0
LINE
  5
2FF
330
1F
100
AcDbEntity
  8
C2
  6
CENTER
 62
     0
 48
20.0
370
    13
100
AcDbLine
 10
653.0831537313356
 20
540.107196567319
 30
0.0
 11
653.0831537313356
 21
1149.185196567324
 31
0.0
  0
LINE
  5
300
330
1F
100
AcDbEntity
  8
画層1
  6
CENTER
 62
     7
 48
20.0
370
    13
100
AcDbLine
 10
686.3753226887609
 20
1073.539417831801
 30
0.0
 11
619.8014397312536
 21
1073.539417831801
 31
0.0
  0
DIMENSION
  5
301
330
1F
100
AcDbEntity
  8
画層1
 62
     7
370
    13
100
AcDbDimension
  2
*D13
 10
1107.908754992227
 20
1113.539196566921
 30
0.0
 11
1090.408754992227
 21
1188.777291805016
 31
0.0
 70
    32
 71
     5
 42
39.99977873511945
  3
実寸
100
AcDbAlignedDimension
 13
691.9739446051901
 23
1073.539417831801
 33
0.0
 14
917.9085346000131
 24
1113.539196566921
 34
0.0
 50
90.0
100
AcDbRotatedDimension
1001
ACAD
1000
DSTYLE
1002
{
1070
   340
1005
F3
1070
   172
1070
     1
1070
   144
1040
1.0
1002
}
  0
DIMENSION
  5
302
330
1F
100
AcDbEntity
  8
C寸法
 62
     0
370
    13
100
AcDbDimension
  2
*D14
 10
290.0221374413465
 20
344.2391965673284
 30
0.0
 11
290.0221374413465
 21
270.6938096625664
 31
0.0
 70
   160
 71
     5
 42
14.99999999999671
 52
-90.0
  3
実寸
100
AcDbAlignedDimension
 13
323.4660932880664
 23
359.2391965673251
 33
0.0
 14
348.1090081224916
 24
344.2391965673284
 34
0.0
 50
90.00000000000001
100
AcDbRotatedDimension
1001
ACAD
1000
DSTYLE
1002
{
1070
   340
1005
F3
1070
   172
1070
     1
1070
   144
1040
1.0
1002
}
  0
LINE
  5
303
330
1F
100
AcDbEntity
  8
C4
 62
     0
100
AcDbLine
 10
1432.408518153855
 20
1017.337162915228
 30
0.0
 11
1432.408518153862
 21
916.9228400034618
 31
0.0
  0
LINE
  5
304
330
1F
100
AcDbEntity
  8
C4
 62
     0
100
AcDbLine
 10
1432.408518153873
 20
710.1555531302032
 30
0.0
 11
1432.408518153877
 21
609.7456118392382
 31
0.0
  0
DIMENSION
  5
305
330
1F
100
AcDbEntity
  8
C寸法
 62
     0
 48
20.0
370
    13
100
AcDbDimension
  2
*D15
 10
918.4044163531316
 20
752.612118570861
 30
0.0
 11
813.9178273578409
 21
752.612118570861
 31
0.0
 70
   160
  1
Φ<>
 71
     5
 42
180.8103317708083
 52
-90.00000000000001
  3
実寸
100
AcDbAlignedDimension
 13
737.5940845823234
 23
889.8514855430548
 33
0.0
 14
918.4044163531316
 24
889.6056582571856
 34
0.0
 50
0.000000000000007
100
AcDbRotatedDimension
1001
ACAD
1000
DSTYLE
1002
{
1070
   271
1070
     0
1070
   340
1005
F3
1070
   144
1040
1.0
1002
}
  0
LINE
  5
306
330
1F
100
AcDbEntity
  8
C2
  6
CENTER
 62
     0
 48
20.0
370
    13
100
AcDbLine
 10
303.0861537313472
 20
853.5391965673251
 30
0.0
 11
728.0831537313359
 21
853.5391965673252
 31
0.0
  0
LINE
  5
307
330
1F
100
AcDbEntity
  8
C2
  6
CENTER
 62
     0
 48
20.0
370
    13
100
AcDbLine
 10
928.0831537313356
 20
853.539196567325
 30
0.0
 11
1018.377933937498
 21
853.5391965673251
 31
0.0
  0
LINE
  5
308
330
1F
100
AcDbEntity
  8
0
100
AcDbLine
 10
653.1291246013301
 20
1073.539417831801
 30
0.0
 11
653.0391246013302
 21
1073.539417831801
 31
0.0
  0
LINE
  5
309
330
1F
100
AcDbEntity
  8
0
100
AcDbLine
 10
653.0841246013301
 20
1073.494417831801
 30
0.0
 11
653.0841246013301
 21
1073.584417831801
 31
0.0
  0
DIMENSION
  5
3C4
330
1F
100
AcDbEntity
  8
0
  6
Continuous
370
    13
100
AcDbDimension
  2
*D16
 10
634.9877920072256
 20
1149.037265388132
 30
0.0
 11
504.0532681977018
 21
1165.537265388132
 31
0.0
 70
    32
  1
Φ<>水栓穴
 71
     5
 42
36.06450255765958
 52
-89.99999999999999
  3
JIS-1
100
AcDbAlignedDimension
 13
671.0522945648852
 23
1073.097011657719
 33
0.0
 14
634.9877920072256
 24
1073.378765583951
 34
0.0
 50
180.0
100
AcDbRotatedDimension
1001
ACAD
1000
DSTYLE
1002
{
1070
   147
1040
4.0
1070
   271
1070
     0
1070
   140
1040
25.0
1070
   340
1005
F3
1070
    41
1040
25.0
1002
}
  0
DIMENSION
  5
3FC
330
1F
100
AcDbEntity
  8
画層1
370
    13
100
AcDbDimension
  2
*D17
 10
398.3098377755277
 20
695.1272883720026
 30
0.0
 11
466.4664642424284
 21
734.2080093376192
 31
0.0
 70
   164
  1
4-R100
 71
     5
 42
61.91065347206191
  3
JIS-1
100
AcDbRadialDimension
 15
344.6019089239753
 25
664.3313894272678
 35
0.0
 40
0.0
1001
ACAD_DSTYLE_DIMRADIAL_EXTENSION
1070
   387
1070
     0
1070
   388
1040
4.773374683726304
1070
   390
1040
6.231470437263098
1001
ACAD
1000
DSTYLE
1002
{
1070
   147
1040
5.0
1070
   140
1040
25.0
1070
   340
1005
F3
1070
    41
1040
25.0
1070
   344
1005
90
1070
   173
1070
     1
1002
}
  0
DIMENSION
  5
407
330
1F
100
AcDbEntity
  8
画層1
370
    13
100
AcDbDimension
  2
*D18
 10
409.2797370396397
 20
648.8590426123327
 30
0.0
 11
473.1175261512503
 21
670.1995668606559
 31
0.0
 70
   164
  1
4-R60
 71
     5
 42
77.57061666754406
  3
JIS-1
100
AcDbRadialDimension
 15
335.7109958411936
 25
624.265529470467
 35
0.0
 40
0.0
1001
ACAD_DSTYLE_DIMRADIAL_EXTENSION
1070
   387
1070
     0
1070
   388
1040
4.712389999999191
1070
   390
1040
0.0
1001
ACAD
1000
DSTYLE
1002
{
1070
   172
1070
     0
1070
   140
1040
25.0
1070
   340
1005
F3
1070
   147
1040
5.0
1070
    41
1040
25.0
1070
   344
1005
90
1070
   173
1070
     1
1002
}
  0
DIMENSION
  5
412
330
1F
100
AcDbEntity
  8
画層1
370
    13
100
AcDbDimension
  2
*D19
 10
406.5123657158238
 20
1063.624520603256
 30
0.0
 11
414.5726651577862
 21
1059.563862776434
 31
0.0
 70
   164
  1
4-R60
 71
     5
 42
69.73500304148622
  3
JIS-1
100
AcDbRadialDimension
 15
468.7906745616573
 25
1032.249643766859
 35
0.0
 40
0.0
1001
ACAD_DSTYLE_DIMRADIAL_EXTENSION
1070
   387
1070
     0
1070
   388
1040
1.570799999998433
1070
   390
1040
3.141589999999848
1001
ACAD
1000
DSTYLE
1002
{
1070
   147
1040
4.0
1070
   140
1040
25.0
1070
   340
1005
F3
1070
   344
1005
90
1070
   173
1070
     1
1070
    41
1040
25.0
1002
}
  0
ENDSEC
  0
SECTION
  2
OBJECTS
  0
DICTIONARY
  5
C
330
0
100
AcDbDictionary
281
     1
  3
ACAD_COLOR
350
F5
  3
ACAD_DETAILVIEWSTYLE
350
DA
  3
ACAD_GROUP
350
D
  3
ACAD_IMAGE_VARS
350
6A
  3
ACAD_LAYOUT
350
1A
  3
ACAD_MATERIAL
350
97
  3
ACAD_MLEADERSTYLE
350
3F
  3
ACAD_MLINESTYLE
350
17
  3
ACAD_PLOTSETTINGS
350
19
  3
ACAD_PLOTSTYLENAME
350
E
  3
ACAD_SCALELIST
350
40
  3
ACAD_SECTIONVIEWSTYLE
350
DB
  3
ACAD_TABLESTYLE
350
3B
  3
ACDB_RECOMPOSE_DATA
350
44C
  3
AcDbVariableDictionary
350
3D
  3
APPDATA
350
96
  0
DICTIONARY
  5
260
330
2
100
AcDbDictionary
280
     1
281
     1
  3
ACAD_LAYERSTATES
360
261
  3
ACLYDICTIONARY
360
3E5
  0
DICTIONARY
  5
F5
102
{ACAD_REACTORS
330
C
102
}
330
C
100
AcDbDictionary
281
     1
  0
DICTIONARY
  5
DA
102
{ACAD_REACTORS
330
C
102
}
330
C
100
AcDbDictionary
281
     1
  0
DICTIONARY
  5
D
102
{ACAD_REACTORS
330
C
102
}
330
C
100
AcDbDictionary
281
     1
  0
RASTERVARIABLES
  5
6A
102
{ACAD_REACTORS
330
C
102
}
330
C
100
AcDbRasterVariables
 90
        0
 70
     1
 71
     1
 72
     1
  0
DICTIONARY
  5
1A
102
{ACAD_REACTORS
330
C
102
}
330
C
100
AcDbDictionary
281
     1
  3
Model
350
22
  3
Sheet1
350
1E
  3
Sheet2
350
26
  0
DICTIONARY
  5
97
102
{ACAD_REACTORS
330
C
102
}
330
C
100
AcDbDictionary
281
     1
  3
ByBlock
350
99
  3
ByLayer
350
98
  3
Global
350
9A
  0
DICTIONARY
  5
3F
102
{ACAD_REACTORS
330
C
102
}
330
C
100
AcDbDictionary
281
     1
  3
Standard
350
DC
  0
DICTIONARY
  5
17
102
{ACAD_REACTORS
330
C
102
}
330
C
100
AcDbDictionary
281
     1
  3
Standard
350
18
  0
DICTIONARY
  5
19
102
{ACAD_REACTORS
330
C
102
}
330
C
100
AcDbDictionary
281
     1
  0
ACDBDICTIONARYWDFLT
  5
E
102
{ACAD_REACTORS
330
C
102
}
330
C
100
AcDbDictionary
281
     1
  3
Normal
350
F
100
AcDbDictionaryWithDefault
340
F
  0
DICTIONARY
  5
40
102
{ACAD_REACTORS
330
C
102
}
330
C
100
AcDbDictionary
281
     1
  3
A0
350
41
  3
A1
350
42
  3
A2
350
43
  3
A3
350
44
  3
A4
350
45
  3
A5
350
46
  3
A6
350
47
  3
A7
350
48
  3
A8
350
49
  3
A9
350
4A
  3
B0
350
4B
  3
B1
350
4C
  3
B2
350
4D
  3
B3
350
4E
  3
B4
350
4F
  3
B5
350
50
  3
B6
350
51
  3
B7
350
52
  3
B8
350
53
  3
B9
350
54
  3
C0
350
55
  3
C1
350
56
  3
C2
350
57
  3
C3
350
58
  3
C4
350
59
  3
C5
350
5A
  3
C6
350
5B
  3
C7
350
5C
  3
C8
350
5D
  3
C9
350
5E
  3
D0
350
5F
  3
D1
350
60
  3
D2
350
61
  0
DICTIONARY
  5
DB
102
{ACAD_REACTORS
330
C
102
}
330
C
100
AcDbDictionary
281
     1
  0
DICTIONARY
  5
3B
102
{ACAD_REACTORS
330
C
102
}
330
C
100
AcDbDictionary
281
     1
  3
Standard
350
3C
  0
XRECORD
  5
44C
102
{ACAD_REACTORS
330
C
102
}
330
C
100
AcDbXrecord
280
     1
 90
        1
330
3C
  0
DICTIONARY
  5
3D
102
{ACAD_REACTORS
330
C
102
}
330
C
100
AcDbDictionary
281
     1
  3
CANNOSCALE
350
62
  3
CMLEADERSTYLE
350
3D3
  3
CTABLESTYLE
350
3E
  3
LIGHTSINBLOCKS
350
6F
  3
MSLTSCALE
350
44D
  3
XCLIPFRAME
350
70
  0
DICTIONARY
  5
96
102
{ACAD_REACTORS
330
C
102
}
330
C
100
AcDbDictionary
281
     1
  0
DICTIONARY
  5
261
102
{ACAD_REACTORS
330
260
102
}
330
260
100
AcDbDictionary
281
     1
  3
ARGON_LAYERP_1
350
3D8
  3
ARGON_LAYERP_2
350
3D9
  3
ARGON_LAYERP_3
350
3DF
  3
ARGON_LAYERP_4
350
3E4
  3
ARGON_LAYERP_5
350
41D
  3
ARGON_LAYERP_6
350
422
  0
DICTIONARY
  5
3E5
102
{ACAD_REACTORS
330
260
102
}
330
260
100
AcDbDictionary
281
     1
1001
ACAD
1000
<All
  0
LAYOUT
  5
22
102
{ACAD_REACTORS
330
1A
102
}
330
1A
100
AcDbPlotSettings
  1

  2
none_device
  4
ISO_A3_(420.00_x_297.00_MM)
  6

 40
7.5
 41
20.0
 42
7.5
 43
20.0
 44
420.0
 45
297.0
 46
9.992452830188654
 47
-0.0000000000000142
 48
0.0
 49
0.0
140
0.0
141
0.0
142
1.0
143
4.675285945165342
 70
  1204
 72
     1
 73
     0
 74
     1
  7
monochrome.ctb
 75
     0
 76
     0
 77
     2
 78
   300
147
0.2138906607485876
148
-219.5871349880679
149
-67.5118951675098
100
AcDbLayout
  1
Model
 70
     1
 71
     0
 10
0.0
 20
0.0
 11
420.0
 21
297.0
 12
0.0
 22
0.0
 32
0.0
 14
85.4002191002171
 24
67.5118951675098
 34
0.0
 15
1885.455878342763
 25
1269.060383075003
 35
0.0
146
0.0
 13
0.0
 23
0.0
 33
0.0
 16
1.0
 26
0.0
 36
0.0
 17
0.0
 27
1.0
 37
0.0
 76
     0
330
1F
331
29
1001
PLOTTRANSPARENCY
1071
        0
  0
LAYOUT
  5
1E
102
{ACAD_REACTORS
330
1A
102
}
330
1A
100
AcDbPlotSettings
  1

  2
none_device
  4

  6

 40
0.0
 41
0.0
 42
0.0
 43
0.0
 44
0.0
 45
0.0
 46
0.0
 47
0.0
 48
0.0
 49
0.0
140
0.0
141
0.0
142
1.0
143
1.0
 70
   688
 72
     0
 73
     0
 74
     5
  7

 75
    16
 76
     0
 77
     2
 78
   300
147
1.0
148
0.0
149
0.0
100
AcDbLayout
  1
Sheet1
 70
     1
 71
     1
 10
0.0
 20
0.0
 11
420.0
 21
297.0
 12
0.0
 22
0.0
 32
0.0
 14
1.000000000000000E+20
 24
1.000000000000000E+20
 34
1.000000000000000E+20
 15
-1.000000000000000E+20
 25
-1.000000000000000E+20
 35
-1.000000000000000E+20
146
0.0
 13
0.0
 23
0.0
 33
0.0
 16
1.0
 26
0.0
 36
0.0
 17
0.0
 27
1.0
 37
0.0
 76
     0
330
1B
  0
LAYOUT
  5
26
102
{ACAD_REACTORS
330
1A
102
}
330
1A
100
AcDbPlotSettings
  1

  2
none_device
  4

  6

 40
0.0
 41
0.0
 42
0.0
 43
0.0
 44
0.0
 45
0.0
 46
0.0
 47
0.0
 48
0.0
 49
0.0
140
0.0
141
0.0
142
1.0
143
1.0
 70
   688
 72
     0
 73
     0
 74
     5
  7

 75
    16
 76
     0
 77
     2
 78
   300
147
1.0
148
0.0
149
0.0
100
AcDbLayout
  1
Sheet2
 70
     1
 71
     2
 10
0.0
 20
0.0
 11
0.0
 21
0.0
 12
0.0
 22
0.0
 32
0.0
 14
0.0
 24
0.0
 34
0.0
 15
0.0
 25
0.0
 35
0.0
146
0.0
 13
0.0
 23
0.0
 33
0.0
 16
1.0
 26
0.0
 36
0.0
 17
0.0
 27
1.0
 37
0.0
 76
     0
330
23
  0
MATERIAL
  5
99
102
{ACAD_REACTORS
330
97
102
}
330
97
100
AcDbMaterial
  1
ByBlock
  0
MATERIAL
  5
98
102
{ACAD_REACTORS
330
97
102
}
330
97
100
AcDbMaterial
  1
ByLayer
  0
MATERIAL
  5
9A
102
{ACAD_REACTORS
330
97
102
}
330
97
100
AcDbMaterial
  1
Global
  0
MLEADERSTYLE
  5
DC
102
{ACAD_REACTORS
330
3F
102
}
330
3F
100
AcDbMLeaderStyle
170
     2
171
     1
172
     0
 90
        2
 40
0.0
 41
0.0
173
     1
 91
-1056964608
340
14
 92
       -2
290
     1
 42
2.0
291
     1
 43
8.0
  3
Standard
341
0
 44
4.0
300

342
11
174
     1
178
     6
175
     1
176
     0
 93
-1056964608
 45
4.0
292
     0
297
     0
 46
4.0
343
0
 94
-1056964608
 47
1.0
 49
1.0
140
1.0
293
     1
141
0.0
294
     1
177
     0
142
1.0
295
     0
296
     0
143
3.75
1001
ACAD_MLEADERVER
1070
     2
  0
MLINESTYLE
  5
18
102
{ACAD_REACTORS
330
17
102
}
330
17
100
AcDbMlineStyle
  2
Standard
 70
     0
  3

 62
   256
 51
90.0
 52
90.0
 71
     2
 49
0.5
 62
   256
  6
BYLAYER
 49
-0.5
 62
   256
  6
BYLAYER
  0
ACDBPLACEHOLDER
  5
F
102
{ACAD_REACTORS
330
E
102
}
330
E
  0
SCALE
  5
41
102
{ACAD_REACTORS
330
40
102
}
330
40
100
AcDbScale
 70
     0
300
1:1
140
1.0
141
1.0
290
     1
  0
SCALE
  5
42
102
{ACAD_REACTORS
330
40
102
}
330
40
100
AcDbScale
 70
     0
300
1:2
140
1.0
141
2.0
290
     0
  0
SCALE
  5
43
102
{ACAD_REACTORS
330
40
102
}
330
40
100
AcDbScale
 70
     0
300
1:4
140
1.0
141
4.0
290
     0
  0
SCALE
  5
44
102
{ACAD_REACTORS
330
40
102
}
330
40
100
AcDbScale
 70
     0
300
1:5
140
1.0
141
5.0
290
     0
  0
SCALE
  5
45
102
{ACAD_REACTORS
330
40
102
}
330
40
100
AcDbScale
 70
     0
300
1:8
140
1.0
141
8.0
290
     0
  0
SCALE
  5
46
102
{ACAD_REACTORS
330
40
102
}
330
40
100
AcDbScale
 70
     0
300
1:10
140
1.0
141
10.0
290
     0
  0
SCALE
  5
47
102
{ACAD_REACTORS
330
40
102
}
330
40
100
AcDbScale
 70
     0
300
1:16
140
1.0
141
16.0
290
     0
  0
SCALE
  5
48
102
{ACAD_REACTORS
330
40
102
}
330
40
100
AcDbScale
 70
     0
300
1:20
140
1.0
141
20.0
290
     0
  0
SCALE
  5
49
102
{ACAD_REACTORS
330
40
102
}
330
40
100
AcDbScale
 70
     0
300
1:30
140
1.0
141
30.0
290
     0
  0
SCALE
  5
4A
102
{ACAD_REACTORS
330
40
102
}
330
40
100
AcDbScale
 70
     0
300
1:40
140
1.0
141
40.0
290
     0
  0
SCALE
  5
4B
102
{ACAD_REACTORS
330
40
102
}
330
40
100
AcDbScale
 70
     0
300
1:50
140
1.0
141
50.0
290
     0
  0
SCALE
  5
4C
102
{ACAD_REACTORS
330
40
102
}
330
40
100
AcDbScale
 70
     0
300
1:100
140
1.0
141
100.0
290
     0
  0
SCALE
  5
4D
102
{ACAD_REACTORS
330
40
102
}
330
40
100
AcDbScale
 70
     0
300
2:1
140
2.0
141
1.0
290
     0
  0
SCALE
  5
4E
102
{ACAD_REACTORS
330
40
102
}
330
40
100
AcDbScale
 70
     0
300
4:1
140
4.0
141
1.0
290
     0
  0
SCALE
  5
4F
102
{ACAD_REACTORS
330
40
102
}
330
40
100
AcDbScale
 70
     0
300
8:1
140
8.0
141
1.0
290
     0
  0
SCALE
  5
50
102
{ACAD_REACTORS
330
40
102
}
330
40
100
AcDbScale
 70
     0
300
10:1
140
10.0
141
1.0
290
     0
  0
SCALE
  5
51
102
{ACAD_REACTORS
330
40
102
}
330
40
100
AcDbScale
 70
     0
300
100:1
140
100.0
141
1.0
290
     0
  0
SCALE
  5
52
102
{ACAD_REACTORS
330
40
102
}
330
40
100
AcDbScale
 70
     0
300
1/128" = 1'-0"
140
0.0078125
141
12.0
290
     0
  0
SCALE
  5
53
102
{ACAD_REACTORS
330
40
102
}
330
40
100
AcDbScale
 70
     0
300
1/64" = 1'-0"
140
0.015625
141
12.0
290
     0
  0
SCALE
  5
54
102
{ACAD_REACTORS
330
40
102
}
330
40
100
AcDbScale
 70
     0
300
1/32" = 1'-0"
140
0.03125
141
12.0
290
     0
  0
SCALE
  5
55
102
{ACAD_REACTORS
330
40
102
}
330
40
100
AcDbScale
 70
     0
300
1/16" = 1'-0"
140
0.0625
141
12.0
290
     0
  0
SCALE
  5
56
102
{ACAD_REACTORS
330
40
102
}
330
40
100
AcDbScale
 70
     0
300
3/32" = 1'-0"
140
0.09375
141
12.0
290
     0
  0
SCALE
  5
57
102
{ACAD_REACTORS
330
40
102
}
330
40
100
AcDbScale
 70
     0
300
1/8" = 1'-0"
140
0.125
141
12.0
290
     0
  0
SCALE
  5
58
102
{ACAD_REACTORS
330
40
102
}
330
40
100
AcDbScale
 70
     0
300
3/16" = 1'-0"
140
0.1875
141
12.0
290
     0
  0
SCALE
  5
59
102
{ACAD_REACTORS
330
40
102
}
330
40
100
AcDbScale
 70
     0
300
1/4" = 1'-0"
140
0.25
141
12.0
290
     0
  0
SCALE
  5
5A
102
{ACAD_REACTORS
330
40
102
}
330
40
100
AcDbScale
 70
     0
300
3/8" = 1'-0"
140
0.375
141
12.0
290
     0
  0
SCALE
  5
5B
102
{ACAD_REACTORS
330
40
102
}
330
40
100
AcDbScale
 70
     0
300
1/2" = 1'-0"
140
0.5
141
12.0
290
     0
  0
SCALE
  5
5C
102
{ACAD_REACTORS
330
40
102
}
330
40
100
AcDbScale
 70
     0
300
3/4" = 1'-0"
140
0.75
141
12.0
290
     0
  0
SCALE
  5
5D
102
{ACAD_REACTORS
330
40
102
}
330
40
100
AcDbScale
 70
     0
300
1" = 1'-0"
140
1.0
141
12.0
290
     0
  0
SCALE
  5
5E
102
{ACAD_REACTORS
330
40
102
}
330
40
100
AcDbScale
 70
     0
300
1-1/2" = 1'-0"
140
1.5
141
12.0
290
     0
  0
SCALE
  5
5F
102
{ACAD_REACTORS
330
40
102
}
330
40
100
AcDbScale
 70
     0
300
3" = 1'-0"
140
3.0
141
12.0
290
     0
  0
SCALE
  5
60
102
{ACAD_REACTORS
330
40
102
}
330
40
100
AcDbScale
 70
     0
300
6" = 1'-0"
140
6.0
141
12.0
290
     0
  0
SCALE
  5
61
102
{ACAD_REACTORS
330
40
102
}
330
40
100
AcDbScale
 70
     0
300
1'-0" = 1'-0"
140
12.0
141
12.0
290
     0
  0
TABLESTYLE
  5
3C
102
{ACAD_REACTORS
330
3B
102
}
102
{ACAD_XDICTIONARY
360
449
102
}
330
3B
100
AcDbTableStyle
  3
Standard
 70
     0
 71
     0
 40
1.5
 41
1.5
280
     0
281
     0
  7
Standard
140
4.5
170
     2
 62
     0
 63
   257
283
     0
274
    -2
284
     1
 64
     0
275
    -2
285
     1
 65
     0
276
    -2
286
     1
 66
     0
277
    -2
287
     1
 67
     0
278
    -2
288
     1
 68
     0
279
    -2
289
     1
 69
     0
  7
Standard
140
6.0
170
     5
 62
     0
 63
   257
283
     0
274
    -2
284
     1
 64
     0
275
    -2
285
     1
 65
     0
276
    -2
286
     1
 66
     0
277
    -2
287
     1
 67
     0
278
    -2
288
     1
 68
     0
279
    -2
289
     1
 69
     0
  7
Standard
140
4.5
170
     5
 62
     0
 63
   257
283
     0
274
    -2
284
     1
 64
     0
275
    -2
285
     1
 65
     0
276
    -2
286
     1
 66
     0
277
    -2
287
     1
 67
     0
278
    -2
288
     1
 68
     0
279
    -2
289
     1
 69
     0
  0
DICTIONARYVAR
  5
62
102
{ACAD_REACTORS
330
3D
102
}
330
3D
100
DictionaryVariables
280
     0
  1
1:1
  0
DICTIONARYVAR
  5
3D3
102
{ACAD_REACTORS
330
3D
102
}
330
3D
100
DictionaryVariables
280
     0
  1
Standard
  0
DICTIONARYVAR
  5
3E
102
{ACAD_REACTORS
330
3D
102
}
330
3D
100
DictionaryVariables
280
     0
  1
Standard
  0
DICTIONARYVAR
  5
6F
102
{ACAD_REACTORS
330
3D
102
}
330
3D
100
DictionaryVariables
280
     0
  1
0
  0
DICTIONARYVAR
  5
44D
102
{ACAD_REACTORS
330
3D
102
}
330
3D
100
DictionaryVariables
280
     0
  1
0
  0
DICTIONARYVAR
  5
70
102
{ACAD_REACTORS
330
3D
102
}
330
3D
100
DictionaryVariables
280
     0
  1
0
  0
XRECORD
  5
3D8
102
{ACAD_REACTORS
330
261
102
}
330
261
100
AcDbXrecord
280
     1
 91
     1023
301

290
     0
302
0
330
10
 90
        8
 62
     7
370
    -3
331
16
  1
Normal
330
7E
 90
        0
 62
     7
370
    -3
331
16
  1
Normal
330
DE
 90
        8
 62
     1
370
    -3
331
E2
  1
Normal
330
E3
 90
        8
 62
     3
370
    -3
331
16
  1
Normal
330
E4
 90
        8
 62
     4
370
    -3
331
16
  1
Normal
  0
XRECORD
  5
3D9
102
{ACAD_REACTORS
330
261
102
}
330
261
100
AcDbXrecord
280
     1
 91
     1023
301

290
     0
302
Defpoints
330
10
 90
        8
 62
     7
370
    -3
331
16
  1
Normal
330
7E
 90
        0
 62
     7
370
    -3
331
16
  1
Normal
330
DE
 90
        8
 62
     1
370
    -3
331
E2
  1
Normal
330
E3
 90
        8
 62
     3
370
    -3
331
16
  1
Normal
330
E4
 90
        8
 62
     4
370
    -3
331
16
  1
Normal
  0
XRECORD
  5
3DF
102
{ACAD_REACTORS
330
261
102
}
330
261
100
AcDbXrecord
280
     1
 91
     1023
301

290
     0
302
Defpoints
330
10
 90
        8
 62
     7
370
    -3
331
16
  1
Normal
330
7E
 90
        0
 62
     7
370
    -3
331
16
  1
Normal
330
DE
 90
        8
 62
     1
370
    -3
331
E2
  1
Normal
330
E3
 90
        8
 62
     3
370
    -3
331
16
  1
Normal
330
E4
 90
        8
 62
     4
370
    -3
331
16
  1
Normal
  0
XRECORD
  5
3E4
102
{ACAD_REACTORS
330
261
102
}
330
261
100
AcDbXrecord
280
     1
 91
     1023
301

290
     0
302
Defpoints
330
10
 90
        8
 62
     7
370
    -3
331
16
  1
Normal
330
7E
 90
        0
 62
     7
370
    -3
331
16
  1
Normal
330
DE
 90
        8
 62
     1
370
    -3
331
E2
  1
Normal
330
E3
 90
        8
 62
     3
370
    -3
331
16
  1
Normal
330
E4
 90
        8
 62
     4
370
    -3
331
16
  1
Normal
330
3E0
 90
        8
 62
     7
370
    -3
331
16
  1
Normal
  0
XRECORD
  5
41D
102
{ACAD_REACTORS
330
261
102
}
330
261
100
AcDbXrecord
280
     1
 91
     1023
301

290
     0
302
Defpoints
330
10
 90
        8
 62
     7
370
    -3
331
16
  1
Normal
330
7E
 90
        0
 62
     7
370
    -3
331
16
  1
Normal
330
DE
 90
        8
 62
     1
370
    -3
331
E2
  1
Normal
330
E3
 90
        8
 62
     3
370
    -3
331
16
  1
Normal
330
E4
 90
        8
 62
     4
370
    -3
331
16
  1
Normal
330
3E0
 90
        8
 62
     7
370
    -3
331
16
  1
Normal
  0
XRECORD
  5
422
102
{ACAD_REACTORS
330
261
102
}
330
261
100
AcDbXrecord
280
     1
 91
     1023
301

290
     0
302
Defpoints
330
10
 90
        8
 62
     7
370
    -3
331
16
  1
Normal
330
7E
 90
        0
 62
     7
370
    -3
331
16
  1
Normal
330
DE
 90
        8
 62
     1
370
    -3
331
E2
  1
Normal
330
E3
 90
        8
 62
     3
370
    -3
331
16
  1
Normal
330
E4
 90
        8
 62
     4
370
    -3
331
16
  1
Normal
330
3E0
 90
        8
 62
     7
370
    -3
331
16
  1
Normal
  0
DICTIONARY
  5
449
330
3C
100
AcDbDictionary
280
     1
281
     1
  3
ACAD_ROUNDTRIP_2008_TABLESTYLE_CELLSTYLEMAP
360
44B
  3
ACAD_XREC_ROUNDTRIP
360
44A
  0
CELLSTYLEMAP
  5
44B
102
{ACAD_REACTORS
330
449
102
}
330
449
100
AcDbCellStyleMap
 90
        3
300
CELLSTYLE
  1
TABLEFORMAT_BEGIN
 90
        5
170
     1
 91
        0
 92
    32768
 62
   257
 93
        1
300
CONTENTFORMAT
  1
CONTENTFORMAT_BEGIN
 90
        0
 91
        0
 92
      512
 93
        0
300

 40
0.0
140
1.0
 94
        5
 62
     0
340
11
144
6.0
309
CONTENTFORMAT_END
171
     1
301
MARGIN
  1
CELLMARGIN_BEGIN
 40
1.5
 40
1.5
 40
1.5
 40
1.5
 40
0.18
 40
0.18
309
CELLMARGIN_END
 94
        6
 95
        1
302
GRIDFORMAT
  1
GRIDFORMAT_BEGIN
 90
        0
 91
        1
 62
     0
 92
       -2
340
0
 93
        0
 40
0.045
309
GRIDFORMAT_END
 95
        2
302
GRIDFORMAT
  1
GRIDFORMAT_BEGIN
 90
        0
 91
        1
 62
     0
 92
       -2
340
0
 93
        0
 40
0.045
309
GRIDFORMAT_END
 95
        4
302
GRIDFORMAT
  1
GRIDFORMAT_BEGIN
 90
        0
 91
        1
 62
     0
 92
       -2
340
0
 93
        0
 40
0.045
309
GRIDFORMAT_END
 95
        8
302
GRIDFORMAT
  1
GRIDFORMAT_BEGIN
 90
        0
 91
        1
 62
     0
 92
       -2
340
0
 93
        0
 40
0.045
309
GRIDFORMAT_END
 95
       16
302
GRIDFORMAT
  1
GRIDFORMAT_BEGIN
 90
        0
 91
        1
 62
     0
 92
       -2
340
0
 93
        0
 40
0.045
309
GRIDFORMAT_END
 95
       32
302
GRIDFORMAT
  1
GRIDFORMAT_BEGIN
 90
        0
 91
        1
 62
     0
 92
       -2
340
0
 93
        0
 40
0.045
309
GRIDFORMAT_END
309
TABLEFORMAT_END
  1
CELLSTYLE_BEGIN
 90
        1
 91
        1
300
_TITLE
309
CELLSTYLE_END
300
CELLSTYLE
  1
TABLEFORMAT_BEGIN
 90
        5
170
     1
 91
        0
 92
        0
 62
   257
 93
        1
300
CONTENTFORMAT
  1
CONTENTFORMAT_BEGIN
 90
        0
 91
        0
 92
      512
 93
        0
300

 40
0.0
140
1.0
 94
        5
 62
     0
340
11
144
4.5
309
CONTENTFORMAT_END
171
     1
301
MARGIN
  1
CELLMARGIN_BEGIN
 40
1.5
 40
1.5
 40
1.5
 40
1.5
 40
0.18
 40
0.18
309
CELLMARGIN_END
 94
        6
 95
        1
302
GRIDFORMAT
  1
GRIDFORMAT_BEGIN
 90
        0
 91
        1
 62
     0
 92
       -2
340
0
 93
        0
 40
0.045
309
GRIDFORMAT_END
 95
        2
302
GRIDFORMAT
  1
GRIDFORMAT_BEGIN
 90
        0
 91
        1
 62
     0
 92
       -2
340
0
 93
        0
 40
0.045
309
GRIDFORMAT_END
 95
        4
302
GRIDFORMAT
  1
GRIDFORMAT_BEGIN
 90
        0
 91
        1
 62
     0
 92
       -2
340
0
 93
        0
 40
0.045
309
GRIDFORMAT_END
 95
        8
302
GRIDFORMAT
  1
GRIDFORMAT_BEGIN
 90
        0
 91
        1
 62
     0
 92
       -2
340
0
 93
        0
 40
0.045
309
GRIDFORMAT_END
 95
       16
302
GRIDFORMAT
  1
GRIDFORMAT_BEGIN
 90
        0
 91
        1
 62
     0
 92
       -2
340
0
 93
        0
 40
0.045
309
GRIDFORMAT_END
 95
       32
302
GRIDFORMAT
  1
GRIDFORMAT_BEGIN
 90
        0
 91
        1
 62
     0
 92
       -2
340
0
 93
        0
 40
0.045
309
GRIDFORMAT_END
309
TABLEFORMAT_END
  1
CELLSTYLE_BEGIN
 90
        2
 91
        1
300
_HEADER
309
CELLSTYLE_END
300
CELLSTYLE
  1
TABLEFORMAT_BEGIN
 90
        5
170
     1
 91
        0
 92
        0
 62
   257
 93
        1
300
CONTENTFORMAT
  1
CONTENTFORMAT_BEGIN
 90
        0
 91
        0
 92
      512
 93
        0
300

 40
0.0
140
1.0
 94
        2
 62
     0
340
11
144
4.5
309
CONTENTFORMAT_END
171
     1
301
MARGIN
  1
CELLMARGIN_BEGIN
 40
1.5
 40
1.5
 40
1.5
 40
1.5
 40
0.18
 40
0.18
309
CELLMARGIN_END
 94
        6
 95
        1
302
GRIDFORMAT
  1
GRIDFORMAT_BEGIN
 90
        0
 91
        1
 62
     0
 92
       -2
340
0
 93
        0
 40
0.045
309
GRIDFORMAT_END
 95
        2
302
GRIDFORMAT
  1
GRIDFORMAT_BEGIN
 90
        0
 91
        1
 62
     0
 92
       -2
340
0
 93
        0
 40
0.045
309
GRIDFORMAT_END
 95
        4
302
GRIDFORMAT
  1
GRIDFORMAT_BEGIN
 90
        0
 91
        1
 62
     0
 92
       -2
340
0
 93
        0
 40
0.045
309
GRIDFORMAT_END
 95
        8
302
GRIDFORMAT
  1
GRIDFORMAT_BEGIN
 90
        0
 91
        1
 62
     0
 92
       -2
340
0
 93
        0
 40
0.045
309
GRIDFORMAT_END
 95
       16
302
GRIDFORMAT
  1
GRIDFORMAT_BEGIN
 90
        0
 91
        1
 62
     0
 92
       -2
340
0
 93
        0
 40
0.045
309
GRIDFORMAT_END
 95
       32
302
GRIDFORMAT
  1
GRIDFORMAT_BEGIN
 90
        0
 91
        1
 62
     0
 92
       -2
340
0
 93
        0
 40
0.045
309
GRIDFORMAT_END
309
TABLEFORMAT_END
  1
CELLSTYLE_BEGIN
 90
        3
 91
        2
300
_DATA
309
CELLSTYLE_END
  0
XRECORD
  5
44A
102
{ACAD_REACTORS
330
449
102
}
330
449
100
AcDbXrecord
280
     1
102
ACAD_ROUNDTRIP_PRE2007_TABLESTYLE
 90
      512
 91
        0
  1

 92
      512
 93
        0
  2

 94
      512
 95
        0
  3

  0
ENDSEC
  0
EOF
