  0
SECTION
  2
HEADER
  9
$ACADVER
  1
AC1018
  9
$ACADMAINTVER
 70
     0
  9
$DWGCODEPAGE
  3
ANSI_932
  9
$LASTSAVEDBY
  1
小谷 浩和
  9
$INSBASE
 10
0.0
 20
0.0
 30
0.0
  9
$EXTMIN
 10
-9.388866225661161
 20
28.70302929262448
 30
0.0
  9
$EXTMAX
 10
1790.666793016886
 20
1230.251517200119
 30
0.0
  9
$LIMMIN
 10
0.0
 20
0.0
  9
$LIMMAX
 10
420.0
 20
297.0
  9
$ORTHOMODE
 70
     0
  9
$REGENMODE
 70
     1
  9
$FILLMODE
 70
     1
  9
$QTEXTMODE
 70
     0
  9
$MIRRTEXT
 70
     0
  9
$LTSCALE
 40
1.0
  9
$ATTMODE
 70
     1
  9
$TEXTSIZE
 40
2.5
  9
$TRACEWID
 40
1.0
  9
$TEXTSTYLE
  7
Standard
  9
$CLAYER
  8
0
  9
$CELTYPE
  6
ByLayer
  9
$CECOLOR
 62
   256
  9
$CELTSCALE
 40
1.0
  9
$DISPSILH
 70
     0
  9
$DIMSCALE
 40
1.0
  9
$DIMASZ
 40
2.5
  9
$DIMEXO
 40
0.625
  9
$DIMDLI
 40
3.75
  9
$DIMRND
 40
0.0
  9
$DIMDLE
 40
0.0
  9
$DIMEXE
 40
1.25
  9
$DIMTP
 40
0.0
  9
$DIMTM
 40
0.0
  9
$DIMTXT
 40
2.5
  9
$DIMCEN
 40
2.5
  9
$DIMTSZ
 40
0.0
  9
$DIMTOL
 70
     0
  9
$DIMLIM
 70
     0
  9
$DIMTIH
 70
     0
  9
$DIMTOH
 70
     0
  9
$DIMSE1
 70
     0
  9
$DIMSE2
 70
     0
  9
$DIMTAD
 70
     1
  9
$DIMZIN
 70
     8
  9
$DIMBLK
  1
OPEN
  9
$DIMASO
 70
     1
  9
$DIMSHO
 70
     1
  9
$DIMPOST
  1

  9
$DIMAPOST
  1

  9
$DIMALT
 70
     0
  9
$DIMALTD
 70
     3
  9
$DIMALTF
 40
0.03937007874016
  9
$DIMLFAC
 40
1.0
  9
$DIMTOFL
 70
     1
  9
$DIMTVP
 40
0.0
  9
$DIMTIX
 70
     0
  9
$DIMSOXD
 70
     0
  9
$DIMSAH
 70
     0
  9
$DIMBLK1
  1

  9
$DIMBLK2
  1

  9
$DIMSTYLE
  2
JIS-1
  9
$DIMCLRD
 70
     0
  9
$DIMCLRE
 70
     0
  9
$DIMCLRT
 70
     0
  9
$DIMTFAC
 40
1.0
  9
$DIMGAP
 40
0.625
  9
$DIMJUST
 70
     0
  9
$DIMSD1
 70
     0
  9
$DIMSD2
 70
     0
  9
$DIMTOLJ
 70
     0
  9
$DIMTZIN
 70
     8
  9
$DIMALTZ
 70
     0
  9
$DIMALTTZ
 70
     0
  9
$DIMUPT
 70
     0
  9
$DIMDEC
 70
     2
  9
$DIMTDEC
 70
     2
  9
$DIMALTU
 70
     2
  9
$DIMALTTD
 70
     3
  9
$DIMTXSTY
  7
Standard
  9
$DIMAUNIT
 70
     0
  9
$DIMADEC
 70
     0
  9
$DIMALTRND
 40
0.0
  9
$DIMAZIN
 70
     0
  9
$DIMDSEP
 70
    44
  9
$DIMATFIT
 70
     3
  9
$DIMFRAC
 70
     0
  9
$DIMLDRBLK
  1
OPEN
  9
$DIMLUNIT
 70
     2
  9
$DIMLWD
 70
    -2
  9
$DIMLWE
 70
    -2
  9
$DIMTMOVE
 70
     0
  9
$LUNITS
 70
     2
  9
$LUPREC
 70
     3
  9
$SKETCHINC
 40
1.0
  9
$FILLETRAD
 40
10.0
  9
$AUNITS
 70
     0
  9
$AUPREC
 70
     0
  9
$MENU
  1
.
  9
$ELEVATION
 40
0.0
  9
$PELEVATION
 40
0.0
  9
$THICKNESS
 40
0.0
  9
$LIMCHECK
 70
     0
  9
$CHAMFERA
 40
10.0
  9
$CHAMFERB
 40
10.0
  9
$CHAMFERC
 40
20.0
  9
$CHAMFERD
 40
0.0
  9
$SKPOLY
 70
     0
  9
$TDCREATE
 40
2455023.012359514
  9
$TDUCREATE
 40
2455022.637359514
  9
$TDUPDATE
 40
2457242.590527581
  9
$TDUUPDATE
 40
2457242.215527581
  9
$TDINDWG
 40
0.0145262847
  9
$TDUSRTIMER
 40
2457242.215400961
  9
$USRTIMER
 70
     1
  9
$ANGBASE
 50
0.0
  9
$ANGDIR
 70
     0
  9
$PDMODE
 70
     0
  9
$PDSIZE
 40
0.0
  9
$PLINEWID
 40
0.0
  9
$SPLFRAME
 70
     0
  9
$SPLINETYPE
 70
     6
  9
$SPLINESEGS
 70
     8
  9
$HANDSEED
  5
595
  9
$SURFTAB1
 70
     6
  9
$SURFTAB2
 70
     6
  9
$SURFTYPE
 70
     6
  9
$SURFU
 70
     6
  9
$SURFV
 70
     6
  9
$UCSBASE
  2

  9
$UCSNAME
  2

  9
$UCSORG
 10
0.0
 20
0.0
 30
0.0
  9
$UCSXDIR
 10
1.0
 20
0.0
 30
0.0
  9
$UCSYDIR
 10
0.0
 20
1.0
 30
0.0
  9
$UCSORTHOREF
  2

  9
$UCSORTHOVIEW
 70
     0
  9
$UCSORGTOP
 10
0.0
 20
0.0
 30
0.0
  9
$UCSORGBOTTOM
 10
0.0
 20
0.0
 30
0.0
  9
$UCSORGLEFT
 10
0.0
 20
0.0
 30
0.0
  9
$UCSORGRIGHT
 10
0.0
 20
0.0
 30
0.0
  9
$UCSORGFRONT
 10
0.0
 20
0.0
 30
0.0
  9
$UCSORGBACK
 10
0.0
 20
0.0
 30
0.0
  9
$PUCSBASE
  2

  9
$PUCSNAME
  2

  9
$PUCSORG
 10
0.0
 20
0.0
 30
0.0
  9
$PUCSXDIR
 10
1.0
 20
0.0
 30
0.0
  9
$PUCSYDIR
 10
0.0
 20
1.0
 30
0.0
  9
$PUCSORTHOREF
  2

  9
$PUCSORTHOVIEW
 70
     0
  9
$PUCSORGTOP
 10
0.0
 20
0.0
 30
0.0
  9
$PUCSORGBOTTOM
 10
0.0
 20
0.0
 30
0.0
  9
$PUCSORGLEFT
 10
0.0
 20
0.0
 30
0.0
  9
$PUCSORGRIGHT
 10
0.0
 20
0.0
 30
0.0
  9
$PUCSORGFRONT
 10
0.0
 20
0.0
 30
0.0
  9
$PUCSORGBACK
 10
0.0
 20
0.0
 30
0.0
  9
$USERI1
 70
     0
  9
$USERI2
 70
     0
  9
$USERI3
 70
     0
  9
$USERI4
 70
     0
  9
$USERI5
 70
     0
  9
$USERR1
 40
0.0
  9
$USERR2
 40
0.0
  9
$USERR3
 40
0.0
  9
$USERR4
 40
0.0
  9
$USERR5
 40
0.0
  9
$WORLDVIEW
 70
     1
  9
$SHADEDGE
 70
     3
  9
$SHADEDIF
 70
    70
  9
$TILEMODE
 70
     1
  9
$MAXACTVP
 70
    64
  9
$PINSBASE
 10
0.0
 20
0.0
 30
0.0
  9
$PLIMCHECK
 70
     0
  9
$PEXTMIN
 10
1.000000000000000E+20
 20
1.000000000000000E+20
 30
1.000000000000000E+20
  9
$PEXTMAX
 10
-1.000000000000000E+20
 20
-1.000000000000000E+20
 30
-1.000000000000000E+20
  9
$PLIMMIN
 10
0.0
 20
0.0
  9
$PLIMMAX
 10
0.0
 20
0.0
  9
$UNITMODE
 70
     0
  9
$VISRETAIN
 70
     1
  9
$PLINEGEN
 70
     0
  9
$PSLTSCALE
 70
     1
  9
$TREEDEPTH
 70
  3020
  9
$CMLSTYLE
  2
Standard
  9
$CMLJUST
 70
     0
  9
$CMLSCALE
 40
20.0
  9
$PROXYGRAPHICS
 70
     1
  9
$MEASUREMENT
 70
     1
  9
$CELWEIGHT
370
    -1
  9
$ENDCAPS
280
     0
  9
$JOINSTYLE
280
     0
  9
$LWDISPLAY
290
     0
  9
$INSUNITS
 70
     4
  9
$HYPERLINKBASE
  1

  9
$STYLESHEET
  1

  9
$XEDIT
290
     1
  9
$CEPSNTYPE
380
     0
  9
$PSTYLEMODE
290
     0
  9
$FINGERPRINTGUID
  2
{EC6BB858-51AA-46EC-B484-6C9CC7AB3E2E}
  9
$VERSIONGUID
  2
{FAEB1C32-E019-11D5-929B-00C0DF256EC4}
  9
$EXTNAMES
290
     1
  9
$PSVPSCALE
 40
0.0
  9
$OLESTARTUP
290
     0
  9
$SORTENTS
280
   127
  9
$INDEXCTL
280
     0
  9
$HIDETEXT
280
     1
  9
$XCLIPFRAME
290
     0
  9
$HALOGAP
280
     0
  9
$OBSCOLOR
 70
   257
  9
$OBSLTYPE
280
     0
  9
$INTERSECTIONDISPLAY
280
     0
  9
$INTERSECTIONCOLOR
 70
   257
  9
$DIMASSOC
280
     2
  9
$PROJECTNAME
  1

  0
ENDSEC
  0
SECTION
  2
CLASSES
  0
CLASS
  1
ACDBDICTIONARYWDFLT
  2
AcDbDictionaryWithDefault
  3
ObjectDBX Classes
 90
        0
 91
        4
280
     0
281
     0
  0
CLASS
  1
VISUALSTYLE
  2
AcDbVisualStyle
  3
ObjectDBX Classes
 90
     4095
 91
        4
280
     0
281
     0
  0
CLASS
  1
TABLESTYLE
  2
AcDbTableStyle
  3
ObjectDBX Classes
 90
     4095
 91
        4
280
     0
281
     0
  0
CLASS
  1
DICTIONARYVAR
  2
AcDbDictionaryVar
  3
ObjectDBX Classes
 90
        0
 91
        4
280
     0
281
     0
  0
CLASS
  1
SCALE
  2
AcDbScale
  3
ObjectDBX Classes
 90
     1153
 91
        4
280
     0
281
     0
  0
CLASS
  1
CELLSTYLEMAP
  2
AcDbCellStyleMap
  3
ObjectDBX Classes
 90
     1152
 91
        4
280
     0
281
     0
  0
CLASS
  1
RASTERVARIABLES
  2
AcDbRasterVariables
  3
ISM
 90
        0
 91
        4
280
     0
281
     0
  0
CLASS
  1
DIMASSOC
  2
AcDbDimAssoc
  3
"AcDbDimAssoc|Product Desc:     AcDim ARX App For Dimension|Company:          Autodesk, Inc.|WEB Address:      www.autodesk.com"
 90
        0
 91
        4
280
     0
281
     0
  0
CLASS
  1
MATERIAL
  2
AcDbMaterial
  3
ObjectDBX Classes
 90
     1153
 91
        4
280
     0
281
     0
  0
CLASS
  1
SUN
  2
AcDbSun
  3
SCENEOE
 90
     1153
 91
        4
280
     0
281
     0
  0
CLASS
  1
MLEADERSTYLE
  2
AcDbMLeaderStyle
  3
ACDB_MLEADERSTYLE_CLASS
 90
     4095
 91
        4
280
     0
281
     0
  0
CLASS
  1
SORTENTSTABLE
  2
AcDbSortentsTable
  3
ObjectDBX Classes
 90
        0
 91
        4
280
     0
281
     0
  0
ENDSEC
  0
SECTION
  2
TABLES
  0
TABLE
  2
VPORT
  5
8
330
0
100
AcDbSymbolTable
 70
     1
  0
VPORT
  5
29
330
8
100
AcDbSymbolTableRecord
100
AcDbViewportTableRecord
  2
*Active
 70
     0
 10
0.0
 20
0.0
 11
1.0
 21
1.0
 12
667.1233989570909
 22
615.7825166932672
 13
0.0
 23
0.0
 14
10.0
 24
10.0
 15
10.0
 25
10.0
 16
0.0
 26
0.0
 36
1.0
 17
-134.1869158878508
 27
0.0
 37
0.0
 40
1840.106591302806
 41
1.664884135472371
 42
50.0
 43
0.0
 44
0.0
 50
0.0
 51
0.0
 71
    16
 72
  1000
 73
     1
 74
     3
 75
     0
 76
     0
 77
     0
 78
     0
281
     0
 65
     1
110
0.0
120
0.0
130
0.0
111
1.0
121
0.0
131
0.0
112
0.0
122
1.0
132
0.0
 79
     0
146
0.0
  0
ENDTAB
  0
TABLE
  2
LTYPE
  5
5
330
0
100
AcDbSymbolTable
 70
     2
  0
LTYPE
  5
14
330
5
100
AcDbSymbolTableRecord
100
AcDbLinetypeTableRecord
  2
ByBlock
 70
     0
  3

 72
    65
 73
     0
 40
0.0
  0
LTYPE
  5
15
330
5
100
AcDbSymbolTableRecord
100
AcDbLinetypeTableRecord
  2
ByLayer
 70
     0
  3

 72
    65
 73
     0
 40
0.0
  0
LTYPE
  5
16
330
5
100
AcDbSymbolTableRecord
100
AcDbLinetypeTableRecord
  2
Continuous
 70
     0
  3
Solid line
 72
    65
 73
     0
 40
0.0
  0
LTYPE
  5
E2
330
5
100
AcDbSymbolTableRecord
100
AcDbLinetypeTableRecord
  2
CENTER
 70
     0
  3
 Center ____ _ ____ _ ____ _ ____ _ ____ _ ____
 72
    65
 73
     4
 40
2.0
 49
1.25
 74
     0
 49
-0.25
 74
     0
 49
0.25
 74
     0
 49
-0.25
 74
     0
  0
ENDTAB
  0
TABLE
  2
LAYER
  5
2
102
{ACAD_XDICTIONARY
360
25B
102
}
330
0
100
AcDbSymbolTable
 70
     5
  0
LAYER
  5
10
330
2
100
AcDbSymbolTableRecord
100
AcDbLayerTableRecord
  2
0
 70
     0
 62
     7
  6
Continuous
370
    -3
390
F
  0
LAYER
  5
7E
330
2
100
AcDbSymbolTableRecord
100
AcDbLayerTableRecord
  2
Defpoints
 70
     0
 62
     7
  6
Continuous
290
     0
370
    -3
390
F
  0
LAYER
  5
DE
330
2
100
AcDbSymbolTableRecord
100
AcDbLayerTableRecord
  2
C2
 70
     0
 62
     1
  6
CENTER
370
    -3
390
F
  0
LAYER
  5
E3
330
2
100
AcDbSymbolTableRecord
100
AcDbLayerTableRecord
  2
C4
 70
     0
 62
     3
  6
Continuous
370
    -3
390
F
  0
LAYER
  5
E4
330
2
100
AcDbSymbolTableRecord
100
AcDbLayerTableRecord
  2
C寸法
 70
     0
 62
     4
  6
Continuous
370
    -3
390
F
  0
ENDTAB
  0
TABLE
  2
STYLE
  5
3
330
0
100
AcDbSymbolTable
 70
     2
  0
STYLE
  5
11
330
3
100
AcDbSymbolTableRecord
100
AcDbTextStyleTableRecord
  2
Standard
 70
     0
 40
0.138
 41
1.0
 50
0.0
 71
     0
 42
2.5
  3
arial.ttf
  4

1001
ACAD
1000
Arial
1071
        0
  0
STYLE
  5
F3
330
3
100
AcDbSymbolTableRecord
100
AcDbTextStyleTableRecord
  2
KANJI
 70
     0
 40
0.0
 41
1.0
 50
0.0
 71
     0
 42
2.5
  3
romans
  4
bigfont
  0
ENDTAB
  0
TABLE
  2
VIEW
  5
6
330
0
100
AcDbSymbolTable
 70
     0
  0
ENDTAB
  0
TABLE
  2
UCS
  5
7
330
0
100
AcDbSymbolTable
 70
     0
  0
ENDTAB
  0
TABLE
  2
APPID
  5
9
330
0
100
AcDbSymbolTable
 70
    10
  0
APPID
  5
12
330
9
100
AcDbSymbolTableRecord
100
AcDbRegAppTableRecord
  2
ACAD
 70
     0
  0
APPID
  5
EE
330
9
100
AcDbSymbolTableRecord
100
AcDbRegAppTableRecord
  2
ACAD_DSTYLE_DIMBREAK
 70
     0
  0
APPID
  5
EF
330
9
100
AcDbSymbolTableRecord
100
AcDbRegAppTableRecord
  2
ACAD_DSTYLE_DIMJAG
 70
     0
  0
APPID
  5
F0
330
9
100
AcDbSymbolTableRecord
100
AcDbRegAppTableRecord
  2
ACAD_DSTYLE_DIMTALN
 70
     0
  0
APPID
  5
F1
330
9
100
AcDbSymbolTableRecord
100
AcDbRegAppTableRecord
  2
ACAD_NAV_VCDISPLAY
 70
     0
  0
APPID
  5
F2
330
9
100
AcDbSymbolTableRecord
100
AcDbRegAppTableRecord
  2
PLOTTRANSPARENCY
 70
     0
  0
APPID
  5
3B5
330
9
100
AcDbSymbolTableRecord
100
AcDbRegAppTableRecord
  2
ACAD_DSTYLE_DIMRADIAL_EXTENSION
 70
     0
  0
APPID
  5
550
330
9
100
AcDbSymbolTableRecord
100
AcDbRegAppTableRecord
  2
ACAD_MLEADERVER
 70
     0
  0
APPID
  5
570
330
9
100
AcDbSymbolTableRecord
100
AcDbRegAppTableRecord
  2
ACAD_DSTYLE_DIMFLIPARROW_SYMBOL
 70
     0
  0
APPID
  5
571
330
9
100
AcDbSymbolTableRecord
100
AcDbRegAppTableRecord
  2
ACAD_DSTYLE_DIMFLIPARROW_WHICH_SYMBOL
 70
     0
  0
ENDTAB
  0
TABLE
  2
DIMSTYLE
  5
A
330
0
100
AcDbSymbolTable
 70
     5
100
AcDbDimStyleTable
  0
DIMSTYLE
105
27
330
A
100
AcDbSymbolTableRecord
100
AcDbDimStyleTableRecord
  2
ISO-25
 70
     0
 41
2.5
 42
0.625
 43
3.75
 44
1.25
 73
     0
 74
     0
 77
     1
 78
     8
140
2.5
141
2.5
143
0.03937007874016
147
0.625
171
     3
172
     1
178
     0
271
     2
272
     2
274
     3
278
    44
283
     0
284
     8
340
11
  0
DIMSTYLE
105
72
330
A
100
AcDbSymbolTableRecord
100
AcDbDimStyleTableRecord
  2
GB-1
 70
     0
 41
2.5
 42
0.625
 43
3.75
 44
1.25
 73
     0
 74
     0
 77
     1
 78
     8
140
2.5
141
2.5
143
0.03937007874016
147
0.625
171
     3
172
     1
178
     0
271
     2
272
     2
274
     3
278
    44
283
     0
284
     8
340
11
341
76
342
76
  0
DIMSTYLE
105
8E
102
{ACAD_REACTORS
330
3A6
330
3B6
330
3C1
330
526
102
}
330
A
100
AcDbSymbolTableRecord
100
AcDbDimStyleTableRecord
  2
JIS-1
 70
     0
 41
2.5
 42
0.625
 43
3.75
 44
1.25
 73
     0
 74
     0
 77
     1
 78
     8
140
2.5
141
2.5
143
0.03937007874016
147
0.625
171
     3
172
     1
178
     0
271
     2
272
     2
274
     3
278
    44
283
     0
284
     8
340
11
341
90
342
90
  0
DIMSTYLE
105
E5
330
A
100
AcDbSymbolTableRecord
100
AcDbDimStyleTableRecord
  2
Standard
 70
     0
178
     0
340
11
  0
DIMSTYLE
105
E7
102
{ACAD_REACTORS
330
2EE
330
2EF
330
2F0
330
2F1
330
2F2
330
2F4
330
2F5
330
2F6
330
2F7
330
2FB
330
2FF
330
530
330
531
102
}
330
A
100
AcDbSymbolTableRecord
100
AcDbDimStyleTableRecord
  2
実寸
 70
     0
 41
25.0
 42
10.0
 43
6.0
 44
0.0
 47
5.0
 73
     0
 74
     0
 77
     1
 78
     8
140
25.0
141
0.0
144
5.0
147
5.0
178
     0
271
     1
272
     1
284
     8
340
11
341
90
342
90
1001
ACAD_DSTYLE_DIMBREAK
1070
   391
1040
0.125
1001
ACAD_DSTYLE_DIMJAG
1070
   388
1040
1.5
1001
ACAD_DSTYLE_DIMTALN
1070
   392
1070
     0
  0
ENDTAB
  0
TABLE
  2
BLOCK_RECORD
  5
1
330
0
100
AcDbSymbolTable
 70
    23
  0
BLOCK_RECORD
  5
1F
330
1
100
AcDbSymbolTableRecord
100
AcDbBlockTableRecord
  2
*Model_Space
340
22
  0
BLOCK_RECORD
  5
1B
330
1
100
AcDbSymbolTableRecord
100
AcDbBlockTableRecord
  2
*Paper_Space
340
1E
  0
BLOCK_RECORD
  5
23
330
1
100
AcDbSymbolTableRecord
100
AcDbBlockTableRecord
  2
*Paper_Space0
340
26
  0
BLOCK_RECORD
  5
76
330
1
100
AcDbSymbolTableRecord
100
AcDbBlockTableRecord
  2
_CLOSED
340
0
  0
BLOCK_RECORD
  5
90
330
1
100
AcDbSymbolTableRecord
100
AcDbBlockTableRecord
  2
_OPEN
340
0
102
{BLKREFS
331
306
331
307
331
315
331
316
331
321
331
322
331
32D
331
32E
331
339
331
33A
331
345
331
346
331
351
331
352
331
360
331
361
331
36C
331
36D
331
378
331
379
331
386
331
387
331
394
331
395
331
3A0
331
3A1
331
3AF
331
3B0
331
3BE
331
3CA
331
3D5
331
56C
331
538
331
539
331
547
331
548
102
}
  0
BLOCK_RECORD
  5
300
330
1
100
AcDbSymbolTableRecord
100
AcDbBlockTableRecord
  2
*D3
340
0
  0
BLOCK_RECORD
  5
30C
330
1
100
AcDbSymbolTableRecord
100
AcDbBlockTableRecord
  2
*D4
340
0
  0
BLOCK_RECORD
  5
31B
330
1
100
AcDbSymbolTableRecord
100
AcDbBlockTableRecord
  2
*D5
340
0
  0
BLOCK_RECORD
  5
327
330
1
100
AcDbSymbolTableRecord
100
AcDbBlockTableRecord
  2
*D6
340
0
  0
BLOCK_RECORD
  5
333
330
1
100
AcDbSymbolTableRecord
100
AcDbBlockTableRecord
  2
*D7
340
0
  0
BLOCK_RECORD
  5
33F
330
1
100
AcDbSymbolTableRecord
100
AcDbBlockTableRecord
  2
*D8
340
0
  0
BLOCK_RECORD
  5
34B
330
1
100
AcDbSymbolTableRecord
100
AcDbBlockTableRecord
  2
*D9
340
0
  0
BLOCK_RECORD
  5
357
330
1
100
AcDbSymbolTableRecord
100
AcDbBlockTableRecord
  2
*D10
340
0
  0
BLOCK_RECORD
  5
366
330
1
100
AcDbSymbolTableRecord
100
AcDbBlockTableRecord
  2
*D11
340
0
  0
BLOCK_RECORD
  5
372
330
1
100
AcDbSymbolTableRecord
100
AcDbBlockTableRecord
  2
*D12
340
0
  0
BLOCK_RECORD
  5
37E
330
1
100
AcDbSymbolTableRecord
100
AcDbBlockTableRecord
  2
*D13
340
0
  0
BLOCK_RECORD
  5
38C
330
1
100
AcDbSymbolTableRecord
100
AcDbBlockTableRecord
  2
*D14
340
0
  0
BLOCK_RECORD
  5
39A
330
1
100
AcDbSymbolTableRecord
100
AcDbBlockTableRecord
  2
*D15
340
0
  0
BLOCK_RECORD
  5
3A7
330
1
100
AcDbSymbolTableRecord
100
AcDbBlockTableRecord
  2
*D16
340
0
  0
BLOCK_RECORD
  5
3B9
330
1
100
AcDbSymbolTableRecord
100
AcDbBlockTableRecord
  2
*D17
340
0
  0
BLOCK_RECORD
  5
3C4
330
1
100
AcDbSymbolTableRecord
100
AcDbBlockTableRecord
  2
*D18
340
0
  0
BLOCK_RECORD
  5
3CF
330
1
100
AcDbSymbolTableRecord
100
AcDbBlockTableRecord
  2
*D19
340
0
  0
BLOCK_RECORD
  5
528
330
1
100
AcDbSymbolTableRecord
100
AcDbBlockTableRecord
  2
*D20
340
0
  0
BLOCK_RECORD
  5
532
330
1
100
AcDbSymbolTableRecord
100
AcDbBlockTableRecord
  2
*D21
340
0
  0
BLOCK_RECORD
  5
53E
330
1
100
AcDbSymbolTableRecord
100
AcDbBlockTableRecord
  2
*D22
340
0
  0
ENDTAB
  0
ENDSEC
  0
SECTION
  2
BLOCKS
  0
BLOCK
  5
20
330
1F
100
AcDbEntity
  8
0
100
AcDbBlockBegin
  2
*Model_Space
 70
     0
 10
0.0
 20
0.0
 30
0.0
  3
*Model_Space
  1
*Model_Space
  0
ENDBLK
  5
21
330
1F
100
AcDbEntity
  8
0
100
AcDbBlockEnd
  0
BLOCK
  5
1C
330
1B
100
AcDbEntity
 67
     1
  8
0
100
AcDbBlockBegin
  2
*Paper_Space
 70
     0
 10
0.0
 20
0.0
 30
0.0
  3
*Paper_Space
  1
*Paper_Space
  0
ENDBLK
  5
1D
330
1B
100
AcDbEntity
 67
     1
  8
0
100
AcDbBlockEnd
  0
BLOCK
  5
24
330
23
100
AcDbEntity
  8
0
100
AcDbBlockBegin
  2
*Paper_Space0
 70
     0
 10
0.0
 20
0.0
 30
0.0
  3
*Paper_Space0
  1
*Paper_Space0
  0
ENDBLK
  5
25
330
23
100
AcDbEntity
  8
0
100
AcDbBlockEnd
  0
BLOCK
  5
77
330
76
100
AcDbEntity
  8
0
100
AcDbBlockBegin
  2
_CLOSED
 70
     0
 10
0.0
 20
0.0
 30
0.0
  3
_CLOSED
  1
_CLOSED
  0
LINE
  5
78
330
76
100
AcDbEntity
  8
0
  6
ByBlock
 62
     0
370
    -2
100
AcDbLine
 10
-1.0
 20
0.166667
 30
0.0
 11
0.0
 21
0.0
 31
0.0
  0
LINE
  5
79
330
76
100
AcDbEntity
  8
0
  6
ByBlock
 62
     0
370
    -2
100
AcDbLine
 10
0.0
 20
0.0
 30
0.0
 11
-1.0
 21
-0.166667
 31
0.0
  0
LINE
  5
7A
330
76
100
AcDbEntity
  8
0
  6
ByBlock
 62
     0
370
    -2
100
AcDbLine
 10
-1.0
 20
0.166667
 30
0.0
 11
-1.0
 21
-0.166667
 31
0.0
  0
LINE
  5
7B
330
76
100
AcDbEntity
  8
0
  6
ByBlock
 62
     0
370
    -2
100
AcDbLine
 10
0.0
 20
0.0
 30
0.0
 11
-1.0
 21
0.0
 31
0.0
  0
ENDBLK
  5
7C
330
76
100
AcDbEntity
  8
0
100
AcDbBlockEnd
  0
BLOCK
  5
91
330
90
100
AcDbEntity
  8
0
100
AcDbBlockBegin
  2
_OPEN
 70
     0
 10
0.0
 20
0.0
 30
0.0
  3
_OPEN
  1
_OPEN
  0
LINE
  5
92
330
90
100
AcDbEntity
  8
0
  6
ByBlock
 62
     0
370
    -2
100
AcDbLine
 10
-1.0
 20
0.166667
 30
0.0
 11
0.0
 21
0.0
 31
0.0
  0
LINE
  5
93
330
90
100
AcDbEntity
  8
0
  6
ByBlock
 62
     0
370
    -2
100
AcDbLine
 10
-1.0
 20
-0.166667
 30
0.0
 11
0.0
 21
0.0
 31
0.0
  0
LINE
  5
94
330
90
100
AcDbEntity
  8
0
  6
ByBlock
 62
     0
370
    -2
100
AcDbLine
 10
0.0
 20
0.0
 30
0.0
 11
-1.0
 21
0.0
 31
0.0
  0
ENDBLK
  5
95
330
90
100
AcDbEntity
  8
0
100
AcDbBlockEnd
  0
BLOCK
  5
301
330
300
100
AcDbEntity
  8
0
100
AcDbBlockBegin
  2
*D3
 70
     1
 10
0.0
 20
0.0
 30
0.0
  3
*D3
  1
*D18
  0
LINE
  5
303
330
300
100
AcDbEntity
  8
C寸法
 62
     0
370
    -2
100
AcDbLine
 10
992.2256536840086
 20
988.3695305359796
 30
0.0
 11
1082.225653684009
 21
988.3695305359796
 31
0.0
  0
LINE
  5
304
330
300
100
AcDbEntity
  8
C寸法
 62
     0
370
    -2
100
AcDbLine
 10
994.1519114610337
 20
858.3695305388915
 30
0.0
 11
1082.225653684009
 21
858.3695305388915
 31
0.0
  0
LINE
  5
305
330
300
100
AcDbEntity
  8
C寸法
 62
     0
370
    -2
100
AcDbLine
 10
1082.225653684009
 20
963.3695305359796
 30
0.0
 11
1082.225653684009
 21
883.3695305388915
 31
0.0
  0
INSERT
  5
306
330
300
100
AcDbEntity
  8
C寸法
 62
     0
370
    -2
100
AcDbBlockReference
  2
_OPEN
 10
1082.225653684009
 20
988.3695305359796
 30
0.0
 41
25.0
 42
25.0
 43
25.0
 50
90.0
  0
INSERT
  5
307
330
300
100
AcDbEntity
  8
C寸法
 62
     0
370
    -2
100
AcDbBlockReference
  2
_OPEN
 10
1082.225653684009
 20
858.3695305388915
 30
0.0
 41
25.0
 42
25.0
 43
25.0
 50
270.0
  0
MTEXT
  5
308
330
300
100
AcDbEntity
  8
C寸法
 62
     0
370
    13
100
AcDbMText
 10
1064.725653684009
 20
923.3695305374356
 30
0.0
 40
25.0
 41
0.0
 71
     5
 72
     1
  1
\A1;130
  7
KANJI
 11
0.0
 21
1.0
 31
0.0
 73
     1
 44
1.0
  0
POINT
  5
309
330
300
100
AcDbEntity
  8
Defpoints
 62
     0
100
AcDbPoint
 10
982.2256536840086
 20
988.3695305359796
 30
0.0
  0
POINT
  5
30A
330
300
100
AcDbEntity
  8
Defpoints
 62
     0
100
AcDbPoint
 10
984.1519114610337
 20
858.3695305388915
 30
0.0
  0
POINT
  5
30B
330
300
100
AcDbEntity
  8
Defpoints
 62
     0
100
AcDbPoint
 10
1082.225653684009
 20
858.3695305388915
 30
0.0
  0
ENDBLK
  5
302
330
300
100
AcDbEntity
  8
0
100
AcDbBlockEnd
  0
BLOCK
  5
30D
330
30C
100
AcDbEntity
  8
0
100
AcDbBlockBegin
  2
*D4
 70
     1
 10
0.0
 20
0.0
 30
0.0
  3
*D4
  1
*D19
  0
LINE
  5
30F
330
30C
100
AcDbEntity
  8
C寸法
 62
     0
370
    -2
100
AcDbLine
 10
992.2276536761146
 20
988.3695305359796
 30
0.0
 11
1132.225653684009
 21
988.3695305359796
 31
0.0
  0
LINE
  5
310
330
30C
100
AcDbEntity
  8
C寸法
 62
     0
370
    -2
100
AcDbLine
 10
992.2276536761146
 20
1003.36953053598
 30
0.0
 11
1132.225653684009
 21
1003.36953053598
 31
0.0
  0
LINE
  5
311
330
30C
100
AcDbEntity
  8
C寸法
 62
     0
370
    -2
100
AcDbLine
 10
1132.225653684009
 20
988.3695305359796
 30
0.0
 11
1132.225653684009
 21
891.2787567264555
 31
0.0
  0
LINE
  5
312
330
30C
100
AcDbEntity
  8
C寸法
 62
     0
370
    -2
100
AcDbLine
 10
1132.225653684009
 20
988.3695305359796
 30
0.0
 11
1132.225653684009
 21
1003.36953053598
 31
0.0
  0
LINE
  5
313
330
30C
100
AcDbEntity
  8
C寸法
 62
     0
370
    -2
100
AcDbLine
 10
1132.225653684009
 20
963.3695305359796
 30
0.0
 11
1132.225653684009
 21
938.3695305359796
 31
0.0
  0
LINE
  5
314
330
30C
100
AcDbEntity
  8
C寸法
 62
     0
370
    -2
100
AcDbLine
 10
1132.225653684009
 20
1028.36953053598
 30
0.0
 11
1132.225653684009
 21
1053.36953053598
 31
0.0
  0
INSERT
  5
315
330
30C
100
AcDbEntity
  8
C寸法
 62
     0
370
    -2
100
AcDbBlockReference
  2
_OPEN
 10
1132.225653684009
 20
988.3695305359796
 30
0.0
 41
25.0
 42
25.0
 43
25.0
 50
90.0
  0
INSERT
  5
316
330
30C
100
AcDbEntity
  8
C寸法
 62
     0
370
    -2
100
AcDbBlockReference
  2
_OPEN
 10
1132.225653684009
 20
1003.36953053598
 30
0.0
 41
25.0
 42
25.0
 43
25.0
 50
270.0
  0
MTEXT
  5
317
330
30C
100
AcDbEntity
  8
C寸法
 62
     0
370
    13
100
AcDbMText
 10
1114.725653684009
 20
914.8241436312175
 30
0.0
 40
25.0
 41
0.0
 71
     5
 72
     1
  1
\A1;15
  7
KANJI
 11
0.0
 21
1.0
 31
0.0
 73
     1
 44
1.0
  0
POINT
  5
318
330
30C
100
AcDbEntity
  8
Defpoints
 62
     0
100
AcDbPoint
 10
982.2276536761146
 20
988.3695305359796
 30
0.0
  0
POINT
  5
319
330
30C
100
AcDbEntity
  8
Defpoints
 62
     0
100
AcDbPoint
 10
982.2276536761146
 20
1003.36953053598
 30
0.0
  0
POINT
  5
31A
330
30C
100
AcDbEntity
  8
Defpoints
 62
     0
100
AcDbPoint
 10
1132.225653684009
 20
1003.36953053598
 30
0.0
  0
ENDBLK
  5
30E
330
30C
100
AcDbEntity
  8
0
100
AcDbBlockEnd
  0
BLOCK
  5
31C
330
31B
100
AcDbEntity
  8
0
100
AcDbBlockBegin
  2
*D5
 70
     1
 10
0.0
 20
0.0
 30
0.0
  3
*D5
  1
*D20
  0
LINE
  5
31E
330
31B
100
AcDbEntity
  8
C寸法
 62
     0
370
    -2
100
AcDbLine
 10
953.0197936808981
 20
553.3695305359794
 30
0.0
 11
953.0197936808981
 21
413.3695305359793
 31
0.0
  0
LINE
  5
31F
330
31B
100
AcDbEntity
  8
C寸法
 62
     0
370
    -2
100
AcDbLine
 10
153.021793673008
 20
613.3695305365715
 30
0.0
 11
153.021793673008
 21
413.3695305359794
 31
0.0
  0
LINE
  5
320
330
31B
100
AcDbEntity
  8
C寸法
 62
     0
370
    -2
100
AcDbLine
 10
928.0197936808981
 20
413.3695305359793
 30
0.0
 11
178.021793673008
 21
413.3695305359794
 31
0.0
  0
INSERT
  5
321
330
31B
100
AcDbEntity
  8
C寸法
 62
     0
370
    -2
100
AcDbBlockReference
  2
_OPEN
 10
953.0197936808981
 20
413.3695305359793
 30
0.0
 41
25.0
 42
25.0
 43
25.0
 50
360.0
  0
INSERT
  5
322
330
31B
100
AcDbEntity
  8
C寸法
 62
     0
370
    -2
100
AcDbBlockReference
  2
_OPEN
 10
153.021793673008
 20
413.3695305359794
 30
0.0
 41
25.0
 42
25.0
 43
25.0
 50
180.0
  0
MTEXT
  5
323
330
31B
100
AcDbEntity
  8
C寸法
 62
     0
370
    13
100
AcDbMText
 10
553.0207936769531
 20
430.8695305359793
 30
0.0
 40
25.0
 41
0.0
 71
     5
 72
     1
  1
\A1;800
  7
KANJI
 73
     1
 44
1.0
  0
POINT
  5
324
330
31B
100
AcDbEntity
  8
Defpoints
 62
     0
100
AcDbPoint
 10
953.0197936808981
 20
563.3695305359794
 30
0.0
  0
POINT
  5
325
330
31B
100
AcDbEntity
  8
Defpoints
 62
     0
100
AcDbPoint
 10
153.021793673008
 20
623.3695305365715
 30
0.0
  0
POINT
  5
326
330
31B
100
AcDbEntity
  8
Defpoints
 62
     0
100
AcDbPoint
 10
153.021793673008
 20
413.3695305359794
 30
0.0
  0
ENDBLK
  5
31D
330
31B
100
AcDbEntity
  8
0
100
AcDbBlockEnd
  0
BLOCK
  5
328
330
327
100
AcDbEntity
  8
0
100
AcDbBlockBegin
  2
*D6
 70
     1
 10
0.0
 20
0.0
 30
0.0
  3
*D6
  1
*D21
  0
LINE
  5
32A
330
327
100
AcDbEntity
  8
C寸法
 62
     0
370
    -2
100
AcDbLine
 10
992.2276536761146
 20
1083.36953053598
 30
0.0
 11
1232.225653684009
 21
1083.36953053598
 31
0.0
  0
LINE
  5
32B
330
327
100
AcDbEntity
  8
C寸法
 62
     0
370
    -2
100
AcDbLine
 10
992.2256536841537
 20
563.3695305359794
 30
0.0
 11
1232.225653684009
 21
563.3695305359794
 31
0.0
  0
LINE
  5
32C
330
327
100
AcDbEntity
  8
C寸法
 62
     0
370
    -2
100
AcDbLine
 10
1232.225653684009
 20
1058.36953053598
 30
0.0
 11
1232.225653684009
 21
588.3695305359794
 31
0.0
  0
INSERT
  5
32D
330
327
100
AcDbEntity
  8
C寸法
 62
     0
370
    -2
100
AcDbBlockReference
  2
_OPEN
 10
1232.225653684009
 20
1083.36953053598
 30
0.0
 41
25.0
 42
25.0
 43
25.0
 50
90.0
  0
INSERT
  5
32E
330
327
100
AcDbEntity
  8
C寸法
 62
     0
370
    -2
100
AcDbBlockReference
  2
_OPEN
 10
1232.225653684009
 20
563.3695305359794
 30
0.0
 41
25.0
 42
25.0
 43
25.0
 50
270.0
  0
MTEXT
  5
32F
330
327
100
AcDbEntity
  8
C寸法
 62
     0
370
    13
100
AcDbMText
 10
1214.725653684009
 20
823.3695305359795
 30
0.0
 40
25.0
 41
0.0
 71
     5
 72
     1
  1
\A1;520
  7
KANJI
 11
0.0
 21
1.0
 31
0.0
 73
     1
 44
1.0
  0
POINT
  5
330
330
327
100
AcDbEntity
  8
Defpoints
 62
     0
100
AcDbPoint
 10
982.2276536761146
 20
1083.36953053598
 30
0.0
  0
POINT
  5
331
330
327
100
AcDbEntity
  8
Defpoints
 62
     0
100
AcDbPoint
 10
982.2256536841537
 20
563.3695305359794
 30
0.0
  0
POINT
  5
332
330
327
100
AcDbEntity
  8
Defpoints
 62
     0
100
AcDbPoint
 10
1232.225653684009
 20
563.3695305359794
 30
0.0
  0
ENDBLK
  5
329
330
327
100
AcDbEntity
  8
0
100
AcDbBlockEnd
  0
BLOCK
  5
334
330
333
100
AcDbEntity
  8
0
100
AcDbBlockBegin
  2
*D7
 70
     1
 10
0.0
 20
0.0
 30
0.0
  3
*D7
  1
*D22
  0
LINE
  5
336
330
333
100
AcDbEntity
  8
C寸法
 62
     0
370
    -2
100
AcDbLine
 10
953.0197936806899
 20
613.3696897519682
 30
0.0
 11
953.0197936806899
 21
463.3695305359794
 31
0.0
  0
LINE
  5
337
330
333
100
AcDbEntity
  8
C寸法
 62
     0
370
    -2
100
AcDbLine
 10
803.0177936794134
 20
553.3695305359794
 30
0.0
 11
803.0177936794134
 21
463.3695305359794
 31
0.0
  0
LINE
  5
338
330
333
100
AcDbEntity
  8
C寸法
 62
     0
370
    -2
100
AcDbLine
 10
928.0197936806899
 20
463.3695305359794
 30
0.0
 11
828.0177936794134
 21
463.3695305359794
 31
0.0
  0
INSERT
  5
339
330
333
100
AcDbEntity
  8
C寸法
 62
     0
370
    -2
100
AcDbBlockReference
  2
_OPEN
 10
953.0197936806899
 20
463.3695305359794
 30
0.0
 41
25.0
 42
25.0
 43
25.0
  0
INSERT
  5
33A
330
333
100
AcDbEntity
  8
C寸法
 62
     0
370
    -2
100
AcDbBlockReference
  2
_OPEN
 10
803.0177936794134
 20
463.3695305359794
 30
0.0
 41
25.0
 42
25.0
 43
25.0
 50
180.0
  0
MTEXT
  5
33B
330
333
100
AcDbEntity
  8
C寸法
 62
     0
370
    13
100
AcDbMText
 10
878.0187936800517
 20
480.8695305359794
 30
0.0
 40
25.0
 41
0.0
 71
     5
 72
     1
  1
\A1;150
  7
KANJI
 73
     1
 44
1.0
  0
POINT
  5
33C
330
333
100
AcDbEntity
  8
Defpoints
 62
     0
100
AcDbPoint
 10
953.0197936806899
 20
623.3696897519682
 30
0.0
  0
POINT
  5
33D
330
333
100
AcDbEntity
  8
Defpoints
 62
     0
100
AcDbPoint
 10
803.0177936794134
 20
563.3695305359794
 30
0.0
  0
POINT
  5
33E
330
333
100
AcDbEntity
  8
Defpoints
 62
     0
100
AcDbPoint
 10
803.0177936794134
 20
463.3695305359794
 30
0.0
  0
ENDBLK
  5
335
330
333
100
AcDbEntity
  8
0
100
AcDbBlockEnd
  0
BLOCK
  5
340
330
33F
100
AcDbEntity
  8
0
100
AcDbBlockBegin
  2
*D8
 70
     1
 10
0.0
 20
0.0
 30
0.0
  3
*D8
  1
*D23
  0
LINE
  5
342
330
33F
100
AcDbEntity
  8
C寸法
  6
ByBlock
 62
     0
370
    -2
100
AcDbLine
 10
992.2276536761146
 20
329.0695305358312
 30
0.0
 11
1132.225653684009
 21
329.0695305358312
 31
0.0
  0
LINE
  5
343
330
33F
100
AcDbEntity
  8
C寸法
  6
ByBlock
 62
     0
370
    -2
100
AcDbLine
 10
402.7296536784869
 20
129.0695305358311
 30
0.0
 11
1132.225653684009
 21
129.069530535831
 31
0.0
  0
LINE
  5
344
330
33F
100
AcDbEntity
  8
C寸法
  6
ByBlock
 62
     0
370
    -2
100
AcDbLine
 10
1132.225653684009
 20
304.0695305358312
 30
0.0
 11
1132.225653684009
 21
154.069530535831
 31
0.0
  0
INSERT
  5
345
330
33F
100
AcDbEntity
  8
C寸法
 62
     0
370
    -2
100
AcDbBlockReference
  2
_OPEN
 10
1132.225653684009
 20
329.0695305358312
 30
0.0
 41
25.0
 42
25.0
 43
25.0
 50
90.0
  0
INSERT
  5
346
330
33F
100
AcDbEntity
  8
C寸法
 62
     0
370
    -2
100
AcDbBlockReference
  2
_OPEN
 10
1132.225653684009
 20
129.069530535831
 30
0.0
 41
25.0
 42
25.0
 43
25.0
 50
270.0
  0
MTEXT
  5
347
330
33F
100
AcDbEntity
  8
C寸法
 62
     0
370
    13
100
AcDbMText
 10
1114.725653684009
 20
229.0695305358311
 30
0.0
 40
25.0
 41
0.0
 71
     5
 72
     1
  1
\A1;200
  7
KANJI
 11
0.0
 21
1.0
 31
0.0
 73
     1
 44
1.0
  0
POINT
  5
348
330
33F
100
AcDbEntity
  8
Defpoints
 62
     0
100
AcDbPoint
 10
982.2276536761146
 20
329.0695305358312
 30
0.0
  0
POINT
  5
349
330
33F
100
AcDbEntity
  8
Defpoints
 62
     0
100
AcDbPoint
 10
392.7296536784869
 20
129.0695305358311
 30
0.0
  0
POINT
  5
34A
330
33F
100
AcDbEntity
  8
Defpoints
 62
     0
100
AcDbPoint
 10
1132.225653684009
 20
129.069530535831
 30
0.0
  0
ENDBLK
  5
341
330
33F
100
AcDbEntity
  8
0
100
AcDbBlockEnd
  0
BLOCK
  5
34C
330
34B
100
AcDbEntity
  8
0
100
AcDbBlockBegin
  2
*D9
 70
     1
 10
0.0
 20
0.0
 30
0.0
  3
*D9
  1
*D24
  0
LINE
  5
34E
330
34B
100
AcDbEntity
  8
C寸法
 62
     0
370
    -2
100
AcDbLine
 10
992.2256536841537
 20
1003.36953053598
 30
0.0
 11
1182.225653684009
 21
1003.36953053598
 31
0.0
  0
LINE
  5
34F
330
34B
100
AcDbEntity
  8
C寸法
 62
     0
370
    -2
100
AcDbLine
 10
992.2276536761146
 20
1083.36953053598
 30
0.0
 11
1182.225653684009
 21
1083.36953053598
 31
0.0
  0
LINE
  5
350
330
34B
100
AcDbEntity
  8
C寸法
 62
     0
370
    -2
100
AcDbLine
 10
1182.225653684009
 20
1028.36953053598
 30
0.0
 11
1182.225653684009
 21
1058.36953053598
 31
0.0
  0
INSERT
  5
351
330
34B
100
AcDbEntity
  8
C寸法
 62
     0
370
    -2
100
AcDbBlockReference
  2
_OPEN
 10
1182.225653684009
 20
1003.36953053598
 30
0.0
 41
25.0
 42
25.0
 43
25.0
 50
270.0
  0
INSERT
  5
352
330
34B
100
AcDbEntity
  8
C寸法
 62
     0
370
    -2
100
AcDbBlockReference
  2
_OPEN
 10
1182.225653684009
 20
1083.36953053598
 30
0.0
 41
25.0
 42
25.0
 43
25.0
 50
90.0
  0
MTEXT
  5
353
330
34B
100
AcDbEntity
  8
C寸法
 62
     0
370
    13
100
AcDbMText
 10
1164.725653684009
 20
1043.36953053598
 30
0.0
 40
25.0
 41
0.0
 71
     5
 72
     1
  1
\A1;80
  7
KANJI
 11
0.0
 21
1.0
 31
0.0
 73
     1
 44
1.0
  0
POINT
  5
354
330
34B
100
AcDbEntity
  8
Defpoints
 62
     0
100
AcDbPoint
 10
982.2256536841537
 20
1003.36953053598
 30
0.0
  0
POINT
  5
355
330
34B
100
AcDbEntity
  8
Defpoints
 62
     0
100
AcDbPoint
 10
982.2276536761146
 20
1083.36953053598
 30
0.0
  0
POINT
  5
356
330
34B
100
AcDbEntity
  8
Defpoints
 62
     0
100
AcDbPoint
 10
1182.225653684009
 20
1083.36953053598
 30
0.0
  0
ENDBLK
  5
34D
330
34B
100
AcDbEntity
  8
0
100
AcDbBlockEnd
  0
BLOCK
  5
358
330
357
100
AcDbEntity
  8
0
100
AcDbBlockBegin
  2
*D10
 70
     1
 10
0.0
 20
0.0
 30
0.0
  3
*D10
  1
*D25
  0
LINE
  5
35A
330
357
100
AcDbEntity
  8
C寸法
 62
     0
370
    -2
100
AcDbLine
 10
992.2276536761146
 20
578.3695305359794
 30
0.0
 11
1132.225653684009
 21
578.3695305359794
 31
0.0
  0
LINE
  5
35B
330
357
100
AcDbEntity
  8
C寸法
 62
     0
370
    -2
100
AcDbLine
 10
992.2276536761146
 20
563.3695305359794
 30
0.0
 11
1132.225653684009
 21
563.3695305359794
 31
0.0
  0
LINE
  5
35C
330
357
100
AcDbEntity
  8
C寸法
 62
     0
370
    -2
100
AcDbLine
 10
1132.225653684009
 20
563.3695305359794
 30
0.0
 11
1132.225653684009
 21
466.2787567264555
 31
0.0
  0
LINE
  5
35D
330
357
100
AcDbEntity
  8
C寸法
 62
     0
370
    -2
100
AcDbLine
 10
1132.225653684009
 20
578.3695305359794
 30
0.0
 11
1132.225653684009
 21
563.3695305359794
 31
0.0
  0
LINE
  5
35E
330
357
100
AcDbEntity
  8
C寸法
 62
     0
370
    -2
100
AcDbLine
 10
1132.225653684009
 20
603.3695305359794
 30
0.0
 11
1132.225653684009
 21
628.3695305359794
 31
0.0
  0
LINE
  5
35F
330
357
100
AcDbEntity
  8
C寸法
 62
     0
370
    -2
100
AcDbLine
 10
1132.225653684009
 20
538.3695305359794
 30
0.0
 11
1132.225653684009
 21
513.3695305359794
 31
0.0
  0
INSERT
  5
360
330
357
100
AcDbEntity
  8
C寸法
 62
     0
370
    -2
100
AcDbBlockReference
  2
_OPEN
 10
1132.225653684009
 20
578.3695305359794
 30
0.0
 41
25.0
 42
25.0
 43
25.0
 50
270.0
  0
INSERT
  5
361
330
357
100
AcDbEntity
  8
C寸法
 62
     0
370
    -2
100
AcDbBlockReference
  2
_OPEN
 10
1132.225653684009
 20
563.3695305359794
 30
0.0
 41
25.0
 42
25.0
 43
25.0
 50
90.0
  0
MTEXT
  5
362
330
357
100
AcDbEntity
  8
C寸法
 62
     0
370
    13
100
AcDbMText
 10
1114.725653684009
 20
489.8241436312175
 30
0.0
 40
25.0
 41
0.0
 71
     5
 72
     1
  1
\A1;15
  7
KANJI
 11
0.0
 21
1.0
 31
0.0
 73
     1
 44
1.0
  0
POINT
  5
363
330
357
100
AcDbEntity
  8
Defpoints
 62
     0
100
AcDbPoint
 10
982.2276536761146
 20
578.3695305359794
 30
0.0
  0
POINT
  5
364
330
357
100
AcDbEntity
  8
Defpoints
 62
     0
100
AcDbPoint
 10
982.2276536761146
 20
563.3695305359794
 30
0.0
  0
POINT
  5
365
330
357
100
AcDbEntity
  8
Defpoints
 62
     0
100
AcDbPoint
 10
1132.225653684009
 20
563.3695305359794
 30
0.0
  0
ENDBLK
  5
359
330
357
100
AcDbEntity
  8
0
100
AcDbBlockEnd
  0
BLOCK
  5
367
330
366
100
AcDbEntity
  8
0
100
AcDbBlockBegin
  2
*D11
 70
     1
 10
0.0
 20
0.0
 30
0.0
  3
*D11
  1
*D26
  0
LINE
  5
369
330
366
100
AcDbEntity
  8
C寸法
 62
     0
370
    -2
100
AcDbLine
 10
902.225653683412
 20
1003.369530540323
 30
0.0
 11
1182.225653684009
 21
1003.369530540323
 31
0.0
  0
LINE
  5
36A
330
366
100
AcDbEntity
  8
C寸法
 62
     0
370
    -2
100
AcDbLine
 10
902.225714860173
 20
563.3695305360104
 30
0.0
 11
1182.225653684009
 21
563.3695305360104
 31
0.0
  0
LINE
  5
36B
330
366
100
AcDbEntity
  8
C寸法
 62
     0
370
    -2
100
AcDbLine
 10
1182.225653684009
 20
978.3695305403227
 30
0.0
 11
1182.225653684009
 21
588.3695305360104
 31
0.0
  0
INSERT
  5
36C
330
366
100
AcDbEntity
  8
C寸法
 62
     0
370
    -2
100
AcDbBlockReference
  2
_OPEN
 10
1182.225653684009
 20
1003.369530540323
 30
0.0
 41
25.0
 42
25.0
 43
25.0
 50
90.0
  0
INSERT
  5
36D
330
366
100
AcDbEntity
  8
C寸法
 62
     0
370
    -2
100
AcDbBlockReference
  2
_OPEN
 10
1182.225653684009
 20
563.3695305360104
 30
0.0
 41
25.0
 42
25.0
 43
25.0
 50
270.0
  0
MTEXT
  5
36E
330
366
100
AcDbEntity
  8
C寸法
 62
     0
370
    13
100
AcDbMText
 10
1164.725653684009
 20
783.3695305381666
 30
0.0
 40
25.0
 41
0.0
 71
     5
 72
     1
  1
\A1;440
  7
KANJI
 11
0.0
 21
1.0
 31
0.0
 73
     1
 44
1.0
  0
POINT
  5
36F
330
366
100
AcDbEntity
  8
Defpoints
 62
     0
100
AcDbPoint
 10
892.225653683412
 20
1003.369530540323
 30
0.0
  0
POINT
  5
370
330
366
100
AcDbEntity
  8
Defpoints
 62
     0
100
AcDbPoint
 10
892.225714860173
 20
563.3695305360104
 30
0.0
  0
POINT
  5
371
330
366
100
AcDbEntity
  8
Defpoints
 62
     0
100
AcDbPoint
 10
1182.225653684009
 20
563.3695305360104
 30
0.0
  0
ENDBLK
  5
368
330
366
100
AcDbEntity
  8
0
100
AcDbBlockEnd
  0
BLOCK
  5
373
330
372
100
AcDbEntity
  8
0
100
AcDbBlockBegin
  2
*D12
 70
     1
 10
0.0
 20
0.0
 30
0.0
  3
*D12
  1
*D27
  0
LINE
  5
375
330
372
100
AcDbEntity
  8
C寸法
 62
     0
370
    -2
100
AcDbLine
 10
562.2276536776026
 20
988.3695305359796
 30
0.0
 11
1132.225653684009
 21
988.3695305359795
 31
0.0
  0
LINE
  5
376
330
372
100
AcDbEntity
  8
C寸法
 62
     0
370
    -2
100
AcDbLine
 10
562.2276536800646
 20
578.3695305361276
 30
0.0
 11
1132.225653684009
 21
578.3695305361276
 31
0.0
  0
LINE
  5
377
330
372
100
AcDbEntity
  8
C寸法
 62
     0
370
    -2
100
AcDbLine
 10
1132.225653684009
 20
963.3695305359795
 30
0.0
 11
1132.225653684009
 21
603.3695305361276
 31
0.0
  0
INSERT
  5
378
330
372
100
AcDbEntity
  8
C寸法
 62
     0
370
    -2
100
AcDbBlockReference
  2
_OPEN
 10
1132.225653684009
 20
988.3695305359795
 30
0.0
 41
25.0
 42
25.0
 43
25.0
 50
90.0
  0
INSERT
  5
379
330
372
100
AcDbEntity
  8
C寸法
 62
     0
370
    -2
100
AcDbBlockReference
  2
_OPEN
 10
1132.225653684009
 20
578.3695305361276
 30
0.0
 41
25.0
 42
25.0
 43
25.0
 50
270.0
  0
MTEXT
  5
37A
330
372
100
AcDbEntity
  8
C寸法
 62
     0
370
    13
100
AcDbMText
 10
1114.725653684009
 20
783.3695305360536
 30
0.0
 40
25.0
 41
0.0
 71
     5
 72
     1
  1
\A1;410
  7
KANJI
 11
0.0
 21
1.0
 31
0.0
 73
     1
 44
1.0
  0
POINT
  5
37B
330
372
100
AcDbEntity
  8
Defpoints
 62
     0
100
AcDbPoint
 10
552.2276536776026
 20
988.3695305359796
 30
0.0
  0
POINT
  5
37C
330
372
100
AcDbEntity
  8
Defpoints
 62
     0
100
AcDbPoint
 10
552.2276536800646
 20
578.3695305361276
 30
0.0
  0
POINT
  5
37D
330
372
100
AcDbEntity
  8
Defpoints
 62
     0
100
AcDbPoint
 10
1132.225653684009
 20
578.3695305361276
 30
0.0
  0
ENDBLK
  5
374
330
372
100
AcDbEntity
  8
0
100
AcDbBlockEnd
  0
BLOCK
  5
37F
330
37E
100
AcDbEntity
  8
0
100
AcDbBlockBegin
  2
*D13
 70
     1
 10
0.0
 20
0.0
 30
0.0
  3
*D13
  1
*D28
  0
LINE
  5
381
330
37E
100
AcDbEntity
  8
C寸法
 62
     0
370
    -2
100
AcDbLine
 10
605.7322330102015
 20
1043.369530538891
 30
0.0
 11
1082.225653684009
 21
1043.369530538891
 31
0.0
  0
LINE
  5
382
330
37E
100
AcDbEntity
  8
C寸法
 62
     0
370
    -2
100
AcDbLine
 10
902.2248688923994
 20
1083.36953053598
 30
0.0
 11
1082.225653684009
 21
1083.36953053598
 31
0.0
  0
LINE
  5
383
330
37E
100
AcDbEntity
  8
C寸法
 62
     0
370
    -2
100
AcDbLine
 10
1082.225653684009
 20
1108.36953053598
 30
0.0
 11
1082.225653684009
 21
1183.84572101217
 31
0.0
  0
LINE
  5
384
330
37E
100
AcDbEntity
  8
C寸法
 62
     0
370
    -2
100
AcDbLine
 10
1082.225653684009
 20
1043.369530538891
 30
0.0
 11
1082.225653684009
 21
1083.36953053598
 31
0.0
  0
LINE
  5
385
330
37E
100
AcDbEntity
  8
C寸法
 62
     0
370
    -2
100
AcDbLine
 10
1082.225653684009
 20
1018.369530538891
 30
0.0
 11
1082.225653684009
 21
993.3695305388915
 31
0.0
  0
INSERT
  5
386
330
37E
100
AcDbEntity
  8
C寸法
 62
     0
370
    -2
100
AcDbBlockReference
  2
_OPEN
 10
1082.225653684009
 20
1043.369530538891
 30
0.0
 41
25.0
 42
25.0
 43
25.0
 50
90.0
  0
INSERT
  5
387
330
37E
100
AcDbEntity
  8
C寸法
 62
     0
370
    -2
100
AcDbBlockReference
  2
_OPEN
 10
1082.225653684009
 20
1083.36953053598
 30
0.0
 41
25.0
 42
25.0
 43
25.0
 50
270.0
  0
MTEXT
  5
388
330
37E
100
AcDbEntity
  8
C寸法
 62
     0
370
    13
100
AcDbMText
 10
1064.725653684009
 20
1158.607625774075
 30
0.0
 40
25.0
 41
0.0
 71
     5
 72
     1
  1
\A1;40
  7
KANJI
 11
0.0
 21
1.0
 31
0.0
 73
     1
 44
1.0
  0
POINT
  5
389
330
37E
100
AcDbEntity
  8
Defpoints
 62
     0
100
AcDbPoint
 10
595.7322330102015
 20
1043.369530538891
 30
0.0
  0
POINT
  5
38A
330
37E
100
AcDbEntity
  8
Defpoints
 62
     0
100
AcDbPoint
 10
892.2248688923994
 20
1083.36953053598
 30
0.0
  0
POINT
  5
38B
330
37E
100
AcDbEntity
  8
Defpoints
 62
     0
100
AcDbPoint
 10
1082.225653684009
 20
1083.36953053598
 30
0.0
  0
ENDBLK
  5
380
330
37E
100
AcDbEntity
  8
0
100
AcDbBlockEnd
  0
BLOCK
  5
38D
330
38C
100
AcDbEntity
  8
0
100
AcDbBlockBegin
  2
*D14
 70
     1
 10
0.0
 20
0.0
 30
0.0
  3
*D14
  1
*D29
  0
LINE
  5
38F
330
38C
100
AcDbEntity
  8
C寸法
  6
ByBlock
 62
     0
370
    -2
100
AcDbLine
 10
977.2276536841616
 20
329.0695305358311
 30
0.0
 11
1082.225653684009
 21
329.0695305358311
 31
0.0
  0
LINE
  5
390
330
38C
100
AcDbEntity
  8
C寸法
  6
ByBlock
 62
     0
370
    -2
100
AcDbLine
 10
959.2256536839866
 20
314.0695305356842
 30
0.0
 11
1082.225653684009
 21
314.0695305356842
 31
0.0
  0
LINE
  5
391
330
38C
100
AcDbEntity
  8
C寸法
  6
ByBlock
 62
     0
370
    -2
100
AcDbLine
 10
1082.225653684009
 20
289.0695305356842
 30
0.0
 11
1082.225653684009
 21
216.9787567261603
 31
0.0
  0
LINE
  5
392
330
38C
100
AcDbEntity
  8
C寸法
  6
ByBlock
 62
     0
370
    -2
100
AcDbLine
 10
1082.225653684009
 20
329.0695305358311
 30
0.0
 11
1082.225653684009
 21
314.0695305356842
 31
0.0
  0
LINE
  5
393
330
38C
100
AcDbEntity
  8
C寸法
  6
ByBlock
 62
     0
370
    -2
100
AcDbLine
 10
1082.225653684009
 20
354.0695305358311
 30
0.0
 11
1082.225653684009
 21
379.0695305358311
 31
0.0
  0
INSERT
  5
394
330
38C
100
AcDbEntity
  8
C寸法
 62
     0
370
    -2
100
AcDbBlockReference
  2
_OPEN
 10
1082.225653684009
 20
329.0695305358311
 30
0.0
 41
25.0
 42
25.0
 43
25.0
 50
270.0
  0
INSERT
  5
395
330
38C
100
AcDbEntity
  8
C寸法
 62
     0
370
    -2
100
AcDbBlockReference
  2
_OPEN
 10
1082.225653684009
 20
314.0695305356842
 30
0.0
 41
25.0
 42
25.0
 43
25.0
 50
90.0
  0
MTEXT
  5
396
330
38C
100
AcDbEntity
  8
C寸法
 62
     0
370
    13
100
AcDbMText
 10
1064.725653684009
 20
240.5241436309223
 30
0.0
 40
25.0
 41
0.0
 71
     5
 72
     1
  1
\A1;15
  7
KANJI
 11
0.0
 21
1.0
 31
0.0
 73
     1
 44
1.0
  0
POINT
  5
397
330
38C
100
AcDbEntity
  8
Defpoints
 62
     0
100
AcDbPoint
 10
967.2276536841616
 20
329.0695305358311
 30
0.0
  0
POINT
  5
398
330
38C
100
AcDbEntity
  8
Defpoints
 62
     0
100
AcDbPoint
 10
949.2256536839866
 20
314.0695305356842
 30
0.0
  0
POINT
  5
399
330
38C
100
AcDbEntity
  8
Defpoints
 62
     0
100
AcDbPoint
 10
1082.225653684009
 20
314.0695305356842
 30
0.0
  0
ENDBLK
  5
38E
330
38C
100
AcDbEntity
  8
0
100
AcDbBlockEnd
  0
BLOCK
  5
39B
330
39A
100
AcDbEntity
  8
0
100
AcDbBlockBegin
  2
*D15
 70
     1
 10
0.0
 20
0.0
 30
0.0
  3
*D15
  1
*D30
  0
LINE
  5
39D
330
39A
100
AcDbEntity
  8
C寸法
 62
     0
370
    -2
100
AcDbLine
 10
712.5986221371181
 20
844.5394727769519
 30
0.0
 11
712.5986221371181
 21
694.5681115537916
 31
0.0
  0
LINE
  5
39E
330
39A
100
AcDbEntity
  8
C寸法
 62
     0
370
    -2
100
AcDbLine
 10
893.4089539079264
 20
844.2936454910828
 30
0.0
 11
893.4089539079264
 21
694.5681115537916
 31
0.0
  0
LINE
  5
39F
330
39A
100
AcDbEntity
  8
C寸法
 62
     0
370
    -2
100
AcDbLine
 10
737.5986221371181
 20
694.5681115537916
 30
0.0
 11
868.4089539079264
 21
694.5681115537916
 31
0.0
  0
INSERT
  5
3A0
330
39A
100
AcDbEntity
  8
C寸法
 62
     0
370
    -2
100
AcDbBlockReference
  2
_OPEN
 10
712.5986221371181
 20
694.5681115537916
 30
0.0
 41
25.0
 42
25.0
 43
25.0
 50
180.0
  0
INSERT
  5
3A1
330
39A
100
AcDbEntity
  8
C寸法
 62
     0
370
    -2
100
AcDbBlockReference
  2
_OPEN
 10
893.4089539079264
 20
694.5681115537916
 30
0.0
 41
25.0
 42
25.0
 43
25.0
  0
MTEXT
  5
3A2
330
39A
100
AcDbEntity
  8
C寸法
 62
     0
370
    13
100
AcDbMText
 10
788.9223649126355
 20
712.0681115537916
 30
0.0
 40
25.0
 41
0.0
 71
     5
 72
     1
  1
\A1;Φ181
  7
KANJI
 73
     1
 44
1.0
  0
POINT
  5
3A3
330
39A
100
AcDbEntity
  8
Defpoints
 62
     0
100
AcDbPoint
 10
712.5986221371181
 20
854.5394727769519
 30
0.0
  0
POINT
  5
3A4
330
39A
100
AcDbEntity
  8
Defpoints
 62
     0
100
AcDbPoint
 10
893.4089539079264
 20
854.2936454910828
 30
0.0
  0
POINT
  5
3A5
330
39A
100
AcDbEntity
  8
Defpoints
 62
     0
100
AcDbPoint
 10
893.4089539079264
 20
694.5681115537916
 30
0.0
  0
ENDBLK
  5
39C
330
39A
100
AcDbEntity
  8
0
100
AcDbBlockEnd
  0
BLOCK
  5
3A8
330
3A7
100
AcDbEntity
  8
0
100
AcDbBlockBegin
  2
*D16
 70
     1
 10
0.0
 20
0.0
 30
0.0
  3
*D16
  1
*D31
  0
LINE
  5
3AA
330
3A7
100
AcDbEntity
  8
0
 62
     0
370
    -2
100
AcDbLine
 10
571.2487814579449
 20
1043.87636635349
 30
0.0
 11
571.2487814579449
 21
1137.502174035443
 31
0.0
  0
LINE
  5
3AB
330
3A7
100
AcDbEntity
  8
0
 62
     0
370
    -2
100
AcDbLine
 10
534.928939404638
 20
1043.87636635349
 30
0.0
 11
534.928939404638
 21
1137.502174035443
 31
0.0
  0
LINE
  5
3AC
330
3A7
100
AcDbEntity
  8
0
 62
     0
370
    -2
100
AcDbLine
 10
509.928939404638
 20
1136.252174035443
 30
0.0
 11
321.0598917855903
 21
1136.252174035443
 31
0.0
  0
LINE
  5
3AD
330
3A7
100
AcDbEntity
  8
0
 62
     0
370
    -2
100
AcDbLine
 10
571.2487814579449
 20
1136.252174035443
 30
0.0
 11
534.928939404638
 21
1136.252174035443
 31
0.0
  0
LINE
  5
3AE
330
3A7
100
AcDbEntity
  8
0
 62
     0
370
    -2
100
AcDbLine
 10
596.2487814579449
 20
1136.252174035443
 30
0.0
 11
621.2487814579449
 21
1136.252174035443
 31
0.0
  0
INSERT
  5
3AF
330
3A7
100
AcDbEntity
  8
0
 62
     0
370
    -2
100
AcDbBlockReference
  2
_OPEN
 10
571.2487814579449
 20
1136.252174035443
 30
0.0
 41
25.0
 42
25.0
 43
25.0
 50
180.0
  0
INSERT
  5
3B0
330
3A7
100
AcDbEntity
  8
0
 62
     0
370
    -2
100
AcDbBlockReference
  2
_OPEN
 10
534.928939404638
 20
1136.252174035443
 30
0.0
 41
25.0
 42
25.0
 43
25.0
  0
MTEXT
  5
3B1
330
3A7
100
AcDbEntity
  8
0
 62
     0
370
    13
100
AcDbMText
 10
402.9944155951141
 20
1153.752174035443
 30
0.0
 40
25.0
 41
0.0
 71
     5
 72
     1
  1
Φ36水栓穴
  7
KANJI
 73
     1
 44
1.0
  0
POINT
  5
3B2
330
3A7
100
AcDbEntity
  8
Defpoints
 62
     0
100
AcDbPoint
 10
571.2487814579449
 20
1043.25136635349
 30
0.0
  0
POINT
  5
3B3
330
3A7
100
AcDbEntity
  8
Defpoints
 62
     0
100
AcDbPoint
 10
534.928939404638
 20
1043.25136635349
 30
0.0
  0
POINT
  5
3B4
330
3A7
100
AcDbEntity
  8
Defpoints
 62
     0
100
AcDbPoint
 10
534.928939404638
 20
1136.252174035443
 30
0.0
  0
ENDBLK
  5
3A9
330
3A7
100
AcDbEntity
  8
0
100
AcDbBlockEnd
  0
BLOCK
  5
3BA
330
3B9
100
AcDbEntity
  8
0
100
AcDbBlockBegin
  2
*D17
 70
     1
 10
0.0
 20
0.0
 30
0.0
  3
*D17
  1
*D32
  0
LINE
  5
3BC
330
3B9
100
AcDbEntity
  8
0
 62
     0
370
    -2
100
AcDbLine
 10
198.3367302824091
 20
639.2837845982015
 30
0.0
 11
309.7433518941543
 21
724.3338820623491
 31
0.0
  0
MTEXT
  5
3BD
330
3B9
100
AcDbEntity
  8
0
 62
     0
370
    13
100
AcDbMText
 10
237.9018415166601
 20
691.5053179719038
 30
0.0
 40
25.0
 41
0.0
 71
     5
 72
     1
  1
4-R100
  7
KANJI
 11
0.7948505732630733
 21
0.6068052127193401
 31
0.0
 73
     1
 44
1.0
  0
INSERT
  5
3BE
330
3B9
100
AcDbEntity
  8
0
 62
     0
370
    -2
100
AcDbBlockReference
  2
_OPEN
 10
178.4654659508323
 20
624.1136542802179
 30
0.0
 41
25.0
 42
25.0
 43
25.0
 50
217.3588558061613
  0
POINT
  5
3BF
330
3B9
100
AcDbEntity
  8
Defpoints
 62
     0
100
AcDbPoint
 10
178.4654659508323
 20
624.1136542802179
 30
0.0
  0
POINT
  5
3C0
330
3B9
100
AcDbEntity
  8
Defpoints
 62
     0
100
AcDbPoint
 10
257.9505232779242
 20
684.7941755527509
 30
0.0
  0
ENDBLK
  5
3BB
330
3B9
100
AcDbEntity
  8
0
100
AcDbBlockEnd
  0
BLOCK
  5
3C5
330
3C4
100
AcDbEntity
  8
0
100
AcDbBlockBegin
  2
*D18
 70
     1
 10
0.0
 20
0.0
 30
0.0
  3
*D18
  1
*D33
  0
LINE
  5
3C7
330
3C4
100
AcDbEntity
  8
0
 62
     0
370
    -2
100
AcDbLine
 10
201.3013821698893
 20
591.8778555941808
 30
0.0
 11
336.1895220191865
 21
700.1636125721967
 31
0.0
  0
MTEXT
  5
3C8
330
3C4
100
AcDbEntity
  8
0
 62
     0
370
    13
100
AcDbMText
 10
274.4537758536017
 20
673.0446522641342
 30
0.0
 40
25.0
 41
0.0
 71
     5
 72
     1
  1
4-R60
  7
KANJI
 11
0.7798094692106854
 21
0.6260169260725698
 31
0.0
 73
     1
 44
1.0
  0
LINE
  5
3C9
330
3C4
100
AcDbEntity
  8
0
 62
     0
370
    -2
100
AcDbLine
 10
180.1002263252097
 20
574.857951457205
 30
0.0
 11
181.8061454396222
 21
576.2274324423665
 31
0.0
  0
INSERT
  5
3CA
330
3C4
100
AcDbEntity
  8
0
 62
     0
370
    -2
100
AcDbBlockReference
  2
_OPEN
 10
181.8061454396222
 20
576.2274324423665
 30
0.0
 41
25.0
 42
25.0
 43
25.0
 50
218.7568661077725
  0
POINT
  5
3CB
330
3C4
100
AcDbEntity
  8
Defpoints
 62
     0
100
AcDbPoint
 10
181.8061454396222
 20
576.2274324423665
 30
0.0
  0
POINT
  5
522
330
3C4
100
AcDbEntity
  8
Defpoints
 62
     0
100
AcDbPoint
 10
180.1002263252097
 20
574.857951457205
 30
0.0
  0
ENDBLK
  5
3C6
330
3C4
100
AcDbEntity
  8
0
100
AcDbBlockEnd
  0
BLOCK
  5
3D0
330
3CF
100
AcDbEntity
  8
0
100
AcDbBlockBegin
  2
*D19
 70
     1
 10
0.0
 20
0.0
 30
0.0
  3
*D19
  1
*D34
  0
LINE
  5
3D2
330
3CF
100
AcDbEntity
  8
0
 62
     0
370
    -2
100
AcDbLine
 10
803.0182884073836
 20
1017.57523096913
 30
0.0
 11
654.697330447252
 21
971.752096605134
 31
0.0
  0
MTEXT
  5
3D3
330
3CF
100
AcDbEntity
  8
0
 62
     0
370
    13
100
AcDbMText
 10
711.7491427575931
 20
1007.694148228788
 30
0.0
 40
25.0
 41
0.0
 71
     5
 72
     1
  1
2-R60
  7
KANJI
 11
0.9554417537309096
 21
0.2951796998907681
 31
0.0
 73
     1
 44
1.0
  0
LINE
  5
3D4
330
3CF
100
AcDbEntity
  8
0
 62
     0
370
    -2
100
AcDbLine
 10
882.652242180136
 20
1042.17780510195
 30
0.0
 11
826.9043322506564
 21
1024.954723466399
 31
0.0
  0
INSERT
  5
3D5
330
3CF
100
AcDbEntity
  8
0
 62
     0
370
    -2
100
AcDbBlockReference
  2
_OPEN
 10
826.9043322506564
 20
1024.954723466399
 30
0.0
 41
25.0
 42
25.0
 43
25.0
 50
17.16831327323639
  0
POINT
  5
3D6
330
3CF
100
AcDbEntity
  8
Defpoints
 62
     0
100
AcDbPoint
 10
826.9043322506564
 20
1024.954723466399
 30
0.0
  0
POINT
  5
523
330
3CF
100
AcDbEntity
  8
Defpoints
 62
     0
100
AcDbPoint
 10
882.652242180136
 20
1042.17780510195
 30
0.0
  0
ENDBLK
  5
3D1
330
3CF
100
AcDbEntity
  8
0
100
AcDbBlockEnd
  0
BLOCK
  5
529
330
528
100
AcDbEntity
  8
0
100
AcDbBlockBegin
  2
*D20
 70
     1
 10
0.0
 20
0.0
 30
0.0
  3
*D20
  1
*D35
  0
LINE
  5
52B
330
528
100
AcDbEntity
  8
0
 62
     0
370
    -2
100
AcDbLine
 10
171.3494880418208
 20
1064.077626733682
 30
0.0
 11
24.73203929293189
 21
1168.906509668795
 31
0.0
  0
LINE
  5
52C
330
528
100
AcDbEntity
  8
0
 62
     0
370
    -2
100
AcDbLine
 10
191.6861222804381
 20
1049.537292905166
 30
0.0
 11
212.0227565190554
 21
1034.99695907665
 31
0.0
  0
LINE
  5
52D
330
528
100
AcDbEntity
  8
0
 62
     0
370
    -2
100
AcDbLine
 10
191.6861222804381
 20
1049.537292905166
 30
0.0
 11
212.0227565190554
 21
1034.99695907665
 31
0.0
  0
MTEXT
  5
52E
330
528
100
AcDbEntity
  8
0
 62
     0
370
    13
100
AcDbMText
 10
87.88236310872041
 20
1145.268045996787
 30
0.0
 40
25.0
 41
0.0
 71
     5
 72
     1
  1
2-R60
  7
KANJI
 11
0.8134653695446938
 21
-0.5816133531406535
 31
0.0
 73
     1
 44
1.0
  0
LINE
  5
52F
330
528
100
AcDbEntity
  8
0
 62
     0
370
    -2
100
AcDbLine
 10
226.4950323512455
 20
1024.64953779792
 30
0.0
 11
171.3494880418208
 21
1064.077626733682
 31
0.0
  0
INSERT
  5
56C
330
528
100
AcDbEntity
  8
0
 62
     0
370
    -2
100
AcDbBlockReference
  2
_OPEN
 10
171.3494880418208
 20
1064.077626733682
 30
0.0
 41
25.0
 42
25.0
 43
25.0
 50
144.435902509854
  0
POINT
  5
56E
330
528
100
AcDbEntity
  8
Defpoints
 62
     0
100
AcDbPoint
 10
171.3494880418208
 20
1064.077626733682
 30
0.0
  0
POINT
  5
56F
330
528
100
AcDbEntity
  8
Defpoints
 62
     0
100
AcDbPoint
 10
226.4950323512455
 20
1024.64953779792
 30
0.0
  0
ENDBLK
  5
52A
330
528
100
AcDbEntity
  8
0
100
AcDbBlockEnd
  0
BLOCK
  5
533
330
532
100
AcDbEntity
  8
0
100
AcDbBlockBegin
  2
*D21
 70
     1
 10
0.0
 20
0.0
 30
0.0
  3
*D21
  1
*D36
  0
LINE
  5
535
330
532
100
AcDbEntity
  8
C寸法
  6
ByBlock
 62
     0
370
    -2
100
AcDbLine
 10
117.6679742041397
 20
329.0695305358312
 30
0.0
 11
66.88366967534562
 21
329.0695305358312
 31
0.0
  0
LINE
  5
536
330
532
100
AcDbEntity
  8
C寸法
  6
ByBlock
 62
     0
370
    -2
100
AcDbLine
 10
707.1659742017674
 20
129.0695305358311
 30
0.0
 11
66.88366967534564
 21
129.0695305358311
 31
0.0
  0
LINE
  5
537
330
532
100
AcDbEntity
  8
C寸法
  6
ByBlock
 62
     0
370
    -2
100
AcDbLine
 10
66.88366967534562
 20
304.0695305358312
 30
0.0
 11
66.88366967534564
 21
154.0695305358311
 31
0.0
  0
INSERT
  5
538
330
532
100
AcDbEntity
  8
C寸法
 62
     0
370
    -2
100
AcDbBlockReference
  2
_OPEN
 10
66.88366967534562
 20
329.0695305358312
 30
0.0
 41
25.0
 42
25.0
 43
25.0
 50
90.00000000000001
  0
INSERT
  5
539
330
532
100
AcDbEntity
  8
C寸法
 62
     0
370
    -2
100
AcDbBlockReference
  2
_OPEN
 10
66.88366967534564
 20
129.0695305358311
 30
0.0
 41
25.0
 42
25.0
 43
25.0
 50
270.0
  0
MTEXT
  5
53A
330
532
100
AcDbEntity
  8
C寸法
 62
     0
370
    13
100
AcDbMText
 10
49.38366967534563
 20
229.069530535831
 30
0.0
 40
25.0
 41
0.0
 71
     5
 72
     1
  1
\A1;200
  7
KANJI
 11
-1.421085471520199E-16
 21
1.0
 31
0.0
 73
     1
 44
1.0
  0
POINT
  5
53B
330
532
100
AcDbEntity
  8
Defpoints
 62
     0
100
AcDbPoint
 10
127.6679742041397
 20
329.0695305358312
 30
0.0
  0
POINT
  5
53C
330
532
100
AcDbEntity
  8
Defpoints
 62
     0
100
AcDbPoint
 10
717.1659742017674
 20
129.0695305358311
 30
0.0
  0
POINT
  5
53D
330
532
100
AcDbEntity
  8
Defpoints
 62
     0
100
AcDbPoint
 10
66.88366967534564
 20
129.0695305358309
 30
0.0
  0
ENDBLK
  5
534
330
532
100
AcDbEntity
  8
0
100
AcDbBlockEnd
  0
BLOCK
  5
53F
330
53E
100
AcDbEntity
  8
0
100
AcDbBlockBegin
  2
*D22
 70
     1
 10
0.0
 20
0.0
 30
0.0
  3
*D22
  1
*D37
  0
LINE
  5
541
330
53E
100
AcDbEntity
  8
C寸法
  6
ByBlock
 62
     0
370
    -2
100
AcDbLine
 10
132.6679741960927
 20
329.0695305358311
 30
0.0
 11
107.7262950904044
 21
329.0695305358311
 31
0.0
  0
LINE
  5
542
330
53E
100
AcDbEntity
  8
C寸法
  6
ByBlock
 62
     0
370
    -2
100
AcDbLine
 10
150.6699741962677
 20
314.0695305356842
 30
0.0
 11
107.7262950904044
 21
314.0695305356842
 31
0.0
  0
LINE
  5
543
330
53E
100
AcDbEntity
  8
C寸法
  6
ByBlock
 62
     0
370
    -2
100
AcDbLine
 10
107.7262950904044
 20
314.0695305356842
 30
0.0
 11
107.7262950904044
 21
216.9787567261603
 31
0.0
  0
LINE
  5
544
330
53E
100
AcDbEntity
  8
C寸法
  6
ByBlock
 62
     0
370
    -2
100
AcDbLine
 10
107.7262950904044
 20
329.0695305358311
 30
0.0
 11
107.7262950904044
 21
314.0695305356842
 31
0.0
  0
LINE
  5
545
330
53E
100
AcDbEntity
  8
C寸法
  6
ByBlock
 62
     0
370
    -2
100
AcDbLine
 10
107.7262950904044
 20
354.0695305358311
 30
0.0
 11
107.7262950904044
 21
379.0695305358311
 31
0.0
  0
LINE
  5
546
330
53E
100
AcDbEntity
  8
C寸法
  6
ByBlock
 62
     0
370
    -2
100
AcDbLine
 10
107.7262950904044
 20
289.0695305356842
 30
0.0
 11
107.7262950904044
 21
264.0695305356842
 31
0.0
  0
INSERT
  5
547
330
53E
100
AcDbEntity
  8
C寸法
 62
     0
370
    -2
100
AcDbBlockReference
  2
_OPEN
 10
107.7262950904044
 20
329.0695305358311
 30
0.0
 41
25.0
 42
25.0
 43
25.0
 50
270.0
  0
INSERT
  5
548
330
53E
100
AcDbEntity
  8
C寸法
 62
     0
370
    -2
100
AcDbBlockReference
  2
_OPEN
 10
107.7262950904044
 20
314.0695305356842
 30
0.0
 41
25.0
 42
25.0
 43
25.0
 50
90.0
  0
MTEXT
  5
549
330
53E
100
AcDbEntity
  8
C寸法
 62
     0
370
    13
100
AcDbMText
 10
90.22629509040439
 20
240.5241436309222
 30
0.0
 40
25.0
 41
0.0
 71
     5
 72
     1
  1
\A1;15
  7
KANJI
 11
0.0
 21
1.0
 31
0.0
 73
     1
 44
1.0
  0
POINT
  5
54A
330
53E
100
AcDbEntity
  8
Defpoints
 62
     0
100
AcDbPoint
 10
142.6679741960927
 20
329.0695305358311
 30
0.0
  0
POINT
  5
54B
330
53E
100
AcDbEntity
  8
Defpoints
 62
     0
100
AcDbPoint
 10
160.6699741962677
 20
314.0695305356842
 30
0.0
  0
POINT
  5
54C
330
53E
100
AcDbEntity
  8
Defpoints
 62
     0
100
AcDbPoint
 10
107.7262950904044
 20
314.0695305356842
 30
0.0
  0
ENDBLK
  5
540
330
53E
100
AcDbEntity
  8
0
100
AcDbBlockEnd
  0
ENDSEC
  0
SECTION
  2
ENTITIES
  0
TEXT
  5
260
330
1F
100
AcDbEntity
  8
C寸法
 62
     7
100
AcDbText
 10
1260.557389510161
 20
138.881400622993
 30
0.0
 40
30.0
  1
品　番　：R800BI 寸法図
  7
KANJI
100
AcDbText
  0
LINE
  5
261
330
1F
100
AcDbEntity
  8
0
100
AcDbLine
 10
1192.475439913362
 20
127.0877684905062
 30
0.0
 11
1747.100875676728
 21
127.0877684905062
 31
0.0
  0
TEXT
  5
262
330
1F
100
AcDbEntity
  8
C寸法
 62
     7
100
AcDbText
 10
1301.470327656876
 20
90.20323869747668
 30
0.0
 40
25.0
  1
※詳細はお問合せください
  7
KANJI
100
AcDbText
  0
LWPOLYLINE
  5
263
330
1F
100
AcDbEntity
  8
0
100
AcDbPolyline
 90
        4
 70
     1
 43
0.0
 10
-9.388866225661161
 20
1230.251517200119
 10
-9.388866225661161
 20
28.70302929262459
 10
1790.666793016886
 20
28.70302929262459
 10
1790.666793016886
 20
1230.251517200119
  0
LINE
  5
264
330
1F
100
AcDbEntity
  8
C4
 62
     0
100
AcDbLine
 10
893.0197936803088
 20
548.3695305358311
 30
0.0
 11
213.0217936736008
 21
548.3695305358311
 31
0.0
  0
LINE
  5
265
330
1F
100
AcDbEntity
  8
C4
 62
     0
100
AcDbLine
 10
213.0217936736008
 20
1098.36953054126
 30
0.0
 11
893.0197936803088
 21
1098.36953054126
 31
0.0
  0
LINE
  5
266
330
1F
100
AcDbEntity
  8
C4
 62
     0
100
AcDbLine
 10
213.0217936736008
 20
1083.369530541112
 30
0.0
 11
893.0197936803088
 21
1083.369530541112
 31
0.0
  0
LINE
  5
267
330
1F
100
AcDbEntity
  8
C4
 62
     0
100
AcDbLine
 10
138.0217936728591
 20
623.3695305365715
 30
0.0
 11
138.0217936728591
 21
1023.36953054052
 31
0.0
  0
LINE
  5
268
330
1F
100
AcDbEntity
  8
C4
 62
     0
100
AcDbLine
 10
968.0197936810438
 20
623.3695305365715
 30
0.0
 11
968.0197936810438
 21
1023.36953054052
 31
0.0
  0
LINE
  5
269
330
1F
100
AcDbEntity
  8
C4
 62
     0
100
AcDbLine
 10
893.0197936803088
 20
563.3695305359794
 30
0.0
 11
213.0217936736008
 21
563.3695305359794
 31
0.0
  0
LINE
  5
26A
330
1F
100
AcDbEntity
  8
C4
 62
     0
100
AcDbLine
 10
213.0217936736008
 20
1003.369530540324
 30
0.0
 11
893.0197936803088
 21
1003.369530540324
 31
0.0
  0
LINE
  5
26B
330
1F
100
AcDbEntity
  8
C4
 62
     0
100
AcDbLine
 10
953.0197936808981
 20
623.3695305365715
 30
0.0
 11
953.0197936808981
 21
1023.36953054052
 31
0.0
  0
LINE
  5
26C
330
1F
100
AcDbEntity
  8
C4
 62
     0
100
AcDbLine
 10
153.0217936730041
 20
623.3695305365715
 30
0.0
 11
153.0217936730041
 21
1023.36953054052
 31
0.0
  0
LINE
  5
26D
330
1F
100
AcDbEntity
  8
C2
  6
CENTER
 62
     0
 48
20.0
370
    13
100
AcDbLine
 10
986.0168415911317
 20
858.3695305388915
 30
0.0
 11
122.3242094110128
 21
858.3695305388916
 31
0.0
  0
LINE
  5
26E
330
1F
100
AcDbEntity
  8
C2
  6
CENTER
 62
     0
 48
20.0
370
    13
100
AcDbLine
 10
803.0177936794134
 20
563.3695305359794
 30
0.0
 11
803.0177936794134
 21
968.3695305399737
 31
0.0
  0
LINE
  5
26F
330
1F
100
AcDbEntity
  8
C4
 62
     0
100
AcDbLine
 10
923.8077936806221
 20
129.8625305338672
 30
0.0
 11
895.9577936803471
 21
129.1335305338597
 31
0.0
  0
LINE
  5
270
330
1F
100
AcDbEntity
  8
C4
 62
     0
100
AcDbLine
 10
923.8677936806125
 20
127.3635305338401
 30
0.0
 11
896.0177936803449
 21
126.6345305338317
 31
0.0
  0
LINE
  5
271
330
1F
100
AcDbEntity
  8
C4
 62
     0
100
AcDbLine
 10
138.0197936728512
 20
329.0695305358311
 30
0.0
 11
968.0177936810434
 21
329.0695305358311
 31
0.0
  0
LINE
  5
272
330
1F
100
AcDbEntity
  8
C4
 62
     0
100
AcDbLine
 10
955.5177936809197
 20
326.5695305358057
 30
0.0
 11
968.0177936810434
 21
326.5695305358057
 31
0.0
  0
LINE
  5
273
330
1F
100
AcDbEntity
  8
C4
 62
     0
100
AcDbLine
 10
150.5217936729821
 20
326.5695305358057
 30
0.0
 11
138.0197936728512
 21
326.5695305358057
 31
0.0
  0
LINE
  5
274
330
1F
100
AcDbEntity
  8
C4
 62
     0
100
AcDbLine
 10
953.0177936808906
 20
159.8525305341617
 30
0.0
 11
953.0177936808906
 21
328.069530535822
 31
0.0
  0
LINE
  5
275
330
1F
100
AcDbEntity
  8
C4
 62
     0
100
AcDbLine
 10
968.0177936810434
 20
329.0695305358311
 30
0.0
 11
968.0177936810434
 21
326.5695305358057
 31
0.0
  0
LINE
  5
276
330
1F
100
AcDbEntity
  8
C4
 62
     0
100
AcDbLine
 10
138.0197936728512
 20
329.0695305358311
 30
0.0
 11
138.0197936728512
 21
326.5695305358057
 31
0.0
  0
LINE
  5
277
330
1F
100
AcDbEntity
  8
C4
 62
     0
100
AcDbLine
 10
153.0197936730042
 20
172.9455305342898
 30
0.0
 11
153.0217936730041
 21
328.069530535822
 31
0.0
  0
LINE
  5
278
330
1F
100
AcDbEntity
  8
C4
 62
     0
100
AcDbLine
 10
893.5177936803158
 20
126.6345305338317
 30
0.0
 11
893.5177936803158
 21
122.0695305337893
 31
0.0
  0
LINE
  5
279
330
1F
100
AcDbEntity
  8
C4
 62
     0
100
AcDbLine
 10
882.5177936802065
 20
119.5695305337648
 30
0.0
 11
723.5177936786422
 21
119.5695305337648
 31
0.0
  0
LINE
  5
27A
330
1F
100
AcDbEntity
  8
C4
 62
     0
100
AcDbLine
 10
882.5177936802065
 20
122.0695305337893
 30
0.0
 11
882.5177936802065
 21
119.5695305337648
 31
0.0
  0
LINE
  5
27B
330
1F
100
AcDbEntity
  8
C4
 62
     0
100
AcDbLine
 10
156.0217936730262
 20
314.0695305356829
 30
0.0
 11
950.0177936808686
 21
314.0695305356829
 31
0.0
  0
LINE
  5
27C
330
1F
100
AcDbEntity
  8
C4
 62
     0
100
AcDbLine
 10
156.0217936730262
 20
322.6695305357687
 30
0.0
 11
950.0177936808686
 21
322.6695305357687
 31
0.0
  0
LINE
  5
27D
330
1F
100
AcDbEntity
  8
C4
 62
     0
100
AcDbLine
 10
882.5177936802065
 20
122.0695305337893
 30
0.0
 11
893.5177936803158
 21
122.0695305337893
 31
0.0
  0
LINE
  5
27E
330
1F
100
AcDbEntity
  8
C4
 62
     0
100
AcDbLine
 10
893.5177936803158
 20
119.5695305337648
 30
0.0
 11
882.5177936802065
 21
119.5695305337648
 31
0.0
  0
LINE
  5
27F
330
1F
100
AcDbEntity
  8
C4
 62
     0
100
AcDbLine
 10
896.0177936803449
 20
122.0695305337893
 30
0.0
 11
896.0177936803449
 21
126.6345305338317
 31
0.0
  0
LINE
  5
280
330
1F
100
AcDbEntity
  8
C4
 62
     0
100
AcDbLine
 10
955.5177936809197
 20
159.8525305341617
 30
0.0
 11
955.5177936809197
 21
326.5695305358057
 31
0.0
  0
LINE
  5
281
330
1F
100
AcDbEntity
  8
C4
 62
     0
100
AcDbLine
 10
150.5197936729751
 20
172.9455305342898
 30
0.0
 11
150.5217936729821
 21
326.5695305358057
 31
0.0
  0
LINE
  5
282
330
1F
100
AcDbEntity
  8
C4
 62
     0
100
AcDbLine
 10
882.5177936802065
 20
122.0695305337893
 30
0.0
 11
723.5177936786422
 21
122.0695305337893
 31
0.0
  0
LINE
  5
283
330
1F
100
AcDbEntity
  8
C4
 62
     0
100
AcDbLine
 10
895.4514236599498
 20
129.0695305338566
 30
0.0
 11
710.5861636988993
 21
129.0695305338566
 31
0.0
  0
LINE
  5
284
330
1F
100
AcDbEntity
  8
C4
 62
     0
100
AcDbLine
 10
182.2337936733022
 20
142.9555305339962
 30
0.0
 11
710.0847936784994
 21
129.1335305338597
 31
0.0
  0
LINE
  5
285
330
1F
100
AcDbEntity
  8
C4
 62
     0
100
AcDbLine
 10
182.1687936732851
 20
140.4565305339682
 30
0.0
 11
710.0197936785045
 21
126.6345305338317
 31
0.0
  0
LINE
  5
286
330
1F
100
AcDbEntity
  8
C4
 62
     0
100
AcDbLine
 10
712.5177936785259
 20
126.6345305338317
 30
0.0
 11
712.5177936785259
 21
122.0695305337893
 31
0.0
  0
LINE
  5
287
330
1F
100
AcDbEntity
  8
C4
 62
     0
100
AcDbLine
 10
723.5177936786422
 20
122.0695305337893
 30
0.0
 11
723.5177936786422
 21
119.5695305337648
 31
0.0
  0
LINE
  5
288
330
1F
100
AcDbEntity
  8
C4
 62
     0
100
AcDbLine
 10
723.5177936786422
 20
122.0695305337893
 30
0.0
 11
712.5177936785259
 21
122.0695305337893
 31
0.0
  0
LINE
  5
289
330
1F
100
AcDbEntity
  8
C4
 62
     0
100
AcDbLine
 10
712.5177936785259
 20
119.5695305337648
 30
0.0
 11
723.5177936786422
 21
119.5695305337648
 31
0.0
  0
LINE
  5
28A
330
1F
100
AcDbEntity
  8
C4
 62
     0
100
AcDbLine
 10
710.0197936785045
 20
122.0695305337893
 30
0.0
 11
710.0197936785045
 21
126.6345305338317
 31
0.0
  0
CIRCLE
  5
28B
330
1F
100
AcDbEntity
  8
C4
 62
     0
100
AcDbCircle
 10
803.0177936794134
 20
858.3635305388922
 30
0.0
 40
90.50000000089337
  0
ARC
  5
28C
330
1F
100
AcDbEntity
  8
C4
 62
     0
100
AcDbCircle
 10
255.4017936740129
 20
878.5165305390925
 30
0.0
 40
100.0000000009871
100
AcDbArc
 50
93.79219718684797
 51
177.1295803687154
  0
ARC
  5
28D
330
1F
100
AcDbEntity
  8
C4
 62
     0
100
AcDbCircle
 10
255.4017936740129
 20
688.2225305372154
 30
0.0
 40
100.0000000009871
100
AcDbArc
 50
182.8702496747919
 51
266.2075339343655
  0
ARC
  5
28E
330
1F
100
AcDbEntity
  8
C4
 62
     0
100
AcDbCircle
 10
850.6357936798886
 20
688.2215305372134
 30
0.0
 40
100.0000000009871
100
AcDbArc
 50
273.7921321501507
 51
357.1296334858961
  0
ARC
  5
28F
330
1F
100
AcDbEntity
  8
C4
 62
     0
100
AcDbCircle
 10
213.0217936736008
 20
943.3695305397306
 30
0.0
 40
60.00000000059228
100
AcDbArc
 50
89.99978954083582
 51
180.0
  0
CIRCLE
  5
290
330
1F
100
AcDbEntity
  8
C4
 62
     0
100
AcDbCircle
 10
803.0177936794134
 20
858.3635305388922
 30
0.0
 40
79.50000000078478
  0
ARC
  5
291
330
1F
100
AcDbEntity
  8
C4
 62
     0
100
AcDbCircle
 10
893.0197936803088
 20
943.3695305397306
 30
0.0
 40
60.00000000059228
100
AcDbArc
 50
0.0001520395044119
 51
89.99978954083582
  0
ARC
  5
292
330
1F
100
AcDbEntity
  8
C4
 62
     0
100
AcDbCircle
 10
850.634793679892
 20
878.5175305390891
 30
0.0
 40
100.0000000009871
100
AcDbArc
 50
2.870670593110781
 51
86.20795485260369
  0
ARC
  5
293
330
1F
100
AcDbEntity
  8
C4
 62
     0
100
AcDbCircle
 10
893.0197936803088
 20
1023.36953054052
 30
0.0
 40
60.00000000059228
100
AcDbArc
 50
0.0001520395044119
 51
89.99978954083582
  0
ARC
  5
294
330
1F
100
AcDbEntity
  8
C4
 62
     0
100
AcDbCircle
 10
893.0197936803088
 20
1023.36953054052
 30
0.0
 40
75.00000000074036
100
AcDbArc
 50
0.0001520395044119
 51
89.99978954083582
  0
ARC
  5
295
330
1F
100
AcDbEntity
  8
C4
 62
     0
100
AcDbCircle
 10
213.0217936736008
 20
1023.36953054052
 30
0.0
 40
60.00000000059228
100
AcDbArc
 50
89.99978954083582
 51
180.0
  0
ARC
  5
296
330
1F
100
AcDbEntity
  8
C4
 62
     0
100
AcDbCircle
 10
213.0217936736008
 20
1023.36953054052
 30
0.0
 40
75.00000000074036
100
AcDbArc
 50
89.99978954083582
 51
180.0
  0
ARC
  5
297
330
1F
100
AcDbEntity
  8
C4
 62
     0
100
AcDbCircle
 10
213.0217936736008
 20
623.3695305365715
 30
0.0
 40
60.00000000059228
100
AcDbArc
 50
180.0
 51
269.9999415804967
  0
ARC
  5
298
330
1F
100
AcDbEntity
  8
C4
 62
     0
100
AcDbCircle
 10
213.0217936736008
 20
623.3695305365715
 30
0.0
 40
75.00000000074036
100
AcDbArc
 50
180.0
 51
269.9999415804967
  0
ARC
  5
299
330
1F
100
AcDbEntity
  8
C4
 62
     0
100
AcDbCircle
 10
893.0197936803088
 20
623.3695305365715
 30
0.0
 40
60.00000000059228
100
AcDbArc
 50
269.9999415804967
 51
0.0001520395044119
  0
ARC
  5
29A
330
1F
100
AcDbEntity
  8
C4
 62
     0
100
AcDbCircle
 10
893.0197936803088
 20
623.3695305365715
 30
0.0
 40
75.00000000074036
100
AcDbArc
 50
269.9999415804967
 51
0.0001520395044119
  0
ARC
  5
29B
330
1F
100
AcDbEntity
  8
C4
 62
     0
100
AcDbCircle
 10
-1046.978206338841
 20
783.3695305381513
 30
0.0
 40
2000.000000019743
100
AcDbArc
 50
357.1296334858961
 51
2.870670593110788
  0
ARC
  5
29C
330
1F
100
AcDbEntity
  8
C4
 62
     0
100
AcDbCircle
 10
2153.019793692743
 20
783.3695305381513
 30
0.0
 40
2000.000000019743
100
AcDbArc
 50
177.1295803687154
 51
182.8702496747919
  0
ARC
  5
29D
330
1F
100
AcDbEntity
  8
C4
 62
     0
100
AcDbCircle
 10
553.0197936769473
 20
-3611.630469505234
 30
0.0
 40
4600.000000045408
100
AcDbArc
 50
86.20795485260372
 51
93.79219718684797
  0
ARC
  5
29E
330
1F
100
AcDbEntity
  8
C4
 62
     0
100
AcDbCircle
 10
553.0197936769473
 20
5178.369530581535
 30
0.0
 40
4600.000000045408
100
AcDbArc
 50
266.2081068922375
 51
273.7921321501506
  0
ARC
  5
29F
330
1F
100
AcDbEntity
  8
C4
 62
     0
100
AcDbCircle
 10
954.017793680905
 20
328.069530535822
 30
0.0
 40
1.000000000009871
100
AcDbArc
 50
90.00021045916418
 51
179.9998479604956
  0
ARC
  5
2A0
330
1F
100
AcDbEntity
  8
C4
 62
     0
100
AcDbCircle
 10
896.0177936803449
 20
126.6345305338317
 30
0.0
 40
2.500000000024678
100
AcDbArc
 50
91.50021396675474
 51
179.9998479604956
  0
ARC
  5
2A1
330
1F
100
AcDbEntity
  8
C4
 62
     0
100
AcDbCircle
 10
950.0177936808686
 20
325.669530535796
 30
0.0
 40
3.000000000029615
100
AcDbArc
 50
270.0000584197119
 51
0.0
  0
ARC
  5
2A2
330
1F
100
AcDbEntity
  8
C4
 62
     0
100
AcDbCircle
 10
950.0177936808686
 20
317.0695305357138
 30
0.0
 40
3.000000000029615
100
AcDbArc
 50
270.0000584197119
 51
0.0
  0
ARC
  5
2A3
330
1F
100
AcDbEntity
  8
C4
 62
     0
100
AcDbCircle
 10
156.0217936730262
 20
317.0695305357138
 30
0.0
 40
3.000000000029615
100
AcDbArc
 50
179.9987020448821
 51
270.0000584197119
  0
ARC
  5
2A4
330
1F
100
AcDbEntity
  8
C4
 62
     0
100
AcDbCircle
 10
156.0217936730262
 20
325.669530535796
 30
0.0
 40
3.000000000029615
100
AcDbArc
 50
179.9987020448821
 51
270.0000584197119
  0
ARC
  5
2A5
330
1F
100
AcDbEntity
  8
C4
 62
     0
100
AcDbCircle
 10
893.5177936803158
 20
122.0695305337893
 30
0.0
 40
2.500000000024678
100
AcDbArc
 50
270.0000584197119
 51
0.0
  0
ARC
  5
2A6
330
1F
100
AcDbEntity
  8
C4
 62
     0
100
AcDbCircle
 10
152.0217936729891
 20
328.069530535822
 30
0.0
 40
1.000000000009871
100
AcDbArc
 50
0.0
 51
90.00021045916418
  0
ARC
  5
2A7
330
1F
100
AcDbEntity
  8
C4
 62
     0
100
AcDbCircle
 10
710.0197936785045
 20
126.6345305338317
 30
0.0
 40
2.500000000024678
100
AcDbArc
 50
0.0
 51
88.50020695136291
  0
ARC
  5
2A8
330
1F
100
AcDbEntity
  8
C4
 62
     0
100
AcDbCircle
 10
712.5177936785259
 20
122.0695305337893
 30
0.0
 40
2.500000000024678
100
AcDbArc
 50
180.0004209183284
 51
270.0000584197119
  0
ARC
  5
2A9
330
1F
100
AcDbEntity
  8
C4
 62
     0
100
AcDbCircle
 10
183.0197936732952
 20
172.9455305342898
 30
0.0
 40
30.00000000029614
100
AcDbArc
 50
179.9992750027149
 51
268.500054911928
  0
ARC
  5
2AA
330
1F
100
AcDbEntity
  8
C4
 62
     0
100
AcDbCircle
 10
183.0197936732952
 20
172.9455305342898
 30
0.0
 40
32.50000000032082
100
AcDbArc
 50
179.9992750027149
 51
268.500054911928
  0
ARC
  5
2AB
330
1F
100
AcDbEntity
  8
C4
 62
     0
100
AcDbCircle
 10
923.0177936805994
 20
159.8525305341617
 30
0.0
 40
30.00000000029614
100
AcDbArc
 50
271.5000619273047
 51
0.0
  0
ARC
  5
2AC
330
1F
100
AcDbEntity
  8
C4
 62
     0
100
AcDbCircle
 10
923.0177936805994
 20
159.8525305341617
 30
0.0
 40
32.50000000032082
100
AcDbArc
 50
271.5000619273047
 51
0.0
  0
LINE
  5
2AD
330
1F
100
AcDbEntity
  8
C4
 62
     0
100
AcDbLine
 10
1392.725638684375
 20
1084.366140589739
 30
0.0
 11
1395.125602684917
 21
1084.366140589739
 31
0.0
  0
LINE
  5
2AE
330
1F
100
AcDbEntity
  8
C4
 62
     0
100
AcDbLine
 10
1399.12554268581
 20
1006.367310572192
 30
0.0
 11
1399.12554268581
 21
1080.366200588841
 31
0.0
  0
LINE
  5
2AF
330
1F
100
AcDbEntity
  8
C4
 62
     0
100
AcDbLine
 10
1398.12555768559
 20
1006.367310572192
 30
0.0
 11
1398.12555768559
 21
1080.366200588841
 31
0.0
  0
LINE
  5
2B0
330
1F
100
AcDbEntity
  8
C4
 62
     0
100
AcDbLine
 10
1392.725638684375
 20
1084.366140589739
 30
0.0
 11
1392.725638684375
 21
1098.36593059289
 31
0.0
  0
LINE
  5
2B1
330
1F
100
AcDbEntity
  8
C4
 62
     0
100
AcDbLine
 10
1598.525551685676
 20
767.8708880185292
 30
0.0
 11
1594.155617234696
 21
767.8708880185292
 31
0.0
  0
LINE
  5
2B2
330
1F
100
AcDbEntity
  8
C4
 62
     0
100
AcDbLine
 10
1587.687966764616
 20
613.7905453540076
 30
0.0
 11
1591.655654734137
 21
765.436924527981
 31
0.0
  0
LINE
  5
2B3
330
1F
100
AcDbEntity
  8
C4
 62
     0
100
AcDbLine
 10
1591.725653684154
 20
950.3966636317416
 30
0.0
 11
1591.725653684154
 21
765.9583688320504
 31
0.0
  0
LINE
  5
2B4
330
1F
100
AcDbEntity
  8
C4
 62
     0
100
AcDbLine
 10
1598.525551685676
 20
766.870903018306
 30
0.0
 11
1594.155617234696
 21
766.870903018306
 31
0.0
  0
LINE
  5
2B5
330
1F
100
AcDbEntity
  8
C4
 62
     0
100
AcDbLine
 10
1588.687864527843
 20
613.7643598182409
 30
0.0
 11
1592.655571309408
 21
765.4056937719394
 31
0.0
  0
LINE
  5
2B6
330
1F
100
AcDbEntity
  8
C4
 62
     0
100
AcDbLine
 10
1392.725638684375
 20
1083.366155589516
 30
0.0
 11
1395.125602684917
 21
1083.366155589516
 31
0.0
  0
LINE
  5
2B7
330
1F
100
AcDbEntity
  8
C4
 62
     0
100
AcDbLine
 10
1392.725638684375
 20
563.3729554875168
 30
0.0
 11
1403.725473686847
 21
563.3759554425193
 31
0.0
  0
LINE
  5
2B8
330
1F
100
AcDbEntity
  8
C4
 62
     0
100
AcDbLine
 10
1401.125512686262
 20
1004.367340571742
 30
0.0
 11
1403.725473686847
 21
1004.367340571742
 31
0.0
  0
LINE
  5
2B9
330
1F
100
AcDbEntity
  8
C4
 62
     0
100
AcDbLine
 10
1406.725428687523
 20
1000.367400570841
 30
0.0
 11
1406.725428687523
 21
987.1675985678716
 31
0.0
  0
LINE
  5
2BA
330
1F
100
AcDbEntity
  8
C4
 62
     0
100
AcDbLine
 10
1391.725653684154
 20
1098.36593059289
 30
0.0
 11
1392.725638684375
 21
1098.36593059289
 31
0.0
  0
LINE
  5
2BB
330
1F
100
AcDbEntity
  8
C4
 62
     0
100
AcDbLine
 10
1561.624572200947
 20
983.1676585669705
 30
0.0
 11
1411.725353688651
 21
983.1676585669705
 31
0.0
  0
LINE
  5
2BC
330
1F
100
AcDbEntity
  8
C4
 62
     0
100
AcDbLine
 10
1561.624337150037
 20
982.1676735667446
 30
0.0
 11
1411.725353688651
 21
982.1676735667446
 31
0.0
  0
LINE
  5
2BD
330
1F
100
AcDbEntity
  8
C4
 62
     0
100
AcDbLine
 10
1391.725653684154
 20
548.3741804691432
 30
0.0
 11
1392.725638684375
 21
548.3741804691432
 31
0.0
  0
LINE
  5
2BE
330
1F
100
AcDbEntity
  8
C4
 62
     0
100
AcDbLine
 10
1598.525551685676
 20
948.8681730592535
 30
0.0
 11
1593.677105105291
 21
948.8681730592535
 31
0.0
  0
ARC
  5
2BF
330
1F
100
AcDbEntity
  8
C4
 62
     0
100
AcDbCircle
 10
1593.677105105291
 20
950.8781449196786
 30
0.0
 40
2.009971860424097
100
AcDbArc
 50
181.4592635419482
 51
270.0
  0
LINE
  5
2C0
330
1F
100
AcDbEntity
  8
C4
 62
     0
100
AcDbLine
 10
1592.614058672343
 20
952.9573629964245
 30
0.0
 11
1592.655574905095
 21
951.3272281171386
 31
0.0
  0
LINE
  5
2C1
330
1F
100
AcDbEntity
  8
C4
 62
     0
100
AcDbLine
 10
1591.614157814818
 20
952.9320981024686
 30
0.0
 11
1591.667785111428
 21
950.8269585741456
 31
0.0
  0
LINE
  5
2C2
330
1F
100
AcDbEntity
  8
C4
 62
     0
100
AcDbLine
 10
1598.525551685676
 20
949.8681580594775
 30
0.0
 11
1594.155617234696
 21
949.8681580594775
 31
0.0
  0
LINE
  5
2C3
330
1F
100
AcDbEntity
  8
C4
 62
     0
100
AcDbLine
 10
1406.725428687523
 20
566.3759104431934
 30
0.0
 11
1406.725428687523
 21
579.5757124461621
 31
0.0
  0
LINE
  5
2C4
330
1F
100
AcDbEntity
  8
C4
 62
     0
100
AcDbLine
 10
1557.698679721036
 20
584.5756374472891
 30
0.0
 11
1411.725353688651
 21
584.5756374472891
 31
0.0
  0
LINE
  5
2C5
330
1F
100
AcDbEntity
  8
C4
 62
     0
100
AcDbLine
 10
1557.698935388651
 20
583.5756524470631
 30
0.0
 11
1411.725353688651
 21
583.5756524470631
 31
0.0
  0
LINE
  5
2C6
330
1F
100
AcDbEntity
  8
C4
 62
     0
100
AcDbLine
 10
1407.725413687755
 20
1000.367400570841
 30
0.0
 11
1407.725413687755
 21
987.1675985678716
 31
0.0
  0
LINE
  5
2C7
330
1F
100
AcDbEntity
  8
C4
 62
     0
100
AcDbLine
 10
1401.125512686262
 20
1003.367355571515
 30
0.0
 11
1403.725473686847
 21
1003.367355571515
 31
0.0
  0
LINE
  5
2C8
330
1F
100
AcDbEntity
  8
C4
 62
     0
100
AcDbLine
 10
1407.725413687755
 20
566.3759104431934
 30
0.0
 11
1407.725413687755
 21
579.5757124461621
 31
0.0
  0
LINE
  5
2C9
330
1F
100
AcDbEntity
  8
C4
 62
     0
100
AcDbLine
 10
1392.725693224055
 20
562.3729704947306
 30
0.0
 11
1403.726528211524
 21
562.3759704497303
 31
0.0
  0
LINE
  5
2CA
330
1F
100
AcDbEntity
  8
C4
 62
     0
100
AcDbLine
 10
1392.725638684375
 20
562.3729704872927
 30
0.0
 11
1392.725638684375
 21
548.3741804691432
 31
0.0
  0
LINE
  5
2CB
330
1F
100
AcDbEntity
  8
C4
 62
     0
100
AcDbLine
 10
1599.725533685955
 20
948.6681760592096
 30
0.0
 11
1599.725533685955
 21
937.3683455566658
 31
0.0
  0
LINE
  5
2CC
330
1F
100
AcDbEntity
  8
C4
 62
     0
100
AcDbLine
 10
1598.725548685723
 20
937.3683455566658
 30
0.0
 11
1599.725533685955
 21
937.3683455566658
 31
0.0
  0
LINE
  5
2CD
330
1F
100
AcDbEntity
  8
C4
 62
     0
100
AcDbLine
 10
1598.725548685723
 20
948.6681760592096
 30
0.0
 11
1598.725548685723
 21
937.3683455566658
 31
0.0
  0
LINE
  5
2CE
330
1F
100
AcDbEntity
  8
C4
 62
     0
100
AcDbLine
 10
1598.725548685723
 20
779.3707155211174
 30
0.0
 11
1599.725533685955
 21
779.3707155211174
 31
0.0
  0
LINE
  5
2CF
330
1F
100
AcDbEntity
  8
C4
 62
     0
100
AcDbLine
 10
1598.725548685723
 20
768.0708850185734
 30
0.0
 11
1598.725548685723
 21
779.3707155211174
 31
0.0
  0
LINE
  5
2D0
330
1F
100
AcDbEntity
  8
C4
 62
     0
100
AcDbLine
 10
1598.72554868572
 20
937.3683455566658
 30
0.0
 11
1598.725548685723
 21
779.3707155211174
 31
0.0
  0
LINE
  5
2D1
330
1F
100
AcDbEntity
  8
C4
 62
     0
100
AcDbLine
 10
1599.725533685951
 20
937.3683455566658
 30
0.0
 11
1599.725533685955
 21
779.3707155211174
 31
0.0
  0
LINE
  5
2D2
330
1F
100
AcDbEntity
  8
C4
 62
     0
100
AcDbLine
 10
1599.725533685955
 20
768.0708850185734
 30
0.0
 11
1599.725533685955
 21
779.3707155211174
 31
0.0
  0
ARC
  5
2D3
330
1F
100
AcDbEntity
  8
C4
 62
     0
100
AcDbCircle
 10
1411.725353688651
 20
579.5757124461621
 30
0.0
 40
3.999940000899969
100
AcDbArc
 50
90.00021045916507
 51
179.9998479604949
  0
ARC
  5
2D4
330
1F
100
AcDbEntity
  8
C4
 62
     0
100
AcDbCircle
 10
1403.725473686847
 20
566.3759104431934
 30
0.0
 40
3.999940000899969
100
AcDbArc
 50
270.000058419712
 51
0.0
  0
ARC
  5
2D5
330
1F
100
AcDbEntity
  8
C4
 62
     0
100
AcDbCircle
 10
1598.525551685676
 20
948.6681760592096
 30
0.0
 40
0.1999970000449987
100
AcDbArc
 50
0.0
 51
90.00021045915534
  0
ARC
  5
2D6
330
1F
100
AcDbEntity
  8
C4
 62
     0
100
AcDbCircle
 10
1598.525551685676
 20
948.6681760592096
 30
0.0
 40
1.199982000269992
100
AcDbArc
 50
0.0
 51
90.0002104591662
  0
ARC
  5
2D7
330
1F
100
AcDbEntity
  8
C4
 62
     0
100
AcDbCircle
 10
1395.125602684917
 20
1080.366200588841
 30
0.0
 40
2.999955000674979
100
AcDbArc
 50
0.0
 51
90.00021045916401
  0
ARC
  5
2D8
330
1F
100
AcDbEntity
  8
C4
 62
     0
100
AcDbCircle
 10
1395.125602684917
 20
1080.366200588841
 30
0.0
 40
3.999940000899969
100
AcDbArc
 50
0.0
 51
90.00021045916507
  0
ARC
  5
2D9
330
1F
100
AcDbEntity
  8
C4
 62
     0
100
AcDbCircle
 10
1594.155617234696
 20
765.3709255179662
 30
0.0
 40
2.499962500562482
100
AcDbArc
 50
90.00021045916314
 51
178.4998444528637
  0
ARC
  5
2DA
330
1F
100
AcDbEntity
  8
C4
 62
     0
100
AcDbCircle
 10
1598.525551685676
 20
768.0708850185734
 30
0.0
 40
1.199982000269992
100
AcDbArc
 50
270.0000584197088
 51
0.0
  0
ARC
  5
2DB
330
1F
100
AcDbEntity
  8
C4
 62
     0
100
AcDbCircle
 10
1594.155617234696
 20
951.3681355598166
 30
0.0
 40
1.499977500337489
100
AcDbArc
 50
181.5004244259432
 51
270.000058419711
  0
ARC
  5
2DC
330
1F
100
AcDbEntity
  8
C4
 62
     0
100
AcDbCircle
 10
1598.525551685676
 20
768.0708850185734
 30
0.0
 40
0.1999970000449987
100
AcDbArc
 50
270.0000584197414
 51
0.0
  0
ARC
  5
2DD
330
1F
100
AcDbEntity
  8
C4
 62
     0
100
AcDbCircle
 10
1411.725353688651
 20
579.5757124461621
 30
0.0
 40
4.999925001124963
100
AcDbArc
 50
90.00021045916314
 51
179.9998479604962
  0
ARC
  5
2DE
330
1F
100
AcDbEntity
  8
C4
 62
     0
100
AcDbCircle
 10
1403.725473686847
 20
566.3759104431934
 30
0.0
 40
2.999955000674979
100
AcDbArc
 50
270.000058419711
 51
0.0
  0
ARC
  5
2DF
330
1F
100
AcDbEntity
  8
C4
 62
     0
100
AcDbCircle
 10
1594.155617234696
 20
765.3709255179662
 30
0.0
 40
1.499977500337489
100
AcDbArc
 50
90.00021045916836
 51
178.4998444528647
  0
ARC
  5
2E0
330
1F
100
AcDbEntity
  8
C4
 62
     0
100
AcDbCircle
 10
1411.725353688651
 20
987.1675985678716
 30
0.0
 40
4.999925001124963
100
AcDbArc
 50
179.9998479604949
 51
270.0000584197126
  0
ARC
  5
2E1
330
1F
100
AcDbEntity
  8
C4
 62
     0
100
AcDbCircle
 10
1401.125512686262
 20
1006.367310572192
 30
0.0
 40
2.999955000674979
100
AcDbArc
 50
179.9998479604949
 51
270.000058419711
  0
ARC
  5
2E2
330
1F
100
AcDbEntity
  8
C4
 62
     0
100
AcDbCircle
 10
1403.725473686847
 20
1000.367400570841
 30
0.0
 40
2.999955000674979
100
AcDbArc
 50
0.0
 51
90.00021045916401
  0
ARC
  5
2E3
330
1F
100
AcDbEntity
  8
C4
 62
     0
100
AcDbCircle
 10
1392.725638684375
 20
562.3729704872927
 30
0.0
 40
0.9999850002249935
100
AcDbArc
 50
90.01396144624722
 51
179.9998479604949
  0
ARC
  5
2E4
330
1F
100
AcDbEntity
  8
C4
 62
     0
100
AcDbCircle
 10
1392.725638684375
 20
1084.366140589739
 30
0.0
 40
0.9999850002249935
100
AcDbArc
 50
179.9998479605079
 51
270.0000584197153
  0
ARC
  5
2E5
330
1F
100
AcDbEntity
  8
C4
 62
     0
100
AcDbCircle
 10
1401.125512686262
 20
1006.367310572192
 30
0.0
 40
1.999970000449987
100
AcDbArc
 50
179.9998479604949
 51
270.0000584197088
  0
ARC
  5
2E6
330
1F
100
AcDbEntity
  8
C4
 62
     0
100
AcDbCircle
 10
1403.725473686847
 20
1000.367400570841
 30
0.0
 40
3.999940000899969
100
AcDbArc
 50
0.0
 51
90.00021045916507
  0
ARC
  5
2E7
330
1F
100
AcDbEntity
  8
C4
 62
     0
100
AcDbCircle
 10
1411.725353688651
 20
987.1675985678716
 30
0.0
 40
3.999940000899969
100
AcDbArc
 50
179.9998479604949
 51
270.000058419712
  0
ARC
  5
2E8
330
1F
100
AcDbEntity
  8
C4
 62
     0
100
AcDbCircle
 10
1557.698679721036
 20
614.5751874540398
 30
0.0
 40
29.99955000674979
100
AcDbArc
 50
270.0
 51
358.50125058309
  0
ARC
  5
2E9
330
1F
100
AcDbEntity
  8
C4
 62
     0
100
AcDbCircle
 10
1557.698935388651
 20
614.5751874540398
 30
0.0
 40
30.99953500697476
100
AcDbArc
 50
270.0
 51
358.5011936383079
  0
ARC
  5
2EA
330
1F
100
AcDbEntity
  8
C4
 62
     0
100
AcDbCircle
 10
1561.624337150037
 20
952.1681235599966
 30
0.0
 40
29.99955000674979
100
AcDbArc
 50
1.459263541946953
 51
90.0
  0
ARC
  5
2EB
330
1F
100
AcDbEntity
  8
C4
 62
     0
100
AcDbCircle
 10
1561.624572200947
 20
952.1681235599966
 30
0.0
 40
30.99953500697476
100
AcDbArc
 50
1.458892057677576
 51
90.0
  0
LINE
  5
2EC
330
1F
100
AcDbEntity
  8
C4
 62
     0
100
AcDbLine
 10
1391.725653684154
 20
548.3741804691432
 30
0.0
 11
1391.725653684154
 21
562.3729731408426
 31
0.0
  0
LINE
  5
2ED
330
1F
100
AcDbEntity
  8
C4
 62
     0
100
AcDbLine
 10
1391.725653684154
 20
1098.36593059289
 30
0.0
 11
1391.725653684154
 21
548.3741804691432
 31
0.0
  0
DIMENSION
  5
2EE
330
1F
100
AcDbEntity
  8
C寸法
 62
     0
370
    13
100
AcDbDimension
  2
*D3
 10
1082.225653684009
 20
858.3695305388915
 30
0.0
 11
1064.725653684009
 21
923.3695305374356
 31
0.0
 70
    32
 71
     5
 42
129.9999999970881
  3
実寸
100
AcDbAlignedDimension
 13
982.2256536840086
 23
988.3695305359796
 33
0.0
 14
984.1519114610337
 24
858.3695305388915
 34
0.0
 50
90.0
100
AcDbRotatedDimension
1001
ACAD
1000
DSTYLE
1002
{
1070
   340
1005
F3
1070
   144
1040
1.0
1002
}
  0
DIMENSION
  5
2EF
330
1F
100
AcDbEntity
  8
C寸法
 62
     0
370
    13
100
AcDbDimension
  2
*D4
 10
1132.225653684009
 20
1003.36953053598
 30
0.0
 11
1132.225653684009
 21
914.8241436312175
 31
0.0
 70
   160
 71
     5
 42
15.0
  3
実寸
100
AcDbAlignedDimension
 13
982.2276536761146
 23
988.3695305359796
 33
0.0
 14
982.2276536761146
 24
1003.36953053598
 34
0.0
 50
90.0
100
AcDbRotatedDimension
1001
ACAD
1000
DSTYLE
1002
{
1070
   340
1005
F3
1070
   172
1070
     1
1070
   144
1040
1.0
1002
}
  0
DIMENSION
  5
2F0
330
1F
100
AcDbEntity
  8
C寸法
 62
     0
370
    13
100
AcDbDimension
  2
*D5
 10
153.021793673008
 20
413.3695305359794
 30
0.0
 11
553.0207936769531
 21
430.8695305359793
 31
0.0
 70
    32
 71
     5
 42
799.9980000078901
 52
-89.99999999999999
  3
実寸
100
AcDbAlignedDimension
 13
953.0197936808981
 23
563.3695305359794
 33
0.0
 14
153.021793673008
 24
623.3695305365715
 34
0.0
 50
180.0
100
AcDbRotatedDimension
1001
ACAD
1000
DSTYLE
1002
{
1070
   340
1005
F3
1070
   144
1040
1.0
1002
}
  0
DIMENSION
  5
2F1
330
1F
100
AcDbEntity
  8
C寸法
 62
     0
370
    13
100
AcDbDimension
  2
*D6
 10
1232.225653684009
 20
563.3695305359794
 30
0.0
 11
1214.725653684009
 21
823.3695305359795
 31
0.0
 70
    32
 71
     5
 42
520.0000000000003
  3
実寸
100
AcDbAlignedDimension
 13
982.2276536761146
 23
1083.36953053598
 33
0.0
 14
982.2256536841537
 24
563.3695305359794
 34
0.0
 50
90.0
100
AcDbRotatedDimension
1001
ACAD
1000
DSTYLE
1002
{
1070
   340
1005
F3
1070
   144
1040
1.0
1002
}
  0
DIMENSION
  5
2F2
330
1F
100
AcDbEntity
  8
C寸法
 62
     0
370
    13
100
AcDbDimension
  2
*D7
 10
803.0177936794134
 20
463.3695305359794
 30
0.0
 11
878.0187936800517
 21
480.8695305359794
 31
0.0
 70
    32
 71
     5
 42
150.0020000012764
 52
-89.99999999999999
  3
実寸
100
AcDbAlignedDimension
 13
953.0197936806899
 23
623.3696897519682
 33
0.0
 14
803.0177936794134
 24
563.3695305359794
 34
0.0
 50
180.0
100
AcDbRotatedDimension
1001
ACAD
1000
DSTYLE
1002
{
1070
   340
1005
F3
1070
   144
1040
1.0
1002
}
  0
DIMENSION
  5
2F4
330
1F
100
AcDbEntity
  8
C寸法
 62
     0
370
    13
100
AcDbDimension
  2
*D9
 10
1182.225653684009
 20
1083.36953053598
 30
0.0
 11
1164.725653684009
 21
1043.36953053598
 31
0.0
 70
    32
 71
     5
 42
80.00000000000011
  3
実寸
100
AcDbAlignedDimension
 13
982.2256536841537
 23
1003.36953053598
 33
0.0
 14
982.2276536761146
 24
1083.36953053598
 34
0.0
 50
90.0
100
AcDbRotatedDimension
1001
ACAD
1000
DSTYLE
1002
{
1070
   340
1005
F3
1070
   144
1040
1.0
1002
}
  0
DIMENSION
  5
2F5
330
1F
100
AcDbEntity
  8
C寸法
 62
     0
370
    13
100
AcDbDimension
  2
*D10
 10
1132.225653684009
 20
563.3695305359794
 30
0.0
 11
1132.225653684009
 21
489.8241436312175
 31
0.0
 70
   160
 71
     5
 42
15.0
  3
実寸
100
AcDbAlignedDimension
 13
982.2276536761146
 23
578.3695305359794
 33
0.0
 14
982.2276536761146
 24
563.3695305359794
 34
0.0
 50
90.0
100
AcDbRotatedDimension
1001
ACAD
1000
DSTYLE
1002
{
1070
   340
1005
F3
1070
   172
1070
     1
1070
   144
1040
1.0
1002
}
  0
DIMENSION
  5
2F6
330
1F
100
AcDbEntity
  8
C寸法
 62
     0
370
    13
100
AcDbDimension
  2
*D11
 10
1182.225653684009
 20
563.3695305360104
 30
0.0
 11
1164.725653684009
 21
783.3695305381666
 31
0.0
 70
    32
 71
     5
 42
440.0000000043123
  3
実寸
100
AcDbAlignedDimension
 13
892.225653683412
 23
1003.369530540323
 33
0.0
 14
892.225714860173
 24
563.3695305360104
 34
0.0
 50
90.0
100
AcDbRotatedDimension
1001
ACAD
1000
DSTYLE
1002
{
1070
   340
1005
F3
1070
   144
1040
1.0
1002
}
  0
DIMENSION
  5
2F7
330
1F
100
AcDbEntity
  8
C寸法
 62
     0
370
    13
100
AcDbDimension
  2
*D12
 10
1132.225653684009
 20
578.3695305361276
 30
0.0
 11
1114.725653684009
 21
783.3695305360536
 31
0.0
 70
    32
 71
     5
 42
409.999999999852
  3
実寸
100
AcDbAlignedDimension
 13
552.2276536776026
 23
988.3695305359796
 33
0.0
 14
552.2276536800646
 24
578.3695305361276
 34
0.0
 50
90.0
100
AcDbRotatedDimension
1001
ACAD
1000
DSTYLE
1002
{
1070
   340
1005
F3
1070
   144
1040
1.0
1002
}
  0
LINE
  5
2F8
330
1F
100
AcDbEntity
  8
C2
  6
CENTER
 62
     0
 48
20.0
370
    13
100
AcDbLine
 10
553.0197936794102
 20
509.9315305388933
 30
0.0
 11
553.0197936794102
 21
1119.009530538895
 31
0.0
  0
LINE
  5
2F9
330
1F
100
AcDbEntity
  8
C寸法
  6
CENTER
 62
     7
 48
20.0
370
    13
100
AcDbLine
 10
589.9690488884191
 20
1043.369530538891
 30
0.0
 11
515.757150065615
 21
1043.369530538891
 31
0.0
  0
CIRCLE
  5
2FA
330
1F
100
AcDbEntity
  8
C寸法
 62
     7
100
AcDbCircle
 10
553.0197936794102
 20
1043.369530538891
 30
0.0
 40
18.0
  0
DIMENSION
  5
2FB
330
1F
100
AcDbEntity
  8
C寸法
 62
     7
370
    13
100
AcDbDimension
  2
*D13
 10
1082.225653684009
 20
1083.36953053598
 30
0.0
 11
1064.725653684009
 21
1158.607625774075
 31
0.0
 70
    32
 71
     5
 42
39.99999999708827
  3
実寸
100
AcDbAlignedDimension
 13
595.7322330102015
 23
1043.369530538891
 33
0.0
 14
892.2248688923994
 24
1083.36953053598
 34
0.0
 50
90.0
100
AcDbRotatedDimension
1001
ACAD
1000
DSTYLE
1002
{
1070
   340
1005
F3
1070
   172
1070
     1
1070
   144
1040
1.0
1002
}
  0
LINE
  5
2FD
330
1F
100
AcDbEntity
  8
C4
 62
     0
100
AcDbLine
 10
1406.725428687545
 20
987.1676118356226
 30
0.0
 11
1406.725428687545
 21
883.5242625084182
 31
0.0
  0
LINE
  5
2FE
330
1F
100
AcDbEntity
  8
C4
 62
     0
100
AcDbLine
 10
1406.725428687542
 20
683.2150948257873
 30
0.0
 11
1406.725428687545
 21
579.5757257139129
 31
0.0
  0
DIMENSION
  5
2FF
330
1F
100
AcDbEntity
  8
C寸法
 62
     0
370
    13
100
AcDbDimension
  2
*D15
 10
893.4089539079264
 20
694.5681115537916
 30
0.0
 11
788.9223649126355
 21
694.5681115537916
 31
0.0
 70
   160
  1
Φ<>
 71
     5
 42
180.8103317708083
 52
-90.00000000000001
  3
実寸
100
AcDbAlignedDimension
 13
712.5986221371181
 23
854.5394727769519
 33
0.0
 14
893.4089539079264
 24
854.2936454910828
 34
0.0
 50
0.000000000000007
100
AcDbRotatedDimension
1001
ACAD
1000
DSTYLE
1002
{
1070
   271
1070
     0
1070
   340
1005
F3
1070
   144
1040
1.0
1002
}
  0
DIMENSION
  5
3A6
330
1F
100
AcDbEntity
  8
0
370
    13
100
AcDbDimension
  2
*D16
 10
534.928939404638
 20
1136.252174035443
 30
0.0
 11
402.9944155951141
 21
1153.752174035443
 31
0.0
 70
    32
  1
Φ<>水栓穴
 71
     5
 42
36.31984205330696
 52
-89.99999999999999
  3
JIS-1
100
AcDbAlignedDimension
 13
571.2487814579449
 23
1043.25136635349
 33
0.0
 14
534.928939404638
 24
1043.25136635349
 34
0.0
 50
180.0
100
AcDbRotatedDimension
1001
ACAD
1000
DSTYLE
1002
{
1070
   271
1070
     0
1070
   140
1040
25.0
1070
   340
1005
F3
1070
   147
1040
5.0
1070
    41
1040
25.0
1002
}
  0
DIMENSION
  5
3B6
330
1F
100
AcDbEntity
  8
0
370
    13
100
AcDbDimension
  2
*D17
 10
257.9505232779242
 20
684.7941755527509
 30
0.0
 11
248.5209327392485
 21
677.5954329397999
 31
0.0
 70
   164
  1
4-<>
 71
     5
 42
100.000000000987
  3
JIS-1
100
AcDbRadialDimension
 15
178.4654659508323
 25
624.1136542802179
 35
0.0
 40
0.0
1001
ACAD_DSTYLE_DIMRADIAL_EXTENSION
1070
   387
1070
     0
1070
   388
1040
4.778580000000168
1070
   390
1040
6.233090000000171
1001
ACAD
1000
DSTYLE
1002
{
1070
   140
1040
25.0
1070
   147
1040
5.0
1070
   340
1005
F3
1070
    41
1040
25.0
1070
   344
1005
90
1070
   173
1070
     1
1002
}
  0
DIMENSION
  5
3C1
330
1F
100
AcDbEntity
  8
0
370
    13
100
AcDbDimension
  2
*D18
 10
180.1002263252097
 20
574.857951457205
 30
0.0
 11
285.4090720598717
 21
659.3979865529473
 31
0.0
 70
   164
  1
4-R60
 71
     5
 42
2.187610155772035
  3
JIS-1
100
AcDbRadialDimension
 15
181.8061454396222
 25
576.2274324423665
 35
0.0
 40
0.0
1001
ACAD_DSTYLE_DIMRADIAL_EXTENSION
1070
   387
1070
     0
1070
   388
1040
4.712389999997368
1070
   390
1040
0.0
1001
ACAD
1000
DSTYLE
1002
{
1070
   140
1040
25.0
1070
   340
1005
F3
1070
   147
1040
5.0
1070
    41
1040
25.0
1070
   344
1005
90
1070
   173
1070
     1
1002
}
  0
DIMENSION
  5
526
330
1F
100
AcDbEntity
  8
0
370
    13
100
AcDbDimension
  2
*D20
 10
226.4950323512455
 20
1024.64953779792
 30
0.0
 11
77.70412942875897
 21
1131.032402029755
 31
0.0
 70
   164
  1
2-R60
 71
     5
 42
67.79089359426615
  3
JIS-1
100
AcDbRadialDimension
 15
171.3494880418208
 25
1064.077626733682
 35
0.0
 40
0.0
1001
ACAD_DSTYLE_DIMRADIAL_EXTENSION
1070
   387
1070
     0
1070
   388
1040
1.570800000000252
1070
   390
1040
3.141589999999848
1001
ACAD
1000
DSTYLE
1002
{
1070
   140
1040
25.0
1070
   340
1005
F3
1070
   147
1040
5.0
1070
    41
1040
25.0
1070
   344
1005
90
1070
   173
1070
     1
1002
}
1001
ACAD_DSTYLE_DIMFLIPARROW_SYMBOL
1070
   385
1070
     0
1001
ACAD_DSTYLE_DIMFLIPARROW_WHICH_SYMBOL
1070
   386
1070
     3
  0
DIMENSION
  5
530
330
1F
100
AcDbEntity
  8
C寸法
  6
ByBlock
 62
     0
370
    13
100
AcDbDimension
  2
*D21
 10
66.88366967534564
 20
129.0695305358311
 30
0.0
 11
66.88366967534563
 21
229.069530535831
 31
0.0
 70
   160
 71
     5
 42
200.0000000000002
 52
-90.0
  3
実寸
100
AcDbAlignedDimension
 13
127.6679742041397
 23
329.0695305358312
 33
0.0
 14
717.1659742017674
 24
129.0695305358311
 34
0.0
 50
90.00000000000001
100
AcDbRotatedDimension
1001
ACAD
1000
DSTYLE
1002
{
1070
   340
1005
F3
1070
   144
1040
1.0
1002
}
  0
DIMENSION
  5
531
330
1F
100
AcDbEntity
  8
C寸法
  6
ByBlock
 62
     0
370
    13
100
AcDbDimension
  2
*D22
 10
107.7262950904044
 20
314.0695305356842
 30
0.0
 11
107.7262950904044
 21
240.5241436309222
 31
0.0
 70
   160
 71
     5
 42
15.00000000014689
 52
-90.0
  3
実寸
100
AcDbAlignedDimension
 13
142.6679741960927
 23
329.0695305358311
 33
0.0
 14
160.6699741962677
 24
314.0695305356842
 34
0.0
 50
90.00000000000001
100
AcDbRotatedDimension
1001
ACAD
1000
DSTYLE
1002
{
1070
   340
1005
F3
1070
   172
1070
     1
1070
   144
1040
1.0
1002
}
  0
ENDSEC
  0
SECTION
  2
OBJECTS
  0
DICTIONARY
  5
C
330
0
100
AcDbDictionary
281
     1
  3
ACAD_COLOR
350
F5
  3
ACAD_DETAILVIEWSTYLE
350
DA
  3
ACAD_GROUP
350
D
  3
ACAD_IMAGE_VARS
350
6A
  3
ACAD_LAYOUT
350
1A
  3
ACAD_MATERIAL
350
97
  3
ACAD_MLEADERSTYLE
350
3F
  3
ACAD_MLINESTYLE
350
17
  3
ACAD_PLOTSETTINGS
350
19
  3
ACAD_PLOTSTYLENAME
350
E
  3
ACAD_SCALELIST
350
40
  3
ACAD_SECTIONVIEWSTYLE
350
DB
  3
ACAD_TABLESTYLE
350
3B
  3
ACDB_RECOMPOSE_DATA
350
594
  3
AcDbVariableDictionary
350
3D
  3
APPDATA
350
96
  0
DICTIONARY
  5
25B
330
2
100
AcDbDictionary
280
     1
281
     1
  3
ACAD_LAYERSTATES
360
25C
  0
DICTIONARY
  5
F5
102
{ACAD_REACTORS
330
C
102
}
330
C
100
AcDbDictionary
281
     1
  0
DICTIONARY
  5
DA
102
{ACAD_REACTORS
330
C
102
}
330
C
100
AcDbDictionary
281
     1
  0
DICTIONARY
  5
D
102
{ACAD_REACTORS
330
C
102
}
330
C
100
AcDbDictionary
281
     1
  0
RASTERVARIABLES
  5
6A
102
{ACAD_REACTORS
330
C
102
}
330
C
100
AcDbRasterVariables
 90
        0
 70
     1
 71
     1
 72
     1
  0
DICTIONARY
  5
1A
102
{ACAD_REACTORS
330
C
102
}
330
C
100
AcDbDictionary
281
     1
  3
Model
350
22
  3
Sheet1
350
1E
  3
Sheet2
350
26
  0
DICTIONARY
  5
97
102
{ACAD_REACTORS
330
C
102
}
330
C
100
AcDbDictionary
281
     1
  3
ByBlock
350
99
  3
ByLayer
350
98
  3
Global
350
9A
  0
DICTIONARY
  5
3F
102
{ACAD_REACTORS
330
C
102
}
330
C
100
AcDbDictionary
281
     1
  3
Standard
350
DC
  0
DICTIONARY
  5
17
102
{ACAD_REACTORS
330
C
102
}
330
C
100
AcDbDictionary
281
     1
  3
Standard
350
18
  0
DICTIONARY
  5
19
102
{ACAD_REACTORS
330
C
102
}
330
C
100
AcDbDictionary
281
     1
  0
ACDBDICTIONARYWDFLT
  5
E
102
{ACAD_REACTORS
330
C
102
}
330
C
100
AcDbDictionary
281
     1
  3
Normal
350
F
100
AcDbDictionaryWithDefault
340
F
  0
DICTIONARY
  5
40
102
{ACAD_REACTORS
330
C
102
}
330
C
100
AcDbDictionary
281
     1
  3
A0
350
41
  3
A1
350
42
  3
A2
350
43
  3
A3
350
44
  3
A4
350
45
  3
A5
350
46
  3
A6
350
47
  3
A7
350
48
  3
A8
350
49
  3
A9
350
4A
  3
B0
350
4B
  3
B1
350
4C
  3
B2
350
4D
  3
B3
350
4E
  3
B4
350
4F
  3
B5
350
50
  3
B6
350
51
  3
B7
350
52
  3
B8
350
53
  3
B9
350
54
  3
C0
350
55
  3
C1
350
56
  3
C2
350
57
  3
C3
350
58
  3
C4
350
59
  3
C5
350
5A
  3
C6
350
5B
  3
C7
350
5C
  3
C8
350
5D
  3
C9
350
5E
  3
D0
350
5F
  3
D1
350
60
  3
D2
350
61
  0
DICTIONARY
  5
DB
102
{ACAD_REACTORS
330
C
102
}
330
C
100
AcDbDictionary
281
     1
  0
DICTIONARY
  5
3B
102
{ACAD_REACTORS
330
C
102
}
330
C
100
AcDbDictionary
281
     1
  3
Standard
350
3C
  0
XRECORD
  5
594
102
{ACAD_REACTORS
330
C
102
}
330
C
100
AcDbXrecord
280
     1
 90
        1
330
3C
  0
DICTIONARY
  5
3D
102
{ACAD_REACTORS
330
C
102
}
330
C
100
AcDbDictionary
281
     1
  3
CANNOSCALE
350
62
  3
CMLEADERSTYLE
350
3D7
  3
CTABLESTYLE
350
3E
  3
LIGHTSINBLOCKS
350
6F
  3
MSLTSCALE
350
576
  3
XCLIPFRAME
350
70
  0
DICTIONARY
  5
96
102
{ACAD_REACTORS
330
C
102
}
330
C
100
AcDbDictionary
281
     1
  0
DICTIONARY
  5
25C
102
{ACAD_REACTORS
330
25B
102
}
330
25B
100
AcDbDictionary
281
     1
  0
LAYOUT
  5
22
102
{ACAD_REACTORS
330
1A
102
}
330
1A
100
AcDbPlotSettings
  1

  2
none_device
  4
ISO_A3_(420.00_x_297.00_MM)
  6

 40
7.5
 41
20.0
 42
7.5
 43
20.0
 44
420.0
 45
297.0
 46
20.78282828282826
 47
0.0
 48
0.0
 49
0.0
140
0.0
141
0.0
142
1.0
143
1.155642023346303
 70
  1204
 72
     1
 73
     0
 74
     1
  7
monochrome.ctb
 75
     0
 76
     0
 77
     2
 78
   300
147
0.8653198653198654
148
-134.1869158878504
149
0.0
100
AcDbLayout
  1
Model
 70
     1
 71
     0
 10
0.0
 20
0.0
 11
420.0
 21
297.0
 12
0.0
 22
0.0
 32
0.0
 14
-9.388866225661161
 24
28.70302929262448
 34
0.0
 15
1790.666793016886
 25
1230.251517200119
 35
0.0
146
0.0
 13
0.0
 23
0.0
 33
0.0
 16
1.0
 26
0.0
 36
0.0
 17
0.0
 27
1.0
 37
0.0
 76
     0
330
1F
331
29
  0
LAYOUT
  5
1E
102
{ACAD_REACTORS
330
1A
102
}
330
1A
100
AcDbPlotSettings
  1

  2
none_device
  4

  6

 40
0.0
 41
0.0
 42
0.0
 43
0.0
 44
0.0
 45
0.0
 46
0.0
 47
0.0
 48
0.0
 49
0.0
140
0.0
141
0.0
142
1.0
143
1.0
 70
   688
 72
     0
 73
     0
 74
     5
  7

 75
    16
 76
     0
 77
     2
 78
   300
147
1.0
148
0.0
149
0.0
100
AcDbLayout
  1
Sheet1
 70
     1
 71
     1
 10
0.0
 20
0.0
 11
420.0
 21
297.0
 12
0.0
 22
0.0
 32
0.0
 14
1.000000000000000E+20
 24
1.000000000000000E+20
 34
1.000000000000000E+20
 15
-1.000000000000000E+20
 25
-1.000000000000000E+20
 35
-1.000000000000000E+20
146
0.0
 13
0.0
 23
0.0
 33
0.0
 16
1.0
 26
0.0
 36
0.0
 17
0.0
 27
1.0
 37
0.0
 76
     0
330
1B
  0
LAYOUT
  5
26
102
{ACAD_REACTORS
330
1A
102
}
330
1A
100
AcDbPlotSettings
  1

  2
none_device
  4

  6

 40
0.0
 41
0.0
 42
0.0
 43
0.0
 44
0.0
 45
0.0
 46
0.0
 47
0.0
 48
0.0
 49
0.0
140
0.0
141
0.0
142
1.0
143
1.0
 70
   688
 72
     0
 73
     0
 74
     5
  7

 75
    16
 76
     0
 77
     2
 78
   300
147
1.0
148
0.0
149
0.0
100
AcDbLayout
  1
Sheet2
 70
     1
 71
     2
 10
0.0
 20
0.0
 11
0.0
 21
0.0
 12
0.0
 22
0.0
 32
0.0
 14
0.0
 24
0.0
 34
0.0
 15
0.0
 25
0.0
 35
0.0
146
0.0
 13
0.0
 23
0.0
 33
0.0
 16
1.0
 26
0.0
 36
0.0
 17
0.0
 27
1.0
 37
0.0
 76
     0
330
23
  0
MATERIAL
  5
99
102
{ACAD_REACTORS
330
97
102
}
330
97
100
AcDbMaterial
  1
ByBlock
  0
MATERIAL
  5
98
102
{ACAD_REACTORS
330
97
102
}
330
97
100
AcDbMaterial
  1
ByLayer
  0
MATERIAL
  5
9A
102
{ACAD_REACTORS
330
97
102
}
330
97
100
AcDbMaterial
  1
Global
  0
MLEADERSTYLE
  5
DC
102
{ACAD_REACTORS
330
3F
102
}
330
3F
100
AcDbMLeaderStyle
170
     2
171
     1
172
     0
 90
        2
 40
0.0
 41
0.0
173
     1
 91
-1056964608
340
14
 92
       -2
290
     1
 42
2.0
291
     1
 43
8.0
  3
Standard
341
0
 44
4.0
300

342
11
174
     1
178
     6
175
     1
176
     0
 93
-1056964608
 45
4.0
292
     0
297
     0
 46
4.0
343
0
 94
-1056964608
 47
1.0
 49
1.0
140
1.0
293
     1
141
0.0
294
     1
177
     0
142
1.0
295
     0
296
     0
143
3.75
1001
ACAD_MLEADERVER
1070
     2
  0
MLINESTYLE
  5
18
102
{ACAD_REACTORS
330
17
102
}
330
17
100
AcDbMlineStyle
  2
Standard
 70
     0
  3

 62
   256
 51
90.0
 52
90.0
 71
     2
 49
0.5
 62
   256
  6
BYLAYER
 49
-0.5
 62
   256
  6
BYLAYER
  0
ACDBPLACEHOLDER
  5
F
102
{ACAD_REACTORS
330
E
102
}
330
E
  0
SCALE
  5
41
102
{ACAD_REACTORS
330
40
102
}
330
40
100
AcDbScale
 70
     0
300
1:1
140
1.0
141
1.0
290
     1
  0
SCALE
  5
42
102
{ACAD_REACTORS
330
40
102
}
330
40
100
AcDbScale
 70
     0
300
1:2
140
1.0
141
2.0
290
     0
  0
SCALE
  5
43
102
{ACAD_REACTORS
330
40
102
}
330
40
100
AcDbScale
 70
     0
300
1:4
140
1.0
141
4.0
290
     0
  0
SCALE
  5
44
102
{ACAD_REACTORS
330
40
102
}
330
40
100
AcDbScale
 70
     0
300
1:5
140
1.0
141
5.0
290
     0
  0
SCALE
  5
45
102
{ACAD_REACTORS
330
40
102
}
330
40
100
AcDbScale
 70
     0
300
1:8
140
1.0
141
8.0
290
     0
  0
SCALE
  5
46
102
{ACAD_REACTORS
330
40
102
}
330
40
100
AcDbScale
 70
     0
300
1:10
140
1.0
141
10.0
290
     0
  0
SCALE
  5
47
102
{ACAD_REACTORS
330
40
102
}
330
40
100
AcDbScale
 70
     0
300
1:16
140
1.0
141
16.0
290
     0
  0
SCALE
  5
48
102
{ACAD_REACTORS
330
40
102
}
330
40
100
AcDbScale
 70
     0
300
1:20
140
1.0
141
20.0
290
     0
  0
SCALE
  5
49
102
{ACAD_REACTORS
330
40
102
}
330
40
100
AcDbScale
 70
     0
300
1:30
140
1.0
141
30.0
290
     0
  0
SCALE
  5
4A
102
{ACAD_REACTORS
330
40
102
}
330
40
100
AcDbScale
 70
     0
300
1:40
140
1.0
141
40.0
290
     0
  0
SCALE
  5
4B
102
{ACAD_REACTORS
330
40
102
}
330
40
100
AcDbScale
 70
     0
300
1:50
140
1.0
141
50.0
290
     0
  0
SCALE
  5
4C
102
{ACAD_REACTORS
330
40
102
}
330
40
100
AcDbScale
 70
     0
300
1:100
140
1.0
141
100.0
290
     0
  0
SCALE
  5
4D
102
{ACAD_REACTORS
330
40
102
}
330
40
100
AcDbScale
 70
     0
300
2:1
140
2.0
141
1.0
290
     0
  0
SCALE
  5
4E
102
{ACAD_REACTORS
330
40
102
}
330
40
100
AcDbScale
 70
     0
300
4:1
140
4.0
141
1.0
290
     0
  0
SCALE
  5
4F
102
{ACAD_REACTORS
330
40
102
}
330
40
100
AcDbScale
 70
     0
300
8:1
140
8.0
141
1.0
290
     0
  0
SCALE
  5
50
102
{ACAD_REACTORS
330
40
102
}
330
40
100
AcDbScale
 70
     0
300
10:1
140
10.0
141
1.0
290
     0
  0
SCALE
  5
51
102
{ACAD_REACTORS
330
40
102
}
330
40
100
AcDbScale
 70
     0
300
100:1
140
100.0
141
1.0
290
     0
  0
SCALE
  5
52
102
{ACAD_REACTORS
330
40
102
}
330
40
100
AcDbScale
 70
     0
300
1/128" = 1'-0"
140
0.0078125
141
12.0
290
     0
  0
SCALE
  5
53
102
{ACAD_REACTORS
330
40
102
}
330
40
100
AcDbScale
 70
     0
300
1/64" = 1'-0"
140
0.015625
141
12.0
290
     0
  0
SCALE
  5
54
102
{ACAD_REACTORS
330
40
102
}
330
40
100
AcDbScale
 70
     0
300
1/32" = 1'-0"
140
0.03125
141
12.0
290
     0
  0
SCALE
  5
55
102
{ACAD_REACTORS
330
40
102
}
330
40
100
AcDbScale
 70
     0
300
1/16" = 1'-0"
140
0.0625
141
12.0
290
     0
  0
SCALE
  5
56
102
{ACAD_REACTORS
330
40
102
}
330
40
100
AcDbScale
 70
     0
300
3/32" = 1'-0"
140
0.09375
141
12.0
290
     0
  0
SCALE
  5
57
102
{ACAD_REACTORS
330
40
102
}
330
40
100
AcDbScale
 70
     0
300
1/8" = 1'-0"
140
0.125
141
12.0
290
     0
  0
SCALE
  5
58
102
{ACAD_REACTORS
330
40
102
}
330
40
100
AcDbScale
 70
     0
300
3/16" = 1'-0"
140
0.1875
141
12.0
290
     0
  0
SCALE
  5
59
102
{ACAD_REACTORS
330
40
102
}
330
40
100
AcDbScale
 70
     0
300
1/4" = 1'-0"
140
0.25
141
12.0
290
     0
  0
SCALE
  5
5A
102
{ACAD_REACTORS
330
40
102
}
330
40
100
AcDbScale
 70
     0
300
3/8" = 1'-0"
140
0.375
141
12.0
290
     0
  0
SCALE
  5
5B
102
{ACAD_REACTORS
330
40
102
}
330
40
100
AcDbScale
 70
     0
300
1/2" = 1'-0"
140
0.5
141
12.0
290
     0
  0
SCALE
  5
5C
102
{ACAD_REACTORS
330
40
102
}
330
40
100
AcDbScale
 70
     0
300
3/4" = 1'-0"
140
0.75
141
12.0
290
     0
  0
SCALE
  5
5D
102
{ACAD_REACTORS
330
40
102
}
330
40
100
AcDbScale
 70
     0
300
1" = 1'-0"
140
1.0
141
12.0
290
     0
  0
SCALE
  5
5E
102
{ACAD_REACTORS
330
40
102
}
330
40
100
AcDbScale
 70
     0
300
1-1/2" = 1'-0"
140
1.5
141
12.0
290
     0
  0
SCALE
  5
5F
102
{ACAD_REACTORS
330
40
102
}
330
40
100
AcDbScale
 70
     0
300
3" = 1'-0"
140
3.0
141
12.0
290
     0
  0
SCALE
  5
60
102
{ACAD_REACTORS
330
40
102
}
330
40
100
AcDbScale
 70
     0
300
6" = 1'-0"
140
6.0
141
12.0
290
     0
  0
SCALE
  5
61
102
{ACAD_REACTORS
330
40
102
}
330
40
100
AcDbScale
 70
     0
300
1'-0" = 1'-0"
140
12.0
141
12.0
290
     0
  0
TABLESTYLE
  5
3C
102
{ACAD_REACTORS
330
3B
102
}
102
{ACAD_XDICTIONARY
360
591
102
}
330
3B
100
AcDbTableStyle
  3
Standard
 70
     0
 71
     0
 40
1.5
 41
1.5
280
     0
281
     0
  7
Standard
140
4.5
170
     2
 62
     0
 63
   257
283
     0
274
    -2
284
     1
 64
     0
275
    -2
285
     1
 65
     0
276
    -2
286
     1
 66
     0
277
    -2
287
     1
 67
     0
278
    -2
288
     1
 68
     0
279
    -2
289
     1
 69
     0
  7
Standard
140
6.0
170
     5
 62
     0
 63
   257
283
     0
274
    -2
284
     1
 64
     0
275
    -2
285
     1
 65
     0
276
    -2
286
     1
 66
     0
277
    -2
287
     1
 67
     0
278
    -2
288
     1
 68
     0
279
    -2
289
     1
 69
     0
  7
Standard
140
4.5
170
     5
 62
     0
 63
   257
283
     0
274
    -2
284
     1
 64
     0
275
    -2
285
     1
 65
     0
276
    -2
286
     1
 66
     0
277
    -2
287
     1
 67
     0
278
    -2
288
     1
 68
     0
279
    -2
289
     1
 69
     0
  0
DICTIONARYVAR
  5
62
102
{ACAD_REACTORS
330
3D
102
}
330
3D
100
DictionaryVariables
280
     0
  1
1:1
  0
DICTIONARYVAR
  5
3D7
102
{ACAD_REACTORS
330
3D
102
}
330
3D
100
DictionaryVariables
280
     0
  1
Standard
  0
DICTIONARYVAR
  5
3E
102
{ACAD_REACTORS
330
3D
102
}
330
3D
100
DictionaryVariables
280
     0
  1
Standard
  0
DICTIONARYVAR
  5
6F
102
{ACAD_REACTORS
330
3D
102
}
330
3D
100
DictionaryVariables
280
     0
  1
0
  0
DICTIONARYVAR
  5
576
102
{ACAD_REACTORS
330
3D
102
}
330
3D
100
DictionaryVariables
280
     0
  1
0
  0
DICTIONARYVAR
  5
70
102
{ACAD_REACTORS
330
3D
102
}
330
3D
100
DictionaryVariables
280
     0
  1
0
  0
DICTIONARY
  5
591
330
3C
100
AcDbDictionary
280
     1
281
     1
  3
ACAD_ROUNDTRIP_2008_TABLESTYLE_CELLSTYLEMAP
360
593
  3
ACAD_XREC_ROUNDTRIP
360
592
  0
CELLSTYLEMAP
  5
593
102
{ACAD_REACTORS
330
591
102
}
330
591
100
AcDbCellStyleMap
 90
        3
300
CELLSTYLE
  1
TABLEFORMAT_BEGIN
 90
        5
170
     1
 91
        0
 92
    32768
 62
   257
 93
        1
300
CONTENTFORMAT
  1
CONTENTFORMAT_BEGIN
 90
        0
 91
        0
 92
      512
 93
        0
300

 40
0.0
140
1.0
 94
        5
 62
     0
340
11
144
6.0
309
CONTENTFORMAT_END
171
     1
301
MARGIN
  1
CELLMARGIN_BEGIN
 40
1.5
 40
1.5
 40
1.5
 40
1.5
 40
0.18
 40
0.18
309
CELLMARGIN_END
 94
        6
 95
        1
302
GRIDFORMAT
  1
GRIDFORMAT_BEGIN
 90
        0
 91
        1
 62
     0
 92
       -2
340
0
 93
        0
 40
0.045
309
GRIDFORMAT_END
 95
        2
302
GRIDFORMAT
  1
GRIDFORMAT_BEGIN
 90
        0
 91
        1
 62
     0
 92
       -2
340
0
 93
        0
 40
0.045
309
GRIDFORMAT_END
 95
        4
302
GRIDFORMAT
  1
GRIDFORMAT_BEGIN
 90
        0
 91
        1
 62
     0
 92
       -2
340
0
 93
        0
 40
0.045
309
GRIDFORMAT_END
 95
        8
302
GRIDFORMAT
  1
GRIDFORMAT_BEGIN
 90
        0
 91
        1
 62
     0
 92
       -2
340
0
 93
        0
 40
0.045
309
GRIDFORMAT_END
 95
       16
302
GRIDFORMAT
  1
GRIDFORMAT_BEGIN
 90
        0
 91
        1
 62
     0
 92
       -2
340
0
 93
        0
 40
0.045
309
GRIDFORMAT_END
 95
       32
302
GRIDFORMAT
  1
GRIDFORMAT_BEGIN
 90
        0
 91
        1
 62
     0
 92
       -2
340
0
 93
        0
 40
0.045
309
GRIDFORMAT_END
309
TABLEFORMAT_END
  1
CELLSTYLE_BEGIN
 90
        1
 91
        1
300
_TITLE
309
CELLSTYLE_END
300
CELLSTYLE
  1
TABLEFORMAT_BEGIN
 90
        5
170
     1
 91
        0
 92
        0
 62
   257
 93
        1
300
CONTENTFORMAT
  1
CONTENTFORMAT_BEGIN
 90
        0
 91
        0
 92
      512
 93
        0
300

 40
0.0
140
1.0
 94
        5
 62
     0
340
11
144
4.5
309
CONTENTFORMAT_END
171
     1
301
MARGIN
  1
CELLMARGIN_BEGIN
 40
1.5
 40
1.5
 40
1.5
 40
1.5
 40
0.18
 40
0.18
309
CELLMARGIN_END
 94
        6
 95
        1
302
GRIDFORMAT
  1
GRIDFORMAT_BEGIN
 90
        0
 91
        1
 62
     0
 92
       -2
340
0
 93
        0
 40
0.045
309
GRIDFORMAT_END
 95
        2
302
GRIDFORMAT
  1
GRIDFORMAT_BEGIN
 90
        0
 91
        1
 62
     0
 92
       -2
340
0
 93
        0
 40
0.045
309
GRIDFORMAT_END
 95
        4
302
GRIDFORMAT
  1
GRIDFORMAT_BEGIN
 90
        0
 91
        1
 62
     0
 92
       -2
340
0
 93
        0
 40
0.045
309
GRIDFORMAT_END
 95
        8
302
GRIDFORMAT
  1
GRIDFORMAT_BEGIN
 90
        0
 91
        1
 62
     0
 92
       -2
340
0
 93
        0
 40
0.045
309
GRIDFORMAT_END
 95
       16
302
GRIDFORMAT
  1
GRIDFORMAT_BEGIN
 90
        0
 91
        1
 62
     0
 92
       -2
340
0
 93
        0
 40
0.045
309
GRIDFORMAT_END
 95
       32
302
GRIDFORMAT
  1
GRIDFORMAT_BEGIN
 90
        0
 91
        1
 62
     0
 92
       -2
340
0
 93
        0
 40
0.045
309
GRIDFORMAT_END
309
TABLEFORMAT_END
  1
CELLSTYLE_BEGIN
 90
        2
 91
        1
300
_HEADER
309
CELLSTYLE_END
300
CELLSTYLE
  1
TABLEFORMAT_BEGIN
 90
        5
170
     1
 91
        0
 92
        0
 62
   257
 93
        1
300
CONTENTFORMAT
  1
CONTENTFORMAT_BEGIN
 90
        0
 91
        0
 92
      512
 93
        0
300

 40
0.0
140
1.0
 94
        2
 62
     0
340
11
144
4.5
309
CONTENTFORMAT_END
171
     1
301
MARGIN
  1
CELLMARGIN_BEGIN
 40
1.5
 40
1.5
 40
1.5
 40
1.5
 40
0.18
 40
0.18
309
CELLMARGIN_END
 94
        6
 95
        1
302
GRIDFORMAT
  1
GRIDFORMAT_BEGIN
 90
        0
 91
        1
 62
     0
 92
       -2
340
0
 93
        0
 40
0.045
309
GRIDFORMAT_END
 95
        2
302
GRIDFORMAT
  1
GRIDFORMAT_BEGIN
 90
        0
 91
        1
 62
     0
 92
       -2
340
0
 93
        0
 40
0.045
309
GRIDFORMAT_END
 95
        4
302
GRIDFORMAT
  1
GRIDFORMAT_BEGIN
 90
        0
 91
        1
 62
     0
 92
       -2
340
0
 93
        0
 40
0.045
309
GRIDFORMAT_END
 95
        8
302
GRIDFORMAT
  1
GRIDFORMAT_BEGIN
 90
        0
 91
        1
 62
     0
 92
       -2
340
0
 93
        0
 40
0.045
309
GRIDFORMAT_END
 95
       16
302
GRIDFORMAT
  1
GRIDFORMAT_BEGIN
 90
        0
 91
        1
 62
     0
 92
       -2
340
0
 93
        0
 40
0.045
309
GRIDFORMAT_END
 95
       32
302
GRIDFORMAT
  1
GRIDFORMAT_BEGIN
 90
        0
 91
        1
 62
     0
 92
       -2
340
0
 93
        0
 40
0.045
309
GRIDFORMAT_END
309
TABLEFORMAT_END
  1
CELLSTYLE_BEGIN
 90
        3
 91
        2
300
_DATA
309
CELLSTYLE_END
  0
XRECORD
  5
592
102
{ACAD_REACTORS
330
591
102
}
330
591
100
AcDbXrecord
280
     1
102
ACAD_ROUNDTRIP_PRE2007_TABLESTYLE
 90
      512
 91
        0
  1

 92
      512
 93
        0
  2

 94
      512
 95
        0
  3

  0
ENDSEC
  0
EOF
