  0
SECTION
  2
HEADER
  9
$ACADVER
  1
AC1018
  9
$ACADMAINTVER
 70
     0
  9
$DWGCODEPAGE
  3
ANSI_932
  9
$LASTSAVEDBY
  1
小谷 浩和
  9
$INSBASE
 10
0.0
 20
0.0
 30
0.0
  9
$EXTMIN
 10
5.288162972269447
 20
42.88267552139902
 30
0.0
  9
$EXTMAX
 10
1805.343822214816
 20
1244.431163428892
 30
0.0
  9
$LIMMIN
 10
0.0
 20
0.0
  9
$LIMMAX
 10
420.0
 20
297.0
  9
$ORTHOMODE
 70
     0
  9
$REGENMODE
 70
     1
  9
$FILLMODE
 70
     1
  9
$QTEXTMODE
 70
     0
  9
$MIRRTEXT
 70
     0
  9
$LTSCALE
 40
1.0
  9
$ATTMODE
 70
     1
  9
$TEXTSIZE
 40
2.5
  9
$TRACEWID
 40
1.0
  9
$TEXTSTYLE
  7
Standard
  9
$CLAYER
  8
0
  9
$CELTYPE
  6
ByLayer
  9
$CECOLOR
 62
   256
  9
$CELTSCALE
 40
1.0
  9
$DISPSILH
 70
     0
  9
$DIMSCALE
 40
1.0
  9
$DIMASZ
 40
2.5
  9
$DIMEXO
 40
0.625
  9
$DIMDLI
 40
3.75
  9
$DIMRND
 40
0.0
  9
$DIMDLE
 40
0.0
  9
$DIMEXE
 40
1.25
  9
$DIMTP
 40
0.0
  9
$DIMTM
 40
0.0
  9
$DIMTXT
 40
2.5
  9
$DIMCEN
 40
2.5
  9
$DIMTSZ
 40
0.0
  9
$DIMTOL
 70
     0
  9
$DIMLIM
 70
     0
  9
$DIMTIH
 70
     0
  9
$DIMTOH
 70
     0
  9
$DIMSE1
 70
     0
  9
$DIMSE2
 70
     0
  9
$DIMTAD
 70
     1
  9
$DIMZIN
 70
     8
  9
$DIMBLK
  1
OPEN
  9
$DIMASO
 70
     1
  9
$DIMSHO
 70
     1
  9
$DIMPOST
  1

  9
$DIMAPOST
  1

  9
$DIMALT
 70
     0
  9
$DIMALTD
 70
     3
  9
$DIMALTF
 40
0.03937007874016
  9
$DIMLFAC
 40
1.0
  9
$DIMTOFL
 70
     1
  9
$DIMTVP
 40
0.0
  9
$DIMTIX
 70
     0
  9
$DIMSOXD
 70
     0
  9
$DIMSAH
 70
     0
  9
$DIMBLK1
  1

  9
$DIMBLK2
  1

  9
$DIMSTYLE
  2
JIS-1
  9
$DIMCLRD
 70
     0
  9
$DIMCLRE
 70
     0
  9
$DIMCLRT
 70
     0
  9
$DIMTFAC
 40
1.0
  9
$DIMGAP
 40
0.625
  9
$DIMJUST
 70
     0
  9
$DIMSD1
 70
     0
  9
$DIMSD2
 70
     0
  9
$DIMTOLJ
 70
     0
  9
$DIMTZIN
 70
     8
  9
$DIMALTZ
 70
     0
  9
$DIMALTTZ
 70
     0
  9
$DIMUPT
 70
     0
  9
$DIMDEC
 70
     2
  9
$DIMTDEC
 70
     2
  9
$DIMALTU
 70
     2
  9
$DIMALTTD
 70
     3
  9
$DIMTXSTY
  7
Standard
  9
$DIMAUNIT
 70
     0
  9
$DIMADEC
 70
     0
  9
$DIMALTRND
 40
0.0
  9
$DIMAZIN
 70
     0
  9
$DIMDSEP
 70
    44
  9
$DIMATFIT
 70
     3
  9
$DIMFRAC
 70
     0
  9
$DIMLDRBLK
  1
OPEN
  9
$DIMLUNIT
 70
     2
  9
$DIMLWD
 70
    -2
  9
$DIMLWE
 70
    -2
  9
$DIMTMOVE
 70
     0
  9
$LUNITS
 70
     2
  9
$LUPREC
 70
     3
  9
$SKETCHINC
 40
1.0
  9
$FILLETRAD
 40
10.0
  9
$AUNITS
 70
     0
  9
$AUPREC
 70
     0
  9
$MENU
  1
.
  9
$ELEVATION
 40
0.0
  9
$PELEVATION
 40
0.0
  9
$THICKNESS
 40
0.0
  9
$LIMCHECK
 70
     0
  9
$CHAMFERA
 40
10.0
  9
$CHAMFERB
 40
10.0
  9
$CHAMFERC
 40
20.0
  9
$CHAMFERD
 40
0.0
  9
$SKPOLY
 70
     0
  9
$TDCREATE
 40
2455023.012359514
  9
$TDUCREATE
 40
2455022.637359514
  9
$TDUPDATE
 40
2457242.587568854
  9
$TDUUPDATE
 40
2457242.212568854
  9
$TDINDWG
 40
0.0316791898
  9
$TDUSRTIMER
 40
2457242.211679502
  9
$USRTIMER
 70
     1
  9
$ANGBASE
 50
0.0
  9
$ANGDIR
 70
     0
  9
$PDMODE
 70
     0
  9
$PDSIZE
 40
0.0
  9
$PLINEWID
 40
0.0
  9
$SPLFRAME
 70
     0
  9
$SPLINETYPE
 70
     6
  9
$SPLINESEGS
 70
     8
  9
$HANDSEED
  5
49D
  9
$SURFTAB1
 70
     6
  9
$SURFTAB2
 70
     6
  9
$SURFTYPE
 70
     6
  9
$SURFU
 70
     6
  9
$SURFV
 70
     6
  9
$UCSBASE
  2

  9
$UCSNAME
  2

  9
$UCSORG
 10
0.0
 20
0.0
 30
0.0
  9
$UCSXDIR
 10
1.0
 20
0.0
 30
0.0
  9
$UCSYDIR
 10
0.0
 20
1.0
 30
0.0
  9
$UCSORTHOREF
  2

  9
$UCSORTHOVIEW
 70
     0
  9
$UCSORGTOP
 10
0.0
 20
0.0
 30
0.0
  9
$UCSORGBOTTOM
 10
0.0
 20
0.0
 30
0.0
  9
$UCSORGLEFT
 10
0.0
 20
0.0
 30
0.0
  9
$UCSORGRIGHT
 10
0.0
 20
0.0
 30
0.0
  9
$UCSORGFRONT
 10
0.0
 20
0.0
 30
0.0
  9
$UCSORGBACK
 10
0.0
 20
0.0
 30
0.0
  9
$PUCSBASE
  2

  9
$PUCSNAME
  2

  9
$PUCSORG
 10
0.0
 20
0.0
 30
0.0
  9
$PUCSXDIR
 10
1.0
 20
0.0
 30
0.0
  9
$PUCSYDIR
 10
0.0
 20
1.0
 30
0.0
  9
$PUCSORTHOREF
  2

  9
$PUCSORTHOVIEW
 70
     0
  9
$PUCSORGTOP
 10
0.0
 20
0.0
 30
0.0
  9
$PUCSORGBOTTOM
 10
0.0
 20
0.0
 30
0.0
  9
$PUCSORGLEFT
 10
0.0
 20
0.0
 30
0.0
  9
$PUCSORGRIGHT
 10
0.0
 20
0.0
 30
0.0
  9
$PUCSORGFRONT
 10
0.0
 20
0.0
 30
0.0
  9
$PUCSORGBACK
 10
0.0
 20
0.0
 30
0.0
  9
$USERI1
 70
     0
  9
$USERI2
 70
     0
  9
$USERI3
 70
     0
  9
$USERI4
 70
     0
  9
$USERI5
 70
     0
  9
$USERR1
 40
0.0
  9
$USERR2
 40
0.0
  9
$USERR3
 40
0.0
  9
$USERR4
 40
0.0
  9
$USERR5
 40
0.0
  9
$WORLDVIEW
 70
     1
  9
$SHADEDGE
 70
     3
  9
$SHADEDIF
 70
    70
  9
$TILEMODE
 70
     1
  9
$MAXACTVP
 70
    64
  9
$PINSBASE
 10
0.0
 20
0.0
 30
0.0
  9
$PLIMCHECK
 70
     0
  9
$PEXTMIN
 10
1.000000000000000E+20
 20
1.000000000000000E+20
 30
1.000000000000000E+20
  9
$PEXTMAX
 10
-1.000000000000000E+20
 20
-1.000000000000000E+20
 30
-1.000000000000000E+20
  9
$PLIMMIN
 10
0.0
 20
0.0
  9
$PLIMMAX
 10
0.0
 20
0.0
  9
$UNITMODE
 70
     0
  9
$VISRETAIN
 70
     1
  9
$PLINEGEN
 70
     0
  9
$PSLTSCALE
 70
     1
  9
$TREEDEPTH
 70
  3020
  9
$CMLSTYLE
  2
Standard
  9
$CMLJUST
 70
     0
  9
$CMLSCALE
 40
20.0
  9
$PROXYGRAPHICS
 70
     1
  9
$MEASUREMENT
 70
     1
  9
$CELWEIGHT
370
    -1
  9
$ENDCAPS
280
     0
  9
$JOINSTYLE
280
     0
  9
$LWDISPLAY
290
     0
  9
$INSUNITS
 70
     4
  9
$HYPERLINKBASE
  1

  9
$STYLESHEET
  1

  9
$XEDIT
290
     1
  9
$CEPSNTYPE
380
     0
  9
$PSTYLEMODE
290
     0
  9
$FINGERPRINTGUID
  2
{EC6BB858-51AA-46EC-B484-6C9CC7AB3E2E}
  9
$VERSIONGUID
  2
{FAEB1C32-E019-11D5-929B-00C0DF256EC4}
  9
$EXTNAMES
290
     1
  9
$PSVPSCALE
 40
0.0
  9
$OLESTARTUP
290
     0
  9
$SORTENTS
280
   127
  9
$INDEXCTL
280
     0
  9
$HIDETEXT
280
     1
  9
$XCLIPFRAME
290
     0
  9
$HALOGAP
280
     0
  9
$OBSCOLOR
 70
   257
  9
$OBSLTYPE
280
     0
  9
$INTERSECTIONDISPLAY
280
     0
  9
$INTERSECTIONCOLOR
 70
   257
  9
$DIMASSOC
280
     2
  9
$PROJECTNAME
  1

  0
ENDSEC
  0
SECTION
  2
CLASSES
  0
CLASS
  1
ACDBDICTIONARYWDFLT
  2
AcDbDictionaryWithDefault
  3
ObjectDBX Classes
 90
        0
 91
        4
280
     0
281
     0
  0
CLASS
  1
VISUALSTYLE
  2
AcDbVisualStyle
  3
ObjectDBX Classes
 90
     4095
 91
        4
280
     0
281
     0
  0
CLASS
  1
TABLESTYLE
  2
AcDbTableStyle
  3
ObjectDBX Classes
 90
     4095
 91
        4
280
     0
281
     0
  0
CLASS
  1
DICTIONARYVAR
  2
AcDbDictionaryVar
  3
ObjectDBX Classes
 90
        0
 91
        4
280
     0
281
     0
  0
CLASS
  1
SCALE
  2
AcDbScale
  3
ObjectDBX Classes
 90
     1153
 91
        4
280
     0
281
     0
  0
CLASS
  1
CELLSTYLEMAP
  2
AcDbCellStyleMap
  3
ObjectDBX Classes
 90
     1152
 91
        4
280
     0
281
     0
  0
CLASS
  1
RASTERVARIABLES
  2
AcDbRasterVariables
  3
ISM
 90
        0
 91
        4
280
     0
281
     0
  0
CLASS
  1
DIMASSOC
  2
AcDbDimAssoc
  3
"AcDbDimAssoc|Product Desc:     AcDim ARX App For Dimension|Company:          Autodesk, Inc.|WEB Address:      www.autodesk.com"
 90
        0
 91
        4
280
     0
281
     0
  0
CLASS
  1
MATERIAL
  2
AcDbMaterial
  3
ObjectDBX Classes
 90
     1153
 91
        4
280
     0
281
     0
  0
CLASS
  1
SUN
  2
AcDbSun
  3
SCENEOE
 90
     1153
 91
        4
280
     0
281
     0
  0
CLASS
  1
MLEADERSTYLE
  2
AcDbMLeaderStyle
  3
ACDB_MLEADERSTYLE_CLASS
 90
     4095
 91
        4
280
     0
281
     0
  0
CLASS
  1
SORTENTSTABLE
  2
AcDbSortentsTable
  3
ObjectDBX Classes
 90
        0
 91
        4
280
     0
281
     0
  0
ENDSEC
  0
SECTION
  2
TABLES
  0
TABLE
  2
VPORT
  5
8
330
0
100
AcDbSymbolTable
 70
     1
  0
VPORT
  5
29
330
8
100
AcDbSymbolTableRecord
100
AcDbViewportTableRecord
  2
*Active
 70
     0
 10
0.0
 20
0.0
 11
1.0
 21
1.0
 12
476.0150255228759
 22
494.6003522106829
 13
0.0
 23
0.0
 14
10.0
 24
10.0
 15
10.0
 25
10.0
 16
0.0
 26
0.0
 36
1.0
 17
-134.1869158878499
 27
0.0
 37
0.0
 40
2055.24539191337
 41
1.664884135472371
 42
50.0
 43
0.0
 44
0.0
 50
0.0
 51
0.0
 71
    16
 72
  1000
 73
     1
 74
     3
 75
     0
 76
     0
 77
     0
 78
     0
281
     0
 65
     1
110
0.0
120
0.0
130
0.0
111
1.0
121
0.0
131
0.0
112
0.0
122
1.0
132
0.0
 79
     0
146
0.0
  0
ENDTAB
  0
TABLE
  2
LTYPE
  5
5
330
0
100
AcDbSymbolTable
 70
     2
  0
LTYPE
  5
14
330
5
100
AcDbSymbolTableRecord
100
AcDbLinetypeTableRecord
  2
ByBlock
 70
     0
  3

 72
    65
 73
     0
 40
0.0
  0
LTYPE
  5
15
330
5
100
AcDbSymbolTableRecord
100
AcDbLinetypeTableRecord
  2
ByLayer
 70
     0
  3

 72
    65
 73
     0
 40
0.0
  0
LTYPE
  5
16
330
5
100
AcDbSymbolTableRecord
100
AcDbLinetypeTableRecord
  2
Continuous
 70
     0
  3
Solid line
 72
    65
 73
     0
 40
0.0
  0
LTYPE
  5
E2
330
5
100
AcDbSymbolTableRecord
100
AcDbLinetypeTableRecord
  2
CENTER
 70
     0
  3
 Center ____ _ ____ _ ____ _ ____ _ ____ _ ____
 72
    65
 73
     4
 40
2.0
 49
1.25
 74
     0
 49
-0.25
 74
     0
 49
0.25
 74
     0
 49
-0.25
 74
     0
  0
ENDTAB
  0
TABLE
  2
LAYER
  5
2
102
{ACAD_XDICTIONARY
360
25B
102
}
330
0
100
AcDbSymbolTable
 70
     5
  0
LAYER
  5
10
330
2
100
AcDbSymbolTableRecord
100
AcDbLayerTableRecord
  2
0
 70
     0
 62
     7
  6
Continuous
370
    -3
390
F
  0
LAYER
  5
7E
330
2
100
AcDbSymbolTableRecord
100
AcDbLayerTableRecord
  2
Defpoints
 70
     0
 62
     7
  6
Continuous
290
     0
370
    -3
390
F
  0
LAYER
  5
DE
330
2
100
AcDbSymbolTableRecord
100
AcDbLayerTableRecord
  2
C2
 70
     0
 62
     1
  6
CENTER
370
    -3
390
F
  0
LAYER
  5
E3
330
2
100
AcDbSymbolTableRecord
100
AcDbLayerTableRecord
  2
C4
 70
     0
 62
     3
  6
Continuous
370
    -3
390
F
  0
LAYER
  5
E4
330
2
100
AcDbSymbolTableRecord
100
AcDbLayerTableRecord
  2
C寸法
 70
     0
 62
     4
  6
Continuous
370
    -3
390
F
  0
ENDTAB
  0
TABLE
  2
STYLE
  5
3
330
0
100
AcDbSymbolTable
 70
     2
  0
STYLE
  5
11
330
3
100
AcDbSymbolTableRecord
100
AcDbTextStyleTableRecord
  2
Standard
 70
     0
 40
0.138
 41
1.0
 50
0.0
 71
     0
 42
2.5
  3
arial.ttf
  4

1001
ACAD
1000
Arial
1071
        0
  0
STYLE
  5
F3
330
3
100
AcDbSymbolTableRecord
100
AcDbTextStyleTableRecord
  2
KANJI
 70
     0
 40
0.0
 41
1.0
 50
0.0
 71
     0
 42
2.5
  3
romans
  4
bigfont
  0
ENDTAB
  0
TABLE
  2
VIEW
  5
6
330
0
100
AcDbSymbolTable
 70
     0
  0
ENDTAB
  0
TABLE
  2
UCS
  5
7
330
0
100
AcDbSymbolTable
 70
     0
  0
ENDTAB
  0
TABLE
  2
APPID
  5
9
330
0
100
AcDbSymbolTable
 70
    11
  0
APPID
  5
12
330
9
100
AcDbSymbolTableRecord
100
AcDbRegAppTableRecord
  2
ACAD
 70
     0
  0
APPID
  5
EE
330
9
100
AcDbSymbolTableRecord
100
AcDbRegAppTableRecord
  2
ACAD_DSTYLE_DIMBREAK
 70
     0
  0
APPID
  5
EF
330
9
100
AcDbSymbolTableRecord
100
AcDbRegAppTableRecord
  2
ACAD_DSTYLE_DIMJAG
 70
     0
  0
APPID
  5
F0
330
9
100
AcDbSymbolTableRecord
100
AcDbRegAppTableRecord
  2
ACAD_DSTYLE_DIMTALN
 70
     0
  0
APPID
  5
F1
330
9
100
AcDbSymbolTableRecord
100
AcDbRegAppTableRecord
  2
ACAD_NAV_VCDISPLAY
 70
     0
  0
APPID
  5
F2
330
9
100
AcDbSymbolTableRecord
100
AcDbRegAppTableRecord
  2
PLOTTRANSPARENCY
 70
     0
  0
APPID
  5
3A6
330
9
100
AcDbSymbolTableRecord
100
AcDbRegAppTableRecord
  2
ACAD_DSTYLE_DIMRADIAL_EXTENSION
 70
     0
  0
APPID
  5
46F
330
9
100
AcDbSymbolTableRecord
100
AcDbRegAppTableRecord
  2
PE_DIMMEASUREMENT
 70
     0
  0
APPID
  5
473
330
9
100
AcDbSymbolTableRecord
100
AcDbRegAppTableRecord
  2
ACAD_DSTYLE_DIMFLIPARROW_SYMBOL
 70
     0
  0
APPID
  5
474
330
9
100
AcDbSymbolTableRecord
100
AcDbRegAppTableRecord
  2
ACAD_DSTYLE_DIMFLIPARROW_WHICH_SYMBOL
 70
     0
  0
APPID
  5
478
330
9
100
AcDbSymbolTableRecord
100
AcDbRegAppTableRecord
  2
ACAD_MLEADERVER
 70
     0
  0
ENDTAB
  0
TABLE
  2
DIMSTYLE
  5
A
330
0
100
AcDbSymbolTable
 70
     5
100
AcDbDimStyleTable
  0
DIMSTYLE
105
27
330
A
100
AcDbSymbolTableRecord
100
AcDbDimStyleTableRecord
  2
ISO-25
 70
     0
 41
2.5
 42
0.625
 43
3.75
 44
1.25
 73
     0
 74
     0
 77
     1
 78
     8
140
2.5
141
2.5
143
0.03937007874016
147
0.625
171
     3
172
     1
178
     0
271
     2
272
     2
274
     3
278
    44
283
     0
284
     8
340
11
  0
DIMSTYLE
105
72
330
A
100
AcDbSymbolTableRecord
100
AcDbDimStyleTableRecord
  2
GB-1
 70
     0
 41
2.5
 42
0.625
 43
3.75
 44
1.25
 73
     0
 74
     0
 77
     1
 78
     8
140
2.5
141
2.5
143
0.03937007874016
147
0.625
171
     3
172
     1
178
     0
271
     2
272
     2
274
     3
278
    44
283
     0
284
     8
340
11
341
76
342
76
  0
DIMSTYLE
105
8E
102
{ACAD_REACTORS
330
3A7
330
3B2
330
3C2
330
3D1
102
}
330
A
100
AcDbSymbolTableRecord
100
AcDbDimStyleTableRecord
  2
JIS-1
 70
     0
 41
2.5
 42
0.625
 43
3.75
 44
1.25
 73
     0
 74
     0
 77
     1
 78
     8
140
2.5
141
2.5
143
0.03937007874016
147
0.625
171
     3
172
     1
178
     0
271
     2
272
     2
274
     3
278
    44
283
     0
284
     8
340
11
341
90
342
90
  0
DIMSTYLE
105
E5
330
A
100
AcDbSymbolTableRecord
100
AcDbDimStyleTableRecord
  2
Standard
 70
     0
178
     0
340
11
  0
DIMSTYLE
105
E7
102
{ACAD_REACTORS
330
2ED
330
2EE
330
2EF
330
2F0
330
2F1
330
2F2
330
2F3
330
2F4
330
2F5
330
2F6
330
2FA
330
2FB
330
2FE
102
}
330
A
100
AcDbSymbolTableRecord
100
AcDbDimStyleTableRecord
  2
実寸
 70
     0
 41
25.0
 42
10.0
 43
6.0
 44
0.0
 47
5.0
 73
     0
 74
     0
 77
     1
 78
     8
140
25.0
141
0.0
144
5.0
147
5.0
178
     0
271
     1
272
     1
284
     8
340
11
341
90
342
90
1001
ACAD_DSTYLE_DIMBREAK
1070
   391
1040
0.125
1001
ACAD_DSTYLE_DIMJAG
1070
   388
1040
1.5
1001
ACAD_DSTYLE_DIMTALN
1070
   392
1070
     0
  0
ENDTAB
  0
TABLE
  2
BLOCK_RECORD
  5
1
330
0
100
AcDbSymbolTable
 70
    20
  0
BLOCK_RECORD
  5
1F
330
1
100
AcDbSymbolTableRecord
100
AcDbBlockTableRecord
  2
*Model_Space
340
22
  0
BLOCK_RECORD
  5
1B
330
1
100
AcDbSymbolTableRecord
100
AcDbBlockTableRecord
  2
*Paper_Space
340
1E
  0
BLOCK_RECORD
  5
23
330
1
100
AcDbSymbolTableRecord
100
AcDbBlockTableRecord
  2
*Paper_Space0
340
26
  0
BLOCK_RECORD
  5
76
330
1
100
AcDbSymbolTableRecord
100
AcDbBlockTableRecord
  2
_CLOSED
340
0
  0
BLOCK_RECORD
  5
90
330
1
100
AcDbSymbolTableRecord
100
AcDbBlockTableRecord
  2
_OPEN
340
0
102
{BLKREFS
331
307
331
308
331
311
331
312
331
31D
331
31E
331
329
331
32A
331
335
331
336
331
342
331
343
331
350
331
351
331
35C
331
35D
331
368
331
369
331
377
331
378
331
385
331
386
331
394
331
395
331
3A0
331
3A1
331
3AF
331
3BA
331
470
331
3DA
331
3DB
102
}
  0
BLOCK_RECORD
  5
2FF
330
1
100
AcDbSymbolTableRecord
100
AcDbBlockTableRecord
  2
*D3
340
0
  0
BLOCK_RECORD
  5
30B
330
1
100
AcDbSymbolTableRecord
100
AcDbBlockTableRecord
  2
*D4
340
0
  0
BLOCK_RECORD
  5
317
330
1
100
AcDbSymbolTableRecord
100
AcDbBlockTableRecord
  2
*D5
340
0
  0
BLOCK_RECORD
  5
323
330
1
100
AcDbSymbolTableRecord
100
AcDbBlockTableRecord
  2
*D6
340
0
  0
BLOCK_RECORD
  5
32F
330
1
100
AcDbSymbolTableRecord
100
AcDbBlockTableRecord
  2
*D7
340
0
  0
BLOCK_RECORD
  5
33B
330
1
100
AcDbSymbolTableRecord
100
AcDbBlockTableRecord
  2
*D8
340
0
  0
BLOCK_RECORD
  5
34A
330
1
100
AcDbSymbolTableRecord
100
AcDbBlockTableRecord
  2
*D9
340
0
  0
BLOCK_RECORD
  5
356
330
1
100
AcDbSymbolTableRecord
100
AcDbBlockTableRecord
  2
*D10
340
0
  0
BLOCK_RECORD
  5
362
330
1
100
AcDbSymbolTableRecord
100
AcDbBlockTableRecord
  2
*D11
340
0
  0
BLOCK_RECORD
  5
36E
330
1
100
AcDbSymbolTableRecord
100
AcDbBlockTableRecord
  2
*D12
340
0
  0
BLOCK_RECORD
  5
37D
330
1
100
AcDbSymbolTableRecord
100
AcDbBlockTableRecord
  2
*D13
340
0
  0
BLOCK_RECORD
  5
38B
330
1
100
AcDbSymbolTableRecord
100
AcDbBlockTableRecord
  2
*D14
340
0
  0
BLOCK_RECORD
  5
39A
330
1
100
AcDbSymbolTableRecord
100
AcDbBlockTableRecord
  2
*D15
340
0
  0
BLOCK_RECORD
  5
3AA
330
1
100
AcDbSymbolTableRecord
100
AcDbBlockTableRecord
  2
*D16
340
0
  0
BLOCK_RECORD
  5
3B5
330
1
100
AcDbSymbolTableRecord
100
AcDbBlockTableRecord
  2
*D17
340
0
  0
BLOCK_RECORD
  5
3C5
330
1
100
AcDbSymbolTableRecord
100
AcDbBlockTableRecord
  2
*D18
340
0
  0
BLOCK_RECORD
  5
3D2
330
1
100
AcDbSymbolTableRecord
100
AcDbBlockTableRecord
  2
*D19
340
0
  0
ENDTAB
  0
ENDSEC
  0
SECTION
  2
BLOCKS
  0
BLOCK
  5
20
330
1F
100
AcDbEntity
  8
0
100
AcDbBlockBegin
  2
*Model_Space
 70
     0
 10
0.0
 20
0.0
 30
0.0
  3
*Model_Space
  1
*Model_Space
  0
ENDBLK
  5
21
330
1F
100
AcDbEntity
  8
0
100
AcDbBlockEnd
  0
BLOCK
  5
1C
330
1B
100
AcDbEntity
 67
     1
  8
0
100
AcDbBlockBegin
  2
*Paper_Space
 70
     0
 10
0.0
 20
0.0
 30
0.0
  3
*Paper_Space
  1
*Paper_Space
  0
ENDBLK
  5
1D
330
1B
100
AcDbEntity
 67
     1
  8
0
100
AcDbBlockEnd
  0
BLOCK
  5
24
330
23
100
AcDbEntity
  8
0
100
AcDbBlockBegin
  2
*Paper_Space0
 70
     0
 10
0.0
 20
0.0
 30
0.0
  3
*Paper_Space0
  1
*Paper_Space0
  0
ENDBLK
  5
25
330
23
100
AcDbEntity
  8
0
100
AcDbBlockEnd
  0
BLOCK
  5
77
330
76
100
AcDbEntity
  8
0
100
AcDbBlockBegin
  2
_CLOSED
 70
     0
 10
0.0
 20
0.0
 30
0.0
  3
_CLOSED
  1
_CLOSED
  0
LINE
  5
78
330
76
100
AcDbEntity
  8
0
  6
ByBlock
 62
     0
370
    -2
100
AcDbLine
 10
-1.0
 20
0.166667
 30
0.0
 11
0.0
 21
0.0
 31
0.0
  0
LINE
  5
79
330
76
100
AcDbEntity
  8
0
  6
ByBlock
 62
     0
370
    -2
100
AcDbLine
 10
0.0
 20
0.0
 30
0.0
 11
-1.0
 21
-0.166667
 31
0.0
  0
LINE
  5
7A
330
76
100
AcDbEntity
  8
0
  6
ByBlock
 62
     0
370
    -2
100
AcDbLine
 10
-1.0
 20
0.166667
 30
0.0
 11
-1.0
 21
-0.166667
 31
0.0
  0
LINE
  5
7B
330
76
100
AcDbEntity
  8
0
  6
ByBlock
 62
     0
370
    -2
100
AcDbLine
 10
0.0
 20
0.0
 30
0.0
 11
-1.0
 21
0.0
 31
0.0
  0
ENDBLK
  5
7C
330
76
100
AcDbEntity
  8
0
100
AcDbBlockEnd
  0
BLOCK
  5
91
330
90
100
AcDbEntity
  8
0
100
AcDbBlockBegin
  2
_OPEN
 70
     0
 10
0.0
 20
0.0
 30
0.0
  3
_OPEN
  1
_OPEN
  0
LINE
  5
92
330
90
100
AcDbEntity
  8
0
  6
ByBlock
 62
     0
370
    -2
100
AcDbLine
 10
-1.0
 20
0.166667
 30
0.0
 11
0.0
 21
0.0
 31
0.0
  0
LINE
  5
93
330
90
100
AcDbEntity
  8
0
  6
ByBlock
 62
     0
370
    -2
100
AcDbLine
 10
-1.0
 20
-0.166667
 30
0.0
 11
0.0
 21
0.0
 31
0.0
  0
LINE
  5
94
330
90
100
AcDbEntity
  8
0
  6
ByBlock
 62
     0
370
    -2
100
AcDbLine
 10
0.0
 20
0.0
 30
0.0
 11
-1.0
 21
0.0
 31
0.0
  0
ENDBLK
  5
95
330
90
100
AcDbEntity
  8
0
100
AcDbBlockEnd
  0
BLOCK
  5
300
330
2FF
100
AcDbEntity
  8
0
100
AcDbBlockBegin
  2
*D3
 70
     1
 10
0.0
 20
0.0
 30
0.0
  3
*D3
  1
*D18
  0
LINE
  5
302
330
2FF
100
AcDbEntity
  8
C寸法
 62
     0
370
    -2
100
AcDbLine
 10
1133.617017645037
 20
566.0734213542364
 30
0.0
 11
1133.617017645037
 21
426.0734213542363
 31
0.0
  0
LINE
  5
303
330
2FF
100
AcDbEntity
  8
C寸法
 62
     0
370
    -2
100
AcDbLine
 10
183.6170176450373
 20
783.2449949721914
 30
0.0
 11
183.6170176450373
 21
426.0734213542364
 31
0.0
  0
LINE
  5
304
330
2FF
100
AcDbEntity
  8
C寸法
 62
     0
370
    -2
100
AcDbLine
 10
1133.617017645037
 20
426.0734213542363
 30
0.0
 11
183.6170176450373
 21
426.0734213542364
 31
0.0
  0
LINE
  5
305
330
2FF
100
AcDbEntity
  8
C寸法
 62
     0
370
    -2
100
AcDbLine
 10
1158.617017645037
 20
426.0734213542363
 30
0.0
 11
1183.617017645037
 21
426.0734213542363
 31
0.0
  0
LINE
  5
306
330
2FF
100
AcDbEntity
  8
C寸法
 62
     0
370
    -2
100
AcDbLine
 10
158.6170176450373
 20
426.0734213542364
 30
0.0
 11
133.6170176450373
 21
426.0734213542364
 31
0.0
  0
INSERT
  5
307
330
2FF
100
AcDbEntity
  8
C寸法
 62
     0
370
    -2
100
AcDbBlockReference
  2
_OPEN
 10
1133.617017645037
 20
426.0734213542363
 30
0.0
 41
25.0
 42
25.0
 43
25.0
 50
180.0
  0
INSERT
  5
308
330
2FF
100
AcDbEntity
  8
C寸法
 62
     0
370
    -2
100
AcDbBlockReference
  2
_OPEN
 10
183.6170176450373
 20
426.0734213542364
 30
0.0
 41
25.0
 42
25.0
 43
25.0
 50
360.0
  0
MTEXT
  5
309
330
2FF
100
AcDbEntity
  8
C寸法
 62
     0
370
    13
100
AcDbMText
 10
658.6170176450373
 20
443.5734213542364
 30
0.0
 40
25.0
 41
0.0
 71
     5
 72
     1
  1
\A1;950
  7
KANJI
 73
     1
 44
1.0
  0
POINT
  5
30A
330
2FF
100
AcDbEntity
  8
Defpoints
 62
     0
100
AcDbPoint
 10
1133.617017645037
 20
576.0734213542364
 30
0.0
  0
POINT
  5
3BE
330
2FF
100
AcDbEntity
  8
Defpoints
 62
     0
100
AcDbPoint
 10
183.6170176450373
 20
793.2449949721914
 30
0.0
  0
POINT
  5
3BF
330
2FF
100
AcDbEntity
  8
Defpoints
 62
     0
100
AcDbPoint
 10
183.6170176450373
 20
426.0734213542364
 30
0.0
  0
ENDBLK
  5
301
330
2FF
100
AcDbEntity
  8
0
100
AcDbBlockEnd
  0
BLOCK
  5
30C
330
30B
100
AcDbEntity
  8
0
100
AcDbBlockBegin
  2
*D4
 70
     1
 10
0.0
 20
0.0
 30
0.0
  3
*D4
  1
*D19
  0
LINE
  5
30E
330
30B
100
AcDbEntity
  8
C寸法
 62
     0
370
    -2
100
AcDbLine
 10
1133.617017645037
 20
684.2471059590982
 30
0.0
 11
1133.617017645037
 21
476.0734213542364
 31
0.0
  0
LINE
  5
30F
330
30B
100
AcDbEntity
  8
C寸法
 62
     0
370
    -2
100
AcDbLine
 10
983.6150176203787
 20
566.0734213542364
 30
0.0
 11
983.6150176203787
 21
476.0734213542364
 31
0.0
  0
LINE
  5
310
330
30B
100
AcDbEntity
  8
C寸法
 62
     0
370
    -2
100
AcDbLine
 10
1108.617017645037
 20
476.0734213542364
 30
0.0
 11
1008.615017620379
 21
476.0734213542364
 31
0.0
  0
INSERT
  5
311
330
30B
100
AcDbEntity
  8
C寸法
 62
     0
370
    -2
100
AcDbBlockReference
  2
_OPEN
 10
1133.617017645037
 20
476.0734213542364
 30
0.0
 41
25.0
 42
25.0
 43
25.0
  0
INSERT
  5
312
330
30B
100
AcDbEntity
  8
C寸法
 62
     0
370
    -2
100
AcDbBlockReference
  2
_OPEN
 10
983.6150176203787
 20
476.0734213542364
 30
0.0
 41
25.0
 42
25.0
 43
25.0
 50
180.0
  0
MTEXT
  5
313
330
30B
100
AcDbEntity
  8
C寸法
 62
     0
370
    13
100
AcDbMText
 10
1058.616017632708
 20
493.5734213542364
 30
0.0
 40
25.0
 41
0.0
 71
     5
 72
     1
  1
\A1;150
  7
KANJI
 73
     1
 44
1.0
  0
POINT
  5
314
330
30B
100
AcDbEntity
  8
Defpoints
 62
     0
100
AcDbPoint
 10
1133.617017645037
 20
694.2471059590982
 30
0.0
  0
POINT
  5
315
330
30B
100
AcDbEntity
  8
Defpoints
 62
     0
100
AcDbPoint
 10
983.6150176203787
 20
576.0734213542364
 30
0.0
  0
POINT
  5
316
330
30B
100
AcDbEntity
  8
Defpoints
 62
     0
100
AcDbPoint
 10
983.6150176203787
 20
476.0734213542364
 30
0.0
  0
ENDBLK
  5
30D
330
30B
100
AcDbEntity
  8
0
100
AcDbBlockEnd
  0
BLOCK
  5
318
330
317
100
AcDbEntity
  8
0
100
AcDbBlockBegin
  2
*D5
 70
     1
 10
0.0
 20
0.0
 30
0.0
  3
*D5
  1
*D20
  0
LINE
  5
31A
330
317
100
AcDbEntity
  8
C寸法
 62
     0
370
    -2
100
AcDbLine
 10
904.22513358681
 20
141.7734213517716
 30
0.0
 11
99.10449633966715
 21
141.7734213517714
 31
0.0
  0
LINE
  5
31B
330
317
100
AcDbEntity
  8
C寸法
 62
     0
370
    -2
100
AcDbLine
 10
153.7271336245508
 20
341.7734213517717
 30
0.0
 11
99.10449633966712
 21
341.7734213517717
 31
0.0
  0
LINE
  5
31C
330
317
100
AcDbEntity
  8
C寸法
 62
     0
370
    -2
100
AcDbLine
 10
99.10449633966715
 20
166.7734213517714
 30
0.0
 11
99.10449633966712
 21
316.7734213517717
 31
0.0
  0
INSERT
  5
31D
330
317
100
AcDbEntity
  8
C寸法
 62
     0
370
    -2
100
AcDbBlockReference
  2
_OPEN
 10
99.10449633966715
 20
141.7734213517714
 30
0.0
 41
25.0
 42
25.0
 43
25.0
 50
270.0
  0
INSERT
  5
31E
330
317
100
AcDbEntity
  8
C寸法
 62
     0
370
    -2
100
AcDbBlockReference
  2
_OPEN
 10
99.10449633966712
 20
341.7734213517717
 30
0.0
 41
25.0
 42
25.0
 43
25.0
 50
90.00000000000001
  0
MTEXT
  5
31F
330
317
100
AcDbEntity
  8
C寸法
 62
     0
370
    13
100
AcDbMText
 10
81.60449633966714
 20
241.7734213517716
 30
0.0
 40
25.0
 41
0.0
 71
     5
 72
     1
  1
\A1;200
  7
KANJI
 11
-1.421085471520198E-16
 21
1.0
 31
0.0
 73
     1
 44
1.0
  0
POINT
  5
320
330
317
100
AcDbEntity
  8
Defpoints
 62
     0
100
AcDbPoint
 10
914.22513358681
 20
141.7734213517716
 30
0.0
  0
POINT
  5
321
330
317
100
AcDbEntity
  8
Defpoints
 62
     0
100
AcDbPoint
 10
163.7271336245508
 20
341.7734213517717
 30
0.0
  0
POINT
  5
322
330
317
100
AcDbEntity
  8
Defpoints
 62
     0
100
AcDbPoint
 10
99.10449633966712
 20
341.7734213517717
 30
0.0
  0
ENDBLK
  5
319
330
317
100
AcDbEntity
  8
0
100
AcDbBlockEnd
  0
BLOCK
  5
324
330
323
100
AcDbEntity
  8
0
100
AcDbBlockBegin
  2
*D6
 70
     1
 10
0.0
 20
0.0
 30
0.0
  3
*D6
  1
*D21
  0
LINE
  5
326
330
323
100
AcDbEntity
  8
C寸法
 62
     0
370
    -2
100
AcDbLine
 10
1168.604904881405
 20
1096.073421439718
 30
0.0
 11
1408.602905037568
 21
1096.073421439718
 31
0.0
  0
LINE
  5
327
330
323
100
AcDbEntity
  8
C寸法
 62
     0
370
    -2
100
AcDbLine
 10
1168.604904881405
 20
576.0734213542364
 30
0.0
 11
1408.602905037568
 21
576.0734213542364
 31
0.0
  0
LINE
  5
328
330
323
100
AcDbEntity
  8
C寸法
 62
     0
370
    -2
100
AcDbLine
 10
1408.602905037568
 20
1071.073421439718
 30
0.0
 11
1408.602905037568
 21
601.0734213542364
 31
0.0
  0
INSERT
  5
329
330
323
100
AcDbEntity
  8
C寸法
 62
     0
370
    -2
100
AcDbBlockReference
  2
_OPEN
 10
1408.602905037568
 20
1096.073421439718
 30
0.0
 41
25.0
 42
25.0
 43
25.0
 50
90.0
  0
INSERT
  5
32A
330
323
100
AcDbEntity
  8
C寸法
 62
     0
370
    -2
100
AcDbBlockReference
  2
_OPEN
 10
1408.602905037568
 20
576.0734213542364
 30
0.0
 41
25.0
 42
25.0
 43
25.0
 50
270.0
  0
MTEXT
  5
32B
330
323
100
AcDbEntity
  8
C寸法
 62
     0
370
    13
100
AcDbMText
 10
1391.102905037568
 20
836.0734213969772
 30
0.0
 40
25.0
 41
0.0
 71
     5
 72
     1
  1
\A1;520
  7
KANJI
 11
0.0
 21
1.0
 31
0.0
 73
     1
 44
1.0
  0
POINT
  5
32C
330
323
100
AcDbEntity
  8
Defpoints
 62
     0
100
AcDbPoint
 10
1158.604904881405
 20
1096.073421439718
 30
0.0
  0
POINT
  5
32D
330
323
100
AcDbEntity
  8
Defpoints
 62
     0
100
AcDbPoint
 10
1158.604904881405
 20
576.0734213542364
 30
0.0
  0
POINT
  5
32E
330
323
100
AcDbEntity
  8
Defpoints
 62
     0
100
AcDbPoint
 10
1408.602905037568
 20
576.0734213542364
 30
0.0
  0
ENDBLK
  5
325
330
323
100
AcDbEntity
  8
0
100
AcDbBlockEnd
  0
BLOCK
  5
330
330
32F
100
AcDbEntity
  8
0
100
AcDbBlockBegin
  2
*D7
 70
     1
 10
0.0
 20
0.0
 30
0.0
  3
*D7
  1
*D22
  0
LINE
  5
332
330
32F
100
AcDbEntity
  8
C寸法
 62
     0
370
    -2
100
AcDbLine
 10
1168.604904881405
 20
1016.073421439718
 30
0.0
 11
1358.602905037565
 21
1016.073421439718
 31
0.0
  0
LINE
  5
333
330
32F
100
AcDbEntity
  8
C寸法
 62
     0
370
    -2
100
AcDbLine
 10
1168.604904881405
 20
576.0734213542364
 30
0.0
 11
1358.602905037565
 21
576.0734213542364
 31
0.0
  0
LINE
  5
334
330
32F
100
AcDbEntity
  8
C寸法
 62
     0
370
    -2
100
AcDbLine
 10
1358.602905037565
 20
991.073421439718
 30
0.0
 11
1358.602905037565
 21
601.0734213542364
 31
0.0
  0
INSERT
  5
335
330
32F
100
AcDbEntity
  8
C寸法
 62
     0
370
    -2
100
AcDbBlockReference
  2
_OPEN
 10
1358.602905037565
 20
1016.073421439718
 30
0.0
 41
25.0
 42
25.0
 43
25.0
 50
90.0
  0
INSERT
  5
336
330
32F
100
AcDbEntity
  8
C寸法
 62
     0
370
    -2
100
AcDbBlockReference
  2
_OPEN
 10
1358.602905037565
 20
576.0734213542364
 30
0.0
 41
25.0
 42
25.0
 43
25.0
 50
270.0
  0
MTEXT
  5
337
330
32F
100
AcDbEntity
  8
C寸法
 62
     0
370
    13
100
AcDbMText
 10
1341.102905037565
 20
796.0734213969772
 30
0.0
 40
25.0
 41
0.0
 71
     5
 72
     1
  1
\A1;440
  7
KANJI
 11
0.0
 21
1.0
 31
0.0
 73
     1
 44
1.0
  0
POINT
  5
338
330
32F
100
AcDbEntity
  8
Defpoints
 62
     0
100
AcDbPoint
 10
1158.604904881405
 20
1016.073421439718
 30
0.0
  0
POINT
  5
339
330
32F
100
AcDbEntity
  8
Defpoints
 62
     0
100
AcDbPoint
 10
1158.604904881405
 20
576.0734213542364
 30
0.0
  0
POINT
  5
33A
330
32F
100
AcDbEntity
  8
Defpoints
 62
     0
100
AcDbPoint
 10
1358.602905037565
 20
576.0734213542364
 30
0.0
  0
ENDBLK
  5
331
330
32F
100
AcDbEntity
  8
0
100
AcDbBlockEnd
  0
BLOCK
  5
33C
330
33B
100
AcDbEntity
  8
0
100
AcDbBlockBegin
  2
*D8
 70
     1
 10
0.0
 20
0.0
 30
0.0
  3
*D8
  1
*D23
  0
LINE
  5
33E
330
33B
100
AcDbEntity
  8
C寸法
 62
     0
370
    -2
100
AcDbLine
 10
1168.604904881405
 20
591.073421439718
 30
0.0
 11
1308.602905037568
 21
591.073421439718
 31
0.0
  0
LINE
  5
33F
330
33B
100
AcDbEntity
  8
C寸法
 62
     0
370
    -2
100
AcDbLine
 10
663.6049049060557
 20
576.0734213542364
 30
0.0
 11
1308.602905037568
 21
576.0734213542364
 31
0.0
  0
LINE
  5
340
330
33B
100
AcDbEntity
  8
C寸法
 62
     0
370
    -2
100
AcDbLine
 10
1308.602905037568
 20
576.0734213542364
 30
0.0
 11
1308.602905037568
 21
478.9826475447126
 31
0.0
  0
LINE
  5
341
330
33B
100
AcDbEntity
  8
C寸法
 62
     0
370
    -2
100
AcDbLine
 10
1308.602905037568
 20
566.073421439718
 30
0.0
 11
1308.602905037568
 21
601.0734213542364
 31
0.0
  0
INSERT
  5
342
330
33B
100
AcDbEntity
  8
C寸法
 62
     0
370
    -2
100
AcDbBlockReference
  2
_OPEN
 10
1308.602905037568
 20
591.073421439718
 30
0.0
 41
25.0
 42
25.0
 43
25.0
 50
90.0
  0
INSERT
  5
343
330
33B
100
AcDbEntity
  8
C寸法
 62
     0
370
    -2
100
AcDbBlockReference
  2
_OPEN
 10
1308.602905037568
 20
576.0734213542364
 30
0.0
 41
25.0
 42
25.0
 43
25.0
 50
270.0
  0
MTEXT
  5
344
330
33B
100
AcDbEntity
  8
C寸法
 62
     0
370
    13
100
AcDbMText
 10
1291.102905037568
 20
502.5280344494745
 30
0.0
 40
25.0
 41
0.0
 71
     5
 72
     1
  1
\A1;15
  7
KANJI
 11
0.0
 21
1.0
 31
0.0
 73
     1
 44
1.0
  0
POINT
  5
345
330
33B
100
AcDbEntity
  8
Defpoints
 62
     0
100
AcDbPoint
 10
1158.604904881405
 20
591.073421439718
 30
0.0
  0
POINT
  5
346
330
33B
100
AcDbEntity
  8
Defpoints
 62
     0
100
AcDbPoint
 10
653.6049049060557
 20
576.0734213542364
 30
0.0
  0
POINT
  5
347
330
33B
100
AcDbEntity
  8
Defpoints
 62
     0
100
AcDbPoint
 10
1308.602905037568
 20
576.0734213542364
 30
0.0
  0
ENDBLK
  5
33D
330
33B
100
AcDbEntity
  8
0
100
AcDbBlockEnd
  0
BLOCK
  5
34B
330
34A
100
AcDbEntity
  8
0
100
AcDbBlockBegin
  2
*D9
 70
     1
 10
0.0
 20
0.0
 30
0.0
  3
*D9
  1
*D24
  0
LINE
  5
34D
330
34A
100
AcDbEntity
  8
C寸法
 62
     0
370
    -2
100
AcDbLine
 10
1168.604904881405
 20
1001.073421439718
 30
0.0
 11
1258.602905037568
 21
1001.073421439718
 31
0.0
  0
LINE
  5
34E
330
34A
100
AcDbEntity
  8
C寸法
 62
     0
370
    -2
100
AcDbLine
 10
1165.163535124364
 20
871.0734214027306
 30
0.0
 11
1258.602905037568
 21
871.0734214027306
 31
0.0
  0
LINE
  5
34F
330
34A
100
AcDbEntity
  8
C寸法
 62
     0
370
    -2
100
AcDbLine
 10
1258.602905037568
 20
976.073421439718
 30
0.0
 11
1258.602905037568
 21
896.0734214027306
 31
0.0
  0
INSERT
  5
350
330
34A
100
AcDbEntity
  8
C寸法
 62
     0
370
    -2
100
AcDbBlockReference
  2
_OPEN
 10
1258.602905037568
 20
1001.073421439718
 30
0.0
 41
25.0
 42
25.0
 43
25.0
 50
90.0
  0
INSERT
  5
351
330
34A
100
AcDbEntity
  8
C寸法
 62
     0
370
    -2
100
AcDbBlockReference
  2
_OPEN
 10
1258.602905037568
 20
871.0734214027306
 30
0.0
 41
25.0
 42
25.0
 43
25.0
 50
270.0
  0
MTEXT
  5
352
330
34A
100
AcDbEntity
  8
C寸法
 62
     0
370
    13
100
AcDbMText
 10
1241.102905037568
 20
936.0734214212243
 30
0.0
 40
25.0
 41
0.0
 71
     5
 72
     1
  1
\A1;130
  7
KANJI
 11
0.0
 21
1.0
 31
0.0
 73
     1
 44
1.0
  0
POINT
  5
353
330
34A
100
AcDbEntity
  8
Defpoints
 62
     0
100
AcDbPoint
 10
1158.604904881405
 20
1001.073421439718
 30
0.0
  0
POINT
  5
354
330
34A
100
AcDbEntity
  8
Defpoints
 62
     0
100
AcDbPoint
 10
1155.163535124364
 20
871.0734214027306
 30
0.0
  0
POINT
  5
355
330
34A
100
AcDbEntity
  8
Defpoints
 62
     0
100
AcDbPoint
 10
1258.602905037568
 20
871.0734214027306
 30
0.0
  0
ENDBLK
  5
34C
330
34A
100
AcDbEntity
  8
0
100
AcDbBlockEnd
  0
BLOCK
  5
357
330
356
100
AcDbEntity
  8
0
100
AcDbBlockBegin
  2
*D10
 70
     1
 10
0.0
 20
0.0
 30
0.0
  3
*D10
  1
*D25
  0
LINE
  5
359
330
356
100
AcDbEntity
  8
C寸法
 62
     0
370
    -2
100
AcDbLine
 10
1168.604904881405
 20
1016.073421439718
 30
0.0
 11
1358.602905037565
 21
1016.073421439718
 31
0.0
  0
LINE
  5
35A
330
356
100
AcDbEntity
  8
C寸法
 62
     0
370
    -2
100
AcDbLine
 10
1090.969162423418
 20
1096.073421439718
 30
0.0
 11
1358.602905037565
 21
1096.073421439718
 31
0.0
  0
LINE
  5
35B
330
356
100
AcDbEntity
  8
C寸法
 62
     0
370
    -2
100
AcDbLine
 10
1358.602905037565
 20
1041.073421439718
 30
0.0
 11
1358.602905037565
 21
1071.073421439718
 31
0.0
  0
INSERT
  5
35C
330
356
100
AcDbEntity
  8
C寸法
 62
     0
370
    -2
100
AcDbBlockReference
  2
_OPEN
 10
1358.602905037565
 20
1016.073421439718
 30
0.0
 41
25.0
 42
25.0
 43
25.0
 50
270.0
  0
INSERT
  5
35D
330
356
100
AcDbEntity
  8
C寸法
 62
     0
370
    -2
100
AcDbBlockReference
  2
_OPEN
 10
1358.602905037565
 20
1096.073421439718
 30
0.0
 41
25.0
 42
25.0
 43
25.0
 50
90.0
  0
MTEXT
  5
35E
330
356
100
AcDbEntity
  8
C寸法
 62
     0
370
    13
100
AcDbMText
 10
1341.102905037565
 20
1056.073421439718
 30
0.0
 40
25.0
 41
0.0
 71
     5
 72
     1
  1
\A1;80
  7
KANJI
 11
0.0
 21
1.0
 31
0.0
 73
     1
 44
1.0
  0
POINT
  5
35F
330
356
100
AcDbEntity
  8
Defpoints
 62
     0
100
AcDbPoint
 10
1158.604904881405
 20
1016.073421439718
 30
0.0
  0
POINT
  5
360
330
356
100
AcDbEntity
  8
Defpoints
 62
     0
100
AcDbPoint
 10
1080.969162423418
 20
1096.073421439718
 30
0.0
  0
POINT
  5
361
330
356
100
AcDbEntity
  8
Defpoints
 62
     0
100
AcDbPoint
 10
1358.602905037565
 20
1096.073421439718
 30
0.0
  0
ENDBLK
  5
358
330
356
100
AcDbEntity
  8
0
100
AcDbBlockEnd
  0
BLOCK
  5
363
330
362
100
AcDbEntity
  8
0
100
AcDbBlockBegin
  2
*D11
 70
     1
 10
0.0
 20
0.0
 30
0.0
  3
*D11
  1
*D26
  0
LINE
  5
365
330
362
100
AcDbEntity
  8
C寸法
 62
     0
370
    -2
100
AcDbLine
 10
663.605904959478
 20
591.0734213566998
 30
0.0
 11
1308.602905037568
 21
591.0734213566998
 31
0.0
  0
LINE
  5
366
330
362
100
AcDbEntity
  8
C寸法
 62
     0
370
    -2
100
AcDbLine
 10
1168.604904881405
 20
1001.073421439718
 30
0.0
 11
1308.602905037568
 21
1001.073421439718
 31
0.0
  0
LINE
  5
367
330
362
100
AcDbEntity
  8
C寸法
 62
     0
370
    -2
100
AcDbLine
 10
1308.602905037568
 20
616.0734213566998
 30
0.0
 11
1308.602905037568
 21
976.073421439718
 31
0.0
  0
INSERT
  5
368
330
362
100
AcDbEntity
  8
C寸法
 62
     0
370
    -2
100
AcDbBlockReference
  2
_OPEN
 10
1308.602905037568
 20
591.0734213566998
 30
0.0
 41
25.0
 42
25.0
 43
25.0
 50
270.0
  0
INSERT
  5
369
330
362
100
AcDbEntity
  8
C寸法
 62
     0
370
    -2
100
AcDbBlockReference
  2
_OPEN
 10
1308.602905037568
 20
1001.073421439718
 30
0.0
 41
25.0
 42
25.0
 43
25.0
 50
90.0
  0
MTEXT
  5
36A
330
362
100
AcDbEntity
  8
C寸法
 62
     0
370
    13
100
AcDbMText
 10
1291.102905037568
 20
796.0734213982089
 30
0.0
 40
25.0
 41
0.0
 71
     5
 72
     1
  1
\A1;410
  7
KANJI
 11
0.0
 21
1.0
 31
0.0
 73
     1
 44
1.0
  0
POINT
  5
36B
330
362
100
AcDbEntity
  8
Defpoints
 62
     0
100
AcDbPoint
 10
653.605904959478
 20
591.0734213566998
 30
0.0
  0
POINT
  5
36C
330
362
100
AcDbEntity
  8
Defpoints
 62
     0
100
AcDbPoint
 10
1158.604904881405
 20
1001.073421439718
 30
0.0
  0
POINT
  5
36D
330
362
100
AcDbEntity
  8
Defpoints
 62
     0
100
AcDbPoint
 10
1308.602905037568
 20
1001.073421439718
 30
0.0
  0
ENDBLK
  5
364
330
362
100
AcDbEntity
  8
0
100
AcDbBlockEnd
  0
BLOCK
  5
36F
330
36E
100
AcDbEntity
  8
0
100
AcDbBlockBegin
  2
*D12
 70
     1
 10
0.0
 20
0.0
 30
0.0
  3
*D12
  1
*D27
  0
LINE
  5
371
330
36E
100
AcDbEntity
  8
C寸法
 62
     0
370
    -2
100
AcDbLine
 10
663.6151826775422
 20
1001.073421416615
 30
0.0
 11
1308.602905037568
 21
1001.073421416615
 31
0.0
  0
LINE
  5
372
330
36E
100
AcDbEntity
  8
C寸法
 62
     0
370
    -2
100
AcDbLine
 10
663.6049049060557
 20
1016.073421439718
 30
0.0
 11
1308.602905037568
 21
1016.073421439718
 31
0.0
  0
LINE
  5
373
330
36E
100
AcDbEntity
  8
C寸法
 62
     0
370
    -2
100
AcDbLine
 10
1308.602905037568
 20
1001.073421416615
 30
0.0
 11
1308.602905037568
 21
903.9826476070916
 31
0.0
  0
LINE
  5
374
330
36E
100
AcDbEntity
  8
C寸法
 62
     0
370
    -2
100
AcDbLine
 10
1308.602905037568
 20
1001.073421416615
 30
0.0
 11
1308.602905037568
 21
1016.073421439718
 31
0.0
  0
LINE
  5
375
330
36E
100
AcDbEntity
  8
C寸法
 62
     0
370
    -2
100
AcDbLine
 10
1308.602905037568
 20
976.0734214166155
 30
0.0
 11
1308.602905037568
 21
951.0734214166155
 31
0.0
  0
LINE
  5
376
330
36E
100
AcDbEntity
  8
C寸法
 62
     0
370
    -2
100
AcDbLine
 10
1308.602905037568
 20
1041.073421439718
 30
0.0
 11
1308.602905037568
 21
1066.073421439718
 31
0.0
  0
INSERT
  5
377
330
36E
100
AcDbEntity
  8
C寸法
 62
     0
370
    -2
100
AcDbBlockReference
  2
_OPEN
 10
1308.602905037568
 20
1001.073421416615
 30
0.0
 41
25.0
 42
25.0
 43
25.0
 50
90.0
  0
INSERT
  5
378
330
36E
100
AcDbEntity
  8
C寸法
 62
     0
370
    -2
100
AcDbBlockReference
  2
_OPEN
 10
1308.602905037568
 20
1016.073421439718
 30
0.0
 41
25.0
 42
25.0
 43
25.0
 50
270.0
  0
MTEXT
  5
379
330
36E
100
AcDbEntity
  8
C寸法
 62
     0
370
    13
100
AcDbMText
 10
1291.102905037568
 20
927.5280345118535
 30
0.0
 40
25.0
 41
0.0
 71
     5
 72
     1
  1
\A1;15
  7
KANJI
 11
0.0
 21
1.0
 31
0.0
 73
     1
 44
1.0
  0
POINT
  5
37A
330
36E
100
AcDbEntity
  8
Defpoints
 62
     0
100
AcDbPoint
 10
653.6151826775422
 20
1001.073421416615
 30
0.0
  0
POINT
  5
37B
330
36E
100
AcDbEntity
  8
Defpoints
 62
     0
100
AcDbPoint
 10
653.6049049060557
 20
1016.073421439718
 30
0.0
  0
POINT
  5
37C
330
36E
100
AcDbEntity
  8
Defpoints
 62
     0
100
AcDbPoint
 10
1308.602905037568
 20
1016.073421439718
 30
0.0
  0
ENDBLK
  5
370
330
36E
100
AcDbEntity
  8
0
100
AcDbBlockEnd
  0
BLOCK
  5
37E
330
37D
100
AcDbEntity
  8
0
100
AcDbBlockBegin
  2
*D13
 70
     1
 10
0.0
 20
0.0
 30
0.0
  3
*D13
  1
*D28
  0
LINE
  5
380
330
37D
100
AcDbEntity
  8
C寸法
 62
     0
370
    -2
100
AcDbLine
 10
711.9871867464028
 20
1056.073421402724
 30
0.0
 11
1258.602905037568
 21
1056.073421402724
 31
0.0
  0
LINE
  5
381
330
37D
100
AcDbEntity
  8
C寸法
 62
     0
370
    -2
100
AcDbLine
 10
663.6049049060557
 20
1096.073421439718
 30
0.0
 11
1258.602905037568
 21
1096.073421439718
 31
0.0
  0
LINE
  5
382
330
37D
100
AcDbEntity
  8
C寸法
 62
     0
370
    -2
100
AcDbLine
 10
1258.602905037568
 20
1121.073421439718
 30
0.0
 11
1258.602905037568
 21
1196.549611915908
 31
0.0
  0
LINE
  5
383
330
37D
100
AcDbEntity
  8
C寸法
 62
     0
370
    -2
100
AcDbLine
 10
1258.602905037568
 20
1056.073421402724
 30
0.0
 11
1258.602905037568
 21
1096.073421439718
 31
0.0
  0
LINE
  5
384
330
37D
100
AcDbEntity
  8
C寸法
 62
     0
370
    -2
100
AcDbLine
 10
1258.602905037568
 20
1031.073421402724
 30
0.0
 11
1258.602905037568
 21
1006.073421402724
 31
0.0
  0
INSERT
  5
385
330
37D
100
AcDbEntity
  8
C寸法
 62
     0
370
    -2
100
AcDbBlockReference
  2
_OPEN
 10
1258.602905037568
 20
1056.073421402724
 30
0.0
 41
25.0
 42
25.0
 43
25.0
 50
90.0
  0
INSERT
  5
386
330
37D
100
AcDbEntity
  8
C寸法
 62
     0
370
    -2
100
AcDbBlockReference
  2
_OPEN
 10
1258.602905037568
 20
1096.073421439718
 30
0.0
 41
25.0
 42
25.0
 43
25.0
 50
270.0
  0
MTEXT
  5
387
330
37D
100
AcDbEntity
  8
C寸法
 62
     0
370
    13
100
AcDbMText
 10
1241.102905037568
 20
1171.311516677813
 30
0.0
 40
25.0
 41
0.0
 71
     5
 72
     1
  1
\A1;40
  7
KANJI
 11
0.0
 21
1.0
 31
0.0
 73
     1
 44
1.0
  0
POINT
  5
388
330
37D
100
AcDbEntity
  8
Defpoints
 62
     0
100
AcDbPoint
 10
701.9871867464028
 20
1056.073421402724
 30
0.0
  0
POINT
  5
389
330
37D
100
AcDbEntity
  8
Defpoints
 62
     0
100
AcDbPoint
 10
653.6049049060557
 20
1096.073421439718
 30
0.0
  0
POINT
  5
38A
330
37D
100
AcDbEntity
  8
Defpoints
 62
     0
100
AcDbPoint
 10
1258.602905037568
 20
1096.073421439718
 30
0.0
  0
ENDBLK
  5
37F
330
37D
100
AcDbEntity
  8
0
100
AcDbBlockEnd
  0
BLOCK
  5
38C
330
38B
100
AcDbEntity
  8
0
100
AcDbBlockBegin
  2
*D14
 70
     1
 10
0.0
 20
0.0
 30
0.0
  3
*D14
  1
*D29
  0
LINE
  5
38E
330
38B
100
AcDbEntity
  8
C寸法
 62
     0
370
    -2
100
AcDbLine
 10
195.0665935002194
 20
326.7734213493069
 30
0.0
 11
142.9729754378459
 21
326.7734213493069
 31
0.0
  0
LINE
  5
38F
330
38B
100
AcDbEntity
  8
C寸法
 62
     0
370
    -2
100
AcDbLine
 10
177.4887530671444
 20
341.7734213904015
 30
0.0
 11
142.9729754378459
 21
341.7734213904015
 31
0.0
  0
LINE
  5
390
330
38B
100
AcDbEntity
  8
C寸法
 62
     0
370
    -2
100
AcDbLine
 10
142.9729754378459
 20
326.7734213493069
 30
0.0
 11
142.9729754378459
 21
229.6826475397831
 31
0.0
  0
LINE
  5
391
330
38B
100
AcDbEntity
  8
C寸法
 62
     0
370
    -2
100
AcDbLine
 10
142.9729754378459
 20
326.7734213493069
 30
0.0
 11
142.9729754378459
 21
341.7734213904015
 31
0.0
  0
LINE
  5
392
330
38B
100
AcDbEntity
  8
C寸法
 62
     0
370
    -2
100
AcDbLine
 10
142.9729754378459
 20
301.7734213493069
 30
0.0
 11
142.9729754378459
 21
276.7734213493069
 31
0.0
  0
LINE
  5
393
330
38B
100
AcDbEntity
  8
C寸法
 62
     0
370
    -2
100
AcDbLine
 10
142.9729754378459
 20
366.7734213904015
 30
0.0
 11
142.9729754378459
 21
391.7734213904015
 31
0.0
  0
INSERT
  5
394
330
38B
100
AcDbEntity
  8
C寸法
 62
     0
370
    -2
100
AcDbBlockReference
  2
_OPEN
 10
142.9729754378459
 20
326.7734213493069
 30
0.0
 41
25.0
 42
25.0
 43
25.0
 50
90.0
  0
INSERT
  5
395
330
38B
100
AcDbEntity
  8
C寸法
 62
     0
370
    -2
100
AcDbBlockReference
  2
_OPEN
 10
142.9729754378459
 20
341.7734213904015
 30
0.0
 41
25.0
 42
25.0
 43
25.0
 50
270.0
  0
MTEXT
  5
396
330
38B
100
AcDbEntity
  8
C寸法
 62
     0
370
    13
100
AcDbMText
 10
125.4729754378459
 20
253.228034444545
 30
0.0
 40
25.0
 41
0.0
 71
     5
 72
     1
  1
\A1;15
  7
KANJI
 11
0.0
 21
1.0
 31
0.0
 73
     1
 44
1.0
  0
POINT
  5
397
330
38B
100
AcDbEntity
  8
Defpoints
 62
     0
100
AcDbPoint
 10
205.0665935002194
 20
326.7734213493069
 30
0.0
  0
POINT
  5
398
330
38B
100
AcDbEntity
  8
Defpoints
 62
     0
100
AcDbPoint
 10
187.4887530671444
 20
341.7734213904015
 30
0.0
  0
POINT
  5
399
330
38B
100
AcDbEntity
  8
Defpoints
 62
     0
100
AcDbPoint
 10
142.9729754378459
 20
341.7734213904015
 30
0.0
  0
ENDBLK
  5
38D
330
38B
100
AcDbEntity
  8
0
100
AcDbBlockEnd
  0
BLOCK
  5
39B
330
39A
100
AcDbEntity
  8
0
100
AcDbBlockBegin
  2
*D15
 70
     1
 10
0.0
 20
0.0
 30
0.0
  3
*D15
  1
*D30
  0
LINE
  5
39D
330
39A
100
AcDbEntity
  8
C寸法
 62
     0
370
    -2
100
AcDbLine
 10
893.1150176055017
 20
861.0674214027276
 30
0.0
 11
893.1150176055016
 21
711.0960601795673
 31
0.0
  0
LINE
  5
39E
330
39A
100
AcDbEntity
  8
C寸法
 62
     0
370
    -2
100
AcDbLine
 10
1073.92534937631
 20
860.8215941168585
 30
0.0
 11
1073.92534937631
 21
711.0960601795673
 31
0.0
  0
LINE
  5
39F
330
39A
100
AcDbEntity
  8
C寸法
 62
     0
370
    -2
100
AcDbLine
 10
918.1150176055016
 20
711.0960601795673
 30
0.0
 11
1048.92534937631
 21
711.0960601795673
 31
0.0
  0
INSERT
  5
3A0
330
39A
100
AcDbEntity
  8
C寸法
 62
     0
370
    -2
100
AcDbBlockReference
  2
_OPEN
 10
893.1150176055016
 20
711.0960601795673
 30
0.0
 41
25.0
 42
25.0
 43
25.0
 50
180.0
  0
INSERT
  5
3A1
330
39A
100
AcDbEntity
  8
C寸法
 62
     0
370
    -2
100
AcDbBlockReference
  2
_OPEN
 10
1073.92534937631
 20
711.0960601795673
 30
0.0
 41
25.0
 42
25.0
 43
25.0
  0
MTEXT
  5
3A2
330
39A
100
AcDbEntity
  8
C寸法
 62
     0
370
    13
100
AcDbMText
 10
969.4387603810193
 20
728.5960601795673
 30
0.0
 40
25.0
 41
0.0
 71
     5
 72
     1
  1
\A1;Φ181
  7
KANJI
 73
     1
 44
1.0
  0
POINT
  5
3A3
330
39A
100
AcDbEntity
  8
Defpoints
 62
     0
100
AcDbPoint
 10
893.1150176055017
 20
871.0674214027276
 30
0.0
  0
POINT
  5
3A4
330
39A
100
AcDbEntity
  8
Defpoints
 62
     0
100
AcDbPoint
 10
1073.92534937631
 20
870.8215941168585
 30
0.0
  0
POINT
  5
3A5
330
39A
100
AcDbEntity
  8
Defpoints
 62
     0
100
AcDbPoint
 10
1073.92534937631
 20
711.0960601795673
 30
0.0
  0
ENDBLK
  5
39C
330
39A
100
AcDbEntity
  8
0
100
AcDbBlockEnd
  0
BLOCK
  5
3AB
330
3AA
100
AcDbEntity
  8
0
100
AcDbBlockBegin
  2
*D16
 70
     1
 10
0.0
 20
0.0
 30
0.0
  3
*D16
  1
*D31
  0
LINE
  5
3AD
330
3AA
100
AcDbEntity
  8
0
 62
     0
370
    -2
100
AcDbLine
 10
224.4407344918225
 20
656.3461442289665
 30
0.0
 11
338.4902803199596
 21
753.1907230315352
 31
0.0
  0
MTEXT
  5
3AE
330
3AA
100
AcDbEntity
  8
0
 62
     0
370
    13
100
AcDbMText
 10
268.4508182425489
 20
716.6750964387046
 30
0.0
 40
25.0
 41
0.0
 71
     5
 72
     1
  1
4-R100
  7
KANJI
 11
0.7622609088712513
 21
0.6472698871466012
 31
0.0
 73
     1
 44
1.0
  0
INSERT
  5
3AF
330
3AA
100
AcDbEntity
  8
0
 62
     0
370
    -2
100
AcDbBlockReference
  2
_OPEN
 10
205.3842117700412
 20
640.1643970503015
 30
0.0
 41
25.0
 42
25.0
 43
25.0
 50
220.3360779236941
  0
POINT
  5
3B0
330
3AA
100
AcDbEntity
  8
Defpoints
 62
     0
100
AcDbPoint
 10
205.3842117700412
 20
640.1643970503015
 30
0.0
  0
POINT
  5
3B1
330
3AA
100
AcDbEntity
  8
Defpoints
 62
     0
100
AcDbPoint
 10
281.6103026696969
 20
704.8913857756019
 30
0.0
  0
ENDBLK
  5
3AC
330
3AA
100
AcDbEntity
  8
0
100
AcDbBlockEnd
  0
BLOCK
  5
3B6
330
3B5
100
AcDbEntity
  8
0
100
AcDbBlockBegin
  2
*D17
 70
     1
 10
0.0
 20
0.0
 30
0.0
  3
*D17
  1
*D32
  0
LINE
  5
3B8
330
3B5
100
AcDbEntity
  8
0
 62
     0
370
    -2
100
AcDbLine
 10
196.8682913788003
 20
598.4653157425467
 30
0.0
 11
345.29873693433
 21
717.8685493861375
 31
0.0
  0
MTEXT
  5
3B9
330
3B5
100
AcDbEntity
  8
0
 62
     0
370
    13
100
AcDbMText
 10
289.74149161117
 20
690.0207947504879
 30
0.0
 40
25.0
 41
0.0
 71
     5
 72
     1
  1
4-R60
  7
KANJI
 11
0.7791787685375759
 21
0.6268017602561967
 31
0.0
 73
     1
 44
1.0
  0
INSERT
  5
3BA
330
3B5
100
AcDbEntity
  8
0
 62
     0
370
    -2
100
AcDbBlockReference
  2
_OPEN
 10
196.8682913788003
 20
598.4653157425467
 30
0.0
 41
25.0
 42
25.0
 43
25.0
 50
218.8145543974616
  0
POINT
  5
3BB
330
3B5
100
AcDbEntity
  8
Defpoints
 62
     0
100
AcDbPoint
 10
196.8682913788003
 20
598.4653157425467
 30
0.0
  0
POINT
  5
3BC
330
3B5
100
AcDbEntity
  8
Defpoints
 62
     0
100
AcDbPoint
 10
243.61901749874
 20
636.0734213641008
 30
0.0
  0
ENDBLK
  5
3B7
330
3B5
100
AcDbEntity
  8
0
100
AcDbBlockEnd
  0
BLOCK
  5
3C6
330
3C5
100
AcDbEntity
  8
0
100
AcDbBlockBegin
  2
*D18
 70
     1
 10
0.0
 20
0.0
 30
0.0
  3
*D18
  1
*D33
  0
LINE
  5
3C8
330
3C5
100
AcDbEntity
  8
0
 62
     0
370
    -2
100
AcDbLine
 10
206.7678964427565
 20
1077.764704941572
 30
0.0
 11
49.6611611354097
 21
1166.100681169403
 31
0.0
  0
LINE
  5
3C9
330
3C5
100
AcDbEntity
  8
0
 62
     0
370
    -2
100
AcDbLine
 10
228.5594515382273
 20
1065.512026600855
 30
0.0
 11
250.3510066336981
 21
1053.259348260139
 31
0.0
  0
LINE
  5
3CA
330
3C5
100
AcDbEntity
  8
0
 62
     0
370
    -2
100
AcDbLine
 10
228.5594515382273
 20
1065.512026600855
 30
0.0
 11
250.3510066336981
 21
1053.259348260139
 31
0.0
  0
MTEXT
  5
3CB
330
3C5
100
AcDbEntity
  8
0
 62
     0
370
    13
100
AcDbMText
 10
114.9998485321137
 20
1149.439459963033
 30
0.0
 40
25.0
 41
0.0
 71
     5
 72
     1
  1
4-R60
  7
KANJI
 11
0.8716622038188327
 21
-0.4901071336286544
 31
0.0
 73
     1
 44
1.0
  0
LINE
  5
3CC
330
3C5
100
AcDbEntity
  8
0
 62
     0
370
    -2
100
AcDbLine
 10
247.8645753420483
 20
1054.657387211439
 30
0.0
 11
206.7678964427565
 21
1077.764704941572
 31
0.0
  0
INSERT
  5
470
330
3C5
100
AcDbEntity
  8
0
 62
     0
370
    -2
100
AcDbBlockReference
  2
_OPEN
 10
206.7678964427565
 20
1077.764704941572
 30
0.0
 41
25.0
 42
25.0
 43
25.0
 50
150.6523765999781
  0
POINT
  5
471
330
3C5
100
AcDbEntity
  8
Defpoints
 62
     0
100
AcDbPoint
 10
206.7678964427565
 20
1077.764704941572
 30
0.0
  0
POINT
  5
472
330
3C5
100
AcDbEntity
  8
Defpoints
 62
     0
100
AcDbPoint
 10
247.8645753420483
 20
1054.657387211439
 30
0.0
  0
ENDBLK
  5
3C7
330
3C5
100
AcDbEntity
  8
0
100
AcDbBlockEnd
  0
BLOCK
  5
3D3
330
3D2
100
AcDbEntity
  8
0
100
AcDbBlockBegin
  2
*D19
 70
     1
 10
0.0
 20
0.0
 30
0.0
  3
*D19
  1
*D34
  0
LINE
  5
3D5
330
3D2
100
AcDbEntity
  8
0
 62
     0
370
    -2
100
AcDbLine
 10
676.4556672141035
 20
1056.630071677597
 30
0.0
 11
676.4556672141035
 21
1129.1017150821
 31
0.0
  0
LINE
  5
3D6
330
3D2
100
AcDbEntity
  8
0
 62
     0
370
    -2
100
AcDbLine
 10
640.5700964849452
 20
1056.630071677597
 30
0.0
 11
640.5700964849452
 21
1129.1017150821
 31
0.0
  0
LINE
  5
3D7
330
3D2
100
AcDbEntity
  8
0
 62
     0
370
    -2
100
AcDbLine
 10
615.5700964849452
 20
1127.8517150821
 30
0.0
 11
426.7010488658975
 21
1127.8517150821
 31
0.0
  0
LINE
  5
3D8
330
3D2
100
AcDbEntity
  8
0
 62
     0
370
    -2
100
AcDbLine
 10
676.4556672141035
 20
1127.8517150821
 30
0.0
 11
640.5700964849452
 21
1127.8517150821
 31
0.0
  0
LINE
  5
3D9
330
3D2
100
AcDbEntity
  8
0
 62
     0
370
    -2
100
AcDbLine
 10
701.4556672141035
 20
1127.8517150821
 30
0.0
 11
726.4556672141035
 21
1127.8517150821
 31
0.0
  0
INSERT
  5
3DA
330
3D2
100
AcDbEntity
  8
0
 62
     0
370
    -2
100
AcDbBlockReference
  2
_OPEN
 10
676.4556672141035
 20
1127.8517150821
 30
0.0
 41
25.0
 42
25.0
 43
25.0
 50
180.0
  0
INSERT
  5
3DB
330
3D2
100
AcDbEntity
  8
0
 62
     0
370
    -2
100
AcDbBlockReference
  2
_OPEN
 10
640.5700964849452
 20
1127.8517150821
 30
0.0
 41
25.0
 42
25.0
 43
25.0
  0
MTEXT
  5
3DC
330
3D2
100
AcDbEntity
  8
0
 62
     0
370
    13
100
AcDbMText
 10
508.6355726754214
 20
1145.3517150821
 30
0.0
 40
25.0
 41
0.0
 71
     5
 72
     1
  1
Φ36水栓穴
  7
KANJI
 73
     1
 44
1.0
  0
POINT
  5
3DD
330
3D2
100
AcDbEntity
  8
Defpoints
 62
     0
100
AcDbPoint
 10
676.4556672141035
 20
1056.005071677597
 30
0.0
  0
POINT
  5
3DE
330
3D2
100
AcDbEntity
  8
Defpoints
 62
     0
100
AcDbPoint
 10
640.5700964849452
 20
1056.005071677597
 30
0.0
  0
POINT
  5
3DF
330
3D2
100
AcDbEntity
  8
Defpoints
 62
     0
100
AcDbPoint
 10
640.5700964849452
 20
1127.8517150821
 30
0.0
  0
ENDBLK
  5
3D4
330
3D2
100
AcDbEntity
  8
0
100
AcDbBlockEnd
  0
ENDSEC
  0
SECTION
  2
ENTITIES
  0
TEXT
  5
260
330
1F
100
AcDbEntity
  8
C寸法
 62
     7
100
AcDbText
 10
1308.203312058187
 20
203.0070050249863
 30
0.0
 40
30.0
  1
品　番　：R950BI 寸法図
  7
KANJI
100
AcDbText
  0
LINE
  5
261
330
1F
100
AcDbEntity
  8
0
100
AcDbLine
 10
1303.39784940408
 20
191.2133728924996
 30
0.0
 11
1763.374426839124
 21
191.2133728924996
 31
0.0
  0
TEXT
  5
262
330
1F
100
AcDbEntity
  8
C寸法
 62
     7
100
AcDbText
 10
1349.116250204903
 20
154.3288430994701
 30
0.0
 40
25.0
  1
※詳細はお問合せください
  7
KANJI
100
AcDbText
  0
LWPOLYLINE
  5
263
330
1F
100
AcDbEntity
  8
0
100
AcDbPolyline
 90
        4
 70
     1
 43
0.0
 10
5.288162972269504
 20
1244.431163428892
 10
5.288162972269504
 20
42.88267552139902
 10
1805.343822214816
 20
42.88267552139902
 10
1805.343822214816
 20
1244.431163428892
  0
LINE
  5
264
330
1F
100
AcDbEntity
  8
C4
 62
     0
100
AcDbLine
 10
1073.617017635171
 20
561.0734213517717
 30
0.0
 11
243.61901749874
 21
561.0734213517717
 31
0.0
  0
LINE
  5
265
330
1F
100
AcDbEntity
  8
C4
 62
     0
100
AcDbLine
 10
1104.40501764025
 20
142.566421319024
 30
0.0
 11
1076.555017635675
 21
141.8374213189028
 31
0.0
  0
LINE
  5
266
330
1F
100
AcDbEntity
  8
C4
 62
     0
100
AcDbLine
 10
1104.465017640248
 20
140.0674213186113
 30
0.0
 11
1076.615017635658
 21
139.3384213184901
 31
0.0
  0
LINE
  5
267
330
1F
100
AcDbEntity
  8
C4
 62
     0
100
AcDbLine
 10
243.61901749874
 20
1111.073421442185
 30
0.0
 11
1073.617017635171
 21
1111.073421442185
 31
0.0
  0
LINE
  5
268
330
1F
100
AcDbEntity
  8
C4
 62
     0
100
AcDbLine
 10
243.61901749874
 20
1096.073421439718
 30
0.0
 11
1073.617017635171
 21
1096.073421439718
 31
0.0
  0
LINE
  5
269
330
1F
100
AcDbEntity
  8
C4
 62
     0
100
AcDbLine
 10
168.6170174864069
 20
341.7734213517716
 30
0.0
 11
1148.615017647503
 21
341.7734213517716
 31
0.0
  0
LINE
  5
26A
330
1F
100
AcDbEntity
  8
C4
 62
     0
100
AcDbLine
 10
1136.115017645452
 20
339.2734213513605
 30
0.0
 11
1148.615017647503
 21
339.2734213513605
 31
0.0
  0
LINE
  5
26B
330
1F
100
AcDbEntity
  8
C4
 62
     0
100
AcDbLine
 10
181.1190174884664
 20
339.2734213513605
 30
0.0
 11
168.6170174864069
 21
339.2734213513605
 31
0.0
  0
LINE
  5
26C
330
1F
100
AcDbEntity
  8
C4
 62
     0
100
AcDbLine
 10
1133.61501764503
 20
172.5564213239515
 30
0.0
 11
1133.61501764503
 21
340.7734213516043
 31
0.0
  0
LINE
  5
26D
330
1F
100
AcDbEntity
  8
C4
 62
     0
100
AcDbLine
 10
1148.615017647503
 20
341.7734213517716
 30
0.0
 11
1148.615017647503
 21
339.2734213513605
 31
0.0
  0
LINE
  5
26E
330
1F
100
AcDbEntity
  8
C4
 62
     0
100
AcDbLine
 10
168.6170174864069
 20
341.7734213517716
 30
0.0
 11
168.6170174864069
 21
339.2734213513605
 31
0.0
  0
LINE
  5
26F
330
1F
100
AcDbEntity
  8
C4
 62
     0
100
AcDbLine
 10
183.6170174888662
 20
189.5774213267497
 30
0.0
 11
183.6190174888739
 21
340.7734213516043
 31
0.0
  0
LINE
  5
270
330
1F
100
AcDbEntity
  8
C4
 62
     0
100
AcDbLine
 10
1074.115017635251
 20
139.3384213184901
 30
0.0
 11
1074.115017635251
 21
134.773421317742
 31
0.0
  0
LINE
  5
271
330
1F
100
AcDbEntity
  8
C4
 62
     0
100
AcDbLine
 10
1063.115017633446
 20
132.2734213173309
 30
0.0
 11
904.1150176072965
 21
132.273421317331
 31
0.0
  0
LINE
  5
272
330
1F
100
AcDbEntity
  8
C4
 62
     0
100
AcDbLine
 10
1063.115017633446
 20
134.773421317742
 30
0.0
 11
1063.115017633446
 21
132.2734213173309
 31
0.0
  0
LINE
  5
273
330
1F
100
AcDbEntity
  8
C4
 62
     0
100
AcDbLine
 10
186.6190174893686
 20
326.7734213493069
 30
0.0
 11
1130.615017644549
 21
326.7734213493069
 31
0.0
  0
LINE
  5
274
330
1F
100
AcDbEntity
  8
C4
 62
     0
100
AcDbLine
 10
186.6190174893686
 20
335.373421350717
 30
0.0
 11
1130.615017644549
 21
335.373421350717
 31
0.0
  0
LINE
  5
275
330
1F
100
AcDbEntity
  8
C4
 62
     0
100
AcDbLine
 10
1063.115017633446
 20
134.773421317742
 30
0.0
 11
1074.115017635251
 21
134.773421317742
 31
0.0
  0
LINE
  5
276
330
1F
100
AcDbEntity
  8
C4
 62
     0
100
AcDbLine
 10
168.6190174864146
 20
636.0734213641008
 30
0.0
 11
168.6190174864146
 21
1036.073421429855
 31
0.0
  0
LINE
  5
277
330
1F
100
AcDbEntity
  8
C4
 62
     0
100
AcDbLine
 10
1148.617017647511
 20
636.0734213641008
 30
0.0
 11
1148.617017647511
 21
1036.073421429855
 31
0.0
  0
LINE
  5
278
330
1F
100
AcDbEntity
  8
C4
 62
     0
100
AcDbLine
 10
1073.617017635171
 20
576.0734213542364
 30
0.0
 11
243.61901749874
 21
576.0734213542364
 31
0.0
  0
LINE
  5
279
330
1F
100
AcDbEntity
  8
C4
 62
     0
100
AcDbLine
 10
243.61901749874
 20
1016.073421426567
 30
0.0
 11
1073.617017635171
 21
1016.073421426567
 31
0.0
  0
LINE
  5
27A
330
1F
100
AcDbEntity
  8
C4
 62
     0
100
AcDbLine
 10
1133.617017645037
 20
636.0734213641008
 30
0.0
 11
1133.617017645037
 21
1036.073421429855
 31
0.0
  0
LINE
  5
27B
330
1F
100
AcDbEntity
  8
C4
 62
     0
100
AcDbLine
 10
183.6190174888739
 20
636.0734213641008
 30
0.0
 11
183.6190174888739
 21
1036.073421429855
 31
0.0
  0
LINE
  5
27C
330
1F
100
AcDbEntity
  8
C4
 62
     0
100
AcDbLine
 10
1074.115017635251
 20
132.2734213173309
 30
0.0
 11
1063.115017633446
 21
132.2734213173309
 31
0.0
  0
LINE
  5
27D
330
1F
100
AcDbEntity
  8
C4
 62
     0
100
AcDbLine
 10
1076.615017635658
 20
134.773421317742
 30
0.0
 11
1076.615017635658
 21
139.3384213184901
 31
0.0
  0
LINE
  5
27E
330
1F
100
AcDbEntity
  8
C4
 62
     0
100
AcDbLine
 10
1136.115017645452
 20
172.5564213239515
 30
0.0
 11
1136.115017645452
 21
339.2734213513605
 31
0.0
  0
LINE
  5
27F
330
1F
100
AcDbEntity
  8
C4
 62
     0
100
AcDbLine
 10
181.1170174884587
 20
189.5774213267497
 30
0.0
 11
181.1190174884664
 21
339.2734213513605
 31
0.0
  0
LINE
  5
280
330
1F
100
AcDbEntity
  8
C4
 62
     0
100
AcDbLine
 10
1063.115017633446
 20
134.773421317742
 30
0.0
 11
904.1150176072965
 21
134.773421317742
 31
0.0
  0
LINE
  5
281
330
1F
100
AcDbEntity
  8
C4
 62
     0
100
AcDbLine
 10
1076.048647615194
 20
141.7734213188952
 30
0.0
 11
891.1813876255633
 21
141.7734213188952
 31
0.0
  0
LINE
  5
282
330
1F
100
AcDbEntity
  8
C4
 62
     0
100
AcDbLine
 10
212.8320174936794
 20
159.5874213218223
 30
0.0
 11
890.6850176051062
 21
141.8374213189028
 31
0.0
  0
LINE
  5
283
330
1F
100
AcDbEntity
  8
C4
 62
     0
100
AcDbLine
 10
212.7660174936732
 20
157.0884213214078
 30
0.0
 11
890.6150176050992
 21
139.3384213184901
 31
0.0
  0
LINE
  5
284
330
1F
100
AcDbEntity
  8
C4
 62
     0
100
AcDbLine
 10
893.1150176055066
 20
139.3384213184901
 30
0.0
 11
893.1150176055066
 21
134.773421317742
 31
0.0
  0
LINE
  5
285
330
1F
100
AcDbEntity
  8
C4
 62
     0
100
AcDbLine
 10
904.1150176072965
 20
134.773421317742
 30
0.0
 11
904.1150176072965
 21
132.2734213173309
 31
0.0
  0
LINE
  5
286
330
1F
100
AcDbEntity
  8
C4
 62
     0
100
AcDbLine
 10
904.1150176072965
 20
134.773421317742
 30
0.0
 11
893.1150176055066
 21
134.773421317742
 31
0.0
  0
LINE
  5
287
330
1F
100
AcDbEntity
  8
C4
 62
     0
100
AcDbLine
 10
893.1150176055066
 20
132.2734213173309
 30
0.0
 11
904.1150176072965
 21
132.2734213173309
 31
0.0
  0
LINE
  5
288
330
1F
100
AcDbEntity
  8
C4
 62
     0
100
AcDbLine
 10
890.6150176050992
 20
134.773421317742
 30
0.0
 11
890.6150176050992
 21
139.3384213184901
 31
0.0
  0
LINE
  5
289
330
1F
100
AcDbEntity
  8
C2
  6
CENTER
 62
     0
 48
20.0
370
    13
100
AcDbLine
 10
151.6060543647259
 20
871.0734214027306
 30
0.0
 11
1165.674245185136
 21
871.0734214027307
 31
0.0
  0
LINE
  5
28A
330
1F
100
AcDbEntity
  8
C2
  6
CENTER
 62
     0
 48
20.0
370
    13
100
AcDbLine
 10
983.6150176203787
 20
576.0734213542364
 30
0.0
 11
983.6150176203787
 21
981.067421584452
 31
0.0
  0
ARC
  5
28B
330
1F
100
AcDbEntity
  8
C4
 62
     0
100
AcDbCircle
 10
1134.615017645204
 20
340.7734213516043
 30
0.0
 40
1.000000000164386
100
AcDbArc
 50
90.00021045937261
 51
179.9998479603914
  0
CIRCLE
  5
28C
330
1F
100
AcDbEntity
  8
C4
 62
     0
100
AcDbCircle
 10
983.6150176203787
 20
871.0674214027276
 30
0.0
 40
90.5000000148769
  0
ARC
  5
28D
330
1F
100
AcDbEntity
  8
C4
 62
     0
100
AcDbCircle
 10
1076.615017635658
 20
139.3384213184901
 30
0.0
 40
2.500000000410964
100
AcDbArc
 50
91.50021396676009
 51
179.9998479603914
  0
ARC
  5
28E
330
1F
100
AcDbEntity
  8
C4
 62
     0
100
AcDbCircle
 10
213.6170174937993
 20
189.5774213267497
 30
0.0
 40
32.50000000534254
100
AcDbArc
 50
179.9992750026628
 51
268.5000549125535
  0
ARC
  5
28F
330
1F
100
AcDbEntity
  8
C4
 62
     0
100
AcDbCircle
 10
1130.615017644549
 20
338.3734213512117
 30
0.0
 40
3.000000000493158
100
AcDbArc
 50
270.000058419295
 51
0.0
  0
ARC
  5
290
330
1F
100
AcDbEntity
  8
C4
 62
     0
100
AcDbCircle
 10
1130.615017644549
 20
329.7734213497962
 30
0.0
 40
3.000000000493158
100
AcDbArc
 50
270.000058419295
 51
0.0
  0
ARC
  5
291
330
1F
100
AcDbEntity
  8
C4
 62
     0
100
AcDbCircle
 10
186.6190174893686
 20
329.7734213497962
 30
0.0
 40
3.000000000493158
100
AcDbArc
 50
179.9987020446738
 51
270.000058419295
  0
ARC
  5
292
330
1F
100
AcDbEntity
  8
C4
 62
     0
100
AcDbCircle
 10
213.6170174937993
 20
189.5774213267497
 30
0.0
 40
30.00000000493157
100
AcDbArc
 50
179.9992750026628
 51
268.5000549125535
  0
ARC
  5
293
330
1F
100
AcDbEntity
  8
C4
 62
     0
100
AcDbCircle
 10
243.61901749874
 20
956.0734214167042
 30
0.0
 40
60.00000000986314
100
AcDbArc
 50
89.99978954083586
 51
180.0
  0
ARC
  5
294
330
1F
100
AcDbEntity
  8
C4
 62
     0
100
AcDbCircle
 10
186.6190174893686
 20
338.3734213512117
 30
0.0
 40
3.000000000493158
100
AcDbArc
 50
179.9987020446738
 51
270.000058419295
  0
CIRCLE
  5
295
330
1F
100
AcDbEntity
  8
C4
 62
     0
100
AcDbCircle
 10
983.6150176203787
 20
871.0674214027276
 30
0.0
 40
79.50000001306866
  0
ARC
  5
296
330
1F
100
AcDbEntity
  8
C4
 62
     0
100
AcDbCircle
 10
1073.617017635171
 20
956.0734214167042
 30
0.0
 40
60.00000000986314
100
AcDbArc
 50
0.0001520396086089
 51
89.99978954083586
  0
ARC
  5
297
330
1F
100
AcDbEntity
  8
C4
 62
     0
100
AcDbCircle
 10
1074.115017635251
 20
134.773421317742
 30
0.0
 40
2.500000000410964
100
AcDbArc
 50
270.000058419295
 51
0.0
  0
ARC
  5
298
330
1F
100
AcDbEntity
  8
C4
 62
     0
100
AcDbCircle
 10
182.6190174887138
 20
340.7734213516043
 30
0.0
 40
1.000000000164386
100
AcDbArc
 50
0.0
 51
90.00021045937261
  0
ARC
  5
299
330
1F
100
AcDbEntity
  8
C4
 62
     0
100
AcDbCircle
 10
1073.617017635171
 20
1036.073421429855
 30
0.0
 40
60.00000000986314
100
AcDbArc
 50
0.0001520396086089
 51
89.99978954083586
  0
ARC
  5
29A
330
1F
100
AcDbEntity
  8
C4
 62
     0
100
AcDbCircle
 10
1073.617017635171
 20
1036.073421429855
 30
0.0
 40
75.00000001232893
100
AcDbArc
 50
0.0001520396086089
 51
89.99978954083586
  0
ARC
  5
29B
330
1F
100
AcDbEntity
  8
C4
 62
     0
100
AcDbCircle
 10
243.61901749874
 20
1036.073421429855
 30
0.0
 40
60.00000000986314
100
AcDbArc
 50
89.99978954083586
 51
180.0
  0
ARC
  5
29C
330
1F
100
AcDbEntity
  8
C4
 62
     0
100
AcDbCircle
 10
243.61901749874
 20
1036.073421429855
 30
0.0
 40
75.00000001232893
100
AcDbArc
 50
89.99978954083586
 51
180.0
  0
ARC
  5
29D
102
{ACAD_REACTORS
330
3B4
102
}
330
1F
100
AcDbEntity
  8
C4
 62
     0
100
AcDbCircle
 10
243.61901749874
 20
636.0734213641008
 30
0.0
 40
60.00000000986314
100
AcDbArc
 50
180.0
 51
269.9999415809135
  0
ARC
  5
29E
330
1F
100
AcDbEntity
  8
C4
 62
     0
100
AcDbCircle
 10
243.61901749874
 20
636.0734213641008
 30
0.0
 40
75.00000001232893
100
AcDbArc
 50
180.0
 51
269.9999415809135
  0
ARC
  5
29F
330
1F
100
AcDbEntity
  8
C4
 62
     0
100
AcDbCircle
 10
1073.617017635171
 20
636.0734213641008
 30
0.0
 40
60.00000000986314
100
AcDbArc
 50
269.9999415809135
 51
0.0001520396086089
  0
ARC
  5
2A0
330
1F
100
AcDbEntity
  8
C4
 62
     0
100
AcDbCircle
 10
1073.617017635171
 20
636.0734213641008
 30
0.0
 40
75.00000001232893
100
AcDbArc
 50
269.9999415809135
 51
0.0001520396086089
  0
ARC
  5
2A1
330
1F
100
AcDbEntity
  8
C4
 62
     0
100
AcDbCircle
 10
-866.3809826837266
 20
796.0734213904016
 30
0.0
 40
2000.000000328771
100
AcDbArc
 50
357.081629409831
 51
2.918370590169116
  0
ARC
  5
2A2
330
1F
100
AcDbEntity
  8
C4
 62
     0
100
AcDbCircle
 10
2183.617017817645
 20
796.0734213904016
 30
0.0
 40
2000.000000328771
100
AcDbArc
 50
177.0816324802381
 51
182.9183374029569
  0
ARC
  5
2A3
330
1F
100
AcDbEntity
  8
C4
 62
     0
100
AcDbCircle
 10
1103.615017640097
 20
172.5564213239515
 30
0.0
 40
32.50000000534254
100
AcDbArc
 50
271.5000619270962
 51
0.0
  0
ARC
  5
2A4
330
1F
100
AcDbEntity
  8
C4
 62
     0
100
AcDbCircle
 10
1103.615017640097
 20
172.5564213239515
 30
0.0
 40
30.00000000493157
100
AcDbArc
 50
271.5000619270963
 51
0.0
  0
ARC
  5
2A5
330
1F
100
AcDbEntity
  8
C4
 62
     0
100
AcDbCircle
 10
890.6150176050992
 20
139.3384213184901
 30
0.0
 40
2.500000000410964
100
AcDbArc
 50
0.0
 51
88.50020695136274
  0
ARC
  5
2A6
330
1F
100
AcDbEntity
  8
C4
 62
     0
100
AcDbCircle
 10
893.1150176055066
 20
134.773421317742
 30
0.0
 40
2.500000000410964
100
AcDbArc
 50
180.0004209183804
 51
270.000058419295
  0
ARC
  5
2A7
330
1F
100
AcDbEntity
  8
C4
 62
     0
100
AcDbCircle
 10
658.6160175669625
 20
9091.073422753978
 30
0.0
 40
8500.000001397279
100
AcDbArc
 50
267.4583008009163
 51
272.5421553170548
  0
ARC
  5
2A8
330
1F
100
AcDbEntity
  8
C4
 62
     0
100
AcDbCircle
 10
658.6180175669701
 20
-7498.926579973182
 30
0.0
 40
8500.000001397279
100
AcDbArc
 50
87.45814876154101
 51
92.54200327743497
  0
ARC
  5
2A9
330
1F
100
AcDbEntity
  8
C4
 62
     0
100
AcDbCircle
 10
1031.155017628201
 20
699.3384213745012
 30
0.0
 40
100.0000000164386
100
AcDbArc
 50
272.5421553170547
 51
357.0816294098309
  0
ARC
  5
2AA
330
1F
100
AcDbEntity
  8
C4
 62
     0
100
AcDbCircle
 10
1031.154987675834
 20
892.8084594521079
 30
0.0
 40
100.0000000164386
100
AcDbArc
 50
2.918370315716778
 51
87.45814412625884
  0
ARC
  5
2AB
330
1F
100
AcDbEntity
  8
C4
 62
     0
100
AcDbCircle
 10
286.0790175057168
 20
699.3394213744996
 30
0.0
 40
100.0000000164386
100
AcDbArc
 50
182.9183374029569
 51
267.4583008009163
  0
ARC
  5
2AC
330
1F
100
AcDbEntity
  8
C4
 62
     0
100
AcDbCircle
 10
286.0790175057168
 20
892.8084214063019
 30
0.0
 40
100.0000000164386
100
AcDbArc
 50
92.54200327743504
 51
177.0816324802381
  0
LINE
  5
2AD
330
1F
100
AcDbEntity
  8
C4
 62
     0
100
AcDbLine
 10
1491.635159275108
 20
1097.070031453582
 30
0.0
 11
1494.035123275643
 21
1097.070031453582
 31
0.0
  0
LINE
  5
2AE
330
1F
100
AcDbEntity
  8
C4
 62
     0
100
AcDbLine
 10
1498.03506327654
 20
1019.071201436031
 30
0.0
 11
1498.03506327654
 21
1093.070091452681
 31
0.0
  0
LINE
  5
2AF
330
1F
100
AcDbEntity
  8
C4
 62
     0
100
AcDbLine
 10
1497.035078276319
 20
1019.071201436031
 30
0.0
 11
1497.035078276319
 21
1093.070091452681
 31
0.0
  0
LINE
  5
2B0
330
1F
100
AcDbEntity
  8
C4
 62
     0
100
AcDbLine
 10
1491.635159275108
 20
1097.070031453582
 30
0.0
 11
1491.635159275108
 21
1111.069821456731
 31
0.0
  0
LINE
  5
2B1
330
1F
100
AcDbEntity
  8
C4
 62
     0
100
AcDbLine
 10
1697.43507227641
 20
780.5747788823701
 30
0.0
 11
1693.065137825425
 21
780.5747788823701
 31
0.0
  0
LINE
  5
2B2
330
1F
100
AcDbEntity
  8
C4
 62
     0
100
AcDbLine
 10
1686.597487355345
 20
626.4944362178467
 30
0.0
 11
1690.565175324856
 21
778.1408153918237
 31
0.0
  0
LINE
  5
2B3
330
1F
100
AcDbEntity
  8
C4
 62
     0
100
AcDbLine
 10
1690.635174274884
 20
963.1005544955492
 30
0.0
 11
1690.635174274884
 21
778.6622596958903
 31
0.0
  0
LINE
  5
2B4
330
1F
100
AcDbEntity
  8
C4
 62
     0
100
AcDbLine
 10
1697.43507227641
 20
779.574793882146
 30
0.0
 11
1693.065137825425
 21
779.574793882146
 31
0.0
  0
LINE
  5
2B5
330
1F
100
AcDbEntity
  8
C4
 62
     0
100
AcDbLine
 10
1687.597385118573
 20
626.4682506820809
 30
0.0
 11
1691.565091900141
 21
778.1095846357784
 31
0.0
  0
LINE
  5
2B6
330
1F
100
AcDbEntity
  8
C4
 62
     0
100
AcDbLine
 10
1491.635159275108
 20
1096.070046453355
 30
0.0
 11
1494.035123275643
 21
1096.070046453355
 31
0.0
  0
LINE
  5
2B7
330
1F
100
AcDbEntity
  8
C4
 62
     0
100
AcDbLine
 10
1491.635159275108
 20
576.0768463513596
 30
0.0
 11
1502.634994277577
 21
576.0798463063584
 31
0.0
  0
LINE
  5
2B8
330
1F
100
AcDbEntity
  8
C4
 62
     0
100
AcDbLine
 10
1500.035033276995
 20
1017.071231435581
 30
0.0
 11
1502.634994277577
 21
1017.071231435581
 31
0.0
  0
LINE
  5
2B9
330
1F
100
AcDbEntity
  8
C4
 62
     0
100
AcDbLine
 10
1505.634949278253
 20
1013.07129143468
 30
0.0
 11
1505.634949278253
 21
999.8714894317109
 31
0.0
  0
LINE
  5
2BA
330
1F
100
AcDbEntity
  8
C4
 62
     0
100
AcDbLine
 10
1490.635174274888
 20
1111.069821456731
 30
0.0
 11
1491.635159275108
 21
1111.069821456731
 31
0.0
  0
LINE
  5
2BB
330
1F
100
AcDbEntity
  8
C4
 62
     0
100
AcDbLine
 10
1660.53409279168
 20
995.8715494308108
 30
0.0
 11
1510.634874279377
 21
995.8715494308108
 31
0.0
  0
LINE
  5
2BC
330
1F
100
AcDbEntity
  8
C4
 62
     0
100
AcDbLine
 10
1490.635174274888
 20
561.0780713329823
 30
0.0
 11
1490.635174274888
 21
1111.069821456731
 31
0.0
  0
LINE
  5
2BD
330
1F
100
AcDbEntity
  8
C4
 62
     0
100
AcDbLine
 10
1660.533857740756
 20
994.8715644305867
 30
0.0
 11
1510.634874279377
 21
994.8715644305867
 31
0.0
  0
LINE
  5
2BE
330
1F
100
AcDbEntity
  8
C4
 62
     0
100
AcDbLine
 10
1490.635174274888
 20
561.0780713329823
 30
0.0
 11
1491.635159275108
 21
561.0780713329823
 31
0.0
  0
LINE
  5
2BF
330
1F
100
AcDbEntity
  8
C4
 62
     0
100
AcDbLine
 10
1697.43507227641
 20
961.5720639230931
 30
0.0
 11
1692.586625696014
 21
961.5720639230931
 31
0.0
  0
ARC
  5
2C0
330
1F
100
AcDbEntity
  8
C4
 62
     0
100
AcDbCircle
 10
1692.586625696014
 20
963.5820357835182
 30
0.0
 40
2.009971860424097
100
AcDbArc
 50
181.4592635419482
 51
270.0
  0
LINE
  5
2C1
330
1F
100
AcDbEntity
  8
C4
 62
     0
100
AcDbLine
 10
1691.523579263062
 20
965.661253860264
 30
0.0
 11
1691.565095495828
 21
964.0311189809781
 31
0.0
  0
LINE
  5
2C2
330
1F
100
AcDbEntity
  8
C4
 62
     0
100
AcDbLine
 10
1690.523678405548
 20
965.635988966309
 30
0.0
 11
1690.577305702161
 21
963.5308494379842
 31
0.0
  0
LINE
  5
2C3
330
1F
100
AcDbEntity
  8
C4
 62
     0
100
AcDbLine
 10
1697.43507227641
 20
962.5720489233208
 30
0.0
 11
1693.065137825425
 21
962.5720489233208
 31
0.0
  0
LINE
  5
2C4
330
1F
100
AcDbEntity
  8
C4
 62
     0
100
AcDbLine
 10
1505.634949278253
 20
579.0798013070325
 30
0.0
 11
1505.634949278253
 21
592.2796033100058
 31
0.0
  0
LINE
  5
2C5
330
1F
100
AcDbEntity
  8
C4
 62
     0
100
AcDbLine
 10
1656.608200311766
 20
597.27952831113
 30
0.0
 11
1510.634874279377
 21
597.27952831113
 31
0.0
  0
LINE
  5
2C6
330
1F
100
AcDbEntity
  8
C4
 62
     0
100
AcDbLine
 10
1656.608455979381
 20
596.2795433109059
 30
0.0
 11
1510.634874279377
 21
596.2795433109059
 31
0.0
  0
LINE
  5
2C7
330
1F
100
AcDbEntity
  8
C4
 62
     0
100
AcDbLine
 10
1506.634934278488
 20
1013.07129143468
 30
0.0
 11
1506.634934278488
 21
999.8714894317109
 31
0.0
  0
LINE
  5
2C8
330
1F
100
AcDbEntity
  8
C4
 62
     0
100
AcDbLine
 10
1500.035033276995
 20
1016.071246435358
 30
0.0
 11
1502.634994277577
 21
1016.071246435358
 31
0.0
  0
LINE
  5
2C9
330
1F
100
AcDbEntity
  8
C4
 62
     0
100
AcDbLine
 10
1506.634934278488
 20
579.0798013070325
 30
0.0
 11
1506.634934278488
 21
592.2796033100058
 31
0.0
  0
LINE
  5
2CA
330
1F
100
AcDbEntity
  8
C4
 62
     0
100
AcDbLine
 10
1491.635213814784
 20
575.0768613585715
 30
0.0
 11
1502.636048802254
 21
575.0798613135703
 31
0.0
  0
LINE
  5
2CB
330
1F
100
AcDbEntity
  8
C4
 62
     0
100
AcDbLine
 10
1491.635159275108
 20
575.0768613511336
 30
0.0
 11
1491.635159275108
 21
561.0780713329823
 31
0.0
  0
LINE
  5
2CC
330
1F
100
AcDbEntity
  8
C4
 62
     0
100
AcDbLine
 10
1698.635054276673
 20
961.3720669230497
 30
0.0
 11
1698.635054276673
 21
950.0722364205049
 31
0.0
  0
LINE
  5
2CD
330
1F
100
AcDbEntity
  8
C4
 62
     0
100
AcDbLine
 10
1697.635069276453
 20
950.0722364205049
 30
0.0
 11
1698.635054276673
 21
950.0722364205049
 31
0.0
  0
LINE
  5
2CE
330
1F
100
AcDbEntity
  8
C4
 62
     0
100
AcDbLine
 10
1697.635069276453
 20
961.3720669230497
 30
0.0
 11
1697.635069276453
 21
950.0722364205049
 31
0.0
  0
LINE
  5
2CF
330
1F
100
AcDbEntity
  8
C4
 62
     0
100
AcDbLine
 10
1697.635069276453
 20
792.0746063849583
 30
0.0
 11
1698.635054276673
 21
792.0746063849583
 31
0.0
  0
LINE
  5
2D0
330
1F
100
AcDbEntity
  8
C4
 62
     0
100
AcDbLine
 10
1697.635069276453
 20
780.7747758824171
 30
0.0
 11
1697.635069276453
 21
792.0746063849583
 31
0.0
  0
LINE
  5
2D1
330
1F
100
AcDbEntity
  8
C4
 62
     0
100
AcDbLine
 10
1697.635069276453
 20
950.0722364205049
 30
0.0
 11
1697.635069276453
 21
792.0746063849583
 31
0.0
  0
LINE
  5
2D2
330
1F
100
AcDbEntity
  8
C4
 62
     0
100
AcDbLine
 10
1698.63505427667
 20
950.0722364205049
 30
0.0
 11
1698.635054276677
 21
792.0746063849583
 31
0.0
  0
LINE
  5
2D3
330
1F
100
AcDbEntity
  8
C4
 62
     0
100
AcDbLine
 10
1698.635054276673
 20
780.7747758824171
 30
0.0
 11
1698.635054276673
 21
792.0746063849583
 31
0.0
  0
ARC
  5
2D4
330
1F
100
AcDbEntity
  8
C4
 62
     0
100
AcDbCircle
 10
1510.634874279377
 20
592.2796033100058
 30
0.0
 40
3.999940000899969
100
AcDbArc
 50
90.00021045937355
 51
179.9998479603906
  0
ARC
  5
2D5
330
1F
100
AcDbEntity
  8
C4
 62
     0
100
AcDbCircle
 10
1502.634994277577
 20
579.0798013070325
 30
0.0
 40
3.999940000899969
100
AcDbArc
 50
270.0000584192952
 51
0.0
  0
ARC
  5
2D6
330
1F
100
AcDbEntity
  8
C4
 62
     0
100
AcDbCircle
 10
1697.43507227641
 20
961.3720669230497
 30
0.0
 40
0.1999970000449987
100
AcDbArc
 50
0.0
 51
90.00021045935074
  0
ARC
  5
2D7
330
1F
100
AcDbEntity
  8
C4
 62
     0
100
AcDbCircle
 10
1697.43507227641
 20
961.3720669230497
 30
0.0
 40
1.199982000269992
100
AcDbArc
 50
0.0
 51
90.00021045937245
  0
ARC
  5
2D8
330
1F
100
AcDbEntity
  8
C4
 62
     0
100
AcDbCircle
 10
1494.035123275643
 20
1093.070091452681
 30
0.0
 40
2.999955000674979
100
AcDbArc
 50
0.0
 51
90.00021045937245
  0
ARC
  5
2D9
330
1F
100
AcDbEntity
  8
C4
 62
     0
100
AcDbCircle
 10
1494.035123275643
 20
1093.070091452681
 30
0.0
 40
3.999940000899969
100
AcDbArc
 50
0.0
 51
90.00021045937355
  0
ARC
  5
2DA
330
1F
100
AcDbEntity
  8
C4
 62
     0
100
AcDbCircle
 10
1693.065137825425
 20
778.074816381808
 30
0.0
 40
2.499962500562482
100
AcDbArc
 50
90.00021045937159
 51
178.4998444529185
  0
ARC
  5
2DB
330
1F
100
AcDbEntity
  8
C4
 62
     0
100
AcDbCircle
 10
1697.43507227641
 20
780.7747758824171
 30
0.0
 40
1.199982000269992
100
AcDbArc
 50
270.0000584192963
 51
0.0
  0
ARC
  5
2DC
330
1F
100
AcDbEntity
  8
C4
 62
     0
100
AcDbCircle
 10
1693.065137825425
 20
964.072026423657
 30
0.0
 40
1.499977500337489
100
AcDbArc
 50
181.5004244260519
 51
270.0000584192941
  0
ARC
  5
2DD
330
1F
100
AcDbEntity
  8
C4
 62
     0
100
AcDbCircle
 10
1697.43507227641
 20
780.7747758824171
 30
0.0
 40
0.1999970000449987
100
AcDbArc
 50
270.0000584192854
 51
0.0
  0
ARC
  5
2DE
330
1F
100
AcDbEntity
  8
C4
 62
     0
100
AcDbCircle
 10
1510.634874279377
 20
592.2796033100058
 30
0.0
 40
4.999925001124963
100
AcDbArc
 50
90.00021045937159
 51
179.9998479603919
  0
ARC
  5
2DF
330
1F
100
AcDbEntity
  8
C4
 62
     0
100
AcDbCircle
 10
1502.634994277577
 20
579.0798013070325
 30
0.0
 40
2.999955000674979
100
AcDbArc
 50
270.0000584192941
 51
0.0
  0
ARC
  5
2E0
330
1F
100
AcDbEntity
  8
C4
 62
     0
100
AcDbCircle
 10
1693.065137825425
 20
778.074816381808
 30
0.0
 40
1.499977500337489
100
AcDbArc
 50
90.0002104593768
 51
178.4998444529168
  0
ARC
  5
2E1
330
1F
100
AcDbEntity
  8
C4
 62
     0
100
AcDbCircle
 10
1510.634874279377
 20
999.8714894317109
 30
0.0
 40
4.999925001124963
100
AcDbArc
 50
179.9998479603906
 51
270.0000584192958
  0
ARC
  5
2E2
330
1F
100
AcDbEntity
  8
C4
 62
     0
100
AcDbCircle
 10
1500.035033276995
 20
1019.071201436031
 30
0.0
 40
2.999955000674979
100
AcDbArc
 50
179.9998479603906
 51
270.0000584192941
  0
ARC
  5
2E3
330
1F
100
AcDbEntity
  8
C4
 62
     0
100
AcDbCircle
 10
1502.634994277577
 20
1013.07129143468
 30
0.0
 40
2.999955000674979
100
AcDbArc
 50
0.0
 51
90.00021045937245
  0
ARC
  5
2E4
330
1F
100
AcDbEntity
  8
C4
 62
     0
100
AcDbCircle
 10
1491.635159275108
 20
575.0768613511336
 30
0.0
 40
0.9999850002249935
100
AcDbArc
 50
90.01396144624722
 51
179.9998479603906
  0
ARC
  5
2E5
330
1F
100
AcDbEntity
  8
C4
 62
     0
100
AcDbCircle
 10
1491.635159275108
 20
1097.070031453582
 30
0.0
 40
0.9999850002249935
100
AcDbArc
 50
179.9998479603906
 51
270.0000584192984
  0
ARC
  5
2E6
330
1F
100
AcDbEntity
  8
C4
 62
     0
100
AcDbCircle
 10
1500.035033276995
 20
1019.071201436031
 30
0.0
 40
1.999970000449987
100
AcDbArc
 50
179.9998479603906
 51
270.0000584192919
  0
ARC
  5
2E7
330
1F
100
AcDbEntity
  8
C4
 62
     0
100
AcDbCircle
 10
1502.634994277577
 20
1013.07129143468
 30
0.0
 40
3.999940000899969
100
AcDbArc
 50
0.0
 51
90.00021045937355
  0
ARC
  5
2E8
330
1F
100
AcDbEntity
  8
C4
 62
     0
100
AcDbCircle
 10
1510.634874279377
 20
999.8714894317109
 30
0.0
 40
3.999940000899969
100
AcDbArc
 50
179.9998479603906
 51
270.0000584192952
  0
ARC
  5
2E9
330
1F
100
AcDbEntity
  8
C4
 62
     0
100
AcDbCircle
 10
1656.608200311766
 20
627.2790783178807
 30
0.0
 40
29.99955000674979
100
AcDbArc
 50
270.0
 51
358.5012505830313
  0
ARC
  5
2EA
330
1F
100
AcDbEntity
  8
C4
 62
     0
100
AcDbCircle
 10
1656.608455979381
 20
627.2790783178807
 30
0.0
 40
30.99953500697476
100
AcDbArc
 50
270.0
 51
358.5011936383664
  0
ARC
  5
2EB
330
1F
100
AcDbEntity
  8
C4
 62
     0
100
AcDbCircle
 10
1660.533857740756
 20
964.8720144238359
 30
0.0
 40
29.99955000674979
100
AcDbArc
 50
1.459263541842699
 51
90.0
  0
ARC
  5
2EC
330
1F
100
AcDbEntity
  8
C4
 62
     0
100
AcDbCircle
 10
1660.53409279168
 20
964.8720144238359
 30
0.0
 40
30.99953500697476
100
AcDbArc
 50
1.458892057742736
 51
90.0
  0
DIMENSION
  5
2ED
330
1F
100
AcDbEntity
  8
C寸法
 62
     0
370
    13
100
AcDbDimension
  2
*D3
 10
183.6170176450373
 20
426.0734213542364
 30
0.0
 11
658.6170176450373
 21
443.5734213542364
 31
0.0
 70
    32
 71
     5
 42
950.0
 52
-89.99999999999999
  3
実寸
100
AcDbAlignedDimension
 13
1133.617017645037
 23
576.0734213542364
 33
0.0
 14
183.6170176450373
 24
793.2449949721914
 34
0.0
 50
180.0
100
AcDbRotatedDimension
1001
ACAD
1000
DSTYLE
1002
{
1070
   340
1005
F3
1070
   144
1040
1.0
1002
}
1001
ACAD_DSTYLE_DIMFLIPARROW_SYMBOL
1070
   385
1070
     0
1001
ACAD_DSTYLE_DIMFLIPARROW_WHICH_SYMBOL
1070
   386
1070
     3
  0
DIMENSION
  5
2EE
330
1F
100
AcDbEntity
  8
C寸法
 62
     0
370
    13
100
AcDbDimension
  2
*D4
 10
983.6150176203787
 20
476.0734213542364
 30
0.0
 11
1058.616017632708
 21
493.5734213542364
 31
0.0
 70
    32
 71
     5
 42
150.0020000246586
 52
-89.99999999999999
  3
実寸
100
AcDbAlignedDimension
 13
1133.617017645037
 23
694.2471059590982
 33
0.0
 14
983.6150176203787
 24
576.0734213542364
 34
0.0
 50
180.0
100
AcDbRotatedDimension
1001
ACAD
1000
DSTYLE
1002
{
1070
   340
1005
F3
1070
   144
1040
1.0
1002
}
  0
DIMENSION
  5
2EF
330
1F
100
AcDbEntity
  8
C寸法
 62
     0
370
    13
100
AcDbDimension
  2
*D5
 10
99.10449633966712
 20
341.7734213517717
 30
0.0
 11
81.60449633966714
 21
241.7734213517716
 31
0.0
 70
    32
 71
     5
 42
200.0000000000002
 52
-90.0
  3
実寸
100
AcDbAlignedDimension
 13
914.22513358681
 23
141.7734213517716
 33
0.0
 14
163.7271336245508
 24
341.7734213517717
 34
0.0
 50
90.00000000000001
100
AcDbRotatedDimension
1001
ACAD
1000
DSTYLE
1002
{
1070
   340
1005
F3
1070
   144
1040
1.0
1002
}
  0
DIMENSION
  5
2F0
330
1F
100
AcDbEntity
  8
C寸法
 62
     0
370
    13
100
AcDbDimension
  2
*D6
 10
1408.602905037568
 20
576.0734213542364
 30
0.0
 11
1391.102905037568
 21
836.0734213969772
 31
0.0
 70
    32
 71
     5
 42
520.0000000854816
  3
実寸
100
AcDbAlignedDimension
 13
1158.604904881405
 23
1096.073421439718
 33
0.0
 14
1158.604904881405
 24
576.0734213542364
 34
0.0
 50
90.0
100
AcDbRotatedDimension
1001
ACAD
1000
DSTYLE
1002
{
1070
   340
1005
F3
1070
   144
1040
1.0
1002
}
  0
DIMENSION
  5
2F1
330
1F
100
AcDbEntity
  8
C寸法
 62
     0
370
    13
100
AcDbDimension
  2
*D7
 10
1358.602905037565
 20
576.0734213542364
 30
0.0
 11
1341.102905037565
 21
796.0734213969772
 31
0.0
 70
    32
 71
     5
 42
440.0000000854816
  3
実寸
100
AcDbAlignedDimension
 13
1158.604904881405
 23
1016.073421439718
 33
0.0
 14
1158.604904881405
 24
576.0734213542364
 34
0.0
 50
90.0
100
AcDbRotatedDimension
1001
ACAD
1000
DSTYLE
1002
{
1070
   340
1005
F3
1070
   144
1040
1.0
1002
}
  0
DIMENSION
  5
2F2
330
1F
100
AcDbEntity
  8
C寸法
 62
     0
370
    13
100
AcDbDimension
  2
*D8
 10
1308.602905037568
 20
576.0734213542364
 30
0.0
 11
1308.602905037568
 21
502.5280344494745
 31
0.0
 70
   160
 71
     5
 42
15.00000008548162
  3
実寸
100
AcDbAlignedDimension
 13
1158.604904881405
 23
591.073421439718
 33
0.0
 14
653.6049049060557
 24
576.0734213542364
 34
0.0
 50
90.0
100
AcDbRotatedDimension
1001
ACAD
1000
DSTYLE
1002
{
1070
   340
1005
F3
1070
   172
1070
     1
1070
   144
1040
1.0
1002
}
1001
ACAD_DSTYLE_DIMFLIPARROW_SYMBOL
1070
   385
1070
     0
1001
ACAD_DSTYLE_DIMFLIPARROW_WHICH_SYMBOL
1070
   386
1070
     3
  0
DIMENSION
  5
2F3
330
1F
100
AcDbEntity
  8
C寸法
 62
     0
370
    13
100
AcDbDimension
  2
*D9
 10
1258.602905037568
 20
871.0734214027306
 30
0.0
 11
1241.102905037568
 21
936.0734214212243
 31
0.0
 70
    32
 71
     5
 42
130.0000000369874
  3
実寸
100
AcDbAlignedDimension
 13
1158.604904881405
 23
1001.073421439718
 33
0.0
 14
1155.163535124364
 24
871.0734214027306
 34
0.0
 50
90.0
100
AcDbRotatedDimension
1001
ACAD
1000
DSTYLE
1002
{
1070
   340
1005
F3
1070
   144
1040
1.0
1002
}
  0
DIMENSION
  5
2F4
330
1F
100
AcDbEntity
  8
C寸法
 62
     0
370
    13
100
AcDbDimension
  2
*D10
 10
1358.602905037565
 20
1096.073421439718
 30
0.0
 11
1341.102905037565
 21
1056.073421439718
 31
0.0
 70
    32
 71
     5
 42
80.0
  3
実寸
100
AcDbAlignedDimension
 13
1158.604904881405
 23
1016.073421439718
 33
0.0
 14
1080.969162423418
 24
1096.073421439718
 34
0.0
 50
90.0
100
AcDbRotatedDimension
1001
ACAD
1000
DSTYLE
1002
{
1070
   340
1005
F3
1070
   144
1040
1.0
1002
}
  0
DIMENSION
  5
2F5
330
1F
100
AcDbEntity
  8
C寸法
 62
     0
370
    13
100
AcDbDimension
  2
*D11
 10
1308.602905037568
 20
1001.073421439718
 30
0.0
 11
1291.102905037568
 21
796.0734213982089
 31
0.0
 70
    32
 71
     5
 42
410.0000000830183
  3
実寸
100
AcDbAlignedDimension
 13
653.605904959478
 23
591.0734213566998
 33
0.0
 14
1158.604904881405
 24
1001.073421439718
 34
0.0
 50
90.0
100
AcDbRotatedDimension
1001
ACAD
1000
DSTYLE
1002
{
1070
   340
1005
F3
1070
   144
1040
1.0
1002
}
  0
DIMENSION
  5
2F6
330
1F
100
AcDbEntity
  8
C寸法
 62
     0
370
    13
100
AcDbDimension
  2
*D12
 10
1308.602905037568
 20
1016.073421439718
 30
0.0
 11
1308.602905037568
 21
927.5280345118535
 31
0.0
 70
   160
 71
     5
 42
15.00000002310253
  3
実寸
100
AcDbAlignedDimension
 13
653.6151826775422
 23
1001.073421416615
 33
0.0
 14
653.6049049060557
 24
1016.073421439718
 34
0.0
 50
90.0
100
AcDbRotatedDimension
1001
ACAD
1000
DSTYLE
1002
{
1070
   340
1005
F3
1070
   172
1070
     1
1070
   144
1040
1.0
1002
}
  0
CIRCLE
  5
2F7
330
1F
100
AcDbEntity
  8
C寸法
 62
     7
100
AcDbCircle
 10
658.6170176203864
 20
1056.073421402724
 30
0.0
 40
18.0
  0
LINE
  5
2F8
330
1F
100
AcDbEntity
  8
C2
  6
CENTER
 62
     0
 48
20.0
370
    13
100
AcDbLine
 10
658.6170176203864
 20
522.635421402726
 30
0.0
 11
658.6170176203864
 21
1131.713421402727
 31
0.0
  0
LINE
  5
2F9
330
1F
100
AcDbEntity
  8
C寸法
  6
CENTER
 62
     7
 48
20.0
370
    13
100
AcDbLine
 10
702.7601410531483
 20
1056.073421402724
 30
0.0
 11
614.5788354716456
 21
1056.073421402724
 31
0.0
  0
DIMENSION
  5
2FA
330
1F
100
AcDbEntity
  8
C寸法
 62
     7
370
    13
100
AcDbDimension
  2
*D13
 10
1258.602905037568
 20
1096.073421439718
 30
0.0
 11
1241.102905037568
 21
1171.311516677813
 31
0.0
 70
    32
 71
     5
 42
40.0000000369937
  3
実寸
100
AcDbAlignedDimension
 13
701.9871867464028
 23
1056.073421402724
 33
0.0
 14
653.6049049060557
 24
1096.073421439718
 34
0.0
 50
90.0
100
AcDbRotatedDimension
1001
ACAD
1000
DSTYLE
1002
{
1070
   170
1070
     0
1070
   283
1070
     1
1070
   340
1005
F3
1070
   172
1070
     1
1070
   144
1040
1.0
1002
}
  0
DIMENSION
  5
2FB
330
1F
100
AcDbEntity
  8
C寸法
 62
     0
370
    13
100
AcDbDimension
  2
*D14
 10
142.9729754378459
 20
341.7734213904015
 30
0.0
 11
142.9729754378459
 21
253.228034444545
 31
0.0
 70
   160
 71
     5
 42
15.00000004109461
 52
-90.0
  3
実寸
100
AcDbAlignedDimension
 13
205.0665935002194
 23
326.7734213493069
 33
0.0
 14
187.4887530671444
 24
341.7734213904015
 34
0.0
 50
90.00000000000001
100
AcDbRotatedDimension
1001
ACAD
1000
DSTYLE
1002
{
1070
   340
1005
F3
1070
   172
1070
     1
1070
   144
1040
1.0
1002
}
  0
LINE
  5
2FC
330
1F
100
AcDbEntity
  8
C4
 62
     0
100
AcDbLine
 10
1505.634949278271
 20
999.8715026994707
 30
0.0
 11
1505.634949278268
 21
897.8997314697881
 31
0.0
  0
LINE
  5
2FD
330
1F
100
AcDbEntity
  8
C4
 62
     0
100
AcDbLine
 10
1505.634949278271
 20
694.248163806589
 30
0.0
 11
1505.634949278271
 21
592.2796165777655
 31
0.0
  0
DIMENSION
  5
2FE
330
1F
100
AcDbEntity
  8
C寸法
 62
     0
370
    13
100
AcDbDimension
  2
*D15
 10
1073.92534937631
 20
711.0960601795673
 30
0.0
 11
969.4387603810193
 21
711.0960601795673
 31
0.0
 70
   160
  1
Φ<>
 71
     5
 42
180.8103317708081
 52
-90.00000000000001
  3
実寸
100
AcDbAlignedDimension
 13
893.1150176055017
 23
871.0674214027276
 33
0.0
 14
1073.92534937631
 24
870.8215941168585
 34
0.0
 50
0.000000000000007
100
AcDbRotatedDimension
1001
ACAD
1000
DSTYLE
1002
{
1070
   271
1070
     0
1070
   340
1005
F3
1070
   144
1040
1.0
1002
}
  0
DIMENSION
  5
3A7
330
1F
100
AcDbEntity
  8
0
370
    13
100
AcDbDimension
  2
*D16
 10
281.6103026696969
 20
704.8913857756019
 30
0.0
 11
279.7780412676144
 21
703.3355305334577
 31
0.0
 70
   164
  1
4-<>
 71
     5
 42
100.0000000164386
  3
JIS-1
100
AcDbRadialDimension
 15
205.3842117700412
 25
640.1643970503015
 35
0.0
 40
0.0
1001
ACAD_DSTYLE_DIMRADIAL_EXTENSION
1070
   387
1070
     0
1070
   388
1040
4.756750000004002
1070
   390
1040
6.232250710813888
1001
ACAD
1000
DSTYLE
1002
{
1070
   140
1040
25.0
1070
   340
1005
F3
1070
   147
1040
5.0
1070
    41
1040
25.0
1002
}
  0
DIMENSION
  5
3B2
102
{ACAD_REACTORS
330
3B4
102
}
102
{ACAD_XDICTIONARY
360
3B3
102
}
330
1F
100
AcDbEntity
  8
0
370
    13
100
AcDbDimension
  2
*D17
 10
243.61901749874
 20
636.0734213641008
 30
0.0
 11
297.9682647145326
 21
679.7940734134322
 31
0.0
 70
   164
  1
4-<>
 71
     5
 42
60.00000000986315
  3
JIS-1
100
AcDbRadialDimension
 15
290.3697436186798
 25
673.6815269856548
 35
0.0
 40
0.0
1001
ACAD_DSTYLE_DIMRADIAL_EXTENSION
1070
   387
1070
     0
1070
   388
1040
3.141592653589793
1070
   390
1040
4.712387960779283
1001
ACAD
1000
DSTYLE
1002
{
1070
   140
1040
25.0
1070
   340
1005
F3
1070
    41
1040
25.0
1070
   344
1005
90
1070
   173
1070
     1
1002
}
  0
DIMENSION
  5
3C2
330
1F
100
AcDbEntity
  8
0
370
    13
100
AcDbDimension
  2
*D18
 10
247.8645753420483
 20
1054.657387211439
 30
0.0
 11
106.4229736936123
 21
1134.185371396204
 31
0.0
 70
   164
  1
4-R60
 71
     5
 42
47.14748295755336
  3
JIS-1
100
AcDbRadialDimension
 15
206.7678964427565
 25
1077.764704941572
 35
0.0
 40
0.0
1001
ACAD_DSTYLE_DIMRADIAL_EXTENSION
1070
   387
1070
     1
1070
   388
1040
1.570800000000252
1070
   390
1040
3.141589999998029
1001
ACAD
1000
DSTYLE
1002
{
1070
   147
1040
5.0
1070
   140
1040
25.0
1070
   340
1005
F3
1070
    41
1040
25.0
1070
   344
1005
90
1070
   173
1070
     1
1002
}
1001
ACAD_DSTYLE_DIMFLIPARROW_SYMBOL
1070
   385
1070
     0
1001
ACAD_DSTYLE_DIMFLIPARROW_WHICH_SYMBOL
1070
   386
1070
     3
  0
DIMENSION
  5
3D1
330
1F
100
AcDbEntity
  8
0
370
    13
100
AcDbDimension
  2
*D19
 10
640.5700964849452
 20
1127.8517150821
 30
0.0
 11
508.6355726754214
 21
1145.3517150821
 31
0.0
 70
    32
  1
Φ<>水栓穴
 71
     5
 42
35.8855707291583
 52
-89.99999999999999
  3
JIS-1
100
AcDbAlignedDimension
 13
676.4556672141035
 23
1056.005071677597
 33
0.0
 14
640.5700964849452
 24
1056.005071677597
 34
0.0
 50
180.0
100
AcDbRotatedDimension
1001
ACAD
1000
DSTYLE
1002
{
1070
   271
1070
     0
1070
   140
1040
25.0
1070
   340
1005
F3
1070
   147
1040
5.0
1070
    41
1040
25.0
1002
}
  0
ENDSEC
  0
SECTION
  2
OBJECTS
  0
DICTIONARY
  5
C
330
0
100
AcDbDictionary
281
     1
  3
ACAD_COLOR
350
F5
  3
ACAD_DETAILVIEWSTYLE
350
DA
  3
ACAD_GROUP
350
D
  3
ACAD_IMAGE_VARS
350
6A
  3
ACAD_LAYOUT
350
1A
  3
ACAD_MATERIAL
350
97
  3
ACAD_MLEADERSTYLE
350
3F
  3
ACAD_MLINESTYLE
350
17
  3
ACAD_PLOTSETTINGS
350
19
  3
ACAD_PLOTSTYLENAME
350
E
  3
ACAD_SCALELIST
350
40
  3
ACAD_SECTIONVIEWSTYLE
350
DB
  3
ACAD_TABLESTYLE
350
3B
  3
ACDB_RECOMPOSE_DATA
350
49C
  3
AcDbVariableDictionary
350
3D
  3
APPDATA
350
96
  0
DICTIONARY
  5
25B
330
2
100
AcDbDictionary
280
     1
281
     1
  3
ACAD_LAYERSTATES
360
25C
  0
DICTIONARY
  5
3B3
330
3B2
100
AcDbDictionary
280
     1
281
     1
  3
ACAD_DIMASSOC
360
3B4
  0
DICTIONARY
  5
F5
102
{ACAD_REACTORS
330
C
102
}
330
C
100
AcDbDictionary
281
     1
  0
DICTIONARY
  5
DA
102
{ACAD_REACTORS
330
C
102
}
330
C
100
AcDbDictionary
281
     1
  0
DICTIONARY
  5
D
102
{ACAD_REACTORS
330
C
102
}
330
C
100
AcDbDictionary
281
     1
  0
RASTERVARIABLES
  5
6A
102
{ACAD_REACTORS
330
C
102
}
330
C
100
AcDbRasterVariables
 90
        0
 70
     1
 71
     1
 72
     1
  0
DICTIONARY
  5
1A
102
{ACAD_REACTORS
330
C
102
}
330
C
100
AcDbDictionary
281
     1
  3
Model
350
22
  3
Sheet1
350
1E
  3
Sheet2
350
26
  0
DICTIONARY
  5
97
102
{ACAD_REACTORS
330
C
102
}
330
C
100
AcDbDictionary
281
     1
  3
ByBlock
350
99
  3
ByLayer
350
98
  3
Global
350
9A
  0
DICTIONARY
  5
3F
102
{ACAD_REACTORS
330
C
102
}
330
C
100
AcDbDictionary
281
     1
  3
Standard
350
DC
  0
DICTIONARY
  5
17
102
{ACAD_REACTORS
330
C
102
}
330
C
100
AcDbDictionary
281
     1
  3
Standard
350
18
  0
DICTIONARY
  5
19
102
{ACAD_REACTORS
330
C
102
}
330
C
100
AcDbDictionary
281
     1
  0
ACDBDICTIONARYWDFLT
  5
E
102
{ACAD_REACTORS
330
C
102
}
330
C
100
AcDbDictionary
281
     1
  3
Normal
350
F
100
AcDbDictionaryWithDefault
340
F
  0
DICTIONARY
  5
40
102
{ACAD_REACTORS
330
C
102
}
330
C
100
AcDbDictionary
281
     1
  3
A0
350
41
  3
A1
350
42
  3
A2
350
43
  3
A3
350
44
  3
A4
350
45
  3
A5
350
46
  3
A6
350
47
  3
A7
350
48
  3
A8
350
49
  3
A9
350
4A
  3
B0
350
4B
  3
B1
350
4C
  3
B2
350
4D
  3
B3
350
4E
  3
B4
350
4F
  3
B5
350
50
  3
B6
350
51
  3
B7
350
52
  3
B8
350
53
  3
B9
350
54
  3
C0
350
55
  3
C1
350
56
  3
C2
350
57
  3
C3
350
58
  3
C4
350
59
  3
C5
350
5A
  3
C6
350
5B
  3
C7
350
5C
  3
C8
350
5D
  3
C9
350
5E
  3
D0
350
5F
  3
D1
350
60
  3
D2
350
61
  0
DICTIONARY
  5
DB
102
{ACAD_REACTORS
330
C
102
}
330
C
100
AcDbDictionary
281
     1
  0
DICTIONARY
  5
3B
102
{ACAD_REACTORS
330
C
102
}
330
C
100
AcDbDictionary
281
     1
  3
Standard
350
3C
  0
XRECORD
  5
49C
102
{ACAD_REACTORS
330
C
102
}
330
C
100
AcDbXrecord
280
     1
 90
        1
330
3C
  0
DICTIONARY
  5
3D
102
{ACAD_REACTORS
330
C
102
}
330
C
100
AcDbDictionary
281
     1
  3
CANNOSCALE
350
62
  3
CMLEADERSTYLE
350
3D0
  3
CTABLESTYLE
350
3E
  3
LIGHTSINBLOCKS
350
6F
  3
MSLTSCALE
350
498
  3
XCLIPFRAME
350
70
  0
DICTIONARY
  5
96
102
{ACAD_REACTORS
330
C
102
}
330
C
100
AcDbDictionary
281
     1
  0
DICTIONARY
  5
25C
102
{ACAD_REACTORS
330
25B
102
}
330
25B
100
AcDbDictionary
281
     1
  0
DIMASSOC
  5
3B4
102
{ACAD_REACTORS
330
3B3
102
}
330
3B3
100
AcDbDimAssoc
330
3B2
 90
        2
 70
     0
 71
     1
  1
AcDbOsnapPointRef
 72
     3
331
29D
 73
     0
 91
        0
 40
0.0
 10
0.0
 20
0.0
 30
0.0
 75
     0
  0
LAYOUT
  5
22
102
{ACAD_REACTORS
330
1A
102
}
330
1A
100
AcDbPlotSettings
  1

  2
none_device
  4
ISO_A3_(420.00_x_297.00_MM)
  6

 40
7.5
 41
20.0
 42
7.5
 43
20.0
 44
420.0
 45
297.0
 46
9.99245283018871
 47
0.0
 48
0.0
 49
0.0
140
0.0
141
0.0
142
1.0
143
4.675285945165343
 70
  1204
 72
     1
 73
     0
 74
     1
  7
monochrome.ctb
 75
     0
 76
     0
 77
     2
 78
   300
147
0.2138906607485876
148
-139.4750788601195
149
-6.247285291214212
100
AcDbLayout
  1
Model
 70
     1
 71
     0
 10
0.0
 20
0.0
 11
420.0
 21
297.0
 12
0.0
 22
0.0
 32
0.0
 14
5.288162972269447
 24
42.88267552139902
 34
0.0
 15
1805.343822214816
 25
1244.431163428892
 35
0.0
146
0.0
 13
0.0
 23
0.0
 33
0.0
 16
1.0
 26
0.0
 36
0.0
 17
0.0
 27
1.0
 37
0.0
 76
     0
330
1F
331
29
1001
PLOTTRANSPARENCY
1071
        0
  0
LAYOUT
  5
1E
102
{ACAD_REACTORS
330
1A
102
}
330
1A
100
AcDbPlotSettings
  1

  2
none_device
  4

  6

 40
0.0
 41
0.0
 42
0.0
 43
0.0
 44
0.0
 45
0.0
 46
0.0
 47
0.0
 48
0.0
 49
0.0
140
0.0
141
0.0
142
1.0
143
1.0
 70
   688
 72
     0
 73
     0
 74
     5
  7

 75
    16
 76
     0
 77
     2
 78
   300
147
1.0
148
0.0
149
0.0
100
AcDbLayout
  1
Sheet1
 70
     1
 71
     1
 10
0.0
 20
0.0
 11
420.0
 21
297.0
 12
0.0
 22
0.0
 32
0.0
 14
1.000000000000000E+20
 24
1.000000000000000E+20
 34
1.000000000000000E+20
 15
-1.000000000000000E+20
 25
-1.000000000000000E+20
 35
-1.000000000000000E+20
146
0.0
 13
0.0
 23
0.0
 33
0.0
 16
1.0
 26
0.0
 36
0.0
 17
0.0
 27
1.0
 37
0.0
 76
     0
330
1B
  0
LAYOUT
  5
26
102
{ACAD_REACTORS
330
1A
102
}
330
1A
100
AcDbPlotSettings
  1

  2
none_device
  4

  6

 40
0.0
 41
0.0
 42
0.0
 43
0.0
 44
0.0
 45
0.0
 46
0.0
 47
0.0
 48
0.0
 49
0.0
140
0.0
141
0.0
142
1.0
143
1.0
 70
   688
 72
     0
 73
     0
 74
     5
  7

 75
    16
 76
     0
 77
     2
 78
   300
147
1.0
148
0.0
149
0.0
100
AcDbLayout
  1
Sheet2
 70
     1
 71
     2
 10
0.0
 20
0.0
 11
0.0
 21
0.0
 12
0.0
 22
0.0
 32
0.0
 14
0.0
 24
0.0
 34
0.0
 15
0.0
 25
0.0
 35
0.0
146
0.0
 13
0.0
 23
0.0
 33
0.0
 16
1.0
 26
0.0
 36
0.0
 17
0.0
 27
1.0
 37
0.0
 76
     0
330
23
  0
MATERIAL
  5
99
102
{ACAD_REACTORS
330
97
102
}
330
97
100
AcDbMaterial
  1
ByBlock
  0
MATERIAL
  5
98
102
{ACAD_REACTORS
330
97
102
}
330
97
100
AcDbMaterial
  1
ByLayer
  0
MATERIAL
  5
9A
102
{ACAD_REACTORS
330
97
102
}
330
97
100
AcDbMaterial
  1
Global
  0
MLEADERSTYLE
  5
DC
102
{ACAD_REACTORS
330
3F
102
}
330
3F
100
AcDbMLeaderStyle
170
     2
171
     1
172
     0
 90
        2
 40
0.0
 41
0.0
173
     1
 91
-1056964608
340
14
 92
       -2
290
     1
 42
2.0
291
     1
 43
8.0
  3
Standard
341
0
 44
4.0
300

342
11
174
     1
178
     6
175
     1
176
     0
 93
-1056964608
 45
4.0
292
     0
297
     0
 46
4.0
343
0
 94
-1056964608
 47
1.0
 49
1.0
140
1.0
293
     1
141
0.0
294
     1
177
     0
142
1.0
295
     0
296
     0
143
3.75
1001
ACAD_MLEADERVER
1070
     2
  0
MLINESTYLE
  5
18
102
{ACAD_REACTORS
330
17
102
}
330
17
100
AcDbMlineStyle
  2
Standard
 70
     0
  3

 62
   256
 51
90.0
 52
90.0
 71
     2
 49
0.5
 62
   256
  6
BYLAYER
 49
-0.5
 62
   256
  6
BYLAYER
  0
ACDBPLACEHOLDER
  5
F
102
{ACAD_REACTORS
330
E
102
}
330
E
  0
SCALE
  5
41
102
{ACAD_REACTORS
330
40
102
}
330
40
100
AcDbScale
 70
     0
300
1:1
140
1.0
141
1.0
290
     1
  0
SCALE
  5
42
102
{ACAD_REACTORS
330
40
102
}
330
40
100
AcDbScale
 70
     0
300
1:2
140
1.0
141
2.0
290
     0
  0
SCALE
  5
43
102
{ACAD_REACTORS
330
40
102
}
330
40
100
AcDbScale
 70
     0
300
1:4
140
1.0
141
4.0
290
     0
  0
SCALE
  5
44
102
{ACAD_REACTORS
330
40
102
}
330
40
100
AcDbScale
 70
     0
300
1:5
140
1.0
141
5.0
290
     0
  0
SCALE
  5
45
102
{ACAD_REACTORS
330
40
102
}
330
40
100
AcDbScale
 70
     0
300
1:8
140
1.0
141
8.0
290
     0
  0
SCALE
  5
46
102
{ACAD_REACTORS
330
40
102
}
330
40
100
AcDbScale
 70
     0
300
1:10
140
1.0
141
10.0
290
     0
  0
SCALE
  5
47
102
{ACAD_REACTORS
330
40
102
}
330
40
100
AcDbScale
 70
     0
300
1:16
140
1.0
141
16.0
290
     0
  0
SCALE
  5
48
102
{ACAD_REACTORS
330
40
102
}
330
40
100
AcDbScale
 70
     0
300
1:20
140
1.0
141
20.0
290
     0
  0
SCALE
  5
49
102
{ACAD_REACTORS
330
40
102
}
330
40
100
AcDbScale
 70
     0
300
1:30
140
1.0
141
30.0
290
     0
  0
SCALE
  5
4A
102
{ACAD_REACTORS
330
40
102
}
330
40
100
AcDbScale
 70
     0
300
1:40
140
1.0
141
40.0
290
     0
  0
SCALE
  5
4B
102
{ACAD_REACTORS
330
40
102
}
330
40
100
AcDbScale
 70
     0
300
1:50
140
1.0
141
50.0
290
     0
  0
SCALE
  5
4C
102
{ACAD_REACTORS
330
40
102
}
330
40
100
AcDbScale
 70
     0
300
1:100
140
1.0
141
100.0
290
     0
  0
SCALE
  5
4D
102
{ACAD_REACTORS
330
40
102
}
330
40
100
AcDbScale
 70
     0
300
2:1
140
2.0
141
1.0
290
     0
  0
SCALE
  5
4E
102
{ACAD_REACTORS
330
40
102
}
330
40
100
AcDbScale
 70
     0
300
4:1
140
4.0
141
1.0
290
     0
  0
SCALE
  5
4F
102
{ACAD_REACTORS
330
40
102
}
330
40
100
AcDbScale
 70
     0
300
8:1
140
8.0
141
1.0
290
     0
  0
SCALE
  5
50
102
{ACAD_REACTORS
330
40
102
}
330
40
100
AcDbScale
 70
     0
300
10:1
140
10.0
141
1.0
290
     0
  0
SCALE
  5
51
102
{ACAD_REACTORS
330
40
102
}
330
40
100
AcDbScale
 70
     0
300
100:1
140
100.0
141
1.0
290
     0
  0
SCALE
  5
52
102
{ACAD_REACTORS
330
40
102
}
330
40
100
AcDbScale
 70
     0
300
1/128" = 1'-0"
140
0.0078125
141
12.0
290
     0
  0
SCALE
  5
53
102
{ACAD_REACTORS
330
40
102
}
330
40
100
AcDbScale
 70
     0
300
1/64" = 1'-0"
140
0.015625
141
12.0
290
     0
  0
SCALE
  5
54
102
{ACAD_REACTORS
330
40
102
}
330
40
100
AcDbScale
 70
     0
300
1/32" = 1'-0"
140
0.03125
141
12.0
290
     0
  0
SCALE
  5
55
102
{ACAD_REACTORS
330
40
102
}
330
40
100
AcDbScale
 70
     0
300
1/16" = 1'-0"
140
0.0625
141
12.0
290
     0
  0
SCALE
  5
56
102
{ACAD_REACTORS
330
40
102
}
330
40
100
AcDbScale
 70
     0
300
3/32" = 1'-0"
140
0.09375
141
12.0
290
     0
  0
SCALE
  5
57
102
{ACAD_REACTORS
330
40
102
}
330
40
100
AcDbScale
 70
     0
300
1/8" = 1'-0"
140
0.125
141
12.0
290
     0
  0
SCALE
  5
58
102
{ACAD_REACTORS
330
40
102
}
330
40
100
AcDbScale
 70
     0
300
3/16" = 1'-0"
140
0.1875
141
12.0
290
     0
  0
SCALE
  5
59
102
{ACAD_REACTORS
330
40
102
}
330
40
100
AcDbScale
 70
     0
300
1/4" = 1'-0"
140
0.25
141
12.0
290
     0
  0
SCALE
  5
5A
102
{ACAD_REACTORS
330
40
102
}
330
40
100
AcDbScale
 70
     0
300
3/8" = 1'-0"
140
0.375
141
12.0
290
     0
  0
SCALE
  5
5B
102
{ACAD_REACTORS
330
40
102
}
330
40
100
AcDbScale
 70
     0
300
1/2" = 1'-0"
140
0.5
141
12.0
290
     0
  0
SCALE
  5
5C
102
{ACAD_REACTORS
330
40
102
}
330
40
100
AcDbScale
 70
     0
300
3/4" = 1'-0"
140
0.75
141
12.0
290
     0
  0
SCALE
  5
5D
102
{ACAD_REACTORS
330
40
102
}
330
40
100
AcDbScale
 70
     0
300
1" = 1'-0"
140
1.0
141
12.0
290
     0
  0
SCALE
  5
5E
102
{ACAD_REACTORS
330
40
102
}
330
40
100
AcDbScale
 70
     0
300
1-1/2" = 1'-0"
140
1.5
141
12.0
290
     0
  0
SCALE
  5
5F
102
{ACAD_REACTORS
330
40
102
}
330
40
100
AcDbScale
 70
     0
300
3" = 1'-0"
140
3.0
141
12.0
290
     0
  0
SCALE
  5
60
102
{ACAD_REACTORS
330
40
102
}
330
40
100
AcDbScale
 70
     0
300
6" = 1'-0"
140
6.0
141
12.0
290
     0
  0
SCALE
  5
61
102
{ACAD_REACTORS
330
40
102
}
330
40
100
AcDbScale
 70
     0
300
1'-0" = 1'-0"
140
12.0
141
12.0
290
     0
  0
TABLESTYLE
  5
3C
102
{ACAD_REACTORS
330
3B
102
}
102
{ACAD_XDICTIONARY
360
499
102
}
330
3B
100
AcDbTableStyle
  3
Standard
 70
     0
 71
     0
 40
1.5
 41
1.5
280
     0
281
     0
  7
Standard
140
4.5
170
     2
 62
     0
 63
   257
283
     0
274
    -2
284
     1
 64
     0
275
    -2
285
     1
 65
     0
276
    -2
286
     1
 66
     0
277
    -2
287
     1
 67
     0
278
    -2
288
     1
 68
     0
279
    -2
289
     1
 69
     0
  7
Standard
140
6.0
170
     5
 62
     0
 63
   257
283
     0
274
    -2
284
     1
 64
     0
275
    -2
285
     1
 65
     0
276
    -2
286
     1
 66
     0
277
    -2
287
     1
 67
     0
278
    -2
288
     1
 68
     0
279
    -2
289
     1
 69
     0
  7
Standard
140
4.5
170
     5
 62
     0
 63
   257
283
     0
274
    -2
284
     1
 64
     0
275
    -2
285
     1
 65
     0
276
    -2
286
     1
 66
     0
277
    -2
287
     1
 67
     0
278
    -2
288
     1
 68
     0
279
    -2
289
     1
 69
     0
  0
DICTIONARYVAR
  5
62
102
{ACAD_REACTORS
330
3D
102
}
330
3D
100
DictionaryVariables
280
     0
  1
1:1
  0
DICTIONARYVAR
  5
3D0
102
{ACAD_REACTORS
330
3D
102
}
330
3D
100
DictionaryVariables
280
     0
  1
Standard
  0
DICTIONARYVAR
  5
3E
102
{ACAD_REACTORS
330
3D
102
}
330
3D
100
DictionaryVariables
280
     0
  1
Standard
  0
DICTIONARYVAR
  5
6F
102
{ACAD_REACTORS
330
3D
102
}
330
3D
100
DictionaryVariables
280
     0
  1
0
  0
DICTIONARYVAR
  5
498
102
{ACAD_REACTORS
330
3D
102
}
330
3D
100
DictionaryVariables
280
     0
  1
0
  0
DICTIONARYVAR
  5
70
102
{ACAD_REACTORS
330
3D
102
}
330
3D
100
DictionaryVariables
280
     0
  1
0
  0
DICTIONARY
  5
499
330
3C
100
AcDbDictionary
280
     1
281
     1
  3
ACAD_ROUNDTRIP_2008_TABLESTYLE_CELLSTYLEMAP
360
49B
  3
ACAD_XREC_ROUNDTRIP
360
49A
  0
CELLSTYLEMAP
  5
49B
102
{ACAD_REACTORS
330
499
102
}
330
499
100
AcDbCellStyleMap
 90
        3
300
CELLSTYLE
  1
TABLEFORMAT_BEGIN
 90
        5
170
     1
 91
        0
 92
    32768
 62
   257
 93
        1
300
CONTENTFORMAT
  1
CONTENTFORMAT_BEGIN
 90
        0
 91
        0
 92
      512
 93
        0
300

 40
0.0
140
1.0
 94
        5
 62
     0
340
11
144
6.0
309
CONTENTFORMAT_END
171
     1
301
MARGIN
  1
CELLMARGIN_BEGIN
 40
1.5
 40
1.5
 40
1.5
 40
1.5
 40
0.18
 40
0.18
309
CELLMARGIN_END
 94
        6
 95
        1
302
GRIDFORMAT
  1
GRIDFORMAT_BEGIN
 90
        0
 91
        1
 62
     0
 92
       -2
340
0
 93
        0
 40
0.045
309
GRIDFORMAT_END
 95
        2
302
GRIDFORMAT
  1
GRIDFORMAT_BEGIN
 90
        0
 91
        1
 62
     0
 92
       -2
340
0
 93
        0
 40
0.045
309
GRIDFORMAT_END
 95
        4
302
GRIDFORMAT
  1
GRIDFORMAT_BEGIN
 90
        0
 91
        1
 62
     0
 92
       -2
340
0
 93
        0
 40
0.045
309
GRIDFORMAT_END
 95
        8
302
GRIDFORMAT
  1
GRIDFORMAT_BEGIN
 90
        0
 91
        1
 62
     0
 92
       -2
340
0
 93
        0
 40
0.045
309
GRIDFORMAT_END
 95
       16
302
GRIDFORMAT
  1
GRIDFORMAT_BEGIN
 90
        0
 91
        1
 62
     0
 92
       -2
340
0
 93
        0
 40
0.045
309
GRIDFORMAT_END
 95
       32
302
GRIDFORMAT
  1
GRIDFORMAT_BEGIN
 90
        0
 91
        1
 62
     0
 92
       -2
340
0
 93
        0
 40
0.045
309
GRIDFORMAT_END
309
TABLEFORMAT_END
  1
CELLSTYLE_BEGIN
 90
        1
 91
        1
300
_TITLE
309
CELLSTYLE_END
300
CELLSTYLE
  1
TABLEFORMAT_BEGIN
 90
        5
170
     1
 91
        0
 92
        0
 62
   257
 93
        1
300
CONTENTFORMAT
  1
CONTENTFORMAT_BEGIN
 90
        0
 91
        0
 92
      512
 93
        0
300

 40
0.0
140
1.0
 94
        5
 62
     0
340
11
144
4.5
309
CONTENTFORMAT_END
171
     1
301
MARGIN
  1
CELLMARGIN_BEGIN
 40
1.5
 40
1.5
 40
1.5
 40
1.5
 40
0.18
 40
0.18
309
CELLMARGIN_END
 94
        6
 95
        1
302
GRIDFORMAT
  1
GRIDFORMAT_BEGIN
 90
        0
 91
        1
 62
     0
 92
       -2
340
0
 93
        0
 40
0.045
309
GRIDFORMAT_END
 95
        2
302
GRIDFORMAT
  1
GRIDFORMAT_BEGIN
 90
        0
 91
        1
 62
     0
 92
       -2
340
0
 93
        0
 40
0.045
309
GRIDFORMAT_END
 95
        4
302
GRIDFORMAT
  1
GRIDFORMAT_BEGIN
 90
        0
 91
        1
 62
     0
 92
       -2
340
0
 93
        0
 40
0.045
309
GRIDFORMAT_END
 95
        8
302
GRIDFORMAT
  1
GRIDFORMAT_BEGIN
 90
        0
 91
        1
 62
     0
 92
       -2
340
0
 93
        0
 40
0.045
309
GRIDFORMAT_END
 95
       16
302
GRIDFORMAT
  1
GRIDFORMAT_BEGIN
 90
        0
 91
        1
 62
     0
 92
       -2
340
0
 93
        0
 40
0.045
309
GRIDFORMAT_END
 95
       32
302
GRIDFORMAT
  1
GRIDFORMAT_BEGIN
 90
        0
 91
        1
 62
     0
 92
       -2
340
0
 93
        0
 40
0.045
309
GRIDFORMAT_END
309
TABLEFORMAT_END
  1
CELLSTYLE_BEGIN
 90
        2
 91
        1
300
_HEADER
309
CELLSTYLE_END
300
CELLSTYLE
  1
TABLEFORMAT_BEGIN
 90
        5
170
     1
 91
        0
 92
        0
 62
   257
 93
        1
300
CONTENTFORMAT
  1
CONTENTFORMAT_BEGIN
 90
        0
 91
        0
 92
      512
 93
        0
300

 40
0.0
140
1.0
 94
        2
 62
     0
340
11
144
4.5
309
CONTENTFORMAT_END
171
     1
301
MARGIN
  1
CELLMARGIN_BEGIN
 40
1.5
 40
1.5
 40
1.5
 40
1.5
 40
0.18
 40
0.18
309
CELLMARGIN_END
 94
        6
 95
        1
302
GRIDFORMAT
  1
GRIDFORMAT_BEGIN
 90
        0
 91
        1
 62
     0
 92
       -2
340
0
 93
        0
 40
0.045
309
GRIDFORMAT_END
 95
        2
302
GRIDFORMAT
  1
GRIDFORMAT_BEGIN
 90
        0
 91
        1
 62
     0
 92
       -2
340
0
 93
        0
 40
0.045
309
GRIDFORMAT_END
 95
        4
302
GRIDFORMAT
  1
GRIDFORMAT_BEGIN
 90
        0
 91
        1
 62
     0
 92
       -2
340
0
 93
        0
 40
0.045
309
GRIDFORMAT_END
 95
        8
302
GRIDFORMAT
  1
GRIDFORMAT_BEGIN
 90
        0
 91
        1
 62
     0
 92
       -2
340
0
 93
        0
 40
0.045
309
GRIDFORMAT_END
 95
       16
302
GRIDFORMAT
  1
GRIDFORMAT_BEGIN
 90
        0
 91
        1
 62
     0
 92
       -2
340
0
 93
        0
 40
0.045
309
GRIDFORMAT_END
 95
       32
302
GRIDFORMAT
  1
GRIDFORMAT_BEGIN
 90
        0
 91
        1
 62
     0
 92
       -2
340
0
 93
        0
 40
0.045
309
GRIDFORMAT_END
309
TABLEFORMAT_END
  1
CELLSTYLE_BEGIN
 90
        3
 91
        2
300
_DATA
309
CELLSTYLE_END
  0
XRECORD
  5
49A
102
{ACAD_REACTORS
330
499
102
}
330
499
100
AcDbXrecord
280
     1
102
ACAD_ROUNDTRIP_PRE2007_TABLESTYLE
 90
      512
 91
        0
  1

 92
      512
 93
        0
  2

 94
      512
 95
        0
  3

  0
ENDSEC
  0
EOF
