  0
SECTION
  2
HEADER
  9
$ACADVER
  1
AC1015
  9
$ACADMAINTVER
 70
     6
  9
$DWGCODEPAGE
  3
ANSI_932
  9
$INSBASE
 10
0.0
 20
0.0
 30
0.0
  9
$EXTMIN
 10
-1650.231230939966
 20
-2302.5
 30
0.0
  9
$EXTMAX
 10
1650.115615469983
 20
2302.5
 30
0.0
  9
$LIMMIN
 10
-525.0
 20
-742.5
  9
$LIMMAX
 10
525.0
 20
742.5
  9
$ORTHOMODE
 70
     0
  9
$REGENMODE
 70
     1
  9
$FILLMODE
 70
     1
  9
$QTEXTMODE
 70
     0
  9
$MIRRTEXT
 70
     1
  9
$LTSCALE
 40
1.25
  9
$ATTMODE
 70
     1
  9
$TEXTSIZE
 40
0.2
  9
$TRACEWID
 40
0.05
  9
$TEXTSTYLE
  7
Standard
  9
$CLAYER
  8
0
  9
$CELTYPE
  6
ByLayer
  9
$CECOLOR
 62
   256
  9
$CELTSCALE
 40
1.0
  9
$DISPSILH
 70
     0
  9
$DIMSCALE
 40
1.0
  9
$DIMASZ
 40
15.00000953674316
  9
$DIMEXO
 40
1.0
  9
$DIMDLI
 40
10.0
  9
$DIMRND
 40
0.0
  9
$DIMDLE
 40
0.0
  9
$DIMEXE
 40
1.0
  9
$DIMTP
 40
0.0
  9
$DIMTM
 40
0.0
  9
$DIMTXT
 40
20.0
  9
$DIMCEN
 40
0.0
  9
$DIMTSZ
 40
0.0
  9
$DIMTOL
 70
     0
  9
$DIMLIM
 70
     0
  9
$DIMTIH
 70
     0
  9
$DIMTOH
 70
     0
  9
$DIMSE1
 70
     0
  9
$DIMSE2
 70
     0
  9
$DIMTAD
 70
     1
  9
$DIMZIN
 70
     8
  9
$DIMBLK
  1

  9
$DIMASO
 70
     1
  9
$DIMSHO
 70
     1
  9
$DIMPOST
  1

  9
$DIMAPOST
  1

  9
$DIMALT
 70
     0
  9
$DIMALTD
 70
     2
  9
$DIMALTF
 40
25.4
  9
$DIMLFAC
 40
1.0
  9
$DIMTOFL
 70
     0
  9
$DIMTVP
 40
0.0
  9
$DIMTIX
 70
     0
  9
$DIMSOXD
 70
     0
  9
$DIMSAH
 70
     0
  9
$DIMBLK1
  1

  9
$DIMBLK2
  1

  9
$DIMSTYLE
  2
Standard
  9
$DIMCLRD
 70
     0
  9
$DIMCLRE
 70
     0
  9
$DIMCLRT
 70
     0
  9
$DIMTFAC
 40
0.65
  9
$DIMGAP
 40
0.09
  9
$DIMJUST
 70
     0
  9
$DIMSD1
 70
     0
  9
$DIMSD2
 70
     0
  9
$DIMTOLJ
 70
     0
  9
$DIMTZIN
 70
     0
  9
$DIMALTZ
 70
     0
  9
$DIMALTTZ
 70
     0
  9
$DIMUPT
 70
     0
  9
$DIMDEC
 70
     2
  9
$DIMTDEC
 70
     2
  9
$DIMALTU
 70
     2
  9
$DIMALTTD
 70
     2
  9
$DIMTXSTY
  7
Standard
  9
$DIMAUNIT
 70
     0
  9
$DIMADEC
 70
     2
  9
$DIMALTRND
 40
0.0
  9
$DIMAZIN
 70
     2
  9
$DIMDSEP
 70
    46
  9
$DIMATFIT
 70
     3
  9
$DIMFRAC
 70
     0
  9
$DIMLDRBLK
  1

  9
$DIMLUNIT
 70
     2
  9
$DIMLWD
 70
    -2
  9
$DIMLWE
 70
    -2
  9
$DIMTMOVE
 70
     0
  9
$LUNITS
 70
     2
  9
$LUPREC
 70
     4
  9
$SKETCHINC
 40
0.1
  9
$FILLETRAD
 40
0.5
  9
$AUNITS
 70
     0
  9
$AUPREC
 70
     0
  9
$MENU
  1
.
  9
$ELEVATION
 40
0.0
  9
$PELEVATION
 40
0.0
  9
$THICKNESS
 40
0.0
  9
$LIMCHECK
 70
     0
  9
$CHAMFERA
 40
0.5
  9
$CHAMFERB
 40
0.5
  9
$CHAMFERC
 40
1.0
  9
$CHAMFERD
 40
0.0
  9
$SKPOLY
 70
     0
  9
$TDCREATE
 40
2456540.678793658
  9
$TDUCREATE
 40
2456540.303793658
  9
$TDUPDATE
 40
2456540.678794201
  9
$TDUUPDATE
 40
2456540.303794201
  9
$TDINDWG
 40
0.0000000116
  9
$TDUSRTIMER
 40
0.0000000116
  9
$USRTIMER
 70
     1
  9
$ANGBASE
 50
0.0
  9
$ANGDIR
 70
     0
  9
$PDMODE
 70
     0
  9
$PDSIZE
 40
1.0
  9
$PLINEWID
 40
0.0
  9
$SPLFRAME
 70
     0
  9
$SPLINETYPE
 70
     6
  9
$SPLINESEGS
 70
     8
  9
$HANDSEED
  5
5E3
  9
$SURFTAB1
 70
     6
  9
$SURFTAB2
 70
     6
  9
$SURFTYPE
 70
     6
  9
$SURFU
 70
     6
  9
$SURFV
 70
     6
  9
$UCSBASE
  2

  9
$UCSNAME
  2

  9
$UCSORG
 10
0.0
 20
0.0
 30
0.0
  9
$UCSXDIR
 10
1.0
 20
0.0
 30
0.0
  9
$UCSYDIR
 10
0.0
 20
1.0
 30
0.0
  9
$UCSORTHOREF
  2

  9
$UCSORTHOVIEW
 70
     0
  9
$UCSORGTOP
 10
0.0
 20
0.0
 30
0.0
  9
$UCSORGBOTTOM
 10
0.0
 20
0.0
 30
0.0
  9
$UCSORGLEFT
 10
0.0
 20
0.0
 30
0.0
  9
$UCSORGRIGHT
 10
0.0
 20
0.0
 30
0.0
  9
$UCSORGFRONT
 10
0.0
 20
0.0
 30
0.0
  9
$UCSORGBACK
 10
0.0
 20
0.0
 30
0.0
  9
$PUCSBASE
  2

  9
$PUCSNAME
  2

  9
$PUCSORG
 10
0.0
 20
0.0
 30
0.0
  9
$PUCSXDIR
 10
1.0
 20
0.0
 30
0.0
  9
$PUCSYDIR
 10
0.0
 20
1.0
 30
0.0
  9
$PUCSORTHOREF
  2

  9
$PUCSORTHOVIEW
 70
     0
  9
$PUCSORGTOP
 10
0.0
 20
0.0
 30
0.0
  9
$PUCSORGBOTTOM
 10
0.0
 20
0.0
 30
0.0
  9
$PUCSORGLEFT
 10
0.0
 20
0.0
 30
0.0
  9
$PUCSORGRIGHT
 10
0.0
 20
0.0
 30
0.0
  9
$PUCSORGFRONT
 10
0.0
 20
0.0
 30
0.0
  9
$PUCSORGBACK
 10
0.0
 20
0.0
 30
0.0
  9
$USERI1
 70
     0
  9
$USERI2
 70
     0
  9
$USERI3
 70
     0
  9
$USERI4
 70
     0
  9
$USERI5
 70
     0
  9
$USERR1
 40
0.0
  9
$USERR2
 40
0.0
  9
$USERR3
 40
0.0
  9
$USERR4
 40
0.0
  9
$USERR5
 40
0.0
  9
$WORLDVIEW
 70
     1
  9
$SHADEDGE
 70
     3
  9
$SHADEDIF
 70
    70
  9
$TILEMODE
 70
     1
  9
$MAXACTVP
 70
    64
  9
$PINSBASE
 10
0.0
 20
0.0
 30
0.0
  9
$PLIMCHECK
 70
     0
  9
$PEXTMIN
 10
1.000000000000000E+20
 20
1.000000000000000E+20
 30
1.000000000000000E+20
  9
$PEXTMAX
 10
-1.000000000000000E+20
 20
-1.000000000000000E+20
 30
-1.000000000000000E+20
  9
$PLIMMIN
 10
0.0
 20
0.0
  9
$PLIMMAX
 10
12.0
 20
9.0
  9
$UNITMODE
 70
     0
  9
$VISRETAIN
 70
     0
  9
$PLINEGEN
 70
     1
  9
$PSLTSCALE
 70
     0
  9
$TREEDEPTH
 70
  3020
  9
$CMLSTYLE
  2
Standard
  9
$CMLJUST
 70
     0
  9
$CMLSCALE
 40
1.0
  9
$PROXYGRAPHICS
 70
     0
  9
$MEASUREMENT
 70
     1
  9
$CELWEIGHT
370
    -1
  9
$ENDCAPS
280
     0
  9
$JOINSTYLE
280
     0
  9
$LWDISPLAY
290
     1
  9
$INSUNITS
 70
     4
  9
$HYPERLINKBASE
  1

  9
$STYLESHEET
  1

  9
$XEDIT
290
     1
  9
$CEPSNTYPE
380
     0
  9
$PSTYLEMODE
290
     1
  9
$FINGERPRINTGUID
  2
{0EE615CB-166D-45A2-908E-48E85293F133}
  9
$VERSIONGUID
  2
{FAEB1C32-E019-11D5-929B-00C0DF256EC4}
  9
$EXTNAMES
290
     1
  9
$PSVPSCALE
 40
0.0
  9
$OLESTARTUP
290
     0
  0
ENDSEC
  0
SECTION
  2
CLASSES
  0
CLASS
  1
ACDBDICTIONARYWDFLT
  2
AcDbDictionaryWithDefault
  3
ObjectDBX Classes
 90
        0
280
     0
281
     0
  0
CLASS
  1
VISUALSTYLE
  2
AcDbVisualStyle
  3
ObjectDBX Classes
 90
     4095
280
     0
281
     0
  0
CLASS
  1
MATERIAL
  2
AcDbMaterial
  3
ObjectDBX Classes
 90
     1153
280
     0
281
     0
  0
CLASS
  1
SCALE
  2
AcDbScale
  3
ObjectDBX Classes
 90
     1153
280
     0
281
     0
  0
CLASS
  1
DICTIONARYVAR
  2
AcDbDictionaryVar
  3
ObjectDBX Classes
 90
        0
280
     0
281
     0
  0
CLASS
  1
ACDBPLACEHOLDER
  2
AcDbPlaceHolder
  3
ObjectDBX Classes
 90
        0
280
     0
281
     0
  0
CLASS
  1
LAYOUT
  2
AcDbLayout
  3
ObjectDBX Classes
 90
        0
280
     0
281
     0
  0
ENDSEC
  0
SECTION
  2
TABLES
  0
TABLE
  2
VPORT
  5
8
330
0
100
AcDbSymbolTable
 70
     1
  0
VPORT
  5
29
330
8
100
AcDbSymbolTableRecord
100
AcDbViewportTableRecord
  2
*Active
 70
     0
 10
0.0
 20
0.0
 11
1.0
 21
1.0
 12
-0.0578077349912327
 22
0.0000000000001137
 13
0.0
 23
0.0
 14
0.5
 24
0.5
 15
0.5
 25
0.5
 16
0.0
 26
0.0
 36
1.0
 17
0.0
 27
0.0
 37
0.0
 40
1565.7
 41
0.7166876973745817
 42
50.0
 43
0.0
 44
0.0
 50
0.0
 51
0.0
 71
     0
 72
  1000
 73
     1
 74
     1
 75
     0
 76
     0
 77
     0
 78
     0
281
     0
 65
     1
110
0.0
120
0.0
130
0.0
111
1.0
121
0.0
131
0.0
112
0.0
122
1.0
132
0.0
 79
     0
146
0.0
  0
ENDTAB
  0
TABLE
  2
LTYPE
  5
5
330
0
100
AcDbSymbolTable
 70
    53
  0
LTYPE
  5
14
330
5
100
AcDbSymbolTableRecord
100
AcDbLinetypeTableRecord
  2
ByBlock
 70
     0
  3

 72
    65
 73
     0
 40
0.0
  0
LTYPE
  5
15
330
5
100
AcDbSymbolTableRecord
100
AcDbLinetypeTableRecord
  2
ByLayer
 70
     0
  3

 72
    65
 73
     0
 40
0.0
  0
LTYPE
  5
16
330
5
100
AcDbSymbolTableRecord
100
AcDbLinetypeTableRecord
  2
Continuous
 70
     0
  3
Solid line
 72
    65
 73
     0
 40
0.0
  0
LTYPE
  5
40
330
5
100
AcDbSymbolTableRecord
100
AcDbLinetypeTableRecord
  2
HIDDENX2
 70
     0
  3
Hidden (2x) ____ ____ ____ ____ ____ ____ ____ 
 72
    65
 73
     2
 40
19.05
 49
12.7
 74
     0
 49
-6.35
 74
     0
  0
LTYPE
  5
41
330
5
100
AcDbSymbolTableRecord
100
AcDbLinetypeTableRecord
  2
HIDDEN
 70
     0
  3
Hidden __ __ __ __ __ __ __ __ __ __ __ __ __ __
 72
    65
 73
     2
 40
9.524999999999999
 49
6.35
 74
     0
 49
-3.175
 74
     0
  0
LTYPE
  5
42
330
5
100
AcDbSymbolTableRecord
100
AcDbLinetypeTableRecord
  2
HIDDEN2
 70
     0
  3
Hidden (.5x) _ _ _ _ _ _ _ _ _ _ _ _ _ _ _ _ _ 
 72
    65
 73
     2
 40
4.762499999999999
 49
3.175
 74
     0
 49
-1.5875
 74
     0
  0
LTYPE
  5
43
330
5
100
AcDbSymbolTableRecord
100
AcDbLinetypeTableRecord
  2
DASHED
 70
     0
  3
Dashed __ __ __ __ __ __ __ __ __ __ __ __ __ _
 72
    65
 73
     2
 40
19.05
 49
12.7
 74
     0
 49
-6.35
 74
     0
  0
LTYPE
  5
44
330
5
100
AcDbSymbolTableRecord
100
AcDbLinetypeTableRecord
  2
DASHED2
 70
     0
  3
Dashed (.5x) _ _ _ _ _ _ _ _ _ _ _ _ _ _ _ _ _ 
 72
    65
 73
     2
 40
9.524999999999999
 49
6.35
 74
     0
 49
-3.175
 74
     0
  0
LTYPE
  5
45
330
5
100
AcDbSymbolTableRecord
100
AcDbLinetypeTableRecord
  2
DASHEDX2
 70
     0
  3
Dashed (2x) ____  ____  ____  ____  ____  ___
 72
    65
 73
     2
 40
38.09999999999999
 49
25.4
 74
     0
 49
-12.7
 74
     0
  0
LTYPE
  5
46
330
5
100
AcDbSymbolTableRecord
100
AcDbLinetypeTableRecord
  2
DOTX2
 70
     0
  3
Dot (2x) .  .  .  .  .  .  .  .  .  .  .  .  .  .
 72
    65
 73
     2
 40
12.7
 49
0.0
 74
     0
 49
-12.7
 74
     0
  0
LTYPE
  5
47
330
5
100
AcDbSymbolTableRecord
100
AcDbLinetypeTableRecord
  2
DOT
 70
     0
  3
Dot . . . . . . . . . . . . . . . . . . . . . . . .
 72
    65
 73
     2
 40
6.35
 49
0.0
 74
     0
 49
-6.35
 74
     0
  0
LTYPE
  5
48
330
5
100
AcDbSymbolTableRecord
100
AcDbLinetypeTableRecord
  2
DOT2
 70
     0
  3
Dot (.5x) ........................................
 72
    65
 73
     2
 40
3.175
 49
0.0
 74
     0
 49
-3.175
 74
     0
  0
LTYPE
  5
49
330
5
100
AcDbSymbolTableRecord
100
AcDbLinetypeTableRecord
  2
CENTERX2
 70
     0
  3
Center (2x) ________  __  ________  __  _____
 72
    65
 73
     4
 40
101.6
 49
63.5
 74
     0
 49
-12.7
 74
     0
 49
12.7
 74
     0
 49
-12.7
 74
     0
  0
LTYPE
  5
4A
330
5
100
AcDbSymbolTableRecord
100
AcDbLinetypeTableRecord
  2
CENTER
 70
     0
  3
Center ____ _ ____ _ ____ _ ____ _ ____ _ ____
 72
    65
 73
     4
 40
50.8
 49
31.75
 74
     0
 49
-6.35
 74
     0
 49
6.35
 74
     0
 49
-6.35
 74
     0
  0
LTYPE
  5
4B
330
5
100
AcDbSymbolTableRecord
100
AcDbLinetypeTableRecord
  2
CENTER2
 70
     0
  3
Center (.5x) ___ _ ___ _ ___ _ ___ _ ___ _ ___
 72
    65
 73
     4
 40
28.575
 49
19.05
 74
     0
 49
-3.175
 74
     0
 49
3.175
 74
     0
 49
-3.175
 74
     0
  0
LTYPE
  5
4C
330
5
100
AcDbSymbolTableRecord
100
AcDbLinetypeTableRecord
  2
DASHDOTX2
 70
     0
  3
Dash dot (2x) ____  .  ____  .  ____  .  ___
 72
    65
 73
     4
 40
50.8
 49
25.4
 74
     0
 49
-12.7
 74
     0
 49
0.0
 74
     0
 49
-12.7
 74
     0
  0
LTYPE
  5
4D
330
5
100
AcDbSymbolTableRecord
100
AcDbLinetypeTableRecord
  2
DASHDOT
 70
     0
  3
Dash dot __ . __ . __ . __ . __ . __ . __ . __
 72
    65
 73
     4
 40
25.4
 49
12.7
 74
     0
 49
-6.35
 74
     0
 49
0.0
 74
     0
 49
-6.35
 74
     0
  0
LTYPE
  5
4E
330
5
100
AcDbSymbolTableRecord
100
AcDbLinetypeTableRecord
  2
DASHDOT2
 70
     0
  3
Dash dot (.5x) _._._._._._._._._._._._._._._.
 72
    65
 73
     4
 40
12.7
 49
6.35
 74
     0
 49
-3.175
 74
     0
 49
0.0
 74
     0
 49
-3.175
 74
     0
  0
LTYPE
  5
4F
330
5
100
AcDbSymbolTableRecord
100
AcDbLinetypeTableRecord
  2
DIVIDEX2
 70
     0
  3
Divide (2x) ________  .  .  ________  .  .  _
 72
    65
 73
     6
 40
63.5
 49
25.4
 74
     0
 49
-12.7
 74
     0
 49
0.0
 74
     0
 49
-12.7
 74
     0
 49
0.0
 74
     0
 49
-12.7
 74
     0
  0
LTYPE
  5
50
330
5
100
AcDbSymbolTableRecord
100
AcDbLinetypeTableRecord
  2
DIVIDE
 70
     0
  3
Divide ____ . . ____ . . ____ . . ____ . . ____
 72
    65
 73
     6
 40
31.75
 49
12.7
 74
     0
 49
-6.35
 74
     0
 49
0.0
 74
     0
 49
-6.35
 74
     0
 49
0.0
 74
     0
 49
-6.35
 74
     0
  0
LTYPE
  5
51
330
5
100
AcDbSymbolTableRecord
100
AcDbLinetypeTableRecord
  2
DIVIDE2
 70
     0
  3
Divide (.5x) __..__..__..__..__..__..__..__.._
 72
    65
 73
     6
 40
15.875
 49
6.35
 74
     0
 49
-3.175
 74
     0
 49
0.0
 74
     0
 49
-3.175
 74
     0
 49
0.0
 74
     0
 49
-3.175
 74
     0
  0
LTYPE
  5
52
330
5
100
AcDbSymbolTableRecord
100
AcDbLinetypeTableRecord
  2
BORDERX2
 70
     0
  3
Border (2x) ____  ____  .  ____  ____  .  ___
 72
    65
 73
     6
 40
88.89999999999999
 49
25.4
 74
     0
 49
-12.7
 74
     0
 49
25.4
 74
     0
 49
-12.7
 74
     0
 49
0.0
 74
     0
 49
-12.7
 74
     0
  0
LTYPE
  5
53
330
5
100
AcDbSymbolTableRecord
100
AcDbLinetypeTableRecord
  2
BORDER
 70
     0
  3
Border __ __ . __ __ . __ __ . __ __ . __ __ .
 72
    65
 73
     6
 40
44.45
 49
12.7
 74
     0
 49
-6.35
 74
     0
 49
12.7
 74
     0
 49
-6.35
 74
     0
 49
0.0
 74
     0
 49
-6.35
 74
     0
  0
LTYPE
  5
54
330
5
100
AcDbSymbolTableRecord
100
AcDbLinetypeTableRecord
  2
BORDER2
 70
     0
  3
Border (.5x) __.__.__.__.__.__.__.__.__.__.__.
 72
    65
 73
     6
 40
22.225
 49
6.35
 74
     0
 49
-3.175
 74
     0
 49
6.35
 74
     0
 49
-3.175
 74
     0
 49
0.0
 74
     0
 49
-3.175
 74
     0
  0
LTYPE
  5
55
330
5
100
AcDbSymbolTableRecord
100
AcDbLinetypeTableRecord
  2
PHANTOMX2
 70
     0
  3
Phantom (2x) ____________    ____    ____   _
 72
    65
 73
     6
 40
127.0
 49
63.5
 74
     0
 49
-12.7
 74
     0
 49
12.7
 74
     0
 49
-12.7
 74
     0
 49
12.7
 74
     0
 49
-12.7
 74
     0
  0
LTYPE
  5
56
330
5
100
AcDbSymbolTableRecord
100
AcDbLinetypeTableRecord
  2
PHANTOM
 70
     0
  3
Phantom ______  __  __  ______  __  __  ______ 
 72
    65
 73
     6
 40
63.5
 49
31.75
 74
     0
 49
-6.35
 74
     0
 49
6.35
 74
     0
 49
-6.35
 74
     0
 49
6.35
 74
     0
 49
-6.35
 74
     0
  0
LTYPE
  5
57
330
5
100
AcDbSymbolTableRecord
100
AcDbLinetypeTableRecord
  2
PHANTOM2
 70
     0
  3
Phantom (.5x) ___ _ _ ___ _ _ ___ _ _ ___ _ _
 72
    65
 73
     6
 40
31.75
 49
15.875
 74
     0
 49
-3.175
 74
     0
 49
3.175
 74
     0
 49
-3.175
 74
     0
 49
3.175
 74
     0
 49
-3.175
 74
     0
  0
LTYPE
  5
58
330
5
100
AcDbSymbolTableRecord
100
AcDbLinetypeTableRecord
  2
ACAD_ISO06W100
 70
     0
  3
ISO long-dash triple-dot ____ ... ____ ... ____
 72
    65
 73
     8
 40
36.0
 49
24.0
 74
     0
 49
-3.0
 74
     0
 49
0.0
 74
     0
 49
-3.0
 74
     0
 49
0.0
 74
     0
 49
-3.0
 74
     0
 49
0.0
 74
     0
 49
-3.0
 74
     0
  0
LTYPE
  5
59
330
5
100
AcDbSymbolTableRecord
100
AcDbLinetypeTableRecord
  2
ACAD_ISO13W100
 70
     0
  3
ISO double-dash double-dot __ __ . . __ __ . . _
 72
    65
 73
     8
 40
36.0
 49
12.0
 74
     0
 49
-3.0
 74
     0
 49
12.0
 74
     0
 49
-3.0
 74
     0
 49
0.0
 74
     0
 49
-3.0
 74
     0
 49
0.0
 74
     0
 49
-3.0
 74
     0
  0
LTYPE
  5
5A
330
5
100
AcDbSymbolTableRecord
100
AcDbLinetypeTableRecord
  2
ACAD_ISO14W100
 70
     0
  3
ISO dash triple-dot __ . . . __ . . . __ . . . _
 72
    65
 73
     8
 40
24.0
 49
12.0
 74
     0
 49
-3.0
 74
     0
 49
0.0
 74
     0
 49
-3.0
 74
     0
 49
0.0
 74
     0
 49
-3.0
 74
     0
 49
0.0
 74
     0
 49
-3.0
 74
     0
  0
LTYPE
  5
5B
330
5
100
AcDbSymbolTableRecord
100
AcDbLinetypeTableRecord
  2
ACAD_ISO02W100
 70
     0
  3
ISO dash __ __ __ __ __ __ __ __ __ __ __ __ __
 72
    65
 73
     2
 40
15.0
 49
12.0
 74
     0
 49
-3.0
 74
     0
  0
LTYPE
  5
5C
330
5
100
AcDbSymbolTableRecord
100
AcDbLinetypeTableRecord
  2
ACAD_ISO03W100
 70
     0
  3
ISO dash space __    __    __    __    __    __
 72
    65
 73
     2
 40
30.0
 49
12.0
 74
     0
 49
-18.0
 74
     0
  0
LTYPE
  5
5D
330
5
100
AcDbSymbolTableRecord
100
AcDbLinetypeTableRecord
  2
ACAD_ISO04W100
 70
     0
  3
ISO long-dash dot ____ . ____ . ____ . ____ . _
 72
    65
 73
     4
 40
30.0
 49
24.0
 74
     0
 49
-3.0
 74
     0
 49
0.0
 74
     0
 49
-3.0
 74
     0
  0
LTYPE
  5
5E
330
5
100
AcDbSymbolTableRecord
100
AcDbLinetypeTableRecord
  2
ACAD_ISO05W100
 70
     0
  3
ISO long-dash double-dot ____ .. ____ .. ____ . 
 72
    65
 73
     6
 40
33.0
 49
24.0
 74
     0
 49
-3.0
 74
     0
 49
0.0
 74
     0
 49
-3.0
 74
     0
 49
0.0
 74
     0
 49
-3.0
 74
     0
  0
LTYPE
  5
5F
330
5
100
AcDbSymbolTableRecord
100
AcDbLinetypeTableRecord
  2
ACAD_ISO07W100
 70
     0
  3
ISO dot . . . . . . . . . . . . . . . . . . . . 
 72
    65
 73
     2
 40
3.0
 49
0.0
 74
     0
 49
-3.0
 74
     0
  0
LTYPE
  5
60
330
5
100
AcDbSymbolTableRecord
100
AcDbLinetypeTableRecord
  2
ACAD_ISO08W100
 70
     0
  3
ISO long-dash short-dash ____ __ ____ __ ____ _
 72
    65
 73
     4
 40
36.0
 49
24.0
 74
     0
 49
-3.0
 74
     0
 49
6.0
 74
     0
 49
-3.0
 74
     0
  0
LTYPE
  5
61
330
5
100
AcDbSymbolTableRecord
100
AcDbLinetypeTableRecord
  2
ACAD_ISO09W100
 70
     0
  3
ISO long-dash double-short-dash ____ __ __ ____
 72
    65
 73
     6
 40
45.0
 49
24.0
 74
     0
 49
-3.0
 74
     0
 49
6.0
 74
     0
 49
-3.0
 74
     0
 49
6.0
 74
     0
 49
-3.0
 74
     0
  0
LTYPE
  5
62
330
5
100
AcDbSymbolTableRecord
100
AcDbLinetypeTableRecord
  2
ACAD_ISO10W100
 70
     0
  3
ISO dash dot __ . __ . __ . __ . __ . __ . __ . 
 72
    65
 73
     4
 40
18.0
 49
12.0
 74
     0
 49
-3.0
 74
     0
 49
0.0
 74
     0
 49
-3.0
 74
     0
  0
LTYPE
  5
63
330
5
100
AcDbSymbolTableRecord
100
AcDbLinetypeTableRecord
  2
ACAD_ISO11W100
 70
     0
  3
ISO double-dash dot __ __ . __ __ . __ __ . __ _
 72
    65
 73
     6
 40
33.0
 49
12.0
 74
     0
 49
-3.0
 74
     0
 49
12.0
 74
     0
 49
-3.0
 74
     0
 49
0.0
 74
     0
 49
-3.0
 74
     0
  0
LTYPE
  5
64
330
5
100
AcDbSymbolTableRecord
100
AcDbLinetypeTableRecord
  2
ACAD_ISO12W100
 70
     0
  3
ISO dash double-dot __ . . __ . . __ . . __ . . 
 72
    65
 73
     6
 40
21.0
 49
12.0
 74
     0
 49
-3.0
 74
     0
 49
0.0
 74
     0
 49
-3.0
 74
     0
 49
0.0
 74
     0
 49
-3.0
 74
     0
  0
LTYPE
  5
65
330
5
100
AcDbSymbolTableRecord
100
AcDbLinetypeTableRecord
  2
ACAD_ISO15W100
 70
     0
  3
ISO double-dash triple-dot __ __ . . . __ __ . .
 72
    65
 73
    10
 40
39.0
 49
12.0
 74
     0
 49
-3.0
 74
     0
 49
12.0
 74
     0
 49
-3.0
 74
     0
 49
0.0
 74
     0
 49
-3.0
 74
     0
 49
0.0
 74
     0
 49
-3.0
 74
     0
 49
0.0
 74
     0
 49
-3.0
 74
     0
  0
LTYPE
  5
66
330
5
100
AcDbSymbolTableRecord
100
AcDbLinetypeTableRecord
  2
JIS_02_0.7
 70
     0
  3
HIDDEN0.75 _ _ _ _ _ _ _ _ _ _ _ _ _ _ _ _ _ 
 72
    65
 73
     2
 40
1.35
 49
0.75
 74
     0
 49
-0.6
 74
     0
  0
LTYPE
  5
67
330
5
100
AcDbSymbolTableRecord
100
AcDbLinetypeTableRecord
  2
JIS_02_1.0
 70
     0
  3
HIDDEN01 _ _ _ _ _ _ _ _ _ _ _ _ _ _ _ _ _ 
 72
    65
 73
     2
 40
2.0
 49
1.0
 74
     0
 49
-1.0
 74
     0
  0
LTYPE
  5
68
330
5
100
AcDbSymbolTableRecord
100
AcDbLinetypeTableRecord
  2
JIS_02_1.2
 70
     0
  3
HIDDEN01.25  _ _ _ _ _ _ _ _ _ _ _ _ _ _ _ _ _ 
 72
    65
 73
     2
 40
2.5
 49
1.25
 74
     0
 49
-1.25
 74
     0
  0
LTYPE
  5
69
330
5
100
AcDbSymbolTableRecord
100
AcDbLinetypeTableRecord
  2
JIS_02_2.0
 70
     0
  3
HIDDEN02 __ __ __ __ __ __ __ __ __ __ __ 
 72
    65
 73
     2
 40
3.0
 49
2.0
 74
     0
 49
-1.0
 74
     0
  0
LTYPE
  5
6A
330
5
100
AcDbSymbolTableRecord
100
AcDbLinetypeTableRecord
  2
JIS_02_4.0
 70
     0
  3
HIDDEN04 ____ ____ ____ ____ ____ ____ ____ 
 72
    65
 73
     2
 40
5.5
 49
4.0
 74
     0
 49
-1.5
 74
     0
  0
LTYPE
  5
6B
330
5
100
AcDbSymbolTableRecord
100
AcDbLinetypeTableRecord
  2
JIS_08_11
 70
     0
  3
1SASEN11 ___ _ ___ _ ___ _ ___ _ ___ _ ___
 72
    65
 73
     4
 40
12.8
 49
11.0
 74
     0
 49
-0.6
 74
     0
 49
0.6
 74
     0
 49
-0.6
 74
     0
  0
LTYPE
  5
6C
330
5
100
AcDbSymbolTableRecord
100
AcDbLinetypeTableRecord
  2
JIS_08_15
 70
     0
  3
1SASEN15 ____ _ ____ _ ____ _ ____ _ ____ 
 72
    65
 73
     4
 40
17.25
 49
15.0
 74
     0
 49
-0.75
 74
     0
 49
0.75
 74
     0
 49
-0.75
 74
     0
  0
LTYPE
  5
6D
330
5
100
AcDbSymbolTableRecord
100
AcDbLinetypeTableRecord
  2
JIS_08_25
 70
     0
  3
1SASEN25 ________  __  ________  __  _____
 72
    65
 73
     4
 40
28.0
 49
25.0
 74
     0
 49
-1.125
 74
     0
 49
0.75
 74
     0
 49
-1.125
 74
     0
  0
LTYPE
  5
6E
330
5
100
AcDbSymbolTableRecord
100
AcDbLinetypeTableRecord
  2
JIS_08_37
 70
     0
  3
1SASEN37 ________  __  ________  __  _____
 72
    65
 73
     4
 40
40.5
 49
37.5
 74
     0
 49
-1.125
 74
     0
 49
0.75
 74
     0
 49
-1.125
 74
     0
  0
LTYPE
  5
6F
330
5
100
AcDbSymbolTableRecord
100
AcDbLinetypeTableRecord
  2
JIS_08_50
 70
     0
  3
1SASEN50 _______________  __  ____________
 72
    65
 73
     4
 40
53.0
 49
50.0
 74
     0
 49
-1.125
 74
     0
 49
0.75
 74
     0
 49
-1.125
 74
     0
  0
LTYPE
  5
70
330
5
100
AcDbSymbolTableRecord
100
AcDbLinetypeTableRecord
  2
JIS_09_08
 70
     0
  3
2SASEN8 __ _ _ __ _ _ __ _ _ __ _ _ __ _ _ 
 72
    65
 73
     6
 40
10.75
 49
8.0
 74
     0
 49
-0.55
 74
     0
 49
0.55
 74
     0
 49
-0.55
 74
     0
 49
0.55
 74
     0
 49
-0.55
 74
     0
  0
LTYPE
  5
71
330
5
100
AcDbSymbolTableRecord
100
AcDbLinetypeTableRecord
  2
JIS_09_15
 70
     0
  3
2SASEN15 ___ _ _ ___ _ _ ___ _ _ ___ _ _ ___ 
 72
    65
 73
     6
 40
18.9
 49
15.0
 74
     0
 49
-0.9
 74
     0
 49
0.6
 74
     0
 49
-0.9
 74
     0
 49
0.6
 74
     0
 49
-0.9
 74
     0
  0
LTYPE
  5
72
330
5
100
AcDbSymbolTableRecord
100
AcDbLinetypeTableRecord
  2
JIS_09_29
 70
     0
  3
2SASEN29 ______　__  __  ______　__  __  ___
 72
    65
 73
     6
 40
34.0
 49
29.0
 74
     0
 49
-1.2
 74
     0
 49
0.7
 74
     0
 49
-1.2
 74
     0
 49
0.7
 74
     0
 49
-1.2
 74
     0
  0
LTYPE
  5
73
330
5
100
AcDbSymbolTableRecord
100
AcDbLinetypeTableRecord
  2
JIS_09_50
 70
     0
  3
2SASEN50 ____________　__  __  _____________
 72
    65
 73
     6
 40
55.0
 49
50.0
 74
     0
 49
-1.2
 74
     0
 49
0.7
 74
     0
 49
-1.2
 74
     0
 49
0.7
 74
     0
 49
-1.2
 74
     0
  0
ENDTAB
  0
TABLE
  2
LAYER
  5
2
330
0
100
AcDbSymbolTable
 70
     5
  0
LAYER
  5
10
330
2
100
AcDbSymbolTableRecord
100
AcDbLayerTableRecord
  2
0
 70
     0
 62
     7
  6
Continuous
370
    -3
390
F
  0
LAYER
  5
74
330
2
100
AcDbSymbolTableRecord
100
AcDbLayerTableRecord
  2
Layer0006
 70
     0
 62
     7
  6
Continuous
370
    -3
390
F
  0
LAYER
  5
75
330
2
100
AcDbSymbolTableRecord
100
AcDbLayerTableRecord
  2
Layer0009
 70
     0
 62
     7
  6
Continuous
370
    -3
390
F
  0
LAYER
  5
76
330
2
100
AcDbSymbolTableRecord
100
AcDbLayerTableRecord
  2
Layer0240
 70
     0
 62
     7
  6
Continuous
370
    -3
390
F
  0
LAYER
  5
77
330
2
100
AcDbSymbolTableRecord
100
AcDbLayerTableRecord
  2
ZUWAKU
 70
     0
 62
     7
  6
Continuous
370
    -3
390
F
  0
ENDTAB
  0
TABLE
  2
STYLE
  5
3
330
0
100
AcDbSymbolTable
 70
     3
  0
STYLE
  5
11
330
3
100
AcDbSymbolTableRecord
100
AcDbTextStyleTableRecord
  2
Standard
 70
     0
 40
0.0
 41
1.0
 50
0.0
 71
     0
 42
0.2
  3
txt.shx
  4
bigfont.shx
  0
STYLE
  5
DA
330
3
100
AcDbSymbolTableRecord
100
AcDbTextStyleTableRecord
  2
dcStyle0
 70
     0
 40
0.0
 41
0.75
 50
0.0
 71
     0
 42
0.2
  3
txt.shx
  4
bigfont
  0
STYLE
  5
4DA
330
3
100
AcDbSymbolTableRecord
100
AcDbTextStyleTableRecord
  2
dcStyle1
 70
     4
 40
0.0
 41
0.8
 50
0.0
 71
     0
 42
0.2
  3
txt.shx
  4
bigfont
  0
ENDTAB
  0
TABLE
  2
VIEW
  5
6
330
0
100
AcDbSymbolTable
 70
     0
  0
ENDTAB
  0
TABLE
  2
UCS
  5
7
330
0
100
AcDbSymbolTable
 70
     0
  0
ENDTAB
  0
TABLE
  2
APPID
  5
9
330
0
100
AcDbSymbolTable
 70
     3
  0
APPID
  5
12
330
9
100
AcDbSymbolTableRecord
100
AcDbRegAppTableRecord
  2
ACAD
 70
     0
  0
APPID
  5
3F
330
9
100
AcDbSymbolTableRecord
100
AcDbRegAppTableRecord
  2
DaFusionOut
 70
     0
  0
APPID
  5
5BC
330
9
100
AcDbSymbolTableRecord
100
AcDbRegAppTableRecord
  2
ACAD_DSTYLE_DIMARC_LENGTH_SYMBOL
 70
     0
  0
ENDTAB
  0
TABLE
  2
DIMSTYLE
  5
A
330
0
100
AcDbSymbolTable
 70
     3
100
AcDbDimStyleTable
  0
DIMSTYLE
105
27
330
A
100
AcDbSymbolTableRecord
100
AcDbDimStyleTableRecord
  2
Standard
 70
     0
178
     0
340
11
  0
DIMSTYLE
105
564
102
{ACAD_REACTORS
330
563
102
}
330
A
100
AcDbSymbolTableRecord
100
AcDbDimStyleTableRecord
  2
dc_Radial08
 70
     0
 41
15.00000953674316
 42
5.0
 44
5.0
 77
     2
 78
     8
 79
     2
140
20.0
147
5.0
172
     1
173
     1
176
     9
177
     7
271
     2
178
     9
271
     2
274
     4
283
     0
284
     8
288
     1
289
     0
340
4DA
343
D1
344
D1
1001
ACAD_DSTYLE_DIMARC_LENGTH_SYMBOL
1070
   379
1070
     1
  0
DIMSTYLE
105
566
102
{ACAD_REACTORS
330
565
330
567
330
568
330
569
330
56A
330
56B
330
56C
330
570
330
571
330
57A
330
57B
102
}
330
A
100
AcDbSymbolTableRecord
100
AcDbDimStyleTableRecord
  2
dc_Rotated
 70
     0
 41
15.00000953674316
 42
5.0
 44
5.0
 73
     0
 74
     0
 77
     3
 78
     8
 79
     2
140
20.0
147
5.0
172
     1
173
     1
176
     9
177
     9
271
     2
178
     7
271
     2
274
     4
283
     0
284
     8
288
     1
340
4DA
343
D1
344
D1
1001
ACAD_DSTYLE_DIMARC_LENGTH_SYMBOL
1070
   379
1070
     1
  0
ENDTAB
  0
TABLE
  2
BLOCK_RECORD
  5
1
330
0
100
AcDbSymbolTable
 70
    31
  0
BLOCK_RECORD
  5
1F
330
1
100
AcDbSymbolTableRecord
100
AcDbBlockTableRecord
  2
*Model_Space
340
22
  0
BLOCK_RECORD
  5
1B
330
1
100
AcDbSymbolTableRecord
100
AcDbBlockTableRecord
  2
*Paper_Space
340
1E
  0
BLOCK_RECORD
  5
23
330
1
100
AcDbSymbolTableRecord
100
AcDbBlockTableRecord
  2
*Paper_Space0
340
26
  0
BLOCK_RECORD
  5
79
330
1
100
AcDbSymbolTableRecord
100
AcDbBlockTableRecord
  2
*D1
340
0
  0
BLOCK_RECORD
  5
7C
330
1
100
AcDbSymbolTableRecord
100
AcDbBlockTableRecord
  2
*D2
340
0
  0
BLOCK_RECORD
  5
7F
330
1
100
AcDbSymbolTableRecord
100
AcDbBlockTableRecord
  2
*D3
340
0
  0
BLOCK_RECORD
  5
82
330
1
100
AcDbSymbolTableRecord
100
AcDbBlockTableRecord
  2
*D4
340
0
  0
BLOCK_RECORD
  5
85
330
1
100
AcDbSymbolTableRecord
100
AcDbBlockTableRecord
  2
*D5
340
0
  0
BLOCK_RECORD
  5
88
330
1
100
AcDbSymbolTableRecord
100
AcDbBlockTableRecord
  2
*D6
340
0
  0
BLOCK_RECORD
  5
8B
330
1
100
AcDbSymbolTableRecord
100
AcDbBlockTableRecord
  2
*D7
340
0
  0
BLOCK_RECORD
  5
8E
330
1
100
AcDbSymbolTableRecord
100
AcDbBlockTableRecord
  2
*D8
340
0
  0
BLOCK_RECORD
  5
91
330
1
100
AcDbSymbolTableRecord
100
AcDbBlockTableRecord
  2
DC_GROUP_RW105_1
340
0
102
{BLKREFS
331
58E
102
}
  0
BLOCK_RECORD
  5
94
330
1
100
AcDbSymbolTableRecord
100
AcDbBlockTableRecord
  2
DA_IMAGEDIMGROUP_1
340
0
102
{BLKREFS
331
56D
102
}
  0
BLOCK_RECORD
  5
97
330
1
100
AcDbSymbolTableRecord
100
AcDbBlockTableRecord
  2
DC_GROUP_RW105_2
340
0
102
{BLKREFS
331
56E
102
}
  0
BLOCK_RECORD
  5
9A
330
1
100
AcDbSymbolTableRecord
100
AcDbBlockTableRecord
  2
DC_GROUP_RW105_3
340
0
102
{BLKREFS
331
56F
102
}
  0
BLOCK_RECORD
  5
9D
330
1
100
AcDbSymbolTableRecord
100
AcDbBlockTableRecord
  2
*D13
340
0
  0
BLOCK_RECORD
  5
A0
330
1
100
AcDbSymbolTableRecord
100
AcDbBlockTableRecord
  2
*D14
340
0
  0
BLOCK_RECORD
  5
A3
330
1
100
AcDbSymbolTableRecord
100
AcDbBlockTableRecord
  2
DC_GROUP_RW105_4
340
0
102
{BLKREFS
331
572
102
}
  0
BLOCK_RECORD
  5
A6
330
1
100
AcDbSymbolTableRecord
100
AcDbBlockTableRecord
  2
DC_GROUP_RW105_5
340
0
102
{BLKREFS
331
573
102
}
  0
BLOCK_RECORD
  5
A9
330
1
100
AcDbSymbolTableRecord
100
AcDbBlockTableRecord
  2
DA_IMAGEDIMGROUP_2
340
0
102
{BLKREFS
331
574
102
}
  0
BLOCK_RECORD
  5
AC
330
1
100
AcDbSymbolTableRecord
100
AcDbBlockTableRecord
  2
DA_IMAGEDIMGROUP_3
340
0
102
{BLKREFS
331
575
102
}
  0
BLOCK_RECORD
  5
AF
330
1
100
AcDbSymbolTableRecord
100
AcDbBlockTableRecord
  2
DC_GROUP_RW105_6
340
0
102
{BLKREFS
331
58F
102
}
  0
BLOCK_RECORD
  5
B2
330
1
100
AcDbSymbolTableRecord
100
AcDbBlockTableRecord
  2
DC_GROUP_RW105_7
340
0
102
{BLKREFS
331
576
102
}
  0
BLOCK_RECORD
  5
B5
330
1
100
AcDbSymbolTableRecord
100
AcDbBlockTableRecord
  2
DC_GROUP_RW105_8
340
0
102
{BLKREFS
331
577
102
}
  0
BLOCK_RECORD
  5
B8
330
1
100
AcDbSymbolTableRecord
100
AcDbBlockTableRecord
  2
DC_GROUP_RW105_9
340
0
102
{BLKREFS
331
591
102
}
  0
BLOCK_RECORD
  5
BB
330
1
100
AcDbSymbolTableRecord
100
AcDbBlockTableRecord
  2
DC_GROUP_RW105_10
340
0
102
{BLKREFS
331
592
102
}
  0
BLOCK_RECORD
  5
BE
330
1
100
AcDbSymbolTableRecord
100
AcDbBlockTableRecord
  2
DC_GROUP_RW105_11
340
0
102
{BLKREFS
331
578
102
}
  0
BLOCK_RECORD
  5
C1
330
1
100
AcDbSymbolTableRecord
100
AcDbBlockTableRecord
  2
DC_HATCH_GROUP_12
340
0
102
{BLKREFS
331
14F
102
}
  0
BLOCK_RECORD
  5
C4
330
1
100
AcDbSymbolTableRecord
100
AcDbBlockTableRecord
  2
DC_GROUP_RW105_13
340
0
102
{BLKREFS
331
579
102
}
  0
BLOCK_RECORD
  5
C7
330
1
100
AcDbSymbolTableRecord
100
AcDbBlockTableRecord
  2
DC_HATCH_GROUP_14
340
0
102
{BLKREFS
331
169
102
}
  0
BLOCK_RECORD
  5
CA
330
1
100
AcDbSymbolTableRecord
100
AcDbBlockTableRecord
  2
*D28
340
0
  0
BLOCK_RECORD
  5
CD
330
1
100
AcDbSymbolTableRecord
100
AcDbBlockTableRecord
  2
*D29
340
0
  0
BLOCK_RECORD
  5
D1
330
1
100
AcDbSymbolTableRecord
100
AcDbBlockTableRecord
  2
_OPEN30
340
0
102
{BLKREFS
331
D7
331
DD
331
DE
331
E3
331
E4
331
EC
331
EE
331
F1
331
F2
331
F7
331
F8
331
100
331
102
331
105
331
106
331
111
331
11A
331
11B
331
120
331
121
331
12C
331
12F
331
134
331
138
331
17F
331
180
331
185
331
186
102
}
  0
ENDTAB
  0
ENDSEC
  0
SECTION
  2
BLOCKS
  0
BLOCK
  5
20
330
1F
100
AcDbEntity
  8
0
100
AcDbBlockBegin
  2
*Model_Space
 70
     0
 10
0.0
 20
0.0
 30
0.0
  3
*Model_Space
  1

  0
ENDBLK
  5
21
330
1F
100
AcDbEntity
  8
0
100
AcDbBlockEnd
  0
BLOCK
  5
1C
330
1B
100
AcDbEntity
 67
     1
  8
0
100
AcDbBlockBegin
  2
*Paper_Space
 70
     0
 10
0.0
 20
0.0
 30
0.0
  3
*Paper_Space
  1

  0
ENDBLK
  5
1D
330
1B
100
AcDbEntity
 67
     1
  8
0
100
AcDbBlockEnd
  0
BLOCK
  5
24
330
23
100
AcDbEntity
  8
0
100
AcDbBlockBegin
  2
*Paper_Space0
 70
     0
 10
0.0
 20
0.0
 30
0.0
  3
*Paper_Space0
  1

  0
ENDBLK
  5
25
330
23
100
AcDbEntity
  8
0
100
AcDbBlockEnd
  0
BLOCK
  5
7A
330
79
100
AcDbEntity
  8
0
100
AcDbBlockBegin
  2
*D1
 70
     1
 10
0.0
 20
0.0
 30
0.0
  3
*D1
  1

  0
LINE
  5
D0
330
79
100
AcDbEntity
  8
0
  6
Continuous
 62
     9
370
    13
100
AcDbLine
 10
-169.2478787167858
 20
195.5722059536665
 30
0.0
 11
-192.2755523963896
 21
225.4432692905793
 31
0.0
  0
INSERT
  5
D7
330
79
100
AcDbEntity
  8
0
 62
     9
100
AcDbBlockReference
  2
_OPEN30
 10
-192.2755523963896
 20
225.4432692905793
 30
0.0
 41
15.00001403807643
 42
14.99994684111822
 50
127.6287149595324
  0
LINE
  5
D8
330
79
100
AcDbEntity
  8
0
  6
Continuous
 62
     9
370
    13
100
AcDbLine
 10
-111.2478787167858
 20
195.5722059536665
 30
0.0
 11
-169.2478787167858
 21
195.5722059536665
 31
0.0
  0
LINE
  5
D9
330
79
100
AcDbEntity
  8
0
  6
Continuous
 62
     9
370
    13
100
AcDbLine
 10
-204.791666666667
 20
241.6789363102419
 30
0.0
 11
-192.2755523963896
 21
225.4432692905793
 31
0.0
  0
MTEXT
  5
DB
330
79
100
AcDbEntity
  8
0
 62
     9
100
AcDbMText
 10
-164.2478787167858
 20
200.5722059536665
 30
0.0
 40
20.0
 41
85.0
 71
     7
 72
     1
  1
\T1.00;φ41
  7
dcStyle0
 73
     1
 44
1.0
  0
ENDBLK
  5
7B
330
79
100
AcDbEntity
  8
0
100
AcDbBlockEnd
  0
BLOCK
  5
7D
330
7C
100
AcDbEntity
  8
0
100
AcDbBlockBegin
  2
*D2
 70
     1
 10
0.0
 20
0.0
 30
0.0
  3
*D2
  1

  0
LINE
  5
DC
330
7C
100
AcDbEntity
  8
0
  6
Continuous
 62
     9
370
    13
100
AcDbLine
 10
-341.4685977212616
 20
-136.3207326258964
 30
0.0
 11
-68.11473561207242
 21
-136.3207326258964
 31
0.0
  0
INSERT
  5
DD
330
7C
100
AcDbEntity
  8
0
 62
     9
100
AcDbBlockReference
  2
_OPEN30
 10
-341.4685977212616
 20
-136.3207326258964
 30
0.0
 41
15.00001403807643
 42
14.99994684111822
 50
180.0
  0
INSERT
  5
DE
330
7C
100
AcDbEntity
  8
0
 62
     9
100
AcDbBlockReference
  2
_OPEN30
 10
-68.11473561207242
 20
-136.3207326258964
 30
0.0
 41
15.00001403807643
 42
14.99994684111822
 50
360.0
  0
LINE
  5
DF
330
7C
100
AcDbEntity
  8
0
  6
Continuous
 62
     9
370
    13
100
AcDbLine
 10
-341.4685977212616
 20
-21.82073262588891
 30
0.0
 11
-341.4685977212616
 21
-141.3207326258964
 31
0.0
  0
LINE
  5
E0
330
7C
100
AcDbEntity
  8
0
  6
Continuous
 62
     9
370
    13
100
AcDbLine
 10
-68.11473561207242
 20
-21.82073262588891
 30
0.0
 11
-68.11473561207242
 21
-141.3207326258964
 31
0.0
  0
MTEXT
  5
E1
330
7C
100
AcDbEntity
  8
0
 62
     7
100
AcDbMText
 10
-204.791666666667
 20
-131.3207326258964
 30
0.0
 40
20.0
 41
125.0
 71
     8
 72
     1
  1
\T1.00;290以下
  7
dcStyle0
 73
     1
 44
1.0
  0
ENDBLK
  5
7E
330
7C
100
AcDbEntity
  8
0
100
AcDbBlockEnd
  0
BLOCK
  5
80
330
7F
100
AcDbEntity
  8
0
100
AcDbBlockBegin
  2
*D3
 70
     1
 10
0.0
 20
0.0
 30
0.0
  3
*D3
  1

  0
LINE
  5
E2
330
7F
100
AcDbEntity
  8
0
  6
Continuous
 62
     9
370
    13
100
AcDbLine
 10
431.6616657465929
 20
-73.82073262590603
 30
0.0
 11
431.6616657465929
 21
16.17926737409192
 31
0.0
  0
INSERT
  5
E3
330
7F
100
AcDbEntity
  8
0
 62
     9
100
AcDbBlockReference
  2
_OPEN30
 10
431.6616657465929
 20
-73.82073262590603
 30
0.0
 41
15.00001403807643
 42
14.99994684111822
 50
270.0
  0
INSERT
  5
E4
330
7F
100
AcDbEntity
  8
0
 62
     9
100
AcDbBlockReference
  2
_OPEN30
 10
431.6616657465929
 20
16.17926737409192
 30
0.0
 41
15.00001403807643
 42
14.99994684111822
 50
90.0
  0
LINE
  5
E5
330
7F
100
AcDbEntity
  8
0
  6
Continuous
 62
     9
370
    13
100
AcDbLine
 10
215.661665746594
 20
-73.82073262590602
 30
0.0
 11
436.6616657465929
 21
-73.82073262590603
 31
0.0
  0
LINE
  5
E6
330
7F
100
AcDbEntity
  8
0
  6
Continuous
 62
     9
370
    13
100
AcDbLine
 10
293.138182495648
 20
16.17926737409194
 30
0.0
 11
436.6616657465929
 21
16.17926737409192
 31
0.0
  0
MTEXT
  5
E7
330
7F
100
AcDbEntity
  8
0
 62
     7
100
AcDbMText
 10
426.6616657465929
 20
-28.82073262590706
 30
0.0
 40
20.0
 41
65.0
 71
     8
 72
     1
  1
\T1.00;90
  7
dcStyle0
 11
6.123233995736766E-17
 21
1.0
 31
0.0
 73
     1
 44
1.0
  0
ENDBLK
  5
81
330
7F
100
AcDbEntity
  8
0
100
AcDbBlockEnd
  0
BLOCK
  5
83
330
82
100
AcDbEntity
  8
0
100
AcDbBlockBegin
  2
*D4
 70
     1
 10
0.0
 20
0.0
 30
0.0
  3
*D4
  1

  0
LINE
  5
E8
330
82
100
AcDbEntity
  8
0
  6
Continuous
 62
     9
370
    13
100
AcDbLine
 10
381.6616657465929
 20
-73.82073262590603
 30
0.0
 11
381.6616657465929
 21
-55.82073262590623
 31
0.0
  0
LINE
  5
E9
330
82
100
AcDbEntity
  8
0
  6
Continuous
 62
     9
370
    13
100
AcDbLine
 10
215.661665746594
 20
-73.82073262590602
 30
0.0
 11
386.6616657465929
 21
-73.82073262590603
 31
0.0
  0
LINE
  5
EA
330
82
100
AcDbEntity
  8
0
  6
Continuous
 62
     9
370
    13
100
AcDbLine
 10
219.661665746594
 20
-55.82073262590622
 30
0.0
 11
386.6616657465929
 21
-55.82073262590623
 31
0.0
  0
LINE
  5
EB
330
82
100
AcDbEntity
  8
0
  6
Continuous
 62
     9
370
    13
100
AcDbLine
 10
381.6616657465929
 20
-98.820732625906
 30
0.0
 11
381.6616657465929
 21
-73.82073262590603
 31
0.0
  0
INSERT
  5
EC
330
82
100
AcDbEntity
  8
0
 62
     9
100
AcDbBlockReference
  2
_OPEN30
 10
381.6616657465929
 20
-73.82073262590603
 30
0.0
 41
15.00001403807643
 42
14.99994684111822
 50
90.0
  0
LINE
  5
ED
330
82
100
AcDbEntity
  8
0
  6
Continuous
 62
     9
370
    13
100
AcDbLine
 10
381.6616657465929
 20
0.6681673740937808
 30
0.0
 11
381.6616657465929
 21
-55.82073262590623
 31
0.0
  0
INSERT
  5
EE
330
82
100
AcDbEntity
  8
0
 62
     9
100
AcDbBlockReference
  2
_OPEN30
 10
381.6616657465929
 20
-55.82073262590623
 30
0.0
 41
15.00001403807643
 42
14.99994684111822
 50
270.0
  0
MTEXT
  5
EF
330
82
100
AcDbEntity
  8
0
 62
     7
100
AcDbMText
 10
376.6616657465929
 20
-36.33183262590622
 30
0.0
 40
20.0
 41
65.0
 71
     7
 72
     1
  1
\T1.00;18
  7
dcStyle0
 11
6.123233995736766E-17
 21
1.0
 31
0.0
 73
     1
 44
1.0
  0
ENDBLK
  5
84
330
82
100
AcDbEntity
  8
0
100
AcDbBlockEnd
  0
BLOCK
  5
86
330
85
100
AcDbEntity
  8
0
100
AcDbBlockBegin
  2
*D5
 70
     1
 10
0.0
 20
0.0
 30
0.0
  3
*D5
  1

  0
LINE
  5
F0
330
85
100
AcDbEntity
  8
0
  6
Continuous
 62
     9
370
    13
100
AcDbLine
 10
-372.291666666667
 20
414.1789363102419
 30
0.0
 11
-37.29166666666693
 21
414.1789363102419
 31
0.0
  0
INSERT
  5
F1
330
85
100
AcDbEntity
  8
0
 62
     9
100
AcDbBlockReference
  2
_OPEN30
 10
-372.291666666667
 20
414.1789363102419
 30
0.0
 41
15.00001403807643
 42
14.99994684111822
 50
180.0
  0
INSERT
  5
F2
330
85
100
AcDbEntity
  8
0
 62
     9
100
AcDbBlockReference
  2
_OPEN30
 10
-37.29166666666693
 20
414.1789363102419
 30
0.0
 41
15.00001403807643
 42
14.99994684111822
 50
360.0
  0
LINE
  5
F3
330
85
100
AcDbEntity
  8
0
  6
Continuous
 62
     9
370
    13
100
AcDbLine
 10
-372.291666666667
 20
243.6789363102418
 30
0.0
 11
-372.291666666667
 21
419.1789363102419
 31
0.0
  0
LINE
  5
F4
330
85
100
AcDbEntity
  8
0
  6
Continuous
 62
     9
370
    13
100
AcDbLine
 10
-37.29166666666697
 20
243.67893631024
 30
0.0
 11
-37.29166666666693
 21
419.1789363102419
 31
0.0
  0
MTEXT
  5
F5
330
85
100
AcDbEntity
  8
0
 62
     7
100
AcDbMText
 10
-204.7916666666669
 20
418.1789363102419
 30
0.0
 40
20.0
 41
85.0
 71
     8
 72
     1
  1
\T1.00;335
  7
dcStyle0
 73
     1
 44
1.0
  0
ENDBLK
  5
87
330
85
100
AcDbEntity
  8
0
100
AcDbBlockEnd
  0
BLOCK
  5
89
330
88
100
AcDbEntity
  8
0
100
AcDbBlockBegin
  2
*D6
 70
     1
 10
0.0
 20
0.0
 30
0.0
  3
*D6
  1

  0
LINE
  5
F6
330
88
100
AcDbEntity
  8
0
  6
Continuous
 62
     9
370
    13
100
AcDbLine
 10
-422.291666666667
 20
119.178936310242
 30
0.0
 11
-422.291666666667
 21
364.1789363102419
 31
0.0
  0
INSERT
  5
F7
330
88
100
AcDbEntity
  8
0
 62
     9
100
AcDbBlockReference
  2
_OPEN30
 10
-422.291666666667
 20
119.178936310242
 30
0.0
 41
15.00001403807643
 42
14.99994684111822
 50
270.0
  0
INSERT
  5
F8
330
88
100
AcDbEntity
  8
0
 62
     9
100
AcDbBlockReference
  2
_OPEN30
 10
-422.291666666667
 20
364.1789363102419
 30
0.0
 41
15.00001403807643
 42
14.99994684111822
 50
90.0
  0
LINE
  5
F9
330
88
100
AcDbEntity
  8
0
  6
Continuous
 62
     9
370
    13
100
AcDbLine
 10
-206.7916666666673
 20
119.1789363102419
 30
0.0
 11
-427.291666666667
 21
119.178936310242
 31
0.0
  0
LINE
  5
FA
330
88
100
AcDbEntity
  8
0
  6
Continuous
 62
     9
370
    13
100
AcDbLine
 10
-206.791666666667
 20
364.1789363102419
 30
0.0
 11
-427.291666666667
 21
364.1789363102419
 31
0.0
  0
MTEXT
  5
FB
330
88
100
AcDbEntity
  8
0
 62
     7
100
AcDbMText
 10
-426.291666666667
 20
241.6789363102419
 30
0.0
 40
20.0
 41
85.0
 71
     8
 72
     1
  1
\T1.00;245
  7
dcStyle0
 11
6.123233995736766E-17
 21
1.0
 31
0.0
 73
     1
 44
1.0
  0
ENDBLK
  5
8A
330
88
100
AcDbEntity
  8
0
100
AcDbBlockEnd
  0
BLOCK
  5
8C
330
8B
100
AcDbEntity
  8
0
100
AcDbBlockBegin
  2
*D7
 70
     1
 10
0.0
 20
0.0
 30
0.0
  3
*D7
  1

  0
LINE
  5
FC
330
8B
100
AcDbEntity
  8
0
  6
Continuous
 62
     9
370
    13
100
AcDbLine
 10
-422.291666666667
 20
-19.82073262588902
 30
0.0
 11
-422.291666666667
 21
16.17926737409189
 31
0.0
  0
LINE
  5
FD
330
8B
100
AcDbEntity
  8
0
  6
Continuous
 62
     9
370
    13
100
AcDbLine
 10
-397.9026551953602
 20
-19.82073262588818
 30
0.0
 11
-424.291666666667
 21
-19.82073262588818
 31
0.0
  0
LINE
  5
FE
330
8B
100
AcDbEntity
  8
0
  6
Continuous
 62
     9
370
    13
100
AcDbLine
 10
-358.7681834157229
 20
16.17926737409188
 30
0.0
 11
-427.291666666667
 21
16.17926737409189
 31
0.0
  0
LINE
  5
FF
330
8B
100
AcDbEntity
  8
0
  6
Continuous
 62
     9
370
    13
100
AcDbLine
 10
-422.291666666667
 20
-44.82073262588902
 30
0.0
 11
-422.291666666667
 21
-19.82073262588902
 31
0.0
  0
INSERT
  5
100
330
8B
100
AcDbEntity
  8
0
 62
     9
100
AcDbBlockReference
  2
_OPEN30
 10
-422.291666666667
 20
-19.82073262588902
 30
0.0
 41
15.00001403807643
 42
14.99994684111822
 50
90.0
  0
LINE
  5
101
330
8B
100
AcDbEntity
  8
0
  6
Continuous
 62
     9
370
    13
100
AcDbLine
 10
-422.291666666667
 20
41.17926737409188
 30
0.0
 11
-422.291666666667
 21
16.17926737409189
 31
0.0
  0
INSERT
  5
102
330
8B
100
AcDbEntity
  8
0
 62
     9
100
AcDbBlockReference
  2
_OPEN30
 10
-422.291666666667
 20
16.17926737409189
 30
0.0
 41
15.00001403807643
 42
14.99994684111822
 50
270.0
  0
MTEXT
  5
103
330
8B
100
AcDbEntity
  8
0
 62
     7
100
AcDbMText
 10
-427.291666666667
 20
-1.820732625898565
 30
0.0
 40
20.0
 41
105.0
 71
     8
 72
     1
  1
\T1.00;(36)
  7
dcStyle0
 11
6.123233995736766E-17
 21
1.0
 31
0.0
 73
     1
 44
1.0
  0
ENDBLK
  5
8D
330
8B
100
AcDbEntity
  8
0
100
AcDbBlockEnd
  0
BLOCK
  5
8F
330
8E
100
AcDbEntity
  8
0
100
AcDbBlockBegin
  2
*D8
 70
     1
 10
0.0
 20
0.0
 30
0.0
  3
*D8
  1

  0
LINE
  5
104
330
8E
100
AcDbEntity
  8
0
  6
Continuous
 62
     9
370
    13
100
AcDbLine
 10
88.95833333333235
 20
-136.3207326258964
 30
0.0
 11
279.3649981598542
 21
-136.3207326258964
 31
0.0
  0
INSERT
  5
105
330
8E
100
AcDbEntity
  8
0
 62
     9
100
AcDbBlockReference
  2
_OPEN30
 10
88.95833333333235
 20
-136.3207326258964
 30
0.0
 41
15.00001403807643
 42
14.99994684111822
 50
180.0
  0
INSERT
  5
106
330
8E
100
AcDbEntity
  8
0
 62
     9
100
AcDbBlockReference
  2
_OPEN30
 10
279.3649981598542
 20
-136.3207326258964
 30
0.0
 41
15.00001403807643
 42
14.99994684111822
 50
360.0
  0
LINE
  5
107
330
8E
100
AcDbEntity
  8
0
  6
Continuous
 62
     9
370
    13
100
AcDbLine
 10
88.95833333333232
 20
-21.82073262590374
 30
0.0
 11
88.95833333333235
 21
-141.3207326258964
 31
0.0
  0
LINE
  5
108
330
8E
100
AcDbEntity
  8
0
  6
Continuous
 62
     9
370
    13
100
AcDbLine
 10
279.3649981598542
 20
-21.82073262590374
 30
0.0
 11
279.3649981598542
 21
-141.3207326258964
 31
0.0
  0
MTEXT
  5
109
330
8E
100
AcDbEntity
  8
0
 62
     7
100
AcDbMText
 10
184.1616657465933
 20
-131.3207326258964
 30
0.0
 40
20.0
 41
125.0
 71
     8
 72
     1
  1
\T1.00;210以下
  7
dcStyle0
 73
     1
 44
1.0
  0
ENDBLK
  5
90
330
8E
100
AcDbEntity
  8
0
100
AcDbBlockEnd
  0
BLOCK
  5
92
330
91
100
AcDbEntity
  8
0
100
AcDbBlockBegin
  2
DC_GROUP_RW105_1
 70
     0
 10
0.0
 20
0.0
 30
0.0
  3
DC_GROUP_RW105_1
  1

  0
TEXT
  5
10A
330
91
100
AcDbEntity
  8
Layer0240
 62
     4
100
AcDbText
 10
277.6141128949547
 20
-377.8787815881332
 30
0.0
 40
20.0
  1
重量：2.2kg
 41
0.9882352941176471
  7
dcStyle0
 72
     5
 11
405.6141128949547
 21
-377.8787815881332
 31
0.0
100
AcDbText
  0
TEXT
  5
10B
330
91
100
AcDbEntity
  8
Layer0240
 62
     4
100
AcDbText
 10
277.6141128949547
 20
-406.8651962738994
 30
0.0
 40
20.0
  1
容量：1.8L
 41
0.98
  7
dcStyle0
 72
     5
 11
389.6141128949547
 21
-406.8651962738994
 31
0.0
100
AcDbText
  0
LINE
  5
10C
330
91
100
AcDbEntity
  8
Layer0240
  6
Continuous
 62
     9
370
    13
100
AcDbLine
 10
260.0010036239061
 20
-348.9445697629764
 30
0.0
 11
425.1616657465937
 21
-348.9445697629764
 31
0.0
  0
LINE
  5
10D
330
91
100
AcDbEntity
  8
Layer0240
  6
Continuous
 62
     9
370
    13
100
AcDbLine
 10
425.1616657465937
 20
-417.0653097824506
 30
0.0
 11
260.0010036239061
 21
-417.0653097824506
 31
0.0
  0
LINE
  5
10E
330
91
100
AcDbEntity
  8
Layer0240
  6
Continuous
 62
     9
370
    13
100
AcDbLine
 10
260.0010036239061
 20
-417.0653097824506
 30
0.0
 11
260.0010036239061
 21
-348.9445697629764
 31
0.0
  0
LINE
  5
10F
330
91
100
AcDbEntity
  8
Layer0240
  6
Continuous
 62
     9
370
    13
100
AcDbLine
 10
425.1616657465937
 20
-348.9445697629764
 30
0.0
 11
425.1616657465937
 21
-417.0653097824506
 31
0.0
  0
ENDBLK
  5
93
330
91
100
AcDbEntity
  8
0
100
AcDbBlockEnd
  0
BLOCK
  5
95
330
94
100
AcDbEntity
  8
0
100
AcDbBlockBegin
  2
DA_IMAGEDIMGROUP_1
 70
     0
 10
0.0
 20
0.0
 30
0.0
  3
DA_IMAGEDIMGROUP_1
  1

  0
LINE
  5
110
330
94
100
AcDbEntity
  8
0
  6
Continuous
 62
     9
370
    13
100
AcDbLine
 10
235.7763490561952
 20
230.7128714729826
 30
0.0
 11
202.4104454291561
 21
148.7555539329292
 31
0.0
  0
INSERT
  5
111
330
94
100
AcDbEntity
  8
0
 62
     9
100
AcDbBlockReference
  2
_OPEN30
 10
202.4104454291561
 20
148.7555539329292
 30
0.0
 41
15.00001403807643
 42
14.99994684111822
 50
247.8481141929681
  0
MTEXT
  5
112
330
94
100
AcDbEntity
  8
0
 62
     7
100
AcDbMText
 10
205.1280537562653
 20
168.6912462507401
 30
0.0
 40
20.0
 41
105.0
 71
     7
 72
     1
  1
\T1.00;R146
  7
dcStyle0
 11
0.3770631528591623
 21
0.9261875505295394
 31
0.0
 73
     1
 44
1.0
  0
ENDBLK
  5
96
330
94
100
AcDbEntity
  8
0
100
AcDbBlockEnd
  0
BLOCK
  5
98
330
97
100
AcDbEntity
  8
0
100
AcDbBlockBegin
  2
DC_GROUP_RW105_2
 70
     0
 10
0.0
 20
0.0
 30
0.0
  3
DC_GROUP_RW105_2
  1

  0
ARC
  5
113
330
97
100
AcDbEntity
  8
0
  6
Continuous
 62
     3
370
    13
100
AcDbCircle
 10
331.1616657465937
 20
241.6789363102419
 30
0.0
 40
94.0
100
AcDbArc
 50
0.0
 51
56.90926604376766
  0
ARC
  5
114
330
97
100
AcDbEntity
  8
0
  6
Continuous
 62
     3
370
    13
100
AcDbCircle
 10
300.8616657465936
 20
199.3789363102419
 30
0.0
 40
146.0
100
AcDbArc
 50
56.01008926107946
 51
80.46777020403978
  0
ARC
  5
115
330
97
100
AcDbEntity
  8
0
  6
Continuous
 62
     3
370
    13
100
AcDbCircle
 10
279.1616657465937
 20
101.6789363102419
 30
0.0
 40
246.0
100
AcDbArc
 50
79.25165123704117
 51
90.00000000000001
  0
ENDBLK
  5
99
330
97
100
AcDbEntity
  8
0
100
AcDbBlockEnd
  0
BLOCK
  5
9B
330
9A
100
AcDbEntity
  8
0
100
AcDbBlockBegin
  2
DC_GROUP_RW105_3
 70
     0
 10
0.0
 20
0.0
 30
0.0
  3
DC_GROUP_RW105_3
  1

  0
ARC
  5
116
330
9A
100
AcDbEntity
  8
0
  6
Continuous
 62
     3
370
    13
100
AcDbCircle
 10
227.1616657465937
 20
241.6789363102419
 30
0.0
 40
94.0
100
AcDbArc
 50
123.0907339562323
 51
180.0
  0
ARC
  5
117
330
9A
100
AcDbEntity
  8
0
  6
Continuous
 62
     3
370
    13
100
AcDbCircle
 10
257.4616657465938
 20
199.3789363102419
 30
0.0
 40
146.0
100
AcDbArc
 50
99.53222979596023
 51
123.9899107389206
  0
ARC
  5
118
330
9A
100
AcDbEntity
  8
0
  6
Continuous
 62
     3
370
    13
100
AcDbCircle
 10
279.1616657465937
 20
101.6789363102419
 30
0.0
 40
246.0
100
AcDbArc
 50
90.0
 51
100.7483487629588
  0
ENDBLK
  5
9C
330
9A
100
AcDbEntity
  8
0
100
AcDbBlockEnd
  0
BLOCK
  5
9E
330
9D
100
AcDbEntity
  8
0
100
AcDbBlockBegin
  2
*D13
 70
     1
 10
0.0
 20
0.0
 30
0.0
  3
*D13
  1

  0
LINE
  5
119
330
9D
100
AcDbEntity
  8
0
  6
Continuous
 62
     9
370
    13
100
AcDbLine
 10
61.66166574659371
 20
135.678936310242
 30
0.0
 11
61.66166574659371
 21
347.6789363102419
 31
0.0
  0
INSERT
  5
11A
330
9D
100
AcDbEntity
  8
0
 62
     9
100
AcDbBlockReference
  2
_OPEN30
 10
61.66166574659371
 20
135.678936310242
 30
0.0
 41
15.00001403807643
 42
14.99994684111822
 50
270.0
  0
INSERT
  5
11B
330
9D
100
AcDbEntity
  8
0
 62
     9
100
AcDbBlockReference
  2
_OPEN30
 10
61.66166574659371
 20
347.6789363102419
 30
0.0
 41
15.00001403807643
 42
14.99994684111822
 50
90.0
  0
LINE
  5
11C
330
9D
100
AcDbEntity
  8
0
  6
Continuous
 62
     9
370
    13
100
AcDbLine
 10
277.1616657465937
 20
135.6789363102419
 30
0.0
 11
56.66166574659371
 21
135.678936310242
 31
0.0
  0
LINE
  5
11D
330
9D
100
AcDbEntity
  8
0
  6
Continuous
 62
     9
370
    13
100
AcDbLine
 10
277.1616657465937
 20
347.6789363102419
 30
0.0
 11
56.66166574659371
 21
347.6789363102419
 31
0.0
  0
MTEXT
  5
11E
330
9D
100
AcDbEntity
  8
0
 62
     7
100
AcDbMText
 10
56.66166574659371
 20
241.6789363102419
 30
0.0
 40
20.0
 41
85.0
 71
     8
 72
     1
  1
\T1.00;212
  7
dcStyle0
 11
6.123233995736766E-17
 21
1.0
 31
0.0
 73
     1
 44
1.0
  0
ENDBLK
  5
9F
330
9D
100
AcDbEntity
  8
0
100
AcDbBlockEnd
  0
BLOCK
  5
A1
330
A0
100
AcDbEntity
  8
0
100
AcDbBlockBegin
  2
*D14
 70
     1
 10
0.0
 20
0.0
 30
0.0
  3
*D14
  1

  0
LINE
  5
11F
330
A0
100
AcDbEntity
  8
0
  6
Continuous
 62
     9
370
    13
100
AcDbLine
 10
133.1616657465937
 20
414.1789363102419
 30
0.0
 11
425.1616657465937
 21
414.1789363102419
 31
0.0
  0
INSERT
  5
120
330
A0
100
AcDbEntity
  8
0
 62
     9
100
AcDbBlockReference
  2
_OPEN30
 10
133.1616657465937
 20
414.1789363102419
 30
0.0
 41
15.00001403807643
 42
14.99994684111822
 50
180.0
  0
INSERT
  5
121
330
A0
100
AcDbEntity
  8
0
 62
     9
100
AcDbBlockReference
  2
_OPEN30
 10
425.1616657465937
 20
414.1789363102419
 30
0.0
 41
15.00001403807643
 42
14.99994684111822
 50
360.0
  0
LINE
  5
122
330
A0
100
AcDbEntity
  8
0
  6
Continuous
 62
     9
370
    13
100
AcDbLine
 10
133.1616657465937
 20
243.6789363102419
 30
0.0
 11
133.1616657465937
 21
419.1789363102419
 31
0.0
  0
LINE
  5
123
330
A0
100
AcDbEntity
  8
0
  6
Continuous
 62
     9
370
    13
100
AcDbLine
 10
425.1616657465937
 20
243.678936310242
 30
0.0
 11
425.1616657465937
 21
419.1789363102419
 31
0.0
  0
MTEXT
  5
124
330
A0
100
AcDbEntity
  8
0
 62
     7
100
AcDbMText
 10
279.1616657465937
 20
419.1789363102419
 30
0.0
 40
20.0
 41
85.0
 71
     8
 72
     1
  1
\T1.00;292
  7
dcStyle0
 73
     1
 44
1.0
  0
ENDBLK
  5
A2
330
A0
100
AcDbEntity
  8
0
100
AcDbBlockEnd
  0
BLOCK
  5
A4
330
A3
100
AcDbEntity
  8
0
100
AcDbBlockBegin
  2
DC_GROUP_RW105_4
 70
     0
 10
0.0
 20
0.0
 30
0.0
  3
DC_GROUP_RW105_4
  1

  0
ARC
  5
125
330
A3
100
AcDbEntity
  8
0
  6
Continuous
 62
     3
370
    13
100
AcDbCircle
 10
331.1616657465937
 20
241.6789363102419
 30
0.0
 40
94.0
100
AcDbArc
 50
303.0907339562323
 51
0.0
  0
ARC
  5
126
330
A3
100
AcDbEntity
  8
0
  6
Continuous
 62
     3
370
    13
100
AcDbCircle
 10
300.8616657465936
 20
283.9789363102419
 30
0.0
 40
146.0
100
AcDbArc
 50
279.5322297959602
 51
303.9899107389205
  0
ARC
  5
127
330
A3
100
AcDbEntity
  8
0
  6
Continuous
 62
     3
370
    13
100
AcDbCircle
 10
279.1616657465937
 20
381.6789363102419
 30
0.0
 40
246.0
100
AcDbArc
 50
270.0
 51
280.7483487629588
  0
ENDBLK
  5
A5
330
A3
100
AcDbEntity
  8
0
100
AcDbBlockEnd
  0
BLOCK
  5
A7
330
A6
100
AcDbEntity
  8
0
100
AcDbBlockBegin
  2
DC_GROUP_RW105_5
 70
     0
 10
0.0
 20
0.0
 30
0.0
  3
DC_GROUP_RW105_5
  1

  0
ARC
  5
128
330
A6
100
AcDbEntity
  8
0
  6
Continuous
 62
     3
370
    13
100
AcDbCircle
 10
227.1616657465937
 20
241.6789363102419
 30
0.0
 40
94.0
100
AcDbArc
 50
180.0
 51
236.9092660437676
  0
ARC
  5
129
330
A6
100
AcDbEntity
  8
0
  6
Continuous
 62
     3
370
    13
100
AcDbCircle
 10
257.4616657465938
 20
283.9789363102419
 30
0.0
 40
146.0
100
AcDbArc
 50
236.0100892610794
 51
260.4677702040398
  0
ARC
  5
12A
330
A6
100
AcDbEntity
  8
0
  6
Continuous
 62
     3
370
    13
100
AcDbCircle
 10
279.1616657465937
 20
381.6789363102419
 30
0.0
 40
246.0
100
AcDbArc
 50
259.2516512370412
 51
270.0
  0
ENDBLK
  5
A8
330
A6
100
AcDbEntity
  8
0
100
AcDbBlockEnd
  0
BLOCK
  5
AA
330
A9
100
AcDbEntity
  8
0
100
AcDbBlockBegin
  2
DA_IMAGEDIMGROUP_2
 70
     0
 10
0.0
 20
0.0
 30
0.0
  3
DA_IMAGEDIMGROUP_2
  1

  0
LINE
  5
12B
330
A9
100
AcDbEntity
  8
0
  6
Continuous
 62
     9
370
    13
100
AcDbLine
 10
204.3816358633162
 20
225.6759333798835
 30
0.0
 11
150.2443632557708
 21
187.6444234732111
 31
0.0
  0
INSERT
  5
12C
330
A9
100
AcDbEntity
  8
0
 62
     9
100
AcDbBlockReference
  2
_OPEN30
 10
150.2443632557708
 20
187.6444234732111
 30
0.0
 41
15.00001403807643
 42
14.99994684111822
 50
215.0880949753205
  0
MTEXT
  5
12D
330
A9
100
AcDbEntity
  8
0
 62
     7
100
AcDbMText
 10
158.1391933505633
 20
199.3010113808567
 30
0.0
 40
20.0
 41
84.99999999999997
 71
     7
 72
     1
  1
\T1.00;R94
  7
dcStyle0
 11
0.8182691754342866
 21
0.5748352429471358
 31
0.0
 73
     1
 44
1.0
  0
ENDBLK
  5
AB
330
A9
100
AcDbEntity
  8
0
100
AcDbBlockEnd
  0
BLOCK
  5
AD
330
AC
100
AcDbEntity
  8
0
100
AcDbBlockBegin
  2
DA_IMAGEDIMGROUP_3
 70
     0
 10
0.0
 20
0.0
 30
0.0
  3
DA_IMAGEDIMGROUP_3
  1

  0
LINE
  5
12E
330
AC
100
AcDbEntity
  8
0
  6
Continuous
 62
     9
370
    13
100
AcDbLine
 10
261.9717913792146
 20
225.1086490829275
 30
0.0
 11
252.31461119377
 21
137.1482927053192
 31
0.0
  0
INSERT
  5
12F
330
AC
100
AcDbEntity
  8
0
 62
     9
100
AcDbBlockReference
  2
_OPEN30
 10
252.31461119377
 20
137.1482927053192
 30
0.0
 41
15.00001403807643
 42
14.99994684111822
 50
263.7345818997873
  0
MTEXT
  5
130
330
AC
100
AcDbEntity
  8
0
 62
     7
100
AcDbMText
 10
249.4713849476314
 20
157.0664574732708
 30
0.0
 40
20.0
 41
105.0
 71
     7
 72
     1
  1
\T1.00;R246
  7
dcStyle0
 11
0.1091343681009092
 21
0.9940270065240759
 31
0.0
 73
     1
 44
1.0
  0
ENDBLK
  5
AE
330
AC
100
AcDbEntity
  8
0
100
AcDbBlockEnd
  0
BLOCK
  5
B0
330
AF
100
AcDbEntity
  8
0
100
AcDbBlockBegin
  2
DC_GROUP_RW105_6
 70
     0
 10
0.0
 20
0.0
 30
0.0
  3
DC_GROUP_RW105_6
  1

  0
TEXT
  5
131
330
AF
100
AcDbEntity
  8
Layer0240
 62
     4
100
AcDbText
 10
37.2653359298929
 20
459.3800000000001
 30
0.0
 40
20.0
  1
カウンター開口寸法
 41
0.9509433962264152
  7
dcStyle0
 72
     5
 11
181.2653359298929
 21
459.3800000000001
 31
0.0
100
AcDbText
  0
LINE
  5
132
330
AF
100
AcDbEntity
  8
Layer0240
  6
Continuous
 62
     9
370
    13
100
AcDbLine
 10
35.26533592989288
 20
457.3800000000001
 30
0.0
 11
183.2653359298929
 21
457.3800000000001
 31
0.0
  0
ENDBLK
  5
B1
330
AF
100
AcDbEntity
  8
0
100
AcDbBlockEnd
  0
BLOCK
  5
B3
330
B2
100
AcDbEntity
  8
0
100
AcDbBlockBegin
  2
DC_GROUP_RW105_7
 70
     0
 10
0.0
 20
0.0
 30
0.0
  3
DC_GROUP_RW105_7
  1

  0
LINE
  5
133
330
B2
100
AcDbEntity
  8
0
  6
Continuous
 62
     9
370
    13
100
AcDbLine
 10
302.829258622664
 20
136.820109539687
 30
0.0
 11
314.2549897223702
 21
86.19862198983213
 31
0.0
  0
INSERT
  5
134
330
B2
100
AcDbEntity
  8
0
 62
     9
100
AcDbBlockReference
  2
_OPEN30
 10
302.829258622664
 20
136.820109539687
 30
0.0
 41
15.00001403807643
 42
14.99994684111822
 50
102.7190491041666
  0
LINE
  5
135
330
B2
100
AcDbEntity
  8
0
  6
Continuous
 62
     9
370
    13
100
AcDbLine
 10
314.2549897223702
 20
86.19862198983213
 30
0.0
 11
362.2549897223702
 21
86.19862198983213
 31
0.0
  0
TEXT
  5
136
330
B2
100
AcDbEntity
  8
0
 62
     4
100
AcDbText
 10
314.2549897223702
 20
88.69862198983213
 30
0.0
 40
20.0
  1
開口線
 41
0.9882352941176471
  7
dcStyle0
 72
     5
 11
362.2549897223702
 21
88.69862198983213
 31
0.0
100
AcDbText
  0
ENDBLK
  5
B4
330
B2
100
AcDbEntity
  8
0
100
AcDbBlockEnd
  0
BLOCK
  5
B6
330
B5
100
AcDbEntity
  8
0
100
AcDbBlockBegin
  2
DC_GROUP_RW105_8
 70
     0
 10
0.0
 20
0.0
 30
0.0
  3
DC_GROUP_RW105_8
  1

  0
LINE
  5
137
330
B5
100
AcDbEntity
  8
0
  6
Continuous
 62
     9
370
    13
100
AcDbLine
 10
356.1197887481951
 20
132.8740848254278
 30
0.0
 11
374.6345587393436
 21
106.6975524388404
 31
0.0
  0
INSERT
  5
138
330
B5
100
AcDbEntity
  8
0
 62
     9
100
AcDbBlockReference
  2
_OPEN30
 10
356.1197887481951
 20
132.8740848254278
 30
0.0
 41
15.00001403807643
 42
14.99994684111822
 50
125.2719279168923
  0
LINE
  5
139
330
B5
100
AcDbEntity
  8
0
  6
Continuous
 62
     9
370
    13
100
AcDbLine
 10
374.6345587393436
 20
106.6975524388404
 30
0.0
 11
470.6345587393436
 21
106.6975524388404
 31
0.0
  0
TEXT
  5
13A
330
B5
100
AcDbEntity
  8
0
 62
     4
100
AcDbText
 10
374.6345587393436
 20
109.1975524388404
 30
0.0
 40
20.0
  1
手洗器輪郭線
 41
0.96
  7
dcStyle0
 72
     5
 11
470.6345587393436
 21
109.1975524388404
 31
0.0
100
AcDbText
  0
ENDBLK
  5
B7
330
B5
100
AcDbEntity
  8
0
100
AcDbBlockEnd
  0
BLOCK
  5
B9
330
B8
100
AcDbEntity
  8
0
100
AcDbBlockBegin
  2
DC_GROUP_RW105_9
 70
     0
 10
0.0
 20
0.0
 30
0.0
  3
DC_GROUP_RW105_9
  1

  0
ARC
  5
13B
330
B8
100
AcDbEntity
  8
Layer0009
  6
DASHED2
 62
     2
370
    18
100
AcDbCircle
 10
-182.407273069132
 20
123.9962213376217
 30
0.0
 40
180.0
100
AcDbArc
 50
272.5841537710095
 51
300.9787514882916
  0
LINE
  5
13C
330
B8
100
AcDbEntity
  8
Layer0009
  6
DASHED2
 62
     2
370
    18
100
AcDbLine
 10
-174.2916666666654
 20
-55.82073262589641
 30
0.0
 11
-204.791666666667
 21
-55.82073262589641
 31
0.0
  0
LINE
  5
13D
330
B8
100
AcDbEntity
  8
Layer0009
  6
DASHED2
 62
     2
370
    18
100
AcDbLine
 10
-184.2916666666654
 20
-65.82073262589641
 30
0.0
 11
-174.2916666666654
 21
-55.82073262589641
 31
0.0
  0
LINE
  5
13E
330
B8
100
AcDbEntity
  8
Layer0009
  6
DASHED2
 62
     2
370
    18
100
AcDbLine
 10
-184.2916666666654
 20
-65.82073262589641
 30
0.0
 11
-204.791666666667
 21
-65.82073262589641
 31
0.0
  0
LINE
  5
13F
330
B8
100
AcDbEntity
  8
Layer0009
  6
DASHED2
 62
     2
370
    18
100
AcDbLine
 10
-184.2916666666654
 20
-65.82073262589641
 30
0.0
 11
-184.2916666666654
 21
-73.82073262589641
 31
0.0
  0
ARC
  5
140
330
B8
100
AcDbEntity
  8
Layer0009
  6
DASHED2
 62
     2
370
    18
100
AcDbCircle
 10
-139.2013904255186
 20
32.05110469875139
 30
0.0
 40
80.0
100
AcDbArc
 50
312.8469882596957
 51
345.7855999391786
  0
ARC
  5
141
330
B8
100
AcDbEntity
  8
Layer0009
  6
DASHED2
 62
     2
370
    18
100
AcDbCircle
 10
-105.1992500527264
 20
-4.607515707217647
 30
0.0
 40
30.0
100
AcDbArc
 50
300.9787514882913
 51
312.8469882596956
  0
ARC
  5
142
330
B8
100
AcDbEntity
  8
Layer0009
  6
DASHED2
 62
     2
370
    18
100
AcDbCircle
 10
-56.80377876903356
 20
11.17926737409165
 30
0.0
 40
5.0
100
AcDbArc
 50
90.0
 51
165.7855999391792
  0
ENDBLK
  5
BA
330
B8
100
AcDbEntity
  8
0
100
AcDbBlockEnd
  0
BLOCK
  5
BC
330
BB
100
AcDbEntity
  8
0
100
AcDbBlockBegin
  2
DC_GROUP_RW105_10
 70
     0
 10
0.0
 20
0.0
 30
0.0
  3
DC_GROUP_RW105_10
  1

  0
ARC
  5
143
330
BB
100
AcDbEntity
  8
Layer0009
  6
DASHED2
 62
     2
370
    18
100
AcDbCircle
 10
-227.176060264202
 20
123.9962213376217
 30
0.0
 40
180.0
100
AcDbArc
 50
239.0212485117084
 51
267.4158462289905
  0
LINE
  5
144
330
BB
100
AcDbEntity
  8
Layer0009
  6
DASHED2
 62
     2
370
    18
100
AcDbLine
 10
-235.2916666666686
 20
-55.82073262589641
 30
0.0
 11
-204.791666666667
 21
-55.82073262589641
 31
0.0
  0
LINE
  5
145
330
BB
100
AcDbEntity
  8
Layer0009
  6
DASHED2
 62
     2
370
    18
100
AcDbLine
 10
-225.2916666666686
 20
-65.82073262589641
 30
0.0
 11
-235.2916666666686
 21
-55.82073262589641
 31
0.0
  0
LINE
  5
146
330
BB
100
AcDbEntity
  8
Layer0009
  6
DASHED2
 62
     2
370
    18
100
AcDbLine
 10
-225.2916666666686
 20
-65.82073262589641
 30
0.0
 11
-204.791666666667
 21
-65.82073262589641
 31
0.0
  0
LINE
  5
147
330
BB
100
AcDbEntity
  8
Layer0009
  6
DASHED2
 62
     2
370
    18
100
AcDbLine
 10
-225.2916666666686
 20
-65.82073262589641
 30
0.0
 11
-225.2916666666686
 21
-73.82073262589641
 31
0.0
  0
ARC
  5
148
330
BB
100
AcDbEntity
  8
Layer0009
  6
DASHED2
 62
     2
370
    18
100
AcDbCircle
 10
-270.3819429078153
 20
32.05110469875139
 30
0.0
 40
80.0
100
AcDbArc
 50
194.2144000608214
 51
227.1530117403043
  0
ARC
  5
149
330
BB
100
AcDbEntity
  8
Layer0009
  6
DASHED2
 62
     2
370
    18
100
AcDbCircle
 10
-304.3840832806076
 20
-4.607515707217647
 30
0.0
 40
30.0
100
AcDbArc
 50
227.1530117403044
 51
239.0212485117086
  0
ARC
  5
14A
330
BB
100
AcDbEntity
  8
Layer0009
  6
DASHED2
 62
     2
370
    18
100
AcDbCircle
 10
-352.7795545643004
 20
11.17926737409165
 30
0.0
 40
5.0
100
AcDbArc
 50
14.21440006082081
 51
90.00000000000001
  0
ENDBLK
  5
BD
330
BB
100
AcDbEntity
  8
0
100
AcDbBlockEnd
  0
BLOCK
  5
BF
330
BE
100
AcDbEntity
  8
0
100
AcDbBlockBegin
  2
DC_GROUP_RW105_11
 70
     0
 10
0.0
 20
0.0
 30
0.0
  3
DC_GROUP_RW105_11
  1

  0
LINE
  5
14B
330
BE
100
AcDbEntity
  8
0
  6
DIVIDE
 62
     6
370
    13
100
AcDbLine
 10
-350.791666666667
 20
-19.82073262588813
 30
0.0
 11
-350.791666666667
 21
-49.82073262588813
 31
0.0
  0
LINE
  5
14C
330
BE
100
AcDbEntity
  8
0
  6
DIVIDE
 62
     6
370
    13
100
AcDbLine
 10
-58.79166666666697
 20
-19.82073262588813
 30
0.0
 11
-58.79166666666697
 21
-49.82073262588813
 31
0.0
  0
LINE
  5
14D
330
BE
100
AcDbEntity
  8
0
  6
DIVIDE
 62
     6
370
    13
100
AcDbLine
 10
-395.9026551953602
 20
-19.82073262588813
 30
0.0
 11
-13.68067813797376
 21
-19.82073262588813
 31
0.0
  0
LINE
  5
14E
330
BE
100
AcDbEntity
  8
0
  6
DIVIDE
 62
     6
370
    13
100
AcDbLine
 10
-395.9026551953602
 20
-49.82073262588813
 30
0.0
 11
-13.68067813797376
 21
-49.82073262588813
 31
0.0
  0
INSERT
  5
14F
330
BE
100
AcDbEntity
  8
0
  6
Continuous
100
AcDbBlockReference
  2
DC_HATCH_GROUP_12
 10
0.0
 20
0.0
 30
0.0
  0
ENDBLK
  5
C0
330
BE
100
AcDbEntity
  8
0
100
AcDbBlockEnd
  0
BLOCK
  5
C2
330
C1
100
AcDbEntity
  8
0
100
AcDbBlockBegin
  2
DC_HATCH_GROUP_12
 70
     0
 10
0.0
 20
0.0
 30
0.0
  3
DC_HATCH_GROUP_12
  1

  0
LINE
  5
150
330
C1
100
AcDbEntity
  8
0
  6
Continuous
 62
     9
370
    13
100
AcDbLine
 10
-355.5603643666101
 20
-49.82073262588813
 30
0.0
 11
-350.791666666667
 21
-45.05203492594504
 31
0.0
  0
LINE
  5
151
330
C1
100
AcDbEntity
  8
0
  6
Continuous
 62
     9
370
    13
100
AcDbLine
 10
-362.6314321784756
 20
-49.82073262588813
 30
0.0
 11
-350.791666666667
 21
-37.98096711407953
 31
0.0
  0
LINE
  5
152
330
C1
100
AcDbEntity
  8
0
  6
Continuous
 62
     9
370
    13
100
AcDbLine
 10
-369.7024999903412
 20
-49.82073262588813
 30
0.0
 11
-350.791666666667
 21
-30.90989930221403
 31
0.0
  0
LINE
  5
153
330
C1
100
AcDbEntity
  8
0
  6
Continuous
 62
     9
370
    13
100
AcDbLine
 10
-376.7735678022066
 20
-49.82073262588813
 30
0.0
 11
-350.791666666667
 21
-23.83883149034853
 31
0.0
  0
LINE
  5
154
330
C1
100
AcDbEntity
  8
0
  6
Continuous
 62
     9
370
    13
100
AcDbLine
 10
-383.8446356140721
 20
-49.82073262588813
 30
0.0
 11
-353.8446356140721
 21
-19.82073262588813
 31
0.0
  0
LINE
  5
155
330
C1
100
AcDbEntity
  8
0
  6
Continuous
 62
     9
370
    13
100
AcDbLine
 10
-390.9157034259376
 20
-49.82073262588813
 30
0.0
 11
-360.9157034259376
 21
-19.82073262588813
 31
0.0
  0
LINE
  5
156
330
C1
100
AcDbEntity
  8
0
  6
Continuous
 62
     9
370
    13
100
AcDbLine
 10
-395.9026551953602
 20
-47.73661658344523
 30
0.0
 11
-367.9867712378032
 21
-19.82073262588813
 31
0.0
  0
LINE
  5
157
330
C1
100
AcDbEntity
  8
0
  6
Continuous
 62
     9
370
    13
100
AcDbLine
 10
-395.9026551953602
 20
-40.66554877157972
 30
0.0
 11
-375.0578390496686
 21
-19.82073262588813
 31
0.0
  0
LINE
  5
158
330
C1
100
AcDbEntity
  8
0
  6
Continuous
 62
     9
370
    13
100
AcDbLine
 10
-395.9026551953602
 20
-33.59448095971422
 30
0.0
 11
-382.1289068615341
 21
-19.82073262588813
 31
0.0
  0
LINE
  5
159
330
C1
100
AcDbEntity
  8
0
  6
Continuous
 62
     9
370
    13
100
AcDbLine
 10
-395.9026551953602
 20
-26.52341314784871
 30
0.0
 11
-389.1999746733997
 21
-19.82073262588813
 31
0.0
  0
LINE
  5
15A
330
C1
100
AcDbEntity
  8
0
  6
Continuous
 62
     9
370
    13
100
AcDbLine
 10
-58.79166666666703
 20
-21.75261177683333
 30
0.0
 11
-56.85978751572182
 21
-19.82073262588813
 31
0.0
  0
LINE
  5
15B
330
C1
100
AcDbEntity
  8
0
  6
Continuous
 62
     9
370
    13
100
AcDbLine
 10
-58.79166666666703
 20
-28.82367958869867
 30
0.0
 11
-49.78871970385649
 21
-19.82073262588813
 31
0.0
  0
LINE
  5
15C
330
C1
100
AcDbEntity
  8
0
  6
Continuous
 62
     9
370
    13
100
AcDbLine
 10
-58.79166666666703
 20
-35.894747400564
 30
0.0
 11
-42.71765189199118
 21
-19.82073262588813
 31
0.0
  0
LINE
  5
15D
330
C1
100
AcDbEntity
  8
0
  6
Continuous
 62
     9
370
    13
100
AcDbLine
 10
-58.79166666666703
 20
-42.96581521242962
 30
0.0
 11
-35.64658408012554
 21
-19.82073262588813
 31
0.0
  0
LINE
  5
15E
330
C1
100
AcDbEntity
  8
0
  6
Continuous
 62
     9
370
    13
100
AcDbLine
 10
-58.57551626826009
 20
-49.82073262588813
 30
0.0
 11
-28.57551626826009
 21
-19.82073262588813
 31
0.0
  0
LINE
  5
15F
330
C1
100
AcDbEntity
  8
0
  6
Continuous
 62
     9
370
    13
100
AcDbLine
 10
-51.50444845639458
 20
-49.82073262588813
 30
0.0
 11
-21.50444845639458
 21
-19.82073262588813
 31
0.0
  0
LINE
  5
160
330
C1
100
AcDbEntity
  8
0
  6
Continuous
 62
     9
370
    13
100
AcDbLine
 10
-44.43338064452908
 20
-49.82073262588813
 30
0.0
 11
-14.43338064452908
 21
-19.82073262588813
 31
0.0
  0
LINE
  5
161
330
C1
100
AcDbEntity
  8
0
  6
Continuous
 62
     9
370
    13
100
AcDbLine
 10
-37.36231283266358
 20
-49.82073262588813
 30
0.0
 11
-13.68067813797381
 21
-26.13909793119836
 31
0.0
  0
LINE
  5
162
330
C1
100
AcDbEntity
  8
0
  6
Continuous
 62
     9
370
    13
100
AcDbLine
 10
-30.29124502079807
 20
-49.82073262588813
 30
0.0
 11
-13.68067813797381
 21
-33.21016574306387
 31
0.0
  0
LINE
  5
163
330
C1
100
AcDbEntity
  8
0
  6
Continuous
 62
     9
370
    13
100
AcDbLine
 10
-23.22017720893257
 20
-49.82073262588813
 30
0.0
 11
-13.68067813797381
 21
-40.28123355492937
 31
0.0
  0
LINE
  5
164
330
C1
100
AcDbEntity
  8
0
  6
Continuous
 62
     9
370
    13
100
AcDbLine
 10
-16.14910939706706
 20
-49.82073262588813
 30
0.0
 11
-13.68067813797381
 21
-47.35230136679488
 31
0.0
  0
ENDBLK
  5
C3
330
C1
100
AcDbEntity
  8
0
100
AcDbBlockEnd
  0
BLOCK
  5
C5
330
C4
100
AcDbEntity
  8
0
100
AcDbBlockBegin
  2
DC_GROUP_RW105_13
 70
     0
 10
0.0
 20
0.0
 30
0.0
  3
DC_GROUP_RW105_13
  1

  0
LINE
  5
165
330
C4
100
AcDbEntity
  8
0
  6
DIVIDE
 62
     6
370
    13
100
AcDbLine
 10
78.16166574659331
 20
-19.82073262590282
 30
0.0
 11
78.16166574659331
 21
-49.82073262590279
 31
0.0
  0
LINE
  5
166
330
C4
100
AcDbEntity
  8
0
  6
DIVIDE
 62
     6
370
    13
100
AcDbLine
 10
290.1616657465933
 20
-19.82073262590282
 30
0.0
 11
290.1616657465933
 21
-49.82073262590279
 31
0.0
  0
LINE
  5
167
330
C4
100
AcDbEntity
  8
0
  6
DIVIDE
 62
     6
370
    13
100
AcDbLine
 10
36.05067721790004
 20
-19.82073262590282
 30
0.0
 11
332.2726542752865
 21
-19.82073262590282
 31
0.0
  0
LINE
  5
168
330
C4
100
AcDbEntity
  8
0
  6
DIVIDE
 62
     6
370
    13
100
AcDbLine
 10
36.05067721790004
 20
-49.82073262590279
 30
0.0
 11
332.2726542752865
 21
-49.82073262590279
 31
0.0
  0
INSERT
  5
169
330
C4
100
AcDbEntity
  8
0
  6
Continuous
100
AcDbBlockReference
  2
DC_HATCH_GROUP_14
 10
0.0
 20
0.0
 30
0.0
  0
ENDBLK
  5
C6
330
C4
100
AcDbEntity
  8
0
100
AcDbBlockEnd
  0
BLOCK
  5
C8
330
C7
100
AcDbEntity
  8
0
100
AcDbBlockBegin
  2
DC_HATCH_GROUP_14
 70
     0
 10
0.0
 20
0.0
 30
0.0
  3
DC_HATCH_GROUP_14
  1

  0
LINE
  5
16A
330
C7
100
AcDbEntity
  8
0
  6
Continuous
 62
     9
370
    13
100
AcDbLine
 10
54.60617148224668
 20
-49.82073262590279
 30
0.0
 11
78.16166574659326
 21
-26.26523836155621
 31
0.0
  0
LINE
  5
16B
330
C7
100
AcDbEntity
  8
0
  6
Continuous
 62
     9
370
    13
100
AcDbLine
 10
47.5351036703812
 20
-49.82073262590279
 30
0.0
 11
77.5351036703812
 21
-19.82073262590279
 31
0.0
  0
LINE
  5
16C
330
C7
100
AcDbEntity
  8
0
  6
Continuous
 62
     9
370
    13
100
AcDbLine
 10
40.46403585851573
 20
-49.82073262590279
 30
0.0
 11
70.46403585851573
 21
-19.82073262590279
 31
0.0
  0
LINE
  5
16D
330
C7
100
AcDbEntity
  8
0
  6
Continuous
 62
     9
370
    13
100
AcDbLine
 10
36.05067721790004
 20
-47.163023454653
 30
0.0
 11
63.39296804665025
 21
-19.82073262590279
 31
0.0
  0
LINE
  5
16E
330
C7
100
AcDbEntity
  8
0
  6
Continuous
 62
     9
370
    13
100
AcDbLine
 10
36.05067721790004
 20
-40.09195564278752
 30
0.0
 11
56.32190023478478
 21
-19.82073262590279
 31
0.0
  0
LINE
  5
16F
330
C7
100
AcDbEntity
  8
0
  6
Continuous
 62
     9
370
    13
100
AcDbLine
 10
36.05067721790004
 20
-33.02088783092205
 30
0.0
 11
49.2508324229193
 21
-19.82073262590279
 31
0.0
  0
LINE
  5
170
330
C7
100
AcDbEntity
  8
0
  6
Continuous
 62
     9
370
    13
100
AcDbLine
 10
36.05067721790004
 20
-25.94982001905657
 30
0.0
 11
42.17976461105383
 21
-19.82073262590279
 31
0.0
  0
LINE
  5
171
330
C7
100
AcDbEntity
  8
0
  6
Continuous
 62
     9
370
    13
100
AcDbLine
 10
61.67723929411216
 20
-49.82073262590279
 30
0.0
 11
78.16166574659326
 21
-33.33630617342169
 31
0.0
  0
LINE
  5
172
330
C7
100
AcDbEntity
  8
0
  6
Continuous
 62
     9
370
    13
100
AcDbLine
 10
68.74830710597763
 20
-49.82073262590279
 30
0.0
 11
78.16166574659326
 21
-40.40737398528717
 31
0.0
  0
LINE
  5
173
330
C7
100
AcDbEntity
  8
0
  6
Continuous
 62
     9
370
    13
100
AcDbLine
 10
75.8193749178431
 20
-49.82073262590279
 30
0.0
 11
78.16166574659326
 21
-47.47844179715264
 31
0.0
  0
LINE
  5
174
330
C7
100
AcDbEntity
  8
0
  6
Continuous
 62
     9
370
    13
100
AcDbLine
 10
290.1616657465933
 20
-26.39727271752048
 30
0.0
 11
296.7382058382109
 21
-19.82073262590279
 31
0.0
  0
LINE
  5
175
330
C7
100
AcDbEntity
  8
0
  6
Continuous
 62
     9
370
    13
100
AcDbLine
 10
290.1616657465933
 20
-33.46834052938596
 30
0.0
 11
303.8092736500764
 21
-19.82073262590279
 31
0.0
  0
LINE
  5
176
330
C7
100
AcDbEntity
  8
0
  6
Continuous
 62
     9
370
    13
100
AcDbLine
 10
290.1616657465933
 20
-40.53940834125143
 30
0.0
 11
310.8803414619419
 21
-19.82073262590279
 31
0.0
  0
LINE
  5
177
330
C7
100
AcDbEntity
  8
0
  6
Continuous
 62
     9
370
    13
100
AcDbLine
 10
290.1616657465933
 20
-47.61047615311691
 30
0.0
 11
317.9514092738074
 21
-19.82073262590279
 31
0.0
  0
LINE
  5
178
330
C7
100
AcDbEntity
  8
0
  6
Continuous
 62
     9
370
    13
100
AcDbLine
 10
295.0224770856728
 20
-49.82073262590279
 30
0.0
 11
325.0224770856728
 21
-19.82073262590279
 31
0.0
  0
LINE
  5
179
330
C7
100
AcDbEntity
  8
0
  6
Continuous
 62
     9
370
    13
100
AcDbLine
 10
302.0935448975383
 20
-49.82073262590279
 30
0.0
 11
332.0935448975383
 21
-19.82073262590279
 31
0.0
  0
LINE
  5
17A
330
C7
100
AcDbEntity
  8
0
  6
Continuous
 62
     9
370
    13
100
AcDbLine
 10
309.1646127094038
 20
-49.82073262590279
 30
0.0
 11
332.2726542752865
 21
-26.71269106002012
 31
0.0
  0
LINE
  5
17B
330
C7
100
AcDbEntity
  8
0
  6
Continuous
 62
     9
370
    13
100
AcDbLine
 10
316.2356805212693
 20
-49.82073262590279
 30
0.0
 11
332.2726542752865
 21
-33.7837588718856
 31
0.0
  0
LINE
  5
17C
330
C7
100
AcDbEntity
  8
0
  6
Continuous
 62
     9
370
    13
100
AcDbLine
 10
323.3067483331347
 20
-49.82073262590279
 30
0.0
 11
332.2726542752865
 21
-40.85482668375107
 31
0.0
  0
LINE
  5
17D
330
C7
100
AcDbEntity
  8
0
  6
Continuous
 62
     9
370
    13
100
AcDbLine
 10
330.3778161450002
 20
-49.82073262590279
 30
0.0
 11
332.2726542752865
 21
-47.92589449561655
 31
0.0
  0
ENDBLK
  5
C9
330
C7
100
AcDbEntity
  8
0
100
AcDbBlockEnd
  0
BLOCK
  5
CB
330
CA
100
AcDbEntity
  8
0
100
AcDbBlockBegin
  2
*D28
 70
     1
 10
0.0
 20
0.0
 30
0.0
  3
*D28
  1

  0
LINE
  5
17E
330
CA
100
AcDbEntity
  8
0
  6
Continuous
 62
     9
370
    13
100
AcDbLine
 10
-350.791666666667
 20
-173.8207326258964
 30
0.0
 11
-58.79166666666697
 21
-173.8207326258964
 31
0.0
  0
INSERT
  5
17F
330
CA
100
AcDbEntity
  8
0
 62
     9
100
AcDbBlockReference
  2
_OPEN30
 10
-350.791666666667
 20
-173.8207326258964
 30
0.0
 41
15.00001403807643
 42
14.99994684111822
 50
180.0
  0
INSERT
  5
180
330
CA
100
AcDbEntity
  8
0
 62
     9
100
AcDbBlockReference
  2
_OPEN30
 10
-58.79166666666697
 20
-173.8207326258964
 30
0.0
 41
15.00001403807643
 42
14.99994684111822
 50
360.0
  0
LINE
  5
181
330
CA
100
AcDbEntity
  8
0
  6
Continuous
 62
     9
370
    13
100
AcDbLine
 10
-350.791666666667
 20
-54.82073262588813
 30
0.0
 11
-350.791666666667
 21
-178.8207326258964
 31
0.0
  0
LINE
  5
182
330
CA
100
AcDbEntity
  8
0
  6
Continuous
 62
     9
370
    13
100
AcDbLine
 10
-58.79166666666697
 20
-54.82073262588813
 30
0.0
 11
-58.79166666666697
 21
-178.8207326258964
 31
0.0
  0
MTEXT
  5
183
330
CA
100
AcDbEntity
  8
0
 62
     7
100
AcDbMText
 10
-204.791666666667
 20
-168.8207326258964
 30
0.0
 40
20.0
 41
205.0
 71
     8
 72
     1
  1
\T1.00;推奨開口寸法292
  7
dcStyle0
 73
     1
 44
1.0
  0
ENDBLK
  5
CC
330
CA
100
AcDbEntity
  8
0
100
AcDbBlockEnd
  0
BLOCK
  5
CE
330
CD
100
AcDbEntity
  8
0
100
AcDbBlockBegin
  2
*D29
 70
     1
 10
0.0
 20
0.0
 30
0.0
  3
*D29
  1

  0
LINE
  5
184
330
CD
100
AcDbEntity
  8
0
  6
Continuous
 62
     9
370
    13
100
AcDbLine
 10
78.16166574659331
 20
-173.8207326258964
 30
0.0
 11
290.1616657465933
 21
-173.8207326258964
 31
0.0
  0
INSERT
  5
185
330
CD
100
AcDbEntity
  8
0
 62
     9
100
AcDbBlockReference
  2
_OPEN30
 10
78.16166574659331
 20
-173.8207326258964
 30
0.0
 41
15.00001403807643
 42
14.99994684111822
 50
180.0
  0
INSERT
  5
186
330
CD
100
AcDbEntity
  8
0
 62
     9
100
AcDbBlockReference
  2
_OPEN30
 10
290.1616657465933
 20
-173.8207326258964
 30
0.0
 41
15.00001403807643
 42
14.99994684111822
 50
360.0
  0
LINE
  5
187
330
CD
100
AcDbEntity
  8
0
  6
Continuous
 62
     9
370
    13
100
AcDbLine
 10
78.16166574659331
 20
-54.82073262590279
 30
0.0
 11
78.16166574659331
 21
-178.8207326258964
 31
0.0
  0
LINE
  5
188
330
CD
100
AcDbEntity
  8
0
  6
Continuous
 62
     9
370
    13
100
AcDbLine
 10
290.1616657465933
 20
-54.82073262590279
 30
0.0
 11
290.1616657465933
 21
-178.8207326258964
 31
0.0
  0
MTEXT
  5
189
330
CD
100
AcDbEntity
  8
0
 62
     7
100
AcDbMText
 10
184.1616657465933
 20
-168.8207326258964
 30
0.0
 40
20.0
 41
205.0
 71
     8
 72
     1
  1
\T1.00;推奨開口寸法212
  7
dcStyle0
 73
     1
 44
1.0
  0
ENDBLK
  5
CF
330
CD
100
AcDbEntity
  8
0
100
AcDbBlockEnd
  0
BLOCK
  5
D2
330
D1
100
AcDbEntity
  8
0
100
AcDbBlockBegin
  2
_OPEN30
 70
     0
 10
0.0
 20
0.0
 30
0.0
  3
_OPEN30
  1

  0
LINE
  5
D4
330
D1
100
AcDbEntity
  8
0
  6
ByBlock
 62
     0
370
    -2
100
AcDbLine
 10
-1.0
 20
0.267949
 30
0.0
 11
0.0
 21
0.0
 31
0.0
  0
LINE
  5
D5
330
D1
100
AcDbEntity
  8
0
  6
ByBlock
 62
     0
370
    -2
100
AcDbLine
 10
0.0
 20
0.0
 30
0.0
 11
-1.0
 21
-0.267949
 31
0.0
  0
LINE
  5
D6
330
D1
100
AcDbEntity
  8
0
  6
ByBlock
 62
     0
370
    -2
100
AcDbLine
 10
0.0
 20
0.0
 30
0.0
 11
-1.0
 21
0.0
 31
0.0
  0
ENDBLK
  5
D3
330
D1
100
AcDbEntity
  8
0
100
AcDbBlockEnd
  0
ENDSEC
  0
SECTION
  2
ENTITIES
  0
LINE
  5
18A
330
1F
100
AcDbEntity
  8
ZUWAKU
  6
Continuous
 62
    30
370
    25
100
AcDbLine
 10
-284.8541666666671
 20
-691.1235498019246
 30
0.0
 11
-282.0416666666671
 21
-683.3110498019246
 31
0.0
  0
LINE
  5
18B
330
1F
100
AcDbEntity
  8
ZUWAKU
  6
Continuous
 62
    30
370
    25
100
AcDbLine
 10
-305.6666666666671
 20
-691.1235498019246
 30
0.0
 11
-301.2916666666671
 21
-679.2485498019246
 31
0.0
  0
LINE
  5
18C
330
1F
100
AcDbEntity
  8
ZUWAKU
  6
Continuous
 62
    30
370
    25
100
AcDbLine
 10
-309.7291666666671
 20
-674.8735498019246
 30
0.0
 11
-311.2916666666671
 21
-679.2485498019246
 31
0.0
  0
LINE
  5
18D
330
1F
100
AcDbEntity
  8
ZUWAKU
  6
Continuous
 62
    30
370
    25
100
AcDbLine
 10
-295.3541666666671
 20
-691.1235498019246
 30
0.0
 11
-290.6666666666671
 21
-677.3735498019246
 31
0.0
  0
LINE
  5
18E
330
1F
100
AcDbEntity
  8
ZUWAKU
  6
Continuous
 62
    30
370
    25
100
AcDbLine
 10
-229.791666666667
 20
-691.1235498019246
 30
0.0
 11
-235.104166666667
 21
-682.3735498019246
 31
0.0
  0
LINE
  5
18F
330
1F
100
AcDbEntity
  8
ZUWAKU
  6
Continuous
 62
    30
370
    25
100
AcDbLine
 10
-309.7291666666671
 20
-674.8735498019246
 30
0.0
 11
-303.7916666666671
 21
-674.8735498019246
 31
0.0
  0
LINE
  5
190
330
1F
100
AcDbEntity
  8
ZUWAKU
  6
Continuous
 62
    30
370
    25
100
AcDbLine
 10
-277.9791666666671
 20
-672.0610498019246
 30
0.0
 11
-267.6666666666671
 21
-672.0610498019246
 31
0.0
  0
LINE
  5
191
330
1F
100
AcDbEntity
  8
ZUWAKU
  6
Continuous
 62
    30
370
    25
100
AcDbLine
 10
-255.7916666666671
 20
-671.1235498019246
 30
0.0
 11
-252.6666666666671
 21
-671.1235498019246
 31
0.0
  0
LINE
  5
192
330
1F
100
AcDbEntity
  8
ZUWAKU
  6
Continuous
 62
    30
370
    25
100
AcDbLine
 10
-275.7916666666671
 20
-666.4360498019246
 30
0.0
 11
-277.9791666666671
 21
-672.0610498019246
 31
0.0
  0
LINE
  5
193
330
1F
100
AcDbEntity
  8
ZUWAKU
  6
Continuous
 62
    30
370
    25
100
AcDbLine
 10
-265.7916666666671
 20
-666.4360498019246
 30
0.0
 11
-267.6666666666671
 21
-672.0610498019246
 31
0.0
  0
LINE
  5
194
330
1F
100
AcDbEntity
  8
ZUWAKU
  6
Continuous
 62
    30
370
    25
100
AcDbLine
 10
-305.6666666666671
 20
-691.1235498019246
 30
0.0
 11
-295.3541666666671
 21
-691.1235498019246
 31
0.0
  0
LINE
  5
195
330
1F
100
AcDbEntity
  8
ZUWAKU
  6
Continuous
 62
    30
370
    25
100
AcDbLine
 10
-289.7291666666671
 20
-666.4360498019246
 30
0.0
 11
-278.1666666666671
 21
-666.4360498019246
 31
0.0
  0
LINE
  5
196
330
1F
100
AcDbEntity
  8
ZUWAKU
  6
Continuous
 62
    30
370
    25
100
AcDbLine
 10
-238.7545384636893
 20
-672.0610498019246
 30
0.0
 11
-249.7916666666671
 21
-672.0610498019246
 31
0.0
  0
LINE
  5
197
330
1F
100
AcDbEntity
  8
ZUWAKU
  6
Continuous
 62
    30
370
    25
100
AcDbLine
 10
-226.666666666667
 20
-666.4360498019246
 30
0.0
 11
-247.9166666666671
 21
-666.4360498019246
 31
0.0
  0
LINE
  5
198
330
1F
100
AcDbEntity
  8
ZUWAKU
  6
Continuous
 62
    30
370
    25
100
AcDbLine
 10
-311.2916666666671
 20
-679.2485498019246
 30
0.0
 11
-301.2916666666671
 21
-679.2485498019246
 31
0.0
  0
LINE
  5
199
330
1F
100
AcDbEntity
  8
ZUWAKU
  6
Continuous
 62
    30
370
    25
100
AcDbLine
 10
-284.8541666666671
 20
-691.1235498019246
 30
0.0
 11
-268.2916666666671
 21
-691.1235498019246
 31
0.0
  0
LINE
  5
19A
330
1F
100
AcDbEntity
  8
ZUWAKU
  6
Continuous
 62
    30
370
    25
100
AcDbLine
 10
-282.0416666666671
 20
-683.3110498019246
 30
0.0
 11
-267.0416666666671
 21
-683.3110498019246
 31
0.0
  0
LINE
  5
19B
330
1F
100
AcDbEntity
  8
ZUWAKU
  6
Continuous
 62
    30
370
    25
100
AcDbLine
 10
-229.791666666667
 20
-691.1235498019246
 30
0.0
 11
-237.6041666666671
 21
-691.1235498019246
 31
0.0
  0
LINE
  5
19C
330
1F
100
AcDbEntity
  8
ZUWAKU
  6
Continuous
 62
    30
370
    25
100
AcDbLine
 10
-249.7916666666671
 20
-672.0610498019246
 30
0.0
 11
-247.9166666666671
 21
-666.4360498019246
 31
0.0
  0
LINE
  5
19D
330
1F
100
AcDbEntity
  8
ZUWAKU
  6
Continuous
 62
    30
370
    25
100
AcDbLine
 10
-358.4791666666671
 20
-666.4360498019246
 30
0.0
 11
-363.7916666666671
 21
-681.4360498019246
 31
0.0
  0
LINE
  5
19E
330
1F
100
AcDbEntity
  8
ZUWAKU
  6
Continuous
 62
    30
370
    25
100
AcDbLine
 10
-363.7916666666671
 20
-681.4360498019246
 30
0.0
 11
-356.6041666666671
 21
-681.4360498019246
 31
0.0
  0
LINE
  5
19F
330
1F
100
AcDbEntity
  8
ZUWAKU
  6
Continuous
 62
    30
370
    25
100
AcDbLine
 10
-356.6041666666671
 20
-681.4360498019246
 30
0.0
 11
-350.9791666666671
 21
-666.4360498019246
 31
0.0
  0
LINE
  5
1A0
330
1F
100
AcDbEntity
  8
ZUWAKU
  6
Continuous
 62
    30
370
    25
100
AcDbLine
 10
-350.9791666666671
 20
-666.4360498019246
 30
0.0
 11
-358.4791666666671
 21
-666.4360498019246
 31
0.0
  0
LINE
  5
1A1
330
1F
100
AcDbEntity
  8
ZUWAKU
  6
Continuous
 62
    30
370
    25
100
AcDbLine
 10
-263.2916666666671
 20
-681.4360498019246
 30
0.0
 11
-259.8541666666671
 21
-678.6235498019246
 31
0.0
  0
LINE
  5
1A2
330
1F
100
AcDbEntity
  8
ZUWAKU
  6
Continuous
 62
    30
370
    25
100
AcDbLine
 10
-259.8541666666671
 20
-678.6235498019246
 30
0.0
 11
-257.3541666666671
 21
-675.1860498019246
 31
0.0
  0
LINE
  5
1A3
330
1F
100
AcDbEntity
  8
ZUWAKU
  6
Continuous
 62
    30
370
    25
100
AcDbLine
 10
-257.3541666666671
 20
-675.1860498019246
 30
0.0
 11
-255.7916666666671
 21
-671.1235498019246
 31
0.0
  0
LINE
  5
1A4
330
1F
100
AcDbEntity
  8
ZUWAKU
  6
Continuous
 62
    30
370
    25
100
AcDbLine
 10
-332.791666666667
 20
-666.4360498019246
 30
0.0
 11
-309.9791666666671
 21
-666.4360498019246
 31
0.0
  0
LINE
  5
1A5
330
1F
100
AcDbEntity
  8
ZUWAKU
  6
Continuous
 62
    30
370
    25
100
AcDbLine
 10
-309.9791666666671
 20
-666.4360498019246
 30
0.0
 11
-311.8541666666671
 21
-672.0610498019246
 31
0.0
  0
LINE
  5
1A6
330
1F
100
AcDbEntity
  8
ZUWAKU
  6
Continuous
 62
    30
370
    25
100
AcDbLine
 10
-309.9791666666671
 20
-666.4360498019246
 30
0.0
 11
-311.8541666666671
 21
-672.0610498019246
 31
0.0
  0
LINE
  5
1A7
330
1F
100
AcDbEntity
  8
ZUWAKU
  6
Continuous
 62
    30
370
    25
100
AcDbLine
 10
-311.8541666666671
 20
-672.0610498019246
 30
0.0
 11
-334.666666666667
 21
-672.0610498019246
 31
0.0
  0
LINE
  5
1A8
330
1F
100
AcDbEntity
  8
ZUWAKU
  6
Continuous
 62
    30
370
    25
100
AcDbLine
 10
-334.666666666667
 20
-672.0610498019246
 30
0.0
 11
-332.791666666667
 21
-666.4360498019246
 31
0.0
  0
LINE
  5
1A9
330
1F
100
AcDbEntity
  8
ZUWAKU
  6
Continuous
 62
    30
370
    25
100
AcDbLine
 10
-334.666666666667
 20
-672.0610498019246
 30
0.0
 11
-332.791666666667
 21
-666.4360498019246
 31
0.0
  0
LINE
  5
1AA
330
1F
100
AcDbEntity
  8
ZUWAKU
  6
Continuous
 62
    30
370
    25
100
AcDbLine
 10
-309.9791666666671
 20
-666.4360498019246
 30
0.0
 11
-332.791666666667
 21
-666.4360498019246
 31
0.0
  0
LINE
  5
1AB
330
1F
100
AcDbEntity
  8
ZUWAKU
  6
Continuous
 62
    30
370
    25
100
AcDbLine
 10
-332.791666666667
 20
-666.4360498019246
 30
0.0
 11
-334.666666666667
 21
-672.0610498019246
 31
0.0
  0
LINE
  5
1AC
330
1F
100
AcDbEntity
  8
ZUWAKU
  6
Continuous
 62
    30
370
    25
100
AcDbLine
 10
-334.666666666667
 20
-672.0610498019246
 30
0.0
 11
-311.8541666666671
 21
-672.0610498019246
 31
0.0
  0
LINE
  5
1AD
330
1F
100
AcDbEntity
  8
ZUWAKU
  6
Continuous
 62
    30
370
    25
100
AcDbLine
 10
-323.104166666667
 20
-690.4985498019246
 30
0.0
 11
-320.604166666667
 21
-689.2485498019246
 31
0.0
  0
LINE
  5
1AE
330
1F
100
AcDbEntity
  8
ZUWAKU
  6
Continuous
 62
    30
370
    25
100
AcDbLine
 10
-320.604166666667
 20
-689.2485498019246
 30
0.0
 11
-318.7291666666671
 21
-687.3735498019246
 31
0.0
  0
LINE
  5
1AF
330
1F
100
AcDbEntity
  8
ZUWAKU
  6
Continuous
 62
    30
370
    25
100
AcDbLine
 10
-318.7291666666671
 20
-687.3735498019246
 30
0.0
 11
-316.5416666666671
 21
-685.1860498019246
 31
0.0
  0
LINE
  5
1B0
330
1F
100
AcDbEntity
  8
ZUWAKU
  6
Continuous
 62
    30
370
    25
100
AcDbLine
 10
-316.5416666666671
 20
-685.1860498019246
 30
0.0
 11
-312.7916666666671
 21
-674.8735498019246
 31
0.0
  0
LINE
  5
1B1
330
1F
100
AcDbEntity
  8
ZUWAKU
  6
Continuous
 62
    30
370
    25
100
AcDbLine
 10
-312.7916666666671
 20
-674.8735498019246
 30
0.0
 11
-335.291666666667
 21
-674.8735498019246
 31
0.0
  0
LINE
  5
1B2
330
1F
100
AcDbEntity
  8
ZUWAKU
  6
Continuous
 62
    30
370
    25
100
AcDbLine
 10
-335.291666666667
 20
-674.8735498019246
 30
0.0
 11
-336.541666666667
 21
-679.2485498019246
 31
0.0
  0
LINE
  5
1B3
330
1F
100
AcDbEntity
  8
ZUWAKU
  6
Continuous
 62
    30
370
    25
100
AcDbLine
 10
-336.541666666667
 20
-679.2485498019246
 30
0.0
 11
-323.416666666667
 21
-679.2485498019246
 31
0.0
  0
LINE
  5
1B4
330
1F
100
AcDbEntity
  8
ZUWAKU
  6
Continuous
 62
    30
370
    25
100
AcDbLine
 10
-323.416666666667
 20
-679.2485498019246
 30
0.0
 11
-324.041666666667
 21
-681.4360498019246
 31
0.0
  0
LINE
  5
1B5
330
1F
100
AcDbEntity
  8
ZUWAKU
  6
Continuous
 62
    30
370
    25
100
AcDbLine
 10
-324.041666666667
 20
-681.4360498019246
 30
0.0
 11
-325.604166666667
 21
-683.3110498019246
 31
0.0
  0
LINE
  5
1B6
330
1F
100
AcDbEntity
  8
ZUWAKU
  6
Continuous
 62
    30
370
    25
100
AcDbLine
 10
-325.604166666667
 20
-683.3110498019246
 30
0.0
 11
-327.166666666667
 21
-684.8735498019246
 31
0.0
  0
LINE
  5
1B7
330
1F
100
AcDbEntity
  8
ZUWAKU
  6
Continuous
 62
    30
370
    25
100
AcDbLine
 10
-327.166666666667
 20
-684.8735498019246
 30
0.0
 11
-329.354166666667
 21
-686.4360498019246
 31
0.0
  0
LINE
  5
1B8
330
1F
100
AcDbEntity
  8
ZUWAKU
  6
Continuous
 62
    30
370
    25
100
AcDbLine
 10
-329.354166666667
 20
-686.4360498019246
 30
0.0
 11
-339.666666666667
 21
-686.4360498019246
 31
0.0
  0
LINE
  5
1B9
330
1F
100
AcDbEntity
  8
ZUWAKU
  6
Continuous
 62
    30
370
    25
100
AcDbLine
 10
-339.666666666667
 20
-686.4360498019246
 30
0.0
 11
-341.541666666667
 21
-691.1235498019246
 31
0.0
  0
LINE
  5
1BA
330
1F
100
AcDbEntity
  8
ZUWAKU
  6
Continuous
 62
    30
370
    25
100
AcDbLine
 10
-361.6041666666671
 20
-691.1235498019246
 30
0.0
 11
-360.0416666666671
 21
-686.4360498019246
 31
0.0
  0
LINE
  5
1BB
330
1F
100
AcDbEntity
  8
ZUWAKU
  6
Continuous
 62
    30
370
    25
100
AcDbLine
 10
-360.0416666666671
 20
-686.4360498019246
 30
0.0
 11
-357.2291666666671
 21
-686.4360498019246
 31
0.0
  0
LINE
  5
1BC
330
1F
100
AcDbEntity
  8
ZUWAKU
  6
Continuous
 62
    30
370
    25
100
AcDbLine
 10
-357.2291666666671
 20
-686.4360498019246
 30
0.0
 11
-354.7291666666671
 21
-686.1235498019246
 31
0.0
  0
LINE
  5
1BD
330
1F
100
AcDbEntity
  8
ZUWAKU
  6
Continuous
 62
    30
370
    25
100
AcDbLine
 10
-354.7291666666671
 20
-686.1235498019246
 30
0.0
 11
-352.2291666666671
 21
-684.8735498019246
 31
0.0
  0
LINE
  5
1BE
330
1F
100
AcDbEntity
  8
ZUWAKU
  6
Continuous
 62
    30
370
    25
100
AcDbLine
 10
-352.2291666666671
 20
-684.8735498019246
 30
0.0
 11
-350.6666666666671
 21
-682.3735498019246
 31
0.0
  0
LINE
  5
1BF
330
1F
100
AcDbEntity
  8
ZUWAKU
  6
Continuous
 62
    30
370
    25
100
AcDbLine
 10
-350.6666666666671
 20
-682.3735498019246
 30
0.0
 11
-344.7291666666671
 21
-666.4360498019246
 31
0.0
  0
LINE
  5
1C0
330
1F
100
AcDbEntity
  8
ZUWAKU
  6
Continuous
 62
    30
370
    25
100
AcDbLine
 10
-344.7291666666671
 20
-666.4360498019246
 30
0.0
 11
-336.2916666666671
 21
-666.4360498019246
 31
0.0
  0
LINE
  5
1C1
330
1F
100
AcDbEntity
  8
ZUWAKU
  6
Continuous
 62
    30
370
    25
100
AcDbLine
 10
-336.2916666666671
 20
-666.4360498019246
 30
0.0
 11
-342.5416666666671
 21
-684.8735498019246
 31
0.0
  0
LINE
  5
1C2
330
1F
100
AcDbEntity
  8
ZUWAKU
  6
Continuous
 62
    30
370
    25
100
AcDbLine
 10
-342.5416666666671
 20
-684.8735498019246
 30
0.0
 11
-345.0416666666671
 21
-687.3735498019246
 31
0.0
  0
LINE
  5
1C3
330
1F
100
AcDbEntity
  8
ZUWAKU
  6
Continuous
 62
    30
370
    25
100
AcDbLine
 10
-345.0416666666671
 20
-687.3735498019246
 30
0.0
 11
-347.5416666666671
 21
-689.5610498019246
 31
0.0
  0
LINE
  5
1C4
330
1F
100
AcDbEntity
  8
ZUWAKU
  6
Continuous
 62
    30
370
    25
100
AcDbLine
 10
-347.5416666666671
 20
-689.5610498019246
 30
0.0
 11
-350.6666666666671
 21
-690.8110498019246
 31
0.0
  0
LINE
  5
1C5
330
1F
100
AcDbEntity
  8
ZUWAKU
  6
Continuous
 62
    30
370
    25
100
AcDbLine
 10
-278.1666666666671
 20
-666.4360498019246
 30
0.0
 11
-280.0416666666671
 21
-670.4985498019246
 31
0.0
  0
LINE
  5
1C6
330
1F
100
AcDbEntity
  8
ZUWAKU
  6
Continuous
 62
    30
370
    25
100
AcDbLine
 10
-280.0416666666671
 20
-670.4985498019246
 30
0.0
 11
-283.1666666666671
 21
-673.6235498019246
 31
0.0
  0
LINE
  5
1C7
330
1F
100
AcDbEntity
  8
ZUWAKU
  6
Continuous
 62
    30
370
    25
100
AcDbLine
 10
-280.0416666666671
 20
-670.4985498019246
 30
0.0
 11
-283.1666666666671
 21
-673.6235498019246
 31
0.0
  0
LINE
  5
1C8
330
1F
100
AcDbEntity
  8
ZUWAKU
  6
Continuous
 62
    30
370
    25
100
AcDbLine
 10
-283.1666666666671
 20
-673.6235498019246
 30
0.0
 11
-286.6041666666671
 21
-676.1235498019246
 31
0.0
  0
LINE
  5
1C9
330
1F
100
AcDbEntity
  8
ZUWAKU
  6
Continuous
 62
    30
370
    25
100
AcDbLine
 10
-286.6041666666671
 20
-676.1235498019246
 30
0.0
 11
-290.6666666666671
 21
-677.3735498019246
 31
0.0
  0
LINE
  5
1CA
330
1F
100
AcDbEntity
  8
ZUWAKU
  6
Continuous
 62
    30
370
    25
100
AcDbLine
 10
-286.6041666666671
 20
-676.1235498019246
 30
0.0
 11
-290.6666666666671
 21
-677.3735498019246
 31
0.0
  0
LINE
  5
1CB
330
1F
100
AcDbEntity
  8
ZUWAKU
  6
Continuous
 62
    30
370
    25
100
AcDbLine
 10
-290.6666666666671
 20
-677.3735498019246
 30
0.0
 11
-295.3541666666671
 21
-691.1235498019246
 31
0.0
  0
LINE
  5
1CC
330
1F
100
AcDbEntity
  8
ZUWAKU
  6
Continuous
 62
    30
370
    25
100
AcDbLine
 10
-295.3541666666671
 20
-691.1235498019246
 30
0.0
 11
-305.6666666666671
 21
-691.1235498019246
 31
0.0
  0
LINE
  5
1CD
330
1F
100
AcDbEntity
  8
ZUWAKU
  6
Continuous
 62
    30
370
    25
100
AcDbLine
 10
-295.3541666666671
 20
-691.1235498019246
 30
0.0
 11
-305.6666666666671
 21
-691.1235498019246
 31
0.0
  0
LINE
  5
1CE
330
1F
100
AcDbEntity
  8
ZUWAKU
  6
Continuous
 62
    30
370
    25
100
AcDbLine
 10
-301.7916666666671
 20
-679.2485498019246
 30
0.0
 11
-311.2916666666671
 21
-679.2485498019246
 31
0.0
  0
LINE
  5
1CF
330
1F
100
AcDbEntity
  8
ZUWAKU
  6
Continuous
 62
    30
370
    25
100
AcDbLine
 10
-311.2916666666671
 20
-679.2485498019246
 30
0.0
 11
-309.7291666666671
 21
-674.8735498019246
 31
0.0
  0
LINE
  5
1D0
330
1F
100
AcDbEntity
  8
ZUWAKU
  6
Continuous
 62
    30
370
    25
100
AcDbLine
 10
-305.6666666666671
 20
-691.1235498019246
 30
0.0
 11
-301.2916666666671
 21
-679.2485498019246
 31
0.0
  0
LINE
  5
1D1
330
1F
100
AcDbEntity
  8
ZUWAKU
  6
Continuous
 62
    30
370
    25
100
AcDbLine
 10
-305.6666666666671
 20
-691.1235498019246
 30
0.0
 11
-301.2916666666671
 21
-679.2485498019246
 31
0.0
  0
LINE
  5
1D2
330
1F
100
AcDbEntity
  8
ZUWAKU
  6
Continuous
 62
    30
370
    25
100
AcDbLine
 10
-309.7291666666671
 20
-674.8735498019246
 30
0.0
 11
-303.7916666666671
 21
-674.8735498019246
 31
0.0
  0
LINE
  5
1D3
330
1F
100
AcDbEntity
  8
ZUWAKU
  6
Continuous
 62
    30
370
    25
100
AcDbLine
 10
-309.7291666666671
 20
-674.8735498019246
 30
0.0
 11
-303.7916666666671
 21
-674.8735498019246
 31
0.0
  0
LINE
  5
1D4
330
1F
100
AcDbEntity
  8
ZUWAKU
  6
Continuous
 62
    30
370
    25
100
AcDbLine
 10
-303.7916666666671
 20
-674.8735498019246
 30
0.0
 11
-299.7291666666671
 21
-674.5610498019246
 31
0.0
  0
LINE
  5
1D5
330
1F
100
AcDbEntity
  8
ZUWAKU
  6
Continuous
 62
    30
370
    25
100
AcDbLine
 10
-303.7916666666671
 20
-674.8735498019246
 30
0.0
 11
-299.7291666666671
 21
-674.5610498019246
 31
0.0
  0
LINE
  5
1D6
330
1F
100
AcDbEntity
  8
ZUWAKU
  6
Continuous
 62
    30
370
    25
100
AcDbLine
 10
-299.7291666666671
 20
-674.5610498019246
 30
0.0
 11
-295.3541666666671
 21
-672.6860498019246
 31
0.0
  0
LINE
  5
1D7
330
1F
100
AcDbEntity
  8
ZUWAKU
  6
Continuous
 62
    30
370
    25
100
AcDbLine
 10
-299.7291666666671
 20
-674.5610498019246
 30
0.0
 11
-295.3541666666671
 21
-672.6860498019246
 31
0.0
  0
LINE
  5
1D8
330
1F
100
AcDbEntity
  8
ZUWAKU
  6
Continuous
 62
    30
370
    25
100
AcDbLine
 10
-295.3541666666671
 20
-672.6860498019246
 30
0.0
 11
-292.2291666666671
 21
-669.8735498019246
 31
0.0
  0
LINE
  5
1D9
330
1F
100
AcDbEntity
  8
ZUWAKU
  6
Continuous
 62
    30
370
    25
100
AcDbLine
 10
-295.3541666666671
 20
-672.6860498019246
 30
0.0
 11
-292.2291666666671
 21
-669.8735498019246
 31
0.0
  0
LINE
  5
1DA
330
1F
100
AcDbEntity
  8
ZUWAKU
  6
Continuous
 62
    30
370
    25
100
AcDbLine
 10
-350.9791666666671
 20
-666.4360498019246
 30
0.0
 11
-356.6041666666671
 21
-681.4360498019246
 31
0.0
  0
LINE
  5
1DB
330
1F
100
AcDbEntity
  8
ZUWAKU
  6
Continuous
 62
    30
370
    25
100
AcDbLine
 10
-356.6041666666671
 20
-681.4360498019246
 30
0.0
 11
-363.7916666666671
 21
-681.4360498019246
 31
0.0
  0
LINE
  5
1DC
330
1F
100
AcDbEntity
  8
ZUWAKU
  6
Continuous
 62
    30
370
    25
100
AcDbLine
 10
-356.6041666666671
 20
-681.4360498019246
 30
0.0
 11
-363.7916666666671
 21
-681.4360498019246
 31
0.0
  0
LINE
  5
1DD
330
1F
100
AcDbEntity
  8
ZUWAKU
  6
Continuous
 62
    30
370
    25
100
AcDbLine
 10
-363.7916666666671
 20
-681.4360498019246
 30
0.0
 11
-358.4791666666671
 21
-666.4360498019246
 31
0.0
  0
LINE
  5
1DE
330
1F
100
AcDbEntity
  8
ZUWAKU
  6
Continuous
 62
    30
370
    25
100
AcDbLine
 10
-358.4791666666671
 20
-666.4360498019246
 30
0.0
 11
-350.9791666666671
 21
-666.4360498019246
 31
0.0
  0
LINE
  5
1DF
330
1F
100
AcDbEntity
  8
ZUWAKU
  6
Continuous
 62
    30
370
    25
100
AcDbLine
 10
-358.4791666666671
 20
-666.4360498019246
 30
0.0
 11
-350.9791666666671
 21
-666.4360498019246
 31
0.0
  0
LINE
  5
1E0
330
1F
100
AcDbEntity
  8
ZUWAKU
  6
Continuous
 62
    30
370
    25
100
AcDbLine
 10
-247.9166666666671
 20
-666.4360498019246
 30
0.0
 11
-249.7916666666671
 21
-672.0610498019246
 31
0.0
  0
LINE
  5
1E1
330
1F
100
AcDbEntity
  8
ZUWAKU
  6
Continuous
 62
    30
370
    25
100
AcDbLine
 10
-249.7916666666671
 20
-672.0610498019246
 30
0.0
 11
-239.7916666666671
 21
-672.0610498019246
 31
0.0
  0
LINE
  5
1E2
330
1F
100
AcDbEntity
  8
ZUWAKU
  6
Continuous
 62
    30
370
    25
100
AcDbLine
 10
-249.7916666666671
 20
-672.0610498019246
 30
0.0
 11
-239.7916666666671
 21
-672.0610498019246
 31
0.0
  0
LINE
  5
1E3
330
1F
100
AcDbEntity
  8
ZUWAKU
  6
Continuous
 62
    30
370
    25
100
AcDbLine
 10
-256.6666666666671
 20
-686.1235498019246
 30
0.0
 11
-258.5416666666671
 21
-691.4360498019246
 31
0.0
  0
LINE
  5
1E4
330
1F
100
AcDbEntity
  8
ZUWAKU
  6
Continuous
 62
    30
370
    25
100
AcDbLine
 10
-256.6666666666671
 20
-686.1235498019246
 30
0.0
 11
-258.5416666666671
 21
-691.4360498019246
 31
0.0
  0
LINE
  5
1E5
330
1F
100
AcDbEntity
  8
ZUWAKU
  6
Continuous
 62
    30
370
    25
100
AcDbLine
 10
-258.5416666666671
 20
-691.4360498019246
 30
0.0
 11
-249.1666666666671
 21
-689.8735498019246
 31
0.0
  0
LINE
  5
1E6
330
1F
100
AcDbEntity
  8
ZUWAKU
  6
Continuous
 62
    30
370
    25
100
AcDbLine
 10
-249.1666666666671
 20
-689.8735498019246
 30
0.0
 11
-244.7916666666671
 21
-688.6235498019246
 31
0.0
  0
LINE
  5
1E7
330
1F
100
AcDbEntity
  8
ZUWAKU
  6
Continuous
 62
    30
370
    25
100
AcDbLine
 10
-249.1666666666671
 20
-689.8735498019246
 30
0.0
 11
-244.7916666666671
 21
-688.6235498019246
 31
0.0
  0
LINE
  5
1E8
330
1F
100
AcDbEntity
  8
ZUWAKU
  6
Continuous
 62
    30
370
    25
100
AcDbLine
 10
-240.1041666666671
 20
-687.0610498019246
 30
0.0
 11
-237.6041666666671
 21
-691.1235498019246
 31
0.0
  0
LINE
  5
1E9
330
1F
100
AcDbEntity
  8
ZUWAKU
  6
Continuous
 62
    30
370
    25
100
AcDbLine
 10
-237.6041666666671
 20
-691.1235498019246
 30
0.0
 11
-229.791666666667
 21
-691.1235498019246
 31
0.0
  0
LINE
  5
1EA
330
1F
100
AcDbEntity
  8
ZUWAKU
  6
Continuous
 62
    30
370
    25
100
AcDbLine
 10
-237.6041666666671
 20
-691.1235498019246
 30
0.0
 11
-229.791666666667
 21
-691.1235498019246
 31
0.0
  0
LINE
  5
1EB
330
1F
100
AcDbEntity
  8
ZUWAKU
  6
Continuous
 62
    30
370
    25
100
AcDbLine
 10
-235.104166666667
 20
-682.3735498019246
 30
0.0
 11
-232.291666666667
 21
-678.6235498019246
 31
0.0
  0
LINE
  5
1EC
330
1F
100
AcDbEntity
  8
ZUWAKU
  6
Continuous
 62
    30
370
    25
100
AcDbLine
 10
-232.291666666667
 20
-678.6235498019246
 30
0.0
 11
-229.791666666667
 21
-674.8735498019246
 31
0.0
  0
LINE
  5
1ED
330
1F
100
AcDbEntity
  8
ZUWAKU
  6
Continuous
 62
    30
370
    25
100
AcDbLine
 10
-229.791666666667
 20
-674.8735498019246
 30
0.0
 11
-227.916666666667
 21
-670.8110498019246
 31
0.0
  0
LINE
  5
1EE
330
1F
100
AcDbEntity
  8
ZUWAKU
  6
Continuous
 62
    30
370
    25
100
AcDbLine
 10
-227.916666666667
 20
-670.8110498019246
 30
0.0
 11
-226.666666666667
 21
-666.4360498019246
 31
0.0
  0
LINE
  5
1EF
330
1F
100
AcDbEntity
  8
ZUWAKU
  6
Continuous
 62
    30
370
    25
100
AcDbLine
 10
-227.916666666667
 20
-670.8110498019246
 30
0.0
 11
-226.666666666667
 21
-666.4360498019246
 31
0.0
  0
LINE
  5
1F0
330
1F
100
AcDbEntity
  8
ZUWAKU
  6
Continuous
 62
    30
370
    25
100
AcDbLine
 10
-226.666666666667
 20
-666.4360498019246
 30
0.0
 11
-247.9166666666671
 21
-666.4360498019246
 31
0.0
  0
LINE
  5
1F1
330
1F
100
AcDbEntity
  8
ZUWAKU
  6
Continuous
 62
    30
370
    25
100
AcDbLine
 10
-245.7291666666671
 20
-682.0610498019246
 30
0.0
 11
-250.7291666666671
 21
-684.8735498019246
 31
0.0
  0
LINE
  5
1F2
330
1F
100
AcDbEntity
  8
ZUWAKU
  6
Continuous
 62
    30
370
    25
100
AcDbLine
 10
-244.7916666666671
 20
-688.6235498019246
 30
0.0
 11
-240.1041666666671
 21
-687.0610498019246
 31
0.0
  0
LINE
  5
1F3
330
1F
100
AcDbEntity
  8
ZUWAKU
  6
Continuous
 62
    30
370
    25
100
AcDbLine
 10
-244.7916666666671
 20
-688.6235498019246
 30
0.0
 11
-240.1041666666671
 21
-687.0610498019246
 31
0.0
  0
LINE
  5
1F4
330
1F
100
AcDbEntity
  8
ZUWAKU
  6
Continuous
 62
    30
370
    25
100
AcDbLine
 10
-229.791666666667
 20
-691.1235498019246
 30
0.0
 11
-235.104166666667
 21
-682.3735498019246
 31
0.0
  0
LINE
  5
1F5
330
1F
100
AcDbEntity
  8
ZUWAKU
  6
Continuous
 62
    30
370
    25
100
AcDbLine
 10
-229.791666666667
 20
-691.1235498019246
 30
0.0
 11
-235.104166666667
 21
-682.3735498019246
 31
0.0
  0
LINE
  5
1F6
330
1F
100
AcDbEntity
  8
ZUWAKU
  6
Continuous
 62
    30
370
    25
100
AcDbLine
 10
-241.6666666666671
 20
-677.3735498019246
 30
0.0
 11
-245.7291666666671
 21
-682.0610498019246
 31
0.0
  0
LINE
  5
1F7
330
1F
100
AcDbEntity
  8
ZUWAKU
  6
Continuous
 62
    30
370
    25
100
AcDbLine
 10
-241.6666666666671
 20
-677.3735498019246
 30
0.0
 11
-245.7291666666671
 21
-682.0610498019246
 31
0.0
  0
LINE
  5
1F8
330
1F
100
AcDbEntity
  8
ZUWAKU
  6
Continuous
 62
    30
370
    25
100
AcDbLine
 10
-303.7916666666671
 20
-674.8735498019246
 30
0.0
 11
-299.7291666666671
 21
-674.5610498019246
 31
0.0
  0
LINE
  5
1F9
330
1F
100
AcDbEntity
  8
ZUWAKU
  6
Continuous
 62
    30
370
    25
100
AcDbLine
 10
-299.7291666666671
 20
-674.5610498019246
 30
0.0
 11
-295.3541666666671
 21
-672.6860498019246
 31
0.0
  0
LINE
  5
1FA
330
1F
100
AcDbEntity
  8
ZUWAKU
  6
Continuous
 62
    30
370
    25
100
AcDbLine
 10
-295.3541666666671
 20
-672.6860498019246
 30
0.0
 11
-292.2291666666671
 21
-669.8735498019246
 31
0.0
  0
LINE
  5
1FB
330
1F
100
AcDbEntity
  8
ZUWAKU
  6
Continuous
 62
    30
370
    25
100
AcDbLine
 10
-292.2291666666671
 20
-669.8735498019246
 30
0.0
 11
-289.7291666666671
 21
-666.4360498019246
 31
0.0
  0
LINE
  5
1FC
330
1F
100
AcDbEntity
  8
ZUWAKU
  6
Continuous
 62
    30
370
    25
100
AcDbLine
 10
-268.2916666666671
 20
-691.1235498019246
 30
0.0
 11
-262.6666666666671
 21
-688.6235498019246
 31
0.0
  0
LINE
  5
1FD
330
1F
100
AcDbEntity
  8
ZUWAKU
  6
Continuous
 62
    30
370
    25
100
AcDbLine
 10
-262.6666666666671
 20
-688.6235498019246
 30
0.0
 11
-257.6666666666671
 21
-683.9360498019246
 31
0.0
  0
LINE
  5
1FE
330
1F
100
AcDbEntity
  8
ZUWAKU
  6
Continuous
 62
    30
370
    25
100
AcDbLine
 10
-257.6666666666671
 20
-683.9360498019246
 30
0.0
 11
-253.9166666666671
 21
-677.6860498019246
 31
0.0
  0
LINE
  5
1FF
330
1F
100
AcDbEntity
  8
ZUWAKU
  6
Continuous
 62
    30
370
    25
100
AcDbLine
 10
-253.9166666666671
 20
-677.6860498019246
 30
0.0
 11
-252.6666666666671
 21
-671.1235498019246
 31
0.0
  0
LINE
  5
200
330
1F
100
AcDbEntity
  8
ZUWAKU
  6
Continuous
 62
    30
370
    25
100
AcDbLine
 10
-256.6666666666671
 20
-686.1235498019246
 30
0.0
 11
-250.7291666666671
 21
-684.8735498019246
 31
0.0
  0
LINE
  5
201
330
1F
100
AcDbEntity
  8
ZUWAKU
  6
Continuous
 62
    30
370
    25
100
AcDbLine
 10
-250.7291666666671
 20
-684.8735498019246
 30
0.0
 11
-245.7291666666671
 21
-682.0610498019246
 31
0.0
  0
LINE
  5
202
330
1F
100
AcDbEntity
  8
ZUWAKU
  6
Continuous
 62
    30
370
    25
100
AcDbLine
 10
-245.7291666666671
 20
-682.0610498019246
 30
0.0
 11
-241.6666666666671
 21
-677.3735498019246
 31
0.0
  0
LINE
  5
203
330
1F
100
AcDbEntity
  8
ZUWAKU
  6
Continuous
 62
    30
370
    25
100
AcDbLine
 10
-290.6666666666671
 20
-677.3735498019246
 30
0.0
 11
-286.6041666666671
 21
-676.1235498019246
 31
0.0
  0
LINE
  5
204
330
1F
100
AcDbEntity
  8
ZUWAKU
  6
Continuous
 62
    30
370
    25
100
AcDbLine
 10
-286.6041666666671
 20
-676.1235498019246
 30
0.0
 11
-283.1666666666671
 21
-673.6235498019246
 31
0.0
  0
LINE
  5
205
330
1F
100
AcDbEntity
  8
ZUWAKU
  6
Continuous
 62
    30
370
    25
100
AcDbLine
 10
-283.1666666666671
 20
-673.6235498019246
 30
0.0
 11
-280.0416666666671
 21
-670.4985498019246
 31
0.0
  0
LINE
  5
206
330
1F
100
AcDbEntity
  8
ZUWAKU
  6
Continuous
 62
    30
370
    25
100
AcDbLine
 10
-280.0416666666671
 20
-670.4985498019246
 30
0.0
 11
-278.1666666666671
 21
-666.4360498019246
 31
0.0
  0
LINE
  5
207
330
1F
100
AcDbEntity
  8
ZUWAKU
  6
Continuous
 62
    30
370
    25
100
AcDbLine
 10
-235.104166666667
 20
-682.3735498019246
 30
0.0
 11
-232.291666666667
 21
-678.6235498019246
 31
0.0
  0
LINE
  5
208
330
1F
100
AcDbEntity
  8
ZUWAKU
  6
Continuous
 62
    30
370
    25
100
AcDbLine
 10
-232.291666666667
 20
-678.6235498019246
 30
0.0
 11
-229.791666666667
 21
-674.8735498019246
 31
0.0
  0
LINE
  5
209
330
1F
100
AcDbEntity
  8
ZUWAKU
  6
Continuous
 62
    30
370
    25
100
AcDbLine
 10
-229.791666666667
 20
-674.8735498019246
 30
0.0
 11
-227.916666666667
 21
-670.8110498019246
 31
0.0
  0
LINE
  5
20A
330
1F
100
AcDbEntity
  8
ZUWAKU
  6
Continuous
 62
    30
370
    25
100
AcDbLine
 10
-227.916666666667
 20
-670.8110498019246
 30
0.0
 11
-226.666666666667
 21
-666.4360498019246
 31
0.0
  0
LINE
  5
20B
330
1F
100
AcDbEntity
  8
ZUWAKU
  6
Continuous
 62
    30
370
    25
100
AcDbLine
 10
-249.1666666666671
 20
-689.8735498019246
 30
0.0
 11
-244.7916666666671
 21
-688.6235498019246
 31
0.0
  0
LINE
  5
20C
330
1F
100
AcDbEntity
  8
ZUWAKU
  6
Continuous
 62
    30
370
    25
100
AcDbLine
 10
-244.7916666666671
 20
-688.6235498019246
 30
0.0
 11
-240.1041666666671
 21
-687.0610498019246
 31
0.0
  0
LINE
  5
20D
330
1F
100
AcDbEntity
  8
ZUWAKU
  6
Continuous
 62
    30
370
    25
100
AcDbLine
 10
-257.3541666666671
 20
-675.1860498019246
 30
0.0
 11
-255.7916666666671
 21
-671.1235498019246
 31
0.0
  0
LINE
  5
20E
330
1F
100
AcDbEntity
  8
ZUWAKU
  6
Continuous
 62
    30
370
    25
100
AcDbLine
 10
-255.7916666666671
 20
-671.1235498019246
 30
0.0
 11
-252.6666666666671
 21
-671.1235498019246
 31
0.0
  0
LINE
  5
20F
330
1F
100
AcDbEntity
  8
ZUWAKU
  6
Continuous
 62
    30
370
    25
100
AcDbLine
 10
-255.7916666666671
 20
-671.1235498019246
 30
0.0
 11
-252.6666666666671
 21
-671.1235498019246
 31
0.0
  0
LINE
  5
210
330
1F
100
AcDbEntity
  8
ZUWAKU
  6
Continuous
 62
    30
370
    25
100
AcDbLine
 10
-252.6666666666671
 20
-671.1235498019246
 30
0.0
 11
-253.9166666666671
 21
-677.6860498019246
 31
0.0
  0
LINE
  5
211
330
1F
100
AcDbEntity
  8
ZUWAKU
  6
Continuous
 62
    30
370
    25
100
AcDbLine
 10
-253.9166666666671
 20
-677.6860498019246
 30
0.0
 11
-257.6666666666671
 21
-683.9360498019246
 31
0.0
  0
LINE
  5
212
330
1F
100
AcDbEntity
  8
ZUWAKU
  6
Continuous
 62
    30
370
    25
100
AcDbLine
 10
-253.9166666666671
 20
-677.6860498019246
 30
0.0
 11
-257.6666666666671
 21
-683.9360498019246
 31
0.0
  0
LINE
  5
213
330
1F
100
AcDbEntity
  8
ZUWAKU
  6
Continuous
 62
    30
370
    25
100
AcDbLine
 10
-257.6666666666671
 20
-683.9360498019246
 30
0.0
 11
-262.6666666666671
 21
-688.6235498019246
 31
0.0
  0
LINE
  5
214
330
1F
100
AcDbEntity
  8
ZUWAKU
  6
Continuous
 62
    30
370
    25
100
AcDbLine
 10
-268.9166666666671
 20
-691.1235498019246
 30
0.0
 11
-284.8541666666671
 21
-691.1235498019246
 31
0.0
  0
LINE
  5
215
330
1F
100
AcDbEntity
  8
ZUWAKU
  6
Continuous
 62
    30
370
    25
100
AcDbLine
 10
-284.8541666666671
 20
-691.1235498019246
 30
0.0
 11
-282.0416666666671
 21
-683.3110498019246
 31
0.0
  0
LINE
  5
216
330
1F
100
AcDbEntity
  8
ZUWAKU
  6
Continuous
 62
    30
370
    25
100
AcDbLine
 10
-284.8541666666671
 20
-691.1235498019246
 30
0.0
 11
-282.0416666666671
 21
-683.3110498019246
 31
0.0
  0
LINE
  5
217
330
1F
100
AcDbEntity
  8
ZUWAKU
  6
Continuous
 62
    30
370
    25
100
AcDbLine
 10
-259.8541666666671
 20
-678.6235498019246
 30
0.0
 11
-257.3541666666671
 21
-675.1860498019246
 31
0.0
  0
LINE
  5
218
330
1F
100
AcDbEntity
  8
ZUWAKU
  6
Continuous
 62
    30
370
    25
100
AcDbLine
 10
-282.0416666666671
 20
-683.3110498019246
 30
0.0
 11
-267.0416666666671
 21
-683.3110498019246
 31
0.0
  0
LINE
  5
219
330
1F
100
AcDbEntity
  8
ZUWAKU
  6
Continuous
 62
    30
370
    25
100
AcDbLine
 10
-282.0416666666671
 20
-683.3110498019246
 30
0.0
 11
-267.0416666666671
 21
-683.3110498019246
 31
0.0
  0
LINE
  5
21A
330
1F
100
AcDbEntity
  8
ZUWAKU
  6
Continuous
 62
    30
370
    25
100
AcDbLine
 10
-267.0416666666671
 20
-683.3110498019246
 30
0.0
 11
-263.2916666666671
 21
-681.4360498019246
 31
0.0
  0
LINE
  5
21B
330
1F
100
AcDbEntity
  8
ZUWAKU
  6
Continuous
 62
    30
370
    25
100
AcDbLine
 10
-267.0416666666671
 20
-683.3110498019246
 30
0.0
 11
-263.2916666666671
 21
-681.4360498019246
 31
0.0
  0
LINE
  5
21C
330
1F
100
AcDbEntity
  8
ZUWAKU
  6
Continuous
 62
    30
370
    25
100
AcDbLine
 10
-263.2916666666671
 20
-681.4360498019246
 30
0.0
 11
-259.8541666666671
 21
-678.6235498019246
 31
0.0
  0
LINE
  5
21D
330
1F
100
AcDbEntity
  8
ZUWAKU
  6
Continuous
 62
    30
370
    25
100
AcDbLine
 10
-312.7916666666671
 20
-674.8735498019246
 30
0.0
 11
-316.5416666666671
 21
-685.1860498019246
 31
0.0
  0
LINE
  5
21E
330
1F
100
AcDbEntity
  8
ZUWAKU
  6
Continuous
 62
    30
370
    25
100
AcDbLine
 10
-316.5416666666671
 20
-685.1860498019246
 30
0.0
 11
-318.7291666666671
 21
-687.3735498019246
 31
0.0
  0
LINE
  5
21F
330
1F
100
AcDbEntity
  8
ZUWAKU
  6
Continuous
 62
    30
370
    25
100
AcDbLine
 10
-316.5416666666671
 20
-685.1860498019246
 30
0.0
 11
-318.7291666666671
 21
-687.3735498019246
 31
0.0
  0
LINE
  5
220
330
1F
100
AcDbEntity
  8
ZUWAKU
  6
Continuous
 62
    30
370
    25
100
AcDbLine
 10
-318.7291666666671
 20
-687.3735498019246
 30
0.0
 11
-320.604166666667
 21
-689.2485498019246
 31
0.0
  0
LINE
  5
221
330
1F
100
AcDbEntity
  8
ZUWAKU
  6
Continuous
 62
    30
370
    25
100
AcDbLine
 10
-320.604166666667
 20
-689.2485498019246
 30
0.0
 11
-323.104166666667
 21
-690.4985498019246
 31
0.0
  0
LINE
  5
222
330
1F
100
AcDbEntity
  8
ZUWAKU
  6
Continuous
 62
    30
370
    25
100
AcDbLine
 10
-320.604166666667
 20
-689.2485498019246
 30
0.0
 11
-323.104166666667
 21
-690.4985498019246
 31
0.0
  0
LINE
  5
223
330
1F
100
AcDbEntity
  8
ZUWAKU
  6
Continuous
 62
    30
370
    25
100
AcDbLine
 10
-323.104166666667
 20
-690.4985498019246
 30
0.0
 11
-325.604166666667
 21
-691.1235498019246
 31
0.0
  0
LINE
  5
224
330
1F
100
AcDbEntity
  8
ZUWAKU
  6
Continuous
 62
    30
370
    25
100
AcDbLine
 10
-325.604166666667
 20
-691.1235498019246
 30
0.0
 11
-341.541666666667
 21
-691.1235498019246
 31
0.0
  0
LINE
  5
225
330
1F
100
AcDbEntity
  8
ZUWAKU
  6
Continuous
 62
    30
370
    25
100
AcDbLine
 10
-325.604166666667
 20
-691.1235498019246
 30
0.0
 11
-341.541666666667
 21
-691.1235498019246
 31
0.0
  0
LINE
  5
226
330
1F
100
AcDbEntity
  8
ZUWAKU
  6
Continuous
 62
    30
370
    25
100
AcDbLine
 10
-341.541666666667
 20
-691.1235498019246
 30
0.0
 11
-339.666666666667
 21
-686.4360498019246
 31
0.0
  0
LINE
  5
227
330
1F
100
AcDbEntity
  8
ZUWAKU
  6
Continuous
 62
    30
370
    25
100
AcDbLine
 10
-339.666666666667
 20
-686.4360498019246
 30
0.0
 11
-329.354166666667
 21
-686.4360498019246
 31
0.0
  0
LINE
  5
228
330
1F
100
AcDbEntity
  8
ZUWAKU
  6
Continuous
 62
    30
370
    25
100
AcDbLine
 10
-339.666666666667
 20
-686.4360498019246
 30
0.0
 11
-329.354166666667
 21
-686.4360498019246
 31
0.0
  0
LINE
  5
229
330
1F
100
AcDbEntity
  8
ZUWAKU
  6
Continuous
 62
    30
370
    25
100
AcDbLine
 10
-323.416666666667
 20
-679.2485498019246
 30
0.0
 11
-336.541666666667
 21
-679.2485498019246
 31
0.0
  0
LINE
  5
22A
330
1F
100
AcDbEntity
  8
ZUWAKU
  6
Continuous
 62
    30
370
    25
100
AcDbLine
 10
-336.541666666667
 20
-679.2485498019246
 30
0.0
 11
-335.291666666667
 21
-674.8735498019246
 31
0.0
  0
LINE
  5
22B
330
1F
100
AcDbEntity
  8
ZUWAKU
  6
Continuous
 62
    30
370
    25
100
AcDbLine
 10
-336.541666666667
 20
-679.2485498019246
 30
0.0
 11
-335.291666666667
 21
-674.8735498019246
 31
0.0
  0
LINE
  5
22C
330
1F
100
AcDbEntity
  8
ZUWAKU
  6
Continuous
 62
    30
370
    25
100
AcDbLine
 10
-329.354166666667
 20
-686.4360498019246
 30
0.0
 11
-327.166666666667
 21
-684.8735498019246
 31
0.0
  0
LINE
  5
22D
330
1F
100
AcDbEntity
  8
ZUWAKU
  6
Continuous
 62
    30
370
    25
100
AcDbLine
 10
-329.354166666667
 20
-686.4360498019246
 30
0.0
 11
-327.166666666667
 21
-684.8735498019246
 31
0.0
  0
LINE
  5
22E
330
1F
100
AcDbEntity
  8
ZUWAKU
  6
Continuous
 62
    30
370
    25
100
AcDbLine
 10
-327.166666666667
 20
-684.8735498019246
 30
0.0
 11
-325.604166666667
 21
-683.3110498019246
 31
0.0
  0
LINE
  5
22F
330
1F
100
AcDbEntity
  8
ZUWAKU
  6
Continuous
 62
    30
370
    25
100
AcDbLine
 10
-327.166666666667
 20
-684.8735498019246
 30
0.0
 11
-325.604166666667
 21
-683.3110498019246
 31
0.0
  0
LINE
  5
230
330
1F
100
AcDbEntity
  8
ZUWAKU
  6
Continuous
 62
    30
370
    25
100
AcDbLine
 10
-325.604166666667
 20
-683.3110498019246
 30
0.0
 11
-324.041666666667
 21
-681.4360498019246
 31
0.0
  0
LINE
  5
231
330
1F
100
AcDbEntity
  8
ZUWAKU
  6
Continuous
 62
    30
370
    25
100
AcDbLine
 10
-325.604166666667
 20
-683.3110498019246
 30
0.0
 11
-324.041666666667
 21
-681.4360498019246
 31
0.0
  0
LINE
  5
232
330
1F
100
AcDbEntity
  8
ZUWAKU
  6
Continuous
 62
    30
370
    25
100
AcDbLine
 10
-324.041666666667
 20
-681.4360498019246
 30
0.0
 11
-323.416666666667
 21
-679.2485498019246
 31
0.0
  0
LINE
  5
233
330
1F
100
AcDbEntity
  8
ZUWAKU
  6
Continuous
 62
    30
370
    25
100
AcDbLine
 10
-324.041666666667
 20
-681.4360498019246
 30
0.0
 11
-323.416666666667
 21
-679.2485498019246
 31
0.0
  0
LINE
  5
234
330
1F
100
AcDbEntity
  8
ZUWAKU
  6
Continuous
 62
    30
370
    25
100
AcDbLine
 10
-343.729166666667
 20
-666.4360498019246
 30
0.0
 11
-336.8566479807044
 21
-666.4360498019246
 31
0.0
  0
LINE
  5
235
330
1F
100
AcDbEntity
  8
ZUWAKU
  6
Continuous
 62
    30
370
    25
100
AcDbLine
 10
-342.5416666666671
 20
-684.8735498019246
 30
0.0
 11
-345.0416666666671
 21
-687.3735498019246
 31
0.0
  0
LINE
  5
236
330
1F
100
AcDbEntity
  8
ZUWAKU
  6
Continuous
 62
    30
370
    25
100
AcDbLine
 10
-345.0416666666671
 20
-687.3735498019246
 30
0.0
 11
-347.5416666666671
 21
-689.5610498019246
 31
0.0
  0
LINE
  5
237
330
1F
100
AcDbEntity
  8
ZUWAKU
  6
Continuous
 62
    30
370
    25
100
AcDbLine
 10
-345.0416666666671
 20
-687.3735498019246
 30
0.0
 11
-347.5416666666671
 21
-689.5610498019246
 31
0.0
  0
LINE
  5
238
330
1F
100
AcDbEntity
  8
ZUWAKU
  6
Continuous
 62
    30
370
    25
100
AcDbLine
 10
-347.5416666666671
 20
-689.5610498019246
 30
0.0
 11
-350.6666666666671
 21
-690.8110498019246
 31
0.0
  0
LINE
  5
239
330
1F
100
AcDbEntity
  8
ZUWAKU
  6
Continuous
 62
    30
370
    25
100
AcDbLine
 10
-350.6666666666671
 20
-690.8110498019246
 30
0.0
 11
-353.7916666666671
 21
-691.1235498019246
 31
0.0
  0
LINE
  5
23A
330
1F
100
AcDbEntity
  8
ZUWAKU
  6
Continuous
 62
    30
370
    25
100
AcDbLine
 10
-353.7916666666671
 20
-691.1235498019246
 30
0.0
 11
-361.6041666666671
 21
-691.1235498019246
 31
0.0
  0
LINE
  5
23B
330
1F
100
AcDbEntity
  8
ZUWAKU
  6
Continuous
 62
    30
370
    25
100
AcDbLine
 10
-361.6041666666671
 20
-691.1235498019246
 30
0.0
 11
-360.0416666666671
 21
-686.4360498019246
 31
0.0
  0
LINE
  5
23C
330
1F
100
AcDbEntity
  8
ZUWAKU
  6
Continuous
 62
    30
370
    25
100
AcDbLine
 10
-361.6041666666671
 20
-691.1235498019246
 30
0.0
 11
-360.0416666666671
 21
-686.4360498019246
 31
0.0
  0
LINE
  5
23D
330
1F
100
AcDbEntity
  8
ZUWAKU
  6
Continuous
 62
    30
370
    25
100
AcDbLine
 10
-350.6666666666671
 20
-682.3735498019246
 30
0.0
 11
-344.7291666666671
 21
-666.4360498019246
 31
0.0
  0
LINE
  5
23E
330
1F
100
AcDbEntity
  8
ZUWAKU
  6
Continuous
 62
    30
370
    25
100
AcDbLine
 10
-360.0416666666671
 20
-686.4360498019246
 30
0.0
 11
-357.2291666666671
 21
-686.4360498019246
 31
0.0
  0
LINE
  5
23F
330
1F
100
AcDbEntity
  8
ZUWAKU
  6
Continuous
 62
    30
370
    25
100
AcDbLine
 10
-360.0416666666671
 20
-686.4360498019246
 30
0.0
 11
-357.2291666666671
 21
-686.4360498019246
 31
0.0
  0
LINE
  5
240
330
1F
100
AcDbEntity
  8
ZUWAKU
  6
Continuous
 62
    30
370
    25
100
AcDbLine
 10
-352.2291666666671
 20
-684.8735498019246
 30
0.0
 11
-350.6666666666671
 21
-682.3735498019246
 31
0.0
  0
LINE
  5
241
330
1F
100
AcDbEntity
  8
ZUWAKU
  6
Continuous
 62
    30
370
    25
100
AcDbLine
 10
-354.7291666666671
 20
-686.1235498019246
 30
0.0
 11
-352.2291666666671
 21
-684.8735498019246
 31
0.0
  0
LINE
  5
242
330
1F
100
AcDbEntity
  8
ZUWAKU
  6
Continuous
 62
    30
370
    25
100
AcDbLine
 10
-357.2291666666671
 20
-686.4360498019246
 30
0.0
 11
-354.7291666666671
 21
-686.1235498019246
 31
0.0
  0
LINE
  5
243
330
1F
100
AcDbEntity
  8
ZUWAKU
  6
Continuous
 62
    30
370
    25
100
AcDbLine
 10
-357.2291666666671
 20
-686.4360498019246
 30
0.0
 11
-354.7291666666671
 21
-686.1235498019246
 31
0.0
  0
LINE
  5
244
330
1F
100
AcDbEntity
  8
ZUWAKU
  6
Continuous
 62
    30
370
    25
100
AcDbLine
 10
-275.7916666666671
 20
-666.4360498019246
 30
0.0
 11
-265.7916666666671
 21
-666.4360498019246
 31
0.0
  0
LINE
  5
245
330
1F
100
AcDbEntity
  8
ZUWAKU
  6
Continuous
 62
    30
370
    25
100
AcDbLine
 10
-265.7916666666671
 20
-666.4360498019246
 30
0.0
 11
-267.6666666666671
 21
-672.0610498019246
 31
0.0
  0
LINE
  5
246
330
1F
100
AcDbEntity
  8
ZUWAKU
  6
Continuous
 62
    30
370
    25
100
AcDbLine
 10
-265.7916666666671
 20
-666.4360498019246
 30
0.0
 11
-267.6666666666671
 21
-672.0610498019246
 31
0.0
  0
LINE
  5
247
330
1F
100
AcDbEntity
  8
ZUWAKU
  6
Continuous
 62
    30
370
    25
100
AcDbLine
 10
-268.1666666666671
 20
-672.0610498019246
 30
0.0
 11
-277.9791666666671
 21
-672.0610498019246
 31
0.0
  0
LINE
  5
248
330
1F
100
AcDbEntity
  8
ZUWAKU
  6
Continuous
 62
    30
370
    25
100
AcDbLine
 10
-238.7545384636893
 20
-672.0194774354602
 30
0.0
 11
-241.6666666666671
 21
-677.3735498019246
 31
0.0
  0
LINE
  5
249
330
1F
100
AcDbEntity
  8
ZUWAKU
  6
Continuous
 62
    30
370
    25
100
AcDbLine
 10
-230.104166666667
 20
-666.4360498019246
 30
0.0
 11
-245.7291666666671
 21
-682.0610498019246
 31
0.0
  0
LINE
  5
24A
330
1F
100
AcDbEntity
  8
ZUWAKU
  6
Continuous
 62
    30
370
    25
100
AcDbLine
 10
-245.7291666666674
 20
-682.0610498019249
 30
0.0
 11
-254.4166666666671
 21
-690.7485498019247
 31
0.0
  0
LINE
  5
24B
330
1F
100
AcDbEntity
  8
ZUWAKU
  6
Continuous
 62
    30
370
    25
100
AcDbLine
 10
-231.5183802290402
 20
-666.4360498019246
 30
0.0
 11
-240.7254940110738
 21
-675.6431635839581
 31
0.0
  0
LINE
  5
24C
330
1F
100
AcDbEntity
  8
ZUWAKU
  6
Continuous
 62
    30
370
    25
100
AcDbLine
 10
-248.9616548092347
 20
-683.8793243821191
 30
0.0
 11
-256.1137229415149
 21
-691.0313925143993
 31
0.0
  0
LINE
  5
24D
330
1F
100
AcDbEntity
  8
ZUWAKU
  6
Continuous
 62
    30
370
    25
100
AcDbLine
 10
-232.9325937914133
 20
-666.4360498019246
 30
0.0
 11
-239.0389807559384
 21
-672.5424367664498
 31
0.0
  0
LINE
  5
24E
330
1F
100
AcDbEntity
  8
ZUWAKU
  6
Continuous
 62
    30
370
    25
100
AcDbLine
 10
-251.5410076913457
 20
-685.0444637018569
 30
0.0
 11
-257.8107792163626
 21
-691.3142352268738
 31
0.0
  0
LINE
  5
24F
330
1F
100
AcDbEntity
  8
ZUWAKU
  6
Continuous
 62
    30
370
    25
100
AcDbLine
 10
-234.3468073537864
 20
-666.4360498019246
 30
0.0
 11
-239.9718073537864
 21
-672.0610498019246
 31
0.0
  0
LINE
  5
250
330
1F
100
AcDbEntity
  8
ZUWAKU
  6
Continuous
 62
    30
370
    25
100
AcDbLine
 10
-253.3323448703516
 20
-685.4215873184899
 30
0.0
 11
-258.1024990191474
 21
-690.1917414672856
 31
0.0
  0
LINE
  5
251
330
1F
100
AcDbEntity
  8
ZUWAKU
  6
Continuous
 62
    30
370
    25
100
AcDbLine
 10
-235.7610209161595
 20
-666.4360498019246
 30
0.0
 11
-241.3860209161596
 21
-672.0610498019246
 31
0.0
  0
LINE
  5
252
330
1F
100
AcDbEntity
  8
ZUWAKU
  6
Continuous
 62
    30
370
    25
100
AcDbLine
 10
-255.1236820493576
 20
-685.7987109351227
 30
0.0
 11
-257.3311098033075
 21
-688.0061386890726
 31
0.0
  0
LINE
  5
253
330
1F
100
AcDbEntity
  8
ZUWAKU
  6
Continuous
 62
    30
370
    25
100
AcDbLine
 10
-237.1752344785327
 20
-666.4360498019246
 30
0.0
 11
-242.8002344785327
 21
-672.0610498019246
 31
0.0
  0
LINE
  5
254
330
1F
100
AcDbEntity
  8
ZUWAKU
  6
Continuous
 62
    30
370
    25
100
AcDbLine
 10
-238.5894480409059
 20
-666.4360498019246
 30
0.0
 11
-244.2144480409059
 21
-672.0610498019246
 31
0.0
  0
LINE
  5
255
330
1F
100
AcDbEntity
  8
ZUWAKU
  6
Continuous
 62
    30
370
    25
100
AcDbLine
 10
-240.0036616032791
 20
-666.4360498019246
 30
0.0
 11
-245.6286616032791
 21
-672.0610498019246
 31
0.0
  0
LINE
  5
256
330
1F
100
AcDbEntity
  8
ZUWAKU
  6
Continuous
 62
    30
370
    25
100
AcDbLine
 10
-241.417875165652
 20
-666.4360498019246
 30
0.0
 11
-247.042875165652
 21
-672.0610498019246
 31
0.0
  0
LINE
  5
257
330
1F
100
AcDbEntity
  8
ZUWAKU
  6
Continuous
 62
    30
370
    25
100
AcDbLine
 10
-242.8320887280252
 20
-666.4360498019246
 30
0.0
 11
-248.4570887280252
 21
-672.0610498019246
 31
0.0
  0
LINE
  5
258
330
1F
100
AcDbEntity
  8
ZUWAKU
  6
Continuous
 62
    30
370
    25
100
AcDbLine
 10
-244.2463022903983
 20
-666.4360498019246
 30
0.0
 11
-249.7518488548015
 21
-671.9415963663278
 31
0.0
  0
LINE
  5
259
330
1F
100
AcDbEntity
  8
ZUWAKU
  6
Continuous
 62
    30
370
    25
100
AcDbLine
 10
-245.6605158527716
 20
-666.4360498019246
 30
0.0
 11
-249.0447420736149
 21
-669.8202760227679
 31
0.0
  0
LINE
  5
25A
330
1F
100
AcDbEntity
  8
ZUWAKU
  6
Continuous
 62
    30
370
    25
100
AcDbLine
 10
-247.0747294151448
 20
-666.4360498019246
 30
0.0
 11
-248.3376352924283
 21
-667.6989556792081
 31
0.0
  0
LINE
  5
25B
330
1F
100
AcDbEntity
  8
ZUWAKU
  6
Continuous
 62
    30
370
    25
100
AcDbLine
 10
-228.6899531042942
 20
-666.4360498019246
 30
0.0
 11
-252.7196103918197
 21
-690.4657070894501
 31
0.0
  0
LINE
  5
25C
330
1F
100
AcDbEntity
  8
ZUWAKU
  6
Continuous
 62
    30
370
    25
100
AcDbLine
 10
-227.2757395419208
 20
-666.4360498019246
 30
0.0
 11
-251.0225541169715
 21
-690.1828643769754
 31
0.0
  0
LINE
  5
25D
330
1F
100
AcDbEntity
  8
ZUWAKU
  6
Continuous
 62
    30
370
    25
100
AcDbLine
 10
-226.9887229415149
 20
-667.5632467638918
 30
0.0
 11
-249.3254978421239
 21
-689.9000216645009
 31
0.0
  0
LINE
  5
25E
330
1F
100
AcDbEntity
  8
ZUWAKU
  6
Continuous
 62
    30
370
    25
100
AcDbLine
 10
-227.5544083664641
 20
-669.5431457512142
 30
0.0
 11
-247.3720707173777
 21
-689.3608081021277
 31
0.0
  0
LINE
  5
25F
330
1F
100
AcDbEntity
  8
ZUWAKU
  6
Continuous
 62
    30
370
    25
100
AcDbLine
 10
-228.3525819339805
 20
-671.7555328811038
 30
0.0
 11
-245.3921717300552
 21
-688.7951226771784
 31
0.0
  0
LINE
  5
260
330
1F
100
AcDbEntity
  8
ZUWAKU
  6
Continuous
 62
    30
370
    25
100
AcDbLine
 10
-229.5647649874431
 20
-674.3819294969393
 30
0.0
 11
-243.3137446053091
 21
-688.1309091148053
 31
0.0
  0
LINE
  5
261
330
1F
100
AcDbEntity
  8
ZUWAKU
  6
Continuous
 62
    30
370
    25
100
AcDbLine
 10
-232.0906565398907
 20
-678.3220346117603
 30
0.0
 11
-241.1924242617493
 21
-687.4238023336187
 31
0.0
  0
LINE
  5
262
330
1F
100
AcDbEntity
  8
ZUWAKU
  6
Continuous
 62
    30
370
    25
100
AcDbLine
 10
-234.9620434559394
 20
-682.607635090182
 30
0.0
 11
-239.8418015241966
 21
-687.4873931584391
 31
0.0
  0
LINE
  5
263
330
1F
100
AcDbEntity
  8
ZUWAKU
  6
Continuous
 62
    30
370
    25
100
AcDbLine
 10
-234.4277849990429
 20
-683.4875901956586
 30
0.0
 11
-239.3030535004354
 21
-688.362858697051
 31
0.0
  0
LINE
  5
264
330
1F
100
AcDbEntity
  8
ZUWAKU
  6
Continuous
 62
    30
370
    25
100
AcDbLine
 10
-233.8935265421463
 20
-684.3675453011351
 30
0.0
 11
-238.7643054766742
 21
-689.2383242356631
 31
0.0
  0
LINE
  5
265
330
1F
100
AcDbEntity
  8
ZUWAKU
  6
Continuous
 62
    30
370
    25
100
AcDbLine
 10
-233.3592680852498
 20
-685.2475004066118
 30
0.0
 11
-238.225557452913
 21
-690.113789774275
 31
0.0
  0
LINE
  5
266
330
1F
100
AcDbEntity
  8
ZUWAKU
  6
Continuous
 62
    30
370
    25
100
AcDbLine
 10
-232.8250096283533
 20
-686.1274555120884
 30
0.0
 11
-237.6868094291519
 21
-690.9892553128868
 31
0.0
  0
LINE
  5
267
330
1F
100
AcDbEntity
  8
ZUWAKU
  6
Continuous
 62
    30
370
    25
100
AcDbLine
 10
-232.2907511714568
 20
-687.007410617565
 30
0.0
 11
-236.4068903558164
 21
-691.1235498019246
 31
0.0
  0
LINE
  5
268
330
1F
100
AcDbEntity
  8
ZUWAKU
  6
Continuous
 62
    30
370
    25
100
AcDbLine
 10
-231.7564927145603
 20
-687.8873657230417
 30
0.0
 11
-234.9926767934432
 21
-691.1235498019246
 31
0.0
  0
LINE
  5
269
330
1F
100
AcDbEntity
  8
ZUWAKU
  6
Continuous
 62
    30
370
    25
100
AcDbLine
 10
-231.2222342576638
 20
-688.7673208285182
 30
0.0
 11
-233.5784632310702
 21
-691.1235498019246
 31
0.0
  0
LINE
  5
26A
330
1F
100
AcDbEntity
  8
ZUWAKU
  6
Continuous
 62
    30
370
    25
100
AcDbLine
 10
-230.6879758007673
 20
-689.6472759339947
 30
0.0
 11
-232.1642496686971
 21
-691.1235498019246
 31
0.0
  0
LINE
  5
26B
330
1F
100
AcDbEntity
  8
ZUWAKU
  6
Continuous
 62
    30
370
    25
100
AcDbLine
 10
-230.1537173438707
 20
-690.5272310394714
 30
0.0
 11
-230.7500361063239
 21
-691.1235498019246
 31
0.0
  0
LINE
  5
26C
330
1F
100
AcDbEntity
  8
ZUWAKU
  6
Continuous
 62
    30
370
    25
100
AcDbLine
 10
-269.0729166666671
 20
-666.4360498019246
 30
0.0
 11
-274.6979166666671
 21
-672.0610498019246
 31
0.0
  0
LINE
  5
26D
330
1F
100
AcDbEntity
  8
ZUWAKU
  6
Continuous
 62
    30
370
    25
100
AcDbLine
 10
-270.4871302290402
 20
-666.4360498019246
 30
0.0
 11
-276.1121302290402
 21
-672.0610498019246
 31
0.0
  0
LINE
  5
26E
330
1F
100
AcDbEntity
  8
ZUWAKU
  6
Continuous
 62
    30
370
    25
100
AcDbLine
 10
-271.9013437914135
 20
-666.4360498019246
 30
0.0
 11
-277.5263437914134
 21
-672.0610498019246
 31
0.0
  0
LINE
  5
26F
330
1F
100
AcDbEntity
  8
ZUWAKU
  6
Continuous
 62
    30
370
    25
100
AcDbLine
 10
-273.3155573537863
 20
-666.4360498019246
 30
0.0
 11
-277.3673725930457
 21
-670.4878650411841
 31
0.0
  0
LINE
  5
270
330
1F
100
AcDbEntity
  8
ZUWAKU
  6
Continuous
 62
    30
370
    25
100
AcDbLine
 10
-274.7297709161596
 20
-666.4360498019246
 30
0.0
 11
-276.4674185078991
 21
-668.1736973936642
 31
0.0
  0
LINE
  5
271
330
1F
100
AcDbEntity
  8
ZUWAKU
  6
Continuous
 62
    30
370
    25
100
AcDbLine
 10
-267.6587031042943
 20
-666.4360498019246
 30
0.0
 11
-273.2837031042943
 21
-672.0610498019246
 31
0.0
  0
LINE
  5
272
330
1F
100
AcDbEntity
  8
ZUWAKU
  6
Continuous
 62
    30
370
    25
100
AcDbLine
 10
-266.2444895419208
 20
-666.4360498019246
 30
0.0
 11
-271.8694895419208
 21
-672.0610498019246
 31
0.0
  0
LINE
  5
273
330
1F
100
AcDbEntity
  8
ZUWAKU
  6
Continuous
 62
    30
370
    25
100
AcDbLine
 10
-266.2723620102267
 20
-667.8781358326037
 30
0.0
 11
-270.4552759795477
 21
-672.0610498019246
 31
0.0
  0
LINE
  5
274
330
1F
100
AcDbEntity
  8
ZUWAKU
  6
Continuous
 62
    30
370
    25
100
AcDbLine
 10
-266.9794687914132
 20
-669.9994561761632
 30
0.0
 11
-269.0410624171747
 21
-672.0610498019246
 31
0.0
  0
LINE
  5
275
330
1F
100
AcDbEntity
  8
ZUWAKU
  6
Continuous
 62
    30
370
    25
100
AcDbLine
 10
-267.6268488548014
 20
-672.0610498019246
 30
0.0
 11
-267.6865755725998
 21
-672.1207765197231
 31
0.0
  0
LINE
  5
276
330
1F
100
AcDbEntity
  8
ZUWAKU
  6
Continuous
 62
    30
370
    25
100
AcDbLine
 10
-270.947916666667
 20
-683.3110498019246
 30
0.0
 11
-278.760416666667
 21
-691.1235498019246
 31
0.0
  0
LINE
  5
277
330
1F
100
AcDbEntity
  8
ZUWAKU
  6
Continuous
 62
    30
370
    25
100
AcDbLine
 10
-272.3621302290403
 20
-683.3110498019246
 30
0.0
 11
-280.1746302290403
 21
-691.1235498019246
 31
0.0
  0
LINE
  5
278
330
1F
100
AcDbEntity
  8
ZUWAKU
  6
Continuous
 62
    30
370
    25
100
AcDbLine
 10
-273.7763437914133
 20
-683.3110498019246
 30
0.0
 11
-281.5888437914133
 21
-691.1235498019246
 31
0.0
  0
LINE
  5
279
330
1F
100
AcDbEntity
  8
ZUWAKU
  6
Continuous
 62
    30
370
    25
100
AcDbLine
 10
-275.1905573537865
 20
-683.3110498019246
 30
0.0
 11
-283.0030573537865
 21
-691.1235498019246
 31
0.0
  0
LINE
  5
27A
330
1F
100
AcDbEntity
  8
ZUWAKU
  6
Continuous
 62
    30
370
    25
100
AcDbLine
 10
-276.6047709161596
 20
-683.3110498019246
 30
0.0
 11
-284.4172709161596
 21
-691.1235498019246
 31
0.0
  0
LINE
  5
27B
330
1F
100
AcDbEntity
  8
ZUWAKU
  6
Continuous
 62
    30
370
    25
100
AcDbLine
 10
-278.0189844785327
 20
-683.3110498019246
 30
0.0
 11
-284.3044253974927
 21
-689.5964907208847
 31
0.0
  0
LINE
  5
27C
330
1F
100
AcDbEntity
  8
ZUWAKU
  6
Continuous
 62
    30
370
    25
100
AcDbLine
 10
-279.4331980409059
 20
-683.3110498019246
 30
0.0
 11
-283.5089302686578
 21
-687.3867820296765
 31
0.0
  0
LINE
  5
27D
330
1F
100
AcDbEntity
  8
ZUWAKU
  6
Continuous
 62
    30
370
    25
100
AcDbLine
 10
-280.847411603279
 20
-683.3110498019246
 30
0.0
 11
-282.7134351398229
 21
-685.1770733384685
 31
0.0
  0
LINE
  5
27E
330
1F
100
AcDbEntity
  8
ZUWAKU
  6
Continuous
 62
    30
370
    25
100
AcDbLine
 10
-269.5337031042941
 20
-683.3110498019246
 30
0.0
 11
-277.3462031042941
 21
-691.1235498019246
 31
0.0
  0
LINE
  5
27F
330
1F
100
AcDbEntity
  8
ZUWAKU
  6
Continuous
 62
    30
370
    25
100
AcDbLine
 10
-268.1194895419208
 20
-683.3110498019246
 30
0.0
 11
-275.9319895419208
 21
-691.1235498019246
 31
0.0
  0
LINE
  5
280
330
1F
100
AcDbEntity
  8
ZUWAKU
  6
Continuous
 62
    30
370
    25
100
AcDbLine
 10
-254.5177759795478
 20
-671.1235498019246
 30
0.0
 11
-256.5878483461166
 21
-673.1936221684934
 31
0.0
  0
LINE
  5
281
330
1F
100
AcDbEntity
  8
ZUWAKU
  6
Continuous
 62
    30
370
    25
100
AcDbLine
 10
-266.3688852924287
 20
-682.9746591148056
 30
0.0
 11
-274.5177759795478
 21
-691.1235498019246
 31
0.0
  0
LINE
  5
282
330
1F
100
AcDbEntity
  8
ZUWAKU
  6
Continuous
 62
    30
370
    25
100
AcDbLine
 10
-253.1035624171745
 20
-671.1235498019246
 30
0.0
 11
-257.8557779986468
 21
-675.8757653833969
 31
0.0
  0
LINE
  5
283
330
1F
100
AcDbEntity
  8
ZUWAKU
  6
Continuous
 62
    30
370
    25
100
AcDbLine
 10
-263.5404581676821
 20
-681.5604455524323
 30
0.0
 11
-273.1035624171745
 21
-691.1235498019246
 31
0.0
  0
LINE
  5
284
330
1F
100
AcDbEntity
  8
ZUWAKU
  6
Continuous
 62
    30
370
    25
100
AcDbLine
 10
-252.8966237988708
 20
-672.330824745994
 30
0.0
 11
-271.6893488548014
 21
-691.1235498019246
 31
0.0
  0
LINE
  5
285
330
1F
100
AcDbEntity
  8
ZUWAKU
  6
Continuous
 62
    30
370
    25
100
AcDbLine
 10
-253.2293799311938
 20
-674.0777944406902
 30
0.0
 11
-270.2751352924282
 21
-691.1235498019246
 31
0.0
  0
LINE
  5
286
330
1F
100
AcDbEntity
  8
ZUWAKU
  6
Continuous
 62
    30
370
    25
100
AcDbLine
 10
-253.5621360635169
 20
-675.8247641353863
 30
0.0
 11
-268.8609217300552
 21
-691.1235498019246
 31
0.0
  0
LINE
  5
287
330
1F
100
AcDbEntity
  8
ZUWAKU
  6
Continuous
 62
    30
370
    25
100
AcDbLine
 10
-253.89489219584
 20
-677.5717338300825
 30
0.0
 11
-266.770741368494
 21
-690.4475830027366
 31
0.0
  0
LINE
  5
288
330
1F
100
AcDbEntity
  8
ZUWAKU
  6
Continuous
 62
    30
370
    25
100
AcDbLine
 10
-255.8991747587043
 20
-680.9902299553199
 30
0.0
 11
-264.2251569562221
 21
-689.3162121528378
 31
0.0
  0
LINE
  5
289
330
1F
100
AcDbEntity
  8
ZUWAKU
  6
Continuous
 62
    30
370
    25
100
AcDbLine
 10
-282.3854166666671
 20
-666.4360498019246
 30
0.0
 11
-304.8463541666671
 21
-688.8969873019246
 31
0.0
  0
LINE
  5
28A
330
1F
100
AcDbEntity
  8
ZUWAKU
  6
Continuous
 62
    30
370
    25
100
AcDbLine
 10
-283.7996302290402
 20
-666.4360498019246
 30
0.0
 11
-304.0213962552828
 21
-686.6578158281673
 31
0.0
  0
LINE
  5
28B
330
1F
100
AcDbEntity
  8
ZUWAKU
  6
Continuous
 62
    30
370
    25
100
AcDbLine
 10
-285.2138437914133
 20
-666.4360498019246
 30
0.0
 11
-303.1964383438985
 21
-684.4186443544099
 31
0.0
  0
LINE
  5
28C
330
1F
100
AcDbEntity
  8
ZUWAKU
  6
Continuous
 62
    30
370
    25
100
AcDbLine
 10
-286.6280573537864
 20
-666.4360498019246
 30
0.0
 11
-302.3714804325142
 21
-682.1794728806525
 31
0.0
  0
LINE
  5
28D
330
1F
100
AcDbEntity
  8
ZUWAKU
  6
Continuous
 62
    30
370
    25
100
AcDbLine
 10
-288.0422709161596
 20
-666.4360498019246
 30
0.0
 11
-301.5465225211298
 21
-679.9403014068948
 31
0.0
  0
LINE
  5
28E
330
1F
100
AcDbEntity
  8
ZUWAKU
  6
Continuous
 62
    30
370
    25
100
AcDbLine
 10
-289.4564844785328
 20
-666.4360498019246
 30
0.0
 11
-290.4563191683586
 21
-667.4358844917505
 31
0.0
  0
LINE
  5
28F
330
1F
100
AcDbEntity
  8
ZUWAKU
  6
Continuous
 62
    30
370
    25
100
AcDbLine
 10
-295.970722837432
 20
-672.9502881608239
 30
0.0
 11
-302.2689844785328
 21
-679.2485498019246
 31
0.0
  0
LINE
  5
290
330
1F
100
AcDbEntity
  8
ZUWAKU
  6
Continuous
 62
    30
370
    25
100
AcDbLine
 10
-298.4455965715848
 20
-674.0109483326037
 30
0.0
 11
-303.6831980409058
 21
-679.2485498019246
 31
0.0
  0
LINE
  5
291
330
1F
100
AcDbEntity
  8
ZUWAKU
  6
Continuous
 62
    30
370
    25
100
AcDbLine
 10
-300.4666403479966
 20
-674.6177785466423
 30
0.0
 11
-305.0974116032789
 21
-679.2485498019246
 31
0.0
  0
LINE
  5
292
330
1F
100
AcDbEntity
  8
ZUWAKU
  6
Continuous
 62
    30
370
    25
100
AcDbLine
 10
-301.9987050405675
 20
-674.7356296768401
 30
0.0
 11
-306.5116251656521
 21
-679.2485498019246
 31
0.0
  0
LINE
  5
293
330
1F
100
AcDbEntity
  8
ZUWAKU
  6
Continuous
 62
    30
370
    25
100
AcDbLine
 10
-303.5307697331384
 20
-674.8534808070377
 30
0.0
 11
-307.9258387280253
 21
-679.2485498019246
 31
0.0
  0
LINE
  5
294
330
1F
100
AcDbEntity
  8
ZUWAKU
  6
Continuous
 62
    30
370
    25
100
AcDbLine
 10
-304.9650522903984
 20
-674.8735498019246
 30
0.0
 11
-309.3400522903984
 21
-679.2485498019246
 31
0.0
  0
LINE
  5
295
330
1F
100
AcDbEntity
  8
ZUWAKU
  6
Continuous
 62
    30
370
    25
100
AcDbLine
 10
-306.3792658527714
 20
-674.8735498019246
 30
0.0
 11
-310.7542658527714
 21
-679.2485498019246
 31
0.0
  0
LINE
  5
296
330
1F
100
AcDbEntity
  8
ZUWAKU
  6
Continuous
 62
    30
370
    25
100
AcDbLine
 10
-307.7934794151446
 20
-674.8735498019246
 30
0.0
 11
-310.8045484730685
 21
-677.8846188598486
 31
0.0
  0
LINE
  5
297
330
1F
100
AcDbEntity
  8
ZUWAKU
  6
Continuous
 62
    30
370
    25
100
AcDbLine
 10
-309.2076929775178
 20
-674.8735498019246
 30
0.0
 11
-310.0188742717501
 21
-675.684731096157
 31
0.0
  0
LINE
  5
298
330
1F
100
AcDbEntity
  8
ZUWAKU
  6
Continuous
 62
    30
370
    25
100
AcDbLine
 10
-280.9712031042943
 20
-666.4360498019246
 30
0.0
 11
-305.6713120780512
 21
-691.1361587756817
 31
0.0
  0
LINE
  5
299
330
1F
100
AcDbEntity
  8
ZUWAKU
  6
Continuous
 62
    30
370
    25
100
AcDbLine
 10
-279.5569895419208
 20
-666.4360498019246
 30
0.0
 11
-290.4179663753669
 21
-677.2970266353707
 31
0.0
  0
LINE
  5
29A
330
1F
100
AcDbEntity
  8
ZUWAKU
  6
Continuous
 62
    30
370
    25
100
AcDbLine
 10
-290.7557238001565
 20
-677.6347840601603
 30
0.0
 11
-304.2444895419208
 21
-691.1235498019246
 31
0.0
  0
LINE
  5
29B
330
1F
100
AcDbEntity
  8
ZUWAKU
  6
Continuous
 62
    30
370
    25
100
AcDbLine
 10
-278.1427759795478
 20
-666.4360498019246
 30
0.0
 11
-288.3752134519391
 21
-676.668487274316
 31
0.0
  0
LINE
  5
29C
330
1F
100
AcDbEntity
  8
ZUWAKU
  6
Continuous
 62
    30
370
    25
100
AcDbLine
 10
-291.4872135737978
 20
-679.7804873961746
 30
0.0
 11
-302.8302759795478
 21
-691.1235498019246
 31
0.0
  0
LINE
  5
29D
330
1F
100
AcDbEntity
  8
ZUWAKU
  6
Continuous
 62
    30
370
    25
100
AcDbLine
 10
-279.3993274519463
 20
-669.1068148366962
 30
0.0
 11
-285.9144510851949
 21
-675.6219384699449
 31
0.0
  0
LINE
  5
29E
330
1F
100
AcDbEntity
  8
ZUWAKU
  6
Continuous
 62
    30
370
    25
100
AcDbLine
 10
-292.218703347439
 20
-681.9261907321891
 30
0.0
 11
-301.4160624171746
 21
-691.1235498019246
 31
0.0
  0
LINE
  5
29F
330
1F
100
AcDbEntity
  8
ZUWAKU
  6
Continuous
 62
    30
370
    25
100
AcDbLine
 10
-292.9501931210803
 20
-684.0718940682035
 30
0.0
 11
-300.0018488548014
 21
-691.1235498019246
 31
0.0
  0
LINE
  5
2A0
330
1F
100
AcDbEntity
  8
ZUWAKU
  6
Continuous
 62
    30
370
    25
100
AcDbLine
 10
-293.6816828947216
 20
-686.217597404218
 30
0.0
 11
-298.5876352924283
 21
-691.1235498019246
 31
0.0
  0
LINE
  5
2A1
330
1F
100
AcDbEntity
  8
ZUWAKU
  6
Continuous
 62
    30
370
    25
100
AcDbLine
 10
-294.4131726683628
 20
-688.3633007402323
 30
0.0
 11
-297.1734217300552
 21
-691.1235498019246
 31
0.0
  0
LINE
  5
2A2
330
1F
100
AcDbEntity
  8
ZUWAKU
  6
Continuous
 62
    30
370
    25
100
AcDbLine
 10
-295.1446624420042
 20
-690.5090040762468
 30
0.0
 11
-295.7592081676821
 21
-691.1235498019246
 31
0.0
  0
LINE
  5
2A3
330
1F
100
AcDbEntity
  8
ZUWAKU
  6
Continuous
 62
    30
370
    25
100
AcDbLine
 10
-319.5104166666671
 20
-666.4360498019246
 30
0.0
 11
-325.135416666667
 21
-672.0610498019246
 31
0.0
  0
LINE
  5
2A4
330
1F
100
AcDbEntity
  8
ZUWAKU
  6
Continuous
 62
    30
370
    25
100
AcDbLine
 10
-320.9246302290402
 20
-666.4360498019246
 30
0.0
 11
-326.5496302290402
 21
-672.0610498019246
 31
0.0
  0
LINE
  5
2A5
330
1F
100
AcDbEntity
  8
ZUWAKU
  6
Continuous
 62
    30
370
    25
100
AcDbLine
 10
-322.3388437914134
 20
-666.4360498019246
 30
0.0
 11
-327.9638437914134
 21
-672.0610498019246
 31
0.0
  0
LINE
  5
2A6
330
1F
100
AcDbEntity
  8
ZUWAKU
  6
Continuous
 62
    30
370
    25
100
AcDbLine
 10
-323.7530573537864
 20
-666.4360498019246
 30
0.0
 11
-329.3780573537864
 21
-672.0610498019246
 31
0.0
  0
LINE
  5
2A7
330
1F
100
AcDbEntity
  8
ZUWAKU
  6
Continuous
 62
    30
370
    25
100
AcDbLine
 10
-325.1672709161596
 20
-666.4360498019246
 30
0.0
 11
-330.7922709161596
 21
-672.0610498019246
 31
0.0
  0
LINE
  5
2A8
330
1F
100
AcDbEntity
  8
ZUWAKU
  6
Continuous
 62
    30
370
    25
100
AcDbLine
 10
-326.5814844785327
 20
-666.4360498019246
 30
0.0
 11
-332.2064844785327
 21
-672.0610498019246
 31
0.0
  0
LINE
  5
2A9
330
1F
100
AcDbEntity
  8
ZUWAKU
  6
Continuous
 62
    30
370
    25
100
AcDbLine
 10
-327.9956980409059
 20
-666.4360498019246
 30
0.0
 11
-333.6206980409059
 21
-672.0610498019246
 31
0.0
  0
LINE
  5
2AA
330
1F
100
AcDbEntity
  8
ZUWAKU
  6
Continuous
 62
    30
370
    25
100
AcDbLine
 10
-329.4099116032789
 20
-666.4360498019246
 30
0.0
 11
-334.4825441983611
 21
-671.5086823970069
 31
0.0
  0
LINE
  5
2AB
330
1F
100
AcDbEntity
  8
ZUWAKU
  6
Continuous
 62
    30
370
    25
100
AcDbLine
 10
-330.824125165652
 20
-666.4360498019246
 30
0.0
 11
-333.7754374171745
 21
-669.3873620534471
 31
0.0
  0
LINE
  5
2AC
330
1F
100
AcDbEntity
  8
ZUWAKU
  6
Continuous
 62
    30
370
    25
100
AcDbLine
 10
-332.2383387280252
 20
-666.4360498019246
 30
0.0
 11
-333.0683306359879
 21
-667.2660417098873
 31
0.0
  0
LINE
  5
2AD
330
1F
100
AcDbEntity
  8
ZUWAKU
  6
Continuous
 62
    30
370
    25
100
AcDbLine
 10
-318.0962031042942
 20
-666.4360498019246
 30
0.0
 11
-323.7212031042941
 21
-672.0610498019246
 31
0.0
  0
LINE
  5
2AE
330
1F
100
AcDbEntity
  8
ZUWAKU
  6
Continuous
 62
    30
370
    25
100
AcDbLine
 10
-316.6819895419209
 20
-666.4360498019246
 30
0.0
 11
-322.3069895419209
 21
-672.0610498019246
 31
0.0
  0
LINE
  5
2AF
330
1F
100
AcDbEntity
  8
ZUWAKU
  6
Continuous
 62
    30
370
    25
100
AcDbLine
 10
-315.2677759795477
 20
-666.4360498019246
 30
0.0
 11
-320.8927759795477
 21
-672.0610498019246
 31
0.0
  0
LINE
  5
2B0
330
1F
100
AcDbEntity
  8
ZUWAKU
  6
Continuous
 62
    30
370
    25
100
AcDbLine
 10
-313.8535624171745
 20
-666.4360498019246
 30
0.0
 11
-319.4785624171745
 21
-672.0610498019246
 31
0.0
  0
LINE
  5
2B1
330
1F
100
AcDbEntity
  8
ZUWAKU
  6
Continuous
 62
    30
370
    25
100
AcDbLine
 10
-312.4393488548014
 20
-666.4360498019246
 30
0.0
 11
-318.0643488548014
 21
-672.0610498019246
 31
0.0
  0
LINE
  5
2B2
330
1F
100
AcDbEntity
  8
ZUWAKU
  6
Continuous
 62
    30
370
    25
100
AcDbLine
 10
-311.0251352924284
 20
-666.4360498019246
 30
0.0
 11
-316.6501352924284
 21
-672.0610498019246
 31
0.0
  0
LINE
  5
2B3
330
1F
100
AcDbEntity
  8
ZUWAKU
  6
Continuous
 62
    30
370
    25
100
AcDbLine
 10
-310.1632891349731
 20
-666.9884172068424
 30
0.0
 11
-315.2359217300552
 21
-672.0610498019246
 31
0.0
  0
LINE
  5
2B4
330
1F
100
AcDbEntity
  8
ZUWAKU
  6
Continuous
 62
    30
370
    25
100
AcDbLine
 10
-310.8703959161596
 20
-669.1097375504022
 30
0.0
 11
-313.8217081676821
 21
-672.0610498019246
 31
0.0
  0
LINE
  5
2B5
330
1F
100
AcDbEntity
  8
ZUWAKU
  6
Continuous
 62
    30
370
    25
100
AcDbLine
 10
-311.5775026973462
 20
-671.2310578939619
 30
0.0
 11
-312.4074946053089
 21
-672.0610498019246
 31
0.0
  0
LINE
  5
2B6
330
1F
100
AcDbEntity
  8
ZUWAKU
  6
Continuous
 62
    30
370
    25
100
AcDbLine
 10
-319.0416666666671
 20
-674.8735498019246
 30
0.0
 11
-323.416666666667
 21
-679.2485498019246
 31
0.0
  0
LINE
  5
2B7
330
1F
100
AcDbEntity
  8
ZUWAKU
  6
Continuous
 62
    30
370
    25
100
AcDbLine
 10
-330.604166666667
 20
-686.4360498019246
 30
0.0
 11
-335.291666666667
 21
-691.1235498019246
 31
0.0
  0
LINE
  5
2B8
330
1F
100
AcDbEntity
  8
ZUWAKU
  6
Continuous
 62
    30
370
    25
100
AcDbLine
 10
-320.4558802290402
 20
-674.8735498019246
 30
0.0
 11
-324.8308802290402
 21
-679.2485498019246
 31
0.0
  0
LINE
  5
2B9
330
1F
100
AcDbEntity
  8
ZUWAKU
  6
Continuous
 62
    30
370
    25
100
AcDbLine
 10
-332.0183802290402
 20
-686.4360498019246
 30
0.0
 11
-336.7058802290402
 21
-691.1235498019246
 31
0.0
  0
LINE
  5
2BA
330
1F
100
AcDbEntity
  8
ZUWAKU
  6
Continuous
 62
    30
370
    25
100
AcDbLine
 10
-321.8700937914132
 20
-674.8735498019246
 30
0.0
 11
-326.2450937914132
 21
-679.2485498019246
 31
0.0
  0
LINE
  5
2BB
330
1F
100
AcDbEntity
  8
ZUWAKU
  6
Continuous
 62
    30
370
    25
100
AcDbLine
 10
-333.4325937914132
 20
-686.4360498019246
 30
0.0
 11
-338.1200937914132
 21
-691.1235498019246
 31
0.0
  0
LINE
  5
2BC
330
1F
100
AcDbEntity
  8
ZUWAKU
  6
Continuous
 62
    30
370
    25
100
AcDbLine
 10
-323.2843073537864
 20
-674.8735498019246
 30
0.0
 11
-327.6593073537864
 21
-679.2485498019246
 31
0.0
  0
LINE
  5
2BD
330
1F
100
AcDbEntity
  8
ZUWAKU
  6
Continuous
 62
    30
370
    25
100
AcDbLine
 10
-334.8468073537864
 20
-686.4360498019246
 30
0.0
 11
-339.5343073537864
 21
-691.1235498019246
 31
0.0
  0
LINE
  5
2BE
330
1F
100
AcDbEntity
  8
ZUWAKU
  6
Continuous
 62
    30
370
    25
100
AcDbLine
 10
-324.6985209161596
 20
-674.8735498019246
 30
0.0
 11
-329.0735209161596
 21
-679.2485498019246
 31
0.0
  0
LINE
  5
2BF
330
1F
100
AcDbEntity
  8
ZUWAKU
  6
Continuous
 62
    30
370
    25
100
AcDbLine
 10
-336.2610209161596
 20
-686.4360498019246
 30
0.0
 11
-340.9485209161596
 21
-691.1235498019246
 31
0.0
  0
LINE
  5
2C0
330
1F
100
AcDbEntity
  8
ZUWAKU
  6
Continuous
 62
    30
370
    25
100
AcDbLine
 10
-326.1127344785327
 20
-674.8735498019246
 30
0.0
 11
-330.4877344785327
 21
-679.2485498019246
 31
0.0
  0
LINE
  5
2C1
330
1F
100
AcDbEntity
  8
ZUWAKU
  6
Continuous
 62
    30
370
    25
100
AcDbLine
 10
-337.6752344785327
 20
-686.4360498019246
 30
0.0
 11
-340.9942881254233
 21
-689.7551034488151
 31
0.0
  0
LINE
  5
2C2
330
1F
100
AcDbEntity
  8
ZUWAKU
  6
Continuous
 62
    30
370
    25
100
AcDbLine
 10
-327.5269480409059
 20
-674.8735498019246
 30
0.0
 11
-331.9019480409059
 21
-679.2485498019246
 31
0.0
  0
LINE
  5
2C3
330
1F
100
AcDbEntity
  8
ZUWAKU
  6
Continuous
 62
    30
370
    25
100
AcDbLine
 10
-339.0894480409059
 20
-686.4360498019246
 30
0.0
 11
-340.0514790838412
 21
-687.3980808448598
 31
0.0
  0
LINE
  5
2C4
330
1F
100
AcDbEntity
  8
ZUWAKU
  6
Continuous
 62
    30
370
    25
100
AcDbLine
 10
-328.9411616032789
 20
-674.8735498019246
 30
0.0
 11
-333.3161616032789
 21
-679.2485498019246
 31
0.0
  0
LINE
  5
2C5
330
1F
100
AcDbEntity
  8
ZUWAKU
  6
Continuous
 62
    30
370
    25
100
AcDbLine
 10
-330.355375165652
 20
-674.8735498019246
 30
0.0
 11
-334.730375165652
 21
-679.2485498019246
 31
0.0
  0
LINE
  5
2C6
330
1F
100
AcDbEntity
  8
ZUWAKU
  6
Continuous
 62
    30
370
    25
100
AcDbLine
 10
-331.7695887280252
 20
-674.8735498019246
 30
0.0
 11
-336.1445887280252
 21
-679.2485498019246
 31
0.0
  0
LINE
  5
2C7
330
1F
100
AcDbEntity
  8
ZUWAKU
  6
Continuous
 62
    30
370
    25
100
AcDbLine
 10
-333.1838022903984
 20
-674.8735498019246
 30
0.0
 11
-336.1348124171744
 21
-677.8245599287006
 31
0.0
  0
LINE
  5
2C8
330
1F
100
AcDbEntity
  8
ZUWAKU
  6
Continuous
 62
    30
370
    25
100
AcDbLine
 10
-334.5980158527714
 20
-674.8735498019246
 30
0.0
 11
-335.5691269922253
 21
-675.8446609413785
 31
0.0
  0
LINE
  5
2C9
330
1F
100
AcDbEntity
  8
ZUWAKU
  6
Continuous
 62
    30
370
    25
100
AcDbLine
 10
-317.6274531042942
 20
-674.8735498019246
 30
0.0
 11
-323.9823520916162
 21
-681.2284487892466
 31
0.0
  0
LINE
  5
2CA
330
1F
100
AcDbEntity
  8
ZUWAKU
  6
Continuous
 62
    30
370
    25
100
AcDbLine
 10
-328.7794191983621
 20
-686.0255158959926
 30
0.0
 11
-333.8774531042941
 21
-691.1235498019246
 31
0.0
  0
LINE
  5
2CB
330
1F
100
AcDbEntity
  8
ZUWAKU
  6
Continuous
 62
    30
370
    25
100
AcDbLine
 10
-316.2132395419208
 20
-674.8735498019246
 30
0.0
 11
-332.4632395419207
 21
-691.1235498019246
 31
0.0
  0
LINE
  5
2CC
330
1F
100
AcDbEntity
  8
ZUWAKU
  6
Continuous
 62
    30
370
    25
100
AcDbLine
 10
-314.7990259795477
 20
-674.8735498019246
 30
0.0
 11
-331.0490259795477
 21
-691.1235498019246
 31
0.0
  0
LINE
  5
2CD
330
1F
100
AcDbEntity
  8
ZUWAKU
  6
Continuous
 62
    30
370
    25
100
AcDbLine
 10
-313.3848124171745
 20
-674.8735498019246
 30
0.0
 11
-329.6348124171745
 21
-691.1235498019246
 31
0.0
  0
LINE
  5
2CE
330
1F
100
AcDbEntity
  8
ZUWAKU
  6
Continuous
 62
    30
370
    25
100
AcDbLine
 10
-313.2608482734475
 20
-676.1637992205706
 30
0.0
 11
-328.2205988548014
 21
-691.1235498019246
 31
0.0
  0
LINE
  5
2CF
330
1F
100
AcDbEntity
  8
ZUWAKU
  6
Continuous
 62
    30
370
    25
100
AcDbLine
 10
-314.0689703090893
 20
-678.3861348185858
 30
0.0
 11
-326.8063852924282
 21
-691.1235498019246
 31
0.0
  0
LINE
  5
2D0
330
1F
100
AcDbEntity
  8
ZUWAKU
  6
Continuous
 62
    30
370
    25
100
AcDbLine
 10
-314.877092344731
 20
-680.6084704166004
 30
0.0
 11
-325.3215067511845
 21
-691.052884823054
 31
0.0
  0
LINE
  5
2D1
330
1F
100
AcDbEntity
  8
ZUWAKU
  6
Continuous
 62
    30
370
    25
100
AcDbLine
 10
-315.6852143803728
 20
-682.8308060146155
 30
0.0
 11
-323.4358886680203
 21
-690.5814803022629
 31
0.0
  0
LINE
  5
2D2
330
1F
100
AcDbEntity
  8
ZUWAKU
  6
Continuous
 62
    30
370
    25
100
AcDbLine
 10
-316.4933364160146
 20
-685.0531416126305
 30
0.0
 11
-320.7733225439507
 21
-689.3331277405664
 31
0.0
  0
LINE
  5
2D3
330
1F
100
AcDbEntity
  8
ZUWAKU
  6
Continuous
 62
    30
370
    25
100
AcDbLine
 10
-336.604166666667
 20
-666.4360498019246
 30
0.0
 11
-349.5533854166671
 21
-679.3852685519246
 31
0.0
  0
LINE
  5
2D4
330
1F
100
AcDbEntity
  8
ZUWAKU
  6
Continuous
 62
    30
370
    25
100
AcDbLine
 10
-356.5148809523813
 20
-686.3467640876389
 30
0.0
 11
-361.291666666667
 21
-691.1235498019246
 31
0.0
  0
LINE
  5
2D5
330
1F
100
AcDbEntity
  8
ZUWAKU
  6
Continuous
 62
    30
370
    25
100
AcDbLine
 10
-338.0183802290402
 20
-666.4360498019246
 30
0.0
 11
-348.7136961140079
 21
-677.1313656868924
 31
0.0
  0
LINE
  5
2D6
330
1F
100
AcDbEntity
  8
ZUWAKU
  6
Continuous
 62
    30
370
    25
100
AcDbLine
 10
-358.0183802290402
 20
-686.4360498019246
 30
0.0
 11
-361.0533098854804
 21
-689.4709794583649
 31
0.0
  0
LINE
  5
2D7
330
1F
100
AcDbEntity
  8
ZUWAKU
  6
Continuous
 62
    30
370
    25
100
AcDbLine
 10
-339.4325937914132
 20
-666.4360498019246
 30
0.0
 11
-347.874006811349
 21
-674.8774628218604
 31
0.0
  0
LINE
  5
2D8
330
1F
100
AcDbEntity
  8
ZUWAKU
  6
Continuous
 62
    30
370
    25
100
AcDbLine
 10
-359.4325937914132
 20
-686.4360498019246
 30
0.0
 11
-360.346203104294
 21
-687.3496591148053
 31
0.0
  0
LINE
  5
2D9
330
1F
100
AcDbEntity
  8
ZUWAKU
  6
Continuous
 62
    30
370
    25
100
AcDbLine
 10
-340.8468073537864
 20
-666.4360498019246
 30
0.0
 11
-347.0343175086899
 21
-672.6235599568281
 31
0.0
  0
LINE
  5
2DA
330
1F
100
AcDbEntity
  8
ZUWAKU
  6
Continuous
 62
    30
370
    25
100
AcDbLine
 10
-342.2610209161596
 20
-666.4360498019246
 30
0.0
 11
-346.1946282060308
 21
-670.369657091796
 31
0.0
  0
LINE
  5
2DB
330
1F
100
AcDbEntity
  8
ZUWAKU
  6
Continuous
 62
    30
370
    25
100
AcDbLine
 10
-343.6752344785327
 20
-666.4360498019246
 30
0.0
 11
-345.3549389033719
 21
-668.1157542267638
 31
0.0
  0
LINE
  5
2DC
330
1F
100
AcDbEntity
  8
ZUWAKU
  6
Continuous
 62
    30
370
    25
100
AcDbLine
 10
-336.8566479807044
 20
-668.1027446783348
 30
0.0
 11
-350.3930747193259
 21
-681.6391714169563
 31
0.0
  0
LINE
  5
2DD
330
1F
100
AcDbEntity
  8
ZUWAKU
  6
Continuous
 62
    30
370
    25
100
AcDbLine
 10
-354.8986368810981
 20
-686.1447335787285
 30
0.0
 11
-359.8774531042943
 21
-691.1235498019246
 31
0.0
  0
LINE
  5
2DE
330
1F
100
AcDbEntity
  8
ZUWAKU
  6
Continuous
 62
    30
370
    25
100
AcDbLine
 10
-337.5818857049985
 20
-670.2421959650021
 30
0.0
 11
-352.1973124171746
 21
-684.8576226771784
 31
0.0
  0
LINE
  5
2DF
330
1F
100
AcDbEntity
  8
ZUWAKU
  6
Continuous
 62
    30
370
    25
100
AcDbLine
 10
-352.2557118745775
 20
-684.9160221345812
 30
0.0
 11
-358.4632395419209
 21
-691.1235498019246
 31
0.0
  0
LINE
  5
2E0
330
1F
100
AcDbEntity
  8
ZUWAKU
  6
Continuous
 62
    30
370
    25
100
AcDbLine
 10
-338.3071234292924
 20
-672.3816472516693
 30
0.0
 11
-357.0490259795477
 21
-691.1235498019246
 31
0.0
  0
LINE
  5
2E1
330
1F
100
AcDbEntity
  8
ZUWAKU
  6
Continuous
 62
    30
370
    25
100
AcDbLine
 10
-339.0323611535863
 20
-674.5210985383363
 30
0.0
 11
-355.6348124171746
 21
-691.1235498019246
 31
0.0
  0
LINE
  5
2E2
330
1F
100
AcDbEntity
  8
ZUWAKU
  6
Continuous
 62
    30
370
    25
100
AcDbLine
 10
-339.7575988778802
 20
-676.6605498250035
 30
0.0
 11
-354.2205988548013
 21
-691.1235498019246
 31
0.0
  0
LINE
  5
2E3
330
1F
100
AcDbEntity
  8
ZUWAKU
  6
Continuous
 62
    30
370
    25
100
AcDbLine
 10
-340.4828366021741
 20
-678.8000011116703
 30
0.0
 11
-352.6969095841795
 21
-691.0140740936758
 31
0.0
  0
LINE
  5
2E4
330
1F
100
AcDbEntity
  8
ZUWAKU
  6
Continuous
 62
    30
370
    25
100
AcDbLine
 10
-341.208074326468
 20
-680.9394523983374
 30
0.0
 11
-351.1255611815427
 21
-690.8569392534122
 31
0.0
  0
LINE
  5
2E5
330
1F
100
AcDbEntity
  8
ZUWAKU
  6
Continuous
 62
    30
370
    25
100
AcDbLine
 10
-341.933312050762
 20
-683.0789036850047
 30
0.0
 11
-348.9979858350251
 21
-690.1435774692677
 31
0.0
  0
LINE
  5
2E6
330
1F
100
AcDbEntity
  8
ZUWAKU
  6
Continuous
 62
    30
370
    25
100
AcDbLine
 10
-351.6354166666671
 20
-668.1860498019248
 30
0.0
 11
-363.1918682795703
 21
-679.7425014148279
 31
0.0
  0
LINE
  5
2E7
330
1F
100
AcDbEntity
  8
ZUWAKU
  6
Continuous
 62
    30
370
    25
100
AcDbLine
 10
-351.2996302290401
 20
-666.4360498019246
 30
0.0
 11
-362.4163318098817
 21
-677.5527513827661
 31
0.0
  0
LINE
  5
2E8
330
1F
100
AcDbEntity
  8
ZUWAKU
  6
Continuous
 62
    30
370
    25
100
AcDbLine
 10
-352.7138437914132
 20
-666.4360498019246
 30
0.0
 11
-361.6407953401933
 21
-675.363001350705
 31
0.0
  0
LINE
  5
2E9
330
1F
100
AcDbEntity
  8
ZUWAKU
  6
Continuous
 62
    30
370
    25
100
AcDbLine
 10
-354.1280573537865
 20
-666.4360498019246
 30
0.0
 11
-360.8652588705048
 21
-673.173251318643
 31
0.0
  0
LINE
  5
2EA
330
1F
100
AcDbEntity
  8
ZUWAKU
  6
Continuous
 62
    30
370
    25
100
AcDbLine
 10
-355.5422709161595
 20
-666.4360498019246
 30
0.0
 11
-360.0897224008163
 21
-670.9835012865814
 31
0.0
  0
LINE
  5
2EB
330
1F
100
AcDbEntity
  8
ZUWAKU
  6
Continuous
 62
    30
370
    25
100
AcDbLine
 10
-356.9564844785327
 20
-666.4360498019246
 30
0.0
 11
-359.3141859311278
 21
-668.7937512545197
 31
0.0
  0
LINE
  5
2EC
330
1F
100
AcDbEntity
  8
ZUWAKU
  6
Continuous
 62
    30
370
    25
100
AcDbLine
 10
-358.3706980409057
 20
-666.4360498019246
 30
0.0
 11
-358.5386494614394
 21
-666.6040012224585
 31
0.0
  0
LINE
  5
2ED
330
1F
100
AcDbEntity
  8
ZUWAKU
  6
Continuous
 62
    30
370
    25
100
AcDbLine
 10
-352.4839448040908
 20
-670.4487915017214
 30
0.0
 11
-363.4712031042941
 21
-681.4360498019246
 31
0.0
  0
LINE
  5
2EE
330
1F
100
AcDbEntity
  8
ZUWAKU
  6
Continuous
 62
    30
370
    25
100
AcDbLine
 10
-353.3324729415147
 20
-672.7115332015184
 30
0.0
 11
-362.0569895419209
 21
-681.4360498019246
 31
0.0
  0
LINE
  5
2EF
330
1F
100
AcDbEntity
  8
ZUWAKU
  6
Continuous
 62
    30
370
    25
100
AcDbLine
 10
-354.1810010789386
 20
-674.9742749013155
 30
0.0
 11
-360.6427759795477
 21
-681.4360498019246
 31
0.0
  0
LINE
  5
2F0
330
1F
100
AcDbEntity
  8
ZUWAKU
  6
Continuous
 62
    30
370
    25
100
AcDbLine
 10
-355.0295292163626
 20
-677.2370166011127
 30
0.0
 11
-359.2285624171745
 21
-681.4360498019246
 31
0.0
  0
LINE
  5
2F1
330
1F
100
AcDbEntity
  8
ZUWAKU
  6
Continuous
 62
    30
370
    25
100
AcDbLine
 10
-355.8780573537864
 20
-679.4997583009097
 30
0.0
 11
-357.8143488548014
 21
-681.4360498019246
 31
0.0
  0
LINE
  5
2F2
330
1F
100
AcDbEntity
  8
ZUWAKU
  6
Continuous
 62
    30
370
    25
100
AcDbLine
 10
-405.4166666666662
 20
697.6264501980752
 30
0.0
 11
-409.6543840579704
 21
705.1239501980752
 31
0.0
  0
LINE
  5
2F3
330
1F
100
AcDbEntity
  8
ZUWAKU
  6
Continuous
 62
    30
370
    25
100
AcDbLine
 10
-426.5444457918352
 20
711.6889501980754
 30
0.0
 11
-426.0236124585019
 21
713.2514501980752
 31
0.0
  0
LINE
  5
2F4
330
1F
100
AcDbEntity
  8
ZUWAKU
  6
Continuous
 62
    30
370
    25
100
AcDbLine
 10
-386.7181551168942
 20
699.4757059729612
 30
0.0
 11
-387.2866666666663
 21
699.1914501980752
 31
0.0
  0
LINE
  5
2F5
330
1F
100
AcDbEntity
  8
ZUWAKU
  6
Continuous
 62
    30
370
    25
100
AcDbLine
 10
-386.3541666666662
 20
697.6264501980752
 30
0.0
 11
-383.7291666666661
 21
700.2514501980756
 31
0.0
  0
LINE
  5
2F6
330
1F
100
AcDbEntity
  8
ZUWAKU
  6
Continuous
 62
    30
370
    25
100
AcDbLine
 10
-384.1666666666661
 20
697.6264501980752
 30
0.0
 11
-383.7291666666661
 21
700.2514501980756
 31
0.0
  0
LINE
  5
2F7
330
1F
100
AcDbEntity
  8
ZUWAKU
  6
Continuous
 62
    30
370
    25
100
AcDbLine
 10
-372.6041666666662
 20
699.8139501980752
 30
0.0
 11
-372.6041666666662
 21
699.1914501980751
 31
0.0
  0
LINE
  5
2F8
330
1F
100
AcDbEntity
  8
ZUWAKU
  6
Continuous
 62
    30
370
    25
100
AcDbLine
 10
-358.7790639352399
 20
697.6264501980752
 30
0.0
 11
-364.4791666666662
 21
697.6264501980752
 31
0.0
  0
LINE
  5
2F9
330
1F
100
AcDbEntity
  8
ZUWAKU
  6
Continuous
 62
    30
370
    25
100
AcDbLine
 10
-367.5590042834003
 20
699.8534672834328
 30
0.0
 11
-370.1041666666662
 21
697.6264501980752
 31
0.0
  0
LINE
  5
2FA
330
1F
100
AcDbEntity
  8
ZUWAKU
  6
Continuous
 62
    30
370
    25
100
AcDbLine
 10
-349.5004266530213
 20
697.6264501980752
 30
0.0
 11
-356.0416666666662
 21
697.6264501980752
 31
0.0
  0
LINE
  5
2FB
330
1F
100
AcDbEntity
  8
ZUWAKU
  6
Continuous
 62
    30
370
    25
100
AcDbLine
 10
-414.6735416666662
 20
699.1914501980751
 30
0.0
 11
-409.9869791666662
 21
711.6889501980754
 31
0.0
  0
LINE
  5
2FC
330
1F
100
AcDbEntity
  8
ZUWAKU
  6
Continuous
 62
    30
370
    25
100
AcDbLine
 10
-410.1905584339885
 20
706.6889501980754
 30
0.0
 11
-402.8757774347138
 21
706.6889501980752
 31
0.0
  0
LINE
  5
2FD
330
1F
100
AcDbEntity
  8
ZUWAKU
  6
Continuous
 62
    30
370
    25
100
AcDbLine
 10
-363.1155303030297
 20
701.3764501980754
 30
0.0
 11
-364.1666666666662
 21
701.3764501980752
 31
0.0
  0
LINE
  5
2FE
330
1F
100
AcDbEntity
  8
ZUWAKU
  6
Continuous
 62
    30
370
    25
100
AcDbLine
 10
-364.1666666666662
 20
701.3764501980752
 30
0.0
 11
-365.1997372115583
 21
701.3764501980752
 31
0.0
  0
LINE
  5
2FF
330
1F
100
AcDbEntity
  8
ZUWAKU
  6
Continuous
 62
    30
370
    25
100
AcDbLine
 10
-374.3403906777257
 20
697.6264501980752
 30
0.0
 11
-370.1041666666661
 21
697.6264501980752
 31
0.0
  0
CIRCLE
  5
300
330
1F
100
AcDbEntity
  8
ZUWAKU
  6
Continuous
 62
    30
370
    25
100
AcDbCircle
 10
-381.207042865538
 20
706.3764501980752
 30
0.0
 40
0.9466261988718389
  0
LINE
  5
301
330
1F
100
AcDbEntity
  8
ZUWAKU
  6
Continuous
 62
    30
370
    25
100
AcDbLine
 10
-413.5026041666702
 20
711.6889501980755
 30
0.0
 11
-409.9869791666662
 21
711.6889501980754
 31
0.0
  0
LINE
  5
302
330
1F
100
AcDbEntity
  8
ZUWAKU
  6
Continuous
 62
    30
370
    25
100
AcDbLine
 10
-408.3155584339885
 20
711.6889501980754
 30
0.0
 11
-402.8757774347138
 21
711.6889501980754
 31
0.0
  0
LINE
  5
303
330
1F
100
AcDbEntity
  8
ZUWAKU
  6
Continuous
 62
    30
370
    25
100
AcDbLine
 10
-418.8541666666662
 20
697.6264501980752
 30
0.0
 11
-418.2672916666661
 21
699.1914501980751
 31
0.0
  0
LINE
  5
304
330
1F
100
AcDbEntity
  8
ZUWAKU
  6
Continuous
 62
    30
370
    25
100
AcDbLine
 10
-413.5026041666702
 20
711.6889501980755
 30
0.0
 11
-412.9166666666703
 21
713.2514501980752
 31
0.0
  0
LINE
  5
305
330
1F
100
AcDbEntity
  8
ZUWAKU
  6
Continuous
 62
    30
370
    25
100
AcDbLine
 10
-414.2846090181872
 20
711.6889501980755
 30
0.0
 11
-413.6986715181874
 21
713.2514501980752
 31
0.0
  0
LINE
  5
306
330
1F
100
AcDbEntity
  8
ZUWAKU
  6
Continuous
 62
    30
370
    25
100
AcDbLine
 10
-402.8757774347138
 20
713.2514501980754
 30
0.0
 11
-412.9166666666703
 21
713.2514501980752
 31
0.0
  0
LINE
  5
307
330
1F
100
AcDbEntity
  8
ZUWAKU
  6
Continuous
 62
    30
370
    25
100
AcDbLine
 10
-413.6986715181874
 20
713.2514501980752
 30
0.0
 11
-415.1832184213933
 21
713.2514501980752
 31
0.0
  0
LINE
  5
308
330
1F
100
AcDbEntity
  8
ZUWAKU
  6
Continuous
 62
    30
370
    25
100
AcDbLine
 10
-415.7691559213932
 20
711.6889501980754
 30
0.0
 11
-414.2846090181872
 21
711.6889501980755
 31
0.0
  0
LINE
  5
309
330
1F
100
AcDbEntity
  8
ZUWAKU
  6
Continuous
 62
    30
370
    25
100
AcDbLine
 10
-416.3384181399407
 20
711.6889501980754
 30
0.0
 11
-415.7524806399409
 21
713.2514501980752
 31
0.0
  0
LINE
  5
30A
330
1F
100
AcDbEntity
  8
ZUWAKU
  6
Continuous
 62
    30
370
    25
100
AcDbLine
 10
-415.7524806399409
 20
713.2514501980752
 30
0.0
 11
-416.9968784186129
 21
713.2514501980752
 31
0.0
  0
LINE
  5
30B
330
1F
100
AcDbEntity
  8
ZUWAKU
  6
Continuous
 62
    30
370
    25
100
AcDbLine
 10
-417.5828159186128
 20
711.6889501980754
 30
0.0
 11
-416.3384181399408
 21
711.6889501980754
 31
0.0
  0
LINE
  5
30C
330
1F
100
AcDbEntity
  8
ZUWAKU
  6
Continuous
 62
    30
370
    25
100
AcDbLine
 10
-417.5828159186128
 20
711.6889501980755
 30
0.0
 11
-416.9968784186129
 21
713.2514501980754
 31
0.0
  0
LINE
  5
30D
330
1F
100
AcDbEntity
  8
ZUWAKU
  6
Continuous
 62
    30
370
    25
100
AcDbLine
 10
-418.0593125695947
 20
713.2514501980752
 30
0.0
 11
-419.278728162945
 21
713.2514501980752
 31
0.0
  0
LINE
  5
30E
330
1F
100
AcDbEntity
  8
ZUWAKU
  6
Continuous
 62
    30
370
    25
100
AcDbLine
 10
-419.8646656629449
 20
711.6889501980754
 30
0.0
 11
-418.6452500695946
 21
711.6889501980754
 31
0.0
  0
LINE
  5
30F
330
1F
100
AcDbEntity
  8
ZUWAKU
  6
Continuous
 62
    30
370
    25
100
AcDbLine
 10
-419.8646656629447
 20
711.6889501980754
 30
0.0
 11
-419.278728162945
 21
713.2514501980751
 31
0.0
  0
LINE
  5
310
330
1F
100
AcDbEntity
  8
ZUWAKU
  6
Continuous
 62
    30
370
    25
100
AcDbLine
 10
-415.7691559213932
 20
711.6889501980754
 30
0.0
 11
-415.1832184213933
 21
713.2514501980752
 31
0.0
  0
LINE
  5
311
330
1F
100
AcDbEntity
  8
ZUWAKU
  6
Continuous
 62
    30
370
    25
100
AcDbLine
 10
-418.6452500695946
 20
711.6889501980754
 30
0.0
 11
-418.0593125695947
 21
713.2514501980752
 31
0.0
  0
LINE
  5
312
330
1F
100
AcDbEntity
  8
ZUWAKU
  6
Continuous
 62
    30
370
    25
100
AcDbLine
 10
-420.7779892447716
 20
711.6889501980754
 30
0.0
 11
-420.1920517447717
 21
713.2514501980752
 31
0.0
  0
LINE
  5
313
330
1F
100
AcDbEntity
  8
ZUWAKU
  6
Continuous
 62
    30
370
    25
100
AcDbLine
 10
-420.1920517447717
 20
713.2514501980752
 30
0.0
 11
-421.3195199078708
 21
713.2514501980752
 31
0.0
  0
LINE
  5
314
330
1F
100
AcDbEntity
  8
ZUWAKU
  6
Continuous
 62
    30
370
    25
100
AcDbLine
 10
-421.9054574078706
 20
711.6889501980754
 30
0.0
 11
-420.7779892447716
 21
711.6889501980754
 31
0.0
  0
LINE
  5
315
330
1F
100
AcDbEntity
  8
ZUWAKU
  6
Continuous
 62
    30
370
    25
100
AcDbLine
 10
-421.9054574078706
 20
711.6889501980754
 30
0.0
 11
-421.3195199078708
 21
713.2514501980751
 31
0.0
  0
LINE
  5
316
330
1F
100
AcDbEntity
  8
ZUWAKU
  6
Continuous
 62
    30
370
    25
100
AcDbLine
 10
-422.8598793415646
 20
711.6889501980754
 30
0.0
 11
-422.2739418415647
 21
713.2514501980754
 31
0.0
  0
LINE
  5
317
330
1F
100
AcDbEntity
  8
ZUWAKU
  6
Continuous
 62
    30
370
    25
100
AcDbLine
 10
-422.2739418415647
 20
713.2514501980752
 30
0.0
 11
-423.2765460082312
 21
713.2514501980752
 31
0.0
  0
LINE
  5
318
330
1F
100
AcDbEntity
  8
ZUWAKU
  6
Continuous
 62
    30
370
    25
100
AcDbLine
 10
-423.7973793415645
 20
711.6889501980754
 30
0.0
 11
-422.8598793415646
 21
711.6889501980754
 31
0.0
  0
LINE
  5
319
330
1F
100
AcDbEntity
  8
ZUWAKU
  6
Continuous
 62
    30
370
    25
100
AcDbLine
 10
-423.7973793415646
 20
711.6889501980754
 30
0.0
 11
-423.2765460082312
 21
713.2514501980752
 31
0.0
  0
LINE
  5
31A
330
1F
100
AcDbEntity
  8
ZUWAKU
  6
Continuous
 62
    30
370
    25
100
AcDbLine
 10
-424.7957419290849
 20
711.6889501980754
 30
0.0
 11
-424.2749085957515
 21
713.2514501980752
 31
0.0
  0
LINE
  5
31B
330
1F
100
AcDbEntity
  8
ZUWAKU
  6
Continuous
 62
    30
370
    25
100
AcDbLine
 10
-425.6069457918353
 20
711.6889501980754
 30
0.0
 11
-425.086112458502
 21
713.2514501980752
 31
0.0
  0
LINE
  5
31C
330
1F
100
AcDbEntity
  8
ZUWAKU
  6
Continuous
 62
    30
370
    25
100
AcDbLine
 10
-427.117362458502
 20
711.6889501980754
 30
0.0
 11
-426.5965291251686
 21
713.2514501980752
 31
0.0
  0
LINE
  5
31D
330
1F
100
AcDbEntity
  8
ZUWAKU
  6
Continuous
 62
    30
370
    25
100
AcDbLine
 10
-428.1069457918352
 20
711.6889501980755
 30
0.0
 11
-427.586112458502
 21
713.2514501980752
 31
0.0
  0
LINE
  5
31E
330
1F
100
AcDbEntity
  8
ZUWAKU
  6
Continuous
 62
    30
370
    25
100
AcDbLine
 10
-428.3673624585019
 20
711.6889501980754
 30
0.0
 11
-427.8465291251684
 21
713.2514501980752
 31
0.0
  0
LINE
  5
31F
330
1F
100
AcDbEntity
  8
ZUWAKU
  6
Continuous
 62
    30
370
    25
100
AcDbLine
 10
-424.2749085957515
 20
713.2514501980752
 30
0.0
 11
-425.0861124585019
 21
713.2514501980752
 31
0.0
  0
LINE
  5
320
330
1F
100
AcDbEntity
  8
ZUWAKU
  6
Continuous
 62
    30
370
    25
100
AcDbLine
 10
-425.6069457918353
 20
711.6889501980754
 30
0.0
 11
-424.7957419290849
 21
711.6889501980754
 31
0.0
  0
LINE
  5
321
330
1F
100
AcDbEntity
  8
ZUWAKU
  6
Continuous
 62
    30
370
    25
100
AcDbLine
 10
-426.0236124585019
 20
713.2514501980752
 30
0.0
 11
-426.5965291251686
 21
713.2514501980752
 31
0.0
  0
LINE
  5
322
330
1F
100
AcDbEntity
  8
ZUWAKU
  6
Continuous
 62
    30
370
    25
100
AcDbLine
 10
-427.586112458502
 20
713.2514501980752
 30
0.0
 11
-427.8465291251684
 21
713.2514501980752
 31
0.0
  0
LINE
  5
323
330
1F
100
AcDbEntity
  8
ZUWAKU
  6
Continuous
 62
    30
370
    25
100
AcDbLine
 10
-427.117362458502
 20
711.6889501980754
 30
0.0
 11
-426.5444457918352
 21
711.6889501980754
 31
0.0
  0
LINE
  5
324
330
1F
100
AcDbEntity
  8
ZUWAKU
  6
Continuous
 62
    30
370
    25
100
AcDbLine
 10
-428.1069457918352
 20
711.6889501980754
 30
0.0
 11
-428.3673624585019
 21
711.6889501980754
 31
0.0
  0
ARC
  5
325
330
1F
100
AcDbEntity
  8
ZUWAKU
  6
Continuous
 62
    30
370
    25
100
AcDbCircle
 10
-402.8757774347138
 20
709.1889501980754
 30
0.0
 40
2.5
100
AcDbArc
 50
269.9999999999999
 51
89.99999999999994
  0
LINE
  5
326
330
1F
100
AcDbEntity
  8
ZUWAKU
  6
Continuous
 62
    30
370
    25
100
AcDbLine
 10
-418.2672916666661
 20
699.1914501980751
 30
0.0
 11
-414.6735416666662
 21
699.1914501980751
 31
0.0
  0
LINE
  5
327
330
1F
100
AcDbEntity
  8
ZUWAKU
  6
Continuous
 62
    30
370
    25
100
AcDbLine
 10
-418.8541666666662
 20
697.6264501980752
 30
0.0
 11
-413.5889959339885
 21
697.6264501980751
 31
0.0
  0
LINE
  5
328
330
1F
100
AcDbEntity
  8
ZUWAKU
  6
Continuous
 62
    30
370
    25
100
AcDbLine
 10
-413.5889959339885
 20
697.6264501980751
 30
0.0
 11
-410.7774334339883
 21
705.1239501980754
 31
0.0
  0
LINE
  5
329
330
1F
100
AcDbEntity
  8
ZUWAKU
  6
Continuous
 62
    30
370
    25
100
AcDbLine
 10
-410.1905584339885
 20
706.6889501980754
 30
0.0
 11
-408.3155584339885
 21
711.6889501980754
 31
0.0
  0
LINE
  5
32A
330
1F
100
AcDbEntity
  8
ZUWAKU
  6
Continuous
 62
    30
370
    25
100
AcDbLine
 10
-410.7774334339883
 20
705.1239501980754
 30
0.0
 11
-409.6543840579704
 21
705.1239501980752
 31
0.0
  0
LINE
  5
32B
330
1F
100
AcDbEntity
  8
ZUWAKU
  6
Continuous
 62
    30
370
    25
100
AcDbLine
 10
-407.8566964811602
 20
705.1239501980756
 30
0.0
 11
-402.8757774347138
 21
705.1239501980752
 31
0.0
  0
LINE
  5
32C
330
1F
100
AcDbEntity
  8
ZUWAKU
  6
Continuous
 62
    30
370
    25
100
AcDbLine
 10
-404.503544307247
 20
699.1914501980752
 30
0.0
 11
-407.8566964811602
 21
705.1239501980756
 31
0.0
  0
ARC
  5
32D
330
1F
100
AcDbEntity
  8
ZUWAKU
  6
Continuous
 62
    30
370
    25
100
AcDbCircle
 10
-402.8757774347138
 20
709.1889501980754
 30
0.0
 40
4.0625
100
AcDbArc
 50
269.9999999999999
 51
89.99999999999994
  0
ELLIPSE
  5
32E
330
1F
100
AcDbEntity
  8
ZUWAKU
  6
Continuous
 62
    30
370
    25
100
AcDbEllipse
 10
-397.6997444904291
 20
701.1492497539979
 30
0.0
 11
-0.411593316374649
 21
-0.7545877466866386
 31
0.0
210
0.0
220
0.0
230
1.0
 40
0.7520987448585007
 41
0.0
 42
6.283185307179586
  0
LINE
  5
32F
330
1F
100
AcDbEntity
  8
ZUWAKU
  6
Continuous
 62
    30
370
    25
100
AcDbLine
 10
-405.4166666666662
 20
697.6264501980752
 30
0.0
 11
-399.7916666666662
 21
697.6264501980752
 31
0.0
  0
ELLIPSE
  5
330
330
1F
100
AcDbEntity
  8
ZUWAKU
  6
Continuous
 62
    30
370
    25
100
AcDbEllipse
 10
-397.6997444904291
 20
701.1492497539978
 30
0.0
 11
-1.314994621005212
 21
-2.410823471842037
 31
0.0
210
0.0
220
0.0
230
1.0
 40
0.7520987448585006
 41
1.163380251178051
 42
5.860160707699565
  0
LINE
  5
331
330
1F
100
AcDbEntity
  8
ZUWAKU
  6
Continuous
 62
    30
370
    25
100
AcDbLine
 10
-404.503544307247
 20
699.1914501980752
 30
0.0
 11
-399.8855368414308
 21
699.1914501980738
 31
0.0
  0
ARC
  5
332
330
1F
100
AcDbEntity
  8
ZUWAKU
  6
Continuous
 62
    30
370
    25
100
AcDbCircle
 10
-400.351063694317
 20
702.7012878513829
 30
0.0
 40
3.540575603394131
100
AcDbArc
 50
277.5553196692587
 51
282.6100467718116
  0
ARC
  5
333
330
1F
100
AcDbEntity
  8
ZUWAKU
  6
Continuous
 62
    30
370
    25
100
AcDbCircle
 10
-400.351063694317
 20
702.7012878513829
 30
0.0
 40
5.10557560339413
100
AcDbArc
 50
276.2902926899438
 51
293.798156841225
  0
ARC
  5
334
330
1F
100
AcDbEntity
  8
ZUWAKU
  6
Continuous
 62
    30
370
    25
100
AcDbCircle
 10
-400.351063694317
 20
702.7012878513829
 30
0.0
 40
5.10557560339413
100
AcDbArc
 50
316.5712583378105
 51
318.0142678784152
  0
ARC
  5
335
330
1F
100
AcDbEntity
  8
ZUWAKU
  6
Continuous
 62
    30
370
    25
100
AcDbCircle
 10
-396.6839901535635
 20
701.0197201411312
 30
0.0
 40
3.394344197923649
100
AcDbArc
 50
209.3318227008482
 51
211.5012652768048
  0
ARC
  5
336
330
1F
100
AcDbEntity
  8
ZUWAKU
  6
Continuous
 62
    30
370
    25
100
AcDbCircle
 10
-396.6839901535635
 20
701.0197201411312
 30
0.0
 40
3.394344197923649
100
AcDbArc
 50
241.7445782933704
 51
269.9999999999999
  0
ELLIPSE
  5
337
330
1F
100
AcDbEntity
  8
ZUWAKU
  6
Continuous
 62
    30
370
    25
100
AcDbEllipse
 10
-389.7080946357543
 20
703.2506730410138
 30
0.0
 11
-0.6852152308110817
 21
-1.413256413548083
 31
0.0
210
0.0
220
0.0
230
1.0
 40
0.4421915578426128
 41
0.0
 42
6.283185307179586
  0
ARC
  5
338
330
1F
100
AcDbEntity
  8
ZUWAKU
  6
Continuous
 62
    30
370
    25
100
AcDbCircle
 10
-388.2669451939433
 20
703.6642088530642
 30
0.0
 40
6.070534184899125
100
AcDbArc
 50
241.2831156408176
 51
264.0434522032778
  0
LINE
  5
339
330
1F
100
AcDbEntity
  8
ZUWAKU
  6
Continuous
 62
    30
370
    25
100
AcDbLine
 10
-396.6839901535635
 20
697.6264501980752
 30
0.0
 11
-393.1622554897919
 21
697.6264501980681
 31
0.0
  0
ARC
  5
33A
330
1F
100
AcDbEntity
  8
ZUWAKU
  6
Continuous
 62
    30
370
    25
100
AcDbCircle
 10
-388.2669451939435
 20
703.6642088530643
 30
0.0
 40
4.505534184899124
100
AcDbArc
 50
251.0870810655405
 51
263.0848282407242
  0
ARC
  5
33B
330
1F
100
AcDbEntity
  8
ZUWAKU
  6
Continuous
 62
    30
370
    25
100
AcDbCircle
 10
-394.4906603774321
 20
704.406907571612
 30
0.0
 40
5.344360443626574
100
AcDbArc
 50
282.6095093602463
 51
291.9312697388032
  0
ELLIPSE
  5
33C
330
1F
100
AcDbEntity
  8
ZUWAKU
  6
Continuous
 62
    30
370
    25
100
AcDbEllipse
 10
-389.7080946357543
 20
703.2506730410137
 30
0.0
 11
-2.189186040930053
 21
-4.515196209419059
 31
0.0
210
0.0
220
0.0
230
1.0
 40
0.4421915578426129
 41
1.162166382047797
 42
5.890609621426315
  0
LINE
  5
33D
330
1F
100
AcDbEntity
  8
ZUWAKU
  6
Continuous
 62
    30
370
    25
100
AcDbLine
 10
-396.6432419767324
 20
699.1914501980751
 30
0.0
 11
-393.3239586433887
 21
699.1914501980751
 31
0.0
  0
ARC
  5
33E
330
1F
100
AcDbEntity
  8
ZUWAKU
  6
Continuous
 62
    30
370
    25
100
AcDbCircle
 10
-394.4906603774322
 20
704.406907571612
 30
0.0
 40
6.909360443626573
100
AcDbArc
 50
313.5828614086839
 51
326.2493926541699
  0
ARC
  5
33F
330
1F
100
AcDbEntity
  8
ZUWAKU
  6
Continuous
 62
    30
370
    25
100
AcDbCircle
 10
-394.4906603774321
 20
704.406907571612
 30
0.0
 40
6.909360443626573
100
AcDbArc
 50
281.0847997353328
 51
298.5950739026304
  0
LINE
  5
340
330
1F
100
AcDbEntity
  8
ZUWAKU
  6
Continuous
 62
    30
370
    25
100
AcDbLine
 10
-388.8969100454576
 20
697.6264501980752
 30
0.0
 11
-386.3541666666662
 21
697.6264501980752
 31
0.0
  0
LINE
  5
341
330
1F
100
AcDbEntity
  8
ZUWAKU
  6
Continuous
 62
    30
370
    25
100
AcDbLine
 10
-386.7181551168941
 20
699.4757059729612
 30
0.0
 11
-382.4657543006432
 21
703.7281067892177
 31
0.0
  0
LINE
  5
342
330
1F
100
AcDbEntity
  8
ZUWAKU
  6
Continuous
 62
    30
370
    25
100
AcDbLine
 10
-382.3192461066801
 20
699.1914501980751
 30
0.0
 11
-381.6316740306137
 21
703.316882654474
 31
0.0
  0
LINE
  5
343
330
1F
100
AcDbEntity
  8
ZUWAKU
  6
Continuous
 62
    30
370
    25
100
AcDbLine
 10
-388.8094102209403
 20
699.1914501980751
 30
0.0
 11
-387.2866666666663
 21
699.1914501980751
 31
0.0
  0
ARC
  5
344
330
1F
100
AcDbEntity
  8
ZUWAKU
  6
Continuous
 62
    30
370
    25
100
AcDbCircle
 10
-382.1106578943586
 20
703.3967132984316
 30
0.0
 40
0.485710925851617
100
AcDbArc
 50
350.537677791977
 51
136.9775057566911
  0
ELLIPSE
  5
345
330
1F
100
AcDbEntity
  8
ZUWAKU
  6
Continuous
 62
    30
370
    25
100
AcDbEllipse
 10
-375.47991580223
 20
700.5663568449565
 30
0.0
 11
-0.4559081498836691
 21
-0.7678453050671125
 31
0.0
210
0.0
220
0.0
230
1.0
 40
0.588198211994843
 41
0.0
 42
6.283185307179586
  0
LINE
  5
346
330
1F
100
AcDbEntity
  8
ZUWAKU
  6
Continuous
 62
    30
370
    25
100
AcDbLine
 10
-380.6689962718443
 20
699.1914501980751
 30
0.0
 11
-378.0642966406871
 21
700.4425263988672
 31
0.0
  0
LINE
  5
347
330
1F
100
AcDbEntity
  8
ZUWAKU
  6
Continuous
 62
    30
370
    25
100
AcDbLine
 10
-380.4166666666662
 20
697.6264501980752
 30
0.0
 11
-378.2359195936646
 21
698.5927663633037
 31
0.0
  0
LINE
  5
348
330
1F
100
AcDbEntity
  8
ZUWAKU
  6
Continuous
 62
    30
370
    25
100
AcDbLine
 10
-382.3192461066801
 20
699.1914501980751
 30
0.0
 11
-380.6689962718443
 21
699.1914501980751
 31
0.0
  0
LINE
  5
349
330
1F
100
AcDbEntity
  8
ZUWAKU
  6
Continuous
 62
    30
370
    25
100
AcDbLine
 10
-375.0697960544045
 20
698.3315420621982
 30
0.0
 11
-374.3403906777257
 21
697.6264501980752
 31
0.0
  0
LINE
  5
34A
330
1F
100
AcDbEntity
  8
ZUWAKU
  6
Continuous
 62
    30
370
    25
100
AcDbLine
 10
-372.6041666666662
 20
699.1914501980751
 30
0.0
 11
-370.4056054546538
 21
699.1914501980751
 31
0.0
  0
LINE
  5
34B
330
1F
100
AcDbEntity
  8
ZUWAKU
  6
Continuous
 62
    30
370
    25
100
AcDbLine
 10
-365.4084625975104
 20
703.5639501980752
 30
0.0
 11
-370.4056054546538
 21
699.1914501980751
 31
0.0
  0
ELLIPSE
  5
34C
330
1F
100
AcDbEntity
  8
ZUWAKU
  6
Continuous
 62
    30
370
    25
100
AcDbEllipse
 10
-375.8060281461414
 20
700.3814366655621
 30
0.0
 11
-1.985926046934821
 21
-2.460413948633345
 31
0.0
210
0.0
220
0.0
230
1.0
 40
0.6302087628984883
 41
2.771395296388167
 42
5.160819221064443
  0
ELLIPSE
  5
34D
330
1F
100
AcDbEntity
  8
ZUWAKU
  6
Continuous
 62
    30
370
    25
100
AcDbEllipse
 10
-375.8060281461414
 20
700.3814366655621
 30
0.0
 11
-1.985926046934821
 21
-2.460413948633345
 31
0.0
210
0.0
220
0.0
230
1.0
 40
0.6302087628984883
 41
5.887863080444753
 42
7.487602926078176
  0
LINE
  5
34E
330
1F
100
AcDbEntity
  8
ZUWAKU
  6
Continuous
 62
    30
370
    25
100
AcDbLine
 10
-373.0156156237337
 20
703.2619294062084
 30
0.0
 11
-371.3503560455268
 21
703.2619294062084
 31
0.0
  0
LINE
  5
34F
330
1F
100
AcDbEntity
  8
ZUWAKU
  6
Continuous
 62
    30
370
    25
100
AcDbLine
 10
-373.3936398129813
 20
702.222362885778
 30
0.0
 11
-373.0156156237337
 21
703.2619294062083
 31
0.0
  0
LINE
  5
350
330
1F
100
AcDbEntity
  8
ZUWAKU
  6
Continuous
 62
    30
370
    25
100
AcDbLine
 10
-372.6041666666662
 20
699.8139501980752
 30
0.0
 11
-371.3503560455268
 21
703.2619294062084
 31
0.0
  0
LINE
  5
351
330
1F
100
AcDbEntity
  8
ZUWAKU
  6
Continuous
 62
    30
370
    25
100
AcDbLine
 10
-368.3509264100188
 20
697.6756814352324
 30
0.0
 11
-367.5590042834003
 21
699.8534672834328
 31
0.0
  0
LINE
  5
352
330
1F
100
AcDbEntity
  8
ZUWAKU
  6
Continuous
 62
    30
370
    25
100
AcDbLine
 10
-365.1997372115583
 20
701.3764501980752
 30
0.0
 11
-366.5633735751948
 21
697.6264501980751
 31
0.0
  0
LINE
  5
353
330
1F
100
AcDbEntity
  8
ZUWAKU
  6
Continuous
 62
    30
370
    25
100
AcDbLine
 10
-364.4791666666662
 20
697.6264501980752
 30
0.0
 11
-363.1155303030297
 21
701.3764501980754
 31
0.0
  0
LINE
  5
354
330
1F
100
AcDbEntity
  8
ZUWAKU
  6
Continuous
 62
    30
370
    25
100
AcDbLine
 10
-360.8356182187543
 20
702.5680834298332
 30
0.0
 11
-362.0634848484844
 21
699.191450198075
 31
0.0
  0
LINE
  5
355
330
1F
100
AcDbEntity
  8
ZUWAKU
  6
Continuous
 62
    30
370
    25
100
AcDbLine
 10
-361.3552008804458
 20
703.5639501980752
 30
0.0
 11
-360.8356182187543
 21
702.5680834298332
 31
0.0
  0
LINE
  5
356
330
1F
100
AcDbEntity
  8
ZUWAKU
  6
Continuous
 62
    30
370
    25
100
AcDbLine
 10
-364.7836732455639
 20
702.6344436191773
 30
0.0
 11
-364.4762517701039
 21
703.5639501980752
 31
0.0
  0
LINE
  5
357
330
1F
100
AcDbEntity
  8
ZUWAKU
  6
Continuous
 62
    30
370
    25
100
AcDbLine
 10
-364.7836732455639
 20
702.6344436191773
 30
0.0
 11
-363.118930315279
 21
703.5639501980752
 31
0.0
  0
LINE
  5
358
330
1F
100
AcDbEntity
  8
ZUWAKU
  6
Continuous
 62
    30
370
    25
100
AcDbLine
 10
-361.3552008804458
 20
703.5639501980752
 30
0.0
 11
-363.1189303152788
 21
703.5639501980752
 31
0.0
  0
LINE
  5
359
330
1F
100
AcDbEntity
  8
ZUWAKU
  6
Continuous
 62
    30
370
    25
100
AcDbLine
 10
-364.4762517701039
 20
703.5639501980752
 30
0.0
 11
-365.4084625975104
 21
703.5639501980752
 31
0.0
  0
ELLIPSE
  5
35A
330
1F
100
AcDbEntity
  8
ZUWAKU
  6
Continuous
 62
    30
370
    25
100
AcDbEllipse
 10
-347.4085044767842
 20
701.1492497539979
 30
0.0
 11
-0.4115933163747058
 21
-0.7545877466866385
 31
0.0
210
0.0
220
0.0
230
1.0
 40
0.7520987448585007
 41
0.0
 42
6.283185307179586
  0
ELLIPSE
  5
35B
330
1F
100
AcDbEntity
  8
ZUWAKU
  6
Continuous
 62
    30
370
    25
100
AcDbEllipse
 10
-347.4085044767842
 20
701.1492497539978
 30
0.0
 11
-1.314994621005212
 21
-2.410823471842037
 31
0.0
210
0.0
220
0.0
230
1.0
 40
0.7520987448585006
 41
1.163380251178051
 42
5.860160707699565
  0
ARC
  5
35C
330
1F
100
AcDbEntity
  8
ZUWAKU
  6
Continuous
 62
    30
370
    25
100
AcDbCircle
 10
-350.0598236806721
 20
702.7012878513829
 30
0.0
 40
3.540575603394131
100
AcDbArc
 50
277.5553196692587
 51
282.6100467718116
  0
ARC
  5
35D
330
1F
100
AcDbEntity
  8
ZUWAKU
  6
Continuous
 62
    30
370
    25
100
AcDbCircle
 10
-350.0598236806721
 20
702.7012878513829
 30
0.0
 40
5.10557560339413
100
AcDbArc
 50
276.2902926899438
 51
293.798156841225
  0
ARC
  5
35E
330
1F
100
AcDbEntity
  8
ZUWAKU
  6
Continuous
 62
    30
370
    25
100
AcDbCircle
 10
-350.0598236806721
 20
702.7012878513829
 30
0.0
 40
5.10557560339413
100
AcDbArc
 50
316.5712583378105
 51
318.0142678784152
  0
ARC
  5
35F
330
1F
100
AcDbEntity
  8
ZUWAKU
  6
Continuous
 62
    30
370
    25
100
AcDbCircle
 10
-346.3927501399186
 20
701.0197201411312
 30
0.0
 40
3.394344197923649
100
AcDbArc
 50
209.3318227008482
 51
211.5012652768048
  0
ARC
  5
360
330
1F
100
AcDbEntity
  8
ZUWAKU
  6
Continuous
 62
    30
370
    25
100
AcDbCircle
 10
-346.3927501399186
 20
701.0197201411312
 30
0.0
 40
3.394344197923649
100
AcDbArc
 50
241.7445782933704
 51
269.9999999999999
  0
LINE
  5
361
330
1F
100
AcDbEntity
  8
ZUWAKU
  6
Continuous
 62
    30
370
    25
100
AcDbLine
 10
-355.0301763910082
 20
699.1914501980752
 30
0.0
 11
-349.5942968277859
 21
699.1914501980738
 31
0.0
  0
LINE
  5
362
330
1F
100
AcDbEntity
  8
ZUWAKU
  6
Continuous
 62
    30
370
    25
100
AcDbLine
 10
-346.3927501399186
 20
697.6264501980752
 30
0.0
 11
-343.383378745982
 21
697.6264501980689
 31
0.0
  0
LINE
  5
363
330
1F
100
AcDbEntity
  8
ZUWAKU
  6
Continuous
 62
    30
370
    25
100
AcDbLine
 10
-346.3520019630876
 20
699.1914501980751
 30
0.0
 11
-343.0327186297438
 21
699.1914501980751
 31
0.0
  0
LINE
  5
364
330
1F
100
AcDbEntity
  8
ZUWAKU
  6
Continuous
 62
    30
370
    25
100
AcDbLine
 10
-384.1666666666661
 20
697.6264501980752
 30
0.0
 11
-380.4166666666662
 21
697.6264501980752
 31
0.0
  0
LINE
  5
365
330
1F
100
AcDbEntity
  8
ZUWAKU
  6
Continuous
 62
    30
370
    25
100
AcDbLine
 10
-368.3509264100188
 20
697.6756814352324
 30
0.0
 11
-366.5633735751948
 21
697.6264501980751
 31
0.0
  0
LINE
  5
366
330
1F
100
AcDbEntity
  8
ZUWAKU
  6
Continuous
 62
    30
370
    25
100
AcDbLine
 10
-362.0634848484844
 20
699.191450198075
 30
0.0
 11
-359.1737202672152
 21
699.191450198075
 31
0.0
  0
LINE
  5
367
330
1F
100
AcDbEntity
  8
ZUWAKU
  6
Continuous
 62
    30
370
    25
100
AcDbLine
 10
-353.8408140776067
 20
701.4444237715225
 30
0.0
 11
-352.6733958109833
 21
702.3880868703764
 31
0.0
  0
ARC
  5
368
330
1F
100
AcDbEntity
  8
ZUWAKU
  6
Continuous
 62
    30
370
    25
100
AcDbCircle
 10
-355.0301763910082
 20
700.641450198075
 30
0.0
 40
1.45
100
AcDbArc
 50
34.07537471792378
 51
269.9999999999999
  0
ARC
  5
369
330
1F
100
AcDbEntity
  8
ZUWAKU
  6
Continuous
 62
    30
370
    25
100
AcDbCircle
 10
-355.0301763910082
 20
700.641450198075
 30
0.0
 40
2.933454340433867
100
AcDbArc
 50
36.54256145312644
 51
190.9861208353461
  0
LINE
  5
36A
330
1F
100
AcDbEntity
  8
ZUWAKU
  6
Continuous
 62
    30
370
    25
100
AcDbLine
 10
-358.7790639352399
 20
697.6264501980752
 30
0.0
 11
-357.2931864596537
 21
698.7198317367142
 31
0.0
  0
LINE
  5
36B
330
1F
100
AcDbEntity
  8
ZUWAKU
  6
Continuous
 62
    30
370
    25
100
AcDbLine
 10
-357.9285042747674
 20
700.1077412113858
 30
0.0
 11
-359.1737202672152
 21
699.191450198075
 31
0.0
  0
LINE
  5
36C
330
1F
100
AcDbEntity
  8
ZUWAKU
  6
Continuous
 62
    30
370
    25
100
AcDbLine
 10
-357.2931864596537
 20
698.7198317367142
 30
0.0
 11
-356.0416666666662
 21
697.6264501980752
 31
0.0
  0
LINE
  5
36D
330
1F
100
AcDbEntity
  8
ZUWAKU
  6
Continuous
 62
    30
370
    25
100
AcDbLine
 10
-343.0327186297438
 20
699.1914501980751
 30
0.0
 11
-343.383378745982
 21
697.6264501980689
 31
0.0
  0
LINE
  5
36E
330
1F
100
AcDbEntity
  8
ZUWAKU
  6
Continuous
 62
    30
370
    25
100
AcDbLine
 10
-426.1407999585018
 20
712.8998876980758
 30
0.0
 11
-427.000174958502
 21
712.0405126980756
 31
0.0
  0
LINE
  5
36F
330
1F
100
AcDbEntity
  8
ZUWAKU
  6
Continuous
 62
    30
370
    25
100
AcDbLine
 10
-424.3325242967304
 20
713.0786030951384
 30
0.0
 11
-425.5493300908564
 21
711.8617973010125
 31
0.0
  0
LINE
  5
370
330
1F
100
AcDbEntity
  8
ZUWAKU
  6
Continuous
 62
    30
370
    25
100
AcDbLine
 10
-422.2856605915646
 20
713.2202001980756
 30
0.0
 11
-423.7876137165647
 21
711.7182470730754
 31
0.0
  0
LINE
  5
371
330
1F
100
AcDbEntity
  8
ZUWAKU
  6
Continuous
 62
    30
370
    25
100
AcDbLine
 10
-420.2675045763214
 20
713.2514501980752
 30
0.0
 11
-421.8300045763212
 21
711.6889501980754
 31
0.0
  0
LINE
  5
372
330
1F
100
AcDbEntity
  8
ZUWAKU
  6
Continuous
 62
    30
370
    25
100
AcDbLine
 10
-418.1807391162698
 20
713.2514501980752
 30
0.0
 11
-419.7432391162696
 21
711.6889501980754
 31
0.0
  0
LINE
  5
373
330
1F
100
AcDbEntity
  8
ZUWAKU
  6
Continuous
 62
    30
370
    25
100
AcDbLine
 10
-415.886398279277
 20
713.2514501980752
 30
0.0
 11
-417.4488982792768
 21
711.6889501980754
 31
0.0
  0
LINE
  5
374
330
1F
100
AcDbEntity
  8
ZUWAKU
  6
Continuous
 62
    30
370
    25
100
AcDbLine
 10
-413.9526637197907
 20
713.2514501980752
 30
0.0
 11
-415.5151637197905
 21
711.6889501980754
 31
0.0
  0
LINE
  5
375
330
1F
100
AcDbEntity
  8
ZUWAKU
  6
Continuous
 62
    30
370
    25
100
AcDbLine
 10
-413.4120719841501
 20
698.0982473976444
 30
0.0
 11
-413.8838691837194
 21
697.6264501980751
 31
0.0
  0
LINE
  5
376
330
1F
100
AcDbEntity
  8
ZUWAKU
  6
Continuous
 62
    30
370
    25
100
AcDbLine
 10
-412.5635438467262
 20
700.3609890974415
 30
0.0
 11
-415.2980827460925
 21
697.6264501980752
 31
0.0
  0
LINE
  5
377
330
1F
100
AcDbEntity
  8
ZUWAKU
  6
Continuous
 62
    30
370
    25
100
AcDbLine
 10
-411.7150157093022
 20
702.6237307972385
 30
0.0
 11
-414.3892888815866
 21
699.9494576249542
 31
0.0
  0
LINE
  5
378
330
1F
100
AcDbEntity
  8
ZUWAKU
  6
Continuous
 62
    30
370
    25
100
AcDbLine
 10
-415.1472963084654
 20
699.1914501980752
 30
0.0
 11
-416.7122963084656
 21
697.6264501980752
 31
0.0
  0
LINE
  5
379
330
1F
100
AcDbEntity
  8
ZUWAKU
  6
Continuous
 62
    30
370
    25
100
AcDbLine
 10
-410.8664875718785
 20
704.886472497035
 30
0.0
 11
-413.5407607441629
 21
702.2121993247506
 31
0.0
  0
LINE
  5
37A
330
1F
100
AcDbEntity
  8
ZUWAKU
  6
Continuous
 62
    30
370
    25
100
AcDbLine
 10
-416.5615098708382
 20
699.1914501980752
 30
0.0
 11
-418.1265098708383
 21
697.6264501980752
 31
0.0
  0
LINE
  5
37B
330
1F
100
AcDbEntity
  8
ZUWAKU
  6
Continuous
 62
    30
370
    25
100
AcDbLine
 10
-417.9757234332115
 20
699.1914501980752
 30
0.0
 11
-418.4422326067389
 21
698.7249410245479
 31
0.0
  0
LINE
  5
37C
330
1F
100
AcDbEntity
  8
ZUWAKU
  6
Continuous
 62
    30
370
    25
100
AcDbLine
 10
-408.158364120331
 20
713.2514501980754
 30
0.0
 11
-410.1466481944676
 21
711.2631661239384
 31
0.0
  0
LINE
  5
37D
330
1F
100
AcDbEntity
  8
ZUWAKU
  6
Continuous
 62
    30
370
    25
100
AcDbLine
 10
-409.5725776827043
 20
713.2514501980752
 30
0.0
 11
-411.1350776827039
 21
711.6889501980754
 31
0.0
  0
LINE
  5
37E
330
1F
100
AcDbEntity
  8
ZUWAKU
  6
Continuous
 62
    30
370
    25
100
AcDbLine
 10
-410.9867912450772
 20
713.2514501980752
 30
0.0
 11
-412.5492912450769
 21
711.6889501980756
 31
0.0
  0
LINE
  5
37F
330
1F
100
AcDbEntity
  8
ZUWAKU
  6
Continuous
 62
    30
370
    25
100
AcDbLine
 10
-412.4010048074506
 20
713.2514501980752
 30
0.0
 11
-413.2260637822023
 21
712.4263912233232
 31
0.0
  0
LINE
  5
380
330
1F
100
AcDbEntity
  8
ZUWAKU
  6
Continuous
 62
    30
370
    25
100
AcDbLine
 10
-398.062181185511
 20
703.548643259672
 30
0.0
 11
-399.5581311923291
 21
702.0526932528535
 31
0.0
  0
LINE
  5
381
330
1F
100
AcDbEntity
  8
ZUWAKU
  6
Continuous
 62
    30
370
    25
100
AcDbLine
 10
-396.556161121739
 20
703.6404497610704
 30
0.0
 11
-399.926963833504
 21
700.2696470493054
 31
0.0
  0
LINE
  5
382
330
1F
100
AcDbEntity
  8
ZUWAKU
  6
Continuous
 62
    30
370
    25
100
AcDbLine
 10
-395.4634275556099
 20
701.9047562024537
 30
0.0
 11
-399.735189642694
 21
697.6329941153697
 31
0.0
  0
LINE
  5
383
330
1F
100
AcDbEntity
  8
ZUWAKU
  6
Continuous
 62
    30
370
    25
100
AcDbLine
 10
-405.3299369955849
 20
713.2514501980754
 30
0.0
 11
-406.8924369955847
 21
711.6889501980754
 31
0.0
  0
LINE
  5
384
330
1F
100
AcDbEntity
  8
ZUWAKU
  6
Continuous
 62
    30
370
    25
100
AcDbLine
 10
-409.1694312970308
 20
709.4119558966293
 30
0.0
 11
-411.8437044693151
 21
706.737682724345
 31
0.0
  0
LINE
  5
385
330
1F
100
AcDbEntity
  8
ZUWAKU
  6
Continuous
 62
    30
370
    25
100
AcDbLine
 10
-403.9157234332114
 20
713.2514501980754
 30
0.0
 11
-405.4782234332113
 21
711.6889501980754
 31
0.0
  0
LINE
  5
386
330
1F
100
AcDbEntity
  8
ZUWAKU
  6
Continuous
 62
    30
370
    25
100
AcDbLine
 10
-410.0179594344547
 20
707.1492141968321
 30
0.0
 11
-412.692232606739
 21
704.4749410245479
 31
0.0
  0
LINE
  5
387
330
1F
100
AcDbEntity
  8
ZUWAKU
  6
Continuous
 62
    30
370
    25
100
AcDbLine
 10
-402.5173522798889
 20
713.2356077890249
 30
0.0
 11
-404.0640098708384
 21
711.6889501980754
 31
0.0
  0
LINE
  5
388
330
1F
100
AcDbEntity
  8
ZUWAKU
  6
Continuous
 62
    30
370
    25
100
AcDbLine
 10
-409.0640098708383
 20
706.6889501980754
 30
0.0
 11
-410.6290098708379
 21
705.1239501980756
 31
0.0
  0
LINE
  5
389
330
1F
100
AcDbEntity
  8
ZUWAKU
  6
Continuous
 62
    30
370
    25
100
AcDbLine
 10
-401.3747643801282
 20
712.9639821264124
 30
0.0
 11
-402.6591955224536
 21
711.679550984087
 31
0.0
  0
LINE
  5
38A
330
1F
100
AcDbEntity
  8
ZUWAKU
  6
Continuous
 62
    30
370
    25
100
AcDbLine
 10
-407.6497963084653
 20
706.6889501980752
 30
0.0
 11
-409.4956440373158
 21
704.843102469225
 31
0.0
  0
LINE
  5
38B
330
1F
100
AcDbEntity
  8
ZUWAKU
  6
Continuous
 62
    30
370
    25
100
AcDbLine
 10
-400.4654095343412
 20
712.4591234098264
 30
0.0
 11
-401.59098370135
 21
711.3335492428175
 31
0.0
  0
LINE
  5
38C
330
1F
100
AcDbEntity
  8
ZUWAKU
  6
Continuous
 62
    30
370
    25
100
AcDbLine
 10
-399.7393582075133
 20
711.7709611742814
 30
0.0
 11
-400.8526758686985
 21
710.6576435130961
 31
0.0
  0
LINE
  5
38D
330
1F
100
AcDbEntity
  8
ZUWAKU
  6
Continuous
 62
    30
370
    25
100
AcDbLine
 10
-399.1927473570188
 20
710.9033584624026
 30
0.0
 11
-400.4230891790548
 21
709.6730166403667
 31
0.0
  0
LINE
  5
38E
330
1F
100
AcDbEntity
  8
ZUWAKU
  6
Continuous
 62
    30
370
    25
100
AcDbLine
 10
-398.8624942619026
 20
709.8193979951454
 30
0.0
 11
-400.6704471033339
 21
708.0114451537144
 31
0.0
  0
LINE
  5
38F
330
1F
100
AcDbEntity
  8
ZUWAKU
  6
Continuous
 62
    30
370
    25
100
AcDbLine
 10
-406.744150557958
 20
713.2514501980754
 30
0.0
 11
-408.3066505579578
 21
711.6889501980754
 31
0.0
  0
LINE
  5
390
330
1F
100
AcDbEntity
  8
ZUWAKU
  6
Continuous
 62
    30
370
    25
100
AcDbLine
 10
-408.3209031596069
 20
711.6746975964263
 30
0.0
 11
-410.9951763318912
 21
709.000424424142
 31
0.0
  0
LINE
  5
391
330
1F
100
AcDbEntity
  8
ZUWAKU
  6
Continuous
 62
    30
370
    25
100
AcDbLine
 10
-404.8213691837192
 20
706.6889501980752
 30
0.0
 11
-406.3863691837188
 21
705.1239501980756
 31
0.0
  0
LINE
  5
392
330
1F
100
AcDbEntity
  8
ZUWAKU
  6
Continuous
 62
    30
370
    25
100
AcDbLine
 10
-407.3257449570842
 20
704.18457442471
 30
0.0
 11
-408.4742675756019
 21
703.0360518061925
 31
0.0
  0
LINE
  5
393
330
1F
100
AcDbEntity
  8
ZUWAKU
  6
Continuous
 62
    30
370
    25
100
AcDbLine
 10
-406.2355827460922
 20
706.6889501980752
 30
0.0
 11
-407.8005827460919
 21
705.1239501980756
 31
0.0
  0
LINE
  5
394
330
1F
100
AcDbEntity
  8
ZUWAKU
  6
Continuous
 62
    30
370
    25
100
AcDbLine
 10
-407.8364331879411
 20
705.0880997562264
 30
0.0
 11
-408.9849558064588
 21
703.9395771377087
 31
0.0
  0
LINE
  5
395
330
1F
100
AcDbEntity
  8
ZUWAKU
  6
Continuous
 62
    30
370
    25
100
AcDbLine
 10
-403.4071556213465
 20
706.6889501980751
 30
0.0
 11
-404.972155621346
 21
705.1239501980754
 31
0.0
  0
LINE
  5
396
330
1F
100
AcDbEntity
  8
ZUWAKU
  6
Continuous
 62
    30
370
    25
100
AcDbLine
 10
-406.8150567262273
 20
703.2810490931943
 30
0.0
 11
-407.9635793447451
 21
702.1325264746765
 31
0.0
  0
LINE
  5
397
330
1F
100
AcDbEntity
  8
ZUWAKU
  6
Continuous
 62
    30
370
    25
100
AcDbLine
 10
-401.6982723903528
 20
706.9836198666953
 30
0.0
 11
-403.5579420589728
 21
705.1239501980754
 31
0.0
  0
LINE
  5
398
330
1F
100
AcDbEntity
  8
ZUWAKU
  6
Continuous
 62
    30
370
    25
100
AcDbLine
 10
-406.3043684953703
 20
702.377523761678
 30
0.0
 11
-407.4528911138881
 21
701.2290011431603
 31
0.0
  0
LINE
  5
399
330
1F
100
AcDbEntity
  8
ZUWAKU
  6
Continuous
 62
    30
370
    25
100
AcDbLine
 10
-398.8964198004129
 20
708.3712588942624
 30
0.0
 11
-402.0580861309006
 21
705.2095925637745
 31
0.0
  0
LINE
  5
39A
330
1F
100
AcDbEntity
  8
ZUWAKU
  6
Continuous
 62
    30
370
    25
100
AcDbLine
 10
-405.7936802645133
 20
701.4739984301618
 30
0.0
 11
-406.9422028830311
 21
700.3254758116441
 31
0.0
  0
LINE
  5
39B
330
1F
100
AcDbEntity
  8
ZUWAKU
  6
Continuous
 62
    30
370
    25
100
AcDbLine
 10
-405.2829920336563
 20
700.5704730986458
 30
0.0
 11
-406.4315146521742
 21
699.4219504801279
 31
0.0
  0
LINE
  5
39C
330
1F
100
AcDbEntity
  8
ZUWAKU
  6
Continuous
 62
    30
370
    25
100
AcDbLine
 10
-404.7723038027995
 20
699.6669477671296
 30
0.0
 11
-405.9208264213174
 21
698.5184251486118
 31
0.0
  0
LINE
  5
39D
330
1F
100
AcDbEntity
  8
ZUWAKU
  6
Continuous
 62
    30
370
    25
100
AcDbLine
 10
-403.8335878094808
 20
699.1914501980751
 30
0.0
 11
-405.3985878094808
 21
697.6264501980752
 31
0.0
  0
LINE
  5
39E
330
1F
100
AcDbEntity
  8
ZUWAKU
  6
Continuous
 62
    30
370
    25
100
AcDbLine
 10
-402.4193742471082
 20
699.1914501980746
 30
0.0
 11
-403.9843742471077
 21
697.6264501980752
 31
0.0
  0
LINE
  5
39F
330
1F
100
AcDbEntity
  8
ZUWAKU
  6
Continuous
 62
    30
370
    25
100
AcDbLine
 10
-401.0051606847353
 20
699.1914501980741
 30
0.0
 11
-402.5701606847343
 21
697.6264501980752
 31
0.0
  0
LINE
  5
3A0
330
1F
100
AcDbEntity
  8
ZUWAKU
  6
Continuous
 62
    30
370
    25
100
AcDbLine
 10
-395.7883843487091
 20
702.9940129717273
 30
0.0
 11
-397.0844263790501
 21
701.6979709413864
 31
0.0
  0
LINE
  5
3A1
330
1F
100
AcDbEntity
  8
ZUWAKU
  6
Continuous
 62
    30
370
    25
100
AcDbLine
 10
-398.2615111535966
 20
700.52088616684
 30
0.0
 11
-401.1559471223615
 21
697.6264501980752
 31
0.0
  0
LINE
  5
3A2
330
1F
100
AcDbEntity
  8
ZUWAKU
  6
Continuous
 62
    30
370
    25
100
AcDbLine
 10
-388.0896277517289
 20
707.8643424439612
 30
0.0
 11
-391.675473074878
 21
704.2784971208123
 31
0.0
  0
LINE
  5
3A3
330
1F
100
AcDbEntity
  8
ZUWAKU
  6
Continuous
 62
    30
370
    25
100
AcDbLine
 10
-396.0222362760098
 20
699.9317339196805
 30
0.0
 11
-398.0441567175137
 21
697.9098134781766
 31
0.0
  0
LINE
  5
3A4
330
1F
100
AcDbEntity
  8
ZUWAKU
  6
Continuous
 62
    30
370
    25
100
AcDbLine
 10
-387.1180491115394
 20
707.4217075217774
 30
0.0
 11
-392.4823097818689
 21
702.0574468514483
 31
0.0
  0
LINE
  5
3A5
330
1F
100
AcDbEntity
  8
ZUWAKU
  6
Continuous
 62
    30
370
    25
100
AcDbLine
 10
-395.3483064352417
 20
699.1914501980752
 30
0.0
 11
-396.9070439525741
 21
697.632712680743
 31
0.0
  0
LINE
  5
3A6
330
1F
100
AcDbEntity
  8
ZUWAKU
  6
Continuous
 62
    30
370
    25
100
AcDbLine
 10
-393.9340928728691
 20
699.1914501980752
 30
0.0
 11
-395.4990928728713
 21
697.6264501980728
 31
0.0
  0
LINE
  5
3A7
330
1F
100
AcDbEntity
  8
ZUWAKU
  6
Continuous
 62
    30
370
    25
100
AcDbLine
 10
-386.7659275787218
 20
706.3596154922229
 30
0.0
 11
-388.8022560486281
 21
704.3232870223167
 31
0.0
  0
LINE
  5
3A8
330
1F
100
AcDbEntity
  8
ZUWAKU
  6
Continuous
 62
    30
370
    25
100
AcDbLine
 10
-390.6333609115818
 20
702.492182159363
 30
0.0
 11
-392.669689381488
 21
700.4558536894565
 31
0.0
  0
LINE
  5
3A9
330
1F
100
AcDbEntity
  8
ZUWAKU
  6
Continuous
 62
    30
370
    25
100
AcDbLine
 10
-386.847265202868
 20
704.8640643057038
 30
0.0
 11
-394.0848793105016
 21
697.6264501980701
 31
0.0
  0
LINE
  5
3AA
330
1F
100
AcDbEntity
  8
ZUWAKU
  6
Continuous
 62
    30
370
    25
100
AcDbLine
 10
-387.4614798123003
 20
702.8356361338981
 30
0.0
 11
-392.5094184653599
 21
697.7876974808385
 31
0.0
  0
LINE
  5
3AB
330
1F
100
AcDbEntity
  8
ZUWAKU
  6
Continuous
 62
    30
370
    25
100
AcDbLine
 10
-382.17536083622
 20
703.878095301425
 30
0.0
 11
-388.4270059395699
 21
697.6264501980752
 31
0.0
  0
LINE
  5
3AC
330
1F
100
AcDbEntity
  8
ZUWAKU
  6
Continuous
 62
    30
370
    25
100
AcDbLine
 10
-381.6931542345164
 20
707.1887290278746
 30
0.0
 11
-382.0193216953375
 21
706.8625615670535
 31
0.0
  0
LINE
  5
3AD
330
1F
100
AcDbEntity
  8
ZUWAKU
  6
Continuous
 62
    30
370
    25
100
AcDbLine
 10
-389.5397025281162
 20
699.3421807342753
 30
0.0
 11
-390.7549373155638
 21
698.1269459468276
 31
0.0
  0
LINE
  5
3AE
330
1F
100
AcDbEntity
  8
ZUWAKU
  6
Continuous
 62
    30
370
    25
100
AcDbLine
 10
-380.4822752642897
 20
706.9853944357287
 30
0.0
 11
-381.8159871031914
 21
705.651682596827
 31
0.0
  0
LINE
  5
3AF
330
1F
100
AcDbEntity
  8
ZUWAKU
  6
Continuous
 62
    30
370
    25
100
AcDbLine
 10
-388.2762195019429
 20
699.1914501980752
 30
0.0
 11
-389.7019481051333
 21
697.7657215948848
 31
0.0
  0
LINE
  5
3B0
330
1F
100
AcDbEntity
  8
ZUWAKU
  6
Continuous
 62
    30
370
    25
100
AcDbLine
 10
-374.4499538669347
 20
703.1182208964733
 30
0.0
 11
-379.5638156804948
 21
698.0043590829116
 31
0.0
  0
LINE
  5
3B1
330
1F
100
AcDbEntity
  8
ZUWAKU
  6
Continuous
 62
    30
370
    25
100
AcDbLine
 10
-381.2051516900773
 20
699.1914501980752
 30
0.0
 11
-382.7701516900776
 21
697.6264501980752
 31
0.0
  0
LINE
  5
3B2
330
1F
100
AcDbEntity
  8
ZUWAKU
  6
Continuous
 62
    30
370
    25
100
AcDbLine
 10
-382.2592222775261
 20
699.5515931729999
 30
0.0
 11
-384.1843652524506
 21
697.6264501980752
 31
0.0
  0
LINE
  5
3B3
330
1F
100
AcDbEntity
  8
ZUWAKU
  6
Continuous
 62
    30
370
    25
100
AcDbLine
 10
-381.9763795650515
 20
701.2486494478474
 30
0.0
 11
-383.8802842370347
 21
699.3447447758642
 31
0.0
  0
LINE
  5
3B4
330
1F
100
AcDbEntity
  8
ZUWAKU
  6
Continuous
 62
    30
370
    25
100
AcDbLine
 10
-387.0127923771969
 20
697.6264501980752
 30
0.0
 11
-381.6935368525769
 21
702.9457057226948
 31
0.0
  0
LINE
  5
3B5
330
1F
100
AcDbEntity
  8
ZUWAKU
  6
Continuous
 62
    30
370
    25
100
AcDbLine
 10
-371.4778182324518
 20
703.2619294062084
 30
0.0
 11
-377.1038847967485
 21
697.6358628419123
 31
0.0
  0
LINE
  5
3B6
330
1F
100
AcDbEntity
  8
ZUWAKU
  6
Continuous
 62
    30
370
    25
100
AcDbLine
 10
-372.0856425457829
 20
701.2398915305041
 30
0.0
 11
-375.0312516271254
 21
698.2942824491615
 31
0.0
  0
LINE
  5
3B7
330
1F
100
AcDbEntity
  8
ZUWAKU
  6
Continuous
 62
    30
370
    25
100
AcDbLine
 10
-372.6041666666662
 20
699.3071538472477
 30
0.0
 11
-374.2848703158388
 21
697.6264501980752
 31
0.0
  0
LINE
  5
3B8
330
1F
100
AcDbEntity
  8
ZUWAKU
  6
Continuous
 62
    30
370
    25
100
AcDbLine
 10
-371.3056567534658
 20
699.1914501980752
 30
0.0
 11
-372.8706567534657
 21
697.6264501980752
 31
0.0
  0
LINE
  5
3B9
330
1F
100
AcDbEntity
  8
ZUWAKU
  6
Continuous
 62
    30
370
    25
100
AcDbLine
 10
-366.2923073461685
 20
702.7905860429994
 30
0.0
 11
-371.4564431910928
 21
697.6264501980752
 31
0.0
  0
LINE
  5
3BA
330
1F
100
AcDbEntity
  8
ZUWAKU
  6
Continuous
 62
    30
370
    25
100
AcDbLine
 10
-376.5815573918584
 20
702.400830933921
 30
0.0
 11
-377.3853279125025
 21
701.5970604132772
 31
0.0
  0
LINE
  5
3BB
330
1F
100
AcDbEntity
  8
ZUWAKU
  6
Continuous
 62
    30
370
    25
100
AcDbLine
 10
-378.9793995399387
 20
700.0029887858409
 30
0.0
 11
-381.3559381277043
 21
697.6264501980752
 31
0.0
  0
LINE
  5
3BC
330
1F
100
AcDbEntity
  8
ZUWAKU
  6
Continuous
 62
    30
370
    25
100
AcDbLine
 10
-376.1041608555041
 20
700.0498003455291
 30
0.0
 11
-378.0086887830794
 21
698.1452724179541
 31
0.0
  0
LINE
  5
3BD
330
1F
100
AcDbEntity
  8
ZUWAKU
  6
Continuous
 62
    30
370
    25
100
AcDbLine
 10
-372.8920317948244
 20
703.2619294062084
 30
0.0
 11
-373.086234954539
 21
703.0677262464942
 31
0.0
  0
LINE
  5
3BE
330
1F
100
AcDbEntity
  8
ZUWAKU
  6
Continuous
 62
    30
370
    25
100
AcDbLine
 10
-373.5751394471407
 20
702.5788217538923
 30
0.0
 11
-374.9196730898091
 21
701.2342881112243
 31
0.0
  0
LINE
  5
3BF
330
1F
100
AcDbEntity
  8
ZUWAKU
  6
Continuous
 62
    30
370
    25
100
AcDbLine
 10
-362.6349957044598
 20
703.5639501980752
 30
0.0
 11
-364.82249570446
 21
701.3764501980752
 31
0.0
  0
LINE
  5
3C0
330
1F
100
AcDbEntity
  8
ZUWAKU
  6
Continuous
 62
    30
370
    25
100
AcDbLine
 10
-365.4153037870431
 20
700.7836421154922
 30
0.0
 11
-368.2524475201423
 21
697.946498382393
 31
0.0
  0
LINE
  5
3C1
330
1F
100
AcDbEntity
  8
ZUWAKU
  6
Continuous
 62
    30
370
    25
100
AcDbLine
 10
497.3958333333334
 20
-276.9568831352598
 30
0.0
 11
524.8958333333333
 21
-276.9568831352598
 31
0.0
  0
LINE
  5
3C2
330
1F
100
AcDbEntity
  8
ZUWAKU
  6
Continuous
 62
    30
370
    25
100
AcDbLine
 10
497.3958333333334
 20
-251.9568831352599
 30
0.0
 11
524.8958333333333
 21
-251.9568831352599
 31
0.0
  0
LINE
  5
3C3
330
1F
100
AcDbEntity
  8
ZUWAKU
  6
Continuous
 62
    30
370
    25
100
AcDbLine
 10
524.8958333333333
 20
-251.9568831352599
 30
0.0
 11
524.8958333333333
 21
-276.9568831352598
 31
0.0
  0
LINE
  5
3C4
330
1F
100
AcDbEntity
  8
ZUWAKU
  6
Continuous
 62
    30
370
    25
100
AcDbLine
 10
497.3958333333334
 20
-251.9568831352599
 30
0.0
 11
497.3958333333334
 21
-276.9568831352598
 31
0.0
  0
LINE
  5
3C5
330
1F
100
AcDbEntity
  8
ZUWAKU
  6
Continuous
 62
    30
370
    25
100
AcDbLine
 10
524.8958333333333
 20
-276.8698340391633
 30
0.0
 11
524.8087842372368
 21
-276.9568831352598
 31
0.0
  0
LINE
  5
3C6
330
1F
100
AcDbEntity
  8
ZUWAKU
  6
Continuous
 62
    30
370
    25
100
AcDbLine
 10
510.2227742192728
 20
-251.9568831352599
 30
0.0
 11
497.3958333333334
 21
-264.7838240211993
 31
0.0
  0
LINE
  5
3C7
330
1F
100
AcDbEntity
  8
ZUWAKU
  6
Continuous
 62
    30
370
    25
100
AcDbLine
 10
508.8085606568992
 20
-251.9568831352599
 30
0.0
 11
497.3958333333334
 21
-263.3696104588258
 31
0.0
  0
LINE
  5
3C8
330
1F
100
AcDbEntity
  8
ZUWAKU
  6
Continuous
 62
    30
370
    25
100
AcDbLine
 10
507.394347094526
 20
-251.9568831352599
 30
0.0
 11
497.3958333333334
 21
-261.9553968964527
 31
0.0
  0
LINE
  5
3C9
330
1F
100
AcDbEntity
  8
ZUWAKU
  6
Continuous
 62
    30
370
    25
100
AcDbLine
 10
505.9801335321529
 20
-251.9568831352599
 30
0.0
 11
497.3958333333334
 21
-260.5411833340795
 31
0.0
  0
LINE
  5
3CA
330
1F
100
AcDbEntity
  8
ZUWAKU
  6
Continuous
 62
    30
370
    25
100
AcDbLine
 10
504.5659199697795
 20
-251.9568831352599
 30
0.0
 11
497.3958333333334
 21
-259.1269697717062
 31
0.0
  0
LINE
  5
3CB
330
1F
100
AcDbEntity
  8
ZUWAKU
  6
Continuous
 62
    30
370
    25
100
AcDbLine
 10
503.1517064074064
 20
-251.9568831352599
 30
0.0
 11
497.3958333333334
 21
-257.712756209333
 31
0.0
  0
LINE
  5
3CC
330
1F
100
AcDbEntity
  8
ZUWAKU
  6
Continuous
 62
    30
370
    25
100
AcDbLine
 10
501.7374928450332
 20
-251.9568831352599
 30
0.0
 11
497.3958333333334
 21
-256.2985426469598
 31
0.0
  0
LINE
  5
3CD
330
1F
100
AcDbEntity
  8
ZUWAKU
  6
Continuous
 62
    30
370
    25
100
AcDbLine
 10
500.3232792826601
 20
-251.9568831352599
 30
0.0
 11
497.3958333333334
 21
-254.8843290845867
 31
0.0
  0
LINE
  5
3CE
330
1F
100
AcDbEntity
  8
ZUWAKU
  6
Continuous
 62
    30
370
    25
100
AcDbLine
 10
498.9090657202869
 20
-251.9568831352599
 30
0.0
 11
497.3958333333334
 21
-253.4701155222135
 31
0.0
  0
LINE
  5
3CF
330
1F
100
AcDbEntity
  8
ZUWAKU
  6
Continuous
 62
    30
370
    25
100
AcDbLine
 10
511.6369877816456
 20
-251.9568831352599
 30
0.0
 11
497.3958333333334
 21
-266.1980375835722
 31
0.0
  0
LINE
  5
3D0
330
1F
100
AcDbEntity
  8
ZUWAKU
  6
Continuous
 62
    30
370
    25
100
AcDbLine
 10
513.0512013440185
 20
-251.9568831352599
 30
0.0
 11
497.3958333333334
 21
-267.6122511459451
 31
0.0
  0
LINE
  5
3D1
330
1F
100
AcDbEntity
  8
ZUWAKU
  6
Continuous
 62
    30
370
    25
100
AcDbLine
 10
514.4654149063917
 20
-251.9568831352599
 30
0.0
 11
497.3958333333334
 21
-269.0264647083183
 31
0.0
  0
LINE
  5
3D2
330
1F
100
AcDbEntity
  8
ZUWAKU
  6
Continuous
 62
    30
370
    25
100
AcDbLine
 10
515.879628468765
 20
-251.9568831352599
 30
0.0
 11
497.3958333333334
 21
-270.4406782706916
 31
0.0
  0
LINE
  5
3D3
330
1F
100
AcDbEntity
  8
ZUWAKU
  6
Continuous
 62
    30
370
    25
100
AcDbLine
 10
517.2938420311382
 20
-251.9568831352599
 30
0.0
 11
497.3958333333334
 21
-271.8548918330648
 31
0.0
  0
LINE
  5
3D4
330
1F
100
AcDbEntity
  8
ZUWAKU
  6
Continuous
 62
    30
370
    25
100
AcDbLine
 10
518.7080555935113
 20
-251.9568831352599
 30
0.0
 11
497.3958333333334
 21
-273.269105395438
 31
0.0
  0
LINE
  5
3D5
330
1F
100
AcDbEntity
  8
ZUWAKU
  6
Continuous
 62
    30
370
    25
100
AcDbLine
 10
520.1222691558844
 20
-251.9568831352599
 30
0.0
 11
497.3958333333334
 21
-274.6833189578111
 31
0.0
  0
LINE
  5
3D6
330
1F
100
AcDbEntity
  8
ZUWAKU
  6
Continuous
 62
    30
370
    25
100
AcDbLine
 10
521.5364827182576
 20
-251.9568831352599
 30
0.0
 11
497.3958333333334
 21
-276.0975325201842
 31
0.0
  0
LINE
  5
3D7
330
1F
100
AcDbEntity
  8
ZUWAKU
  6
Continuous
 62
    30
370
    25
100
AcDbLine
 10
522.9506962806307
 20
-251.9568831352599
 30
0.0
 11
497.950696280631
 21
-276.9568831352598
 31
0.0
  0
LINE
  5
3D8
330
1F
100
AcDbEntity
  8
ZUWAKU
  6
Continuous
 62
    30
370
    25
100
AcDbLine
 10
524.3649098430039
 20
-251.9568831352599
 30
0.0
 11
499.3649098430041
 21
-276.9568831352598
 31
0.0
  0
LINE
  5
3D9
330
1F
100
AcDbEntity
  8
ZUWAKU
  6
Continuous
 62
    30
370
    25
100
AcDbLine
 10
524.8958333333333
 20
-252.8401732073037
 30
0.0
 11
500.7791234053773
 21
-276.9568831352598
 31
0.0
  0
LINE
  5
3DA
330
1F
100
AcDbEntity
  8
ZUWAKU
  6
Continuous
 62
    30
370
    25
100
AcDbLine
 10
524.8958333333333
 20
-254.2543867696769
 30
0.0
 11
502.1933369677504
 21
-276.9568831352598
 31
0.0
  0
LINE
  5
3DB
330
1F
100
AcDbEntity
  8
ZUWAKU
  6
Continuous
 62
    30
370
    25
100
AcDbLine
 10
524.8958333333333
 20
-255.66860033205
 30
0.0
 11
503.6075505301236
 21
-276.9568831352598
 31
0.0
  0
LINE
  5
3DC
330
1F
100
AcDbEntity
  8
ZUWAKU
  6
Continuous
 62
    30
370
    25
100
AcDbLine
 10
524.8958333333333
 20
-257.0828138944232
 30
0.0
 11
505.0217640924968
 21
-276.9568831352598
 31
0.0
  0
LINE
  5
3DD
330
1F
100
AcDbEntity
  8
ZUWAKU
  6
Continuous
 62
    30
370
    25
100
AcDbLine
 10
524.8958333333333
 20
-258.4970274567963
 30
0.0
 11
506.4359776548699
 21
-276.9568831352598
 31
0.0
  0
LINE
  5
3DE
330
1F
100
AcDbEntity
  8
ZUWAKU
  6
Continuous
 62
    30
370
    25
100
AcDbLine
 10
524.8958333333333
 20
-259.9112410191696
 30
0.0
 11
507.8501912172431
 21
-276.9568831352598
 31
0.0
  0
LINE
  5
3DF
330
1F
100
AcDbEntity
  8
ZUWAKU
  6
Continuous
 62
    30
370
    25
100
AcDbLine
 10
524.8958333333333
 20
-261.3254545815428
 30
0.0
 11
509.2644047796163
 21
-276.9568831352598
 31
0.0
  0
LINE
  5
3E0
330
1F
100
AcDbEntity
  8
ZUWAKU
  6
Continuous
 62
    30
370
    25
100
AcDbLine
 10
524.8958333333333
 20
-262.7396681439159
 30
0.0
 11
510.6786183419894
 21
-276.9568831352598
 31
0.0
  0
LINE
  5
3E1
330
1F
100
AcDbEntity
  8
ZUWAKU
  6
Continuous
 62
    30
370
    25
100
AcDbLine
 10
524.8958333333333
 20
-264.1538817062891
 30
0.0
 11
512.0928319043626
 21
-276.9568831352598
 31
0.0
  0
LINE
  5
3E2
330
1F
100
AcDbEntity
  8
ZUWAKU
  6
Continuous
 62
    30
370
    25
100
AcDbLine
 10
524.8958333333333
 20
-265.5680952686622
 30
0.0
 11
513.5070454667357
 21
-276.9568831352598
 31
0.0
  0
LINE
  5
3E3
330
1F
100
AcDbEntity
  8
ZUWAKU
  6
Continuous
 62
    30
370
    25
100
AcDbLine
 10
524.8958333333333
 20
-266.9823088310353
 30
0.0
 11
514.9212590291088
 21
-276.9568831352598
 31
0.0
  0
LINE
  5
3E4
330
1F
100
AcDbEntity
  8
ZUWAKU
  6
Continuous
 62
    30
370
    25
100
AcDbLine
 10
524.8958333333333
 20
-268.3965223934085
 30
0.0
 11
516.335472591482
 21
-276.9568831352598
 31
0.0
  0
LINE
  5
3E5
330
1F
100
AcDbEntity
  8
ZUWAKU
  6
Continuous
 62
    30
370
    25
100
AcDbLine
 10
524.8958333333333
 20
-269.8107359557816
 30
0.0
 11
517.7496861538552
 21
-276.9568831352598
 31
0.0
  0
LINE
  5
3E6
330
1F
100
AcDbEntity
  8
ZUWAKU
  6
Continuous
 62
    30
370
    25
100
AcDbLine
 10
524.8958333333333
 20
-271.2249495181549
 30
0.0
 11
519.1638997162285
 21
-276.9568831352598
 31
0.0
  0
LINE
  5
3E7
330
1F
100
AcDbEntity
  8
ZUWAKU
  6
Continuous
 62
    30
370
    25
100
AcDbLine
 10
524.8958333333333
 20
-272.639163080528
 30
0.0
 11
520.5781132786016
 21
-276.9568831352598
 31
0.0
  0
LINE
  5
3E8
330
1F
100
AcDbEntity
  8
ZUWAKU
  6
Continuous
 62
    30
370
    25
100
AcDbLine
 10
524.8958333333333
 20
-274.0533766429012
 30
0.0
 11
521.9923268409748
 21
-276.9568831352598
 31
0.0
  0
LINE
  5
3E9
330
1F
100
AcDbEntity
  8
ZUWAKU
  6
Continuous
 62
    30
370
    25
100
AcDbLine
 10
524.8958333333333
 20
-275.4675902052743
 30
0.0
 11
523.4065404033479
 21
-276.9568831352598
 31
0.0
  0
LINE
  5
3EA
330
1F
100
AcDbEntity
  8
ZUWAKU
  6
Continuous
 62
    30
370
    25
100
AcDbLine
 10
524.8958333333333
 20
-276.8818037676475
 30
0.0
 11
524.8207539657211
 21
-276.9568831352598
 31
0.0
  0
TEXT
  5
3EB
330
1F
100
AcDbEntity
  8
ZUWAKU
 62
    30
100
AcDbText
 10
-421.9226049443507
 20
-691.1235498019246
 30
0.0
 40
17.0
  1
株式会社
 41
0.9739130434782604
  7
dcStyle0
 72
     5
 11
-367.5226049443507
 21
-691.1235498019246
 31
0.0
100
AcDbText
  0
LINE
  5
3EC
330
1F
100
AcDbEntity
  8
ZUWAKU
  6
Continuous
 62
    56
370
    25
100
AcDbLine
 10
-458.2291666666662
 20
668.7207645212743
 30
0.0
 11
470.2083333333338
 21
668.7207645212743
 31
0.0
  0
LINE
  5
3ED
330
1F
100
AcDbEntity
  8
ZUWAKU
  6
Continuous
 62
    56
370
    25
100
AcDbLine
 10
-456.979166666667
 20
-703.9360498019246
 30
0.0
 11
465.208333333333
 21
-703.9360498019246
 31
0.0
  0
LINE
  5
3EE
330
1F
100
AcDbEntity
  8
ZUWAKU
  6
Continuous
 62
    56
370
    25
100
AcDbLine
 10
-456.979166666667
 20
-643.6235498019246
 30
0.0
 11
465.208333333333
 21
-643.6235498019246
 31
0.0
  0
LINE
  5
3EF
330
1F
100
AcDbEntity
  8
ZUWAKU
  6
Continuous
 62
    56
370
    25
100
AcDbLine
 10
-456.979166666667
 20
-635.1860498019241
 30
0.0
 11
465.208333333333
 21
-635.186049801925
 31
0.0
  0
LINE
  5
3F0
330
1F
100
AcDbEntity
  8
ZUWAKU
  6
Continuous
 62
    56
370
    25
100
AcDbLine
 10
-456.979166666667
 20
-635.1860498019241
 30
0.0
 11
-456.979166666667
 21
-460.1860498019241
 31
0.0
  0
LINE
  5
3F1
330
1F
100
AcDbEntity
  8
ZUWAKU
  6
Continuous
 62
    56
370
    25
100
AcDbLine
 10
465.208333333333
 20
-635.1860498019249
 30
0.0
 11
465.208333333333
 21
-460.1860498019249
 31
0.0
  0
LINE
  5
3F2
330
1F
100
AcDbEntity
  8
ZUWAKU
  6
Continuous
 62
    56
370
    25
100
AcDbLine
 10
-456.979166666667
 20
-460.1860498019241
 30
0.0
 11
465.208333333333
 21
-460.1860498019249
 31
0.0
  0
ELLIPSE
  5
3F3
330
1F
100
AcDbEntity
  8
ZUWAKU
  6
Continuous
 62
    56
370
    25
100
AcDbEllipse
 10
-385.8854166666662
 20
703.7091384865972
 30
0.0
 11
-63.90625
 21
0.0
 31
0.0
210
0.0
220
0.0
230
1.0
 40
0.4036531712980696
 41
0.0
 42
6.283185307179586
  0
LINE
  5
3F4
330
1F
100
AcDbEntity
  8
ZUWAKU
  6
Continuous
 62
    56
370
    25
100
AcDbLine
 10
-437.2916666666662
 20
716.0639501980754
 30
0.0
 11
-437.2916666666662
 21
691.6889501980752
 31
0.0
  0
LINE
  5
3F5
330
1F
100
AcDbEntity
  8
ZUWAKU
  6
Continuous
 62
    56
370
    25
100
AcDbLine
 10
-334.1666666666662
 20
716.0639501980754
 30
0.0
 11
-334.1666666666662
 21
691.6889501980752
 31
0.0
  0
LINE
  5
3F6
330
1F
100
AcDbEntity
  8
ZUWAKU
  6
Continuous
 62
    56
370
    25
100
AcDbLine
 10
-437.2916666666662
 20
716.0639501980754
 30
0.0
 11
-334.1666666666662
 21
716.0639501980754
 31
0.0
  0
LINE
  5
3F7
330
1F
100
AcDbEntity
  8
ZUWAKU
  6
Continuous
 62
    56
370
    25
100
AcDbLine
 10
-437.2916666666662
 20
691.6889501980752
 30
0.0
 11
-334.1666666666662
 21
691.6889501980752
 31
0.0
  0
LINE
  5
3F8
330
1F
100
AcDbEntity
  8
ZUWAKU
  6
Continuous
 62
    56
370
    25
100
AcDbLine
 10
-392.2546755886413
 20
729.3766604203611
 30
0.0
 11
-405.5673858109271
 21
716.0639501980754
 31
0.0
  0
LINE
  5
3F9
330
1F
100
AcDbEntity
  8
ZUWAKU
  6
Continuous
 62
    56
370
    25
100
AcDbLine
 10
-393.7358248335091
 20
729.3097247378664
 30
0.0
 11
-406.9815993733002
 21
716.0639501980754
 31
0.0
  0
LINE
  5
3FA
330
1F
100
AcDbEntity
  8
ZUWAKU
  6
Continuous
 62
    56
370
    25
100
AcDbLine
 10
-395.2320516915114
 20
729.2277114422375
 30
0.0
 11
-408.3958129356734
 21
716.0639501980754
 31
0.0
  0
LINE
  5
3FB
330
1F
100
AcDbEntity
  8
ZUWAKU
  6
Continuous
 62
    56
370
    25
100
AcDbLine
 10
-396.7439792381793
 20
729.1299974579424
 30
0.0
 11
-409.8100264980463
 21
716.0639501980754
 31
0.0
  0
LINE
  5
3FC
330
1F
100
AcDbEntity
  8
ZUWAKU
  6
Continuous
 62
    56
370
    25
100
AcDbLine
 10
-398.2723033417407
 20
729.0158869167543
 30
0.0
 11
-411.2242400604196
 21
716.0639501980754
 31
0.0
  0
LINE
  5
3FD
330
1F
100
AcDbEntity
  8
ZUWAKU
  6
Continuous
 62
    56
370
    25
100
AcDbLine
 10
-399.8178038130632
 20
728.8846000078049
 30
0.0
 11
-412.6384536227928
 21
716.0639501980754
 31
0.0
  0
LINE
  5
3FE
330
1F
100
AcDbEntity
  8
ZUWAKU
  6
Continuous
 62
    56
370
    25
100
AcDbLine
 10
-401.3813579614255
 20
728.7352594218158
 30
0.0
 11
-414.0526671851661
 21
716.0639501980754
 31
0.0
  0
LINE
  5
3FF
330
1F
100
AcDbEntity
  8
ZUWAKU
  6
Continuous
 62
    56
370
    25
100
AcDbLine
 10
-402.9639572185314
 20
728.5668737270832
 30
0.0
 11
-415.4668807475392
 21
716.0639501980754
 31
0.0
  0
LINE
  5
400
330
1F
100
AcDbEntity
  8
ZUWAKU
  6
Continuous
 62
    56
370
    25
100
AcDbLine
 10
-404.5667277213728
 20
728.3783167866148
 30
0.0
 11
-416.8810943099124
 21
716.0639501980754
 31
0.0
  0
LINE
  5
401
330
1F
100
AcDbEntity
  8
ZUWAKU
  6
Continuous
 62
    56
370
    25
100
AcDbLine
 10
-406.1909560686107
 20
728.1683020017501
 30
0.0
 11
-418.2953078722857
 21
716.0639501980754
 31
0.0
  0
LINE
  5
402
330
1F
100
AcDbEntity
  8
ZUWAKU
  6
Continuous
 62
    56
370
    25
100
AcDbLine
 10
-407.8381219335658
 20
727.9353496991682
 30
0.0
 11
-419.7095214346587
 21
716.0639501980754
 31
0.0
  0
LINE
  5
403
330
1F
100
AcDbEntity
  8
ZUWAKU
  6
Continuous
 62
    56
370
    25
100
AcDbLine
 10
-409.5099399072793
 20
727.6777452878277
 30
0.0
 11
-421.1237349970318
 21
716.0639501980754
 31
0.0
  0
LINE
  5
404
330
1F
100
AcDbEntity
  8
ZUWAKU
  6
Continuous
 62
    56
370
    25
100
AcDbLine
 10
-411.208413984852
 20
727.3934847726282
 30
0.0
 11
-422.5379485594049
 21
716.0639501980754
 31
0.0
  0
LINE
  5
405
330
1F
100
AcDbEntity
  8
ZUWAKU
  6
Continuous
 62
    56
370
    25
100
AcDbLine
 10
-412.9359097126625
 20
727.0802026071909
 30
0.0
 11
-423.9521621217781
 21
716.0639501980754
 31
0.0
  0
LINE
  5
406
330
1F
100
AcDbEntity
  8
ZUWAKU
  6
Continuous
 62
    56
370
    25
100
AcDbLine
 10
-414.6952515583845
 20
726.7350743238421
 30
0.0
 11
-425.3663756841513
 21
716.0639501980754
 31
0.0
  0
LINE
  5
407
330
1F
100
AcDbEntity
  8
ZUWAKU
  6
Continuous
 62
    56
370
    25
100
AcDbLine
 10
-437.2916666666662
 20
704.1386592155606
 30
0.0
 11
-437.5538756841514
 21
703.8764501980752
 31
0.0
  0
LINE
  5
408
330
1F
100
AcDbEntity
  8
ZUWAKU
  6
Continuous
 62
    56
370
    25
100
AcDbLine
 10
-416.4898572281982
 20
726.3546822164017
 30
0.0
 11
-426.7805892465245
 21
716.0639501980754
 31
0.0
  0
LINE
  5
409
330
1F
100
AcDbEntity
  8
ZUWAKU
  6
Continuous
 62
    56
370
    25
100
AcDbLine
 10
-437.2916666666662
 20
705.5528727779338
 30
0.0
 11
-438.9680892465247
 21
703.8764501980752
 31
0.0
  0
LINE
  5
40A
330
1F
100
AcDbEntity
  8
ZUWAKU
  6
Continuous
 62
    56
370
    25
100
AcDbLine
 10
-418.3239277131682
 20
725.9348252938048
 30
0.0
 11
-428.1948028088977
 21
716.0639501980754
 31
0.0
  0
LINE
  5
40B
330
1F
100
AcDbEntity
  8
ZUWAKU
  6
Continuous
 62
    56
370
    25
100
AcDbLine
 10
-437.2916666666662
 20
706.9670863403069
 30
0.0
 11
-440.3823028088979
 21
703.8764501980752
 31
0.0
  0
LINE
  5
40C
330
1F
100
AcDbEntity
  8
ZUWAKU
  6
Continuous
 62
    56
370
    25
100
AcDbLine
 10
-420.2027243203966
 20
725.4702422489497
 30
0.0
 11
-429.609016371271
 21
716.0639501980754
 31
0.0
  0
LINE
  5
40D
330
1F
100
AcDbEntity
  8
ZUWAKU
  6
Continuous
 62
    56
370
    25
100
AcDbLine
 10
-437.2916666666662
 20
708.38129990268
 30
0.0
 11
-441.7965163712711
 21
703.8764501980752
 31
0.0
  0
LINE
  5
40E
330
1F
100
AcDbEntity
  8
ZUWAKU
  6
Continuous
 62
    56
370
    25
100
AcDbLine
 10
-422.1329870947708
 20
724.9541930369486
 30
0.0
 11
-431.023229933644
 21
716.0639501980754
 31
0.0
  0
LINE
  5
40F
330
1F
100
AcDbEntity
  8
ZUWAKU
  6
Continuous
 62
    56
370
    25
100
AcDbLine
 10
-437.2916666666662
 20
709.7955134650532
 30
0.0
 11
-443.2107299336442
 21
703.8764501980752
 31
0.0
  0
LINE
  5
410
330
1F
100
AcDbEntity
  8
ZUWAKU
  6
Continuous
 62
    56
370
    25
100
AcDbLine
 10
-424.1235945893181
 20
724.3777991047745
 30
0.0
 11
-432.4374434960172
 21
716.0639501980754
 31
0.0
  0
LINE
  5
411
330
1F
100
AcDbEntity
  8
ZUWAKU
  6
Continuous
 62
    56
370
    25
100
AcDbLine
 10
-437.2916666666662
 20
711.2097270274263
 30
0.0
 11
-444.6249434960174
 21
703.8764501980752
 31
0.0
  0
LINE
  5
412
330
1F
100
AcDbEntity
  8
ZUWAKU
  6
Continuous
 62
    56
370
    25
100
AcDbLine
 10
-426.1866612045219
 20
723.7289460519439
 30
0.0
 11
-433.8516570583903
 21
716.0639501980754
 31
0.0
  0
LINE
  5
413
330
1F
100
AcDbEntity
  8
ZUWAKU
  6
Continuous
 62
    56
370
    25
100
AcDbLine
 10
-437.2916666666662
 20
712.6239405897995
 30
0.0
 11
-446.0391570583906
 21
703.8764501980752
 31
0.0
  0
LINE
  5
414
330
1F
100
AcDbEntity
  8
ZUWAKU
  6
Continuous
 62
    56
370
    25
100
AcDbLine
 10
-428.3394907638313
 20
722.9903300550076
 30
0.0
 11
-435.2658706207635
 21
716.0639501980754
 31
0.0
  0
LINE
  5
415
330
1F
100
AcDbEntity
  8
ZUWAKU
  6
Continuous
 62
    56
370
    25
100
AcDbLine
 10
-437.2916666666662
 20
714.0381541521726
 30
0.0
 11
-447.4533706207636
 21
703.8764501980752
 31
0.0
  0
LINE
  5
416
330
1F
100
AcDbEntity
  8
ZUWAKU
  6
Continuous
 62
    56
370
    25
100
AcDbLine
 10
-430.6083822198791
 20
722.135652161333
 30
0.0
 11
-436.6800841831367
 21
716.0639501980754
 31
0.0
  0
LINE
  5
417
330
1F
100
AcDbEntity
  8
ZUWAKU
  6
Continuous
 62
    56
370
    25
100
AcDbLine
 10
-437.2916666666662
 20
715.4523677145459
 30
0.0
 11
-448.8675841831369
 21
703.8764501980752
 31
0.0
  0
LINE
  5
418
330
1F
100
AcDbEntity
  8
ZUWAKU
  6
Continuous
 62
    56
370
    25
100
AcDbLine
 10
-433.0370377065722
 20
721.121210237013
 30
0.0
 11
-449.7694834077231
 21
704.3887645358623
 31
0.0
  0
LINE
  5
419
330
1F
100
AcDbEntity
  8
ZUWAKU
  6
Continuous
 62
    56
370
    25
100
AcDbLine
 10
-435.7090555273186
 20
719.8634059786398
 30
0.0
 11
-449.5296092389397
 21
706.0428522670188
 31
0.0
  0
LINE
  5
41A
330
1F
100
AcDbEntity
  8
ZUWAKU
  6
Continuous
 62
    56
370
    25
100
AcDbLine
 10
-438.8325791575968
 20
718.1540959107348
 30
0.0
 11
-448.8382292606246
 21
708.1484458077073
 31
0.0
  0
LINE
  5
41B
330
1F
100
AcDbEntity
  8
ZUWAKU
  6
Continuous
 62
    56
370
    25
100
AcDbLine
 10
-443.7014087768382
 20
714.6994798538665
 30
0.0
 11
-446.4015432933461
 21
711.9993453373586
 31
0.0
  0
LINE
  5
41C
330
1F
100
AcDbEntity
  8
ZUWAKU
  6
Continuous
 62
    56
370
    25
100
AcDbLine
 10
-390.7880444307801
 20
729.4290780158494
 30
0.0
 11
-404.1531722485542
 21
716.0639501980754
 31
0.0
  0
LINE
  5
41D
330
1F
100
AcDbEntity
  8
ZUWAKU
  6
Continuous
 62
    56
370
    25
100
AcDbLine
 10
-389.3354276659047
 20
729.4674812183513
 30
0.0
 11
-402.7389586861806
 21
716.0639501980754
 31
0.0
  0
LINE
  5
41E
330
1F
100
AcDbEntity
  8
ZUWAKU
  6
Continuous
 62
    56
370
    25
100
AcDbLine
 10
-387.8963709473417
 20
729.4923243745411
 30
0.0
 11
-401.3247451238075
 21
716.0639501980754
 31
0.0
  0
LINE
  5
41F
330
1F
100
AcDbEntity
  8
ZUWAKU
  6
Continuous
 62
    56
370
    25
100
AcDbLine
 10
-386.4704637950161
 20
729.5040179644935
 30
0.0
 11
-399.9105315614343
 21
716.0639501980754
 31
0.0
  0
LINE
  5
420
330
1F
100
AcDbEntity
  8
ZUWAKU
  6
Continuous
 62
    56
370
    25
100
AcDbLine
 10
-385.0573349391381
 20
729.5029332579985
 30
0.0
 11
-398.4963179990611
 21
716.0639501980754
 31
0.0
  0
LINE
  5
421
330
1F
100
AcDbEntity
  8
ZUWAKU
  6
Continuous
 62
    56
370
    25
100
AcDbLine
 10
-383.6566483459868
 20
729.4894062887766
 30
0.0
 11
-397.082104436688
 21
716.0639501980754
 31
0.0
  0
LINE
  5
422
330
1F
100
AcDbEntity
  8
ZUWAKU
  6
Continuous
 62
    56
370
    25
100
AcDbLine
 10
-382.2680998121115
 20
729.4637412602789
 30
0.0
 11
-395.6678908743149
 21
716.0639501980754
 31
0.0
  0
LINE
  5
423
330
1F
100
AcDbEntity
  8
ZUWAKU
  6
Continuous
 62
    56
370
    25
100
AcDbLine
 10
-380.8914140355027
 20
729.4262134745145
 30
0.0
 11
-394.2536773119419
 21
716.0639501980754
 31
0.0
  0
LINE
  5
424
330
1F
100
AcDbEntity
  8
ZUWAKU
  6
Continuous
 62
    56
370
    25
100
AcDbLine
 10
-379.5263420896921
 20
729.3770718579519
 30
0.0
 11
-392.8394637495688
 21
716.0639501980754
 31
0.0
  0
LINE
  5
425
330
1F
100
AcDbEntity
  8
ZUWAKU
  6
Continuous
 62
    56
370
    25
100
AcDbLine
 10
-378.172659240486
 20
729.3165411447847
 30
0.0
 11
-391.4252501871953
 21
716.0639501980754
 31
0.0
  0
LINE
  5
426
330
1F
100
AcDbEntity
  8
ZUWAKU
  6
Continuous
 62
    56
370
    25
100
AcDbLine
 10
-376.8301630559757
 20
729.244823766922
 30
0.0
 11
-390.0110366248222
 21
716.0639501980754
 31
0.0
  0
LINE
  5
427
330
1F
100
AcDbEntity
  8
ZUWAKU
  6
Continuous
 62
    56
370
    25
100
AcDbLine
 10
-375.4986717692327
 20
729.1621014912917
 30
0.0
 11
-388.5968230624491
 21
716.0639501980754
 31
0.0
  0
LINE
  5
428
330
1F
100
AcDbEntity
  8
ZUWAKU
  6
Continuous
 62
    56
370
    25
100
AcDbLine
 10
-374.1780228601963
 20
729.0685368379549
 30
0.0
 11
-387.1826095000759
 21
716.0639501980754
 31
0.0
  0
LINE
  5
429
330
1F
100
AcDbEntity
  8
ZUWAKU
  6
Continuous
 62
    56
370
    25
100
AcDbLine
 10
-372.8680718290199
 20
728.9642743067582
 30
0.0
 11
-385.7683959377027
 21
716.0639501980754
 31
0.0
  0
LINE
  5
42A
330
1F
100
AcDbEntity
  8
ZUWAKU
  6
Continuous
 62
    56
370
    25
100
AcDbLine
 10
-371.5686911378882
 20
728.8494414355168
 30
0.0
 11
-384.3541823753296
 21
716.0639501980754
 31
0.0
  0
LINE
  5
42B
330
1F
100
AcDbEntity
  8
ZUWAKU
  6
Continuous
 62
    56
370
    25
100
AcDbLine
 10
-370.2797693022307
 20
728.7241497088012
 30
0.0
 11
-382.9399688129564
 21
716.0639501980754
 31
0.0
  0
LINE
  5
42C
330
1F
100
AcDbEntity
  8
ZUWAKU
  6
Continuous
 62
    56
370
    25
100
AcDbLine
 10
-369.0012101155264
 20
728.5884953331322
 30
0.0
 11
-381.5257552505832
 21
716.0639501980754
 31
0.0
  0
LINE
  5
42D
330
1F
100
AcDbEntity
  8
ZUWAKU
  6
Continuous
 62
    56
370
    25
100
AcDbLine
 10
-367.7329319946512
 20
728.4425598916343
 30
0.0
 11
-380.1115416882102
 21
716.0639501980754
 31
0.0
  0
LINE
  5
42E
330
1F
100
AcDbEntity
  8
ZUWAKU
  6
Continuous
 62
    56
370
    25
100
AcDbLine
 10
-366.4748674350591
 20
728.2864108888532
 30
0.0
 11
-378.6973281258371
 21
716.0639501980754
 31
0.0
  0
LINE
  5
42F
330
1F
100
AcDbEntity
  8
ZUWAKU
  6
Continuous
 62
    56
370
    25
100
AcDbLine
 10
-365.2269625671147
 20
728.1201021944244
 30
0.0
 11
-377.2831145634639
 21
716.0639501980754
 31
0.0
  0
LINE
  5
430
330
1F
100
AcDbEntity
  8
ZUWAKU
  6
Continuous
 62
    56
370
    25
100
AcDbLine
 10
-363.9891768066543
 20
727.9436743925118
 30
0.0
 11
-375.8689010010908
 21
716.0639501980754
 31
0.0
  0
LINE
  5
431
330
1F
100
AcDbEntity
  8
ZUWAKU
  6
Continuous
 62
    56
370
    25
100
AcDbLine
 10
-362.7614825944232
 20
727.7571550423695
 30
0.0
 11
-374.4546874387174
 21
716.0639501980754
 31
0.0
  0
LINE
  5
432
330
1F
100
AcDbEntity
  8
ZUWAKU
  6
Continuous
 62
    56
370
    25
100
AcDbLine
 10
-361.543865220456
 20
727.5605588539635
 30
0.0
 11
-373.0404738763441
 21
716.0639501980754
 31
0.0
  0
LINE
  5
433
330
1F
100
AcDbEntity
  8
ZUWAKU
  6
Continuous
 62
    56
370
    25
100
AcDbLine
 10
-360.3363227307728
 20
727.3538877812736
 30
0.0
 11
-371.626260313971
 21
716.0639501980754
 31
0.0
  0
LINE
  5
434
330
1F
100
AcDbEntity
  8
ZUWAKU
  6
Continuous
 62
    56
370
    25
100
AcDbLine
 10
-359.1388659150081
 20
727.1371310346651
 30
0.0
 11
-370.2120467515979
 21
716.0639501980754
 31
0.0
  0
LINE
  5
435
330
1F
100
AcDbEntity
  8
ZUWAKU
  6
Continuous
 62
    56
370
    25
100
AcDbLine
 10
-357.9515183747893
 20
726.9102650125109
 30
0.0
 11
-368.7978331892248
 21
716.0639501980754
 31
0.0
  0
LINE
  5
436
330
1F
100
AcDbEntity
  8
ZUWAKU
  6
Continuous
 62
    56
370
    25
100
AcDbLine
 10
-356.774316673877
 20
726.67325315105
 30
0.0
 11
-367.3836196268516
 21
716.0639501980754
 31
0.0
  0
LINE
  5
437
330
1F
100
AcDbEntity
  8
ZUWAKU
  6
Continuous
 62
    56
370
    25
100
AcDbLine
 10
-355.6073105723073
 20
726.4260456902464
 30
0.0
 11
-365.9694060644784
 21
716.0639501980754
 31
0.0
  0
LINE
  5
438
330
1F
100
AcDbEntity
  8
ZUWAKU
  6
Continuous
 62
    56
370
    25
100
AcDbLine
 10
-354.4505633480576
 20
726.168579352123
 30
0.0
 11
-364.5551925021053
 21
716.0639501980754
 31
0.0
  0
LINE
  5
439
330
1F
100
AcDbEntity
  8
ZUWAKU
  6
Continuous
 62
    56
370
    25
100
AcDbLine
 10
-353.3041522111405
 20
725.9007769266669
 30
0.0
 11
-363.1409789397321
 21
716.0639501980754
 31
0.0
  0
LINE
  5
43A
330
1F
100
AcDbEntity
  8
ZUWAKU
  6
Continuous
 62
    56
370
    25
100
AcDbLine
 10
-352.1681688165464
 20
725.6225467588878
 30
0.0
 11
-361.726765377359
 21
716.0639501980754
 31
0.0
  0
LINE
  5
43B
330
1F
100
AcDbEntity
  8
ZUWAKU
  6
Continuous
 62
    56
370
    25
100
AcDbLine
 10
-351.0427198841551
 20
725.3337821289061
 30
0.0
 11
-360.3125518149859
 21
716.0639501980754
 31
0.0
  0
LINE
  5
43C
330
1F
100
AcDbEntity
  8
ZUWAKU
  6
Continuous
 62
    56
370
    25
100
AcDbLine
 10
-349.9279279356694
 20
725.0343605150186
 30
0.0
 11
-358.8983382526126
 21
716.0639501980754
 31
0.0
  0
LINE
  5
43D
330
1F
100
AcDbEntity
  8
ZUWAKU
  6
Continuous
 62
    56
370
    25
100
AcDbLine
 10
-348.823932160866
 20
724.7241427274489
 30
0.0
 11
-357.4841246902395
 21
716.0639501980754
 31
0.0
  0
LINE
  5
43E
330
1F
100
AcDbEntity
  8
ZUWAKU
  6
Continuous
 62
    56
370
    25
100
AcDbLine
 10
-347.7308894280701
 20
724.4029718978716
 30
0.0
 11
-356.0699111278664
 21
716.0639501980754
 31
0.0
  0
LINE
  5
43F
330
1F
100
AcDbEntity
  8
ZUWAKU
  6
Continuous
 62
    56
370
    25
100
AcDbLine
 10
-346.6489754568642
 20
724.0706723067045
 30
0.0
 11
-354.6556975654932
 21
716.0639501980754
 31
0.0
  0
LINE
  5
440
330
1F
100
AcDbEntity
  8
ZUWAKU
  6
Continuous
 62
    56
370
    25
100
AcDbLine
 10
-345.5783861747409
 20
723.7270480264544
 30
0.0
 11
-353.24148400312
 21
716.0639501980754
 31
0.0
  0
LINE
  5
441
330
1F
100
AcDbEntity
  8
ZUWAKU
  6
Continuous
 62
    56
370
    25
100
AcDbLine
 10
-344.5193392838764
 20
723.3718813549458
 30
0.0
 11
-351.8272704407469
 21
716.0639501980754
 31
0.0
  0
LINE
  5
442
330
1F
100
AcDbEntity
  8
ZUWAKU
  6
Continuous
 62
    56
370
    25
100
AcDbLine
 10
-343.4720760696241
 20
723.004931006825
 30
0.0
 11
-350.4130568783739
 21
716.0639501980754
 31
0.0
  0
LINE
  5
443
330
1F
100
AcDbEntity
  8
ZUWAKU
  6
Continuous
 62
    56
370
    25
100
AcDbLine
 10
-342.436863488985
 20
722.6259300250911
 30
0.0
 11
-348.9988433160006
 21
716.0639501980754
 31
0.0
  0
LINE
  5
444
330
1F
100
AcDbEntity
  8
ZUWAKU
  6
Continuous
 62
    56
370
    25
100
AcDbLine
 10
-341.4139965855128
 20
722.23458336619
 30
0.0
 11
-347.5846297536275
 21
716.0639501980754
 31
0.0
  0
LINE
  5
445
330
1F
100
AcDbEntity
  8
ZUWAKU
  6
Continuous
 62
    56
370
    25
100
AcDbLine
 10
-340.4038012873306
 20
721.830565101999
 30
0.0
 11
-346.1704161912543
 21
716.0639501980754
 31
0.0
  0
LINE
  5
446
330
1F
100
AcDbEntity
  8
ZUWAKU
  6
Continuous
 62
    56
370
    25
100
AcDbLine
 10
-339.4066376577354
 20
721.4135151692209
 30
0.0
 11
-344.756202628881
 21
716.0639501980754
 31
0.0
  0
LINE
  5
447
330
1F
100
AcDbEntity
  8
ZUWAKU
  6
Continuous
 62
    56
370
    25
100
AcDbLine
 10
-338.4229036840447
 20
720.9830355805384
 30
0.0
 11
-343.3419890665078
 21
716.0639501980754
 31
0.0
  0
LINE
  5
448
330
1F
100
AcDbEntity
  8
ZUWAKU
  6
Continuous
 62
    56
370
    25
100
AcDbLine
 10
-337.4530397109458
 20
720.5386859912642
 30
0.0
 11
-341.9277755041346
 21
716.0639501980754
 31
0.0
  0
LINE
  5
449
330
1F
100
AcDbEntity
  8
ZUWAKU
  6
Continuous
 62
    56
370
    25
100
AcDbLine
 10
-336.4975336510902
 20
720.0799784887467
 30
0.0
 11
-340.5135619417616
 21
716.0639501980754
 31
0.0
  0
LINE
  5
44A
330
1F
100
AcDbEntity
  8
ZUWAKU
  6
Continuous
 62
    56
370
    25
100
AcDbLine
 10
-335.5569271400063
 20
719.6063714374576
 30
0.0
 11
-339.0993483793885
 21
716.0639501980754
 31
0.0
  0
LINE
  5
44B
330
1F
100
AcDbEntity
  8
ZUWAKU
  6
Continuous
 62
    56
370
    25
100
AcDbLine
 10
-334.6318228473629
 20
719.1172621677277
 30
0.0
 11
-337.6851348170152
 21
716.0639501980754
 31
0.0
  0
LINE
  5
44C
330
1F
100
AcDbEntity
  8
ZUWAKU
  6
Continuous
 62
    56
370
    25
100
AcDbLine
 10
-333.7228932160852
 20
718.6119782366324
 30
0.0
 11
-336.2709212546421
 21
716.0639501980754
 31
0.0
  0
LINE
  5
44D
330
1F
100
AcDbEntity
  8
ZUWAKU
  6
Continuous
 62
    56
370
    25
100
AcDbLine
 10
-332.8308909803825
 20
718.0897669099618
 30
0.0
 11
-334.8567076922691
 21
716.0639501980754
 31
0.0
  0
LINE
  5
44E
330
1F
100
AcDbEntity
  8
ZUWAKU
  6
Continuous
 62
    56
370
    25
100
AcDbLine
 10
-331.9566619214639
 20
717.5497824065073
 30
0.0
 11
-334.1666666666662
 21
715.3397776613051
 31
0.0
  0
LINE
  5
44F
330
1F
100
AcDbEntity
  8
ZUWAKU
  6
Continuous
 62
    56
370
    25
100
AcDbLine
 10
-331.1011604674653
 20
716.9910702981327
 30
0.0
 11
-334.1666666666662
 21
713.9255640989318
 31
0.0
  0
LINE
  5
450
330
1F
100
AcDbEntity
  8
ZUWAKU
  6
Continuous
 62
    56
370
    25
100
AcDbLine
 10
-330.2654689496786
 20
716.4125482535462
 30
0.0
 11
-334.1666666666662
 21
712.5113505365586
 31
0.0
  0
LINE
  5
451
330
1F
100
AcDbEntity
  8
ZUWAKU
  6
Continuous
 62
    56
370
    25
100
AcDbLine
 10
-329.4508216176466
 20
715.812982023205
 30
0.0
 11
-334.1666666666662
 21
711.0971369741854
 31
0.0
  0
LINE
  5
452
330
1F
100
AcDbEntity
  8
ZUWAKU
  6
Continuous
 62
    56
370
    25
100
AcDbLine
 10
-328.6586349332109
 20
715.1909551452675
 30
0.0
 11
-334.1666666666662
 21
709.6829234118122
 31
0.0
  0
LINE
  5
453
330
1F
100
AcDbEntity
  8
ZUWAKU
  6
Continuous
 62
    56
370
    25
100
AcDbLine
 10
-327.8905462751659
 20
714.5448302409393
 30
0.0
 11
-334.1666666666662
 21
708.2687098494391
 31
0.0
  0
LINE
  5
454
330
1F
100
AcDbEntity
  8
ZUWAKU
  6
Continuous
 62
    56
370
    25
100
AcDbLine
 10
-327.1484641008963
 20
713.8726988528358
 30
0.0
 11
-334.1666666666662
 21
706.8544962870659
 31
0.0
  0
LINE
  5
455
330
1F
100
AcDbEntity
  8
ZUWAKU
  6
Continuous
 62
    56
370
    25
100
AcDbLine
 10
-326.4346340119636
 20
713.1723153793953
 30
0.0
 11
-334.1666666666662
 21
705.4402827246928
 31
0.0
  0
LINE
  5
456
330
1F
100
AcDbEntity
  8
ZUWAKU
  6
Continuous
 62
    56
370
    25
100
AcDbLine
 10
-325.7517273723453
 20
712.4410084566407
 30
0.0
 11
-334.1666666666662
 21
704.0260691623198
 31
0.0
  0
LINE
  5
457
330
1F
100
AcDbEntity
  8
ZUWAKU
  6
Continuous
 62
    56
370
    25
100
AcDbLine
 10
-325.102962694213
 20
711.6755595723997
 30
0.0
 11
-332.9020720685374
 21
703.8764501980752
 31
0.0
  0
LINE
  5
458
330
1F
100
AcDbEntity
  8
ZUWAKU
  6
Continuous
 62
    56
370
    25
100
AcDbLine
 10
-324.4922759834216
 20
710.872032720818
 30
0.0
 11
-331.4878585061643
 21
703.8764501980752
 31
0.0
  0
LINE
  5
459
330
1F
100
AcDbEntity
  8
ZUWAKU
  6
Continuous
 62
    56
370
    25
100
AcDbLine
 10
-323.9245666601482
 20
710.0255284817183
 30
0.0
 11
-330.073644943791
 21
703.8764501980752
 31
0.0
  0
LINE
  5
45A
330
1F
100
AcDbEntity
  8
ZUWAKU
  6
Continuous
 62
    56
370
    25
100
AcDbLine
 10
-323.4060647099336
 20
709.1298168695596
 30
0.0
 11
-328.659431381418
 21
703.8764501980752
 31
0.0
  0
LINE
  5
45B
330
1F
100
AcDbEntity
  8
ZUWAKU
  6
Continuous
 62
    56
370
    25
100
AcDbLine
 10
-322.9449014746199
 20
708.1767665425002
 30
0.0
 11
-327.2452178190448
 21
703.8764501980752
 31
0.0
  0
LINE
  5
45C
330
1F
100
AcDbEntity
  8
ZUWAKU
  6
Continuous
 62
    56
370
    25
100
AcDbLine
 10
-322.5520423566861
 20
707.1554120980609
 30
0.0
 11
-325.8310042566717
 21
703.8764501980752
 31
0.0
  0
LINE
  5
45D
330
1F
100
AcDbEntity
  8
ZUWAKU
  6
Continuous
 62
    56
370
    25
100
AcDbLine
 10
-322.2429098785842
 20
706.0503310137897
 30
0.0
 11
-324.4167906942984
 21
703.8764501980752
 31
0.0
  0
LINE
  5
45E
330
1F
100
AcDbEntity
  8
ZUWAKU
  6
Continuous
 62
    56
370
    25
100
AcDbLine
 10
-322.0404501626895
 20
704.8385771673106
 30
0.0
 11
-323.0025771319253
 21
703.8764501980752
 31
0.0
  0
LINE
  5
45F
330
1F
100
AcDbEntity
  8
ZUWAKU
  6
Continuous
 62
    56
370
    25
100
AcDbLine
 10
-366.0361372838698
 20
691.6889501980752
 30
0.0
 11
-379.6904192900334
 21
678.0346681919116
 31
0.0
  0
LINE
  5
460
330
1F
100
AcDbEntity
  8
ZUWAKU
  6
Continuous
 62
    56
370
    25
100
AcDbLine
 10
-367.4503508462431
 20
691.6889501980752
 30
0.0
 11
-381.1553671729939
 21
677.9839338713243
 31
0.0
  0
LINE
  5
461
330
1F
100
AcDbEntity
  8
ZUWAKU
  6
Continuous
 62
    56
370
    25
100
AcDbLine
 10
-368.8645644086162
 20
691.6889501980752
 30
0.0
 11
-382.606356874727
 21
677.9471577319644
 31
0.0
  0
LINE
  5
462
330
1F
100
AcDbEntity
  8
ZUWAKU
  6
Continuous
 62
    56
370
    25
100
AcDbLine
 10
-370.2787779709892
 20
691.6889501980752
 30
0.0
 11
-384.0438372837808
 21
677.9238908852835
 31
0.0
  0
LINE
  5
463
330
1F
100
AcDbEntity
  8
ZUWAKU
  6
Continuous
 62
    56
370
    25
100
AcDbLine
 10
-371.6929915333623
 20
691.6889501980752
 30
0.0
 11
-385.4682140129131
 21
677.9137277185243
 31
0.0
  0
LINE
  5
464
330
1F
100
AcDbEntity
  8
ZUWAKU
  6
Continuous
 62
    56
370
    25
100
AcDbLine
 10
-373.1072050957356
 20
691.6889501980752
 30
0.0
 11
-386.8798539679111
 21
677.9163013258996
 31
0.0
  0
LINE
  5
465
330
1F
100
AcDbEntity
  8
ZUWAKU
  6
Continuous
 62
    56
370
    25
100
AcDbLine
 10
-374.5214186581087
 20
691.6889501980752
 30
0.0
 11
-388.2790892491133
 21
677.9312796070706
 31
0.0
  0
LINE
  5
466
330
1F
100
AcDbEntity
  8
ZUWAKU
  6
Continuous
 62
    56
370
    25
100
AcDbLine
 10
-375.9356322204818
 20
691.6889501980752
 30
0.0
 11
-389.6662204963868
 21
677.9583619221703
 31
0.0
  0
LINE
  5
467
330
1F
100
AcDbEntity
  8
ZUWAKU
  6
Continuous
 62
    56
370
    25
100
AcDbLine
 10
-377.349845782855
 20
691.6889501980752
 30
0.0
 11
-391.0415197667219
 21
677.9972762142086
 31
0.0
  0
LINE
  5
468
330
1F
100
AcDbEntity
  8
ZUWAKU
  6
Continuous
 62
    56
370
    25
100
AcDbLine
 10
-378.7640593452281
 20
691.6889501980752
 30
0.0
 11
-392.405233016686
 21
678.0477765266174
 31
0.0
  0
LINE
  5
469
330
1F
100
AcDbEntity
  8
ZUWAKU
  6
Continuous
 62
    56
370
    25
100
AcDbLine
 10
-380.1782729076015
 20
691.6889501980752
 30
0.0
 11
-393.7575822486079
 21
678.1096408570687
 31
0.0
  0
LINE
  5
46A
330
1F
100
AcDbEntity
  8
ZUWAKU
  6
Continuous
 62
    56
370
    25
100
AcDbLine
 10
-381.5924864699744
 20
691.6889501980752
 30
0.0
 11
-395.0987673687064
 21
678.1826692993432
 31
0.0
  0
LINE
  5
46B
330
1F
100
AcDbEntity
  8
ZUWAKU
  6
Continuous
 62
    56
370
    25
100
AcDbLine
 10
-383.0067000323476
 20
691.6889501980752
 30
0.0
 11
-396.4289677968394
 21
678.2666824335834
 31
0.0
  0
LINE
  5
46C
330
1F
100
AcDbEntity
  8
ZUWAKU
  6
Continuous
 62
    56
370
    25
100
AcDbLine
 10
-384.4209135947207
 20
691.6889501980752
 30
0.0
 11
-397.7483438606187
 21
678.3615199321773
 31
0.0
  0
LINE
  5
46D
330
1F
100
AcDbEntity
  8
ZUWAKU
  6
Continuous
 62
    56
370
    25
100
AcDbLine
 10
-385.835127157094
 20
691.6889501980752
 30
0.0
 11
-399.0570380010174
 21
678.4670393541518
 31
0.0
  0
LINE
  5
46E
330
1F
100
AcDbEntity
  8
ZUWAKU
  6
Continuous
 62
    56
370
    25
100
AcDbLine
 10
-387.2493407194673
 20
691.6889501980752
 30
0.0
 11
-400.3551758119506
 21
678.5831151055919
 31
0.0
  0
LINE
  5
46F
330
1F
100
AcDbEntity
  8
ZUWAKU
  6
Continuous
 62
    56
370
    25
100
AcDbLine
 10
-388.6635542818403
 20
691.6889501980752
 30
0.0
 11
-401.6428669324911
 21
678.7096375474244
 31
0.0
  0
LINE
  5
470
330
1F
100
AcDbEntity
  8
ZUWAKU
  6
Continuous
 62
    56
370
    25
100
AcDbLine
 10
-390.0777678442136
 20
691.6889501980752
 30
0.0
 11
-402.9202058071721
 21
678.8465122351167
 31
0.0
  0
LINE
  5
471
330
1F
100
AcDbEntity
  8
ZUWAKU
  6
Continuous
 62
    56
370
    25
100
AcDbLine
 10
-391.4919814065868
 20
691.6889501980752
 30
0.0
 11
-404.1872723271287
 21
678.9936592775332
 31
0.0
  0
LINE
  5
472
330
1F
100
AcDbEntity
  8
ZUWAKU
  6
Continuous
 62
    56
370
    25
100
AcDbLine
 10
-392.9061949689598
 20
691.6889501980752
 30
0.0
 11
-405.4441323625327
 21
679.1510128045023
 31
0.0
  0
LINE
  5
473
330
1F
100
AcDbEntity
  8
ZUWAKU
  6
Continuous
 62
    56
370
    25
100
AcDbLine
 10
-394.3204085313331
 20
691.6889501980752
 30
0.0
 11
-406.6908381947845
 21
679.3185205346238
 31
0.0
  0
LINE
  5
474
330
1F
100
AcDbEntity
  8
ZUWAKU
  6
Continuous
 62
    56
370
    25
100
AcDbLine
 10
-395.7346220937063
 20
691.6889501980752
 30
0.0
 11
-407.9274288551852
 21
679.4961434365962
 31
0.0
  0
LINE
  5
475
330
1F
100
AcDbEntity
  8
ZUWAKU
  6
Continuous
 62
    56
370
    25
100
AcDbLine
 10
-397.1488356560792
 20
691.6889501980752
 30
0.0
 11
-409.1539303752717
 21
679.6838554788827
 31
0.0
  0
LINE
  5
476
330
1F
100
AcDbEntity
  8
ZUWAKU
  6
Continuous
 62
    56
370
    25
100
AcDbLine
 10
-398.5630492184524
 20
691.6889501980752
 30
0.0
 11
-410.3703559525865
 21
679.8816434639411
 31
0.0
  0
LINE
  5
477
330
1F
100
AcDbEntity
  8
ZUWAKU
  6
Continuous
 62
    56
370
    25
100
AcDbLine
 10
-399.9772627808256
 20
691.6889501980752
 30
0.0
 11
-411.5767060343557
 21
680.0895069445451
 31
0.0
  0
LINE
  5
478
330
1F
100
AcDbEntity
  8
ZUWAKU
  6
Continuous
 62
    56
370
    25
100
AcDbLine
 10
-401.3914763431989
 20
691.6889501980752
 30
0.0
 11
-412.7729683203218
 21
680.3074582209523
 31
0.0
  0
LINE
  5
479
330
1F
100
AcDbEntity
  8
ZUWAKU
  6
Continuous
 62
    56
370
    25
100
AcDbLine
 10
-402.805689905572
 20
691.6889501980752
 30
0.0
 11
-413.9591176847682
 21
680.535522418879
 31
0.0
  0
LINE
  5
47A
330
1F
100
AcDbEntity
  8
ZUWAKU
  6
Continuous
 62
    56
370
    25
100
AcDbLine
 10
-404.2199034679452
 20
691.6889501980752
 30
0.0
 11
-415.1351160165816
 21
680.7737376494389
 31
0.0
  0
LINE
  5
47B
330
1F
100
AcDbEntity
  8
ZUWAKU
  6
Continuous
 62
    56
370
    25
100
AcDbLine
 10
-405.6341170303183
 20
691.6889501980752
 30
0.0
 11
-416.3009119749648
 21
681.0221552534288
 31
0.0
  0
LINE
  5
47C
330
1F
100
AcDbEntity
  8
ZUWAKU
  6
Continuous
 62
    56
370
    25
100
AcDbLine
 10
-407.0483305926916
 20
691.6889501980752
 30
0.0
 11
-417.4564406571195
 21
681.2808401336473
 31
0.0
  0
LINE
  5
47D
330
1F
100
AcDbEntity
  8
ZUWAKU
  6
Continuous
 62
    56
370
    25
100
AcDbLine
 10
-408.4625441550645
 20
691.6889501980752
 30
0.0
 11
-418.6016231728236
 21
681.5498711803161
 31
0.0
  0
LINE
  5
47E
330
1F
100
AcDbEntity
  8
ZUWAKU
  6
Continuous
 62
    56
370
    25
100
AcDbLine
 10
-409.8767577174378
 20
691.6889501980752
 30
0.0
 11
-419.7363661192927
 21
681.8293417962202
 31
0.0
  0
LINE
  5
47F
330
1F
100
AcDbEntity
  8
ZUWAKU
  6
Continuous
 62
    56
370
    25
100
AcDbLine
 10
-411.2909712798109
 20
691.6889501980752
 30
0.0
 11
-420.8605609479882
 21
682.119360529898
 31
0.0
  0
LINE
  5
480
330
1F
100
AcDbEntity
  8
ZUWAKU
  6
Continuous
 62
    56
370
    25
100
AcDbLine
 10
-412.7051848421842
 20
691.6889501980752
 30
0.0
 11
-421.9740832130724
 21
682.420051827187
 31
0.0
  0
LINE
  5
481
330
1F
100
AcDbEntity
  8
ZUWAKU
  6
Continuous
 62
    56
370
    25
100
AcDbLine
 10
-414.1193984045572
 20
691.6889501980752
 30
0.0
 11
-423.0767916889282
 21
682.7315569137044
 31
0.0
  0
LINE
  5
482
330
1F
100
AcDbEntity
  8
ZUWAKU
  6
Continuous
 62
    56
370
    25
100
AcDbLine
 10
-415.5336119669306
 20
691.6889501980752
 30
0.0
 11
-424.1685273414959
 21
683.0540348235098
 31
0.0
  0
LINE
  5
483
330
1F
100
AcDbEntity
  8
ZUWAKU
  6
Continuous
 62
    56
370
    25
100
AcDbLine
 10
-416.9478255293037
 20
691.6889501980752
 30
0.0
 11
-425.2491121350136
 21
683.3876635923652
 31
0.0
  0
LINE
  5
484
330
1F
100
AcDbEntity
  8
ZUWAKU
  6
Continuous
 62
    56
370
    25
100
AcDbLine
 10
-418.3620390916769
 20
691.6889501980752
 30
0.0
 11
-426.3183476519666
 21
683.7326416377855
 31
0.0
  0
LINE
  5
485
330
1F
100
AcDbEntity
  8
ZUWAKU
  6
Continuous
 62
    56
370
    25
100
AcDbLine
 10
-419.77625265405
 20
691.6889501980752
 30
0.0
 11
-427.3760134994818
 21
684.0891893526434
 31
0.0
  0
LINE
  5
486
330
1F
100
AcDbEntity
  8
ZUWAKU
  6
Continuous
 62
    56
370
    25
100
AcDbLine
 10
-421.190466216423
 20
691.6889501980752
 30
0.0
 11
-428.4218654698489
 21
684.4575509446495
 31
0.0
  0
LINE
  5
487
330
1F
100
AcDbEntity
  8
ZUWAKU
  6
Continuous
 62
    56
370
    25
100
AcDbLine
 10
-422.6046797787962
 20
691.6889501980752
 30
0.0
 11
-429.4556334160319
 21
684.8379965608397
 31
0.0
  0
LINE
  5
488
330
1F
100
AcDbEntity
  8
ZUWAKU
  6
Continuous
 62
    56
370
    25
100
AcDbLine
 10
-424.0188933411695
 20
691.6889501980752
 30
0.0
 11
-430.4770187946173
 21
685.2308247446274
 31
0.0
  0
LINE
  5
489
330
1F
100
AcDbEntity
  8
ZUWAKU
  6
Continuous
 62
    56
370
    25
100
AcDbLine
 10
-425.4331069035427
 20
691.6889501980752
 30
0.0
 11
-431.4856918181562
 21
685.6363652834616
 31
0.0
  0
LINE
  5
48A
330
1F
100
AcDbEntity
  8
ZUWAKU
  6
Continuous
 62
    56
370
    25
100
AcDbLine
 10
-426.8473204659159
 20
691.6889501980752
 30
0.0
 11
-432.4812881457041
 21
686.0549825182869
 31
0.0
  0
LINE
  5
48B
330
1F
100
AcDbEntity
  8
ZUWAKU
  6
Continuous
 62
    56
370
    25
100
AcDbLine
 10
-428.261534028289
 20
691.6889501980752
 30
0.0
 11
-433.463405023721
 21
686.4870792026431
 31
0.0
  0
LINE
  5
48C
330
1F
100
AcDbEntity
  8
ZUWAKU
  6
Continuous
 62
    56
370
    25
100
AcDbLine
 10
-429.6757475906622
 20
691.6889501980752
 30
0.0
 11
-434.4315967682769
 21
686.9331010204604
 31
0.0
  0
LINE
  5
48D
330
1F
100
AcDbEntity
  8
ZUWAKU
  6
Continuous
 62
    56
370
    25
100
AcDbLine
 10
-431.0899611530354
 20
691.6889501980752
 30
0.0
 11
-435.3853694522159
 21
687.3935418988947
 31
0.0
  0
LINE
  5
48E
330
1F
100
AcDbEntity
  8
ZUWAKU
  6
Continuous
 62
    56
370
    25
100
AcDbLine
 10
-432.5041747154085
 20
691.6889501980752
 30
0.0
 11
-436.3241746255007
 21
687.868950287983
 31
0.0
  0
LINE
  5
48F
330
1F
100
AcDbEntity
  8
ZUWAKU
  6
Continuous
 62
    56
370
    25
100
AcDbLine
 10
-433.9183882777817
 20
691.6889501980752
 30
0.0
 11
-437.2474018505211
 21
688.3599366253356
 31
0.0
  0
LINE
  5
490
330
1F
100
AcDbEntity
  8
ZUWAKU
  6
Continuous
 62
    56
370
    25
100
AcDbLine
 10
-435.3326018401547
 20
691.6889501980752
 30
0.0
 11
-438.1543697726261
 21
688.8671822656039
 31
0.0
  0
LINE
  5
491
330
1F
100
AcDbEntity
  8
ZUWAKU
  6
Continuous
 62
    56
370
    25
100
AcDbLine
 10
-436.746815402528
 20
691.6889501980752
 30
0.0
 11
-439.0443153637376
 21
689.3914502368655
 31
0.0
  0
LINE
  5
492
330
1F
100
AcDbEntity
  8
ZUWAKU
  6
Continuous
 62
    56
370
    25
100
AcDbLine
 10
-437.2916666666662
 20
692.5583124963101
 30
0.0
 11
-439.9163808651591
 21
689.9335982978173
 31
0.0
  0
LINE
  5
493
330
1F
100
AcDbEntity
  8
ZUWAKU
  6
Continuous
 62
    56
370
    25
100
AcDbLine
 10
-437.2916666666662
 20
693.9725260586833
 30
0.0
 11
-440.7695978021734
 21
690.4945949231761
 31
0.0
  0
LINE
  5
494
330
1F
100
AcDbEntity
  8
ZUWAKU
  6
Continuous
 62
    56
370
    25
100
AcDbLine
 10
-437.2916666666662
 20
695.3867396210564
 30
0.0
 11
-441.6028672290589
 21
691.0755390586638
 31
0.0
  0
LINE
  5
495
330
1F
100
AcDbEntity
  8
ZUWAKU
  6
Continuous
 62
    56
370
    25
100
AcDbLine
 10
-437.2916666666662
 20
696.8009531834297
 30
0.0
 11
-442.4149350602133
 21
691.6776847898824
 31
0.0
  0
LINE
  5
496
330
1F
100
AcDbEntity
  8
ZUWAKU
  6
Continuous
 62
    56
370
    25
100
AcDbLine
 10
-437.2916666666662
 20
698.2151667458029
 30
0.0
 11
-443.2043609067138
 21
692.3024725057553
 31
0.0
  0
LINE
  5
497
330
1F
100
AcDbEntity
  8
ZUWAKU
  6
Continuous
 62
    56
370
    25
100
AcDbLine
 10
-437.2916666666662
 20
699.6293803081761
 30
0.0
 11
-443.9694781969699
 21
692.9515687778724
 31
0.0
  0
LINE
  5
498
330
1F
100
AcDbEntity
  8
ZUWAKU
  6
Continuous
 62
    56
370
    25
100
AcDbLine
 10
-437.2916666666662
 20
701.0435938705493
 30
0.0
 11
-444.7083423993404
 21
693.6269181378749
 31
0.0
  0
LINE
  5
499
330
1F
100
AcDbEntity
  8
ZUWAKU
  6
Continuous
 62
    56
370
    25
100
AcDbLine
 10
-437.2916666666662
 20
702.4578074329224
 30
0.0
 11
-445.4186626891179
 21
694.3308114104706
 31
0.0
  0
LINE
  5
49A
330
1F
100
AcDbEntity
  8
ZUWAKU
  6
Continuous
 62
    56
370
    25
100
AcDbLine
 10
-437.2872374638865
 20
703.8764501980752
 30
0.0
 11
-446.097710075087
 21
695.0659775868746
 31
0.0
  0
LINE
  5
49B
330
1F
100
AcDbEntity
  8
ZUWAKU
  6
Continuous
 62
    56
370
    25
100
AcDbLine
 10
-438.7014510262596
 20
703.8764501980752
 30
0.0
 11
-446.7421912170954
 21
695.8357100072395
 31
0.0
  0
LINE
  5
49C
330
1F
100
AcDbEntity
  8
ZUWAKU
  6
Continuous
 62
    56
370
    25
100
AcDbLine
 10
-440.1156645886328
 20
703.8764501980752
 30
0.0
 11
-447.3480707962556
 21
696.6440439904524
 31
0.0
  0
LINE
  5
49D
330
1F
100
AcDbEntity
  8
ZUWAKU
  6
Continuous
 62
    56
370
    25
100
AcDbLine
 10
-441.529878151006
 20
703.8764501980752
 30
0.0
 11
-447.9103141347804
 21
697.4960142143005
 31
0.0
  0
LINE
  5
49E
330
1F
100
AcDbEntity
  8
ZUWAKU
  6
Continuous
 62
    56
370
    25
100
AcDbLine
 10
-442.944091713379
 20
703.8764501980752
 30
0.0
 11
-448.4225012451591
 21
698.3980406662952
 31
0.0
  0
LINE
  5
49F
330
1F
100
AcDbEntity
  8
ZUWAKU
  6
Continuous
 62
    56
370
    25
100
AcDbLine
 10
-444.3583052757521
 20
703.8764501980752
 30
0.0
 11
-448.8762235941589
 21
699.3585318796686
 31
0.0
  0
LINE
  5
4A0
330
1F
100
AcDbEntity
  8
ZUWAKU
  6
Continuous
 62
    56
370
    25
100
AcDbLine
 10
-445.7725188381254
 20
703.8764501980752
 30
0.0
 11
-449.2600917870411
 21
700.3888772491596
 31
0.0
  0
LINE
  5
4A1
330
1F
100
AcDbEntity
  8
ZUWAKU
  6
Continuous
 62
    56
370
    25
100
AcDbLine
 10
-447.1867324004985
 20
703.8764501980752
 30
0.0
 11
-449.557993923186
 21
701.5051886753877
 31
0.0
  0
LINE
  5
4A2
330
1F
100
AcDbEntity
  8
ZUWAKU
  6
Continuous
 62
    56
370
    25
100
AcDbLine
 10
-448.6009459628718
 20
703.8764501980752
 30
0.0
 11
-449.7457671729667
 21
702.7316289879803
 31
0.0
  0
LINE
  5
4A3
330
1F
100
AcDbEntity
  8
ZUWAKU
  6
Continuous
 62
    56
370
    25
100
AcDbLine
 10
-364.621923721497
 20
691.6889501980752
 30
0.0
 11
-378.2110156868486
 21
678.0998582327236
 31
0.0
  0
LINE
  5
4A4
330
1F
100
AcDbEntity
  8
ZUWAKU
  6
Continuous
 62
    56
370
    25
100
AcDbLine
 10
-363.2077101591233
 20
691.6889501980752
 30
0.0
 11
-376.7166038188523
 21
678.1800565383463
 31
0.0
  0
LINE
  5
4A5
330
1F
100
AcDbEntity
  8
ZUWAKU
  6
Continuous
 62
    56
370
    25
100
AcDbLine
 10
-361.7934965967503
 20
691.6889501980752
 30
0.0
 11
-375.2065685782631
 21
678.2758782165624
 31
0.0
  0
LINE
  5
4A6
330
1F
100
AcDbEntity
  8
ZUWAKU
  6
Continuous
 62
    56
370
    25
100
AcDbLine
 10
-360.3792830343771
 20
691.6889501980752
 30
0.0
 11
-373.6802232492605
 21
678.3880099831919
 31
0.0
  0
LINE
  5
4A7
330
1F
100
AcDbEntity
  8
ZUWAKU
  6
Continuous
 62
    56
370
    25
100
AcDbLine
 10
-358.965069472004
 20
691.6889501980752
 30
0.0
 11
-372.1367986069978
 21
678.5172210630813
 31
0.0
  0
LINE
  5
4A8
330
1F
100
AcDbEntity
  8
ZUWAKU
  6
Continuous
 62
    56
370
    25
100
AcDbLine
 10
-357.5508559096309
 20
691.6889501980752
 30
0.0
 11
-370.5754296773372
 21
678.6643764303689
 31
0.0
  0
LINE
  5
4A9
330
1F
100
AcDbEntity
  8
ZUWAKU
  6
Continuous
 62
    56
370
    25
100
AcDbLine
 10
-356.1366423472577
 20
691.6889501980752
 30
0.0
 11
-368.9951395171147
 21
678.8304530282182
 31
0.0
  0
LINE
  5
4AA
330
1F
100
AcDbEntity
  8
ZUWAKU
  6
Continuous
 62
    56
370
    25
100
AcDbLine
 10
-354.7224287848846
 20
691.6889501980752
 30
0.0
 11
-367.3948191556043
 21
679.0165598273554
 31
0.0
  0
LINE
  5
4AB
330
1F
100
AcDbEntity
  8
ZUWAKU
  6
Continuous
 62
    56
370
    25
100
AcDbLine
 10
-353.3082152225115
 20
691.6889501980752
 30
0.0
 11
-365.7732025272235
 21
679.2239628933633
 31
0.0
  0
LINE
  5
4AC
330
1F
100
AcDbEntity
  8
ZUWAKU
  6
Continuous
 62
    56
370
    25
100
AcDbLine
 10
-351.8940016601381
 20
691.6889501980752
 30
0.0
 11
-364.128834777524
 21
679.4541170806893
 31
0.0
  0
LINE
  5
4AD
330
1F
100
AcDbEntity
  8
ZUWAKU
  6
Continuous
 62
    56
370
    25
100
AcDbLine
 10
-350.4797880977649
 20
691.6889501980752
 30
0.0
 11
-362.4600316658181
 21
679.708706630022
 31
0.0
  0
LINE
  5
4AE
330
1F
100
AcDbEntity
  8
ZUWAKU
  6
Continuous
 62
    56
370
    25
100
AcDbLine
 10
-349.0655745353919
 20
691.6889501980752
 30
0.0
 11
-360.7648267984098
 21
679.9896979350572
 31
0.0
  0
LINE
  5
4AF
330
1F
100
AcDbEntity
  8
ZUWAKU
  6
Continuous
 62
    56
370
    25
100
AcDbLine
 10
-347.6513609730185
 20
691.6889501980752
 30
0.0
 11
-359.040901904344
 21
680.2994092667498
 31
0.0
  0
LINE
  5
4B0
330
1F
100
AcDbEntity
  8
ZUWAKU
  6
Continuous
 62
    56
370
    25
100
AcDbLine
 10
-334.0496474106455
 20
703.8764501980752
 30
0.0
 11
-334.1666666666662
 21
703.7594309420547
 31
0.0
  0
LINE
  5
4B1
330
1F
100
AcDbEntity
  8
ZUWAKU
  6
Continuous
 62
    56
370
    25
100
AcDbLine
 10
-346.2371474106454
 20
691.6889501980752
 30
0.0
 11
-357.2854929600646
 21
680.6406046486561
 31
0.0
  0
LINE
  5
4B2
330
1F
100
AcDbEntity
  8
ZUWAKU
  6
Continuous
 62
    56
370
    25
100
AcDbLine
 10
-332.6354338482723
 20
703.8764501980752
 30
0.0
 11
-334.1666666666662
 21
702.3452173796813
 31
0.0
  0
LINE
  5
4B3
330
1F
100
AcDbEntity
  8
ZUWAKU
  6
Continuous
 62
    56
370
    25
100
AcDbLine
 10
-344.8229338482723
 20
691.6889501980752
 30
0.0
 11
-355.4952610493095
 21
681.016622997038
 31
0.0
  0
LINE
  5
4B4
330
1F
100
AcDbEntity
  8
ZUWAKU
  6
Continuous
 62
    56
370
    25
100
AcDbLine
 10
-331.2212202858991
 20
703.8764501980752
 30
0.0
 11
-334.1666666666662
 21
700.9310038173082
 31
0.0
  0
LINE
  5
4B5
330
1F
100
AcDbEntity
  8
ZUWAKU
  6
Continuous
 62
    56
370
    25
100
AcDbLine
 10
-343.4087202858991
 20
691.6889501980752
 30
0.0
 11
-353.6661102278823
 21
681.431560256092
 31
0.0
  0
LINE
  5
4B6
330
1F
100
AcDbEntity
  8
ZUWAKU
  6
Continuous
 62
    56
370
    25
100
AcDbLine
 10
-329.8070067235261
 20
703.8764501980752
 30
0.0
 11
-334.1666666666662
 21
699.5167902549351
 31
0.0
  0
LINE
  5
4B7
330
1F
100
AcDbEntity
  8
ZUWAKU
  6
Continuous
 62
    56
370
    25
100
AcDbLine
 10
-341.994506723526
 20
691.6889501980752
 30
0.0
 11
-351.7929230298907
 21
681.8905338917104
 31
0.0
  0
LINE
  5
4B8
330
1F
100
AcDbEntity
  8
ZUWAKU
  6
Continuous
 62
    56
370
    25
100
AcDbLine
 10
-328.392793161153
 20
703.8764501980752
 30
0.0
 11
-334.1666666666662
 21
698.102576692562
 31
0.0
  0
LINE
  5
4B9
330
1F
100
AcDbEntity
  8
ZUWAKU
  6
Continuous
 62
    56
370
    25
100
AcDbLine
 10
-340.580293161153
 20
691.6889501980752
 30
0.0
 11
-349.8691627960051
 21
682.4000805632231
 31
0.0
  0
LINE
  5
4BA
330
1F
100
AcDbEntity
  8
ZUWAKU
  6
Continuous
 62
    56
370
    25
100
AcDbLine
 10
-326.9785795987797
 20
703.8764501980752
 30
0.0
 11
-334.1666666666662
 21
696.6883631301887
 31
0.0
  0
LINE
  5
4BB
330
1F
100
AcDbEntity
  8
ZUWAKU
  6
Continuous
 62
    56
370
    25
100
AcDbLine
 10
-339.1660795987797
 20
691.6889501980752
 30
0.0
 11
-347.8862501016997
 21
682.9687796951553
 31
0.0
  0
LINE
  5
4BC
330
1F
100
AcDbEntity
  8
ZUWAKU
  6
Continuous
 62
    56
370
    25
100
AcDbLine
 10
-325.5643660364067
 20
703.8764501980752
 30
0.0
 11
-334.1666666666662
 21
695.2741495678157
 31
0.0
  0
LINE
  5
4BD
330
1F
100
AcDbEntity
  8
ZUWAKU
  6
Continuous
 62
    56
370
    25
100
AcDbLine
 10
-337.7518660364067
 20
691.6889501980752
 30
0.0
 11
-345.8325328297904
 21
683.6082834046914
 31
0.0
  0
LINE
  5
4BE
330
1F
100
AcDbEntity
  8
ZUWAKU
  6
Continuous
 62
    56
370
    25
100
AcDbLine
 10
-324.1501524740333
 20
703.8764501980752
 30
0.0
 11
-334.1666666666662
 21
693.8599360054424
 31
0.0
  0
LINE
  5
4BF
330
1F
100
AcDbEntity
  8
ZUWAKU
  6
Continuous
 62
    56
370
    25
100
AcDbLine
 10
-336.3376524740333
 20
691.6889501980752
 30
0.0
 11
-343.6914690615367
 21
684.3351336105719
 31
0.0
  0
LINE
  5
4C0
330
1F
100
AcDbEntity
  8
ZUWAKU
  6
Continuous
 62
    56
370
    25
100
AcDbLine
 10
-322.7359389116601
 20
703.8764501980752
 30
0.0
 11
-334.1666666666662
 21
692.4457224430693
 31
0.0
  0
LINE
  5
4C1
330
1F
100
AcDbEntity
  8
ZUWAKU
  6
Continuous
 62
    56
370
    25
100
AcDbLine
 10
-334.9234389116601
 20
691.6889501980752
 30
0.0
 11
-341.4381300238575
 21
685.1742590858778
 31
0.0
  0
LINE
  5
4C2
330
1F
100
AcDbEntity
  8
ZUWAKU
  6
Continuous
 62
    56
370
    25
100
AcDbLine
 10
-321.9912804427457
 20
703.2068951046163
 30
0.0
 11
-339.0316078595201
 21
686.1665676878421
 31
0.0
  0
LINE
  5
4C3
330
1F
100
AcDbEntity
  8
ZUWAKU
  6
Continuous
 62
    56
370
    25
100
AcDbLine
 10
-322.1954818397793
 20
701.5884801452096
 30
0.0
 11
-336.3952628105235
 21
687.3886991744655
 31
0.0
  0
LINE
  5
4C4
330
1F
100
AcDbEntity
  8
ZUWAKU
  6
Continuous
 62
    56
370
    25
100
AcDbLine
 10
-322.8122528418498
 20
699.5574955807658
 30
0.0
 11
-333.3463481564899
 21
689.0234002661259
 31
0.0
  0
LINE
  5
4C5
330
1F
100
AcDbEntity
  8
ZUWAKU
  6
Continuous
 62
    56
370
    25
100
AcDbLine
 10
-324.7200469314002
 20
696.2354879288425
 30
0.0
 11
-329.0064104149766
 21
691.9491244452661
 31
0.0
  0
LINE
  5
4C6
330
1F
100
AcDbEntity
  8
ZUWAKU
  6
Continuous
 62
     3
370
    25
100
AcDbLine
 10
154.5833333333339
 20
718.2514501980754
 30
0.0
 11
470.2083333333338
 21
718.2514501980754
 31
0.0
  0
LINE
  5
4C7
330
1F
100
AcDbEntity
  8
ZUWAKU
  6
Continuous
 62
     3
370
    25
100
AcDbLine
 10
154.5833333333339
 20
718.2514501980754
 30
0.0
 11
154.5833333333339
 21
668.7207645212743
 31
0.0
  0
LINE
  5
4C8
330
1F
100
AcDbEntity
  8
ZUWAKU
  6
Continuous
 62
     3
370
    25
100
AcDbLine
 10
470.2083333333338
 20
718.2514501980754
 30
0.0
 11
470.2083333333338
 21
668.7207645212743
 31
0.0
  0
LINE
  5
4C9
330
1F
100
AcDbEntity
  8
ZUWAKU
  6
Continuous
 62
     3
370
    25
100
AcDbLine
 10
-422.291666666667
 20
-635.1860498019241
 30
0.0
 11
-422.291666666667
 21
-460.1860498019241
 31
0.0
  0
LINE
  5
4CA
330
1F
100
AcDbEntity
  8
ZUWAKU
  6
Continuous
 62
     3
370
    25
100
AcDbLine
 10
-189.479166666667
 20
-635.1860498019245
 30
0.0
 11
-189.479166666667
 21
-460.1860498019244
 31
0.0
  0
LINE
  5
4CB
330
1F
100
AcDbEntity
  8
ZUWAKU
  6
Continuous
 62
     3
370
    25
100
AcDbLine
 10
76.14583333333292
 20
-635.1860498019245
 30
0.0
 11
76.14583333333297
 21
-460.1860498019245
 31
0.0
  0
LINE
  5
4CC
330
1F
100
AcDbEntity
  8
ZUWAKU
  6
Continuous
 62
     3
370
    25
100
AcDbLine
 10
131.770833333333
 20
-635.1860498019245
 30
0.0
 11
131.770833333333
 21
-460.1860498019246
 31
0.0
  0
LINE
  5
4CD
330
1F
100
AcDbEntity
  8
ZUWAKU
  6
Continuous
 62
     3
370
    25
100
AcDbLine
 10
153.3333333333329
 20
-703.9360498019246
 30
0.0
 11
153.333333333333
 21
-643.6235498019246
 31
0.0
  0
LINE
  5
4CE
330
1F
100
AcDbEntity
  8
ZUWAKU
  6
Continuous
 62
     3
370
    25
100
AcDbLine
 10
128.3333333333329
 20
-703.9360498019246
 30
0.0
 11
128.333333333333
 21
-643.6235498019246
 31
0.0
  0
LINE
  5
4CF
330
1F
100
AcDbEntity
  8
ZUWAKU
  6
Continuous
 62
     3
370
    25
100
AcDbLine
 10
-184.479166666667
 20
-703.9360498019246
 30
0.0
 11
-184.479166666667
 21
-643.6235498019246
 31
0.0
  0
LINE
  5
4D0
330
1F
100
AcDbEntity
  8
ZUWAKU
  6
Continuous
 62
     3
370
    25
100
AcDbLine
 10
-209.479166666667
 20
-703.9360498019246
 30
0.0
 11
-209.479166666667
 21
-643.6235498019246
 31
0.0
  0
LINE
  5
4D1
330
1F
100
AcDbEntity
  8
ZUWAKU
  6
Continuous
 62
     3
370
    25
100
AcDbLine
 10
-456.979166666667
 20
-610.1860498019241
 30
0.0
 11
465.208333333333
 21
-610.186049801925
 31
0.0
  0
LINE
  5
4D2
330
1F
100
AcDbEntity
  8
ZUWAKU
  6
Continuous
 62
     3
370
    25
100
AcDbLine
 10
-456.979166666667
 20
-585.1860498019241
 30
0.0
 11
465.208333333333
 21
-585.186049801925
 31
0.0
  0
LINE
  5
4D3
330
1F
100
AcDbEntity
  8
ZUWAKU
  6
Continuous
 62
     3
370
    25
100
AcDbLine
 10
-456.979166666667
 20
-560.1860498019241
 30
0.0
 11
465.208333333333
 21
-560.186049801925
 31
0.0
  0
LINE
  5
4D4
330
1F
100
AcDbEntity
  8
ZUWAKU
  6
Continuous
 62
     3
370
    25
100
AcDbLine
 10
-456.979166666667
 20
-535.1860498019241
 30
0.0
 11
465.208333333333
 21
-535.186049801925
 31
0.0
  0
LINE
  5
4D5
330
1F
100
AcDbEntity
  8
ZUWAKU
  6
Continuous
 62
     3
370
    25
100
AcDbLine
 10
-456.979166666667
 20
-510.1860498019241
 30
0.0
 11
465.208333333333
 21
-510.186049801925
 31
0.0
  0
LINE
  5
4D6
330
1F
100
AcDbEntity
  8
ZUWAKU
  6
Continuous
 62
     3
370
    25
100
AcDbLine
 10
-456.979166666667
 20
-485.1860498019241
 30
0.0
 11
465.208333333333
 21
-485.186049801925
 31
0.0
  0
POINT
  5
4D7
330
1F
100
AcDbEntity
  8
ZUWAKU
  6
Continuous
 62
     3
100
AcDbPoint
 10
-456.9791666666664
 20
-198.1607800800754
 30
0.0
  0
POINT
  5
4D8
330
1F
100
AcDbEntity
  8
ZUWAKU
  6
Continuous
 62
     3
100
AcDbPoint
 10
-456.9791666666664
 20
201.8392199199246
 30
0.0
  0
POINT
  5
4D9
330
1F
100
AcDbEntity
  8
ZUWAKU
  6
Continuous
 62
     3
100
AcDbPoint
 10
-526.6666666666666
 20
1.839219919924543
 30
0.0
  0
TEXT
  5
4DB
330
1F
100
AcDbEntity
  8
ZUWAKU
 62
     4
100
AcDbText
 10
-196.9816400899681
 20
-647.9128451682298
 30
0.0
 40
12.495
  1
品 名
 50
-0.0000000000000421
 41
0.8
  7
dcStyle1
100
AcDbText
  0
TEXT
  5
4DC
330
1F
100
AcDbEntity
  8
ZUWAKU
 62
     4
100
AcDbText
 10
140.529551791111
 20
-648.0008275127013
 30
0.0
 40
12.495
  1
品　番
 50
-0.0000000000000421
 41
0.8
  7
dcStyle1
100
AcDbText
  0
TEXT
  5
4DD
330
1F
100
AcDbEntity
  8
ZUWAKU
 62
     4
100
AcDbText
 10
-448.4203983200649
 20
-607.4862168099803
 30
0.0
 40
20.0
  1
1
 41
1.527272727272727
  7
dcStyle0
 72
     5
 11
-432.4203983200649
 21
-607.4862168099803
 31
0.0
100
AcDbText
  0
TEXT
  5
4DE
330
1F
100
AcDbEntity
  8
ZUWAKU
 62
     4
100
AcDbText
 10
-448.4203983200649
 20
-582.4862168099803
 30
0.0
 40
20.0
  1
2
 41
0.9882352941176471
  7
dcStyle0
 72
     5
 11
-432.4203983200649
 21
-582.4862168099803
 31
0.0
100
AcDbText
  0
TEXT
  5
4DF
330
1F
100
AcDbEntity
  8
ZUWAKU
 62
     4
100
AcDbText
 10
-448.4203983200649
 20
-557.4862168099803
 30
0.0
 40
20.0
  1
3
 41
0.9882352941176471
  7
dcStyle0
 72
     5
 11
-432.4203983200649
 21
-557.4862168099803
 31
0.0
100
AcDbText
  0
TEXT
  5
4E0
330
1F
100
AcDbEntity
  8
ZUWAKU
 62
     4
100
AcDbText
 10
-448.4203983200649
 20
-532.4862168099803
 30
0.0
 40
20.0
  1
4
 41
0.9333333333333333
  7
dcStyle0
 72
     5
 11
-432.4203983200649
 21
-532.4862168099803
 31
0.0
100
AcDbText
  0
TEXT
  5
4E1
330
1F
100
AcDbEntity
  8
ZUWAKU
 62
     4
100
AcDbText
 10
-448.4203983200649
 20
-507.4862168099804
 30
0.0
 40
20.0
  1
5
 41
0.9882352941176471
  7
dcStyle0
 72
     5
 11
-432.4203983200649
 21
-507.4862168099804
 31
0.0
100
AcDbText
  0
TEXT
  5
4E2
330
1F
100
AcDbEntity
  8
ZUWAKU
 62
     4
100
AcDbText
 10
-448.4203983200649
 20
-482.4862168099804
 30
0.0
 40
20.0
  1
6
 41
0.9882352941176471
  7
dcStyle0
 72
     5
 11
-432.4203983200649
 21
-482.4862168099804
 31
0.0
100
AcDbText
  0
TEXT
  5
4E3
330
1F
100
AcDbEntity
  8
ZUWAKU
 62
     4
100
AcDbText
 10
257.693839329723
 20
-632.3875485819871
 30
0.0
 40
20.0
  1
摘要・仕上
 41
0.9655172413793103
  7
dcStyle0
 72
     5
 11
337.693839329723
 21
-632.3875485819871
 31
0.0
100
AcDbText
  0
TEXT
  5
4E4
330
1F
100
AcDbEntity
  8
ZUWAKU
 62
     4
100
AcDbText
 10
79.51563980109792
 20
-632.387548581987
 30
0.0
 40
20.0
  1
個　数
 41
0.9882352941176468
  7
dcStyle0
 72
     5
 11
127.5156398010979
 21
-632.387548581987
 31
0.0
100
AcDbText
  0
TEXT
  5
4E5
330
1F
100
AcDbEntity
  8
ZUWAKU
 62
     4
100
AcDbText
 10
-88.46390670719232
 20
-632.387548581987
 30
0.0
 40
20.0
  1
材　　質
 41
0.9739130434782606
  7
dcStyle0
 72
     5
 11
-24.46390670719234
 21
-632.387548581987
 31
0.0
100
AcDbText
  0
TEXT
  5
4E6
330
1F
100
AcDbEntity
  8
ZUWAKU
 62
     4
100
AcDbText
 10
-346.0510055035454
 20
-632.3875485819866
 30
0.0
 40
20.0
  1
部　品　名
 41
0.9655172413793103
  7
dcStyle0
 72
     5
 11
-266.0510055035454
 21
-632.3875485819866
 31
0.0
100
AcDbText
  0
TEXT
  5
4E7
330
1F
100
AcDbEntity
  8
ZUWAKU
 62
     4
100
AcDbText
 10
-456.2615719105252
 20
-632.3875485819865
 30
0.0
 40
20.0
  1
部番
 41
1.018181818181818
  7
dcStyle0
 72
     5
 11
-424.2615719105252
 21
-632.3875485819865
 31
0.0
100
AcDbText
  0
TEXT
  5
4E8
330
1F
100
AcDbEntity
  8
ZUWAKU
 62
     4
100
AcDbText
 10
370.4265422599685
 20
-731.4658141729406
 30
0.0
 40
20.0
  1
130903
 41
0.8615384615384615
  7
dcStyle0
 72
     5
 11
466.4265422599685
 21
-731.4658141729406
 31
0.0
100
AcDbText
  0
TEXT
  5
4E9
330
1F
100
AcDbEntity
  8
ZUWAKU
 62
     4
100
AcDbText
 10
497.4320424910902
 20
-280.4083031074768
 30
0.0
 40
20.0
  1
洗面台
 50
269.9999999999998
 41
0.9882352941176471
  7
dcStyle0
 72
     5
 11
497.43204249109
 21
-328.4083031074768
 31
0.0
100
AcDbText
  0
POINT
  5
4EA
330
1F
100
AcDbEntity
  8
ZUWAKU
  6
Continuous
 62
     9
100
AcDbPoint
 10
312.3958333333338
 20
693.4861073596749
 30
0.0
  0
POINT
  5
4EB
330
1F
100
AcDbEntity
  8
ZUWAKU
  6
Continuous
 62
     9
100
AcDbPoint
 10
-76.18047480620102
 20
693.4861073596749
 30
0.0
  0
POINT
  5
4EC
330
1F
100
AcDbEntity
  8
ZUWAKU
  6
Continuous
 62
     9
100
AcDbPoint
 10
309.270833333333
 20
-673.7797998019246
 30
0.0
  0
POINT
  5
4ED
330
1F
100
AcDbEntity
  8
ZUWAKU
  6
Continuous
 62
     9
100
AcDbPoint
 10
-28.0729166666671
 20
-673.7797998019246
 30
0.0
  0
POINT
  5
4EE
330
1F
100
AcDbEntity
  8
ZUWAKU
  6
Continuous
 62
     9
100
AcDbPoint
 10
103.958333333333
 20
-597.6860498019246
 30
0.0
  0
POINT
  5
4EF
330
1F
100
AcDbEntity
  8
ZUWAKU
  6
Continuous
 62
     9
100
AcDbPoint
 10
-417.291666666667
 20
-597.6860498019241
 30
0.0
  0
POINT
  5
4F0
330
1F
100
AcDbEntity
  8
ZUWAKU
  6
Continuous
 62
     9
100
AcDbPoint
 10
-184.479166666667
 20
-597.6860498019246
 30
0.0
  0
POINT
  5
4F1
330
1F
100
AcDbEntity
  8
ZUWAKU
  6
Continuous
 62
     9
100
AcDbPoint
 10
136.770833333333
 20
-597.6860498019246
 30
0.0
  0
LINE
  5
4F2
330
1F
100
AcDbEntity
  8
ZUWAKU
  6
Continuous
 62
     9
370
    25
100
AcDbLine
 10
-524.9999999999999
 20
767.5000000000002
 30
0.0
 11
-524.9999999999999
 21
742.5
 31
0.0
  0
LINE
  5
4F3
330
1F
100
AcDbEntity
  8
ZUWAKU
  6
Continuous
 62
     9
370
    25
100
AcDbLine
 10
-525.0000000000001
 20
742.5
 30
0.0
 11
-550.0000000000001
 21
742.5
 31
0.0
  0
LINE
  5
4F4
330
1F
100
AcDbEntity
  8
ZUWAKU
  6
Continuous
 62
     9
370
    25
100
AcDbLine
 10
525.0000000000001
 20
742.5
 30
0.0
 11
550.0000000000001
 21
742.5
 31
0.0
  0
LINE
  5
4F5
330
1F
100
AcDbEntity
  8
ZUWAKU
  6
Continuous
 62
     9
370
    25
100
AcDbLine
 10
525.0000000000001
 20
742.5
 30
0.0
 11
525.0000000000001
 21
767.5
 31
0.0
  0
LINE
  5
4F6
330
1F
100
AcDbEntity
  8
ZUWAKU
  6
Continuous
 62
     9
370
    25
100
AcDbLine
 10
525.0000000000001
 20
-767.4999999999999
 30
0.0
 11
525.0
 21
-742.4999999999999
 31
0.0
  0
LINE
  5
4F7
330
1F
100
AcDbEntity
  8
ZUWAKU
  6
Continuous
 62
     9
370
    25
100
AcDbLine
 10
525.0
 20
-742.4999999999999
 30
0.0
 11
550.0
 21
-742.4999999999999
 31
0.0
  0
LINE
  5
4F8
330
1F
100
AcDbEntity
  8
ZUWAKU
  6
Continuous
 62
     9
370
    25
100
AcDbLine
 10
-550.1156154699827
 20
-742.3274467467425
 30
0.0
 11
-525.0
 21
-742.3274467467425
 31
0.0
  0
LINE
  5
4F9
330
1F
100
AcDbEntity
  8
ZUWAKU
  6
Continuous
 62
     9
370
    25
100
AcDbLine
 10
-525.0
 20
-742.5
 30
0.0
 11
-525.0
 21
-767.3271794065754
 31
0.0
  0
POINT
  5
4FA
330
1F
100
AcDbEntity
  8
ZUWAKU
  6
Continuous
 62
     9
100
AcDbPoint
 10
103.958333333333
 20
-572.6860498019246
 30
0.0
  0
POINT
  5
4FB
330
1F
100
AcDbEntity
  8
ZUWAKU
  6
Continuous
 62
     9
100
AcDbPoint
 10
-417.291666666667
 20
-572.6860498019241
 30
0.0
  0
POINT
  5
4FC
330
1F
100
AcDbEntity
  8
ZUWAKU
  6
Continuous
 62
     9
100
AcDbPoint
 10
-184.479166666667
 20
-572.6860498019246
 30
0.0
  0
POINT
  5
4FD
330
1F
100
AcDbEntity
  8
ZUWAKU
  6
Continuous
 62
     9
100
AcDbPoint
 10
136.770833333333
 20
-572.6860498019246
 30
0.0
  0
POINT
  5
4FE
330
1F
100
AcDbEntity
  8
ZUWAKU
  6
Continuous
 62
     9
100
AcDbPoint
 10
103.958333333333
 20
-547.6860498019246
 30
0.0
  0
POINT
  5
4FF
330
1F
100
AcDbEntity
  8
ZUWAKU
  6
Continuous
 62
     9
100
AcDbPoint
 10
-417.291666666667
 20
-547.6860498019241
 30
0.0
  0
POINT
  5
500
330
1F
100
AcDbEntity
  8
ZUWAKU
  6
Continuous
 62
     9
100
AcDbPoint
 10
-184.479166666667
 20
-547.6860498019246
 30
0.0
  0
POINT
  5
501
330
1F
100
AcDbEntity
  8
ZUWAKU
  6
Continuous
 62
     9
100
AcDbPoint
 10
136.770833333333
 20
-547.6860498019246
 30
0.0
  0
POINT
  5
502
330
1F
100
AcDbEntity
  8
ZUWAKU
  6
Continuous
 62
     9
100
AcDbPoint
 10
103.958333333333
 20
-522.6860498019246
 30
0.0
  0
POINT
  5
503
330
1F
100
AcDbEntity
  8
ZUWAKU
  6
Continuous
 62
     9
100
AcDbPoint
 10
-417.291666666667
 20
-522.6860498019241
 30
0.0
  0
POINT
  5
504
330
1F
100
AcDbEntity
  8
ZUWAKU
  6
Continuous
 62
     9
100
AcDbPoint
 10
-184.479166666667
 20
-522.6860498019246
 30
0.0
  0
POINT
  5
505
330
1F
100
AcDbEntity
  8
ZUWAKU
  6
Continuous
 62
     9
100
AcDbPoint
 10
136.770833333333
 20
-522.6860498019246
 30
0.0
  0
POINT
  5
506
330
1F
100
AcDbEntity
  8
ZUWAKU
  6
Continuous
 62
     9
100
AcDbPoint
 10
103.9583333333331
 20
-497.6860498019246
 30
0.0
  0
POINT
  5
507
330
1F
100
AcDbEntity
  8
ZUWAKU
  6
Continuous
 62
     9
100
AcDbPoint
 10
-417.291666666667
 20
-497.6860498019241
 30
0.0
  0
POINT
  5
508
330
1F
100
AcDbEntity
  8
ZUWAKU
  6
Continuous
 62
     9
100
AcDbPoint
 10
-184.479166666667
 20
-497.6860498019246
 30
0.0
  0
POINT
  5
509
330
1F
100
AcDbEntity
  8
ZUWAKU
  6
Continuous
 62
     9
100
AcDbPoint
 10
136.7708333333331
 20
-497.6860498019246
 30
0.0
  0
POINT
  5
50A
330
1F
100
AcDbEntity
  8
ZUWAKU
  6
Continuous
 62
     9
100
AcDbPoint
 10
103.9583333333331
 20
-472.6860498019246
 30
0.0
  0
POINT
  5
50B
330
1F
100
AcDbEntity
  8
ZUWAKU
  6
Continuous
 62
     9
100
AcDbPoint
 10
-417.291666666667
 20
-472.6860498019241
 30
0.0
  0
POINT
  5
50C
330
1F
100
AcDbEntity
  8
ZUWAKU
  6
Continuous
 62
     9
100
AcDbPoint
 10
-184.479166666667
 20
-472.6860498019246
 30
0.0
  0
POINT
  5
50D
330
1F
100
AcDbEntity
  8
ZUWAKU
  6
Continuous
 62
     9
100
AcDbPoint
 10
136.7708333333331
 20
-472.6860498019246
 30
0.0
  0
TEXT
  5
50E
330
1F
100
AcDbEntity
  8
Layer0240
 62
     4
100
AcDbText
 10
-417.291666666667
 20
-607.6860498019241
 30
0.0
 40
20.0
  1
手洗器
 41
0.9882352941176471
  7
dcStyle0
 72
     5
 11
-369.291666666667
 21
-607.6860498019241
 31
0.0
100
AcDbText
  0
TEXT
  5
50F
330
1F
100
AcDbEntity
  8
Layer0240
 62
     4
100
AcDbText
 10
-184.479166666667
 20
-607.6860498019245
 30
0.0
 40
20.0
  1
陶器
 41
1.018181818181818
  7
dcStyle0
 72
     5
 11
-152.479166666667
 21
-607.6860498019245
 31
0.0
100
AcDbText
  0
TEXT
  5
510
330
1F
100
AcDbEntity
  8
Layer0240
 62
     4
100
AcDbText
 10
95.958333333333
 20
-607.6860498019246
 30
0.0
 40
20.0
  1
1
 41
1.527272727272724
  7
dcStyle0
 72
     5
 11
111.958333333333
 21
-607.6860498019246
 31
0.0
100
AcDbText
  0
TEXT
  5
511
330
1F
100
AcDbEntity
  8
Layer0240
 62
     4
100
AcDbText
 10
-154.8229166666671
 20
-688.7797998019247
 30
0.0
 40
30.0
  1
オーバーカウンター型手洗器
 41
0.768181818181818
  7
dcStyle0
 72
     5
 11
98.67708333333289
 21
-688.7797998019247
 31
0.0
100
AcDbText
  0
TEXT
  5
512
330
1F
100
AcDbEntity
  8
Layer0240
 62
     4
100
AcDbText
 10
249.2708333333329
 20
-688.7797998019246
 30
0.0
 40
30.0
  1
RW105
 41
0.823529411764706
  7
dcStyle0
 72
     5
 11
369.2708333333329
 21
-688.7797998019246
 31
0.0
100
AcDbText
  0
TEXT
  5
513
330
1F
100
AcDbEntity
  8
Layer0240
 62
     4
100
AcDbText
 10
-232.180474806201
 20
678.4861073596745
 30
0.0
 40
30.0
  1
オーバーカウンター型手洗器
 41
0.9454545454545453
  7
dcStyle0
 72
     5
 11
79.819525193799
 21
678.4861073596745
 31
0.0
100
AcDbText
  0
TEXT
  5
514
330
1F
100
AcDbEntity
  8
Layer0240
 62
     4
100
AcDbText
 10
252.3958333333338
 20
678.4861073596746
 30
0.0
 40
30.0
  1
RW105
 41
0.823529411764706
  7
dcStyle0
 72
     5
 11
372.3958333333338
 21
678.4861073596746
 31
0.0
100
AcDbText
  0
TEXT
  5
515
330
1F
100
AcDbEntity
  8
Layer0240
 62
     4
100
AcDbText
 10
-418.9105191256834
 20
-337.8667331395662
 30
0.0
 40
20.0
  1
　現物あわせにて取付けをお願いします。
 41
0.9415929203539822
  7
dcStyle0
 72
     5
 11
-114.9105191256834
 21
-337.8667331395662
 31
0.0
100
AcDbText
  0
TEXT
  5
516
330
1F
100
AcDbEntity
  8
Layer0240
 62
     4
100
AcDbText
 10
-418.9105191256834
 20
-310.8689135259437
 30
0.0
 40
20.0
  1
※本製品は陶器のため、出来上がりに多少の寸法誤差が生じる場合があります。
 41
0.937674418604651
  7
dcStyle0
 72
     5
 11
157.0894808743166
 21
-310.8689135259437
 31
0.0
100
AcDbText
  0
TEXT
  5
517
330
1F
100
AcDbEntity
  8
Layer0240
 62
     4
100
AcDbText
 10
-418.9105191256834
 20
-373.5628440679756
 30
0.0
 40
20.0
  1
※吐水量によっては水跳ねする場合が御座います。吐水量は絞ってお使い下さい。
 41
0.9375565610859726
  7
dcStyle0
 72
     5
 11
173.0894808743166
 21
-373.5628440679756
 31
0.0
100
AcDbText
  0
TEXT
  5
518
330
1F
100
AcDbEntity
  8
Layer0240
 62
     4
100
AcDbText
 10
-418.9105191256834
 20
-413.1690325349234
 30
0.0
 40
20.0
  1
※手洗器のカウンター設置部はシリコンでコーキングしてください。
 41
0.9383783783783778
  7
dcStyle0
 72
     5
 11
77.08948087431656
 21
-413.1690325349234
 31
0.0
100
AcDbText
  0
ELLIPSE
  5
519
330
1F
100
AcDbEntity
  8
Layer0009
  6
Continuous
 62
     3
370
    18
100
AcDbEllipse
 10
-204.791666666667
 20
241.6789363102419
 30
0.0
 11
152.5
 21
0.0
 31
0.0
210
0.0
220
0.0
230
1.0
 40
0.7049180327868834
 41
0.0
 42
6.283185307179586
  0
ELLIPSE
  5
51A
330
1F
100
AcDbEntity
  8
Layer0009
  6
Continuous
 62
     3
370
    18
100
AcDbEllipse
 10
-204.791666666667
 20
241.6789363102419
 30
0.0
 11
144.0000000000009
 21
0.0
 31
0.0
210
0.0
220
0.0
230
1.0
 40
0.6874999999999944
 41
0.0
 42
6.283185307179586
  0
CIRCLE
  5
51B
330
1F
100
AcDbEntity
  8
Layer0009
  6
Continuous
 62
     3
370
    18
100
AcDbCircle
 10
-204.791666666667
 20
241.6789363102419
 30
0.0
 40
20.5
  0
CIRCLE
  5
51C
330
1F
100
AcDbEntity
  8
Layer0009
  6
Continuous
 62
     3
370
    18
100
AcDbCircle
 10
-204.791666666667
 20
241.6789363102419
 30
0.0
 40
30.5
  0
LINE
  5
51D
330
1F
100
AcDbEntity
  8
Layer0009
  6
Continuous
 62
     3
370
    18
100
AcDbLine
 10
-55.81514991761117
 20
16.17926737409199
 30
0.0
 11
-353.7681834157229
 21
16.17926737409188
 31
0.0
  0
ARC
  5
51E
330
1F
100
AcDbEntity
  8
Layer0009
  6
Continuous
 62
     3
370
    18
100
AcDbCircle
 10
-270.3819429078154
 20
32.05110469875139
 30
0.0
 40
88.0
100
AcDbArc
 50
216.1181795246795
 51
227.1530117403047
  0
ARC
  5
51F
330
1F
100
AcDbEntity
  8
Layer0009
  6
Continuous
 62
     3
370
    18
100
AcDbCircle
 10
-304.3840832806076
 20
-4.607515707217644
 30
0.0
 40
38.0
100
AcDbArc
 50
227.1530117403048
 51
239.0212485117096
  0
ARC
  5
520
330
1F
100
AcDbEntity
  8
Layer0009
  6
Continuous
 62
     3
370
    18
100
AcDbCircle
 10
-227.1760602642021
 20
123.9962213376217
 30
0.0
 40
188.0
100
AcDbArc
 50
239.0212485117096
 51
262.4534256608995
  0
ARC
  5
521
330
1F
100
AcDbEntity
  8
Layer0009
  6
Continuous
 62
     3
370
    18
100
AcDbCircle
 10
-252.2604856931688
 20
-65.34941922718939
 30
0.0
 40
3.0
100
AcDbArc
 50
6.398685862783405
 51
82.45342566089764
  0
ARC
  5
522
330
1F
100
AcDbEntity
  8
Layer0009
  6
Continuous
 62
     3
370
    18
100
AcDbCircle
 10
-246.5034190123788
 20
-71.82073262589641
 30
0.0
 40
2.0
100
AcDbArc
 50
186.3986858627797
 51
270.0
  0
LINE
  5
523
330
1F
100
AcDbEntity
  8
Layer0009
  6
Continuous
 62
     3
370
    18
100
AcDbLine
 10
-249.2791742665098
 20
-65.01508080990469
 30
0.0
 11
-248.4909599634848
 21
-72.04362490408617
 31
0.0
  0
LINE
  5
524
330
1F
100
AcDbEntity
  8
Layer0009
  6
Continuous
 62
     3
370
    18
100
AcDbLine
 10
-372.2916666666679
 20
-14.14982158444944
 30
0.0
 11
-372.2916666666679
 21
-15.82073262588902
 31
0.0
  0
LINE
  5
525
330
1F
100
AcDbEntity
  8
Layer0009
  6
Continuous
 62
     3
370
    18
100
AcDbLine
 10
-368.2916666666679
 20
-19.82073262588902
 30
0.0
 11
-204.791666666667
 21
-19.82073262588811
 31
0.0
  0
ARC
  5
526
330
1F
100
AcDbEntity
  8
Layer0009
  6
Continuous
 62
     3
370
    18
100
AcDbCircle
 10
-368.2916666666679
 20
-15.82073262588902
 30
0.0
 40
4.0
100
AcDbArc
 50
180.0
 51
270.0
  0
ARC
  5
527
330
1F
100
AcDbEntity
  8
Layer0009
  6
Continuous
 62
     3
370
    18
100
AcDbCircle
 10
-397.1523078855798
 20
19.51532516995248
 30
0.0
 40
40.0
100
AcDbArc
 50
311.5726980526834
 51
350.4023336971948
  0
ARC
  5
528
330
1F
100
AcDbEntity
  8
Layer0009
  6
Continuous
 62
     3
370
    18
100
AcDbCircle
 10
-353.7681834157229
 20
12.17926737410689
 30
0.0
 40
4.0
100
AcDbArc
 50
90.0
 51
170.4023336971949
  0
ARC
  5
529
330
1F
100
AcDbEntity
  8
Layer0009
  6
Continuous
 62
     3
370
    18
100
AcDbCircle
 10
-367.2916666666679
 20
-14.14982158444944
 30
0.0
 40
5.0
100
AcDbArc
 50
131.5726980526807
 51
180.0
  0
LINE
  5
52A
330
1F
100
AcDbEntity
  8
Layer0009
  6
Continuous
 62
     3
370
    18
100
AcDbLine
 10
-204.791666666667
 20
-11.82073262586401
 30
0.0
 11
-371.7160699736683
 21
-11.82073262586401
 31
0.0
  0
LINE
  5
52B
330
1F
100
AcDbEntity
  8
Layer0009
  6
Continuous
 62
     3
370
    18
100
AcDbLine
 10
225.8734180923041
 20
-73.82073262590602
 30
0.0
 11
225.649069500293
 21
-73.82073262590602
 31
0.0
  0
ARC
  5
52C
330
1F
100
AcDbEntity
  8
Layer0009
  6
Continuous
 62
     3
370
    18
100
AcDbCircle
 10
213.661665746594
 20
-72.82073262590625
 30
0.0
 40
1.0
100
AcDbArc
 50
270.0
 51
0.0
  0
LINE
  5
52D
330
1F
100
AcDbEntity
  8
Layer0009
  6
Continuous
 62
     3
370
    18
100
AcDbLine
 10
214.661665746594
 20
-69.58823079574476
 30
0.0
 11
214.661665746594
 21
-72.82073262590625
 31
0.0
  0
ARC
  5
52E
330
1F
100
AcDbEntity
  8
Layer0009
  6
Continuous
 62
     3
370
    18
100
AcDbCircle
 10
216.661665746594
 20
-69.58823079574476
 30
0.0
 40
2.0
100
AcDbArc
 50
128.659808254087
 51
180.0
  0
LINE
  5
52F
330
1F
100
AcDbEntity
  8
Layer0009
  6
Continuous
 62
     3
370
    18
100
AcDbLine
 10
215.4122756514852
 20
-68.02649317685886
 30
0.0
 11
217.8216072174919
 21
-66.09902792405346
 31
0.0
  0
ARC
  5
530
330
1F
100
AcDbEntity
  8
Layer0009
  6
Continuous
 62
     3
370
    18
100
AcDbCircle
 10
211.2426726984837
 20
84.13751288516386
 30
0.0
 40
150.0
100
AcDbArc
 50
272.9521610754815
 51
273.3797754958885
  0
ARC
  5
531
330
1F
100
AcDbEntity
  8
Layer0009
  6
Continuous
 62
     3
370
    18
100
AcDbCircle
 10
219.0709973126008
 20
-67.66076554293959
 30
0.0
 40
2.0
100
AcDbArc
 50
92.95216107548151
 51
128.659808254087
  0
ARC
  5
532
330
1F
100
AcDbEntity
  8
Layer0009
  6
Continuous
 62
     3
370
    18
100
AcDbCircle
 10
220.203681764791
 20
-67.59811350664135
 30
0.0
 40
2.0
100
AcDbArc
 50
16.72349829453263
 51
93.3797754958882
  0
LINE
  5
533
330
1F
100
AcDbEntity
  8
Layer0009
  6
Continuous
 62
     3
370
    18
100
AcDbLine
 10
223.7336603777934
 20
-72.39623926656877
 30
0.0
 11
222.1190908872901
 21
-67.02260686597883
 31
0.0
  0
ARC
  5
534
330
1F
100
AcDbEntity
  8
Layer0009
  6
Continuous
 62
     3
370
    18
100
AcDbCircle
 10
225.649069500293
 20
-71.82073262590625
 30
0.0
 40
2.0
100
AcDbArc
 50
196.7234982945326
 51
270.0
  0
LINE
  5
535
330
1F
100
AcDbEntity
  8
Layer0009
  6
Continuous
 62
     3
370
    18
100
AcDbLine
 10
228.9494443929757
 20
-62.33754973401737
 30
0.0
 11
227.8609590434101
 21
-72.04362490409589
 31
0.0
  0
ARC
  5
536
330
1F
100
AcDbEntity
  8
Layer0009
  6
Continuous
 62
     3
370
    18
100
AcDbCircle
 10
231.9307558196346
 20
-62.67188815130184
 30
0.0
 40
3.0
100
AcDbArc
 50
109.3756915600356
 51
173.6013141372163
  0
LINE
  5
537
330
1F
100
AcDbEntity
  8
Layer0009
  6
Continuous
 62
     3
370
    18
100
AcDbLine
 10
288.138182495648
 20
16.17926737409194
 30
0.0
 11
80.18514899753856
 21
16.17926737409194
 31
0.0
  0
ARC
  5
538
330
1F
100
AcDbEntity
  8
Layer0009
  6
Continuous
 62
     3
370
    18
100
AcDbCircle
 10
225.8734180923041
 20
-71.82073262590625
 30
0.0
 40
2.0
100
AcDbArc
 50
270.0
 51
353.6013141372173
  0
ARC
  5
539
330
1F
100
AcDbEntity
  8
Layer0009
  6
Continuous
 62
     3
370
    18
100
AcDbCircle
 10
142.4499134008824
 20
-71.82073262590625
 30
0.0
 40
2.0
100
AcDbArc
 50
186.3986858627827
 51
270.0
  0
LINE
  5
53A
330
1F
100
AcDbEntity
  8
Layer0009
  6
Continuous
 62
     3
370
    18
100
AcDbLine
 10
61.66166574659371
 20
-14.14982158446428
 30
0.0
 11
61.66166574659371
 21
-15.82073262590374
 31
0.0
  0
ARC
  5
53B
330
1F
100
AcDbEntity
  8
Layer0009
  6
Continuous
 62
     3
370
    18
100
AcDbCircle
 10
65.66166574659371
 20
-15.82073262590374
 30
0.0
 40
4.0
100
AcDbArc
 50
180.0
 51
270.0
  0
ARC
  5
53C
330
1F
100
AcDbEntity
  8
Layer0009
  6
Continuous
 62
     3
370
    18
100
AcDbCircle
 10
154.6616657465926
 20
-72.82073262590625
 30
0.0
 40
1.0
100
AcDbArc
 50
180.0
 51
270.0
  0
LINE
  5
53D
330
1F
100
AcDbEntity
  8
Layer0009
  6
Continuous
 62
     3
370
    18
100
AcDbLine
 10
153.6616657465925
 20
-69.58823079574476
 30
0.0
 11
153.6616657465927
 21
-72.82073262590625
 31
0.0
  0
ARC
  5
53E
330
1F
100
AcDbEntity
  8
Layer0009
  6
Continuous
 62
     3
370
    18
100
AcDbCircle
 10
151.6616657465925
 20
-69.58823079574476
 30
0.0
 40
2.0
100
AcDbArc
 50
0.0
 51
51.34019174591297
  0
LINE
  5
53F
330
1F
100
AcDbEntity
  8
Layer0009
  6
Continuous
 62
     3
370
    18
100
AcDbLine
 10
152.9110558417014
 20
-68.02649317685886
 30
0.0
 11
150.5017242756946
 21
-66.09902792405346
 31
0.0
  0
ARC
  5
540
330
1F
100
AcDbEntity
  8
Layer0009
  6
Continuous
 62
     3
370
    18
100
AcDbCircle
 10
157.0806587947029
 20
84.13751288516386
 30
0.0
 40
150.0
100
AcDbArc
 50
266.6202245041117
 51
267.0478389245185
  0
ARC
  5
541
330
1F
100
AcDbEntity
  8
Layer0009
  6
Continuous
 62
     3
370
    18
100
AcDbCircle
 10
149.2523341805858
 20
-67.66076554293959
 30
0.0
 40
2.0
100
AcDbArc
 50
51.34019174591297
 51
87.0478389245185
  0
ARC
  5
542
330
1F
100
AcDbEntity
  8
Layer0009
  6
Continuous
 62
     3
370
    18
100
AcDbCircle
 10
148.1196497283956
 20
-67.59811350664135
 30
0.0
 40
2.0
100
AcDbArc
 50
86.6202245041118
 51
163.2765017054674
  0
LINE
  5
543
330
1F
100
AcDbEntity
  8
Layer0009
  6
Continuous
 62
     3
370
    18
100
AcDbLine
 10
144.5896711153929
 20
-72.39623926656877
 30
0.0
 11
146.2042406058965
 21
-67.02260686597883
 31
0.0
  0
ARC
  5
544
330
1F
100
AcDbEntity
  8
Layer0009
  6
Continuous
 62
     3
370
    18
100
AcDbCircle
 10
142.6742619928936
 20
-71.82073262590625
 30
0.0
 40
2.0
100
AcDbArc
 50
270.0
 51
343.2765017054674
  0
ARC
  5
545
330
1F
100
AcDbEntity
  8
Layer0009
  6
Continuous
 62
     3
370
    18
100
AcDbCircle
 10
136.3925756735519
 20
-62.67188815130184
 30
0.0
 40
3.0
100
AcDbArc
 50
6.398685862783674
 51
70.62430843996643
  0
LINE
  5
546
330
1F
100
AcDbEntity
  8
Layer0009
  6
Continuous
 62
     3
370
    18
100
AcDbLine
 10
139.373887100211
 20
-62.33754973401737
 30
0.0
 11
140.4623724497765
 21
-72.04362490409589
 31
0.0
  0
LINE
  5
547
330
1F
100
AcDbEntity
  8
Layer0009
  6
Continuous
 62
     3
370
    18
100
AcDbLine
 10
213.661665746594
 20
-73.82073262590602
 30
0.0
 11
154.6616657465926
 21
-73.82073262590602
 31
0.0
  0
LINE
  5
548
330
1F
100
AcDbEntity
  8
Layer0009
  6
Continuous
 62
     3
370
    18
100
AcDbLine
 10
142.6742619928936
 20
-73.82073262590602
 30
0.0
 11
142.4499134008824
 21
-73.82073262590602
 31
0.0
  0
ARC
  5
549
330
1F
100
AcDbEntity
  8
Layer0009
  6
Continuous
 62
     3
370
    18
100
AcDbCircle
 10
36.80102452768193
 20
19.51532516993775
 30
0.0
 40
40.0
100
AcDbArc
 50
311.5726980526834
 51
350.4023336971933
  0
ARC
  5
54A
330
1F
100
AcDbEntity
  8
Layer0009
  6
Continuous
 62
     3
370
    18
100
AcDbCircle
 10
66.66166574659371
 20
-14.14982158446428
 30
0.0
 40
5.0
100
AcDbArc
 50
131.572698052684
 51
180.0
  0
ARC
  5
54B
330
1F
100
AcDbEntity
  8
Layer0009
  6
Continuous
 62
     3
370
    18
100
AcDbCircle
 10
80.18514899753856
 20
12.17926737409194
 30
0.0
 40
4.0
100
AcDbArc
 50
90.0
 51
170.4023336971937
  0
ARC
  5
54C
330
1F
100
AcDbEntity
  8
Layer0009
  6
Continuous
 62
     3
370
    18
100
AcDbCircle
 10
331.5223069655045
 20
19.51532516993775
 30
0.0
 40
40.0
100
AcDbArc
 50
189.5976663028068
 51
228.4273019473183
  0
ARC
  5
54D
330
1F
100
AcDbEntity
  8
Layer0009
  6
Continuous
 62
     3
370
    18
100
AcDbCircle
 10
288.138182495648
 20
12.17926737409194
 30
0.0
 40
4.0
100
AcDbArc
 50
9.597666302806346
 51
90.0
  0
ARC
  5
54E
330
1F
100
AcDbEntity
  8
Layer0009
  6
Continuous
 62
     3
370
    18
100
AcDbCircle
 10
302.6616657465929
 20
-15.82073262590374
 30
0.0
 40
4.0
100
AcDbArc
 50
270.0
 51
0.0
  0
ARC
  5
54F
330
1F
100
AcDbEntity
  8
Layer0009
  6
Continuous
 62
     3
370
    18
100
AcDbCircle
 10
301.6616657465928
 20
-14.14982158446428
 30
0.0
 40
5.0
100
AcDbArc
 50
0.0
 51
48.42730194731786
  0
LINE
  5
550
330
1F
100
AcDbEntity
  8
Layer0009
  6
Continuous
 62
     3
370
    18
100
AcDbLine
 10
306.6616657465929
 20
-14.14982158446428
 30
0.0
 11
306.6616657465929
 21
-15.82073262590374
 31
0.0
  0
ELLIPSE
  5
551
330
1F
100
AcDbEntity
  8
Layer0009
  6
Continuous
 62
     3
370
    18
100
AcDbEllipse
 10
-204.791666666667
 20
241.6789363102419
 30
0.0
 11
-167.5
 21
2.273736754432321E-13
 31
0.0
210
0.0
220
0.0
230
1.0
 40
0.7313432835820896
 41
0.0
 42
6.283185307179586
  0
LINE
  5
552
330
1F
100
AcDbEntity
  8
Layer0009
  6
Continuous
 62
     3
370
    18
100
AcDbLine
 10
-37.29166666666606
 20
-14.14982158444944
 30
0.0
 11
-37.29166666666606
 21
-15.82073262588902
 31
0.0
  0
ARC
  5
553
330
1F
100
AcDbEntity
  8
Layer0009
  6
Continuous
 62
     3
370
    18
100
AcDbCircle
 10
-42.29166666666606
 20
-14.14982158444944
 30
0.0
 40
5.0
100
AcDbArc
 50
0.000000000000007
 51
48.42730194731924
  0
ARC
  5
554
330
1F
100
AcDbEntity
  8
Layer0009
  6
Continuous
 62
     3
370
    18
100
AcDbCircle
 10
-157.3228476401652
 20
-65.34941922718939
 30
0.0
 40
3.0
100
AcDbArc
 50
97.54657433910238
 51
173.6013141372166
  0
ARC
  5
555
330
1F
100
AcDbEntity
  8
Layer0009
  6
Continuous
 62
     3
370
    18
100
AcDbCircle
 10
-163.0799143209551
 20
-71.82073262589641
 30
0.0
 40
2.0
100
AcDbArc
 50
270.0
 51
353.6013141372203
  0
LINE
  5
556
330
1F
100
AcDbEntity
  8
Layer0009
  6
Continuous
 62
     3
370
    18
100
AcDbLine
 10
-160.3041590668241
 20
-65.01508080990469
 30
0.0
 11
-161.0923733698492
 21
-72.04362490408617
 31
0.0
  0
LINE
  5
557
330
1F
100
AcDbEntity
  8
Layer0009
  6
Continuous
 62
     3
370
    18
100
AcDbLine
 10
-41.29166666666606
 20
-19.82073262588902
 30
0.0
 11
-204.791666666667
 21
-19.82073262588811
 31
0.0
  0
LINE
  5
558
330
1F
100
AcDbEntity
  8
Layer0009
  6
Continuous
 62
     3
370
    18
100
AcDbLine
 10
-204.791666666667
 20
-11.82073262586401
 30
0.0
 11
-37.86726335966569
 21
-11.82073262586401
 31
0.0
  0
ARC
  5
559
330
1F
100
AcDbEntity
  8
Layer0009
  6
Continuous
 62
     3
370
    18
100
AcDbCircle
 10
-41.29166666666606
 20
-15.82073262588902
 30
0.0
 40
4.0
100
AcDbArc
 50
270.0
 51
0.0
  0
ARC
  5
55A
330
1F
100
AcDbEntity
  8
Layer0009
  6
Continuous
 62
     3
370
    18
100
AcDbCircle
 10
-12.43102544775411
 20
19.51532516995248
 30
0.0
 40
40.0
100
AcDbArc
 50
189.5976663028052
 51
228.4273019473166
  0
ARC
  5
55B
330
1F
100
AcDbEntity
  8
Layer0009
  6
Continuous
 62
     3
370
    18
100
AcDbCircle
 10
-55.81514991761105
 20
12.17926737410689
 30
0.0
 40
4.0
100
AcDbArc
 50
9.597666302805145
 51
90.00000000000001
  0
ARC
  5
55C
330
1F
100
AcDbEntity
  8
Layer0009
  6
Continuous
 62
     3
370
    18
100
AcDbCircle
 10
-182.4072730691319
 20
123.9962213376217
 30
0.0
 40
188.0
100
AcDbArc
 50
277.5465743391005
 51
300.9787514882904
  0
ARC
  5
55D
330
1F
100
AcDbEntity
  8
Layer0009
  6
Continuous
 62
     3
370
    18
100
AcDbCircle
 10
-105.1992500527264
 20
-4.607515707217644
 30
0.0
 40
38.0
100
AcDbArc
 50
300.9787514882904
 51
312.8469882596953
  0
ARC
  5
55E
330
1F
100
AcDbEntity
  8
Layer0009
  6
Continuous
 62
     3
370
    18
100
AcDbCircle
 10
-139.2013904255185
 20
32.05110469875139
 30
0.0
 40
88.0
100
AcDbArc
 50
312.8469882596953
 51
323.8818204753205
  0
LINE
  5
55F
330
1F
100
AcDbEntity
  8
Layer0009
  6
Continuous
 62
     3
370
    18
100
AcDbLine
 10
-163.0799143209551
 20
-73.82073262589641
 30
0.0
 11
-246.5034190123768
 21
-73.82073262589641
 31
0.0
  0
LINE
  5
560
330
1F
100
AcDbEntity
  8
Layer0009
  6
Continuous
 62
     3
370
    18
100
AcDbLine
 10
65.66166574659371
 20
-19.82073262590397
 30
0.0
 11
302.6616657465929
 21
-19.82073262590166
 31
0.0
  0
ARC
  5
561
330
1F
100
AcDbEntity
  8
Layer0009
  6
Continuous
 62
     3
370
    18
100
AcDbCircle
 10
167.5781029219578
 20
26.00428052010029
 30
0.0
 40
91.0
100
AcDbArc
 50
210.2365760280852
 51
250.6243084399664
  0
ARC
  5
562
330
1F
100
AcDbEntity
  8
Layer0009
  6
Continuous
 62
     3
370
    18
100
AcDbCircle
 10
200.7452285712288
 20
26.00428052010029
 30
0.0
 40
91.0
100
AcDbArc
 50
289.375691560035
 51
329.7634239719162
  0
DIMENSION
  5
563
330
1F
100
AcDbEntity
  8
0
  6
Continuous
370
    13
100
AcDbDimension
  2
*D1
 10
-204.791666666667
 20
241.6789363102419
 30
0.0
 11
-140.2478787167858
 21
195.5722059536665
 31
0.0
 70
   164
  1
φ41
 71
     8
 42
-1.0
  3
dc_Radial08
100
AcDbRadialDimension
 15
-217.3077809369444
 25
257.9146033299045
 35
0.0
 40
0.0
1001
ACAD
1000
DSTYLE
1002
{
1070
   274
1070
     4
1070
    41
1040
15.00000953674316
1070
   289
1070
     0
1070
    79
1070
     2
1070
   343
1005
D1
1070
   344
1005
D1
1070
   176
1070
     9
1070
   177
1070
     7
1070
   178
1070
     9
1070
   271
1070
     2
1070
    44
1040
5.0
1070
    42
1040
5.0
1070
   147
1040
5.0
1070
   173
1070
     1
1070
    77
1070
     2
1070
   172
1070
     1
1070
   283
1070
     0
1070
   340
1005
4DA
1070
   140
1040
20.0
1070
   284
1070
     8
1070
   288
1070
     1
1070
    78
1070
     8
1070
    90
1070
     1
1002
}
  0
DIMENSION
  5
565
330
1F
100
AcDbEntity
  8
0
  6
Continuous
370
    13
100
AcDbDimension
  2
*D2
 10
-68.11473561207242
 20
-136.3207326258964
 30
0.0
 11
-204.791666666667
 21
-136.3207326258964
 31
0.0
 70
   160
  1
290以下
 71
     8
 42
-1.0
  3
dc_Rotated
100
AcDbAlignedDimension
 13
-341.4685977212616
 23
-16.82073262588891
 33
0.0
 14
-68.11473561207242
 24
-16.82073262588891
 34
0.0
100
AcDbRotatedDimension
1001
ACAD
1000
DSTYLE
1002
{
1070
   274
1070
     4
1070
    41
1040
15.00000953674316
1070
    79
1070
     2
1070
   343
1005
D1
1070
   344
1005
D1
1070
   176
1070
     9
1070
   177
1070
     9
1070
   178
1070
     7
1070
   271
1070
     2
1070
    44
1040
5.0
1070
    42
1040
5.0
1070
   147
1040
5.0
1070
   173
1070
     1
1070
    77
1070
     3
1070
    73
1070
     0
1070
   172
1070
     1
1070
    74
1070
     0
1070
   283
1070
     0
1070
   340
1005
4DA
1070
   140
1040
20.0
1070
   284
1070
     8
1070
   288
1070
     1
1070
    78
1070
     8
1070
    90
1070
     1
1002
}
  0
DIMENSION
  5
567
330
1F
100
AcDbEntity
  8
0
  6
Continuous
370
    13
100
AcDbDimension
  2
*D3
 10
431.6616657465929
 20
16.17926737409192
 30
0.0
 11
431.6616657465929
 21
-28.82073262590706
 31
0.0
 70
   160
 71
     8
 42
-1.0
  3
dc_Rotated
100
AcDbAlignedDimension
 13
210.661665746594
 23
-73.82073262590602
 33
0.0
 14
288.138182495648
 24
16.17926737409194
 34
0.0
 50
90.0
100
AcDbRotatedDimension
1001
ACAD
1000
DSTYLE
1002
{
1070
   274
1070
     4
1070
    41
1040
15.00000953674316
1070
    79
1070
     2
1070
   343
1005
D1
1070
   344
1005
D1
1070
   176
1070
     9
1070
   177
1070
     9
1070
   178
1070
     7
1070
   271
1070
     2
1070
    44
1040
5.0
1070
    42
1040
5.0
1070
   147
1040
5.0
1070
   173
1070
     1
1070
    77
1070
     3
1070
    73
1070
     0
1070
   174
1070
     1
1070
   172
1070
     1
1070
    74
1070
     0
1070
   283
1070
     0
1070
   340
1005
4DA
1070
   140
1040
20.0
1070
   284
1070
     8
1070
   288
1070
     1
1070
    78
1070
     8
1070
    90
1070
     1
1002
}
  0
DIMENSION
  5
568
330
1F
100
AcDbEntity
  8
0
  6
Continuous
370
    13
100
AcDbDimension
  2
*D4
 10
381.6616657465929
 20
-55.82073262590623
 30
0.0
 11
381.6616657465929
 21
-20.33183262590622
 31
0.0
 70
   160
 71
     8
 42
-1.0
  3
dc_Rotated
100
AcDbAlignedDimension
 13
210.661665746594
 23
-73.82073262590602
 33
0.0
 14
214.661665746594
 24
-55.82073262590622
 34
0.0
 50
90.0
100
AcDbRotatedDimension
1001
ACAD
1000
DSTYLE
1002
{
1070
   274
1070
     4
1070
    41
1040
15.00000953674316
1070
    79
1070
     2
1070
   343
1005
D1
1070
   344
1005
D1
1070
   176
1070
     9
1070
   177
1070
     9
1070
   178
1070
     7
1070
   271
1070
     2
1070
    44
1040
5.0
1070
    42
1040
5.0
1070
   147
1040
5.0
1070
   173
1070
     1
1070
    77
1070
     3
1070
    73
1070
     0
1070
   172
1070
     1
1070
    74
1070
     0
1070
   283
1070
     0
1070
   340
1005
4DA
1070
   140
1040
20.0
1070
   284
1070
     8
1070
   288
1070
     1
1070
    78
1070
     8
1070
    90
1070
     1
1002
}
  0
DIMENSION
  5
569
330
1F
100
AcDbEntity
  8
0
  6
Continuous
370
    13
100
AcDbDimension
  2
*D5
 10
-37.29166666666693
 20
414.1789363102419
 30
0.0
 11
-204.7916666666669
 21
414.1789363102419
 31
0.0
 70
   160
 71
     8
 42
-1.0
  3
dc_Rotated
100
AcDbAlignedDimension
 13
-372.291666666667
 23
238.6789363102418
 33
0.0
 14
-37.29166666666697
 24
238.67893631024
 34
0.0
100
AcDbRotatedDimension
1001
ACAD
1000
DSTYLE
1002
{
1070
   274
1070
     4
1070
    41
1040
15.00000953674316
1070
    79
1070
     2
1070
   343
1005
D1
1070
   344
1005
D1
1070
   176
1070
     9
1070
   177
1070
     9
1070
   178
1070
     7
1070
   271
1070
     2
1070
    44
1040
5.0
1070
    42
1040
5.0
1070
   147
1040
4.0
1070
   173
1070
     1
1070
    77
1070
     3
1070
    73
1070
     0
1070
   172
1070
     1
1070
    74
1070
     0
1070
   283
1070
     0
1070
   340
1005
4DA
1070
   140
1040
20.0
1070
   284
1070
     8
1070
   288
1070
     1
1070
    78
1070
     8
1070
    90
1070
     1
1002
}
  0
DIMENSION
  5
56A
330
1F
100
AcDbEntity
  8
0
  6
Continuous
370
    13
100
AcDbDimension
  2
*D6
 10
-422.291666666667
 20
364.1789363102419
 30
0.0
 11
-422.291666666667
 21
241.6789363102419
 31
0.0
 70
   160
 71
     8
 42
-1.0
  3
dc_Rotated
100
AcDbAlignedDimension
 13
-201.7916666666673
 23
119.1789363102419
 33
0.0
 14
-201.791666666667
 24
364.1789363102419
 34
0.0
 50
90.0
100
AcDbRotatedDimension
1001
ACAD
1000
DSTYLE
1002
{
1070
   274
1070
     4
1070
    41
1040
15.00000953674316
1070
    79
1070
     2
1070
   343
1005
D1
1070
   344
1005
D1
1070
   176
1070
     9
1070
   177
1070
     9
1070
   178
1070
     7
1070
   271
1070
     2
1070
    44
1040
5.0
1070
    42
1040
5.0
1070
   147
1040
4.0
1070
   173
1070
     1
1070
    77
1070
     3
1070
    73
1070
     0
1070
   172
1070
     1
1070
    74
1070
     0
1070
   283
1070
     0
1070
   340
1005
4DA
1070
   140
1040
20.0
1070
   284
1070
     8
1070
   288
1070
     1
1070
    78
1070
     8
1070
    90
1070
     1
1002
}
  0
DIMENSION
  5
56B
330
1F
100
AcDbEntity
  8
0
  6
Continuous
370
    13
100
AcDbDimension
  2
*D7
 10
-422.291666666667
 20
16.17926737409189
 30
0.0
 11
-422.291666666667
 21
-1.820732625898565
 31
0.0
 70
   160
  1
(<>)
 71
     8
 42
-1.0
  3
dc_Rotated
100
AcDbAlignedDimension
 13
-392.9026551953602
 23
-19.82073262588818
 33
0.0
 14
-353.7681834157229
 24
16.17926737409188
 34
0.0
 50
90.0
100
AcDbRotatedDimension
1001
ACAD
1000
DSTYLE
1002
{
1070
   274
1070
     4
1070
    41
1040
15.00000953674316
1070
    79
1070
     2
1070
   343
1005
D1
1070
   344
1005
D1
1070
   176
1070
     9
1070
   177
1070
     9
1070
   178
1070
     7
1070
   271
1070
     2
1070
    44
1040
2.0
1070
    42
1040
5.0
1070
   147
1040
5.0
1070
   173
1070
     1
1070
    77
1070
     3
1070
    73
1070
     0
1070
   172
1070
     1
1070
    74
1070
     0
1070
   283
1070
     0
1070
   340
1005
4DA
1070
   140
1040
20.0
1070
   284
1070
     8
1070
   288
1070
     1
1070
    78
1070
     8
1070
    90
1070
     1
1002
}
  0
DIMENSION
  5
56C
330
1F
100
AcDbEntity
  8
0
  6
Continuous
370
    13
100
AcDbDimension
  2
*D8
 10
279.3649981598542
 20
-136.3207326258964
 30
0.0
 11
184.1616657465933
 21
-136.3207326258964
 31
0.0
 70
   160
  1
210以下
 71
     8
 42
-1.0
  3
dc_Rotated
100
AcDbAlignedDimension
 13
88.95833333333232
 23
-16.82073262590374
 33
0.0
 14
279.3649981598542
 24
-16.82073262590374
 34
0.0
100
AcDbRotatedDimension
1001
ACAD
1000
DSTYLE
1002
{
1070
   274
1070
     4
1070
    41
1040
15.00000953674316
1070
    79
1070
     2
1070
   343
1005
D1
1070
   344
1005
D1
1070
   176
1070
     9
1070
   177
1070
     9
1070
   178
1070
     7
1070
   271
1070
     2
1070
    44
1040
5.0
1070
    42
1040
5.0
1070
   147
1040
5.0
1070
   173
1070
     1
1070
    77
1070
     3
1070
    73
1070
     0
1070
   172
1070
     1
1070
    74
1070
     0
1070
   283
1070
     0
1070
   340
1005
4DA
1070
   140
1040
20.0
1070
   284
1070
     8
1070
   288
1070
     1
1070
    78
1070
     8
1070
    90
1070
     1
1002
}
  0
INSERT
  5
56D
330
1F
100
AcDbEntity
  8
0
  6
Continuous
100
AcDbBlockReference
  2
DA_IMAGEDIMGROUP_1
 10
0.0
 20
0.0
 30
0.0
  0
INSERT
  5
56E
330
1F
100
AcDbEntity
  8
0
  6
Continuous
100
AcDbBlockReference
  2
DC_GROUP_RW105_2
 10
0.0
 20
0.0
 30
0.0
  0
INSERT
  5
56F
330
1F
100
AcDbEntity
  8
0
  6
Continuous
100
AcDbBlockReference
  2
DC_GROUP_RW105_3
 10
0.0
 20
0.0
 30
0.0
  0
DIMENSION
  5
570
330
1F
100
AcDbEntity
  8
0
  6
Continuous
370
    13
100
AcDbDimension
  2
*D13
 10
61.66166574659371
 20
347.6789363102419
 30
0.0
 11
61.66166574659371
 21
241.6789363102419
 31
0.0
 70
   160
 71
     8
 42
-1.0
  3
dc_Rotated
100
AcDbAlignedDimension
 13
282.1616657465937
 23
135.6789363102419
 33
0.0
 14
282.1616657465937
 24
347.6789363102419
 34
0.0
 50
90.0
100
AcDbRotatedDimension
1001
ACAD
1000
DSTYLE
1002
{
1070
   274
1070
     4
1070
    41
1040
15.00000953674316
1070
    79
1070
     2
1070
   343
1005
D1
1070
   344
1005
D1
1070
   176
1070
     9
1070
   177
1070
     9
1070
   178
1070
     7
1070
   271
1070
     2
1070
    44
1040
5.0
1070
    42
1040
5.0
1070
   147
1040
5.0
1070
   173
1070
     1
1070
    77
1070
     3
1070
    73
1070
     0
1070
   172
1070
     1
1070
    74
1070
     0
1070
   283
1070
     0
1070
   340
1005
4DA
1070
   140
1040
20.0
1070
   284
1070
     8
1070
   288
1070
     1
1070
    78
1070
     8
1070
    90
1070
     1
1002
}
  0
DIMENSION
  5
571
330
1F
100
AcDbEntity
  8
0
  6
Continuous
370
    13
100
AcDbDimension
  2
*D14
 10
425.1616657465937
 20
414.1789363102419
 30
0.0
 11
279.1616657465937
 21
414.1789363102419
 31
0.0
 70
   160
 71
     8
 42
-1.0
  3
dc_Rotated
100
AcDbAlignedDimension
 13
133.1616657465937
 23
238.6789363102419
 33
0.0
 14
425.1616657465937
 24
238.678936310242
 34
0.0
100
AcDbRotatedDimension
1001
ACAD
1000
DSTYLE
1002
{
1070
   274
1070
     4
1070
    41
1040
15.00000953674316
1070
    79
1070
     2
1070
   343
1005
D1
1070
   344
1005
D1
1070
   176
1070
     9
1070
   177
1070
     9
1070
   178
1070
     7
1070
   271
1070
     2
1070
    44
1040
5.0
1070
    42
1040
5.0
1070
   147
1040
5.0
1070
   173
1070
     1
1070
    77
1070
     3
1070
    73
1070
     0
1070
   172
1070
     1
1070
    74
1070
     0
1070
   283
1070
     0
1070
   340
1005
4DA
1070
   140
1040
20.0
1070
   284
1070
     8
1070
   288
1070
     1
1070
    78
1070
     8
1070
    90
1070
     1
1002
}
  0
INSERT
  5
572
330
1F
100
AcDbEntity
  8
0
  6
Continuous
100
AcDbBlockReference
  2
DC_GROUP_RW105_4
 10
0.0
 20
0.0
 30
0.0
  0
INSERT
  5
573
330
1F
100
AcDbEntity
  8
0
  6
Continuous
100
AcDbBlockReference
  2
DC_GROUP_RW105_5
 10
0.0
 20
0.0
 30
0.0
  0
INSERT
  5
574
330
1F
100
AcDbEntity
  8
0
  6
Continuous
100
AcDbBlockReference
  2
DA_IMAGEDIMGROUP_2
 10
0.0
 20
0.0
 30
0.0
  0
INSERT
  5
575
330
1F
100
AcDbEntity
  8
0
  6
Continuous
100
AcDbBlockReference
  2
DA_IMAGEDIMGROUP_3
 10
0.0
 20
0.0
 30
0.0
  0
INSERT
  5
576
330
1F
100
AcDbEntity
  8
0
  6
Continuous
100
AcDbBlockReference
  2
DC_GROUP_RW105_7
 10
0.0
 20
0.0
 30
0.0
  0
INSERT
  5
577
330
1F
100
AcDbEntity
  8
0
  6
Continuous
100
AcDbBlockReference
  2
DC_GROUP_RW105_8
 10
0.0
 20
0.0
 30
0.0
  0
INSERT
  5
578
330
1F
100
AcDbEntity
  8
0
  6
Continuous
100
AcDbBlockReference
  2
DC_GROUP_RW105_11
 10
0.0
 20
0.0
 30
0.0
  0
INSERT
  5
579
330
1F
100
AcDbEntity
  8
0
  6
Continuous
100
AcDbBlockReference
  2
DC_GROUP_RW105_13
 10
0.0
 20
0.0
 30
0.0
  0
DIMENSION
  5
57A
330
1F
100
AcDbEntity
  8
0
  6
Continuous
370
    13
100
AcDbDimension
  2
*D28
 10
-58.79166666666697
 20
-173.8207326258964
 30
0.0
 11
-204.791666666667
 21
-173.8207326258964
 31
0.0
 70
   160
  1
推奨開口寸法<>
 71
     8
 42
-1.0
  3
dc_Rotated
100
AcDbAlignedDimension
 13
-350.791666666667
 23
-49.82073262588813
 33
0.0
 14
-58.79166666666697
 24
-49.82073262588813
 34
0.0
100
AcDbRotatedDimension
1001
ACAD
1000
DSTYLE
1002
{
1070
   274
1070
     4
1070
    41
1040
15.00000953674316
1070
    79
1070
     2
1070
   343
1005
D1
1070
   344
1005
D1
1070
   176
1070
     9
1070
   177
1070
     9
1070
   178
1070
     7
1070
   271
1070
     2
1070
    44
1040
5.0
1070
    42
1040
5.0
1070
   147
1040
5.0
1070
   173
1070
     1
1070
    77
1070
     3
1070
    73
1070
     0
1070
   172
1070
     1
1070
    74
1070
     0
1070
   283
1070
     0
1070
   340
1005
4DA
1070
   140
1040
20.0
1070
   284
1070
     8
1070
   288
1070
     1
1070
    78
1070
     8
1070
    90
1070
     1
1002
}
  0
DIMENSION
  5
57B
330
1F
100
AcDbEntity
  8
0
  6
Continuous
370
    13
100
AcDbDimension
  2
*D29
 10
290.1616657465933
 20
-173.8207326258964
 30
0.0
 11
184.1616657465933
 21
-173.8207326258964
 31
0.0
 70
   160
  1
推奨開口寸法<>
 71
     8
 42
-1.0
  3
dc_Rotated
100
AcDbAlignedDimension
 13
78.16166574659331
 23
-49.82073262590279
 33
0.0
 14
290.1616657465933
 24
-49.82073262590279
 34
0.0
100
AcDbRotatedDimension
1001
ACAD
1000
DSTYLE
1002
{
1070
   274
1070
     4
1070
    41
1040
15.00000953674316
1070
    79
1070
     2
1070
   343
1005
D1
1070
   344
1005
D1
1070
   176
1070
     9
1070
   177
1070
     9
1070
   178
1070
     7
1070
   271
1070
     2
1070
    44
1040
5.0
1070
    42
1040
5.0
1070
   147
1040
5.0
1070
   173
1070
     1
1070
    77
1070
     3
1070
    73
1070
     0
1070
   172
1070
     1
1070
    74
1070
     0
1070
   283
1070
     0
1070
   340
1005
4DA
1070
   140
1040
20.0
1070
   284
1070
     8
1070
   288
1070
     1
1070
    78
1070
     8
1070
    90
1070
     1
1002
}
  0
LINE
  5
57C
330
1F
100
AcDbEntity
  8
0
  6
Continuous
 62
     9
370
    18
100
AcDbLine
 10
-249.5423213140696
 20
-62.66858618283514
 30
0.0
 11
-204.791666666667
 21
-62.66858618283514
 31
0.0
  0
LINE
  5
57D
330
1F
100
AcDbEntity
  8
0
  6
Continuous
 62
     9
370
    18
100
AcDbLine
 10
-160.0410120192644
 20
-62.66858618283514
 30
0.0
 11
-204.791666666667
 21
-62.66858618283514
 31
0.0
  0
LINE
  5
57E
330
1F
100
AcDbEntity
  8
Layer0006
  6
CENTER
 62
     9
370
    18
100
AcDbLine
 10
-204.791666666667
 20
26.17926737409211
 30
0.0
 11
-204.791666666667
 21
-85.4146348575369
 31
0.0
  0
LINE
  5
57F
330
1F
100
AcDbEntity
  8
Layer0006
  6
CENTER
 62
     9
370
    18
100
AcDbLine
 10
-382.291666666667
 20
241.6789363102419
 30
0.0
 11
-27.29186335305724
 21
241.6789363102419
 31
0.0
  0
LINE
  5
580
330
1F
100
AcDbEntity
  8
Layer0006
  6
CENTER
 62
     9
370
    18
100
AcDbLine
 10
-204.791666666667
 20
374.1787585799463
 30
0.0
 11
-204.791666666667
 21
109.1789498550364
 31
0.0
  0
LINE
  5
581
330
1F
100
AcDbEntity
  8
Layer0006
  6
CENTER
 62
     9
370
    18
100
AcDbLine
 10
184.1616657465933
 20
26.17926737409194
 30
0.0
 11
184.1616657465933
 21
-85.4146348575369
 31
0.0
  0
LINE
  5
582
330
1F
100
AcDbEntity
  8
Layer0006
  6
CENTER
 62
     9
370
    18
100
AcDbLine
 10
96.25867049770147
 20
241.678936310242
 30
0.0
 11
462.0646609954856
 21
241.6789363102414
 31
0.0
  0
LINE
  5
583
330
1F
100
AcDbEntity
  8
Layer0006
  6
CENTER
 62
     9
370
    18
100
AcDbLine
 10
279.1616657465937
 20
373.8047522181872
 30
0.0
 11
279.1616657465934
 21
109.5531204022962
 31
0.0
  0
LINE
  5
584
330
1F
100
AcDbEntity
  8
Layer0009
  6
DASHED2
 62
     2
370
    18
100
AcDbLine
 10
204.661665746594
 20
-65.82073262590602
 30
0.0
 11
163.6616657465941
 21
-65.82073262590602
 31
0.0
  0
LINE
  5
585
330
1F
100
AcDbEntity
  8
Layer0009
  6
DASHED2
 62
     2
370
    18
100
AcDbLine
 10
214.661665746594
 20
-55.82073262590622
 30
0.0
 11
153.661665746594
 21
-55.82073262590625
 31
0.0
  0
LINE
  5
586
330
1F
100
AcDbEntity
  8
Layer0009
  6
DASHED2
 62
     2
370
    18
100
AcDbLine
 10
204.661665746594
 20
-65.82073262590602
 30
0.0
 11
204.661665746594
 21
-73.82073262590602
 31
0.0
  0
LINE
  5
587
330
1F
100
AcDbEntity
  8
Layer0009
  6
DASHED2
 62
     2
370
    18
100
AcDbLine
 10
204.661665746594
 20
-65.82073262590602
 30
0.0
 11
214.661665746594
 21
-55.82073262590622
 31
0.0
  0
ARC
  5
588
330
1F
100
AcDbEntity
  8
Layer0009
  6
DASHED2
 62
     2
370
    18
100
AcDbCircle
 10
200.7452285712288
 20
26.00428052010029
 30
0.0
 40
83.0
100
AcDbArc
 50
279.6522544572116
 51
350.3013555772455
  0
LINE
  5
589
330
1F
100
AcDbEntity
  8
Layer0009
  6
DASHED2
 62
     2
370
    18
100
AcDbLine
 10
163.6616657465927
 20
-65.82073262590602
 30
0.0
 11
163.6616657465927
 21
-73.82073262590602
 31
0.0
  0
LINE
  5
58A
330
1F
100
AcDbEntity
  8
Layer0009
  6
DASHED2
 62
     2
370
    18
100
AcDbLine
 10
163.6616657465927
 20
-65.82073262590602
 30
0.0
 11
153.6616657465925
 21
-55.82073262590625
 31
0.0
  0
ARC
  5
58B
330
1F
100
AcDbEntity
  8
Layer0009
  6
DASHED2
 62
     2
370
    18
100
AcDbCircle
 10
167.5781029219578
 20
26.00428052010029
 30
0.0
 40
83.0
100
AcDbArc
 50
189.6986444227543
 51
260.3477455427888
  0
ARC
  5
58C
330
1F
100
AcDbEntity
  8
Layer0009
  6
DASHED2
 62
     2
370
    18
100
AcDbCircle
 10
80.83584686863239
 20
11.17926737409216
 30
0.0
 40
5.0
100
AcDbArc
 50
9.698644422754228
 51
90.0
  0
ARC
  5
58D
330
1F
100
AcDbEntity
  8
Layer0009
  6
DASHED2
 62
     2
370
    18
100
AcDbCircle
 10
287.4874846245541
 20
11.17926737409216
 30
0.0
 40
5.0
100
AcDbArc
 50
90.0
 51
170.3013555772458
  0
INSERT
  5
58E
330
1F
100
AcDbEntity
  8
Layer0240
  6
Continuous
100
AcDbBlockReference
  2
DC_GROUP_RW105_1
 10
0.0
 20
0.0
 30
0.0
  0
INSERT
  5
58F
330
1F
100
AcDbEntity
  8
Layer0240
  6
Continuous
100
AcDbBlockReference
  2
DC_GROUP_RW105_6
 10
0.0
 20
0.0
 30
0.0
  0
ELLIPSE
  5
590
330
1F
100
AcDbEntity
  8
Layer0009
  6
DIVIDE
 62
     6
370
    18
100
AcDbEllipse
 10
279.1616657465937
 20
241.6789363102419
 30
0.0
 11
-167.5
 21
2.273736754432321E-13
 31
0.0
210
0.0
220
0.0
230
1.0
 40
0.7313432835820896
 41
0.0
 42
6.283185307179586
  0
INSERT
  5
591
330
1F
100
AcDbEntity
  8
Layer0009
  6
Continuous
100
AcDbBlockReference
  2
DC_GROUP_RW105_9
 10
0.0
 20
0.0
 30
0.0
  0
INSERT
  5
592
330
1F
100
AcDbEntity
  8
Layer0009
  6
Continuous
100
AcDbBlockReference
  2
DC_GROUP_RW105_10
 10
0.0
 20
0.0
 30
0.0
  0
LINE
  5
593
330
1F
100
AcDbEntity
  8
0
  6
Continuous
 62
     3
370
    13
100
AcDbLine
 10
62.2372624396013
 20
-11.82073262586401
 30
0.0
 11
306.0860690535853
 21
-11.82073262586401
 31
0.0
  0
VIEWPORT
  5
78
330
1B
100
AcDbEntity
 67
     1
  8
0
100
AcDbViewport
 10
-0.0578077349913428
 20
0.0
 30
0.0
 40
3300.346846409949
 41
4605.0
 68
     1
 69
     1
 12
-0.0578077349913428
 22
0.0
 13
0.0
 23
0.0
 14
0.5
 24
0.5
 15
0.0
 25
0.0
 16
0.0
 26
0.0
 36
1.0
 17
0.0
 27
0.0
 37
0.0
 42
50.0
 43
0.0
 44
0.0
 45
4605.0
 50
0.0
 51
0.0
 72
   100
 90
   557152
  1

281
     0
 71
     1
 74
     0
110
0.0
120
0.0
130
0.0
111
1.0
121
0.0
131
0.0
112
0.0
122
1.0
132
0.0
 79
     0
146
0.0
  0
ENDSEC
  0
SECTION
  2
OBJECTS
  0
DICTIONARY
  5
C
330
0
100
AcDbDictionary
281
     1
  3
ACAD_GROUP
350
D
  3
ACAD_LAYOUT
350
1A
  3
ACAD_MATERIAL
350
3B
  3
ACAD_MLEADERSTYLE
350
5B8
  3
ACAD_MLINESTYLE
350
17
  3
ACAD_PLOTSETTINGS
350
19
  3
ACAD_PLOTSTYLENAME
350
E
  3
ACAD_SCALELIST
350
594
  3
ACAD_VISUALSTYLE
350
2A
  3
AcDbVariableDictionary
350
5B6
  0
DICTIONARY
  5
D
102
{ACAD_REACTORS
330
C
102
}
330
C
100
AcDbDictionary
281
     1
  0
DICTIONARY
  5
1A
102
{ACAD_REACTORS
330
C
102
}
330
C
100
AcDbDictionary
281
     1
  3
Layout1
350
1E
  3
Layout2
350
26
  3
Model
350
22
  0
DICTIONARY
  5
3B
102
{ACAD_REACTORS
330
C
102
}
330
C
100
AcDbDictionary
281
     1
  3
ByBlock
350
3D
  3
ByLayer
350
3C
  3
Global
350
3E
  0
DICTIONARY
  5
5B8
102
{ACAD_REACTORS
330
C
102
}
330
C
100
AcDbDictionary
281
     1
  0
DICTIONARY
  5
17
102
{ACAD_REACTORS
330
C
102
}
330
C
100
AcDbDictionary
281
     1
  3
Standard
350
18
  0
DICTIONARY
  5
19
102
{ACAD_REACTORS
330
C
102
}
330
C
100
AcDbDictionary
281
     1
  0
ACDBDICTIONARYWDFLT
  5
E
102
{ACAD_REACTORS
330
C
102
}
330
C
100
AcDbDictionary
281
     1
  3
Normal
350
F
100
AcDbDictionaryWithDefault
340
F
  0
DICTIONARY
  5
594
102
{ACAD_REACTORS
330
C
102
}
330
C
100
AcDbDictionary
281
     1
  3
A0
350
595
  3
A1
350
596
  3
A2
350
597
  3
A3
350
598
  3
A4
350
599
  3
A5
350
59A
  3
A6
350
59B
  3
A7
350
59C
  3
A8
350
59D
  3
A9
350
59E
  3
B0
350
59F
  3
B1
350
5A0
  3
B2
350
5A1
  3
B3
350
5A2
  3
B4
350
5A3
  3
B5
350
5A4
  3
B6
350
5A5
  3
B7
350
5A6
  3
B8
350
5A7
  3
B9
350
5A8
  3
C0
350
5A9
  3
C1
350
5AA
  3
C2
350
5AB
  3
C3
350
5AC
  3
C4
350
5AD
  3
C5
350
5AE
  3
C6
350
5AF
  3
C7
350
5B0
  3
C8
350
5B1
  3
C9
350
5B2
  3
D0
350
5B3
  3
D1
350
5B4
  3
D2
350
5B5
  0
DICTIONARY
  5
2A
102
{ACAD_REACTORS
330
C
102
}
330
C
100
AcDbDictionary
281
     1
  3
2dWireframe
350
2F
  3
3D Hidden
350
31
  3
3dWireframe
350
30
  3
Basic
350
32
  3
Brighten
350
36
  3
ColorChange
350
3A
  3
Conceptual
350
34
  3
Dim
350
35
  3
Facepattern
350
39
  3
Flat
350
2B
  3
FlatWithEdges
350
2C
  3
Gouraud
350
2D
  3
GouraudWithEdges
350
2E
  3
Linepattern
350
38
  3
Realistic
350
33
  3
Thicken
350
37
  0
DICTIONARY
  5
5B6
102
{ACAD_REACTORS
330
C
102
}
330
C
100
AcDbDictionary
281
     1
  3
CANNOSCALE
350
5B9
  3
DIMASSOC
350
5BA
  3
HIDETEXT
350
5BB
  0
LAYOUT
  5
1E
102
{ACAD_REACTORS
330
1A
102
}
330
1A
100
AcDbPlotSettings
  1

  2
none_device
  4

  6

 40
0.0
 41
0.0
 42
0.0
 43
0.0
 44
0.0
 45
0.0
 46
0.0
 47
0.0
 48
0.0
 49
0.0
140
0.0
141
0.0
142
1.0
143
1.0
 70
   688
 72
     0
 73
     0
 74
     5
  7

 75
    16
147
1.0
148
0.0
149
0.0
100
AcDbLayout
  1
Layout1
 70
     0
 71
     1
 10
0.0
 20
0.0
 11
12.0
 21
9.0
 12
0.0
 22
0.0
 32
0.0
 14
1.000000000000000E+20
 24
1.000000000000000E+20
 34
1.000000000000000E+20
 15
-1.000000000000000E+20
 25
-1.000000000000000E+20
 35
-1.000000000000000E+20
146
0.0
 13
0.0
 23
0.0
 33
0.0
 16
1.0
 26
0.0
 36
0.0
 17
0.0
 27
1.0
 37
0.0
 76
     0
330
1B
331
78
  0
LAYOUT
  5
26
102
{ACAD_REACTORS
330
1A
102
}
330
1A
100
AcDbPlotSettings
  1

  2
none_device
  4

  6

 40
0.0
 41
0.0
 42
0.0
 43
0.0
 44
0.0
 45
0.0
 46
0.0
 47
0.0
 48
0.0
 49
0.0
140
0.0
141
0.0
142
1.0
143
1.0
 70
   688
 72
     0
 73
     0
 74
     5
  7

 75
    16
147
1.0
148
0.0
149
0.0
100
AcDbLayout
  1
Layout2
 70
     1
 71
     2
 10
0.0
 20
0.0
 11
0.0
 21
0.0
 12
0.0
 22
0.0
 32
0.0
 14
0.0
 24
0.0
 34
0.0
 15
0.0
 25
0.0
 35
0.0
146
0.0
 13
0.0
 23
0.0
 33
0.0
 16
1.0
 26
0.0
 36
0.0
 17
0.0
 27
1.0
 37
0.0
 76
     0
330
23
  0
LAYOUT
  5
22
102
{ACAD_REACTORS
330
1A
102
}
330
1A
100
AcDbPlotSettings
  1

  2
none_device
  4

  6

 40
0.0
 41
0.0
 42
0.0
 43
0.0
 44
0.0
 45
0.0
 46
0.0
 47
0.0
 48
0.0
 49
0.0
140
0.0
141
0.0
142
1.0
143
1.0
 70
  1712
 72
     0
 73
     0
 74
     0
  7

 75
     0
147
1.0
148
0.0
149
0.0
100
AcDbLayout
  1
Model
 70
     1
 71
     0
 10
-525.0
 20
-742.5
 11
525.0
 21
742.5
 12
0.0
 22
0.0
 32
0.0
 14
-1650.231230939966
 24
-2302.5
 34
0.0
 15
1650.115615469983
 25
2302.5
 35
0.0
146
0.0
 13
0.0
 23
0.0
 33
0.0
 16
1.0
 26
0.0
 36
0.0
 17
0.0
 27
1.0
 37
0.0
 76
     0
330
1F
331
29
  0
MATERIAL
  5
3D
102
{ACAD_REACTORS
330
3B
102
}
102
{ACAD_XDICTIONARY
360
5DF
102
}
330
3B
100
AcDbMaterial
  1
ByBlock
  0
MATERIAL
  5
3C
102
{ACAD_REACTORS
330
3B
102
}
102
{ACAD_XDICTIONARY
360
5DD
102
}
330
3B
100
AcDbMaterial
  1
ByLayer
  0
MATERIAL
  5
3E
102
{ACAD_REACTORS
330
3B
102
}
102
{ACAD_XDICTIONARY
360
5E1
102
}
330
3B
100
AcDbMaterial
  1
Global
  0
MLINESTYLE
  5
18
102
{ACAD_REACTORS
330
17
102
}
330
17
100
AcDbMlineStyle
  2
Standard
 70
     0
  3

 62
   256
 51
90.0
 52
90.0
 71
     2
 49
0.5
 62
   256
  6
BYLAYER
 49
-0.5
 62
   256
  6
BYLAYER
  0
ACDBPLACEHOLDER
  5
F
102
{ACAD_REACTORS
330
E
102
}
330
E
  0
SCALE
  5
595
102
{ACAD_REACTORS
330
594
102
}
330
594
100
AcDbScale
 70
     0
300
1:1
140
1.0
141
1.0
290
     1
  0
SCALE
  5
596
102
{ACAD_REACTORS
330
594
102
}
330
594
100
AcDbScale
 70
     0
300
1:2
140
1.0
141
2.0
290
     0
  0
SCALE
  5
597
102
{ACAD_REACTORS
330
594
102
}
330
594
100
AcDbScale
 70
     0
300
1:4
140
1.0
141
4.0
290
     0
  0
SCALE
  5
598
102
{ACAD_REACTORS
330
594
102
}
330
594
100
AcDbScale
 70
     0
300
1:5
140
1.0
141
5.0
290
     0
  0
SCALE
  5
599
102
{ACAD_REACTORS
330
594
102
}
330
594
100
AcDbScale
 70
     0
300
1:8
140
1.0
141
8.0
290
     0
  0
SCALE
  5
59A
102
{ACAD_REACTORS
330
594
102
}
330
594
100
AcDbScale
 70
     0
300
1:10
140
1.0
141
10.0
290
     0
  0
SCALE
  5
59B
102
{ACAD_REACTORS
330
594
102
}
330
594
100
AcDbScale
 70
     0
300
1:16
140
1.0
141
16.0
290
     0
  0
SCALE
  5
59C
102
{ACAD_REACTORS
330
594
102
}
330
594
100
AcDbScale
 70
     0
300
1:20
140
1.0
141
20.0
290
     0
  0
SCALE
  5
59D
102
{ACAD_REACTORS
330
594
102
}
330
594
100
AcDbScale
 70
     0
300
1:30
140
1.0
141
30.0
290
     0
  0
SCALE
  5
59E
102
{ACAD_REACTORS
330
594
102
}
330
594
100
AcDbScale
 70
     0
300
1:40
140
1.0
141
40.0
290
     0
  0
SCALE
  5
59F
102
{ACAD_REACTORS
330
594
102
}
330
594
100
AcDbScale
 70
     0
300
1:50
140
1.0
141
50.0
290
     0
  0
SCALE
  5
5A0
102
{ACAD_REACTORS
330
594
102
}
330
594
100
AcDbScale
 70
     0
300
1:100
140
1.0
141
100.0
290
     0
  0
SCALE
  5
5A1
102
{ACAD_REACTORS
330
594
102
}
330
594
100
AcDbScale
 70
     0
300
2:1
140
2.0
141
1.0
290
     0
  0
SCALE
  5
5A2
102
{ACAD_REACTORS
330
594
102
}
330
594
100
AcDbScale
 70
     0
300
4:1
140
4.0
141
1.0
290
     0
  0
SCALE
  5
5A3
102
{ACAD_REACTORS
330
594
102
}
330
594
100
AcDbScale
 70
     0
300
8:1
140
8.0
141
1.0
290
     0
  0
SCALE
  5
5A4
102
{ACAD_REACTORS
330
594
102
}
330
594
100
AcDbScale
 70
     0
300
10:1
140
10.0
141
1.0
290
     0
  0
SCALE
  5
5A5
102
{ACAD_REACTORS
330
594
102
}
330
594
100
AcDbScale
 70
     0
300
100:1
140
100.0
141
1.0
290
     0
  0
SCALE
  5
5A6
102
{ACAD_REACTORS
330
594
102
}
330
594
100
AcDbScale
 70
     0
300
1/128" = 1'-0"
140
0.0078125
141
12.0
290
     0
  0
SCALE
  5
5A7
102
{ACAD_REACTORS
330
594
102
}
330
594
100
AcDbScale
 70
     0
300
1/64" = 1'-0"
140
0.015625
141
12.0
290
     0
  0
SCALE
  5
5A8
102
{ACAD_REACTORS
330
594
102
}
330
594
100
AcDbScale
 70
     0
300
1/32" = 1'-0"
140
0.03125
141
12.0
290
     0
  0
SCALE
  5
5A9
102
{ACAD_REACTORS
330
594
102
}
330
594
100
AcDbScale
 70
     0
300
1/16" = 1'-0"
140
0.0625
141
12.0
290
     0
  0
SCALE
  5
5AA
102
{ACAD_REACTORS
330
594
102
}
330
594
100
AcDbScale
 70
     0
300
3/32" = 1'-0"
140
0.09375
141
12.0
290
     0
  0
SCALE
  5
5AB
102
{ACAD_REACTORS
330
594
102
}
330
594
100
AcDbScale
 70
     0
300
1/8" = 1'-0"
140
0.125
141
12.0
290
     0
  0
SCALE
  5
5AC
102
{ACAD_REACTORS
330
594
102
}
330
594
100
AcDbScale
 70
     0
300
3/16" = 1'-0"
140
0.1875
141
12.0
290
     0
  0
SCALE
  5
5AD
102
{ACAD_REACTORS
330
594
102
}
330
594
100
AcDbScale
 70
     0
300
1/4" = 1'-0"
140
0.25
141
12.0
290
     0
  0
SCALE
  5
5AE
102
{ACAD_REACTORS
330
594
102
}
330
594
100
AcDbScale
 70
     0
300
3/8" = 1'-0"
140
0.375
141
12.0
290
     0
  0
SCALE
  5
5AF
102
{ACAD_REACTORS
330
594
102
}
330
594
100
AcDbScale
 70
     0
300
1/2" = 1'-0"
140
0.5
141
12.0
290
     0
  0
SCALE
  5
5B0
102
{ACAD_REACTORS
330
594
102
}
330
594
100
AcDbScale
 70
     0
300
3/4" = 1'-0"
140
0.75
141
12.0
290
     0
  0
SCALE
  5
5B1
102
{ACAD_REACTORS
330
594
102
}
330
594
100
AcDbScale
 70
     0
300
1" = 1'-0"
140
1.0
141
12.0
290
     0
  0
SCALE
  5
5B2
102
{ACAD_REACTORS
330
594
102
}
330
594
100
AcDbScale
 70
     0
300
1-1/2" = 1'-0"
140
1.5
141
12.0
290
     0
  0
SCALE
  5
5B3
102
{ACAD_REACTORS
330
594
102
}
330
594
100
AcDbScale
 70
     0
300
3" = 1'-0"
140
3.0
141
12.0
290
     0
  0
SCALE
  5
5B4
102
{ACAD_REACTORS
330
594
102
}
330
594
100
AcDbScale
 70
     0
300
6" = 1'-0"
140
6.0
141
12.0
290
     0
  0
SCALE
  5
5B5
102
{ACAD_REACTORS
330
594
102
}
330
594
100
AcDbScale
 70
     0
300
1'-0" = 1'-0"
140
12.0
141
12.0
290
     0
  0
VISUALSTYLE
  5
2F
102
{ACAD_REACTORS
330
2A
102
}
102
{ACAD_XDICTIONARY
360
5C5
102
}
330
2A
100
AcDbVisualStyle
  2
2dWireframe
 70
     4
 71
     0
 72
     2
 73
     0
 90
        0
 40
-0.6
 41
-30.0
 62
     5
 63
     7
 74
     1
 91
        4
 64
     7
 65
   257
 75
     1
175
     1
 42
1.0
 92
        0
 66
   257
 43
1.0
 76
     1
 77
     6
 78
     2
 67
     7
 79
     5
170
     0
171
     0
290
     0
174
     0
 93
        1
 44
0.0
173
     0
291
     0
 45
0.0
1001
ACAD
1000
AcDbSavedByObjectVersion
1070
     0
  0
VISUALSTYLE
  5
31
102
{ACAD_REACTORS
330
2A
102
}
102
{ACAD_XDICTIONARY
360
5C9
102
}
330
2A
100
AcDbVisualStyle
  2
3D Hidden
 70
     6
 71
     1
 72
     2
 73
     2
 90
        0
 40
-0.6
 41
-30.0
 62
     5
 63
     7
 74
     2
 91
        2
 64
     7
 65
   257
 75
     2
175
     1
 42
40.0
 92
        0
 66
   257
 43
1.0
 76
     1
 77
     6
 78
     2
 67
     7
 79
     3
170
     0
171
     0
290
     0
174
     0
 93
        1
 44
0.0
173
     0
291
     0
 45
0.0
1001
ACAD
1000
AcDbSavedByObjectVersion
1070
     0
  0
VISUALSTYLE
  5
30
102
{ACAD_REACTORS
330
2A
102
}
102
{ACAD_XDICTIONARY
360
5C7
102
}
330
2A
100
AcDbVisualStyle
  2
3dWireframe
 70
     5
 71
     0
 72
     2
 73
     0
 90
        0
 40
-0.6
 41
-30.0
 62
     5
 63
     7
 74
     1
 91
        4
 64
     7
 65
   257
 75
     1
175
     1
 42
1.0
 92
        0
 66
   257
 43
1.0
 76
     1
 77
     6
 78
     2
 67
     7
 79
     5
170
     0
171
     0
290
     0
174
     0
 93
        1
 44
0.0
173
     0
291
     0
 45
0.0
1001
ACAD
1000
AcDbSavedByObjectVersion
1070
     0
  0
VISUALSTYLE
  5
32
102
{ACAD_REACTORS
330
2A
102
}
102
{ACAD_XDICTIONARY
360
5CB
102
}
330
2A
100
AcDbVisualStyle
  2
Basic
 70
     7
 71
     1
 72
     0
 73
     1
 90
        0
 40
-0.6
 41
-30.0
 62
     5
 63
     7
 74
     0
 91
        4
 64
     7
 65
   257
 75
     1
175
     1
 42
1.0
 92
        8
 66
     7
 43
1.0
 76
     1
 77
     6
 78
     2
 67
     7
 79
     5
170
     0
171
     0
290
     0
174
     0
 93
        1
 44
0.0
173
     0
291
     1
 45
0.0
1001
ACAD
1000
AcDbSavedByObjectVersion
1070
     0
  0
VISUALSTYLE
  5
36
102
{ACAD_REACTORS
330
2A
102
}
102
{ACAD_XDICTIONARY
360
5D3
102
}
330
2A
100
AcDbVisualStyle
  2
Brighten
 70
    12
 71
     2
 72
     2
 73
     0
 90
        0
 40
-0.6
 41
-30.0
 62
     5
 63
     7
 74
     1
 91
        4
 64
     7
 65
   257
 75
     1
175
     1
 42
1.0
 92
        8
 66
     7
 43
1.0
 76
     1
 77
     6
 78
     2
 67
     7
 79
     5
170
     0
171
     0
290
     0
174
     0
 93
        1
 44
50.0
173
     0
291
     1
 45
0.0
1001
ACAD
1000
AcDbSavedByObjectVersion
1070
     0
  0
VISUALSTYLE
  5
3A
102
{ACAD_REACTORS
330
2A
102
}
102
{ACAD_XDICTIONARY
360
5DB
102
}
330
2A
100
AcDbVisualStyle
  2
ColorChange
 70
    16
 71
     2
 72
     2
 73
     3
 90
        0
 40
-0.6
 41
-30.0
 62
     5
 63
     8
 74
     1
 91
        4
 64
     7
 65
   257
 75
     1
175
     1
 42
1.0
 92
        8
 66
     8
 43
1.0
 76
     1
 77
     6
 78
     2
 67
     7
 79
     5
170
     0
171
     0
290
     0
174
     0
 93
        1
 44
0.0
173
     0
291
     1
 45
0.0
1001
ACAD
1000
AcDbSavedByObjectVersion
1070
     0
  0
VISUALSTYLE
  5
34
102
{ACAD_REACTORS
330
2A
102
}
102
{ACAD_XDICTIONARY
360
5CF
102
}
330
2A
100
AcDbVisualStyle
  2
Conceptual
 70
     9
 71
     3
 72
     2
 73
     0
 90
        0
 40
-0.6
 41
-30.0
 62
     5
 63
     7
 74
     2
 91
        2
 64
     7
 65
   257
 75
     1
175
     1
 42
40.0
 92
        8
 66
     7
 43
1.0
 76
     1
 77
     6
 78
     2
 67
     7
 79
     3
170
     0
171
     0
290
     0
174
     0
 93
        1
 44
0.0
173
     0
291
     0
 45
0.0
1001
ACAD
1000
AcDbSavedByObjectVersion
1070
     0
  0
VISUALSTYLE
  5
35
102
{ACAD_REACTORS
330
2A
102
}
102
{ACAD_XDICTIONARY
360
5D1
102
}
330
2A
100
AcDbVisualStyle
  2
Dim
 70
    11
 71
     2
 72
     2
 73
     0
 90
        0
 40
-0.6
 41
-30.0
 62
     5
 63
     7
 74
     1
 91
        4
 64
     7
 65
   257
 75
     1
175
     1
 42
1.0
 92
        8
 66
     7
 43
1.0
 76
     1
 77
     6
 78
     2
 67
     7
 79
     5
170
     0
171
     0
290
     0
174
     0
 93
        1
 44
-50.0
173
     0
291
     1
 45
0.0
1001
ACAD
1000
AcDbSavedByObjectVersion
1070
     0
  0
VISUALSTYLE
  5
39
102
{ACAD_REACTORS
330
2A
102
}
102
{ACAD_XDICTIONARY
360
5D9
102
}
330
2A
100
AcDbVisualStyle
  2
Facepattern
 70
    15
 71
     2
 72
     2
 73
     0
 90
        0
 40
-0.6
 41
-30.0
 62
     5
 63
     7
 74
     1
 91
        4
 64
     7
 65
   257
 75
     1
175
     1
 42
1.0
 92
        8
 66
     7
 43
1.0
 76
     1
 77
     6
 78
     2
 67
     7
 79
     5
170
     0
171
     0
290
     0
174
     0
 93
        1
 44
0.0
173
     0
291
     1
 45
0.0
1001
ACAD
1000
AcDbSavedByObjectVersion
1070
     0
  0
VISUALSTYLE
  5
2B
102
{ACAD_REACTORS
330
2A
102
}
102
{ACAD_XDICTIONARY
360
5BD
102
}
330
2A
100
AcDbVisualStyle
  2
Flat
 70
     0
 71
     2
 72
     1
 73
     1
 90
        2
 40
-0.6
 41
30.0
 62
     5
 63
     7
 74
     0
 91
        4
 64
     7
 65
   257
 75
     1
175
     1
 42
1.0
 92
        8
 66
     7
 43
1.0
 76
     1
 77
     6
 78
     2
 67
     7
 79
     5
170
     0
171
     0
290
     0
174
     0
 93
       13
 44
0.0
173
     0
291
     1
 45
0.0
1001
ACAD
1000
AcDbSavedByObjectVersion
1070
     0
  0
VISUALSTYLE
  5
2C
102
{ACAD_REACTORS
330
2A
102
}
102
{ACAD_XDICTIONARY
360
5BF
102
}
330
2A
100
AcDbVisualStyle
  2
FlatWithEdges
 70
     1
 71
     2
 72
     1
 73
     1
 90
        2
 40
-0.6
 41
30.0
 62
     5
 63
     7
 74
     1
 91
        4
 64
     7
 65
   257
 75
     1
175
     1
 42
1.0
 92
        0
 66
   257
 43
1.0
 76
     1
 77
     6
 78
     2
 67
     7
 79
     5
170
     0
171
     0
290
     0
174
     0
 93
       13
 44
0.0
173
     0
291
     1
 45
0.0
1001
ACAD
1000
AcDbSavedByObjectVersion
1070
     0
  0
VISUALSTYLE
  5
2D
102
{ACAD_REACTORS
330
2A
102
}
102
{ACAD_XDICTIONARY
360
5C1
102
}
330
2A
100
AcDbVisualStyle
  2
Gouraud
 70
     2
 71
     2
 72
     2
 73
     1
 90
        2
 40
-0.6
 41
30.0
 62
     5
 63
     7
 74
     0
 91
        4
 64
     7
 65
   257
 75
     1
175
     1
 42
1.0
 92
        0
 66
     7
 43
1.0
 76
     1
 77
     6
 78
     2
 67
     7
 79
     5
170
     0
171
     0
290
     0
174
     0
 93
       13
 44
0.0
173
     0
291
     1
 45
0.0
1001
ACAD
1000
AcDbSavedByObjectVersion
1070
     0
  0
VISUALSTYLE
  5
2E
102
{ACAD_REACTORS
330
2A
102
}
102
{ACAD_XDICTIONARY
360
5C3
102
}
330
2A
100
AcDbVisualStyle
  2
GouraudWithEdges
 70
     3
 71
     2
 72
     2
 73
     1
 90
        2
 40
-0.6
 41
30.0
 62
     5
 63
     7
 74
     1
 91
        4
 64
     7
 65
   257
 75
     1
175
     1
 42
1.0
 92
        0
 66
   257
 43
1.0
 76
     1
 77
     6
 78
     2
 67
     7
 79
     5
170
     0
171
     0
290
     0
174
     0
 93
       13
 44
0.0
173
     0
291
     1
 45
0.0
1001
ACAD
1000
AcDbSavedByObjectVersion
1070
     0
  0
VISUALSTYLE
  5
38
102
{ACAD_REACTORS
330
2A
102
}
102
{ACAD_XDICTIONARY
360
5D7
102
}
330
2A
100
AcDbVisualStyle
  2
Linepattern
 70
    14
 71
     2
 72
     2
 73
     0
 90
        0
 40
-0.6
 41
-30.0
 62
     5
 63
     7
 74
     1
 91
        4
 64
     7
 65
   257
 75
     7
175
     7
 42
1.0
 92
        8
 66
     7
 43
1.0
 76
     1
 77
     6
 78
     2
 67
     7
 79
     5
170
     0
171
     0
290
     0
174
     0
 93
        1
 44
0.0
173
     0
291
     1
 45
0.0
1001
ACAD
1000
AcDbSavedByObjectVersion
1070
     0
  0
VISUALSTYLE
  5
33
102
{ACAD_REACTORS
330
2A
102
}
102
{ACAD_XDICTIONARY
360
5CD
102
}
330
2A
100
AcDbVisualStyle
  2
Realistic
 70
     8
 71
     2
 72
     2
 73
     0
 90
        0
 40
-0.6
 41
-30.0
 62
     5
 63
     7
 74
     1
 91
        0
 64
     7
 65
   257
 75
     1
175
     1
 42
1.0
 92
        8
 66
     8
 43
1.0
 76
     1
 77
     6
 78
     2
 67
     7
 79
     5
170
     0
171
     0
290
     0
174
     0
 93
       13
 44
0.0
173
     0
291
     0
 45
0.0
1001
ACAD
1000
AcDbSavedByObjectVersion
1070
     0
  0
VISUALSTYLE
  5
37
102
{ACAD_REACTORS
330
2A
102
}
102
{ACAD_XDICTIONARY
360
5D5
102
}
330
2A
100
AcDbVisualStyle
  2
Thicken
 70
    13
 71
     2
 72
     2
 73
     0
 90
        0
 40
-0.6
 41
-30.0
 62
     5
 63
     7
 74
     1
 91
        4
 64
     7
 65
   257
 75
     1
175
     1
 42
1.0
 92
       12
 66
     7
 43
1.0
 76
     1
 77
     6
 78
     2
 67
     7
 79
     5
170
     0
171
     0
290
     0
174
     0
 93
        1
 44
0.0
173
     0
291
     1
 45
0.0
1001
ACAD
1000
AcDbSavedByObjectVersion
1070
     0
  0
DICTIONARYVAR
  5
5B9
102
{ACAD_REACTORS
330
5B6
102
}
330
5B6
100
DictionaryVariables
280
     0
  1
1:1
  0
DICTIONARYVAR
  5
5BA
102
{ACAD_REACTORS
330
5B6
102
}
330
5B6
100
DictionaryVariables
280
     0
  1
2
  0
DICTIONARYVAR
  5
5BB
102
{ACAD_REACTORS
330
5B6
102
}
330
5B6
100
DictionaryVariables
280
     0
  1
1
  0
DICTIONARY
  5
5DF
330
3D
100
AcDbDictionary
280
     1
281
     1
  3
ACAD_XREC_ROUNDTRIP
360
5E0
  0
DICTIONARY
  5
5DD
330
3C
100
AcDbDictionary
280
     1
281
     1
  3
ACAD_XREC_ROUNDTRIP
360
5DE
  0
DICTIONARY
  5
5E1
330
3E
100
AcDbDictionary
280
     1
281
     1
  3
ACAD_XREC_ROUNDTRIP
360
5E2
  0
DICTIONARY
  5
5C5
330
2F
100
AcDbDictionary
280
     1
281
     1
  3
ACAD_XREC_ROUNDTRIP
360
5C6
  0
DICTIONARY
  5
5C9
330
31
100
AcDbDictionary
280
     1
281
     1
  3
ACAD_XREC_ROUNDTRIP
360
5CA
  0
DICTIONARY
  5
5C7
330
30
100
AcDbDictionary
280
     1
281
     1
  3
ACAD_XREC_ROUNDTRIP
360
5C8
  0
DICTIONARY
  5
5CB
330
32
100
AcDbDictionary
280
     1
281
     1
  3
ACAD_XREC_ROUNDTRIP
360
5CC
  0
DICTIONARY
  5
5D3
330
36
100
AcDbDictionary
280
     1
281
     1
  3
ACAD_XREC_ROUNDTRIP
360
5D4
  0
DICTIONARY
  5
5DB
330
3A
100
AcDbDictionary
280
     1
281
     1
  3
ACAD_XREC_ROUNDTRIP
360
5DC
  0
DICTIONARY
  5
5CF
330
34
100
AcDbDictionary
280
     1
281
     1
  3
ACAD_XREC_ROUNDTRIP
360
5D0
  0
DICTIONARY
  5
5D1
330
35
100
AcDbDictionary
280
     1
281
     1
  3
ACAD_XREC_ROUNDTRIP
360
5D2
  0
DICTIONARY
  5
5D9
330
39
100
AcDbDictionary
280
     1
281
     1
  3
ACAD_XREC_ROUNDTRIP
360
5DA
  0
DICTIONARY
  5
5BD
330
2B
100
AcDbDictionary
280
     1
281
     1
  3
ACAD_XREC_ROUNDTRIP
360
5BE
  0
DICTIONARY
  5
5BF
330
2C
100
AcDbDictionary
280
     1
281
     1
  3
ACAD_XREC_ROUNDTRIP
360
5C0
  0
DICTIONARY
  5
5C1
330
2D
100
AcDbDictionary
280
     1
281
     1
  3
ACAD_XREC_ROUNDTRIP
360
5C2
  0
DICTIONARY
  5
5C3
330
2E
100
AcDbDictionary
280
     1
281
     1
  3
ACAD_XREC_ROUNDTRIP
360
5C4
  0
DICTIONARY
  5
5D7
330
38
100
AcDbDictionary
280
     1
281
     1
  3
ACAD_XREC_ROUNDTRIP
360
5D8
  0
DICTIONARY
  5
5CD
330
33
100
AcDbDictionary
280
     1
281
     1
  3
ACAD_XREC_ROUNDTRIP
360
5CE
  0
DICTIONARY
  5
5D5
330
37
100
AcDbDictionary
280
     1
281
     1
  3
ACAD_XREC_ROUNDTRIP
360
5D6
  0
XRECORD
  5
5E0
102
{ACAD_REACTORS
330
5DF
102
}
330
5DF
100
AcDbXrecord
280
     1
102
MATERIAL
148
0.0
149
0.0
149
0.0
 93
        0
 94
      127
282
     0
 72
     1
 77
     1
171
     1
175
     1
179
     1
273
     0
  0
XRECORD
  5
5DE
102
{ACAD_REACTORS
330
5DD
102
}
330
5DD
100
AcDbXrecord
280
     1
102
MATERIAL
148
0.0
149
0.0
149
0.0
 93
        0
 94
      127
282
     0
 72
     1
 77
     1
171
     1
175
     1
179
     1
273
     0
  0
XRECORD
  5
5E2
102
{ACAD_REACTORS
330
5E1
102
}
330
5E1
100
AcDbXrecord
280
     1
102
MATERIAL
148
0.0
149
0.0
149
0.0
 93
        0
 94
      127
282
     0
 72
     1
 77
     1
171
     1
175
     1
179
     1
273
     0
  0
XRECORD
  5
5C6
102
{ACAD_REACTORS
330
5C5
102
}
330
5C5
100
AcDbXrecord
280
     1
102
RTVSPropertyOp0
 70
     1
102
RTVSPropertyOp1
 70
     1
102
RTVSPropertyOp2
 70
     1
102
RTVSPropertyOp3
 70
     1
102
RTVSPropertyOp4
 70
     1
102
RTVSPropertyOp5
 70
     1
102
RTVSPropertyOp6
 70
     1
102
RTVSPropertyOp7
 70
     1
102
RTVSPropertyOp8
 70
     1
102
RTVSPropertyOp9
 70
     1
102
RTVSPropertyOp10
 70
     1
102
RTVSPropertyOp11
 70
     1
102
RTVSPropertyOp12
 70
     1
102
RTVSPropertyOp13
 70
     1
102
RTVSPropertyOp14
 70
     1
102
RTVSPropertyOp15
 70
     1
102
RTVSPropertyOp16
 70
     1
102
RTVSPropertyOp17
 70
     1
102
RTVSPropertyOp18
 70
     1
102
RTVSPropertyOp19
 70
     1
102
RTVSPropertyOp20
 70
     1
102
RTVSPropertyOp21
 70
     1
102
RTVSPropertyOp22
 70
     1
102
RTVSPropertyOp23
 70
     1
102
RTVSPropertyOp24
 70
     1
102
RTVSPropertyOp25
 70
     1
102
RTVSPropertyOp26
 70
     1
102
RTVSPropertyOp27
 70
     1
102
RTVSPropertyOp28
 70
     1
102
RTVSPropertyOp29
 70
     1
102
RTVSPropertyOp30
 70
     1
102
RTVSPropertyOp31
 70
     1
102
RTVSPropertyOp32
 70
     1
  0
XRECORD
  5
5CA
102
{ACAD_REACTORS
330
5C9
102
}
330
5C9
100
AcDbXrecord
280
     1
102
RTVSPropertyOp0
 70
     1
102
RTVSPropertyOp1
 70
     1
102
RTVSPropertyOp2
 70
     1
102
RTVSPropertyOp3
 70
     1
102
RTVSPropertyOp4
 70
     1
102
RTVSPropertyOp5
 70
     1
102
RTVSPropertyOp6
 70
     1
102
RTVSPropertyOp7
 70
     1
102
RTVSPropertyOp8
 70
     1
102
RTVSPropertyOp9
 70
     1
102
RTVSPropertyOp10
 70
     1
102
RTVSPropertyOp11
 70
     1
102
RTVSPropertyOp12
 70
     1
102
RTVSPropertyOp13
 70
     1
102
RTVSPropertyOp14
 70
     1
102
RTVSPropertyOp15
 70
     1
102
RTVSPropertyOp16
 70
     1
102
RTVSPropertyOp17
 70
     1
102
RTVSPropertyOp18
 70
     1
102
RTVSPropertyOp19
 70
     1
102
RTVSPropertyOp20
 70
     1
102
RTVSPropertyOp21
 70
     1
102
RTVSPropertyOp22
 70
     1
102
RTVSPropertyOp23
 70
     1
102
RTVSPropertyOp24
 70
     1
102
RTVSPropertyOp25
 70
     1
102
RTVSPropertyOp26
 70
     1
102
RTVSPropertyOp27
 70
     1
102
RTVSPropertyOp28
 70
     1
102
RTVSPropertyOp29
 70
     1
102
RTVSPropertyOp30
 70
     1
102
RTVSPropertyOp31
 70
     1
102
RTVSPropertyOp32
 70
     1
  0
XRECORD
  5
5C8
102
{ACAD_REACTORS
330
5C7
102
}
330
5C7
100
AcDbXrecord
280
     1
102
RTVSPropertyOp0
 70
     1
102
RTVSPropertyOp1
 70
     1
102
RTVSPropertyOp2
 70
     1
102
RTVSPropertyOp3
 70
     1
102
RTVSPropertyOp4
 70
     1
102
RTVSPropertyOp5
 70
     1
102
RTVSPropertyOp6
 70
     1
102
RTVSPropertyOp7
 70
     1
102
RTVSPropertyOp8
 70
     1
102
RTVSPropertyOp9
 70
     1
102
RTVSPropertyOp10
 70
     1
102
RTVSPropertyOp11
 70
     1
102
RTVSPropertyOp12
 70
     1
102
RTVSPropertyOp13
 70
     1
102
RTVSPropertyOp14
 70
     1
102
RTVSPropertyOp15
 70
     1
102
RTVSPropertyOp16
 70
     1
102
RTVSPropertyOp17
 70
     1
102
RTVSPropertyOp18
 70
     1
102
RTVSPropertyOp19
 70
     1
102
RTVSPropertyOp20
 70
     1
102
RTVSPropertyOp21
 70
     1
102
RTVSPropertyOp22
 70
     1
102
RTVSPropertyOp23
 70
     1
102
RTVSPropertyOp24
 70
     1
102
RTVSPropertyOp25
 70
     1
102
RTVSPropertyOp26
 70
     1
102
RTVSPropertyOp27
 70
     1
102
RTVSPropertyOp28
 70
     1
102
RTVSPropertyOp29
 70
     1
102
RTVSPropertyOp30
 70
     1
102
RTVSPropertyOp31
 70
     1
102
RTVSPropertyOp32
 70
     1
  0
XRECORD
  5
5CC
102
{ACAD_REACTORS
330
5CB
102
}
330
5CB
100
AcDbXrecord
280
     1
102
RTVSPropertyOp0
 70
     1
102
RTVSPropertyOp1
 70
     1
102
RTVSPropertyOp2
 70
     1
102
RTVSPropertyOp3
 70
     1
102
RTVSPropertyOp4
 70
     1
102
RTVSPropertyOp5
 70
     1
102
RTVSPropertyOp6
 70
     1
102
RTVSPropertyOp7
 70
     1
102
RTVSPropertyOp8
 70
     1
102
RTVSPropertyOp9
 70
     1
102
RTVSPropertyOp10
 70
     1
102
RTVSPropertyOp11
 70
     1
102
RTVSPropertyOp12
 70
     1
102
RTVSPropertyOp13
 70
     1
102
RTVSPropertyOp14
 70
     1
102
RTVSPropertyOp15
 70
     1
102
RTVSPropertyOp16
 70
     1
102
RTVSPropertyOp17
 70
     1
102
RTVSPropertyOp18
 70
     1
102
RTVSPropertyOp19
 70
     1
102
RTVSPropertyOp20
 70
     1
102
RTVSPropertyOp21
 70
     1
102
RTVSPropertyOp22
 70
     1
102
RTVSPropertyOp23
 70
     1
102
RTVSPropertyOp24
 70
     1
102
RTVSPropertyOp25
 70
     1
102
RTVSPropertyOp26
 70
     1
102
RTVSPropertyOp27
 70
     1
102
RTVSPropertyOp28
 70
     1
102
RTVSPropertyOp29
 70
     1
102
RTVSPropertyOp30
 70
     1
102
RTVSPropertyOp31
 70
     1
102
RTVSPropertyOp32
 70
     1
  0
XRECORD
  5
5D4
102
{ACAD_REACTORS
330
5D3
102
}
330
5D3
100
AcDbXrecord
280
     1
102
RTVSPropertyOp0
 70
     1
102
RTVSPropertyOp1
 70
     1
102
RTVSPropertyOp2
 70
     1
102
RTVSPropertyOp3
 70
     1
102
RTVSPropertyOp4
 70
     1
102
RTVSPropertyOp5
 70
     1
102
RTVSPropertyOp6
 70
     1
102
RTVSPropertyOp7
 70
     1
102
RTVSPropertyOp8
 70
     1
102
RTVSPropertyOp9
 70
     1
102
RTVSPropertyOp10
 70
     1
102
RTVSPropertyOp11
 70
     1
102
RTVSPropertyOp12
 70
     1
102
RTVSPropertyOp13
 70
     1
102
RTVSPropertyOp14
 70
     1
102
RTVSPropertyOp15
 70
     1
102
RTVSPropertyOp16
 70
     1
102
RTVSPropertyOp17
 70
     1
102
RTVSPropertyOp18
 70
     1
102
RTVSPropertyOp19
 70
     1
102
RTVSPropertyOp20
 70
     1
102
RTVSPropertyOp21
 70
     1
102
RTVSPropertyOp22
 70
     1
102
RTVSPropertyOp23
 70
     1
102
RTVSPropertyOp24
 70
     1
102
RTVSPropertyOp25
 70
     1
102
RTVSPropertyOp26
 70
     1
102
RTVSPropertyOp27
 70
     1
102
RTVSPropertyOp28
 70
     1
102
RTVSPropertyOp29
 70
     1
102
RTVSPropertyOp30
 70
     1
102
RTVSPropertyOp31
 70
     1
102
RTVSPropertyOp32
 70
     1
  0
XRECORD
  5
5DC
102
{ACAD_REACTORS
330
5DB
102
}
330
5DB
100
AcDbXrecord
280
     1
102
RTVSPropertyOp0
 70
     1
102
RTVSPropertyOp1
 70
     1
102
RTVSPropertyOp2
 70
     1
102
RTVSPropertyOp3
 70
     1
102
RTVSPropertyOp4
 70
     1
102
RTVSPropertyOp5
 70
     1
102
RTVSPropertyOp6
 70
     1
102
RTVSPropertyOp7
 70
     1
102
RTVSPropertyOp8
 70
     1
102
RTVSPropertyOp9
 70
     1
102
RTVSPropertyOp10
 70
     1
102
RTVSPropertyOp11
 70
     1
102
RTVSPropertyOp12
 70
     1
102
RTVSPropertyOp13
 70
     1
102
RTVSPropertyOp14
 70
     1
102
RTVSPropertyOp15
 70
     1
102
RTVSPropertyOp16
 70
     1
102
RTVSPropertyOp17
 70
     1
102
RTVSPropertyOp18
 70
     1
102
RTVSPropertyOp19
 70
     1
102
RTVSPropertyOp20
 70
     1
102
RTVSPropertyOp21
 70
     1
102
RTVSPropertyOp22
 70
     1
102
RTVSPropertyOp23
 70
     1
102
RTVSPropertyOp24
 70
     1
102
RTVSPropertyOp25
 70
     1
102
RTVSPropertyOp26
 70
     1
102
RTVSPropertyOp27
 70
     1
102
RTVSPropertyOp28
 70
     1
102
RTVSPropertyOp29
 70
     1
102
RTVSPropertyOp30
 70
     1
102
RTVSPropertyOp31
 70
     1
102
RTVSPropertyOp32
 70
     1
  0
XRECORD
  5
5D0
102
{ACAD_REACTORS
330
5CF
102
}
330
5CF
100
AcDbXrecord
280
     1
102
RTVSPropertyOp0
 70
     1
102
RTVSPropertyOp1
 70
     1
102
RTVSPropertyOp2
 70
     1
102
RTVSPropertyOp3
 70
     1
102
RTVSPropertyOp4
 70
     1
102
RTVSPropertyOp5
 70
     1
102
RTVSPropertyOp6
 70
     1
102
RTVSPropertyOp7
 70
     1
102
RTVSPropertyOp8
 70
     1
102
RTVSPropertyOp9
 70
     1
102
RTVSPropertyOp10
 70
     1
102
RTVSPropertyOp11
 70
     1
102
RTVSPropertyOp12
 70
     1
102
RTVSPropertyOp13
 70
     1
102
RTVSPropertyOp14
 70
     1
102
RTVSPropertyOp15
 70
     1
102
RTVSPropertyOp16
 70
     1
102
RTVSPropertyOp17
 70
     1
102
RTVSPropertyOp18
 70
     1
102
RTVSPropertyOp19
 70
     1
102
RTVSPropertyOp20
 70
     1
102
RTVSPropertyOp21
 70
     1
102
RTVSPropertyOp22
 70
     1
102
RTVSPropertyOp23
 70
     1
102
RTVSPropertyOp24
 70
     1
102
RTVSPropertyOp25
 70
     1
102
RTVSPropertyOp26
 70
     1
102
RTVSPropertyOp27
 70
     1
102
RTVSPropertyOp28
 70
     1
102
RTVSPropertyOp29
 70
     1
102
RTVSPropertyOp30
 70
     1
102
RTVSPropertyOp31
 70
     1
102
RTVSPropertyOp32
 70
     1
  0
XRECORD
  5
5D2
102
{ACAD_REACTORS
330
5D1
102
}
330
5D1
100
AcDbXrecord
280
     1
102
RTVSPropertyOp0
 70
     1
102
RTVSPropertyOp1
 70
     1
102
RTVSPropertyOp2
 70
     1
102
RTVSPropertyOp3
 70
     1
102
RTVSPropertyOp4
 70
     1
102
RTVSPropertyOp5
 70
     1
102
RTVSPropertyOp6
 70
     1
102
RTVSPropertyOp7
 70
     1
102
RTVSPropertyOp8
 70
     1
102
RTVSPropertyOp9
 70
     1
102
RTVSPropertyOp10
 70
     1
102
RTVSPropertyOp11
 70
     1
102
RTVSPropertyOp12
 70
     1
102
RTVSPropertyOp13
 70
     1
102
RTVSPropertyOp14
 70
     1
102
RTVSPropertyOp15
 70
     1
102
RTVSPropertyOp16
 70
     1
102
RTVSPropertyOp17
 70
     1
102
RTVSPropertyOp18
 70
     1
102
RTVSPropertyOp19
 70
     1
102
RTVSPropertyOp20
 70
     1
102
RTVSPropertyOp21
 70
     1
102
RTVSPropertyOp22
 70
     1
102
RTVSPropertyOp23
 70
     1
102
RTVSPropertyOp24
 70
     1
102
RTVSPropertyOp25
 70
     1
102
RTVSPropertyOp26
 70
     1
102
RTVSPropertyOp27
 70
     1
102
RTVSPropertyOp28
 70
     1
102
RTVSPropertyOp29
 70
     1
102
RTVSPropertyOp30
 70
     1
102
RTVSPropertyOp31
 70
     1
102
RTVSPropertyOp32
 70
     1
  0
XRECORD
  5
5DA
102
{ACAD_REACTORS
330
5D9
102
}
330
5D9
100
AcDbXrecord
280
     1
102
RTVSPropertyOp0
 70
     1
102
RTVSPropertyOp1
 70
     1
102
RTVSPropertyOp2
 70
     1
102
RTVSPropertyOp3
 70
     1
102
RTVSPropertyOp4
 70
     1
102
RTVSPropertyOp5
 70
     1
102
RTVSPropertyOp6
 70
     1
102
RTVSPropertyOp7
 70
     1
102
RTVSPropertyOp8
 70
     1
102
RTVSPropertyOp9
 70
     1
102
RTVSPropertyOp10
 70
     1
102
RTVSPropertyOp11
 70
     1
102
RTVSPropertyOp12
 70
     1
102
RTVSPropertyOp13
 70
     1
102
RTVSPropertyOp14
 70
     1
102
RTVSPropertyOp15
 70
     1
102
RTVSPropertyOp16
 70
     1
102
RTVSPropertyOp17
 70
     1
102
RTVSPropertyOp18
 70
     1
102
RTVSPropertyOp19
 70
     1
102
RTVSPropertyOp20
 70
     1
102
RTVSPropertyOp21
 70
     1
102
RTVSPropertyOp22
 70
     1
102
RTVSPropertyOp23
 70
     1
102
RTVSPropertyOp24
 70
     1
102
RTVSPropertyOp25
 70
     1
102
RTVSPropertyOp26
 70
     1
102
RTVSPropertyOp27
 70
     1
102
RTVSPropertyOp28
 70
     1
102
RTVSPropertyOp29
 70
     1
102
RTVSPropertyOp30
 70
     1
102
RTVSPropertyOp31
 70
     1
102
RTVSPropertyOp32
 70
     1
  0
XRECORD
  5
5BE
102
{ACAD_REACTORS
330
5BD
102
}
330
5BD
100
AcDbXrecord
280
     1
102
RTVSPropertyOp0
 70
     1
102
RTVSPropertyOp1
 70
     1
102
RTVSPropertyOp2
 70
     1
102
RTVSPropertyOp3
 70
     1
102
RTVSPropertyOp4
 70
     1
102
RTVSPropertyOp5
 70
     1
102
RTVSPropertyOp6
 70
     1
102
RTVSPropertyOp7
 70
     1
102
RTVSPropertyOp8
 70
     1
102
RTVSPropertyOp9
 70
     1
102
RTVSPropertyOp10
 70
     1
102
RTVSPropertyOp11
 70
     1
102
RTVSPropertyOp12
 70
     1
102
RTVSPropertyOp13
 70
     1
102
RTVSPropertyOp14
 70
     1
102
RTVSPropertyOp15
 70
     1
102
RTVSPropertyOp16
 70
     1
102
RTVSPropertyOp17
 70
     1
102
RTVSPropertyOp18
 70
     1
102
RTVSPropertyOp19
 70
     1
102
RTVSPropertyOp20
 70
     1
102
RTVSPropertyOp21
 70
     1
102
RTVSPropertyOp22
 70
     1
102
RTVSPropertyOp23
 70
     1
102
RTVSPropertyOp24
 70
     1
102
RTVSPropertyOp25
 70
     1
102
RTVSPropertyOp26
 70
     1
102
RTVSPropertyOp27
 70
     1
102
RTVSPropertyOp28
 70
     1
102
RTVSPropertyOp29
 70
     1
102
RTVSPropertyOp30
 70
     1
102
RTVSPropertyOp31
 70
     1
102
RTVSPropertyOp32
 70
     1
  0
XRECORD
  5
5C0
102
{ACAD_REACTORS
330
5BF
102
}
330
5BF
100
AcDbXrecord
280
     1
102
RTVSPropertyOp0
 70
     1
102
RTVSPropertyOp1
 70
     1
102
RTVSPropertyOp2
 70
     1
102
RTVSPropertyOp3
 70
     1
102
RTVSPropertyOp4
 70
     1
102
RTVSPropertyOp5
 70
     1
102
RTVSPropertyOp6
 70
     1
102
RTVSPropertyOp7
 70
     1
102
RTVSPropertyOp8
 70
     1
102
RTVSPropertyOp9
 70
     1
102
RTVSPropertyOp10
 70
     1
102
RTVSPropertyOp11
 70
     1
102
RTVSPropertyOp12
 70
     1
102
RTVSPropertyOp13
 70
     1
102
RTVSPropertyOp14
 70
     1
102
RTVSPropertyOp15
 70
     1
102
RTVSPropertyOp16
 70
     1
102
RTVSPropertyOp17
 70
     1
102
RTVSPropertyOp18
 70
     1
102
RTVSPropertyOp19
 70
     1
102
RTVSPropertyOp20
 70
     1
102
RTVSPropertyOp21
 70
     1
102
RTVSPropertyOp22
 70
     1
102
RTVSPropertyOp23
 70
     1
102
RTVSPropertyOp24
 70
     1
102
RTVSPropertyOp25
 70
     1
102
RTVSPropertyOp26
 70
     1
102
RTVSPropertyOp27
 70
     1
102
RTVSPropertyOp28
 70
     1
102
RTVSPropertyOp29
 70
     1
102
RTVSPropertyOp30
 70
     1
102
RTVSPropertyOp31
 70
     1
102
RTVSPropertyOp32
 70
     1
  0
XRECORD
  5
5C2
102
{ACAD_REACTORS
330
5C1
102
}
330
5C1
100
AcDbXrecord
280
     1
102
RTVSPropertyOp0
 70
     1
102
RTVSPropertyOp1
 70
     1
102
RTVSPropertyOp2
 70
     1
102
RTVSPropertyOp3
 70
     1
102
RTVSPropertyOp4
 70
     1
102
RTVSPropertyOp5
 70
     1
102
RTVSPropertyOp6
 70
     1
102
RTVSPropertyOp7
 70
     1
102
RTVSPropertyOp8
 70
     1
102
RTVSPropertyOp9
 70
     1
102
RTVSPropertyOp10
 70
     1
102
RTVSPropertyOp11
 70
     1
102
RTVSPropertyOp12
 70
     1
102
RTVSPropertyOp13
 70
     1
102
RTVSPropertyOp14
 70
     1
102
RTVSPropertyOp15
 70
     1
102
RTVSPropertyOp16
 70
     1
102
RTVSPropertyOp17
 70
     1
102
RTVSPropertyOp18
 70
     1
102
RTVSPropertyOp19
 70
     1
102
RTVSPropertyOp20
 70
     1
102
RTVSPropertyOp21
 70
     1
102
RTVSPropertyOp22
 70
     1
102
RTVSPropertyOp23
 70
     1
102
RTVSPropertyOp24
 70
     1
102
RTVSPropertyOp25
 70
     1
102
RTVSPropertyOp26
 70
     1
102
RTVSPropertyOp27
 70
     1
102
RTVSPropertyOp28
 70
     1
102
RTVSPropertyOp29
 70
     1
102
RTVSPropertyOp30
 70
     1
102
RTVSPropertyOp31
 70
     1
102
RTVSPropertyOp32
 70
     1
  0
XRECORD
  5
5C4
102
{ACAD_REACTORS
330
5C3
102
}
330
5C3
100
AcDbXrecord
280
     1
102
RTVSPropertyOp0
 70
     1
102
RTVSPropertyOp1
 70
     1
102
RTVSPropertyOp2
 70
     1
102
RTVSPropertyOp3
 70
     1
102
RTVSPropertyOp4
 70
     1
102
RTVSPropertyOp5
 70
     1
102
RTVSPropertyOp6
 70
     1
102
RTVSPropertyOp7
 70
     1
102
RTVSPropertyOp8
 70
     1
102
RTVSPropertyOp9
 70
     1
102
RTVSPropertyOp10
 70
     1
102
RTVSPropertyOp11
 70
     1
102
RTVSPropertyOp12
 70
     1
102
RTVSPropertyOp13
 70
     1
102
RTVSPropertyOp14
 70
     1
102
RTVSPropertyOp15
 70
     1
102
RTVSPropertyOp16
 70
     1
102
RTVSPropertyOp17
 70
     1
102
RTVSPropertyOp18
 70
     1
102
RTVSPropertyOp19
 70
     1
102
RTVSPropertyOp20
 70
     1
102
RTVSPropertyOp21
 70
     1
102
RTVSPropertyOp22
 70
     1
102
RTVSPropertyOp23
 70
     1
102
RTVSPropertyOp24
 70
     1
102
RTVSPropertyOp25
 70
     1
102
RTVSPropertyOp26
 70
     1
102
RTVSPropertyOp27
 70
     1
102
RTVSPropertyOp28
 70
     1
102
RTVSPropertyOp29
 70
     1
102
RTVSPropertyOp30
 70
     1
102
RTVSPropertyOp31
 70
     1
102
RTVSPropertyOp32
 70
     1
  0
XRECORD
  5
5D8
102
{ACAD_REACTORS
330
5D7
102
}
330
5D7
100
AcDbXrecord
280
     1
102
RTVSPropertyOp0
 70
     1
102
RTVSPropertyOp1
 70
     1
102
RTVSPropertyOp2
 70
     1
102
RTVSPropertyOp3
 70
     1
102
RTVSPropertyOp4
 70
     1
102
RTVSPropertyOp5
 70
     1
102
RTVSPropertyOp6
 70
     1
102
RTVSPropertyOp7
 70
     1
102
RTVSPropertyOp8
 70
     1
102
RTVSPropertyOp9
 70
     1
102
RTVSPropertyOp10
 70
     1
102
RTVSPropertyOp11
 70
     1
102
RTVSPropertyOp12
 70
     1
102
RTVSPropertyOp13
 70
     1
102
RTVSPropertyOp14
 70
     1
102
RTVSPropertyOp15
 70
     1
102
RTVSPropertyOp16
 70
     1
102
RTVSPropertyOp17
 70
     1
102
RTVSPropertyOp18
 70
     1
102
RTVSPropertyOp19
 70
     1
102
RTVSPropertyOp20
 70
     1
102
RTVSPropertyOp21
 70
     1
102
RTVSPropertyOp22
 70
     1
102
RTVSPropertyOp23
 70
     1
102
RTVSPropertyOp24
 70
     1
102
RTVSPropertyOp25
 70
     1
102
RTVSPropertyOp26
 70
     1
102
RTVSPropertyOp27
 70
     1
102
RTVSPropertyOp28
 70
     1
102
RTVSPropertyOp29
 70
     1
102
RTVSPropertyOp30
 70
     1
102
RTVSPropertyOp31
 70
     1
102
RTVSPropertyOp32
 70
     1
  0
XRECORD
  5
5CE
102
{ACAD_REACTORS
330
5CD
102
}
330
5CD
100
AcDbXrecord
280
     1
102
RTVSPropertyOp0
 70
     1
102
RTVSPropertyOp1
 70
     1
102
RTVSPropertyOp2
 70
     1
102
RTVSPropertyOp3
 70
     1
102
RTVSPropertyOp4
 70
     1
102
RTVSPropertyOp5
 70
     1
102
RTVSPropertyOp6
 70
     1
102
RTVSPropertyOp7
 70
     1
102
RTVSPropertyOp8
 70
     1
102
RTVSPropertyOp9
 70
     1
102
RTVSPropertyOp10
 70
     1
102
RTVSPropertyOp11
 70
     1
102
RTVSPropertyOp12
 70
     1
102
RTVSPropertyOp13
 70
     1
102
RTVSPropertyOp14
 70
     1
102
RTVSPropertyOp15
 70
     1
102
RTVSPropertyOp16
 70
     1
102
RTVSPropertyOp17
 70
     1
102
RTVSPropertyOp18
 70
     1
102
RTVSPropertyOp19
 70
     1
102
RTVSPropertyOp20
 70
     1
102
RTVSPropertyOp21
 70
     1
102
RTVSPropertyOp22
 70
     1
102
RTVSPropertyOp23
 70
     1
102
RTVSPropertyOp24
 70
     1
102
RTVSPropertyOp25
 70
     1
102
RTVSPropertyOp26
 70
     1
102
RTVSPropertyOp27
 70
     1
102
RTVSPropertyOp28
 70
     1
102
RTVSPropertyOp29
 70
     1
102
RTVSPropertyOp30
 70
     1
102
RTVSPropertyOp31
 70
     1
102
RTVSPropertyOp32
 70
     1
  0
XRECORD
  5
5D6
102
{ACAD_REACTORS
330
5D5
102
}
330
5D5
100
AcDbXrecord
280
     1
102
RTVSPropertyOp0
 70
     1
102
RTVSPropertyOp1
 70
     1
102
RTVSPropertyOp2
 70
     1
102
RTVSPropertyOp3
 70
     1
102
RTVSPropertyOp4
 70
     1
102
RTVSPropertyOp5
 70
     1
102
RTVSPropertyOp6
 70
     1
102
RTVSPropertyOp7
 70
     1
102
RTVSPropertyOp8
 70
     1
102
RTVSPropertyOp9
 70
     1
102
RTVSPropertyOp10
 70
     1
102
RTVSPropertyOp11
 70
     1
102
RTVSPropertyOp12
 70
     1
102
RTVSPropertyOp13
 70
     1
102
RTVSPropertyOp14
 70
     1
102
RTVSPropertyOp15
 70
     1
102
RTVSPropertyOp16
 70
     1
102
RTVSPropertyOp17
 70
     1
102
RTVSPropertyOp18
 70
     1
102
RTVSPropertyOp19
 70
     1
102
RTVSPropertyOp20
 70
     1
102
RTVSPropertyOp21
 70
     1
102
RTVSPropertyOp22
 70
     1
102
RTVSPropertyOp23
 70
     1
102
RTVSPropertyOp24
 70
     1
102
RTVSPropertyOp25
 70
     1
102
RTVSPropertyOp26
 70
     1
102
RTVSPropertyOp27
 70
     1
102
RTVSPropertyOp28
 70
     1
102
RTVSPropertyOp29
 70
     1
102
RTVSPropertyOp30
 70
     1
102
RTVSPropertyOp31
 70
     1
102
RTVSPropertyOp32
 70
     1
  0
ENDSEC
  0
EOF
