  0
SECTION
  2
HEADER
  9
$ACADVER
  1
AC1018
  9
$ACADMAINTVER
 70
     0
  9
$DWGCODEPAGE
  3
ANSI_932
  9
$LASTSAVEDBY
  1
小谷 浩和
  9
$INSBASE
 10
0.0
 20
0.0
 30
0.0
  9
$EXTMIN
 10
68.82474268952706
 20
77.06182284688884
 30
0.0
  9
$EXTMAX
 10
1868.880401932073
 20
1278.610310754382
 30
0.0
  9
$LIMMIN
 10
0.0
 20
0.0
  9
$LIMMAX
 10
12.0
 20
9.0
  9
$ORTHOMODE
 70
     1
  9
$REGENMODE
 70
     1
  9
$FILLMODE
 70
     1
  9
$QTEXTMODE
 70
     0
  9
$MIRRTEXT
 70
     0
  9
$LTSCALE
 40
1.0
  9
$ATTMODE
 70
     1
  9
$TEXTSIZE
 40
0.2
  9
$TRACEWID
 40
0.05
  9
$TEXTSTYLE
  7
Standard
  9
$CLAYER
  8
0
  9
$CELTYPE
  6
ByLayer
  9
$CECOLOR
 62
   256
  9
$CELTSCALE
 40
1.0
  9
$DISPSILH
 70
     0
  9
$DIMSCALE
 40
1.0
  9
$DIMASZ
 40
0.18
  9
$DIMEXO
 40
0.0625
  9
$DIMDLI
 40
0.38
  9
$DIMRND
 40
0.0
  9
$DIMDLE
 40
0.0
  9
$DIMEXE
 40
0.18
  9
$DIMTP
 40
0.0
  9
$DIMTM
 40
0.0
  9
$DIMTXT
 40
0.18
  9
$DIMCEN
 40
0.09
  9
$DIMTSZ
 40
0.0
  9
$DIMTOL
 70
     0
  9
$DIMLIM
 70
     0
  9
$DIMTIH
 70
     1
  9
$DIMTOH
 70
     1
  9
$DIMSE1
 70
     0
  9
$DIMSE2
 70
     0
  9
$DIMTAD
 70
     0
  9
$DIMZIN
 70
     0
  9
$DIMBLK
  1

  9
$DIMASO
 70
     1
  9
$DIMSHO
 70
     1
  9
$DIMPOST
  1

  9
$DIMAPOST
  1

  9
$DIMALT
 70
     0
  9
$DIMALTD
 70
     2
  9
$DIMALTF
 40
25.4
  9
$DIMLFAC
 40
1.0
  9
$DIMTOFL
 70
     0
  9
$DIMTVP
 40
0.0
  9
$DIMTIX
 70
     0
  9
$DIMSOXD
 70
     0
  9
$DIMSAH
 70
     0
  9
$DIMBLK1
  1

  9
$DIMBLK2
  1

  9
$DIMSTYLE
  2
Standard
  9
$DIMCLRD
 70
     0
  9
$DIMCLRE
 70
     0
  9
$DIMCLRT
 70
     0
  9
$DIMTFAC
 40
1.0
  9
$DIMGAP
 40
0.09
  9
$DIMJUST
 70
     0
  9
$DIMSD1
 70
     0
  9
$DIMSD2
 70
     0
  9
$DIMTOLJ
 70
     1
  9
$DIMTZIN
 70
     0
  9
$DIMALTZ
 70
     0
  9
$DIMALTTZ
 70
     0
  9
$DIMUPT
 70
     0
  9
$DIMDEC
 70
     4
  9
$DIMTDEC
 70
     4
  9
$DIMALTU
 70
     2
  9
$DIMALTTD
 70
     2
  9
$DIMTXSTY
  7
Standard
  9
$DIMAUNIT
 70
     0
  9
$DIMADEC
 70
     0
  9
$DIMALTRND
 40
0.0
  9
$DIMAZIN
 70
     0
  9
$DIMDSEP
 70
    46
  9
$DIMATFIT
 70
     3
  9
$DIMFRAC
 70
     0
  9
$DIMLDRBLK
  1

  9
$DIMLUNIT
 70
     2
  9
$DIMLWD
 70
    -2
  9
$DIMLWE
 70
    -2
  9
$DIMTMOVE
 70
     0
  9
$LUNITS
 70
     2
  9
$LUPREC
 70
     4
  9
$SKETCHINC
 40
0.1
  9
$FILLETRAD
 40
0.0
  9
$AUNITS
 70
     0
  9
$AUPREC
 70
     0
  9
$MENU
  1
.
  9
$ELEVATION
 40
0.0
  9
$PELEVATION
 40
0.0
  9
$THICKNESS
 40
0.0
  9
$LIMCHECK
 70
     0
  9
$CHAMFERA
 40
0.0
  9
$CHAMFERB
 40
0.0
  9
$CHAMFERC
 40
0.0
  9
$CHAMFERD
 40
0.0
  9
$SKPOLY
 70
     0
  9
$TDCREATE
 40
2452643.438384271
  9
$TDUCREATE
 40
2452643.063384271
  9
$TDUPDATE
 40
2457302.846558634
  9
$TDUUPDATE
 40
2457302.471558634
  9
$TDINDWG
 40
0.243229213
  9
$TDUSRTIMER
 40
2457302.470753808
  9
$USRTIMER
 70
     1
  9
$ANGBASE
 50
0.0
  9
$ANGDIR
 70
     0
  9
$PDMODE
 70
     0
  9
$PDSIZE
 40
0.0
  9
$PLINEWID
 40
0.0
  9
$SPLFRAME
 70
     0
  9
$SPLINETYPE
 70
     6
  9
$SPLINESEGS
 70
     8
  9
$HANDSEED
  5
6627
  9
$SURFTAB1
 70
     6
  9
$SURFTAB2
 70
     6
  9
$SURFTYPE
 70
     6
  9
$SURFU
 70
     6
  9
$SURFV
 70
     6
  9
$UCSBASE
  2

  9
$UCSNAME
  2

  9
$UCSORG
 10
0.0
 20
0.0
 30
0.0
  9
$UCSXDIR
 10
1.0
 20
0.0
 30
0.0
  9
$UCSYDIR
 10
0.0
 20
1.0
 30
0.0
  9
$UCSORTHOREF
  2

  9
$UCSORTHOVIEW
 70
     0
  9
$UCSORGTOP
 10
0.0
 20
0.0
 30
0.0
  9
$UCSORGBOTTOM
 10
0.0
 20
0.0
 30
0.0
  9
$UCSORGLEFT
 10
0.0
 20
0.0
 30
0.0
  9
$UCSORGRIGHT
 10
0.0
 20
0.0
 30
0.0
  9
$UCSORGFRONT
 10
0.0
 20
0.0
 30
0.0
  9
$UCSORGBACK
 10
0.0
 20
0.0
 30
0.0
  9
$PUCSBASE
  2

  9
$PUCSNAME
  2

  9
$PUCSORG
 10
0.0
 20
0.0
 30
0.0
  9
$PUCSXDIR
 10
1.0
 20
0.0
 30
0.0
  9
$PUCSYDIR
 10
0.0
 20
1.0
 30
0.0
  9
$PUCSORTHOREF
  2

  9
$PUCSORTHOVIEW
 70
     0
  9
$PUCSORGTOP
 10
0.0
 20
0.0
 30
0.0
  9
$PUCSORGBOTTOM
 10
0.0
 20
0.0
 30
0.0
  9
$PUCSORGLEFT
 10
0.0
 20
0.0
 30
0.0
  9
$PUCSORGRIGHT
 10
0.0
 20
0.0
 30
0.0
  9
$PUCSORGFRONT
 10
0.0
 20
0.0
 30
0.0
  9
$PUCSORGBACK
 10
0.0
 20
0.0
 30
0.0
  9
$USERI1
 70
     0
  9
$USERI2
 70
     0
  9
$USERI3
 70
     0
  9
$USERI4
 70
     0
  9
$USERI5
 70
     0
  9
$USERR1
 40
0.0
  9
$USERR2
 40
0.0
  9
$USERR3
 40
0.0
  9
$USERR4
 40
0.0
  9
$USERR5
 40
0.0
  9
$WORLDVIEW
 70
     1
  9
$SHADEDGE
 70
     3
  9
$SHADEDIF
 70
    70
  9
$TILEMODE
 70
     1
  9
$MAXACTVP
 70
    64
  9
$PINSBASE
 10
0.0
 20
0.0
 30
0.0
  9
$PLIMCHECK
 70
     0
  9
$PEXTMIN
 10
1.05
 20
0.6999999999999997
 30
0.0
  9
$PEXTMAX
 10
9.45
 20
6.300000000000001
 30
0.0
  9
$PLIMMIN
 10
-0.25
 20
-0.7499999999999999
  9
$PLIMMAX
 10
10.75
 20
7.75
  9
$UNITMODE
 70
     0
  9
$VISRETAIN
 70
     1
  9
$PLINEGEN
 70
     0
  9
$PSLTSCALE
 70
     1
  9
$TREEDEPTH
 70
  3020
  9
$CMLSTYLE
  2
Standard
  9
$CMLJUST
 70
     0
  9
$CMLSCALE
 40
1.0
  9
$PROXYGRAPHICS
 70
     1
  9
$MEASUREMENT
 70
     0
  9
$CELWEIGHT
370
    -1
  9
$ENDCAPS
280
     0
  9
$JOINSTYLE
280
     0
  9
$LWDISPLAY
290
     0
  9
$INSUNITS
 70
     1
  9
$HYPERLINKBASE
  1

  9
$STYLESHEET
  1

  9
$XEDIT
290
     1
  9
$CEPSNTYPE
380
     0
  9
$PSTYLEMODE
290
     0
  9
$FINGERPRINTGUID
  2
{FDEAD576-A652-11D2-9A35-0060089B3A3F}
  9
$VERSIONGUID
  2
{3A74DC51-18D9-45ED-8146-14E57E9F22F0}
  9
$EXTNAMES
290
     1
  9
$PSVPSCALE
 40
0.0
  9
$OLESTARTUP
290
     0
  9
$SORTENTS
280
   127
  9
$INDEXCTL
280
     0
  9
$HIDETEXT
280
     1
  9
$XCLIPFRAME
290
     0
  9
$HALOGAP
280
     0
  9
$OBSCOLOR
 70
   257
  9
$OBSLTYPE
280
     0
  9
$INTERSECTIONDISPLAY
280
     0
  9
$INTERSECTIONCOLOR
 70
   257
  9
$DIMASSOC
280
     2
  9
$PROJECTNAME
  1

  0
ENDSEC
  0
SECTION
  2
CLASSES
  0
CLASS
  1
ACDBDICTIONARYWDFLT
  2
AcDbDictionaryWithDefault
  3
ObjectDBX Classes
 90
        0
 91
        4
280
     0
281
     0
  0
CLASS
  1
ACDBPLACEHOLDER
  2
AcDbPlaceHolder
  3
ObjectDBX Classes
 90
        0
 91
        1
280
     0
281
     0
  0
CLASS
  1
LAYOUT
  2
AcDbLayout
  3
ObjectDBX Classes
 90
        0
 91
        1
280
     0
281
     0
  0
CLASS
  1
DICTIONARYVAR
  2
AcDbDictionaryVar
  3
ObjectDBX Classes
 90
        0
 91
        4
280
     0
281
     0
  0
CLASS
  1
TABLESTYLE
  2
AcDbTableStyle
  3
ObjectDBX Classes
 90
     4095
 91
        4
280
     0
281
     0
  0
CLASS
  1
MATERIAL
  2
AcDbMaterial
  3
ObjectDBX Classes
 90
     1153
 91
        4
280
     0
281
     0
  0
CLASS
  1
VISUALSTYLE
  2
AcDbVisualStyle
  3
ObjectDBX Classes
 90
     4095
 91
        4
280
     0
281
     0
  0
CLASS
  1
SCALE
  2
AcDbScale
  3
ObjectDBX Classes
 90
     1153
 91
        4
280
     0
281
     0
  0
CLASS
  1
CELLSTYLEMAP
  2
AcDbCellStyleMap
  3
ObjectDBX Classes
 90
     1152
 91
        4
280
     0
281
     0
  0
CLASS
  1
RASTERVARIABLES
  2
AcDbRasterVariables
  3
ISM
 90
        0
 91
        4
280
     0
281
     0
  0
CLASS
  1
SUN
  2
AcDbSun
  3
SCENEOE
 90
     1153
 91
        4
280
     0
281
     0
  0
CLASS
  1
MLEADERSTYLE
  2
AcDbMLeaderStyle
  3
ACDB_MLEADERSTYLE_CLASS
 90
     4095
 91
        4
280
     0
281
     0
  0
CLASS
  1
SORTENTSTABLE
  2
AcDbSortentsTable
  3
ObjectDBX Classes
 90
        0
 91
        4
280
     0
281
     0
  0
CLASS
  1
DIMASSOC
  2
AcDbDimAssoc
  3
"AcDbDimAssoc|Product Desc:     AcDim ARX App For Dimension|Company:          Autodesk, Inc.|WEB Address:      www.autodesk.com"
 90
        0
 91
        4
280
     0
281
     0
  0
CLASS
  1
ACDBSECTIONVIEWSTYLE
  2
AcDbSectionViewStyle
  3
ObjectDBX Classes
 90
     1025
 91
        4
280
     0
281
     0
  0
CLASS
  1
ACDBDETAILVIEWSTYLE
  2
AcDbDetailViewStyle
  3
ObjectDBX Classes
 90
     1025
 91
        4
280
     0
281
     0
  0
ENDSEC
  0
SECTION
  2
TABLES
  0
TABLE
  2
VPORT
  5
8
330
0
100
AcDbSymbolTable
 70
     1
  0
VPORT
  5
94
330
8
100
AcDbSymbolTableRecord
100
AcDbViewportTableRecord
  2
*Active
 70
     0
 10
0.0
 20
0.0
 11
1.0
 21
1.0
 12
832.7556314363205
 22
419.6308282447764
 13
0.0
 23
0.0
 14
0.5
 24
0.5
 15
0.5
 25
0.5
 16
0.0
 26
0.0
 36
1.0
 17
-27.66959356609732
 27
-19.538702957856
 37
0.0
 40
1601.376291545375
 41
1.675579322638146
 42
50.0
 43
0.0
 44
0.0
 50
0.0
 51
0.0
 71
    16
 72
   100
 73
     1
 74
     3
 75
     0
 76
     0
 77
     0
 78
     0
281
     0
 65
     1
110
0.0
120
0.0
130
0.0
111
1.0
121
0.0
131
0.0
112
0.0
122
1.0
132
0.0
 79
     0
146
0.0
1001
ACAD_NAV_VCDISPLAY
1070
     3
  0
ENDTAB
  0
TABLE
  2
LTYPE
  5
5
330
0
100
AcDbSymbolTable
 70
     8
  0
LTYPE
  5
14
330
5
100
AcDbSymbolTableRecord
100
AcDbLinetypeTableRecord
  2
ByBlock
 70
     0
  3

 72
    65
 73
     0
 40
0.0
  0
LTYPE
  5
15
330
5
100
AcDbSymbolTableRecord
100
AcDbLinetypeTableRecord
  2
ByLayer
 70
     0
  3

 72
    65
 73
     0
 40
0.0
  0
LTYPE
  5
16
330
5
100
AcDbSymbolTableRecord
100
AcDbLinetypeTableRecord
  2
Continuous
 70
     0
  3
Solid line
 72
    65
 73
     0
 40
0.0
  0
LTYPE
  5
12C
330
5
100
AcDbSymbolTableRecord
100
AcDbLinetypeTableRecord
  2
CENTER
 70
     0
  3
 Center ____ _ ____ _ ____ _ ____ _ ____ _ ____
 72
    65
 73
     4
 40
2.0
 49
1.25
 74
     0
 49
-0.25
 74
     0
 49
0.25
 74
     0
 49
-0.25
 74
     0
  0
LTYPE
  5
8D0
330
5
100
AcDbSymbolTableRecord
100
AcDbLinetypeTableRecord
  2
DASHED
 70
     0
  3
__ __ __ __ __ __ __ __ __ __ __ __ __ __ __
 72
    65
 73
     2
 40
0.75
 49
0.5
 74
     0
 49
-0.25
 74
     0
  0
LTYPE
  5
8D1
330
5
100
AcDbSymbolTableRecord
100
AcDbLinetypeTableRecord
  2
HIDDEN
 70
     0
  3
_ _ _ _ _ _ _ _ _ _ _ _ _ _ _ _ _ _ _ _ _ _ _
 72
    65
 73
     2
 40
0.375
 49
0.25
 74
     0
 49
-0.125
 74
     0
  0
LTYPE
  5
8D2
330
5
100
AcDbSymbolTableRecord
100
AcDbLinetypeTableRecord
  2
PHANTOM
 70
     0
  3
Phantom ______  __  __  ______  __  __  ______
 72
    65
 73
     6
 40
63.5
 49
31.75
 74
     0
 49
-6.349999999999998
 74
     0
 49
6.349999999999998
 74
     0
 49
-6.349999999999998
 74
     0
 49
6.349999999999998
 74
     0
 49
-6.349999999999998
 74
     0
  0
LTYPE
  5
2D9F
330
5
100
AcDbSymbolTableRecord
100
AcDbLinetypeTableRecord
  2
CENTERX2
 70
     0
  3
Center (2x) ________  __  ________  __  _____
 72
    65
 73
     4
 40
20.32
 49
12.7
 74
     0
 49
-2.54
 74
     0
 49
2.54
 74
     0
 49
-2.54
 74
     0
  0
LTYPE
  5
49AA
330
5
100
AcDbSymbolTableRecord
100
AcDbLinetypeTableRecord
  2
AI-Linetype-3
 70
     0
  3
Adobe Illustrator Linetype No. 3
 72
    65
 73
     6
 40
25.00000001626731
 49
19.99999987843981
 74
     0
 49
-1.000000027565501
 74
     0
 49
1.000000027565501
 74
     0
 49
-1.000000027565501
 74
     0
 49
1.000000027565501
 74
     0
 49
-1.000000027565501
 74
     0
  0
LTYPE
  5
49AB
330
5
100
AcDbSymbolTableRecord
100
AcDbLinetypeTableRecord
  2
AI-Linetype-4
 70
     0
  3
Adobe Illustrator Linetype No. 4
 72
    65
 73
     6
 40
25.00000001626731
 49
19.99999987843981
 74
     0
 49
-1.000000027565501
 74
     0
 49
1.000000027565501
 74
     0
 49
-1.000000027565501
 74
     0
 49
1.000000027565501
 74
     0
 49
-1.000000027565501
 74
     0
  0
ENDTAB
  0
TABLE
  2
LAYER
  5
2
102
{ACAD_XDICTIONARY
360
22F
102
}
330
0
100
AcDbSymbolTable
 70
    18
  0
LAYER
  5
10
330
2
100
AcDbSymbolTableRecord
100
AcDbLayerTableRecord
  2
0
 70
     0
 62
     7
  6
Continuous
370
    -3
390
F
  0
LAYER
  5
126
330
2
100
AcDbSymbolTableRecord
100
AcDbLayerTableRecord
  2
Defpoints
 70
     0
 62
     7
  6
Continuous
290
     0
370
    -3
390
F
  0
LAYER
  5
127
330
2
100
AcDbSymbolTableRecord
100
AcDbLayerTableRecord
  2
1TEXT
 70
     0
 62
     7
  6
Continuous
370
    -3
390
F
  0
LAYER
  5
12B
330
2
100
AcDbSymbolTableRecord
100
AcDbLayerTableRecord
  2
C2
 70
     0
 62
     1
  6
CENTER
370
    -3
390
F
  0
LAYER
  5
12D
330
2
100
AcDbSymbolTableRecord
100
AcDbLayerTableRecord
  2
C4
 70
     0
 62
     3
  6
Continuous
370
    -3
390
F
  0
LAYER
  5
12E
330
2
100
AcDbSymbolTableRecord
100
AcDbLayerTableRecord
  2
C寸法
 70
     0
 62
     4
  6
Continuous
370
    -3
390
F
  0
LAYER
  5
12F
330
2
100
AcDbSymbolTableRecord
100
AcDbLayerTableRecord
  2
寸法線
 70
     0
 62
     4
  6
Continuous
370
    -3
390
F
  0
LAYER
  5
329
330
2
100
AcDbSymbolTableRecord
100
AcDbLayerTableRecord
  2
A3
 70
     0
 62
     6
  6
Continuous
370
    -3
390
F
  0
LAYER
  5
40A
102
{ACAD_XDICTIONARY
360
40B
102
}
330
2
100
AcDbSymbolTableRecord
100
AcDbLayerTableRecord
  2
T7
 70
     0
 62
     7
  6
Continuous
370
    -3
390
F
  0
LAYER
  5
8D3
330
2
100
AcDbSymbolTableRecord
100
AcDbLayerTableRecord
  2
WAKU
 70
     0
 62
     5
  6
Continuous
370
    -3
390
F
  0
LAYER
  5
8D5
330
2
100
AcDbSymbolTableRecord
100
AcDbLayerTableRecord
  2
C5
 70
     0
 62
     2
  6
DASHED
370
    -3
390
F
  0
LAYER
  5
8D7
330
2
100
AcDbSymbolTableRecord
100
AcDbLayerTableRecord
  2
C7
 70
     0
 62
     7
  6
Continuous
370
    -3
390
F
  0
LAYER
  5
8D9
330
2
100
AcDbSymbolTableRecord
100
AcDbLayerTableRecord
  2
A5
 70
     0
 62
     4
  6
Continuous
370
    -3
390
F
  0
LAYER
  5
8DB
330
2
100
AcDbSymbolTableRecord
100
AcDbLayerTableRecord
  2
画層3
 70
     0
 62
     6
  6
Continuous
370
    -3
390
F
1001
AcAecLayerStandard
1000

1000

  0
LAYER
  5
1A35
330
2
100
AcDbSymbolTableRecord
100
AcDbLayerTableRecord
  2
SUNPOU
 70
     0
 62
     4
  6
Continuous
370
    -3
390
F
  0
LAYER
  5
2D9C
102
{ACAD_XDICTIONARY
360
2D9D
102
}
330
2
100
AcDbSymbolTableRecord
100
AcDbLayerTableRecord
  2
D2
 70
     0
 62
     1
  6
Continuous
370
    -3
390
F
  0
LAYER
  5
49A4
102
{ACAD_XDICTIONARY
360
49A5
102
}
330
2
100
AcDbSymbolTableRecord
100
AcDbLayerTableRecord
  2
7
 70
     0
 62
     7
  6
Continuous
370
    -3
390
F
  0
LAYER
  5
49A7
330
2
100
AcDbSymbolTableRecord
100
AcDbLayerTableRecord
  2
_U+30EC_U+30A4_U+30E4_U+30FC 1
 70
     0
 62
     7
  6
Continuous
370
    -3
390
F
  0
ENDTAB
  0
TABLE
  2
STYLE
  5
3
330
0
100
AcDbSymbolTable
 70
     6
  0
STYLE
  5
11
330
3
100
AcDbSymbolTableRecord
100
AcDbTextStyleTableRecord
  2
Standard
 70
     0
 40
0.0
 41
1.0
 50
0.0
 71
     0
 42
0.2
  3
arial.ttf
  4

1001
ACAD
1000
Arial
1071
        0
  0
STYLE
  5
13F
330
3
100
AcDbSymbolTableRecord
100
AcDbTextStyleTableRecord
  2
ゴシック
 70
     0
 40
0.0
 41
1.0
 50
0.0
 71
     0
 42
0.2
  3

  4

1001
ACAD
1000
MS Gothic
1071
    32817
  0
STYLE
  5
140
330
3
100
AcDbSymbolTableRecord
100
AcDbTextStyleTableRecord
  2
KANJI
 70
     0
 40
0.0
 41
1.0
 50
0.0
 71
     0
 42
0.2
  3
romans
  4
bigfont
  0
STYLE
  5
414
330
3
100
AcDbSymbolTableRecord
100
AcDbTextStyleTableRecord
  2
KANJIT
 70
     0
 40
0.0
 41
1.0
 50
0.0
 71
     0
 42
0.2
  3
romans.shx
  4
bigfont.shx
  0
STYLE
  5
8DC
330
3
100
AcDbSymbolTableRecord
100
AcDbTextStyleTableRecord
  2
ROMAND
 70
     0
 40
0.0
 41
1.0
 50
0.0
 71
     0
 42
3.0
  3
romand
  4

  0
STYLE
  5
2DA3
330
3
100
AcDbSymbolTableRecord
100
AcDbTextStyleTableRecord
  2
SLDTEXTSTYLE1
 70
     0
 40
0.0
 41
0.75
 50
0.0
 71
     0
 42
0.2
  3
TXT
  4
bigfont
  0
ENDTAB
  0
TABLE
  2
VIEW
  5
6
330
0
100
AcDbSymbolTable
 70
     0
  0
ENDTAB
  0
TABLE
  2
UCS
  5
7
330
0
100
AcDbSymbolTable
 70
     0
  0
ENDTAB
  0
TABLE
  2
APPID
  5
9
330
0
100
AcDbSymbolTable
 70
    12
  0
APPID
  5
12
330
9
100
AcDbSymbolTableRecord
100
AcDbRegAppTableRecord
  2
ACAD
 70
     0
  0
APPID
  5
138
330
9
100
AcDbSymbolTableRecord
100
AcDbRegAppTableRecord
  2
ACAD_DSTYLE_DIMBREAK
 70
     0
  0
APPID
  5
139
330
9
100
AcDbSymbolTableRecord
100
AcDbRegAppTableRecord
  2
ACAD_DSTYLE_DIMJAG
 70
     0
  0
APPID
  5
13A
330
9
100
AcDbSymbolTableRecord
100
AcDbRegAppTableRecord
  2
ACAD_DSTYLE_DIMTALN
 70
     0
  0
APPID
  5
13C
330
9
100
AcDbSymbolTableRecord
100
AcDbRegAppTableRecord
  2
ACAD_PSEXT
 70
     0
  0
APPID
  5
13D
330
9
100
AcDbSymbolTableRecord
100
AcDbRegAppTableRecord
  2
ACAD_NAV_VCDISPLAY
 70
     0
  0
APPID
  5
13E
330
9
100
AcDbSymbolTableRecord
100
AcDbRegAppTableRecord
  2
ACAD_DSTYLE_DIMRADIAL_EXTENSION
 70
     0
  0
APPID
  5
4F1
330
9
100
AcDbSymbolTableRecord
100
AcDbRegAppTableRecord
  2
PE_DIMMEASUREMENT
 70
     0
  0
APPID
  5
56E
330
9
100
AcDbSymbolTableRecord
100
AcDbRegAppTableRecord
  2
ACAD_MLEADERVER
 70
     0
  0
APPID
  5
56F
330
9
100
AcDbSymbolTableRecord
100
AcDbRegAppTableRecord
  2
ACAD_DSTYLE_DIMEXT_LENGTH
 70
     0
  0
APPID
  5
61A
330
9
100
AcDbSymbolTableRecord
100
AcDbRegAppTableRecord
  2
ACAD_EXEMPT_FROM_CAD_STANDARDS
 70
     0
  0
APPID
  5
8DD
330
9
100
AcDbSymbolTableRecord
100
AcDbRegAppTableRecord
  2
AcAecLayerStandard
 70
     0
  0
ENDTAB
  0
TABLE
  2
DIMSTYLE
  5
A
330
0
100
AcDbSymbolTable
 70
     8
100
AcDbDimStyleTable
  0
DIMSTYLE
105
27
330
A
100
AcDbSymbolTableRecord
100
AcDbDimStyleTableRecord
  2
Standard
 70
     0
178
     0
340
11
  0
DIMSTYLE
105
130
330
A
100
AcDbSymbolTableRecord
100
AcDbDimStyleTableRecord
  2
実寸
 70
     0
 41
25.0
 42
10.0
 43
6.0
 44
0.0
 47
5.0
 73
     0
 74
     0
 77
     1
 78
     8
140
25.0
141
0.0
144
5.0
147
5.0
178
     0
271
     1
272
     1
284
     8
340
11
341
132
342
132
1001
ACAD_DSTYLE_DIMBREAK
1070
   391
1040
0.125
1001
ACAD_DSTYLE_DIMJAG
1070
   388
1040
1.5
1001
ACAD_DSTYLE_DIMTALN
1070
   392
1070
     0
  0
DIMSTYLE
105
13B
330
A
100
AcDbSymbolTableRecord
100
AcDbDimStyleTableRecord
  2
実寸2
 70
     0
 41
25.0
 42
10.0
 43
6.0
 44
0.0
 47
5.0
 77
     1
 78
     8
140
25.0
141
0.0
147
5.0
178
     0
271
     1
272
     1
284
     8
340
11
341
132
342
132
1001
ACAD_DSTYLE_DIMBREAK
1070
   391
1040
0.125
1001
ACAD_DSTYLE_DIMJAG
1070
   388
1040
1.5
1001
ACAD_DSTYLE_DIMTALN
1070
   392
1070
     0
  0
DIMSTYLE
105
2DA2
330
A
100
AcDbSymbolTableRecord
100
AcDbDimStyleTableRecord
  2
SLDDIMSTYLE0
 70
     0
 41
3.302
 44
0.0
 45
0.000000001
 73
     0
 74
     0
 77
     1
 78
    12
 79
     3
140
3.5
144
5.0
147
0.875
172
     1
173
     1
178
     0
271
     6
272
     2
276
     2
284
    12
289
     0
340
2DA3
  0
DIMSTYLE
105
2DA4
330
A
100
AcDbSymbolTableRecord
100
AcDbDimStyleTableRecord
  2
SLDDIMSTYLE1
 70
     0
 41
3.302
 44
0.0
 45
0.000000001
 73
     0
 74
     0
 77
     1
 78
     4
 79
     1
140
3.5
144
5.0
147
0.875
172
     1
173
     1
178
     0
271
     2
272
     2
276
     2
284
    12
289
     0
340
2DA3
  0
DIMSTYLE
105
2DA5
330
A
100
AcDbSymbolTableRecord
100
AcDbDimStyleTableRecord
  2
SLDDIMSTYLE2
 70
     0
 41
3.302
 44
0.0
 45
0.000000001
 73
     0
 74
     0
 77
     1
 78
    12
 79
     3
140
3.5
144
5.0
147
0.875
172
     1
173
     1
178
     0
271
     2
272
     2
276
     2
284
    12
289
     0
340
2DA3
  0
DIMSTYLE
105
2DA6
330
A
100
AcDbSymbolTableRecord
100
AcDbDimStyleTableRecord
  2
SLDDIMSTYLE3
 70
     0
 41
3.302
 44
0.0
 45
0.000000001
 73
     0
 74
     0
 77
     1
 78
    12
 79
     3
140
3.5
144
5.0
147
0.875
173
     1
178
     0
271
     6
272
     2
276
     2
284
    12
340
2DA3
  0
DIMSTYLE
105
5E60
102
{ACAD_REACTORS
330
62FC
330
62FD
330
62FE
330
6300
102
}
330
A
100
AcDbSymbolTableRecord
100
AcDbDimStyleTableRecord
  2
ISO-25
 70
     0
 41
2.5
 42
0.625
 43
3.75
 44
1.25
 73
     0
 74
     0
 77
     1
 78
     8
140
2.5
141
2.5
143
0.03937007874016
147
0.625
171
     3
172
     1
178
     0
271
     2
272
     2
274
     3
278
    44
283
     0
284
     8
340
11
  0
ENDTAB
  0
TABLE
  2
BLOCK_RECORD
  5
1
330
0
100
AcDbSymbolTable
 70
    25
  0
BLOCK_RECORD
  5
1F
102
{ACAD_XDICTIONARY
360
700
102
}
330
1
100
AcDbSymbolTableRecord
100
AcDbBlockTableRecord
  2
*Model_Space
340
22
  0
BLOCK_RECORD
  5
58
330
1
100
AcDbSymbolTableRecord
100
AcDbBlockTableRecord
  2
*Paper_Space
340
59
  0
BLOCK_RECORD
  5
5D
330
1
100
AcDbSymbolTableRecord
100
AcDbBlockTableRecord
  2
*Paper_Space0
340
5E
  0
BLOCK_RECORD
  5
132
330
1
100
AcDbSymbolTableRecord
100
AcDbBlockTableRecord
  2
_Open
340
0
102
{BLKREFS
331
63E6
331
63E7
331
0
331
0
331
63F9
331
63FA
331
6404
331
6405
331
63F2
331
63F3
102
}
  0
BLOCK_RECORD
  5
18FD
330
1
100
AcDbSymbolTableRecord
100
AcDbBlockTableRecord
  2
SW_CENTERMARKSYMBOL_6
340
0
  0
BLOCK_RECORD
  5
1908
330
1
100
AcDbSymbolTableRecord
100
AcDbBlockTableRecord
  2
SW_CENTERMARKSYMBOL_7
340
0
  0
BLOCK_RECORD
  5
1913
330
1
100
AcDbSymbolTableRecord
100
AcDbBlockTableRecord
  2
SW_CENTERMARKSYMBOL_8
340
0
  0
BLOCK_RECORD
  5
191E
330
1
100
AcDbSymbolTableRecord
100
AcDbBlockTableRecord
  2
SW_CENTERMARKSYMBOL_9
340
0
  0
BLOCK_RECORD
  5
1929
330
1
100
AcDbSymbolTableRecord
100
AcDbBlockTableRecord
  2
SW_CENTERMARKSYMBOL_12
340
0
  0
BLOCK_RECORD
  5
1934
330
1
100
AcDbSymbolTableRecord
100
AcDbBlockTableRecord
  2
SW_CENTERMARKSYMBOL_13
340
0
  0
BLOCK_RECORD
  5
315C
330
1
100
AcDbSymbolTableRecord
100
AcDbBlockTableRecord
  2
SW_CENTERMARKSYMBOL_0
340
0
  0
BLOCK_RECORD
  5
3168
330
1
100
AcDbSymbolTableRecord
100
AcDbBlockTableRecord
  2
SW_CENTERMARKSYMBOL_1
340
0
  0
BLOCK_RECORD
  5
3174
330
1
100
AcDbSymbolTableRecord
100
AcDbBlockTableRecord
  2
SW_CENTERMARKSYMBOL_4
340
0
  0
BLOCK_RECORD
  5
3269
330
1
100
AcDbSymbolTableRecord
100
AcDbBlockTableRecord
  2
SW_CENTERMARKSYMBOL_10
340
0
  0
BLOCK_RECORD
  5
3275
330
1
100
AcDbSymbolTableRecord
100
AcDbBlockTableRecord
  2
SW_CENTERMARKSYMBOL_11
340
0
  0
BLOCK_RECORD
  5
3299
330
1
100
AcDbSymbolTableRecord
100
AcDbBlockTableRecord
  2
SW_CENTERMARKSYMBOL_14
340
0
  0
BLOCK_RECORD
  5
32A5
330
1
100
AcDbSymbolTableRecord
100
AcDbBlockTableRecord
  2
SW_CENTERMARKSYMBOL_17
340
0
  0
BLOCK_RECORD
  5
32B1
330
1
100
AcDbSymbolTableRecord
100
AcDbBlockTableRecord
  2
SW_CENTERMARKSYMBOL_18
340
0
  0
BLOCK_RECORD
  5
32BD
330
1
100
AcDbSymbolTableRecord
100
AcDbBlockTableRecord
  2
SW_CENTERMARKSYMBOL_19
340
0
  0
BLOCK_RECORD
  5
3384
330
1
100
AcDbSymbolTableRecord
100
AcDbBlockTableRecord
  2
SW_CENTERMARKSYMBOL_20
340
0
  0
BLOCK_RECORD
  5
3390
330
1
100
AcDbSymbolTableRecord
100
AcDbBlockTableRecord
  2
SW_CENTERMARKSYMBOL_22
340
0
  0
BLOCK_RECORD
  5
33F2
330
1
100
AcDbSymbolTableRecord
100
AcDbBlockTableRecord
  2
SW_CENTERMARKSYMBOL_25
340
0
  0
BLOCK_RECORD
  5
33FE
330
1
100
AcDbSymbolTableRecord
100
AcDbBlockTableRecord
  2
SW_CENTERMARKSYMBOL_26
340
0
  0
BLOCK_RECORD
  5
632C
330
1
100
AcDbSymbolTableRecord
100
AcDbBlockTableRecord
  2
*D21
340
0
  0
BLOCK_RECORD
  5
6338
330
1
100
AcDbSymbolTableRecord
100
AcDbBlockTableRecord
  2
*D22
340
0
  0
BLOCK_RECORD
  5
6344
330
1
100
AcDbSymbolTableRecord
100
AcDbBlockTableRecord
  2
*D23
340
0
  0
BLOCK_RECORD
  5
6360
330
1
100
AcDbSymbolTableRecord
100
AcDbBlockTableRecord
  2
*D24
340
0
  0
ENDTAB
  0
ENDSEC
  0
SECTION
  2
BLOCKS
  0
BLOCK
  5
20
330
1F
100
AcDbEntity
  8
0
100
AcDbBlockBegin
  2
*Model_Space
 70
     0
 10
0.0
 20
0.0
 30
0.0
  3
*Model_Space
  1
*Model_Space
  0
ENDBLK
  5
21
330
1F
100
AcDbEntity
  8
0
100
AcDbBlockEnd
  0
BLOCK
  5
5A
330
58
100
AcDbEntity
 67
     1
  8
0
100
AcDbBlockBegin
  2
*Paper_Space
 70
     0
 10
0.0
 20
0.0
 30
0.0
  3
*Paper_Space
  1
*Paper_Space
  0
ENDBLK
  5
5B
330
58
100
AcDbEntity
 67
     1
  8
0
100
AcDbBlockEnd
  0
BLOCK
  5
5F
330
5D
100
AcDbEntity
  8
0
100
AcDbBlockBegin
  2
*Paper_Space0
 70
     0
 10
0.0
 20
0.0
 30
0.0
  3
*Paper_Space0
  1
*Paper_Space0
  0
VIEWPORT
  5
316
330
5D
100
AcDbEntity
  8
0
100
AcDbViewport
 10
5.25
 20
3.5
 30
0.0
 40
12.6
 41
8.4
 68
     1
 69
     1
 12
5.25
 22
3.5
 13
0.0
 23
0.0
 14
0.5
 24
0.5
 15
0.0
 25
0.0
 16
0.0
 26
0.0
 36
1.0
 17
0.0
 27
0.0
 37
0.0
 42
50.0
 43
0.0
 44
0.0
 45
8.4
 50
0.0
 51
0.0
 72
   100
 90
   557152
  1

281
     0
 71
     1
 74
     0
110
0.0
120
0.0
130
0.0
111
1.0
121
0.0
131
0.0
112
0.0
122
1.0
132
0.0
 79
     0
146
0.0
170
     0
  0
VIEWPORT
  5
317
330
5D
100
AcDbEntity
  8
0
100
AcDbViewport
 10
5.25
 20
3.5
 30
0.0
 40
8.4
 41
5.600000000000001
 68
     2
 69
     2
 12
961.1379760160054
 22
579.8046827600779
 13
0.0
 23
0.0
 14
0.5
 24
0.5
 15
0.0
 25
0.0
 16
0.0
 26
0.0
 36
1.0
 17
0.0
 27
0.0
 37
0.0
 42
50.0
 43
0.0
 44
0.0
 45
1106.749263309192
 50
0.0
 51
0.0
 72
   100
 90
   557152
  1

281
     0
 71
     1
 74
     0
110
0.0
120
0.0
130
0.0
111
1.0
121
0.0
131
0.0
112
0.0
122
1.0
132
0.0
 79
     0
146
0.0
170
     0
  0
ENDBLK
  5
60
330
5D
100
AcDbEntity
  8
0
100
AcDbBlockEnd
  0
BLOCK
  5
133
330
132
100
AcDbEntity
  8
0
100
AcDbBlockBegin
  2
_Open
 70
     0
 10
0.0
 20
0.0
 30
0.0
  3
_Open
  1
_Open
  0
LINE
  5
134
330
132
100
AcDbEntity
  8
C4
 62
     0
370
    -2
100
AcDbLine
 10
-1.0
 20
0.1666666666666666
 30
0.0
 11
0.0
 21
0.0
 31
0.0
  0
LINE
  5
135
330
132
100
AcDbEntity
  8
C4
 62
     0
370
    -2
100
AcDbLine
 10
-1.0
 20
-0.1666666666666666
 30
0.0
 11
0.0
 21
0.0
 31
0.0
  0
LINE
  5
136
330
132
100
AcDbEntity
  8
C4
 62
     0
370
    -2
100
AcDbLine
 10
0.0
 20
0.0
 30
0.0
 11
-1.0
 21
0.0
 31
0.0
  0
ENDBLK
  5
137
330
132
100
AcDbEntity
  8
0
100
AcDbBlockEnd
  0
BLOCK
  5
18FE
330
18FD
100
AcDbEntity
  8
0
100
AcDbBlockBegin
  2
SW_CENTERMARKSYMBOL_6
 70
     0
 10
0.0
 20
0.0
 30
0.0
  3
SW_CENTERMARKSYMBOL_6
  1
SW_CENTERMARKSYMBOL_6
  0
LINE
  5
18FF
330
18FD
100
AcDbEntity
  8
0
  6
Continuous
 62
     0
370
     0
100
AcDbLine
 10
0.0
 20
0.0
 30
0.0
 11
10.0
 21
0.0
 31
0.0
  0
LINE
  5
1900
330
18FD
100
AcDbEntity
  8
0
  6
Continuous
 62
     0
370
     0
100
AcDbLine
 10
0.0
 20
0.0
 30
0.0
 11
0.0
 21
10.0
 31
0.0
  0
LINE
  5
1901
330
18FD
100
AcDbEntity
  8
0
  6
Continuous
 62
     0
370
     0
100
AcDbLine
 10
0.0
 20
0.0
 30
0.0
 11
-10.0
 21
0.0
 31
0.0
  0
LINE
  5
1902
330
18FD
100
AcDbEntity
  8
0
  6
Continuous
 62
     0
370
     0
100
AcDbLine
 10
0.0
 20
0.0
 30
0.0
 11
0.0
 21
-10.0
 31
0.0
  0
LINE
  5
1903
330
18FD
100
AcDbEntity
  8
0
  6
Continuous
 62
     0
370
     0
100
AcDbLine
 10
20.0
 20
0.0
 30
0.0
 11
22.0
 21
0.0
 31
0.0
  0
LINE
  5
1904
330
18FD
100
AcDbEntity
  8
0
  6
Continuous
 62
     0
370
     0
100
AcDbLine
 10
0.0
 20
20.0
 30
0.0
 11
0.0
 21
22.0
 31
0.0
  0
LINE
  5
1905
330
18FD
100
AcDbEntity
  8
0
  6
Continuous
 62
     0
370
     0
100
AcDbLine
 10
-20.0
 20
0.0
 30
0.0
 11
-22.0
 21
0.0
 31
0.0
  0
LINE
  5
1906
330
18FD
100
AcDbEntity
  8
0
  6
Continuous
 62
     0
370
     0
100
AcDbLine
 10
0.0
 20
-20.0
 30
0.0
 11
0.0
 21
-22.0
 31
0.0
  0
ENDBLK
  5
1907
330
18FD
100
AcDbEntity
  8
0
100
AcDbBlockEnd
  0
BLOCK
  5
1909
330
1908
100
AcDbEntity
  8
0
100
AcDbBlockBegin
  2
SW_CENTERMARKSYMBOL_7
 70
     0
 10
0.0
 20
0.0
 30
0.0
  3
SW_CENTERMARKSYMBOL_7
  1
SW_CENTERMARKSYMBOL_7
  0
LINE
  5
190A
330
1908
100
AcDbEntity
  8
0
  6
Continuous
 62
     0
370
     0
100
AcDbLine
 10
0.0
 20
0.0
 30
0.0
 11
10.0
 21
0.0
 31
0.0
  0
LINE
  5
190B
330
1908
100
AcDbEntity
  8
0
  6
Continuous
 62
     0
370
     0
100
AcDbLine
 10
0.0
 20
0.0
 30
0.0
 11
0.0
 21
10.0
 31
0.0
  0
LINE
  5
190C
330
1908
100
AcDbEntity
  8
0
  6
Continuous
 62
     0
370
     0
100
AcDbLine
 10
0.0
 20
0.0
 30
0.0
 11
-10.0
 21
0.0
 31
0.0
  0
LINE
  5
190D
330
1908
100
AcDbEntity
  8
0
  6
Continuous
 62
     0
370
     0
100
AcDbLine
 10
0.0
 20
0.0
 30
0.0
 11
0.0
 21
-10.0
 31
0.0
  0
LINE
  5
190E
330
1908
100
AcDbEntity
  8
0
  6
Continuous
 62
     0
370
     0
100
AcDbLine
 10
20.0
 20
0.0
 30
0.0
 11
22.0
 21
0.0
 31
0.0
  0
LINE
  5
190F
330
1908
100
AcDbEntity
  8
0
  6
Continuous
 62
     0
370
     0
100
AcDbLine
 10
0.0
 20
20.0
 30
0.0
 11
0.0
 21
22.0
 31
0.0
  0
LINE
  5
1910
330
1908
100
AcDbEntity
  8
0
  6
Continuous
 62
     0
370
     0
100
AcDbLine
 10
-20.0
 20
0.0
 30
0.0
 11
-22.0
 21
0.0
 31
0.0
  0
LINE
  5
1911
330
1908
100
AcDbEntity
  8
0
  6
Continuous
 62
     0
370
     0
100
AcDbLine
 10
0.0
 20
-20.0
 30
0.0
 11
0.0
 21
-22.0
 31
0.0
  0
ENDBLK
  5
1912
330
1908
100
AcDbEntity
  8
0
100
AcDbBlockEnd
  0
BLOCK
  5
1914
330
1913
100
AcDbEntity
  8
0
100
AcDbBlockBegin
  2
SW_CENTERMARKSYMBOL_8
 70
     0
 10
0.0
 20
0.0
 30
0.0
  3
SW_CENTERMARKSYMBOL_8
  1
SW_CENTERMARKSYMBOL_8
  0
LINE
  5
1915
330
1913
100
AcDbEntity
  8
0
  6
Continuous
 62
     0
370
     0
100
AcDbLine
 10
0.0
 20
0.0
 30
0.0
 11
10.0
 21
0.0
 31
0.0
  0
LINE
  5
1916
330
1913
100
AcDbEntity
  8
0
  6
Continuous
 62
     0
370
     0
100
AcDbLine
 10
0.0
 20
0.0
 30
0.0
 11
0.0
 21
10.0
 31
0.0
  0
LINE
  5
1917
330
1913
100
AcDbEntity
  8
0
  6
Continuous
 62
     0
370
     0
100
AcDbLine
 10
0.0
 20
0.0
 30
0.0
 11
-10.0
 21
0.0
 31
0.0
  0
LINE
  5
1918
330
1913
100
AcDbEntity
  8
0
  6
Continuous
 62
     0
370
     0
100
AcDbLine
 10
0.0
 20
0.0
 30
0.0
 11
0.0
 21
-10.0
 31
0.0
  0
LINE
  5
1919
330
1913
100
AcDbEntity
  8
0
  6
Continuous
 62
     0
370
     0
100
AcDbLine
 10
10.0
 20
0.0
 30
0.0
 11
15.0
 21
0.0
 31
0.0
  0
LINE
  5
191A
330
1913
100
AcDbEntity
  8
0
  6
Continuous
 62
     0
370
     0
100
AcDbLine
 10
0.0
 20
10.0
 30
0.0
 11
0.0
 21
15.0
 31
0.0
  0
LINE
  5
191B
330
1913
100
AcDbEntity
  8
0
  6
Continuous
 62
     0
370
     0
100
AcDbLine
 10
-10.0
 20
0.0
 30
0.0
 11
-15.0
 21
0.0
 31
0.0
  0
LINE
  5
191C
330
1913
100
AcDbEntity
  8
0
  6
Continuous
 62
     0
370
     0
100
AcDbLine
 10
0.0
 20
-10.0
 30
0.0
 11
0.0
 21
-15.0
 31
0.0
  0
ENDBLK
  5
191D
330
1913
100
AcDbEntity
  8
0
100
AcDbBlockEnd
  0
BLOCK
  5
191F
330
191E
100
AcDbEntity
  8
0
100
AcDbBlockBegin
  2
SW_CENTERMARKSYMBOL_9
 70
     0
 10
0.0
 20
0.0
 30
0.0
  3
SW_CENTERMARKSYMBOL_9
  1
SW_CENTERMARKSYMBOL_9
  0
LINE
  5
1920
330
191E
100
AcDbEntity
  8
0
  6
Continuous
 62
     0
370
     0
100
AcDbLine
 10
0.0
 20
0.0
 30
0.0
 11
10.0
 21
0.0
 31
0.0
  0
LINE
  5
1921
330
191E
100
AcDbEntity
  8
0
  6
Continuous
 62
     0
370
     0
100
AcDbLine
 10
0.0
 20
0.0
 30
0.0
 11
0.0
 21
10.0
 31
0.0
  0
LINE
  5
1922
330
191E
100
AcDbEntity
  8
0
  6
Continuous
 62
     0
370
     0
100
AcDbLine
 10
0.0
 20
0.0
 30
0.0
 11
-10.0
 21
0.0
 31
0.0
  0
LINE
  5
1923
330
191E
100
AcDbEntity
  8
0
  6
Continuous
 62
     0
370
     0
100
AcDbLine
 10
0.0
 20
0.0
 30
0.0
 11
0.0
 21
-10.0
 31
0.0
  0
LINE
  5
1924
330
191E
100
AcDbEntity
  8
0
  6
Continuous
 62
     0
370
     0
100
AcDbLine
 10
10.0
 20
0.0
 30
0.0
 11
15.0
 21
0.0
 31
0.0
  0
LINE
  5
1925
330
191E
100
AcDbEntity
  8
0
  6
Continuous
 62
     0
370
     0
100
AcDbLine
 10
0.0
 20
10.0
 30
0.0
 11
0.0
 21
15.0
 31
0.0
  0
LINE
  5
1926
330
191E
100
AcDbEntity
  8
0
  6
Continuous
 62
     0
370
     0
100
AcDbLine
 10
-10.0
 20
0.0
 30
0.0
 11
-15.0
 21
0.0
 31
0.0
  0
LINE
  5
1927
330
191E
100
AcDbEntity
  8
0
  6
Continuous
 62
     0
370
     0
100
AcDbLine
 10
0.0
 20
-10.0
 30
0.0
 11
0.0
 21
-15.0
 31
0.0
  0
ENDBLK
  5
1928
330
191E
100
AcDbEntity
  8
0
100
AcDbBlockEnd
  0
BLOCK
  5
192A
330
1929
100
AcDbEntity
  8
0
100
AcDbBlockBegin
  2
SW_CENTERMARKSYMBOL_12
 70
     0
 10
0.0
 20
0.0
 30
0.0
  3
SW_CENTERMARKSYMBOL_12
  1
SW_CENTERMARKSYMBOL_12
  0
LINE
  5
192B
330
1929
100
AcDbEntity
  8
0
  6
Continuous
 62
     0
370
     0
100
AcDbLine
 10
0.0
 20
0.0
 30
0.0
 11
0.0
 21
10.0
 31
0.0
  0
LINE
  5
192C
330
1929
100
AcDbEntity
  8
0
  6
Continuous
 62
     0
370
     0
100
AcDbLine
 10
0.0
 20
0.0
 30
0.0
 11
-10.0
 21
0.0
 31
0.0
  0
LINE
  5
192D
330
1929
100
AcDbEntity
  8
0
  6
Continuous
 62
     0
370
     0
100
AcDbLine
 10
0.0
 20
0.0
 30
0.0
 11
0.0
 21
-10.0
 31
0.0
  0
LINE
  5
192E
330
1929
100
AcDbEntity
  8
0
  6
Continuous
 62
     0
370
     0
100
AcDbLine
 10
0.0
 20
0.0
 30
0.0
 11
10.0
 21
0.0
 31
0.0
  0
LINE
  5
192F
330
1929
100
AcDbEntity
  8
0
  6
Continuous
 62
     0
370
     0
100
AcDbLine
 10
0.0
 20
20.0
 30
0.0
 11
0.0
 21
22.0
 31
0.0
  0
LINE
  5
1930
330
1929
100
AcDbEntity
  8
0
  6
Continuous
 62
     0
370
     0
100
AcDbLine
 10
-20.0
 20
0.0
 30
0.0
 11
-22.0
 21
0.0
 31
0.0
  0
LINE
  5
1931
330
1929
100
AcDbEntity
  8
0
  6
Continuous
 62
     0
370
     0
100
AcDbLine
 10
0.0
 20
-20.0
 30
0.0
 11
0.0
 21
-22.0
 31
0.0
  0
LINE
  5
1932
330
1929
100
AcDbEntity
  8
0
  6
Continuous
 62
     0
370
     0
100
AcDbLine
 10
20.0
 20
0.0
 30
0.0
 11
22.0
 21
0.0
 31
0.0
  0
ENDBLK
  5
1933
330
1929
100
AcDbEntity
  8
0
100
AcDbBlockEnd
  0
BLOCK
  5
1935
330
1934
100
AcDbEntity
  8
0
100
AcDbBlockBegin
  2
SW_CENTERMARKSYMBOL_13
 70
     0
 10
0.0
 20
0.0
 30
0.0
  3
SW_CENTERMARKSYMBOL_13
  1
SW_CENTERMARKSYMBOL_13
  0
LINE
  5
1936
330
1934
100
AcDbEntity
  8
0
  6
Continuous
 62
     0
370
     0
100
AcDbLine
 10
0.0
 20
0.0
 30
0.0
 11
0.0
 21
10.0
 31
0.0
  0
LINE
  5
1937
330
1934
100
AcDbEntity
  8
0
  6
Continuous
 62
     0
370
     0
100
AcDbLine
 10
0.0
 20
0.0
 30
0.0
 11
-10.0
 21
0.0
 31
0.0
  0
LINE
  5
1938
330
1934
100
AcDbEntity
  8
0
  6
Continuous
 62
     0
370
     0
100
AcDbLine
 10
0.0
 20
0.0
 30
0.0
 11
0.0
 21
-10.0
 31
0.0
  0
LINE
  5
1939
330
1934
100
AcDbEntity
  8
0
  6
Continuous
 62
     0
370
     0
100
AcDbLine
 10
0.0
 20
0.0
 30
0.0
 11
10.0
 21
0.0
 31
0.0
  0
LINE
  5
193A
330
1934
100
AcDbEntity
  8
0
  6
Continuous
 62
     0
370
     0
100
AcDbLine
 10
0.0
 20
20.0
 30
0.0
 11
0.0
 21
22.0
 31
0.0
  0
LINE
  5
193B
330
1934
100
AcDbEntity
  8
0
  6
Continuous
 62
     0
370
     0
100
AcDbLine
 10
-20.0
 20
0.0
 30
0.0
 11
-22.0
 21
0.0
 31
0.0
  0
LINE
  5
193C
330
1934
100
AcDbEntity
  8
0
  6
Continuous
 62
     0
370
     0
100
AcDbLine
 10
0.0
 20
-20.0
 30
0.0
 11
0.0
 21
-22.0
 31
0.0
  0
LINE
  5
193D
330
1934
100
AcDbEntity
  8
0
  6
Continuous
 62
     0
370
     0
100
AcDbLine
 10
20.0
 20
0.0
 30
0.0
 11
22.0
 21
0.0
 31
0.0
  0
ENDBLK
  5
193E
330
1934
100
AcDbEntity
  8
0
100
AcDbBlockEnd
  0
BLOCK
  5
315D
330
315C
100
AcDbEntity
  8
0
100
AcDbBlockBegin
  2
SW_CENTERMARKSYMBOL_0
 70
     0
 10
0.0
 20
0.0
 30
0.0
  3
SW_CENTERMARKSYMBOL_0
  1
SW_CENTERMARKSYMBOL_0
  0
LINE
  5
315E
330
315C
100
AcDbEntity
  8
0
  6
Continuous
 62
     0
370
     0
100
AcDbLine
 10
0.0
 20
0.0
 30
0.0
 11
0.0
 21
0.5
 31
0.0
  0
LINE
  5
315F
330
315C
100
AcDbEntity
  8
0
  6
Continuous
 62
     0
370
     0
100
AcDbLine
 10
0.0
 20
0.0
 30
0.0
 11
-0.5
 21
0.0
 31
0.0
  0
LINE
  5
3160
330
315C
100
AcDbEntity
  8
0
  6
Continuous
 62
     0
370
     0
100
AcDbLine
 10
0.0
 20
0.0
 30
0.0
 11
0.0
 21
-0.5
 31
0.0
  0
LINE
  5
3161
330
315C
100
AcDbEntity
  8
0
  6
Continuous
 62
     0
370
     0
100
AcDbLine
 10
0.0
 20
0.0
 30
0.0
 11
0.5
 21
0.0
 31
0.0
  0
LINE
  5
3162
330
315C
100
AcDbEntity
  8
0
  6
Continuous
 62
     0
370
     0
100
AcDbLine
 10
0.0
 20
0.5
 30
0.0
 11
0.0
 21
0.9
 31
0.0
  0
LINE
  5
3163
330
315C
100
AcDbEntity
  8
0
  6
Continuous
 62
     0
370
     0
100
AcDbLine
 10
-0.5
 20
0.0
 30
0.0
 11
-0.9
 21
0.0
 31
0.0
  0
LINE
  5
3164
330
315C
100
AcDbEntity
  8
0
  6
Continuous
 62
     0
370
     0
100
AcDbLine
 10
0.0
 20
-0.5
 30
0.0
 11
0.0
 21
-0.9
 31
0.0
  0
LINE
  5
3165
330
315C
100
AcDbEntity
  8
0
  6
Continuous
 62
     0
370
     0
100
AcDbLine
 10
0.5
 20
0.0
 30
0.0
 11
0.9
 21
0.0
 31
0.0
  0
ENDBLK
  5
3166
330
315C
100
AcDbEntity
  8
0
100
AcDbBlockEnd
  0
BLOCK
  5
3169
330
3168
100
AcDbEntity
  8
0
100
AcDbBlockBegin
  2
SW_CENTERMARKSYMBOL_1
 70
     0
 10
0.0
 20
0.0
 30
0.0
  3
SW_CENTERMARKSYMBOL_1
  1
SW_CENTERMARKSYMBOL_1
  0
LINE
  5
316A
330
3168
100
AcDbEntity
  8
0
  6
Continuous
 62
     0
370
     0
100
AcDbLine
 10
0.0
 20
0.0
 30
0.0
 11
0.0
 21
0.5
 31
0.0
  0
LINE
  5
316B
330
3168
100
AcDbEntity
  8
0
  6
Continuous
 62
     0
370
     0
100
AcDbLine
 10
0.0
 20
0.0
 30
0.0
 11
-0.5
 21
0.0
 31
0.0
  0
LINE
  5
316C
330
3168
100
AcDbEntity
  8
0
  6
Continuous
 62
     0
370
     0
100
AcDbLine
 10
0.0
 20
0.0
 30
0.0
 11
0.0
 21
-0.5
 31
0.0
  0
LINE
  5
316D
330
3168
100
AcDbEntity
  8
0
  6
Continuous
 62
     0
370
     0
100
AcDbLine
 10
0.0
 20
0.0
 30
0.0
 11
0.5
 21
0.0
 31
0.0
  0
LINE
  5
316E
330
3168
100
AcDbEntity
  8
0
  6
Continuous
 62
     0
370
     0
100
AcDbLine
 10
0.0
 20
0.5
 30
0.0
 11
0.0
 21
0.9
 31
0.0
  0
LINE
  5
316F
330
3168
100
AcDbEntity
  8
0
  6
Continuous
 62
     0
370
     0
100
AcDbLine
 10
-0.5
 20
0.0
 30
0.0
 11
-0.9
 21
0.0
 31
0.0
  0
LINE
  5
3170
330
3168
100
AcDbEntity
  8
0
  6
Continuous
 62
     0
370
     0
100
AcDbLine
 10
0.0
 20
-0.5
 30
0.0
 11
0.0
 21
-0.9
 31
0.0
  0
LINE
  5
3171
330
3168
100
AcDbEntity
  8
0
  6
Continuous
 62
     0
370
     0
100
AcDbLine
 10
0.5
 20
0.0
 30
0.0
 11
0.9
 21
0.0
 31
0.0
  0
ENDBLK
  5
3172
330
3168
100
AcDbEntity
  8
0
100
AcDbBlockEnd
  0
BLOCK
  5
3175
330
3174
100
AcDbEntity
  8
0
100
AcDbBlockBegin
  2
SW_CENTERMARKSYMBOL_4
 70
     0
 10
0.0
 20
0.0
 30
0.0
  3
SW_CENTERMARKSYMBOL_4
  1
SW_CENTERMARKSYMBOL_4
  0
LINE
  5
3176
330
3174
100
AcDbEntity
  8
0
  6
Continuous
 62
     0
370
     0
100
AcDbLine
 10
0.0
 20
0.0
 30
0.0
 11
0.5
 21
0.0
 31
0.0
  0
LINE
  5
3177
330
3174
100
AcDbEntity
  8
0
  6
Continuous
 62
     0
370
     0
100
AcDbLine
 10
0.0
 20
0.0
 30
0.0
 11
0.0
 21
0.5
 31
0.0
  0
LINE
  5
3178
330
3174
100
AcDbEntity
  8
0
  6
Continuous
 62
     0
370
     0
100
AcDbLine
 10
0.0
 20
0.0
 30
0.0
 11
-0.5
 21
0.0
 31
0.0
  0
LINE
  5
3179
330
3174
100
AcDbEntity
  8
0
  6
Continuous
 62
     0
370
     0
100
AcDbLine
 10
0.0
 20
0.0
 30
0.0
 11
0.0
 21
-0.5
 31
0.0
  0
LINE
  5
317A
330
3174
100
AcDbEntity
  8
0
  6
Continuous
 62
     0
370
     0
100
AcDbLine
 10
0.5
 20
0.0
 30
0.0
 11
0.9
 21
0.0
 31
0.0
  0
LINE
  5
317B
330
3174
100
AcDbEntity
  8
0
  6
Continuous
 62
     0
370
     0
100
AcDbLine
 10
0.0
 20
0.5
 30
0.0
 11
0.0
 21
0.9
 31
0.0
  0
LINE
  5
317C
330
3174
100
AcDbEntity
  8
0
  6
Continuous
 62
     0
370
     0
100
AcDbLine
 10
-0.5
 20
0.0
 30
0.0
 11
-0.9
 21
0.0
 31
0.0
  0
LINE
  5
317D
330
3174
100
AcDbEntity
  8
0
  6
Continuous
 62
     0
370
     0
100
AcDbLine
 10
0.0
 20
-40.0
 30
0.0
 11
0.5
 21
-40.0
 31
0.0
  0
LINE
  5
317E
330
3174
100
AcDbEntity
  8
0
  6
Continuous
 62
     0
370
     0
100
AcDbLine
 10
0.0
 20
-40.0
 30
0.0
 11
0.0
 21
-39.5
 31
0.0
  0
LINE
  5
317F
330
3174
100
AcDbEntity
  8
0
  6
Continuous
 62
     0
370
     0
100
AcDbLine
 10
0.0
 20
-40.0
 30
0.0
 11
-0.5
 21
-40.0
 31
0.0
  0
LINE
  5
3180
330
3174
100
AcDbEntity
  8
0
  6
Continuous
 62
     0
370
     0
100
AcDbLine
 10
0.0
 20
-40.0
 30
0.0
 11
0.0
 21
-40.5
 31
0.0
  0
LINE
  5
3181
330
3174
100
AcDbEntity
  8
0
  6
Continuous
 62
     0
370
     0
100
AcDbLine
 10
0.5
 20
-40.0
 30
0.0
 11
0.9
 21
-40.0
 31
0.0
  0
LINE
  5
3182
330
3174
100
AcDbEntity
  8
0
  6
Continuous
 62
     0
370
     0
100
AcDbLine
 10
-0.5
 20
-40.0
 30
0.0
 11
-0.9
 21
-40.0
 31
0.0
  0
LINE
  5
3183
330
3174
100
AcDbEntity
  8
0
  6
Continuous
 62
     0
370
     0
100
AcDbLine
 10
0.0
 20
-40.5
 30
0.0
 11
0.0
 21
-40.9
 31
0.0
  0
LINE
  5
3184
330
3174
100
AcDbEntity
  8
0
  6
Continuous
 62
     0
370
     0
100
AcDbLine
 10
0.0
 20
-1.0
 30
0.0
 11
0.0
 21
-39.0
 31
0.0
  0
ENDBLK
  5
3185
330
3174
100
AcDbEntity
  8
0
100
AcDbBlockEnd
  0
BLOCK
  5
326A
330
3269
100
AcDbEntity
  8
0
100
AcDbBlockBegin
  2
SW_CENTERMARKSYMBOL_10
 70
     0
 10
0.0
 20
0.0
 30
0.0
  3
SW_CENTERMARKSYMBOL_10
  1
SW_CENTERMARKSYMBOL_10
  0
LINE
  5
326B
330
3269
100
AcDbEntity
  8
0
  6
Continuous
 62
     0
370
     0
100
AcDbLine
 10
0.0
 20
0.0
 30
0.0
 11
0.0
 21
0.5
 31
0.0
  0
LINE
  5
326C
330
3269
100
AcDbEntity
  8
0
  6
Continuous
 62
     0
370
     0
100
AcDbLine
 10
0.0
 20
0.0
 30
0.0
 11
-0.5
 21
0.0
 31
0.0
  0
LINE
  5
326D
330
3269
100
AcDbEntity
  8
0
  6
Continuous
 62
     0
370
     0
100
AcDbLine
 10
0.0
 20
0.0
 30
0.0
 11
0.0
 21
-0.5
 31
0.0
  0
LINE
  5
326E
330
3269
100
AcDbEntity
  8
0
  6
Continuous
 62
     0
370
     0
100
AcDbLine
 10
0.0
 20
0.0
 30
0.0
 11
0.5
 21
0.0
 31
0.0
  0
LINE
  5
326F
330
3269
100
AcDbEntity
  8
0
  6
Continuous
 62
     0
370
     0
100
AcDbLine
 10
0.0
 20
0.5
 30
0.0
 11
0.0
 21
0.9
 31
0.0
  0
LINE
  5
3270
330
3269
100
AcDbEntity
  8
0
  6
Continuous
 62
     0
370
     0
100
AcDbLine
 10
-0.5
 20
0.0
 30
0.0
 11
-0.9
 21
0.0
 31
0.0
  0
LINE
  5
3271
330
3269
100
AcDbEntity
  8
0
  6
Continuous
 62
     0
370
     0
100
AcDbLine
 10
0.0
 20
-0.5
 30
0.0
 11
0.0
 21
-0.9
 31
0.0
  0
LINE
  5
3272
330
3269
100
AcDbEntity
  8
0
  6
Continuous
 62
     0
370
     0
100
AcDbLine
 10
0.5
 20
0.0
 30
0.0
 11
0.9
 21
0.0
 31
0.0
  0
ENDBLK
  5
3273
330
3269
100
AcDbEntity
  8
0
100
AcDbBlockEnd
  0
BLOCK
  5
3276
330
3275
100
AcDbEntity
  8
0
100
AcDbBlockBegin
  2
SW_CENTERMARKSYMBOL_11
 70
     0
 10
0.0
 20
0.0
 30
0.0
  3
SW_CENTERMARKSYMBOL_11
  1
SW_CENTERMARKSYMBOL_11
  0
LINE
  5
3277
330
3275
100
AcDbEntity
  8
0
  6
Continuous
 62
     0
370
     0
100
AcDbLine
 10
0.0
 20
0.0
 30
0.0
 11
0.0
 21
0.5
 31
0.0
  0
LINE
  5
3278
330
3275
100
AcDbEntity
  8
0
  6
Continuous
 62
     0
370
     0
100
AcDbLine
 10
0.0
 20
0.0
 30
0.0
 11
-0.5
 21
0.0
 31
0.0
  0
LINE
  5
3279
330
3275
100
AcDbEntity
  8
0
  6
Continuous
 62
     0
370
     0
100
AcDbLine
 10
0.0
 20
0.0
 30
0.0
 11
0.0
 21
-0.5
 31
0.0
  0
LINE
  5
327A
330
3275
100
AcDbEntity
  8
0
  6
Continuous
 62
     0
370
     0
100
AcDbLine
 10
0.0
 20
0.0
 30
0.0
 11
0.5
 21
0.0
 31
0.0
  0
LINE
  5
327B
330
3275
100
AcDbEntity
  8
0
  6
Continuous
 62
     0
370
     0
100
AcDbLine
 10
0.0
 20
0.5
 30
0.0
 11
0.0
 21
0.9
 31
0.0
  0
LINE
  5
327C
330
3275
100
AcDbEntity
  8
0
  6
Continuous
 62
     0
370
     0
100
AcDbLine
 10
-0.5
 20
0.0
 30
0.0
 11
-0.9
 21
0.0
 31
0.0
  0
LINE
  5
327D
330
3275
100
AcDbEntity
  8
0
  6
Continuous
 62
     0
370
     0
100
AcDbLine
 10
0.0
 20
-0.5
 30
0.0
 11
0.0
 21
-0.9
 31
0.0
  0
LINE
  5
327E
330
3275
100
AcDbEntity
  8
0
  6
Continuous
 62
     0
370
     0
100
AcDbLine
 10
0.5
 20
0.0
 30
0.0
 11
0.9
 21
0.0
 31
0.0
  0
ENDBLK
  5
327F
330
3275
100
AcDbEntity
  8
0
100
AcDbBlockEnd
  0
BLOCK
  5
329A
330
3299
100
AcDbEntity
  8
0
100
AcDbBlockBegin
  2
SW_CENTERMARKSYMBOL_14
 70
     0
 10
0.0
 20
0.0
 30
0.0
  3
SW_CENTERMARKSYMBOL_14
  1
SW_CENTERMARKSYMBOL_14
  0
LINE
  5
329B
330
3299
100
AcDbEntity
  8
0
  6
Continuous
 62
     0
370
     0
100
AcDbLine
 10
0.0
 20
0.0
 30
0.0
 11
0.0
 21
0.5
 31
0.0
  0
LINE
  5
329C
330
3299
100
AcDbEntity
  8
0
  6
Continuous
 62
     0
370
     0
100
AcDbLine
 10
0.0
 20
0.0
 30
0.0
 11
-0.5
 21
0.0
 31
0.0
  0
LINE
  5
329D
330
3299
100
AcDbEntity
  8
0
  6
Continuous
 62
     0
370
     0
100
AcDbLine
 10
0.0
 20
0.0
 30
0.0
 11
0.0
 21
-0.5
 31
0.0
  0
LINE
  5
329E
330
3299
100
AcDbEntity
  8
0
  6
Continuous
 62
     0
370
     0
100
AcDbLine
 10
0.0
 20
0.0
 30
0.0
 11
0.5
 21
0.0
 31
0.0
  0
LINE
  5
329F
330
3299
100
AcDbEntity
  8
0
  6
Continuous
 62
     0
370
     0
100
AcDbLine
 10
0.0
 20
0.5
 30
0.0
 11
0.0
 21
0.9
 31
0.0
  0
LINE
  5
32A0
330
3299
100
AcDbEntity
  8
0
  6
Continuous
 62
     0
370
     0
100
AcDbLine
 10
-0.5
 20
0.0
 30
0.0
 11
-0.9
 21
0.0
 31
0.0
  0
LINE
  5
32A1
330
3299
100
AcDbEntity
  8
0
  6
Continuous
 62
     0
370
     0
100
AcDbLine
 10
0.0
 20
-0.5
 30
0.0
 11
0.0
 21
-0.9
 31
0.0
  0
LINE
  5
32A2
330
3299
100
AcDbEntity
  8
0
  6
Continuous
 62
     0
370
     0
100
AcDbLine
 10
0.5
 20
0.0
 30
0.0
 11
0.9
 21
0.0
 31
0.0
  0
ENDBLK
  5
32A3
330
3299
100
AcDbEntity
  8
0
100
AcDbBlockEnd
  0
BLOCK
  5
32A6
330
32A5
100
AcDbEntity
  8
0
100
AcDbBlockBegin
  2
SW_CENTERMARKSYMBOL_17
 70
     0
 10
0.0
 20
0.0
 30
0.0
  3
SW_CENTERMARKSYMBOL_17
  1
SW_CENTERMARKSYMBOL_17
  0
LINE
  5
32A7
330
32A5
100
AcDbEntity
  8
0
  6
Continuous
 62
     0
370
     0
100
AcDbLine
 10
0.0
 20
0.0
 30
0.0
 11
0.0
 21
0.5
 31
0.0
  0
LINE
  5
32A8
330
32A5
100
AcDbEntity
  8
0
  6
Continuous
 62
     0
370
     0
100
AcDbLine
 10
0.0
 20
0.0
 30
0.0
 11
-0.5
 21
0.0
 31
0.0
  0
LINE
  5
32A9
330
32A5
100
AcDbEntity
  8
0
  6
Continuous
 62
     0
370
     0
100
AcDbLine
 10
0.0
 20
0.0
 30
0.0
 11
0.0
 21
-0.5
 31
0.0
  0
LINE
  5
32AA
330
32A5
100
AcDbEntity
  8
0
  6
Continuous
 62
     0
370
     0
100
AcDbLine
 10
0.0
 20
0.0
 30
0.0
 11
0.5
 21
0.0
 31
0.0
  0
LINE
  5
32AB
330
32A5
100
AcDbEntity
  8
0
  6
Continuous
 62
     0
370
     0
100
AcDbLine
 10
0.0
 20
0.5
 30
0.0
 11
0.0
 21
0.9
 31
0.0
  0
LINE
  5
32AC
330
32A5
100
AcDbEntity
  8
0
  6
Continuous
 62
     0
370
     0
100
AcDbLine
 10
-0.5
 20
0.0
 30
0.0
 11
-0.9
 21
0.0
 31
0.0
  0
LINE
  5
32AD
330
32A5
100
AcDbEntity
  8
0
  6
Continuous
 62
     0
370
     0
100
AcDbLine
 10
0.0
 20
-0.5
 30
0.0
 11
0.0
 21
-0.9
 31
0.0
  0
LINE
  5
32AE
330
32A5
100
AcDbEntity
  8
0
  6
Continuous
 62
     0
370
     0
100
AcDbLine
 10
0.5
 20
0.0
 30
0.0
 11
0.9
 21
0.0
 31
0.0
  0
ENDBLK
  5
32AF
330
32A5
100
AcDbEntity
  8
0
100
AcDbBlockEnd
  0
BLOCK
  5
32B2
330
32B1
100
AcDbEntity
  8
0
100
AcDbBlockBegin
  2
SW_CENTERMARKSYMBOL_18
 70
     0
 10
0.0
 20
0.0
 30
0.0
  3
SW_CENTERMARKSYMBOL_18
  1
SW_CENTERMARKSYMBOL_18
  0
LINE
  5
32B3
330
32B1
100
AcDbEntity
  8
0
  6
Continuous
 62
     0
370
     0
100
AcDbLine
 10
0.0
 20
0.0
 30
0.0
 11
0.0
 21
0.5
 31
0.0
  0
LINE
  5
32B4
330
32B1
100
AcDbEntity
  8
0
  6
Continuous
 62
     0
370
     0
100
AcDbLine
 10
0.0
 20
0.0
 30
0.0
 11
-0.5
 21
0.0
 31
0.0
  0
LINE
  5
32B5
330
32B1
100
AcDbEntity
  8
0
  6
Continuous
 62
     0
370
     0
100
AcDbLine
 10
0.0
 20
0.0
 30
0.0
 11
0.0
 21
-0.5
 31
0.0
  0
LINE
  5
32B6
330
32B1
100
AcDbEntity
  8
0
  6
Continuous
 62
     0
370
     0
100
AcDbLine
 10
0.0
 20
0.0
 30
0.0
 11
0.5
 21
0.0
 31
0.0
  0
LINE
  5
32B7
330
32B1
100
AcDbEntity
  8
0
  6
Continuous
 62
     0
370
     0
100
AcDbLine
 10
0.0
 20
0.5
 30
0.0
 11
0.0
 21
0.9
 31
0.0
  0
LINE
  5
32B8
330
32B1
100
AcDbEntity
  8
0
  6
Continuous
 62
     0
370
     0
100
AcDbLine
 10
-0.5
 20
0.0
 30
0.0
 11
-0.9
 21
0.0
 31
0.0
  0
LINE
  5
32B9
330
32B1
100
AcDbEntity
  8
0
  6
Continuous
 62
     0
370
     0
100
AcDbLine
 10
0.0
 20
-0.5
 30
0.0
 11
0.0
 21
-0.9
 31
0.0
  0
LINE
  5
32BA
330
32B1
100
AcDbEntity
  8
0
  6
Continuous
 62
     0
370
     0
100
AcDbLine
 10
0.5
 20
0.0
 30
0.0
 11
0.9
 21
0.0
 31
0.0
  0
ENDBLK
  5
32BB
330
32B1
100
AcDbEntity
  8
0
100
AcDbBlockEnd
  0
BLOCK
  5
32BE
330
32BD
100
AcDbEntity
  8
0
100
AcDbBlockBegin
  2
SW_CENTERMARKSYMBOL_19
 70
     0
 10
0.0
 20
0.0
 30
0.0
  3
SW_CENTERMARKSYMBOL_19
  1
SW_CENTERMARKSYMBOL_19
  0
LINE
  5
32BF
330
32BD
100
AcDbEntity
  8
0
  6
Continuous
 62
     0
370
     0
100
AcDbLine
 10
0.0
 20
0.0
 30
0.0
 11
0.0
 21
0.5
 31
0.0
  0
LINE
  5
32C0
330
32BD
100
AcDbEntity
  8
0
  6
Continuous
 62
     0
370
     0
100
AcDbLine
 10
0.0
 20
0.0
 30
0.0
 11
-0.5
 21
0.0
 31
0.0
  0
LINE
  5
32C1
330
32BD
100
AcDbEntity
  8
0
  6
Continuous
 62
     0
370
     0
100
AcDbLine
 10
0.0
 20
0.0
 30
0.0
 11
0.0
 21
-0.5
 31
0.0
  0
LINE
  5
32C2
330
32BD
100
AcDbEntity
  8
0
  6
Continuous
 62
     0
370
     0
100
AcDbLine
 10
0.0
 20
0.0
 30
0.0
 11
0.5
 21
0.0
 31
0.0
  0
LINE
  5
32C3
330
32BD
100
AcDbEntity
  8
0
  6
Continuous
 62
     0
370
     0
100
AcDbLine
 10
0.0
 20
0.5
 30
0.0
 11
0.0
 21
0.9
 31
0.0
  0
LINE
  5
32C4
330
32BD
100
AcDbEntity
  8
0
  6
Continuous
 62
     0
370
     0
100
AcDbLine
 10
-0.5
 20
0.0
 30
0.0
 11
-0.9
 21
0.0
 31
0.0
  0
LINE
  5
32C5
330
32BD
100
AcDbEntity
  8
0
  6
Continuous
 62
     0
370
     0
100
AcDbLine
 10
0.0
 20
-0.5
 30
0.0
 11
0.0
 21
-0.9
 31
0.0
  0
LINE
  5
32C6
330
32BD
100
AcDbEntity
  8
0
  6
Continuous
 62
     0
370
     0
100
AcDbLine
 10
0.5
 20
0.0
 30
0.0
 11
0.9
 21
0.0
 31
0.0
  0
ENDBLK
  5
32C7
330
32BD
100
AcDbEntity
  8
0
100
AcDbBlockEnd
  0
BLOCK
  5
3385
330
3384
100
AcDbEntity
  8
0
100
AcDbBlockBegin
  2
SW_CENTERMARKSYMBOL_20
 70
     0
 10
0.0
 20
0.0
 30
0.0
  3
SW_CENTERMARKSYMBOL_20
  1
SW_CENTERMARKSYMBOL_20
  0
LINE
  5
3386
330
3384
100
AcDbEntity
  8
0
  6
Continuous
 62
     0
370
     0
100
AcDbLine
 10
0.0
 20
0.0
 30
0.0
 11
-0.5
 21
0.0
 31
0.0
  0
LINE
  5
3387
330
3384
100
AcDbEntity
  8
0
  6
Continuous
 62
     0
370
     0
100
AcDbLine
 10
0.0
 20
0.0
 30
0.0
 11
0.0
 21
-0.5
 31
0.0
  0
LINE
  5
3388
330
3384
100
AcDbEntity
  8
0
  6
Continuous
 62
     0
370
     0
100
AcDbLine
 10
0.0
 20
0.0
 30
0.0
 11
0.5
 21
0.0
 31
0.0
  0
LINE
  5
3389
330
3384
100
AcDbEntity
  8
0
  6
Continuous
 62
     0
370
     0
100
AcDbLine
 10
0.0
 20
0.0
 30
0.0
 11
0.0
 21
0.5
 31
0.0
  0
LINE
  5
338A
330
3384
100
AcDbEntity
  8
0
  6
Continuous
 62
     0
370
     0
100
AcDbLine
 10
-0.5
 20
0.0
 30
0.0
 11
-0.9
 21
0.0
 31
0.0
  0
LINE
  5
338B
330
3384
100
AcDbEntity
  8
0
  6
Continuous
 62
     0
370
     0
100
AcDbLine
 10
0.0
 20
-0.5
 30
0.0
 11
0.0
 21
-0.9
 31
0.0
  0
LINE
  5
338C
330
3384
100
AcDbEntity
  8
0
  6
Continuous
 62
     0
370
     0
100
AcDbLine
 10
0.5
 20
0.0
 30
0.0
 11
0.9
 21
0.0
 31
0.0
  0
LINE
  5
338D
330
3384
100
AcDbEntity
  8
0
  6
Continuous
 62
     0
370
     0
100
AcDbLine
 10
0.0
 20
0.5
 30
0.0
 11
0.0
 21
0.9
 31
0.0
  0
ENDBLK
  5
338E
330
3384
100
AcDbEntity
  8
0
100
AcDbBlockEnd
  0
BLOCK
  5
3391
330
3390
100
AcDbEntity
  8
0
100
AcDbBlockBegin
  2
SW_CENTERMARKSYMBOL_22
 70
     0
 10
0.0
 20
0.0
 30
0.0
  3
SW_CENTERMARKSYMBOL_22
  1
SW_CENTERMARKSYMBOL_22
  0
LINE
  5
3392
330
3390
100
AcDbEntity
  8
0
  6
Continuous
 62
     0
370
     0
100
AcDbLine
 10
0.0
 20
0.0
 30
0.0
 11
-0.5
 21
0.0
 31
0.0
  0
LINE
  5
3393
330
3390
100
AcDbEntity
  8
0
  6
Continuous
 62
     0
370
     0
100
AcDbLine
 10
0.0
 20
0.0
 30
0.0
 11
0.0
 21
-0.5
 31
0.0
  0
LINE
  5
3394
330
3390
100
AcDbEntity
  8
0
  6
Continuous
 62
     0
370
     0
100
AcDbLine
 10
0.0
 20
0.0
 30
0.0
 11
0.5
 21
0.0
 31
0.0
  0
LINE
  5
3395
330
3390
100
AcDbEntity
  8
0
  6
Continuous
 62
     0
370
     0
100
AcDbLine
 10
0.0
 20
0.0
 30
0.0
 11
0.0
 21
0.5
 31
0.0
  0
LINE
  5
3396
330
3390
100
AcDbEntity
  8
0
  6
Continuous
 62
     0
370
     0
100
AcDbLine
 10
0.5
 20
0.0
 30
0.0
 11
0.75
 21
0.0
 31
0.0
  0
LINE
  5
3397
330
3390
100
AcDbEntity
  8
0
  6
Continuous
 62
     0
370
     0
100
AcDbLine
 10
0.0
 20
5.0
 30
0.0
 11
-0.5
 21
5.0
 31
0.0
  0
LINE
  5
3398
330
3390
100
AcDbEntity
  8
0
  6
Continuous
 62
     0
370
     0
100
AcDbLine
 10
0.0
 20
5.0
 30
0.0
 11
0.0
 21
4.5
 31
0.0
  0
LINE
  5
3399
330
3390
100
AcDbEntity
  8
0
  6
Continuous
 62
     0
370
     0
100
AcDbLine
 10
0.0
 20
5.0
 30
0.0
 11
0.5
 21
5.0
 31
0.0
  0
LINE
  5
339A
330
3390
100
AcDbEntity
  8
0
  6
Continuous
 62
     0
370
     0
100
AcDbLine
 10
0.0
 20
5.0
 30
0.0
 11
0.0
 21
5.5
 31
0.0
  0
LINE
  5
339B
330
3390
100
AcDbEntity
  8
0
  6
Continuous
 62
     0
370
     0
100
AcDbLine
 10
-0.5
 20
5.0
 30
0.0
 11
-0.75
 21
5.0
 31
0.0
  0
LINE
  5
339C
330
3390
100
AcDbEntity
  8
0
  6
Continuous
 62
     0
370
     0
100
AcDbLine
 10
0.0
 20
5.5
 30
0.0
 11
0.0
 21
5.75
 31
0.0
  0
LINE
  5
339D
330
3390
100
AcDbEntity
  8
0
  6
Continuous
 62
     0
370
     0
100
AcDbLine
 10
0.0
 20
-5.0
 30
0.0
 11
-0.5
 21
-5.0
 31
0.0
  0
LINE
  5
339E
330
3390
100
AcDbEntity
  8
0
  6
Continuous
 62
     0
370
     0
100
AcDbLine
 10
0.0
 20
-5.0
 30
0.0
 11
0.0
 21
-5.5
 31
0.0
  0
LINE
  5
339F
330
3390
100
AcDbEntity
  8
0
  6
Continuous
 62
     0
370
     0
100
AcDbLine
 10
0.0
 20
-5.0
 30
0.0
 11
0.5
 21
-5.0
 31
0.0
  0
LINE
  5
33A0
330
3390
100
AcDbEntity
  8
0
  6
Continuous
 62
     0
370
     0
100
AcDbLine
 10
0.0
 20
-5.0
 30
0.0
 11
0.0
 21
-4.5
 31
0.0
  0
LINE
  5
33A1
330
3390
100
AcDbEntity
  8
0
  6
Continuous
 62
     0
370
     0
100
AcDbLine
 10
-0.5
 20
-5.0
 30
0.0
 11
-0.75
 21
-5.0
 31
0.0
  0
LINE
  5
33A2
330
3390
100
AcDbEntity
  8
0
  6
Continuous
 62
     0
370
     0
100
AcDbLine
 10
0.0
 20
-10.0
 30
0.0
 11
-0.5
 21
-10.0
 31
0.0
  0
LINE
  5
33A3
330
3390
100
AcDbEntity
  8
0
  6
Continuous
 62
     0
370
     0
100
AcDbLine
 10
0.0
 20
-10.0
 30
0.0
 11
0.0
 21
-10.5
 31
0.0
  0
LINE
  5
33A4
330
3390
100
AcDbEntity
  8
0
  6
Continuous
 62
     0
370
     0
100
AcDbLine
 10
0.0
 20
-10.0
 30
0.0
 11
0.5
 21
-10.0
 31
0.0
  0
LINE
  5
33A5
330
3390
100
AcDbEntity
  8
0
  6
Continuous
 62
     0
370
     0
100
AcDbLine
 10
0.0
 20
-10.0
 30
0.0
 11
0.0
 21
-9.5
 31
0.0
  0
LINE
  5
33A6
330
3390
100
AcDbEntity
  8
0
  6
Continuous
 62
     0
370
     0
100
AcDbLine
 10
-0.5
 20
-10.0
 30
0.0
 11
-0.75
 21
-10.0
 31
0.0
  0
LINE
  5
33A7
330
3390
100
AcDbEntity
  8
0
  6
Continuous
 62
     0
370
     0
100
AcDbLine
 10
0.5
 20
-10.0
 30
0.0
 11
0.75
 21
-10.0
 31
0.0
  0
LINE
  5
33A8
330
3390
100
AcDbEntity
  8
0
  6
Continuous
 62
     0
370
     0
100
AcDbLine
 10
0.0
 20
-9.5
 30
0.0
 11
0.0
 21
-9.25
 31
0.0
  0
LINE
  5
33A9
330
3390
100
AcDbEntity
  8
0
  6
Continuous
 62
     0
370
     0
100
AcDbLine
 10
0.0
 20
10.0
 30
0.0
 11
-0.5
 21
10.0
 31
0.0
  0
LINE
  5
33AA
330
3390
100
AcDbEntity
  8
0
  6
Continuous
 62
     0
370
     0
100
AcDbLine
 10
0.0
 20
10.0
 30
0.0
 11
0.0
 21
9.5
 31
0.0
  0
LINE
  5
33AB
330
3390
100
AcDbEntity
  8
0
  6
Continuous
 62
     0
370
     0
100
AcDbLine
 10
0.0
 20
10.0
 30
0.0
 11
0.5
 21
10.0
 31
0.0
  0
LINE
  5
33AC
330
3390
100
AcDbEntity
  8
0
  6
Continuous
 62
     0
370
     0
100
AcDbLine
 10
0.0
 20
10.0
 30
0.0
 11
0.0
 21
10.5
 31
0.0
  0
LINE
  5
33AD
330
3390
100
AcDbEntity
  8
0
  6
Continuous
 62
     0
370
     0
100
AcDbLine
 10
0.5
 20
10.0
 30
0.0
 11
0.75
 21
10.0
 31
0.0
  0
LINE
  5
33AE
330
3390
100
AcDbEntity
  8
0
  6
Continuous
 62
     0
370
     0
100
AcDbLine
 10
0.0
 20
5.0
 30
0.0
 11
-0.5
 21
5.0
 31
0.0
  0
LINE
  5
33AF
330
3390
100
AcDbEntity
  8
0
  6
Continuous
 62
     0
370
     0
100
AcDbLine
 10
0.0
 20
5.0
 30
0.0
 11
0.0
 21
4.5
 31
0.0
  0
LINE
  5
33B0
330
3390
100
AcDbEntity
  8
0
  6
Continuous
 62
     0
370
     0
100
AcDbLine
 10
0.0
 20
5.0
 30
0.0
 11
0.5
 21
5.0
 31
0.0
  0
LINE
  5
33B1
330
3390
100
AcDbEntity
  8
0
  6
Continuous
 62
     0
370
     0
100
AcDbLine
 10
0.0
 20
5.0
 30
0.0
 11
0.0
 21
5.5
 31
0.0
  0
LINE
  5
33B2
330
3390
100
AcDbEntity
  8
0
  6
Continuous
 62
     0
370
     0
100
AcDbLine
 10
0.0
 20
0.0
 30
0.0
 11
-0.5
 21
0.0
 31
0.0
  0
LINE
  5
33B3
330
3390
100
AcDbEntity
  8
0
  6
Continuous
 62
     0
370
     0
100
AcDbLine
 10
0.0
 20
0.0
 30
0.0
 11
0.0
 21
-0.5
 31
0.0
  0
LINE
  5
33B4
330
3390
100
AcDbEntity
  8
0
  6
Continuous
 62
     0
370
     0
100
AcDbLine
 10
0.0
 20
0.0
 30
0.0
 11
0.5
 21
0.0
 31
0.0
  0
LINE
  5
33B5
330
3390
100
AcDbEntity
  8
0
  6
Continuous
 62
     0
370
     0
100
AcDbLine
 10
0.0
 20
0.0
 30
0.0
 11
0.0
 21
0.5
 31
0.0
  0
LINE
  5
33B6
330
3390
100
AcDbEntity
  8
0
  6
Continuous
 62
     0
370
     0
100
AcDbLine
 10
0.0
 20
-0.5
 30
0.0
 11
0.0
 21
-0.75
 31
0.0
  0
LINE
  5
33B7
330
3390
100
AcDbEntity
  8
0
  6
Continuous
 62
     0
370
     0
100
AcDbLine
 10
0.0
 20
-5.0
 30
0.0
 11
-0.5
 21
-5.0
 31
0.0
  0
LINE
  5
33B8
330
3390
100
AcDbEntity
  8
0
  6
Continuous
 62
     0
370
     0
100
AcDbLine
 10
0.0
 20
-5.0
 30
0.0
 11
0.0
 21
-5.5
 31
0.0
  0
LINE
  5
33B9
330
3390
100
AcDbEntity
  8
0
  6
Continuous
 62
     0
370
     0
100
AcDbLine
 10
0.0
 20
-5.0
 30
0.0
 11
0.5
 21
-5.0
 31
0.0
  0
LINE
  5
33BA
330
3390
100
AcDbEntity
  8
0
  6
Continuous
 62
     0
370
     0
100
AcDbLine
 10
0.0
 20
-5.0
 30
0.0
 11
0.0
 21
-4.5
 31
0.0
  0
LINE
  5
33BB
330
3390
100
AcDbEntity
  8
0
  6
Continuous
 62
     0
370
     0
100
AcDbLine
 10
0.5
 20
-5.0
 30
0.0
 11
0.75
 21
-5.0
 31
0.0
  0
LINE
  5
33BC
330
3390
100
AcDbEntity
  8
0
  6
Continuous
 62
     0
370
     0
100
AcDbLine
 10
0.0
 20
15.0
 30
0.0
 11
-0.5
 21
15.0
 31
0.0
  0
LINE
  5
33BD
330
3390
100
AcDbEntity
  8
0
  6
Continuous
 62
     0
370
     0
100
AcDbLine
 10
0.0
 20
15.0
 30
0.0
 11
0.0
 21
14.5
 31
0.0
  0
LINE
  5
33BE
330
3390
100
AcDbEntity
  8
0
  6
Continuous
 62
     0
370
     0
100
AcDbLine
 10
0.0
 20
15.0
 30
0.0
 11
0.5
 21
15.0
 31
0.0
  0
LINE
  5
33BF
330
3390
100
AcDbEntity
  8
0
  6
Continuous
 62
     0
370
     0
100
AcDbLine
 10
0.0
 20
15.0
 30
0.0
 11
0.0
 21
15.5
 31
0.0
  0
LINE
  5
33C0
330
3390
100
AcDbEntity
  8
0
  6
Continuous
 62
     0
370
     0
100
AcDbLine
 10
0.5
 20
15.0
 30
0.0
 11
0.75
 21
15.0
 31
0.0
  0
LINE
  5
33C1
330
3390
100
AcDbEntity
  8
0
  6
Continuous
 62
     0
370
     0
100
AcDbLine
 10
0.0
 20
15.5
 30
0.0
 11
0.0
 21
15.75
 31
0.0
  0
LINE
  5
33C2
330
3390
100
AcDbEntity
  8
0
  6
Continuous
 62
     0
370
     0
100
AcDbLine
 10
0.0
 20
10.0
 30
0.0
 11
-0.5
 21
10.0
 31
0.0
  0
LINE
  5
33C3
330
3390
100
AcDbEntity
  8
0
  6
Continuous
 62
     0
370
     0
100
AcDbLine
 10
0.0
 20
10.0
 30
0.0
 11
0.0
 21
9.5
 31
0.0
  0
LINE
  5
33C4
330
3390
100
AcDbEntity
  8
0
  6
Continuous
 62
     0
370
     0
100
AcDbLine
 10
0.0
 20
10.0
 30
0.0
 11
0.5
 21
10.0
 31
0.0
  0
LINE
  5
33C5
330
3390
100
AcDbEntity
  8
0
  6
Continuous
 62
     0
370
     0
100
AcDbLine
 10
0.0
 20
10.0
 30
0.0
 11
0.0
 21
10.5
 31
0.0
  0
LINE
  5
33C6
330
3390
100
AcDbEntity
  8
0
  6
Continuous
 62
     0
370
     0
100
AcDbLine
 10
-0.5
 20
10.0
 30
0.0
 11
-0.75
 21
10.0
 31
0.0
  0
LINE
  5
33C7
330
3390
100
AcDbEntity
  8
0
  6
Continuous
 62
     0
370
     0
100
AcDbLine
 10
0.0
 20
10.5
 30
0.0
 11
0.0
 21
10.75
 31
0.0
  0
LINE
  5
33C8
330
3390
100
AcDbEntity
  8
0
  6
Continuous
 62
     0
370
     0
100
AcDbLine
 10
0.0
 20
5.0
 30
0.0
 11
-0.5
 21
5.0
 31
0.0
  0
LINE
  5
33C9
330
3390
100
AcDbEntity
  8
0
  6
Continuous
 62
     0
370
     0
100
AcDbLine
 10
0.0
 20
5.0
 30
0.0
 11
0.0
 21
4.5
 31
0.0
  0
LINE
  5
33CA
330
3390
100
AcDbEntity
  8
0
  6
Continuous
 62
     0
370
     0
100
AcDbLine
 10
0.0
 20
5.0
 30
0.0
 11
0.5
 21
5.0
 31
0.0
  0
LINE
  5
33CB
330
3390
100
AcDbEntity
  8
0
  6
Continuous
 62
     0
370
     0
100
AcDbLine
 10
0.0
 20
5.0
 30
0.0
 11
0.0
 21
5.5
 31
0.0
  0
LINE
  5
33CC
330
3390
100
AcDbEntity
  8
0
  6
Continuous
 62
     0
370
     0
100
AcDbLine
 10
0.5
 20
5.0
 30
0.0
 11
0.75
 21
5.0
 31
0.0
  0
LINE
  5
33CD
330
3390
100
AcDbEntity
  8
0
  6
Continuous
 62
     0
370
     0
100
AcDbLine
 10
0.0
 20
0.0
 30
0.0
 11
-0.5
 21
0.0
 31
0.0
  0
LINE
  5
33CE
330
3390
100
AcDbEntity
  8
0
  6
Continuous
 62
     0
370
     0
100
AcDbLine
 10
0.0
 20
0.0
 30
0.0
 11
0.0
 21
-0.5
 31
0.0
  0
LINE
  5
33CF
330
3390
100
AcDbEntity
  8
0
  6
Continuous
 62
     0
370
     0
100
AcDbLine
 10
0.0
 20
0.0
 30
0.0
 11
0.5
 21
0.0
 31
0.0
  0
LINE
  5
33D0
330
3390
100
AcDbEntity
  8
0
  6
Continuous
 62
     0
370
     0
100
AcDbLine
 10
0.0
 20
0.0
 30
0.0
 11
0.0
 21
0.5
 31
0.0
  0
LINE
  5
33D1
330
3390
100
AcDbEntity
  8
0
  6
Continuous
 62
     0
370
     0
100
AcDbLine
 10
-0.5
 20
0.0
 30
0.0
 11
-0.75
 21
0.0
 31
0.0
  0
LINE
  5
33D2
330
3390
100
AcDbEntity
  8
0
  6
Continuous
 62
     0
370
     0
100
AcDbLine
 10
0.0
 20
0.5
 30
0.0
 11
0.0
 21
0.75
 31
0.0
  0
LINE
  5
33D3
330
3390
100
AcDbEntity
  8
0
  6
Continuous
 62
     0
370
     0
100
AcDbLine
 10
0.0
 20
20.0
 30
0.0
 11
-0.5
 21
20.0
 31
0.0
  0
LINE
  5
33D4
330
3390
100
AcDbEntity
  8
0
  6
Continuous
 62
     0
370
     0
100
AcDbLine
 10
0.0
 20
20.0
 30
0.0
 11
0.0
 21
19.5
 31
0.0
  0
LINE
  5
33D5
330
3390
100
AcDbEntity
  8
0
  6
Continuous
 62
     0
370
     0
100
AcDbLine
 10
0.0
 20
20.0
 30
0.0
 11
0.5
 21
20.0
 31
0.0
  0
LINE
  5
33D6
330
3390
100
AcDbEntity
  8
0
  6
Continuous
 62
     0
370
     0
100
AcDbLine
 10
0.0
 20
20.0
 30
0.0
 11
0.0
 21
20.5
 31
0.0
  0
LINE
  5
33D7
330
3390
100
AcDbEntity
  8
0
  6
Continuous
 62
     0
370
     0
100
AcDbLine
 10
-0.5
 20
20.0
 30
0.0
 11
-0.75
 21
20.0
 31
0.0
  0
LINE
  5
33D8
330
3390
100
AcDbEntity
  8
0
  6
Continuous
 62
     0
370
     0
100
AcDbLine
 10
0.0
 20
19.5
 30
0.0
 11
0.0
 21
19.25
 31
0.0
  0
LINE
  5
33D9
330
3390
100
AcDbEntity
  8
0
  6
Continuous
 62
     0
370
     0
100
AcDbLine
 10
0.5
 20
20.0
 30
0.0
 11
0.75
 21
20.0
 31
0.0
  0
LINE
  5
33DA
330
3390
100
AcDbEntity
  8
0
  6
Continuous
 62
     0
370
     0
100
AcDbLine
 10
0.0
 20
15.0
 30
0.0
 11
-0.5
 21
15.0
 31
0.0
  0
LINE
  5
33DB
330
3390
100
AcDbEntity
  8
0
  6
Continuous
 62
     0
370
     0
100
AcDbLine
 10
0.0
 20
15.0
 30
0.0
 11
0.0
 21
14.5
 31
0.0
  0
LINE
  5
33DC
330
3390
100
AcDbEntity
  8
0
  6
Continuous
 62
     0
370
     0
100
AcDbLine
 10
0.0
 20
15.0
 30
0.0
 11
0.5
 21
15.0
 31
0.0
  0
LINE
  5
33DD
330
3390
100
AcDbEntity
  8
0
  6
Continuous
 62
     0
370
     0
100
AcDbLine
 10
0.0
 20
15.0
 30
0.0
 11
0.0
 21
15.5
 31
0.0
  0
LINE
  5
33DE
330
3390
100
AcDbEntity
  8
0
  6
Continuous
 62
     0
370
     0
100
AcDbLine
 10
-0.5
 20
15.0
 30
0.0
 11
-0.75
 21
15.0
 31
0.0
  0
LINE
  5
33DF
330
3390
100
AcDbEntity
  8
0
  6
Continuous
 62
     0
370
     0
100
AcDbLine
 10
0.0
 20
14.5
 30
0.0
 11
0.0
 21
14.25
 31
0.0
  0
LINE
  5
33E0
330
3390
100
AcDbEntity
  8
0
  6
Continuous
 62
     0
370
     0
100
AcDbLine
 10
0.0
 20
10.0
 30
0.0
 11
-0.5
 21
10.0
 31
0.0
  0
LINE
  5
33E1
330
3390
100
AcDbEntity
  8
0
  6
Continuous
 62
     0
370
     0
100
AcDbLine
 10
0.0
 20
10.0
 30
0.0
 11
0.0
 21
9.5
 31
0.0
  0
LINE
  5
33E2
330
3390
100
AcDbEntity
  8
0
  6
Continuous
 62
     0
370
     0
100
AcDbLine
 10
0.0
 20
10.0
 30
0.0
 11
0.5
 21
10.0
 31
0.0
  0
LINE
  5
33E3
330
3390
100
AcDbEntity
  8
0
  6
Continuous
 62
     0
370
     0
100
AcDbLine
 10
0.0
 20
10.0
 30
0.0
 11
0.0
 21
10.5
 31
0.0
  0
LINE
  5
33E4
330
3390
100
AcDbEntity
  8
0
  6
Continuous
 62
     0
370
     0
100
AcDbLine
 10
0.0
 20
9.5
 30
0.0
 11
0.0
 21
9.25
 31
0.0
  0
LINE
  5
33E5
330
3390
100
AcDbEntity
  8
0
  6
Continuous
 62
     0
370
     0
100
AcDbLine
 10
0.0
 20
5.0
 30
0.0
 11
-0.5
 21
5.0
 31
0.0
  0
LINE
  5
33E6
330
3390
100
AcDbEntity
  8
0
  6
Continuous
 62
     0
370
     0
100
AcDbLine
 10
0.0
 20
5.0
 30
0.0
 11
0.0
 21
4.5
 31
0.0
  0
LINE
  5
33E7
330
3390
100
AcDbEntity
  8
0
  6
Continuous
 62
     0
370
     0
100
AcDbLine
 10
0.0
 20
5.0
 30
0.0
 11
0.5
 21
5.0
 31
0.0
  0
LINE
  5
33E8
330
3390
100
AcDbEntity
  8
0
  6
Continuous
 62
     0
370
     0
100
AcDbLine
 10
0.0
 20
5.0
 30
0.0
 11
0.0
 21
5.5
 31
0.0
  0
LINE
  5
33E9
330
3390
100
AcDbEntity
  8
0
  6
Continuous
 62
     0
370
     0
100
AcDbLine
 10
0.0
 20
4.5
 30
0.0
 11
0.0
 21
4.25
 31
0.0
  0
LINE
  5
33EA
330
3390
100
AcDbEntity
  8
0
  6
Continuous
 62
     0
370
     0
100
AcDbLine
 10
0.0
 20
19.0
 30
0.0
 11
0.0
 21
16.0
 31
0.0
  0
LINE
  5
33EB
330
3390
100
AcDbEntity
  8
0
  6
Continuous
 62
     0
370
     0
100
AcDbLine
 10
0.0
 20
14.0
 30
0.0
 11
0.0
 21
11.0
 31
0.0
  0
LINE
  5
33EC
330
3390
100
AcDbEntity
  8
0
  6
Continuous
 62
     0
370
     0
100
AcDbLine
 10
0.0
 20
9.0
 30
0.0
 11
0.0
 21
6.0
 31
0.0
  0
LINE
  5
33ED
330
3390
100
AcDbEntity
  8
0
  6
Continuous
 62
     0
370
     0
100
AcDbLine
 10
0.0
 20
4.0
 30
0.0
 11
0.0
 21
1.0
 31
0.0
  0
LINE
  5
33EE
330
3390
100
AcDbEntity
  8
0
  6
Continuous
 62
     0
370
     0
100
AcDbLine
 10
0.0
 20
-1.0
 30
0.0
 11
0.0
 21
-4.0
 31
0.0
  0
LINE
  5
33EF
330
3390
100
AcDbEntity
  8
0
  6
Continuous
 62
     0
370
     0
100
AcDbLine
 10
0.0
 20
-6.0
 30
0.0
 11
0.0
 21
-9.0
 31
0.0
  0
ENDBLK
  5
33F0
330
3390
100
AcDbEntity
  8
0
100
AcDbBlockEnd
  0
BLOCK
  5
33F3
330
33F2
100
AcDbEntity
  8
0
100
AcDbBlockBegin
  2
SW_CENTERMARKSYMBOL_25
 70
     0
 10
0.0
 20
0.0
 30
0.0
  3
SW_CENTERMARKSYMBOL_25
  1
SW_CENTERMARKSYMBOL_25
  0
LINE
  5
33F4
330
33F2
100
AcDbEntity
  8
0
  6
Continuous
 62
     0
370
     0
100
AcDbLine
 10
0.0
 20
0.0
 30
0.0
 11
-0.5
 21
0.0
 31
0.0
  0
LINE
  5
33F5
330
33F2
100
AcDbEntity
  8
0
  6
Continuous
 62
     0
370
     0
100
AcDbLine
 10
0.0
 20
0.0
 30
0.0
 11
0.0
 21
-0.5
 31
0.0
  0
LINE
  5
33F6
330
33F2
100
AcDbEntity
  8
0
  6
Continuous
 62
     0
370
     0
100
AcDbLine
 10
0.0
 20
0.0
 30
0.0
 11
0.5
 21
0.0
 31
0.0
  0
LINE
  5
33F7
330
33F2
100
AcDbEntity
  8
0
  6
Continuous
 62
     0
370
     0
100
AcDbLine
 10
0.0
 20
0.0
 30
0.0
 11
0.0
 21
0.5
 31
0.0
  0
LINE
  5
33F8
330
33F2
100
AcDbEntity
  8
0
  6
Continuous
 62
     0
370
     0
100
AcDbLine
 10
-0.5
 20
0.0
 30
0.0
 11
-0.9
 21
0.0
 31
0.0
  0
LINE
  5
33F9
330
33F2
100
AcDbEntity
  8
0
  6
Continuous
 62
     0
370
     0
100
AcDbLine
 10
0.0
 20
-0.5
 30
0.0
 11
0.0
 21
-0.9
 31
0.0
  0
LINE
  5
33FA
330
33F2
100
AcDbEntity
  8
0
  6
Continuous
 62
     0
370
     0
100
AcDbLine
 10
0.5
 20
0.0
 30
0.0
 11
0.9
 21
0.0
 31
0.0
  0
LINE
  5
33FB
330
33F2
100
AcDbEntity
  8
0
  6
Continuous
 62
     0
370
     0
100
AcDbLine
 10
0.0
 20
0.5
 30
0.0
 11
0.0
 21
0.9
 31
0.0
  0
ENDBLK
  5
33FC
330
33F2
100
AcDbEntity
  8
0
100
AcDbBlockEnd
  0
BLOCK
  5
33FF
330
33FE
100
AcDbEntity
  8
0
100
AcDbBlockBegin
  2
SW_CENTERMARKSYMBOL_26
 70
     0
 10
0.0
 20
0.0
 30
0.0
  3
SW_CENTERMARKSYMBOL_26
  1
SW_CENTERMARKSYMBOL_26
  0
LINE
  5
3400
330
33FE
100
AcDbEntity
  8
0
  6
Continuous
 62
     0
370
     0
100
AcDbLine
 10
0.0
 20
0.0
 30
0.0
 11
-0.5
 21
0.0
 31
0.0
  0
LINE
  5
3401
330
33FE
100
AcDbEntity
  8
0
  6
Continuous
 62
     0
370
     0
100
AcDbLine
 10
0.0
 20
0.0
 30
0.0
 11
0.0
 21
-0.5
 31
0.0
  0
LINE
  5
3402
330
33FE
100
AcDbEntity
  8
0
  6
Continuous
 62
     0
370
     0
100
AcDbLine
 10
0.0
 20
0.0
 30
0.0
 11
0.5
 21
0.0
 31
0.0
  0
LINE
  5
3403
330
33FE
100
AcDbEntity
  8
0
  6
Continuous
 62
     0
370
     0
100
AcDbLine
 10
0.0
 20
0.0
 30
0.0
 11
0.0
 21
0.5
 31
0.0
  0
LINE
  5
3404
330
33FE
100
AcDbEntity
  8
0
  6
Continuous
 62
     0
370
     0
100
AcDbLine
 10
-0.5
 20
0.0
 30
0.0
 11
-0.9
 21
0.0
 31
0.0
  0
LINE
  5
3405
330
33FE
100
AcDbEntity
  8
0
  6
Continuous
 62
     0
370
     0
100
AcDbLine
 10
0.0
 20
-0.5
 30
0.0
 11
0.0
 21
-0.9
 31
0.0
  0
LINE
  5
3406
330
33FE
100
AcDbEntity
  8
0
  6
Continuous
 62
     0
370
     0
100
AcDbLine
 10
0.5
 20
0.0
 30
0.0
 11
0.9
 21
0.0
 31
0.0
  0
LINE
  5
3407
330
33FE
100
AcDbEntity
  8
0
  6
Continuous
 62
     0
370
     0
100
AcDbLine
 10
0.0
 20
0.5
 30
0.0
 11
0.0
 21
0.9
 31
0.0
  0
ENDBLK
  5
3408
330
33FE
100
AcDbEntity
  8
0
100
AcDbBlockEnd
  0
BLOCK
  5
632D
330
632C
100
AcDbEntity
  8
0
100
AcDbBlockBegin
  2
*D21
 70
     1
 10
0.0
 20
0.0
 30
0.0
  3
*D21
  1
*D21
  0
LINE
  5
63F6
330
632C
100
AcDbEntity
  8
寸法線
 62
     0
370
    -2
100
AcDbLine
 10
1221.514371734817
 20
1022.586553983486
 30
0.0
 11
1326.49811425185
 21
1022.586553983486
 31
0.0
  0
LINE
  5
63F7
330
632C
100
AcDbEntity
  8
寸法線
 62
     0
370
    -2
100
AcDbLine
 10
1227.514379631417
 20
534.1865508364863
 30
0.0
 11
1326.49811425185
 21
534.1865508364863
 31
0.0
  0
LINE
  5
63F8
330
632C
100
AcDbEntity
  8
寸法線
 62
     0
370
    -2
100
AcDbLine
 10
1325.49811425185
 20
1002.586553983486
 30
0.0
 11
1325.49811425185
 21
554.1865508364863
 31
0.0
  0
INSERT
  5
63F9
330
632C
100
AcDbEntity
  8
寸法線
 62
     0
370
    -2
100
AcDbBlockReference
  2
_Open
 10
1325.49811425185
 20
1022.586553983486
 30
0.0
 41
20.0
 42
20.0
 43
20.0
 50
90.0
  0
INSERT
  5
63FA
330
632C
100
AcDbEntity
  8
寸法線
 62
     0
370
    -2
100
AcDbBlockReference
  2
_Open
 10
1325.49811425185
 20
534.1865508364863
 30
0.0
 41
20.0
 42
20.0
 43
20.0
 50
270.0
  0
MTEXT
  5
63FB
330
632C
100
AcDbEntity
  8
寸法線
 62
     0
370
    18
100
AcDbMText
 10
1314.49811425185
 20
778.3865524099863
 30
0.0
 40
18.0
 41
0.0
 71
     5
 72
     1
  1
{408}
  7
KANJIT
 11
0.0
 21
1.0
 31
0.0
 73
     1
 44
1.0
  0
POINT
  5
63FC
330
632C
100
AcDbEntity
  8
Defpoints
 62
     0
100
AcDbPoint
 10
1220.514371734817
 20
1022.586553983486
 30
0.0
  0
POINT
  5
63FD
330
632C
100
AcDbEntity
  8
Defpoints
 62
     0
100
AcDbPoint
 10
1226.514379631417
 20
534.1865508364863
 30
0.0
  0
POINT
  5
63FE
330
632C
100
AcDbEntity
  8
Defpoints
 62
     0
100
AcDbPoint
 10
1325.49811425185
 20
534.1865508364863
 30
0.0
  0
ENDBLK
  5
632E
330
632C
100
AcDbEntity
  8
0
100
AcDbBlockEnd
  0
BLOCK
  5
6339
330
6338
100
AcDbEntity
  8
0
100
AcDbBlockBegin
  2
*D22
 70
     1
 10
0.0
 20
0.0
 30
0.0
  3
*D22
  1
*D22
  0
LINE
  5
63E3
330
6338
100
AcDbEntity
  8
寸法線
 62
     0
370
    -2
100
AcDbLine
 10
699.7143713058176
 20
533.1865476894864
 30
0.0
 11
699.7143713058176
 21
473.1865508364863
 31
0.0
  0
LINE
  5
63E4
330
6338
100
AcDbEntity
  8
寸法線
 62
     0
370
    -2
100
AcDbLine
 10
1220.514371734817
 20
533.1865476894864
 30
0.0
 11
1220.514371734817
 21
473.1865508364863
 31
0.0
  0
LINE
  5
63E5
330
6338
100
AcDbEntity
  8
寸法線
 62
     0
370
    -2
100
AcDbLine
 10
719.7143713058176
 20
474.1865508364863
 30
0.0
 11
1200.514371734817
 21
474.1865508364863
 31
0.0
  0
INSERT
  5
63E6
330
6338
100
AcDbEntity
  8
寸法線
 62
     0
370
    -2
100
AcDbBlockReference
  2
_Open
 10
699.7143713058176
 20
474.1865508364863
 30
0.0
 41
20.0
 42
20.0
 43
20.0
 50
180.0
  0
INSERT
  5
63E7
330
6338
100
AcDbEntity
  8
寸法線
 62
     0
370
    -2
100
AcDbBlockReference
  2
_Open
 10
1220.514371734817
 20
474.1865508364863
 30
0.0
 41
20.0
 42
20.0
 43
20.0
  0
MTEXT
  5
63E8
330
6338
100
AcDbEntity
  8
寸法線
 62
     0
370
    18
100
AcDbMText
 10
960.1143715203175
 20
489.8740508364863
 30
0.0
 40
18.0
 41
0.0
 71
     5
 72
     1
  1
(451)
  7
KANJIT
 73
     1
 44
1.0
  0
POINT
  5
63E9
330
6338
100
AcDbEntity
  8
Defpoints
 62
     0
100
AcDbPoint
 10
699.7143713058176
 20
534.1865476894864
 30
0.0
  0
POINT
  5
63EA
330
6338
100
AcDbEntity
  8
Defpoints
 62
     0
100
AcDbPoint
 10
1220.514371734817
 20
534.1865476894864
 30
0.0
  0
POINT
  5
63EB
330
6338
100
AcDbEntity
  8
Defpoints
 62
     0
100
AcDbPoint
 10
1220.514371734817
 20
474.1865508364863
 30
0.0
  0
ENDBLK
  5
633A
330
6338
100
AcDbEntity
  8
0
100
AcDbBlockEnd
  0
BLOCK
  5
6345
330
6344
100
AcDbEntity
  8
0
100
AcDbBlockBegin
  2
*D23
 70
     1
 10
0.0
 20
0.0
 30
0.0
  3
*D23
  1
*D23
  0
LINE
  5
63FF
330
6344
100
AcDbEntity
  8
寸法線
 62
     0
370
    -2
100
AcDbLine
 10
1216.114379631418
 20
373.7928953662868
 30
0.0
 11
1299.952465015017
 21
373.7928953662868
 31
0.0
  0
LINE
  5
6400
330
6344
100
AcDbEntity
  8
寸法線
 62
     0
370
    -2
100
AcDbLine
 10
1221.514371734817
 20
362.9928958222863
 30
0.0
 11
1299.952465015017
 21
362.9928958222863
 31
0.0
  0
LINE
  5
6401
330
6344
100
AcDbEntity
  8
寸法線
 62
     0
370
    -2
100
AcDbLine
 10
1298.952465015017
 20
342.9928958222863
 30
0.0
 11
1298.952465015017
 21
307.9303958222863
 31
0.0
  0
LINE
  5
6402
330
6344
100
AcDbEntity
  8
寸法線
 62
     0
370
    -2
100
AcDbLine
 10
1298.952465015017
 20
373.7928953662868
 30
0.0
 11
1298.952465015017
 21
362.9928958222863
 31
0.0
  0
LINE
  5
6403
330
6344
100
AcDbEntity
  8
寸法線
 62
     0
370
    -2
100
AcDbLine
 10
1298.952465015017
 20
393.7928953662868
 30
0.0
 11
1298.952465015017
 21
413.7928953662868
 31
0.0
  0
INSERT
  5
6404
330
6344
100
AcDbEntity
  8
寸法線
 62
     0
370
    -2
100
AcDbBlockReference
  2
_Open
 10
1298.952465015017
 20
373.7928953662868
 30
0.0
 41
20.0
 42
20.0
 43
20.0
 50
270.0
  0
INSERT
  5
6405
330
6344
100
AcDbEntity
  8
寸法線
 62
     0
370
    -2
100
AcDbBlockReference
  2
_Open
 10
1298.952465015017
 20
362.9928958222863
 30
0.0
 41
20.0
 42
20.0
 43
20.0
 50
90.0
  0
MTEXT
  5
6406
330
6344
100
AcDbEntity
  8
寸法線
 62
     0
370
    18
100
AcDbMText
 10
1287.952465015017
 20
315.4616458222863
 30
0.0
 40
18.0
 41
0.0
 71
     5
 72
     1
  1
9
  7
KANJI
 11
0.0
 21
1.0
 31
0.0
 73
     1
 44
1.0
  0
POINT
  5
6407
330
6344
100
AcDbEntity
  8
Defpoints
 62
     0
100
AcDbPoint
 10
1215.114379631418
 20
373.7928953662868
 30
0.0
  0
POINT
  5
6408
330
6344
100
AcDbEntity
  8
Defpoints
 62
     0
100
AcDbPoint
 10
1220.514371734817
 20
362.9928958222863
 30
0.0
  0
POINT
  5
6409
330
6344
100
AcDbEntity
  8
Defpoints
 62
     0
100
AcDbPoint
 10
1298.952465015017
 20
362.9928958222863
 30
0.0
  0
ENDBLK
  5
6346
330
6344
100
AcDbEntity
  8
0
100
AcDbBlockEnd
  0
BLOCK
  5
6361
330
6360
100
AcDbEntity
  8
0
100
AcDbBlockBegin
  2
*D24
 70
     1
 10
0.0
 20
0.0
 30
0.0
  3
*D24
  1
*D24
  0
LINE
  5
63EC
330
6360
100
AcDbEntity
  8
寸法線
 62
     0
370
    -2
100
AcDbLine
 10
1221.514371734817
 20
558.1865426824861
 30
0.0
 11
1279.434833118379
 21
558.1865426824861
 31
0.0
  0
LINE
  5
63ED
330
6360
100
AcDbEntity
  8
寸法線
 62
     0
370
    -2
100
AcDbLine
 10
1221.514371734817
 20
534.1865476894864
 30
0.0
 11
1279.434833118379
 21
534.1865476894864
 31
0.0
  0
LINE
  5
63EE
330
6360
100
AcDbEntity
  8
寸法線
 62
     0
370
    -2
100
AcDbLine
 10
1278.434833118379
 20
558.1865426824861
 30
0.0
 11
1278.434833118379
 21
638.9484474443918
 31
0.0
  0
LINE
  5
63EF
330
6360
100
AcDbEntity
  8
寸法線
 62
     0
370
    -2
100
AcDbLine
 10
1278.434833118379
 20
558.1865426824861
 30
0.0
 11
1278.434833118379
 21
534.1865476894864
 31
0.0
  0
LINE
  5
63F0
330
6360
100
AcDbEntity
  8
寸法線
 62
     0
370
    -2
100
AcDbLine
 10
1278.434833118379
 20
578.1865426824861
 30
0.0
 11
1278.434833118379
 21
598.1865426824861
 31
0.0
  0
LINE
  5
63F1
330
6360
100
AcDbEntity
  8
寸法線
 62
     0
370
    -2
100
AcDbLine
 10
1278.434833118379
 20
514.1865476894864
 30
0.0
 11
1278.434833118379
 21
494.1865476894864
 31
0.0
  0
INSERT
  5
63F2
330
6360
100
AcDbEntity
  8
寸法線
 62
     0
370
    -2
100
AcDbBlockReference
  2
_Open
 10
1278.434833118379
 20
558.1865426824861
 30
0.0
 41
20.0
 42
20.0
 43
20.0
 50
270.0
  0
INSERT
  5
63F3
330
6360
100
AcDbEntity
  8
寸法線
 62
     0
370
    -2
100
AcDbBlockReference
  2
_Open
 10
1278.434833118379
 20
534.1865476894864
 30
0.0
 41
20.0
 42
20.0
 43
20.0
 50
90.0
  0
MTEXT
  5
63F4
330
6360
100
AcDbEntity
  8
寸法線
 62
     0
370
    18
100
AcDbMText
 10
1267.434833118379
 20
622.3770188729632
 30
0.0
 40
18.0
 41
0.0
 71
     5
 72
     1
  1
20
  7
KANJI
 11
0.0
 21
1.0
 31
0.0
 73
     1
 44
1.0
  0
POINT
  5
63F5
330
6360
100
AcDbEntity
  8
Defpoints
 62
     0
100
AcDbPoint
 10
1220.514371734817
 20
558.1865426824861
 30
0.0
  0
POINT
  5
6616
330
6360
100
AcDbEntity
  8
Defpoints
 62
     0
100
AcDbPoint
 10
1220.514371734817
 20
534.1865476894864
 30
0.0
  0
POINT
  5
6617
330
6360
100
AcDbEntity
  8
Defpoints
 62
     0
100
AcDbPoint
 10
1278.434833118379
 20
534.1865476894864
 30
0.0
  0
ENDBLK
  5
6362
330
6360
100
AcDbEntity
  8
0
100
AcDbBlockEnd
  0
ENDSEC
  0
SECTION
  2
ENTITIES
  0
TEXT
  5
2BC
330
1F
100
AcDbEntity
  8
C寸法
 62
     7
100
AcDbText
 10
1272.245957080483
 20
201.3629073928934
 30
0.0
 40
30.0
  1
品　番　：S-410寸法図
  7
KANJI
100
AcDbText
  0
LINE
  5
319
330
1F
100
AcDbEntity
  8
0
100
AcDbLine
 10
1246.148614201466
 20
189.5692752604066
 30
0.0
 11
1726.558164635673
 21
189.5692752604066
 31
0.0
  0
LWPOLYLINE
  5
4F3
330
1F
100
AcDbEntity
  8
0
100
AcDbPolyline
 90
        4
 70
     1
 43
0.0
 10
68.82474268952706
 20
1278.610310754382
 10
68.82474268952706
 20
77.06182284688884
 10
1868.880401932073
 20
77.06182284688884
 10
1868.880401932073
 20
1278.610310754382
  0
TEXT
  5
4F6
330
1F
100
AcDbEntity
  8
C寸法
 62
     7
100
AcDbText
 10
1272.245957080483
 20
134.8132511124523
 30
0.0
 40
25.0
  1
※詳細はお問合せください
  7
KANJI
100
AcDbText
  0
LINE
  5
610B
330
1F
100
AcDbEntity
  8
0
  6
Continuous
 62
     0
370
    18
100
AcDbLine
 10
1210.914388042817
 20
998.5865589904865
 30
0.0
 11
1210.914388042817
 21
558.1865426824861
 31
0.0
  0
LINE
  5
610C
330
1F
100
AcDbEntity
  8
0
  6
Continuous
 62
     0
370
    18
100
AcDbLine
 10
1219.314387184817
 20
558.1865426824861
 30
0.0
 11
1219.314387184817
 21
998.5865589904865
 31
0.0
  0
LINE
  5
610D
330
1F
100
AcDbEntity
  8
0
  6
Continuous
 62
     0
370
    18
100
AcDbLine
 10
1190.514382464018
 20
998.5865589904865
 30
0.0
 11
1190.514382464018
 21
558.1865426824861
 31
0.0
  0
LINE
  5
610E
330
1F
100
AcDbEntity
  8
0
  6
Continuous
 62
     0
370
    18
100
AcDbLine
 10
1198.914381605417
 20
558.1865426824861
 30
0.0
 11
1198.914381605417
 21
998.5865589904865
 31
0.0
  0
LINE
  5
610F
330
1F
100
AcDbEntity
  8
0
  6
Continuous
 62
     0
370
    18
100
AcDbLine
 10
1170.114376884617
 20
998.5865589904865
 30
0.0
 11
1170.114376884617
 21
558.1865426824861
 31
0.0
  0
LINE
  5
6110
330
1F
100
AcDbEntity
  8
0
  6
Continuous
 62
     0
370
    18
100
AcDbLine
 10
1178.514376026618
 20
558.1865426824861
 30
0.0
 11
1178.514376026618
 21
998.5865589904865
 31
0.0
  0
LINE
  5
6111
330
1F
100
AcDbEntity
  8
0
  6
Continuous
 62
     0
370
    18
100
AcDbLine
 10
1149.714371305818
 20
998.5865589904865
 30
0.0
 11
1149.714371305818
 21
558.1865426824861
 31
0.0
  0
LINE
  5
6112
330
1F
100
AcDbEntity
  8
0
  6
Continuous
 62
     0
370
    18
100
AcDbLine
 10
1158.114388329017
 20
558.1865426824861
 30
0.0
 11
1158.114388329017
 21
998.5865589904865
 31
0.0
  0
LINE
  5
6113
330
1F
100
AcDbEntity
  8
0
  6
Continuous
 62
     0
370
    18
100
AcDbLine
 10
1129.314383608218
 20
998.5865589904865
 30
0.0
 11
1129.314383608218
 21
558.1865426824861
 31
0.0
  0
LINE
  5
6114
330
1F
100
AcDbEntity
  8
0
  6
Continuous
 62
     0
370
    18
100
AcDbLine
 10
1137.714382750217
 20
558.1865426824861
 30
0.0
 11
1137.714382750217
 21
998.5865589904865
 31
0.0
  0
LINE
  5
6115
330
1F
100
AcDbEntity
  8
0
  6
Continuous
 62
     0
370
    18
100
AcDbLine
 10
1108.914378029418
 20
998.5865589904865
 30
0.0
 11
1108.914378029418
 21
558.1865426824861
 31
0.0
  0
LINE
  5
6116
330
1F
100
AcDbEntity
  8
0
  6
Continuous
 62
     0
370
    18
100
AcDbLine
 10
1117.314377170817
 20
558.1865426824861
 30
0.0
 11
1117.314377170817
 21
998.5865589904865
 31
0.0
  0
LINE
  5
6117
330
1F
100
AcDbEntity
  8
0
  6
Continuous
 62
     0
370
    18
100
AcDbLine
 10
1088.514381391217
 20
998.5865589904865
 30
0.0
 11
1088.514381391217
 21
558.1865426824861
 31
0.0
  0
LINE
  5
6118
330
1F
100
AcDbEntity
  8
0
  6
Continuous
 62
     0
370
    18
100
AcDbLine
 10
1096.914380532618
 20
558.1865426824861
 30
0.0
 11
1096.914380532618
 21
998.5865589904865
 31
0.0
  0
LINE
  5
6119
330
1F
100
AcDbEntity
  8
0
  6
Continuous
 62
     0
370
    18
100
AcDbLine
 10
1068.114375811817
 20
998.5865589904865
 30
0.0
 11
1068.114375811817
 21
558.1865426824861
 31
0.0
  0
LINE
  5
611A
330
1F
100
AcDbEntity
  8
0
  6
Continuous
 62
     0
370
    18
100
AcDbLine
 10
1076.514383894417
 20
558.1865426824861
 30
0.0
 11
1076.514383894417
 21
998.5865589904865
 31
0.0
  0
LINE
  5
611B
330
1F
100
AcDbEntity
  8
0
  6
Continuous
 62
     0
370
    18
100
AcDbLine
 10
1047.714379173618
 20
998.5865589904865
 30
0.0
 11
1047.714379173618
 21
558.1865426824861
 31
0.0
  0
LINE
  5
611C
330
1F
100
AcDbEntity
  8
0
  6
Continuous
 62
     0
370
    18
100
AcDbLine
 10
1056.114378315617
 20
558.1865426824861
 30
0.0
 11
1056.114378315617
 21
998.5865589904865
 31
0.0
  0
LINE
  5
611D
330
1F
100
AcDbEntity
  8
0
  6
Continuous
 62
     0
370
    18
100
AcDbLine
 10
1027.314378064817
 20
998.5865589904865
 30
0.0
 11
1027.314378064817
 21
558.1865426824861
 31
0.0
  0
LINE
  5
611E
330
1F
100
AcDbEntity
  8
0
  6
Continuous
 62
     0
370
    18
100
AcDbLine
 10
1035.714381676817
 20
558.1865426824861
 30
0.0
 11
1035.714381676817
 21
998.5865589904865
 31
0.0
  0
LINE
  5
611F
330
1F
100
AcDbEntity
  8
0
  6
Continuous
 62
     0
370
    18
100
AcDbLine
 10
1006.914381426617
 20
998.5865589904865
 30
0.0
 11
1006.914381426617
 21
558.1865426824861
 31
0.0
  0
LINE
  5
6120
330
1F
100
AcDbEntity
  8
0
  6
Continuous
 62
     0
370
    18
100
AcDbLine
 10
1015.314380568617
 20
558.1865426824861
 30
0.0
 11
1015.314380568617
 21
998.5865589904865
 31
0.0
  0
LINE
  5
6121
330
1F
100
AcDbEntity
  8
0
  6
Continuous
 62
     0
370
    18
100
AcDbLine
 10
986.5143803178175
 20
998.5865589904865
 30
0.0
 11
986.5143803178175
 21
558.1865426824861
 31
0.0
  0
LINE
  5
6122
330
1F
100
AcDbEntity
  8
0
  6
Continuous
 62
     0
370
    18
100
AcDbLine
 10
994.9143794598176
 20
558.1865426824861
 30
0.0
 11
994.9143794598176
 21
998.5865589904865
 31
0.0
  0
LINE
  5
6123
330
1F
100
AcDbEntity
  8
0
  6
Continuous
 62
     0
370
    18
100
AcDbLine
 10
966.1143797682175
 20
998.5865589904865
 30
0.0
 11
966.1143797682175
 21
558.1865426824861
 31
0.0
  0
LINE
  5
6124
330
1F
100
AcDbEntity
  8
0
  6
Continuous
 62
     0
370
    18
100
AcDbLine
 10
974.5143794688174
 20
558.1865426824861
 30
0.0
 11
974.5143794688174
 21
998.5865589904865
 31
0.0
  0
LINE
  5
6125
330
1F
100
AcDbEntity
  8
0
  6
Continuous
 62
     0
370
    18
100
AcDbLine
 10
700.9143737376176
 20
998.5865589904865
 30
0.0
 11
700.9143737376176
 21
558.1865426824861
 31
0.0
  0
LINE
  5
6126
330
1F
100
AcDbEntity
  8
0
  6
Continuous
 62
     0
370
    18
100
AcDbLine
 10
709.3143728796176
 20
558.1865426824861
 30
0.0
 11
709.3143728796176
 21
998.5865589904865
 31
0.0
  0
LINE
  5
6127
330
1F
100
AcDbEntity
  8
0
  6
Continuous
 62
     0
370
    18
100
AcDbLine
 10
721.3143793170175
 20
998.5865589904865
 30
0.0
 11
721.3143793170175
 21
558.1865426824861
 31
0.0
  0
LINE
  5
6128
330
1F
100
AcDbEntity
  8
0
  6
Continuous
 62
     0
370
    18
100
AcDbLine
 10
729.7143784584177
 20
558.1865426824861
 30
0.0
 11
729.7143784584177
 21
998.5865589904865
 31
0.0
  0
LINE
  5
6129
330
1F
100
AcDbEntity
  8
0
  6
Continuous
 62
     0
370
    18
100
AcDbLine
 10
741.7143848958176
 20
998.5865589904865
 30
0.0
 11
741.7143848958176
 21
558.1865426824861
 31
0.0
  0
LINE
  5
612A
330
1F
100
AcDbEntity
  8
0
  6
Continuous
 62
     0
370
    18
100
AcDbLine
 10
750.1143840372174
 20
558.1865426824861
 30
0.0
 11
750.1143840372174
 21
998.5865589904865
 31
0.0
  0
LINE
  5
612B
330
1F
100
AcDbEntity
  8
0
  6
Continuous
 62
     0
370
    18
100
AcDbLine
 10
762.1143725934171
 20
998.5865589904865
 30
0.0
 11
762.1143725934171
 21
558.1865426824861
 31
0.0
  0
LINE
  5
612C
330
1F
100
AcDbEntity
  8
0
  6
Continuous
 62
     0
370
    18
100
AcDbLine
 10
770.5143717348174
 20
558.1865426824861
 30
0.0
 11
770.5143717348174
 21
998.5865589904865
 31
0.0
  0
LINE
  5
612D
330
1F
100
AcDbEntity
  8
0
  6
Continuous
 62
     0
370
    18
100
AcDbLine
 10
782.5143781722172
 20
998.5865589904865
 30
0.0
 11
782.5143781722172
 21
558.1865426824861
 31
0.0
  0
LINE
  5
612E
330
1F
100
AcDbEntity
  8
0
  6
Continuous
 62
     0
370
    18
100
AcDbLine
 10
790.9143773142173
 20
558.1865426824861
 30
0.0
 11
790.9143773142173
 21
998.5865589904865
 31
0.0
  0
LINE
  5
612F
330
1F
100
AcDbEntity
  8
0
  6
Continuous
 62
     0
370
    18
100
AcDbLine
 10
802.9143837516176
 20
998.5865589904865
 30
0.0
 11
802.9143837516176
 21
558.1865426824861
 31
0.0
  0
LINE
  5
6130
330
1F
100
AcDbEntity
  8
0
  6
Continuous
 62
     0
370
    18
100
AcDbLine
 10
811.3143828930174
 20
558.1865426824861
 30
0.0
 11
811.3143828930174
 21
998.5865589904865
 31
0.0
  0
LINE
  5
6131
330
1F
100
AcDbEntity
  8
0
  6
Continuous
 62
     0
370
    18
100
AcDbLine
 10
823.3143803898174
 20
998.5865589904865
 30
0.0
 11
823.3143803898174
 21
558.1865426824861
 31
0.0
  0
LINE
  5
6132
330
1F
100
AcDbEntity
  8
0
  6
Continuous
 62
     0
370
    18
100
AcDbLine
 10
831.7143795312177
 20
558.1865426824861
 30
0.0
 11
831.7143795312177
 21
998.5865589904865
 31
0.0
  0
LINE
  5
6133
330
1F
100
AcDbEntity
  8
0
  6
Continuous
 62
     0
370
    18
100
AcDbLine
 10
843.7143770280177
 20
998.5865589904865
 30
0.0
 11
843.7143770280177
 21
558.1865426824861
 31
0.0
  0
LINE
  5
6134
330
1F
100
AcDbEntity
  8
0
  6
Continuous
 62
     0
370
    18
100
AcDbLine
 10
852.1143761694175
 20
558.1865426824861
 30
0.0
 11
852.1143761694175
 21
998.5865589904865
 31
0.0
  0
LINE
  5
6135
330
1F
100
AcDbEntity
  8
0
  6
Continuous
 62
     0
370
    18
100
AcDbLine
 10
864.1143826068178
 20
998.5865589904865
 30
0.0
 11
864.1143826068178
 21
558.1865426824861
 31
0.0
  0
LINE
  5
6136
330
1F
100
AcDbEntity
  8
0
  6
Continuous
 62
     0
370
    18
100
AcDbLine
 10
872.5143817488174
 20
558.1865426824861
 30
0.0
 11
872.5143817488174
 21
998.5865589904865
 31
0.0
  0
LINE
  5
6137
330
1F
100
AcDbEntity
  8
0
  6
Continuous
 62
     0
370
    18
100
AcDbLine
 10
884.5143792450176
 20
998.5865589904865
 30
0.0
 11
884.5143792450176
 21
558.1865426824861
 31
0.0
  0
LINE
  5
6138
330
1F
100
AcDbEntity
  8
0
  6
Continuous
 62
     0
370
    18
100
AcDbLine
 10
892.9143783870172
 20
558.1865426824861
 30
0.0
 11
892.9143783870172
 21
998.5865589904865
 31
0.0
  0
LINE
  5
6139
330
1F
100
AcDbEntity
  8
0
  6
Continuous
 62
     0
370
    18
100
AcDbLine
 10
904.9143803538177
 20
998.5865589904865
 30
0.0
 11
904.9143803538177
 21
558.1865426824861
 31
0.0
  0
LINE
  5
613A
330
1F
100
AcDbEntity
  8
0
  6
Continuous
 62
     0
370
    18
100
AcDbLine
 10
913.3143794958173
 20
558.1865426824861
 30
0.0
 11
913.3143794958173
 21
998.5865589904865
 31
0.0
  0
LINE
  5
613B
330
1F
100
AcDbEntity
  8
0
  6
Continuous
 62
     0
370
    18
100
AcDbLine
 10
925.3143814626173
 20
998.5865589904865
 30
0.0
 11
925.3143814626173
 21
558.1865426824861
 31
0.0
  0
LINE
  5
613C
330
1F
100
AcDbEntity
  8
0
  6
Continuous
 62
     0
370
    18
100
AcDbLine
 10
933.7143806040176
 20
558.1865426824861
 30
0.0
 11
933.7143806040176
 21
998.5865589904865
 31
0.0
  0
LINE
  5
613D
330
1F
100
AcDbEntity
  8
0
  6
Continuous
 62
     0
370
    18
100
AcDbLine
 10
945.7143792186175
 20
998.5865589904865
 30
0.0
 11
945.7143792186175
 21
558.1865426824861
 31
0.0
  0
LINE
  5
613E
330
1F
100
AcDbEntity
  8
0
  6
Continuous
 62
     0
370
    18
100
AcDbLine
 10
954.1143794778177
 20
558.1865426824861
 30
0.0
 11
954.1143794778177
 21
998.5865589904865
 31
0.0
  0
LINE
  5
613F
330
1F
100
AcDbEntity
  8
0
  6
Continuous
 62
     0
370
    18
100
AcDbLine
 10
1036.914379638617
 20
534.1865476894864
 30
0.0
 11
1036.914379638617
 21
558.1865426824861
 31
0.0
  0
LINE
  5
6140
330
1F
100
AcDbEntity
  8
0
  6
Continuous
 62
     0
370
    18
100
AcDbLine
 10
1026.114380103617
 20
534.1865476894864
 30
0.0
 11
1026.114380103617
 21
558.1865426824861
 31
0.0
  0
LINE
  5
6141
330
1F
100
AcDbEntity
  8
0
  6
Continuous
 62
     0
370
    18
100
AcDbLine
 10
1036.914379638617
 20
558.1865426824861
 30
0.0
 11
1026.114380103617
 21
558.1865426824861
 31
0.0
  0
LINE
  5
6142
330
1F
100
AcDbEntity
  8
0
  6
Continuous
 62
     0
370
    18
100
AcDbLine
 10
1036.914379638617
 20
534.1865476894864
 30
0.0
 11
1026.114380103617
 21
534.1865476894864
 31
0.0
  0
LINE
  5
6143
330
1F
100
AcDbEntity
  8
0
  6
Continuous
 62
     0
370
    18
100
AcDbLine
 10
1179.714378458417
 20
534.1865476894864
 30
0.0
 11
1179.714378458417
 21
558.1865426824861
 31
0.0
  0
LINE
  5
6144
330
1F
100
AcDbEntity
  8
0
  6
Continuous
 62
     0
370
    18
100
AcDbLine
 10
1168.914374452818
 20
534.1865476894864
 30
0.0
 11
1168.914374452818
 21
558.1865426824861
 31
0.0
  0
LINE
  5
6145
330
1F
100
AcDbEntity
  8
0
  6
Continuous
 62
     0
370
    18
100
AcDbLine
 10
1179.714378458417
 20
558.1865426824861
 30
0.0
 11
1168.914374452818
 21
558.1865426824861
 31
0.0
  0
LINE
  5
6146
330
1F
100
AcDbEntity
  8
0
  6
Continuous
 62
     0
370
    18
100
AcDbLine
 10
1179.714378458417
 20
534.1865476894864
 30
0.0
 11
1168.914374452818
 21
534.1865476894864
 31
0.0
  0
LINE
  5
6147
330
1F
100
AcDbEntity
  8
0
  6
Continuous
 62
     0
370
    18
100
AcDbLine
 10
1138.914385182018
 20
534.1865476894864
 30
0.0
 11
1138.914385182018
 21
558.1865426824861
 31
0.0
  0
LINE
  5
6148
330
1F
100
AcDbEntity
  8
0
  6
Continuous
 62
     0
370
    18
100
AcDbLine
 10
1128.114381176417
 20
534.1865476894864
 30
0.0
 11
1128.114381176417
 21
558.1865426824861
 31
0.0
  0
LINE
  5
6149
330
1F
100
AcDbEntity
  8
0
  6
Continuous
 62
     0
370
    18
100
AcDbLine
 10
1138.914385182018
 20
558.1865426824861
 30
0.0
 11
1128.114381176417
 21
558.1865426824861
 31
0.0
  0
LINE
  5
614A
330
1F
100
AcDbEntity
  8
0
  6
Continuous
 62
     0
370
    18
100
AcDbLine
 10
1138.914385182018
 20
534.1865476894864
 30
0.0
 11
1128.114381176417
 21
534.1865476894864
 31
0.0
  0
LINE
  5
614B
330
1F
100
AcDbEntity
  8
0
  6
Continuous
 62
     0
370
    18
100
AcDbLine
 10
1159.314372879618
 20
534.1865476894864
 30
0.0
 11
1159.314372879618
 21
558.1865426824861
 31
0.0
  0
LINE
  5
614C
330
1F
100
AcDbEntity
  8
0
  6
Continuous
 62
     0
370
    18
100
AcDbLine
 10
1148.514386755217
 20
534.1865476894864
 30
0.0
 11
1148.514386755217
 21
558.1865426824861
 31
0.0
  0
LINE
  5
614D
330
1F
100
AcDbEntity
  8
0
  6
Continuous
 62
     0
370
    18
100
AcDbLine
 10
1159.314372879618
 20
558.1865426824861
 30
0.0
 11
1148.514386755217
 21
558.1865426824861
 31
0.0
  0
LINE
  5
614E
330
1F
100
AcDbEntity
  8
0
  6
Continuous
 62
     0
370
    18
100
AcDbLine
 10
1159.314372879618
 20
534.1865476894864
 30
0.0
 11
1148.514386755217
 21
534.1865476894864
 31
0.0
  0
LINE
  5
614F
330
1F
100
AcDbEntity
  8
0
  6
Continuous
 62
     0
370
    18
100
AcDbLine
 10
1077.714377385617
 20
534.1865476894864
 30
0.0
 11
1077.714377385617
 21
558.1865426824861
 31
0.0
  0
LINE
  5
6150
330
1F
100
AcDbEntity
  8
0
  6
Continuous
 62
     0
370
    18
100
AcDbLine
 10
1066.914382320617
 20
534.1865476894864
 30
0.0
 11
1066.914382320617
 21
558.1865426824861
 31
0.0
  0
LINE
  5
6151
330
1F
100
AcDbEntity
  8
0
  6
Continuous
 62
     0
370
    18
100
AcDbLine
 10
1077.714377385617
 20
558.1865426824861
 30
0.0
 11
1066.914382320617
 21
558.1865426824861
 31
0.0
  0
LINE
  5
6152
330
1F
100
AcDbEntity
  8
0
  6
Continuous
 62
     0
370
    18
100
AcDbLine
 10
1077.714377385617
 20
534.1865476894864
 30
0.0
 11
1066.914382320617
 21
534.1865476894864
 31
0.0
  0
LINE
  5
6153
330
1F
100
AcDbEntity
  8
0
  6
Continuous
 62
     0
370
    18
100
AcDbLine
 10
1220.514371734817
 20
534.1865476894864
 30
0.0
 11
1220.514371734817
 21
558.1865426824861
 31
0.0
  0
LINE
  5
6154
330
1F
100
AcDbEntity
  8
0
  6
Continuous
 62
     0
370
    18
100
AcDbLine
 10
1209.714385611017
 20
534.1865476894864
 30
0.0
 11
1209.714385611017
 21
558.1865426824861
 31
0.0
  0
LINE
  5
6155
330
1F
100
AcDbEntity
  8
0
  6
Continuous
 62
     0
370
    18
100
AcDbLine
 10
1220.514371734817
 20
558.1865426824861
 30
0.0
 11
1209.714385611017
 21
558.1865426824861
 31
0.0
  0
LINE
  5
6156
330
1F
100
AcDbEntity
  8
0
  6
Continuous
 62
     0
370
    18
100
AcDbLine
 10
1220.514371734817
 20
534.1865476894864
 30
0.0
 11
1209.714385611017
 21
534.1865476894864
 31
0.0
  0
LINE
  5
6157
330
1F
100
AcDbEntity
  8
0
  6
Continuous
 62
     0
370
    18
100
AcDbLine
 10
1016.514378529817
 20
534.1865476894864
 30
0.0
 11
1016.514378529817
 21
558.1865426824861
 31
0.0
  0
LINE
  5
6158
330
1F
100
AcDbEntity
  8
0
  6
Continuous
 62
     0
370
    18
100
AcDbLine
 10
1005.714378994817
 20
534.1865476894864
 30
0.0
 11
1005.714378994817
 21
558.1865426824861
 31
0.0
  0
LINE
  5
6159
330
1F
100
AcDbEntity
  8
0
  6
Continuous
 62
     0
370
    18
100
AcDbLine
 10
1016.514378529817
 20
558.1865426824861
 30
0.0
 11
1005.714378994817
 21
558.1865426824861
 31
0.0
  0
LINE
  5
615A
330
1F
100
AcDbEntity
  8
0
  6
Continuous
 62
     0
370
    18
100
AcDbLine
 10
1016.514378529817
 20
534.1865476894864
 30
0.0
 11
1005.714378994817
 21
534.1865476894864
 31
0.0
  0
LINE
  5
615B
330
1F
100
AcDbEntity
  8
0
  6
Continuous
 62
     0
370
    18
100
AcDbLine
 10
1118.514379602617
 20
534.1865476894864
 30
0.0
 11
1118.514379602617
 21
558.1865426824861
 31
0.0
  0
LINE
  5
615C
330
1F
100
AcDbEntity
  8
0
  6
Continuous
 62
     0
370
    18
100
AcDbLine
 10
1107.714375597617
 20
534.1865476894864
 30
0.0
 11
1107.714375597617
 21
558.1865426824861
 31
0.0
  0
LINE
  5
615D
330
1F
100
AcDbEntity
  8
0
  6
Continuous
 62
     0
370
    18
100
AcDbLine
 10
1118.514379602617
 20
558.1865426824861
 30
0.0
 11
1107.714375597617
 21
558.1865426824861
 31
0.0
  0
LINE
  5
615E
330
1F
100
AcDbEntity
  8
0
  6
Continuous
 62
     0
370
    18
100
AcDbLine
 10
1118.514379602617
 20
534.1865476894864
 30
0.0
 11
1107.714375597617
 21
534.1865476894864
 31
0.0
  0
LINE
  5
615F
330
1F
100
AcDbEntity
  8
0
  6
Continuous
 62
     0
370
    18
100
AcDbLine
 10
1200.114384037217
 20
534.1865476894864
 30
0.0
 11
1200.114384037217
 21
558.1865426824861
 31
0.0
  0
LINE
  5
6160
330
1F
100
AcDbEntity
  8
0
  6
Continuous
 62
     0
370
    18
100
AcDbLine
 10
1189.314380032217
 20
534.1865476894864
 30
0.0
 11
1189.314380032217
 21
558.1865426824861
 31
0.0
  0
LINE
  5
6161
330
1F
100
AcDbEntity
  8
0
  6
Continuous
 62
     0
370
    18
100
AcDbLine
 10
1200.114384037217
 20
558.1865426824861
 30
0.0
 11
1189.314380032217
 21
558.1865426824861
 31
0.0
  0
LINE
  5
6162
330
1F
100
AcDbEntity
  8
0
  6
Continuous
 62
     0
370
    18
100
AcDbLine
 10
1200.114384037217
 20
534.1865476894864
 30
0.0
 11
1189.314380032217
 21
534.1865476894864
 31
0.0
  0
LINE
  5
6163
330
1F
100
AcDbEntity
  8
0
  6
Continuous
 62
     0
370
    18
100
AcDbLine
 10
996.1143796566175
 20
534.1865476894864
 30
0.0
 11
996.1143796566175
 21
558.1865426824861
 31
0.0
  0
LINE
  5
6164
330
1F
100
AcDbEntity
  8
0
  6
Continuous
 62
     0
370
    18
100
AcDbLine
 10
985.3143801216174
 20
534.1865476894864
 30
0.0
 11
985.3143801216174
 21
558.1865426824861
 31
0.0
  0
LINE
  5
6165
330
1F
100
AcDbEntity
  8
0
  6
Continuous
 62
     0
370
    18
100
AcDbLine
 10
996.1143796566175
 20
558.1865426824861
 30
0.0
 11
985.3143801216174
 21
558.1865426824861
 31
0.0
  0
LINE
  5
6166
330
1F
100
AcDbEntity
  8
0
  6
Continuous
 62
     0
370
    18
100
AcDbLine
 10
996.1143796566175
 20
534.1865476894864
 30
0.0
 11
985.3143801216174
 21
534.1865476894864
 31
0.0
  0
LINE
  5
6167
330
1F
100
AcDbEntity
  8
0
  6
Continuous
 62
     0
370
    18
100
AcDbLine
 10
955.3143796746176
 20
534.1865476894864
 30
0.0
 11
955.3143796746176
 21
558.1865426824861
 31
0.0
  0
LINE
  5
6168
330
1F
100
AcDbEntity
  8
0
  6
Continuous
 62
     0
370
    18
100
AcDbLine
 10
944.5143801390172
 20
534.1865476894864
 30
0.0
 11
944.5143801390172
 21
558.1865426824861
 31
0.0
  0
LINE
  5
6169
330
1F
100
AcDbEntity
  8
0
  6
Continuous
 62
     0
370
    18
100
AcDbLine
 10
955.3143796746176
 20
558.1865426824861
 30
0.0
 11
944.5143801390172
 21
558.1865426824861
 31
0.0
  0
LINE
  5
616A
330
1F
100
AcDbEntity
  8
0
  6
Continuous
 62
     0
370
    18
100
AcDbLine
 10
955.3143796746176
 20
534.1865476894864
 30
0.0
 11
944.5143801390172
 21
534.1865476894864
 31
0.0
  0
LINE
  5
616B
330
1F
100
AcDbEntity
  8
0
  6
Continuous
 62
     0
370
    18
100
AcDbLine
 10
975.7143796656178
 20
534.1865476894864
 30
0.0
 11
975.7143796656178
 21
558.1865426824861
 31
0.0
  0
LINE
  5
616C
330
1F
100
AcDbEntity
  8
0
  6
Continuous
 62
     0
370
    18
100
AcDbLine
 10
964.9143795714176
 20
534.1865476894864
 30
0.0
 11
964.9143795714176
 21
558.1865426824861
 31
0.0
  0
LINE
  5
616D
330
1F
100
AcDbEntity
  8
0
  6
Continuous
 62
     0
370
    18
100
AcDbLine
 10
975.7143796656178
 20
558.1865426824861
 30
0.0
 11
964.9143795714176
 21
558.1865426824861
 31
0.0
  0
LINE
  5
616E
330
1F
100
AcDbEntity
  8
0
  6
Continuous
 62
     0
370
    18
100
AcDbLine
 10
975.7143796656178
 20
534.1865476894864
 30
0.0
 11
964.9143795714176
 21
534.1865476894864
 31
0.0
  0
LINE
  5
616F
330
1F
100
AcDbEntity
  8
0
  6
Continuous
 62
     0
370
    18
100
AcDbLine
 10
1057.314380747418
 20
534.1865476894864
 30
0.0
 11
1057.314380747418
 21
558.1865426824861
 31
0.0
  0
LINE
  5
6170
330
1F
100
AcDbEntity
  8
0
  6
Continuous
 62
     0
370
    18
100
AcDbLine
 10
1046.514376741817
 20
534.1865476894864
 30
0.0
 11
1046.514376741817
 21
558.1865426824861
 31
0.0
  0
LINE
  5
6171
330
1F
100
AcDbEntity
  8
0
  6
Continuous
 62
     0
370
    18
100
AcDbLine
 10
1057.314380747418
 20
558.1865426824861
 30
0.0
 11
1046.514376741817
 21
558.1865426824861
 31
0.0
  0
LINE
  5
6172
330
1F
100
AcDbEntity
  8
0
  6
Continuous
 62
     0
370
    18
100
AcDbLine
 10
1057.314380747418
 20
534.1865476894864
 30
0.0
 11
1046.514376741817
 21
534.1865476894864
 31
0.0
  0
LINE
  5
6173
330
1F
100
AcDbEntity
  8
0
  6
Continuous
 62
     0
370
    18
100
AcDbLine
 10
1098.114382964417
 20
534.1865476894864
 30
0.0
 11
1098.114382964417
 21
558.1865426824861
 31
0.0
  0
LINE
  5
6174
330
1F
100
AcDbEntity
  8
0
  6
Continuous
 62
     0
370
    18
100
AcDbLine
 10
1087.314378959417
 20
534.1865476894864
 30
0.0
 11
1087.314378959417
 21
558.1865426824861
 31
0.0
  0
LINE
  5
6175
330
1F
100
AcDbEntity
  8
0
  6
Continuous
 62
     0
370
    18
100
AcDbLine
 10
1098.114382964417
 20
558.1865426824861
 30
0.0
 11
1087.314378959417
 21
558.1865426824861
 31
0.0
  0
LINE
  5
6176
330
1F
100
AcDbEntity
  8
0
  6
Continuous
 62
     0
370
    18
100
AcDbLine
 10
1098.114382964417
 20
534.1865476894864
 30
0.0
 11
1087.314378959417
 21
534.1865476894864
 31
0.0
  0
LINE
  5
6177
330
1F
100
AcDbEntity
  8
0
  6
Continuous
 62
     0
370
    18
100
AcDbLine
 10
934.9143785658175
 20
534.1865476894864
 30
0.0
 11
934.9143785658175
 21
558.1865426824861
 31
0.0
  0
LINE
  5
6178
330
1F
100
AcDbEntity
  8
0
  6
Continuous
 62
     0
370
    18
100
AcDbLine
 10
924.1143790308174
 20
534.1865476894864
 30
0.0
 11
924.1143790308174
 21
558.1865426824861
 31
0.0
  0
LINE
  5
6179
330
1F
100
AcDbEntity
  8
0
  6
Continuous
 62
     0
370
    18
100
AcDbLine
 10
934.9143785658175
 20
558.1865426824861
 30
0.0
 11
924.1143790308174
 21
558.1865426824861
 31
0.0
  0
LINE
  5
617A
330
1F
100
AcDbEntity
  8
0
  6
Continuous
 62
     0
370
    18
100
AcDbLine
 10
934.9143785658175
 20
534.1865476894864
 30
0.0
 11
924.1143790308174
 21
534.1865476894864
 31
0.0
  0
LINE
  5
617B
330
1F
100
AcDbEntity
  8
0
  6
Continuous
 62
     0
370
    18
100
AcDbLine
 10
914.5143774570174
 20
534.1865476894864
 30
0.0
 11
914.5143774570174
 21
558.1865426824861
 31
0.0
  0
LINE
  5
617C
330
1F
100
AcDbEntity
  8
0
  6
Continuous
 62
     0
370
    18
100
AcDbLine
 10
903.7143779220173
 20
534.1865476894864
 30
0.0
 11
903.7143779220173
 21
558.1865426824861
 31
0.0
  0
LINE
  5
617D
330
1F
100
AcDbEntity
  8
0
  6
Continuous
 62
     0
370
    18
100
AcDbLine
 10
914.5143774570174
 20
558.1865426824861
 30
0.0
 11
903.7143779220173
 21
558.1865426824861
 31
0.0
  0
LINE
  5
617E
330
1F
100
AcDbEntity
  8
0
  6
Continuous
 62
     0
370
    18
100
AcDbLine
 10
914.5143774570174
 20
534.1865476894864
 30
0.0
 11
903.7143779220173
 21
534.1865476894864
 31
0.0
  0
LINE
  5
617F
330
1F
100
AcDbEntity
  8
0
  6
Continuous
 62
     0
370
    18
100
AcDbLine
 10
894.1143808188176
 20
534.1865476894864
 30
0.0
 11
894.1143808188176
 21
558.1865426824861
 31
0.0
  0
LINE
  5
6180
330
1F
100
AcDbEntity
  8
0
  6
Continuous
 62
     0
370
    18
100
AcDbLine
 10
883.3143768132172
 20
534.1865476894864
 30
0.0
 11
883.3143768132172
 21
558.1865426824861
 31
0.0
  0
LINE
  5
6181
330
1F
100
AcDbEntity
  8
0
  6
Continuous
 62
     0
370
    18
100
AcDbLine
 10
894.1143808188176
 20
558.1865426824861
 30
0.0
 11
883.3143768132172
 21
558.1865426824861
 31
0.0
  0
LINE
  5
6182
330
1F
100
AcDbEntity
  8
0
  6
Continuous
 62
     0
370
    18
100
AcDbLine
 10
894.1143808188176
 20
534.1865476894864
 30
0.0
 11
883.3143768132172
 21
534.1865476894864
 31
0.0
  0
LINE
  5
6183
330
1F
100
AcDbEntity
  8
0
  6
Continuous
 62
     0
370
    18
100
AcDbLine
 10
873.7143752400175
 20
534.1865476894864
 30
0.0
 11
873.7143752400175
 21
558.1865426824861
 31
0.0
  0
LINE
  5
6184
330
1F
100
AcDbEntity
  8
0
  6
Continuous
 62
     0
370
    18
100
AcDbLine
 10
862.9143801750174
 20
534.1865476894864
 30
0.0
 11
862.9143801750174
 21
558.1865426824861
 31
0.0
  0
LINE
  5
6185
330
1F
100
AcDbEntity
  8
0
  6
Continuous
 62
     0
370
    18
100
AcDbLine
 10
873.7143752400175
 20
558.1865426824861
 30
0.0
 11
862.9143801750174
 21
558.1865426824861
 31
0.0
  0
LINE
  5
6186
330
1F
100
AcDbEntity
  8
0
  6
Continuous
 62
     0
370
    18
100
AcDbLine
 10
873.7143752400175
 20
534.1865476894864
 30
0.0
 11
862.9143801750174
 21
534.1865476894864
 31
0.0
  0
LINE
  5
6187
330
1F
100
AcDbEntity
  8
0
  6
Continuous
 62
     0
370
    18
100
AcDbLine
 10
853.3143786012174
 20
534.1865476894864
 30
0.0
 11
853.3143786012174
 21
558.1865426824861
 31
0.0
  0
LINE
  5
6188
330
1F
100
AcDbEntity
  8
0
  6
Continuous
 62
     0
370
    18
100
AcDbLine
 10
842.5143835368176
 20
534.1865476894864
 30
0.0
 11
842.5143835368176
 21
558.1865426824861
 31
0.0
  0
LINE
  5
6189
330
1F
100
AcDbEntity
  8
0
  6
Continuous
 62
     0
370
    18
100
AcDbLine
 10
853.3143786012174
 20
558.1865426824861
 30
0.0
 11
842.5143835368176
 21
558.1865426824861
 31
0.0
  0
LINE
  5
618A
330
1F
100
AcDbEntity
  8
0
  6
Continuous
 62
     0
370
    18
100
AcDbLine
 10
853.3143786012174
 20
534.1865476894864
 30
0.0
 11
842.5143835368176
 21
534.1865476894864
 31
0.0
  0
LINE
  5
618B
330
1F
100
AcDbEntity
  8
0
  6
Continuous
 62
     0
370
    18
100
AcDbLine
 10
832.9143819630176
 20
534.1865476894864
 30
0.0
 11
832.9143819630176
 21
558.1865426824861
 31
0.0
  0
LINE
  5
618C
330
1F
100
AcDbEntity
  8
0
  6
Continuous
 62
     0
370
    18
100
AcDbLine
 10
822.1143779580175
 20
534.1865476894864
 30
0.0
 11
822.1143779580175
 21
558.1865426824861
 31
0.0
  0
LINE
  5
618D
330
1F
100
AcDbEntity
  8
0
  6
Continuous
 62
     0
370
    18
100
AcDbLine
 10
832.9143819630176
 20
558.1865426824861
 30
0.0
 11
822.1143779580175
 21
558.1865426824861
 31
0.0
  0
LINE
  5
618E
330
1F
100
AcDbEntity
  8
0
  6
Continuous
 62
     0
370
    18
100
AcDbLine
 10
832.9143819630176
 20
534.1865476894864
 30
0.0
 11
822.1143779580175
 21
534.1865476894864
 31
0.0
  0
LINE
  5
618F
330
1F
100
AcDbEntity
  8
0
  6
Continuous
 62
     0
370
    18
100
AcDbLine
 10
812.5143853248173
 20
534.1865476894864
 30
0.0
 11
812.5143853248173
 21
558.1865426824861
 31
0.0
  0
LINE
  5
6190
330
1F
100
AcDbEntity
  8
0
  6
Continuous
 62
     0
370
    18
100
AcDbLine
 10
801.7143813192174
 20
534.1865476894864
 30
0.0
 11
801.7143813192174
 21
558.1865426824861
 31
0.0
  0
LINE
  5
6191
330
1F
100
AcDbEntity
  8
0
  6
Continuous
 62
     0
370
    18
100
AcDbLine
 10
812.5143853248173
 20
558.1865426824861
 30
0.0
 11
801.7143813192174
 21
558.1865426824861
 31
0.0
  0
LINE
  5
6192
330
1F
100
AcDbEntity
  8
0
  6
Continuous
 62
     0
370
    18
100
AcDbLine
 10
812.5143853248173
 20
534.1865476894864
 30
0.0
 11
801.7143813192174
 21
534.1865476894864
 31
0.0
  0
LINE
  5
6193
330
1F
100
AcDbEntity
  8
0
  6
Continuous
 62
     0
370
    18
100
AcDbLine
 10
792.1143797460172
 20
534.1865476894864
 30
0.0
 11
792.1143797460172
 21
558.1865426824861
 31
0.0
  0
LINE
  5
6194
330
1F
100
AcDbEntity
  8
0
  6
Continuous
 62
     0
370
    18
100
AcDbLine
 10
781.3143757404173
 20
534.1865476894864
 30
0.0
 11
781.3143757404173
 21
558.1865426824861
 31
0.0
  0
LINE
  5
6195
330
1F
100
AcDbEntity
  8
0
  6
Continuous
 62
     0
370
    18
100
AcDbLine
 10
792.1143797460172
 20
558.1865426824861
 30
0.0
 11
781.3143757404173
 21
558.1865426824861
 31
0.0
  0
LINE
  5
6196
330
1F
100
AcDbEntity
  8
0
  6
Continuous
 62
     0
370
    18
100
AcDbLine
 10
792.1143797460172
 20
534.1865476894864
 30
0.0
 11
781.3143757404173
 21
534.1865476894864
 31
0.0
  0
LINE
  5
6197
330
1F
100
AcDbEntity
  8
0
  6
Continuous
 62
     0
370
    18
100
AcDbLine
 10
771.7143741666173
 20
534.1865476894864
 30
0.0
 11
771.7143741666173
 21
558.1865426824861
 31
0.0
  0
LINE
  5
6198
330
1F
100
AcDbEntity
  8
0
  6
Continuous
 62
     0
370
    18
100
AcDbLine
 10
760.9143880428173
 20
534.1865476894864
 30
0.0
 11
760.9143880428173
 21
558.1865426824861
 31
0.0
  0
LINE
  5
6199
330
1F
100
AcDbEntity
  8
0
  6
Continuous
 62
     0
370
    18
100
AcDbLine
 10
771.7143741666173
 20
558.1865426824861
 30
0.0
 11
760.9143880428173
 21
558.1865426824861
 31
0.0
  0
LINE
  5
619A
330
1F
100
AcDbEntity
  8
0
  6
Continuous
 62
     0
370
    18
100
AcDbLine
 10
771.7143741666173
 20
534.1865476894864
 30
0.0
 11
760.9143880428173
 21
534.1865476894864
 31
0.0
  0
LINE
  5
619B
330
1F
100
AcDbEntity
  8
0
  6
Continuous
 62
     0
370
    18
100
AcDbLine
 10
751.3143864690173
 20
534.1865476894864
 30
0.0
 11
751.3143864690173
 21
558.1865426824861
 31
0.0
  0
LINE
  5
619C
330
1F
100
AcDbEntity
  8
0
  6
Continuous
 62
     0
370
    18
100
AcDbLine
 10
740.5143824640172
 20
534.1865476894864
 30
0.0
 11
740.5143824640172
 21
558.1865426824861
 31
0.0
  0
LINE
  5
619D
330
1F
100
AcDbEntity
  8
0
  6
Continuous
 62
     0
370
    18
100
AcDbLine
 10
751.3143864690173
 20
558.1865426824861
 30
0.0
 11
740.5143824640172
 21
558.1865426824861
 31
0.0
  0
LINE
  5
619E
330
1F
100
AcDbEntity
  8
0
  6
Continuous
 62
     0
370
    18
100
AcDbLine
 10
751.3143864690173
 20
534.1865476894864
 30
0.0
 11
740.5143824640172
 21
534.1865476894864
 31
0.0
  0
LINE
  5
619F
330
1F
100
AcDbEntity
  8
0
  6
Continuous
 62
     0
370
    18
100
AcDbLine
 10
730.9143808902172
 20
534.1865476894864
 30
0.0
 11
730.9143808902172
 21
558.1865426824861
 31
0.0
  0
LINE
  5
61A0
330
1F
100
AcDbEntity
  8
0
  6
Continuous
 62
     0
370
    18
100
AcDbLine
 10
720.1143768846177
 20
534.1865476894864
 30
0.0
 11
720.1143768846177
 21
558.1865426824861
 31
0.0
  0
LINE
  5
61A1
330
1F
100
AcDbEntity
  8
0
  6
Continuous
 62
     0
370
    18
100
AcDbLine
 10
730.9143808902172
 20
558.1865426824861
 30
0.0
 11
720.1143768846177
 21
558.1865426824861
 31
0.0
  0
LINE
  5
61A2
330
1F
100
AcDbEntity
  8
0
  6
Continuous
 62
     0
370
    18
100
AcDbLine
 10
730.9143808902172
 20
534.1865476894864
 30
0.0
 11
720.1143768846177
 21
534.1865476894864
 31
0.0
  0
LINE
  5
61A3
330
1F
100
AcDbEntity
  8
0
  6
Continuous
 62
     0
370
    18
100
AcDbLine
 10
710.5143753114176
 20
534.1865476894864
 30
0.0
 11
710.5143753114176
 21
558.1865426824861
 31
0.0
  0
LINE
  5
61A4
330
1F
100
AcDbEntity
  8
0
  6
Continuous
 62
     0
370
    18
100
AcDbLine
 10
699.7143713058176
 20
534.1865476894864
 30
0.0
 11
699.7143713058176
 21
558.1865426824861
 31
0.0
  0
LINE
  5
61A5
330
1F
100
AcDbEntity
  8
0
  6
Continuous
 62
     0
370
    18
100
AcDbLine
 10
710.5143753114176
 20
558.1865426824861
 30
0.0
 11
699.7143713058176
 21
558.1865426824861
 31
0.0
  0
LINE
  5
61A6
330
1F
100
AcDbEntity
  8
0
  6
Continuous
 62
     0
370
    18
100
AcDbLine
 10
710.5143753114176
 20
534.1865476894864
 30
0.0
 11
699.7143713058176
 21
534.1865476894864
 31
0.0
  0
LINE
  5
61A7
330
1F
100
AcDbEntity
  8
0
  6
Continuous
 62
     0
370
    18
100
AcDbLine
 10
1026.114380103617
 20
558.1865426824861
 30
0.0
 11
1016.514378529817
 21
558.1865426824861
 31
0.0
  0
LINE
  5
61A8
330
1F
100
AcDbEntity
  8
0
  6
Continuous
 62
     0
370
    18
100
AcDbLine
 10
1026.114380103617
 20
534.1865476894864
 30
0.0
 11
1016.514378529817
 21
534.1865476894864
 31
0.0
  0
LINE
  5
61A9
330
1F
100
AcDbEntity
  8
0
  6
Continuous
 62
     0
370
    18
100
AcDbLine
 10
781.3143757404173
 20
558.1865426824861
 30
0.0
 11
771.7143741666173
 21
558.1865426824861
 31
0.0
  0
LINE
  5
61AA
330
1F
100
AcDbEntity
  8
0
  6
Continuous
 62
     0
370
    18
100
AcDbLine
 10
781.3143757404173
 20
534.1865476894864
 30
0.0
 11
771.7143741666173
 21
534.1865476894864
 31
0.0
  0
LINE
  5
61AB
330
1F
100
AcDbEntity
  8
0
  6
Continuous
 62
     0
370
    18
100
AcDbLine
 10
1046.514376741817
 20
558.1865426824861
 30
0.0
 11
1036.914379638617
 21
558.1865426824861
 31
0.0
  0
LINE
  5
61AC
330
1F
100
AcDbEntity
  8
0
  6
Continuous
 62
     0
370
    18
100
AcDbLine
 10
1046.514376741817
 20
534.1865476894864
 30
0.0
 11
1036.914379638617
 21
534.1865476894864
 31
0.0
  0
LINE
  5
61AD
330
1F
100
AcDbEntity
  8
0
  6
Continuous
 62
     0
370
    18
100
AcDbLine
 10
801.7143813192174
 20
558.1865426824861
 30
0.0
 11
792.1143797460172
 21
558.1865426824861
 31
0.0
  0
LINE
  5
61AE
330
1F
100
AcDbEntity
  8
0
  6
Continuous
 62
     0
370
    18
100
AcDbLine
 10
801.7143813192174
 20
534.1865476894864
 30
0.0
 11
792.1143797460172
 21
534.1865476894864
 31
0.0
  0
LINE
  5
61AF
330
1F
100
AcDbEntity
  8
0
  6
Continuous
 62
     0
370
    18
100
AcDbLine
 10
964.9143795714176
 20
558.1865426824861
 30
0.0
 11
955.3143796746176
 21
558.1865426824861
 31
0.0
  0
LINE
  5
61B0
330
1F
100
AcDbEntity
  8
0
  6
Continuous
 62
     0
370
    18
100
AcDbLine
 10
964.9143795714176
 20
534.1865476894864
 30
0.0
 11
955.3143796746176
 21
534.1865476894864
 31
0.0
  0
LINE
  5
61B1
330
1F
100
AcDbEntity
  8
0
  6
Continuous
 62
     0
370
    18
100
AcDbLine
 10
1066.914382320617
 20
558.1865426824861
 30
0.0
 11
1057.314380747418
 21
558.1865426824861
 31
0.0
  0
LINE
  5
61B2
330
1F
100
AcDbEntity
  8
0
  6
Continuous
 62
     0
370
    18
100
AcDbLine
 10
1066.914382320617
 20
534.1865476894864
 30
0.0
 11
1057.314380747418
 21
534.1865476894864
 31
0.0
  0
LINE
  5
61B3
330
1F
100
AcDbEntity
  8
0
  6
Continuous
 62
     0
370
    18
100
AcDbLine
 10
822.1143779580175
 20
558.1865426824861
 30
0.0
 11
812.5143853248173
 21
558.1865426824861
 31
0.0
  0
LINE
  5
61B4
330
1F
100
AcDbEntity
  8
0
  6
Continuous
 62
     0
370
    18
100
AcDbLine
 10
822.1143779580175
 20
534.1865476894864
 30
0.0
 11
812.5143853248173
 21
534.1865476894864
 31
0.0
  0
LINE
  5
61B5
330
1F
100
AcDbEntity
  8
0
  6
Continuous
 62
     0
370
    18
100
AcDbLine
 10
985.3143801216174
 20
558.1865426824861
 30
0.0
 11
975.7143796656178
 21
558.1865426824861
 31
0.0
  0
LINE
  5
61B6
330
1F
100
AcDbEntity
  8
0
  6
Continuous
 62
     0
370
    18
100
AcDbLine
 10
985.3143801216174
 20
534.1865476894864
 30
0.0
 11
975.7143796656178
 21
534.1865476894864
 31
0.0
  0
LINE
  5
61B7
330
1F
100
AcDbEntity
  8
0
  6
Continuous
 62
     0
370
    18
100
AcDbLine
 10
1087.314378959417
 20
558.1865426824861
 30
0.0
 11
1077.714377385617
 21
558.1865426824861
 31
0.0
  0
LINE
  5
61B8
330
1F
100
AcDbEntity
  8
0
  6
Continuous
 62
     0
370
    18
100
AcDbLine
 10
1087.314378959417
 20
534.1865476894864
 30
0.0
 11
1077.714377385617
 21
534.1865476894864
 31
0.0
  0
LINE
  5
61B9
330
1F
100
AcDbEntity
  8
0
  6
Continuous
 62
     0
370
    18
100
AcDbLine
 10
842.5143835368176
 20
558.1865426824861
 30
0.0
 11
832.9143819630176
 21
558.1865426824861
 31
0.0
  0
LINE
  5
61BA
330
1F
100
AcDbEntity
  8
0
  6
Continuous
 62
     0
370
    18
100
AcDbLine
 10
842.5143835368176
 20
534.1865476894864
 30
0.0
 11
832.9143819630176
 21
534.1865476894864
 31
0.0
  0
LINE
  5
61BB
330
1F
100
AcDbEntity
  8
0
  6
Continuous
 62
     0
370
    18
100
AcDbLine
 10
1005.714378994817
 20
558.1865426824861
 30
0.0
 11
996.1143796566175
 21
558.1865426824861
 31
0.0
  0
LINE
  5
61BC
330
1F
100
AcDbEntity
  8
0
  6
Continuous
 62
     0
370
    18
100
AcDbLine
 10
1005.714378994817
 20
534.1865476894864
 30
0.0
 11
996.1143796566175
 21
534.1865476894864
 31
0.0
  0
LINE
  5
61BD
330
1F
100
AcDbEntity
  8
0
  6
Continuous
 62
     0
370
    18
100
AcDbLine
 10
1107.714375597617
 20
558.1865426824861
 30
0.0
 11
1098.114382964417
 21
558.1865426824861
 31
0.0
  0
LINE
  5
61BE
330
1F
100
AcDbEntity
  8
0
  6
Continuous
 62
     0
370
    18
100
AcDbLine
 10
1107.714375597617
 20
534.1865476894864
 30
0.0
 11
1098.114382964417
 21
534.1865476894864
 31
0.0
  0
LINE
  5
61BF
330
1F
100
AcDbEntity
  8
0
  6
Continuous
 62
     0
370
    18
100
AcDbLine
 10
862.9143801750174
 20
558.1865426824861
 30
0.0
 11
853.3143786012174
 21
558.1865426824861
 31
0.0
  0
LINE
  5
61C0
330
1F
100
AcDbEntity
  8
0
  6
Continuous
 62
     0
370
    18
100
AcDbLine
 10
862.9143801750174
 20
534.1865476894864
 30
0.0
 11
853.3143786012174
 21
534.1865476894864
 31
0.0
  0
LINE
  5
61C1
330
1F
100
AcDbEntity
  8
0
  6
Continuous
 62
     0
370
    18
100
AcDbLine
 10
1209.714385611017
 20
558.1865426824861
 30
0.0
 11
1200.114384037217
 21
558.1865426824861
 31
0.0
  0
LINE
  5
61C2
330
1F
100
AcDbEntity
  8
0
  6
Continuous
 62
     0
370
    18
100
AcDbLine
 10
1209.714385611017
 20
534.1865476894864
 30
0.0
 11
1200.114384037217
 21
534.1865476894864
 31
0.0
  0
LINE
  5
61C3
330
1F
100
AcDbEntity
  8
0
  6
Continuous
 62
     0
370
    18
100
AcDbLine
 10
1168.914374452818
 20
558.1865426824861
 30
0.0
 11
1159.314372879618
 21
558.1865426824861
 31
0.0
  0
LINE
  5
61C4
330
1F
100
AcDbEntity
  8
0
  6
Continuous
 62
     0
370
    18
100
AcDbLine
 10
1168.914374452818
 20
534.1865476894864
 30
0.0
 11
1159.314372879618
 21
534.1865476894864
 31
0.0
  0
LINE
  5
61C5
330
1F
100
AcDbEntity
  8
0
  6
Continuous
 62
     0
370
    18
100
AcDbLine
 10
1128.114381176417
 20
558.1865426824861
 30
0.0
 11
1118.514379602617
 21
558.1865426824861
 31
0.0
  0
LINE
  5
61C6
330
1F
100
AcDbEntity
  8
0
  6
Continuous
 62
     0
370
    18
100
AcDbLine
 10
1128.114381176417
 20
534.1865476894864
 30
0.0
 11
1118.514379602617
 21
534.1865476894864
 31
0.0
  0
LINE
  5
61C7
330
1F
100
AcDbEntity
  8
0
  6
Continuous
 62
     0
370
    18
100
AcDbLine
 10
883.3143768132172
 20
558.1865426824861
 30
0.0
 11
873.7143752400175
 21
558.1865426824861
 31
0.0
  0
LINE
  5
61C8
330
1F
100
AcDbEntity
  8
0
  6
Continuous
 62
     0
370
    18
100
AcDbLine
 10
883.3143768132172
 20
534.1865476894864
 30
0.0
 11
873.7143752400175
 21
534.1865476894864
 31
0.0
  0
LINE
  5
61C9
330
1F
100
AcDbEntity
  8
0
  6
Continuous
 62
     0
370
    18
100
AcDbLine
 10
1148.514386755217
 20
558.1865426824861
 30
0.0
 11
1138.914385182018
 21
558.1865426824861
 31
0.0
  0
LINE
  5
61CA
330
1F
100
AcDbEntity
  8
0
  6
Continuous
 62
     0
370
    18
100
AcDbLine
 10
1148.514386755217
 20
534.1865476894864
 30
0.0
 11
1138.914385182018
 21
534.1865476894864
 31
0.0
  0
LINE
  5
61CB
330
1F
100
AcDbEntity
  8
0
  6
Continuous
 62
     0
370
    18
100
AcDbLine
 10
903.7143779220173
 20
558.1865426824861
 30
0.0
 11
894.1143808188176
 21
558.1865426824861
 31
0.0
  0
LINE
  5
61CC
330
1F
100
AcDbEntity
  8
0
  6
Continuous
 62
     0
370
    18
100
AcDbLine
 10
903.7143779220173
 20
534.1865476894864
 30
0.0
 11
894.1143808188176
 21
534.1865476894864
 31
0.0
  0
LINE
  5
61CD
330
1F
100
AcDbEntity
  8
0
  6
Continuous
 62
     0
370
    18
100
AcDbLine
 10
720.1143768846177
 20
558.1865426824861
 30
0.0
 11
710.5143753114176
 21
558.1865426824861
 31
0.0
  0
LINE
  5
61CE
330
1F
100
AcDbEntity
  8
0
  6
Continuous
 62
     0
370
    18
100
AcDbLine
 10
720.1143768846177
 20
534.1865476894864
 30
0.0
 11
710.5143753114176
 21
534.1865476894864
 31
0.0
  0
LINE
  5
61CF
330
1F
100
AcDbEntity
  8
0
  6
Continuous
 62
     0
370
    18
100
AcDbLine
 10
1189.314380032217
 20
558.1865426824861
 30
0.0
 11
1179.714378458417
 21
558.1865426824861
 31
0.0
  0
LINE
  5
61D0
330
1F
100
AcDbEntity
  8
0
  6
Continuous
 62
     0
370
    18
100
AcDbLine
 10
1189.314380032217
 20
534.1865476894864
 30
0.0
 11
1179.714378458417
 21
534.1865476894864
 31
0.0
  0
LINE
  5
61D1
330
1F
100
AcDbEntity
  8
0
  6
Continuous
 62
     0
370
    18
100
AcDbLine
 10
924.1143790308174
 20
558.1865426824861
 30
0.0
 11
914.5143774570174
 21
558.1865426824861
 31
0.0
  0
LINE
  5
61D2
330
1F
100
AcDbEntity
  8
0
  6
Continuous
 62
     0
370
    18
100
AcDbLine
 10
924.1143790308174
 20
534.1865476894864
 30
0.0
 11
914.5143774570174
 21
534.1865476894864
 31
0.0
  0
LINE
  5
61D3
330
1F
100
AcDbEntity
  8
0
  6
Continuous
 62
     0
370
    18
100
AcDbLine
 10
740.5143824640172
 20
558.1865426824861
 30
0.0
 11
730.9143808902172
 21
558.1865426824861
 31
0.0
  0
LINE
  5
61D4
330
1F
100
AcDbEntity
  8
0
  6
Continuous
 62
     0
370
    18
100
AcDbLine
 10
740.5143824640172
 20
534.1865476894864
 30
0.0
 11
730.9143808902172
 21
534.1865476894864
 31
0.0
  0
LINE
  5
61D5
330
1F
100
AcDbEntity
  8
0
  6
Continuous
 62
     0
370
    18
100
AcDbLine
 10
944.5143801390172
 20
558.1865426824861
 30
0.0
 11
934.9143785658175
 21
558.1865426824861
 31
0.0
  0
LINE
  5
61D6
330
1F
100
AcDbEntity
  8
0
  6
Continuous
 62
     0
370
    18
100
AcDbLine
 10
944.5143801390172
 20
534.1865476894864
 30
0.0
 11
934.9143785658175
 21
534.1865476894864
 31
0.0
  0
LINE
  5
61D7
330
1F
100
AcDbEntity
  8
0
  6
Continuous
 62
     0
370
    18
100
AcDbLine
 10
760.9143880428173
 20
558.1865426824861
 30
0.0
 11
751.3143864690173
 21
558.1865426824861
 31
0.0
  0
LINE
  5
61D8
330
1F
100
AcDbEntity
  8
0
  6
Continuous
 62
     0
370
    18
100
AcDbLine
 10
760.9143880428173
 20
534.1865476894864
 30
0.0
 11
751.3143864690173
 21
534.1865476894864
 31
0.0
  0
LINE
  5
61D9
330
1F
100
AcDbEntity
  8
0
  6
Continuous
 62
     0
370
    18
100
AcDbLine
 10
1128.114381176417
 20
1022.586553983486
 30
0.0
 11
1128.114381176417
 21
998.5865589904865
 31
0.0
  0
LINE
  5
61DA
330
1F
100
AcDbEntity
  8
0
  6
Continuous
 62
     0
370
    18
100
AcDbLine
 10
1138.914385182018
 20
1022.586553983486
 30
0.0
 11
1128.114381176417
 21
1022.586553983486
 31
0.0
  0
LINE
  5
61DB
330
1F
100
AcDbEntity
  8
0
  6
Continuous
 62
     0
370
    18
100
AcDbLine
 10
1138.914385182018
 20
1022.586553983486
 30
0.0
 11
1138.914385182018
 21
998.5865589904865
 31
0.0
  0
LINE
  5
61DC
330
1F
100
AcDbEntity
  8
0
  6
Continuous
 62
     0
370
    18
100
AcDbLine
 10
1138.914385182018
 20
998.5865589904865
 30
0.0
 11
1128.114381176417
 21
998.5865589904865
 31
0.0
  0
LINE
  5
61DD
330
1F
100
AcDbEntity
  8
0
  6
Continuous
 62
     0
370
    18
100
AcDbLine
 10
1148.514386755217
 20
1022.586553983486
 30
0.0
 11
1148.514386755217
 21
998.5865589904865
 31
0.0
  0
LINE
  5
61DE
330
1F
100
AcDbEntity
  8
0
  6
Continuous
 62
     0
370
    18
100
AcDbLine
 10
1159.314372879618
 20
1022.586553983486
 30
0.0
 11
1148.514386755217
 21
1022.586553983486
 31
0.0
  0
LINE
  5
61DF
330
1F
100
AcDbEntity
  8
0
  6
Continuous
 62
     0
370
    18
100
AcDbLine
 10
1159.314372879618
 20
1022.586553983486
 30
0.0
 11
1159.314372879618
 21
998.5865589904865
 31
0.0
  0
LINE
  5
61E0
330
1F
100
AcDbEntity
  8
0
  6
Continuous
 62
     0
370
    18
100
AcDbLine
 10
1159.314372879618
 20
998.5865589904865
 30
0.0
 11
1148.514386755217
 21
998.5865589904865
 31
0.0
  0
LINE
  5
61E1
330
1F
100
AcDbEntity
  8
0
  6
Continuous
 62
     0
370
    18
100
AcDbLine
 10
1107.714375597617
 20
1022.586553983486
 30
0.0
 11
1107.714375597617
 21
998.5865589904865
 31
0.0
  0
LINE
  5
61E2
330
1F
100
AcDbEntity
  8
0
  6
Continuous
 62
     0
370
    18
100
AcDbLine
 10
1118.514379602617
 20
1022.586553983486
 30
0.0
 11
1107.714375597617
 21
1022.586553983486
 31
0.0
  0
LINE
  5
61E3
330
1F
100
AcDbEntity
  8
0
  6
Continuous
 62
     0
370
    18
100
AcDbLine
 10
1118.514379602617
 20
1022.586553983486
 30
0.0
 11
1118.514379602617
 21
998.5865589904865
 31
0.0
  0
LINE
  5
61E4
330
1F
100
AcDbEntity
  8
0
  6
Continuous
 62
     0
370
    18
100
AcDbLine
 10
1118.514379602617
 20
998.5865589904865
 30
0.0
 11
1107.714375597617
 21
998.5865589904865
 31
0.0
  0
LINE
  5
61E5
330
1F
100
AcDbEntity
  8
0
  6
Continuous
 62
     0
370
    18
100
AcDbLine
 10
1066.914382320617
 20
1022.586553983486
 30
0.0
 11
1066.914382320617
 21
998.5865589904865
 31
0.0
  0
LINE
  5
61E6
330
1F
100
AcDbEntity
  8
0
  6
Continuous
 62
     0
370
    18
100
AcDbLine
 10
1077.714377385617
 20
1022.586553983486
 30
0.0
 11
1066.914382320617
 21
1022.586553983486
 31
0.0
  0
LINE
  5
61E7
330
1F
100
AcDbEntity
  8
0
  6
Continuous
 62
     0
370
    18
100
AcDbLine
 10
1077.714377385617
 20
1022.586553983486
 30
0.0
 11
1077.714377385617
 21
998.5865589904865
 31
0.0
  0
LINE
  5
61E8
330
1F
100
AcDbEntity
  8
0
  6
Continuous
 62
     0
370
    18
100
AcDbLine
 10
1077.714377385617
 20
998.5865589904865
 30
0.0
 11
1066.914382320617
 21
998.5865589904865
 31
0.0
  0
LINE
  5
61E9
330
1F
100
AcDbEntity
  8
0
  6
Continuous
 62
     0
370
    18
100
AcDbLine
 10
1168.914374452818
 20
1022.586553983486
 30
0.0
 11
1168.914374452818
 21
998.5865589904865
 31
0.0
  0
LINE
  5
61EA
330
1F
100
AcDbEntity
  8
0
  6
Continuous
 62
     0
370
    18
100
AcDbLine
 10
1179.714378458417
 20
1022.586553983486
 30
0.0
 11
1168.914374452818
 21
1022.586553983486
 31
0.0
  0
LINE
  5
61EB
330
1F
100
AcDbEntity
  8
0
  6
Continuous
 62
     0
370
    18
100
AcDbLine
 10
1179.714378458417
 20
1022.586553983486
 30
0.0
 11
1179.714378458417
 21
998.5865589904865
 31
0.0
  0
LINE
  5
61EC
330
1F
100
AcDbEntity
  8
0
  6
Continuous
 62
     0
370
    18
100
AcDbLine
 10
1179.714378458417
 20
998.5865589904865
 30
0.0
 11
1168.914374452818
 21
998.5865589904865
 31
0.0
  0
LINE
  5
61ED
330
1F
100
AcDbEntity
  8
0
  6
Continuous
 62
     0
370
    18
100
AcDbLine
 10
1189.314380032217
 20
1022.586553983486
 30
0.0
 11
1189.314380032217
 21
998.5865589904865
 31
0.0
  0
LINE
  5
61EE
330
1F
100
AcDbEntity
  8
0
  6
Continuous
 62
     0
370
    18
100
AcDbLine
 10
1200.114384037217
 20
1022.586553983486
 30
0.0
 11
1189.314380032217
 21
1022.586553983486
 31
0.0
  0
LINE
  5
61EF
330
1F
100
AcDbEntity
  8
0
  6
Continuous
 62
     0
370
    18
100
AcDbLine
 10
1200.114384037217
 20
1022.586553983486
 30
0.0
 11
1200.114384037217
 21
998.5865589904865
 31
0.0
  0
LINE
  5
61F0
330
1F
100
AcDbEntity
  8
0
  6
Continuous
 62
     0
370
    18
100
AcDbLine
 10
1200.114384037217
 20
998.5865589904865
 30
0.0
 11
1189.314380032217
 21
998.5865589904865
 31
0.0
  0
LINE
  5
61F1
330
1F
100
AcDbEntity
  8
0
  6
Continuous
 62
     0
370
    18
100
AcDbLine
 10
1005.714378994817
 20
1022.586553983486
 30
0.0
 11
1005.714378994817
 21
998.5865589904865
 31
0.0
  0
LINE
  5
61F2
330
1F
100
AcDbEntity
  8
0
  6
Continuous
 62
     0
370
    18
100
AcDbLine
 10
1016.514378529817
 20
1022.586553983486
 30
0.0
 11
1016.514378529817
 21
998.5865589904865
 31
0.0
  0
LINE
  5
61F3
330
1F
100
AcDbEntity
  8
0
  6
Continuous
 62
     0
370
    18
100
AcDbLine
 10
1016.514378529817
 20
1022.586553983486
 30
0.0
 11
1005.714378994817
 21
1022.586553983486
 31
0.0
  0
LINE
  5
61F4
330
1F
100
AcDbEntity
  8
0
  6
Continuous
 62
     0
370
    18
100
AcDbLine
 10
1016.514378529817
 20
998.5865589904865
 30
0.0
 11
1005.714378994817
 21
998.5865589904865
 31
0.0
  0
LINE
  5
61F5
330
1F
100
AcDbEntity
  8
0
  6
Continuous
 62
     0
370
    18
100
AcDbLine
 10
1209.714385611017
 20
1022.586553983486
 30
0.0
 11
1209.714385611017
 21
998.5865589904865
 31
0.0
  0
LINE
  5
61F6
330
1F
100
AcDbEntity
  8
0
  6
Continuous
 62
     0
370
    18
100
AcDbLine
 10
1220.514371734817
 20
1022.586553983486
 30
0.0
 11
1220.514371734817
 21
998.5865589904865
 31
0.0
  0
LINE
  5
61F7
330
1F
100
AcDbEntity
  8
0
  6
Continuous
 62
     0
370
    18
100
AcDbLine
 10
1220.514371734817
 20
1022.586553983486
 30
0.0
 11
1209.714385611017
 21
1022.586553983486
 31
0.0
  0
LINE
  5
61F8
330
1F
100
AcDbEntity
  8
0
  6
Continuous
 62
     0
370
    18
100
AcDbLine
 10
1220.514371734817
 20
998.5865589904865
 30
0.0
 11
1209.714385611017
 21
998.5865589904865
 31
0.0
  0
LINE
  5
61F9
330
1F
100
AcDbEntity
  8
0
  6
Continuous
 62
     0
370
    18
100
AcDbLine
 10
1026.114380103617
 20
1022.586553983486
 30
0.0
 11
1026.114380103617
 21
998.5865589904865
 31
0.0
  0
LINE
  5
61FA
330
1F
100
AcDbEntity
  8
0
  6
Continuous
 62
     0
370
    18
100
AcDbLine
 10
1036.914379638617
 20
1022.586553983486
 30
0.0
 11
1036.914379638617
 21
998.5865589904865
 31
0.0
  0
LINE
  5
61FB
330
1F
100
AcDbEntity
  8
0
  6
Continuous
 62
     0
370
    18
100
AcDbLine
 10
1036.914379638617
 20
1022.586553983486
 30
0.0
 11
1026.114380103617
 21
1022.586553983486
 31
0.0
  0
LINE
  5
61FC
330
1F
100
AcDbEntity
  8
0
  6
Continuous
 62
     0
370
    18
100
AcDbLine
 10
1036.914379638617
 20
998.5865589904865
 30
0.0
 11
1026.114380103617
 21
998.5865589904865
 31
0.0
  0
LINE
  5
61FD
330
1F
100
AcDbEntity
  8
0
  6
Continuous
 62
     0
370
    18
100
AcDbLine
 10
944.5143801390172
 20
1022.586553983486
 30
0.0
 11
944.5143801390172
 21
998.5865589904865
 31
0.0
  0
LINE
  5
61FE
330
1F
100
AcDbEntity
  8
0
  6
Continuous
 62
     0
370
    18
100
AcDbLine
 10
955.3143796746176
 20
1022.586553983486
 30
0.0
 11
955.3143796746176
 21
998.5865589904865
 31
0.0
  0
LINE
  5
61FF
330
1F
100
AcDbEntity
  8
0
  6
Continuous
 62
     0
370
    18
100
AcDbLine
 10
955.3143796746176
 20
1022.586553983486
 30
0.0
 11
944.5143801390172
 21
1022.586553983486
 31
0.0
  0
LINE
  5
6200
330
1F
100
AcDbEntity
  8
0
  6
Continuous
 62
     0
370
    18
100
AcDbLine
 10
955.3143796746176
 20
998.5865589904865
 30
0.0
 11
944.5143801390172
 21
998.5865589904865
 31
0.0
  0
LINE
  5
6201
330
1F
100
AcDbEntity
  8
0
  6
Continuous
 62
     0
370
    18
100
AcDbLine
 10
964.9143795714176
 20
1022.586553983486
 30
0.0
 11
964.9143795714176
 21
998.5865589904865
 31
0.0
  0
LINE
  5
6202
330
1F
100
AcDbEntity
  8
0
  6
Continuous
 62
     0
370
    18
100
AcDbLine
 10
975.7143796656178
 20
1022.586553983486
 30
0.0
 11
975.7143796656178
 21
998.5865589904865
 31
0.0
  0
LINE
  5
6203
330
1F
100
AcDbEntity
  8
0
  6
Continuous
 62
     0
370
    18
100
AcDbLine
 10
975.7143796656178
 20
1022.586553983486
 30
0.0
 11
964.9143795714176
 21
1022.586553983486
 31
0.0
  0
LINE
  5
6204
330
1F
100
AcDbEntity
  8
0
  6
Continuous
 62
     0
370
    18
100
AcDbLine
 10
975.7143796656178
 20
998.5865589904865
 30
0.0
 11
964.9143795714176
 21
998.5865589904865
 31
0.0
  0
LINE
  5
6205
330
1F
100
AcDbEntity
  8
0
  6
Continuous
 62
     0
370
    18
100
AcDbLine
 10
985.3143801216174
 20
1022.586553983486
 30
0.0
 11
985.3143801216174
 21
998.5865589904865
 31
0.0
  0
LINE
  5
6206
330
1F
100
AcDbEntity
  8
0
  6
Continuous
 62
     0
370
    18
100
AcDbLine
 10
996.1143796566175
 20
1022.586553983486
 30
0.0
 11
996.1143796566175
 21
998.5865589904865
 31
0.0
  0
LINE
  5
6207
330
1F
100
AcDbEntity
  8
0
  6
Continuous
 62
     0
370
    18
100
AcDbLine
 10
996.1143796566175
 20
1022.586553983486
 30
0.0
 11
985.3143801216174
 21
1022.586553983486
 31
0.0
  0
LINE
  5
6208
330
1F
100
AcDbEntity
  8
0
  6
Continuous
 62
     0
370
    18
100
AcDbLine
 10
996.1143796566175
 20
998.5865589904865
 30
0.0
 11
985.3143801216174
 21
998.5865589904865
 31
0.0
  0
LINE
  5
6209
330
1F
100
AcDbEntity
  8
0
  6
Continuous
 62
     0
370
    18
100
AcDbLine
 10
1087.314378959417
 20
1022.586553983486
 30
0.0
 11
1087.314378959417
 21
998.5865589904865
 31
0.0
  0
LINE
  5
620A
330
1F
100
AcDbEntity
  8
0
  6
Continuous
 62
     0
370
    18
100
AcDbLine
 10
1098.114382964417
 20
1022.586553983486
 30
0.0
 11
1098.114382964417
 21
998.5865589904865
 31
0.0
  0
LINE
  5
620B
330
1F
100
AcDbEntity
  8
0
  6
Continuous
 62
     0
370
    18
100
AcDbLine
 10
1098.114382964417
 20
1022.586553983486
 30
0.0
 11
1087.314378959417
 21
1022.586553983486
 31
0.0
  0
LINE
  5
620C
330
1F
100
AcDbEntity
  8
0
  6
Continuous
 62
     0
370
    18
100
AcDbLine
 10
1098.114382964417
 20
998.5865589904865
 30
0.0
 11
1087.314378959417
 21
998.5865589904865
 31
0.0
  0
LINE
  5
620D
330
1F
100
AcDbEntity
  8
0
  6
Continuous
 62
     0
370
    18
100
AcDbLine
 10
1046.514376741817
 20
1022.586553983486
 30
0.0
 11
1046.514376741817
 21
998.5865589904865
 31
0.0
  0
LINE
  5
620E
330
1F
100
AcDbEntity
  8
0
  6
Continuous
 62
     0
370
    18
100
AcDbLine
 10
1057.314380747418
 20
1022.586553983486
 30
0.0
 11
1057.314380747418
 21
998.5865589904865
 31
0.0
  0
LINE
  5
620F
330
1F
100
AcDbEntity
  8
0
  6
Continuous
 62
     0
370
    18
100
AcDbLine
 10
1057.314380747418
 20
1022.586553983486
 30
0.0
 11
1046.514376741817
 21
1022.586553983486
 31
0.0
  0
LINE
  5
6210
330
1F
100
AcDbEntity
  8
0
  6
Continuous
 62
     0
370
    18
100
AcDbLine
 10
1057.314380747418
 20
998.5865589904865
 30
0.0
 11
1046.514376741817
 21
998.5865589904865
 31
0.0
  0
LINE
  5
6211
330
1F
100
AcDbEntity
  8
0
  6
Continuous
 62
     0
370
    18
100
AcDbLine
 10
924.1143790308174
 20
1022.586553983486
 30
0.0
 11
924.1143790308174
 21
998.5865589904865
 31
0.0
  0
LINE
  5
6212
330
1F
100
AcDbEntity
  8
0
  6
Continuous
 62
     0
370
    18
100
AcDbLine
 10
934.9143785658175
 20
1022.586553983486
 30
0.0
 11
934.9143785658175
 21
998.5865589904865
 31
0.0
  0
LINE
  5
6213
330
1F
100
AcDbEntity
  8
0
  6
Continuous
 62
     0
370
    18
100
AcDbLine
 10
934.9143785658175
 20
1022.586553983486
 30
0.0
 11
924.1143790308174
 21
1022.586553983486
 31
0.0
  0
LINE
  5
6214
330
1F
100
AcDbEntity
  8
0
  6
Continuous
 62
     0
370
    18
100
AcDbLine
 10
934.9143785658175
 20
998.5865589904865
 30
0.0
 11
924.1143790308174
 21
998.5865589904865
 31
0.0
  0
LINE
  5
6215
330
1F
100
AcDbEntity
  8
0
  6
Continuous
 62
     0
370
    18
100
AcDbLine
 10
903.7143779220173
 20
1022.586553983486
 30
0.0
 11
903.7143779220173
 21
998.5865589904865
 31
0.0
  0
LINE
  5
6216
330
1F
100
AcDbEntity
  8
0
  6
Continuous
 62
     0
370
    18
100
AcDbLine
 10
914.5143774570174
 20
1022.586553983486
 30
0.0
 11
914.5143774570174
 21
998.5865589904865
 31
0.0
  0
LINE
  5
6217
330
1F
100
AcDbEntity
  8
0
  6
Continuous
 62
     0
370
    18
100
AcDbLine
 10
914.5143774570174
 20
1022.586553983486
 30
0.0
 11
903.7143779220173
 21
1022.586553983486
 31
0.0
  0
LINE
  5
6218
330
1F
100
AcDbEntity
  8
0
  6
Continuous
 62
     0
370
    18
100
AcDbLine
 10
914.5143774570174
 20
998.5865589904865
 30
0.0
 11
903.7143779220173
 21
998.5865589904865
 31
0.0
  0
LINE
  5
6219
330
1F
100
AcDbEntity
  8
0
  6
Continuous
 62
     0
370
    18
100
AcDbLine
 10
883.3143768132172
 20
1022.586553983486
 30
0.0
 11
883.3143768132172
 21
998.5865589904865
 31
0.0
  0
LINE
  5
621A
330
1F
100
AcDbEntity
  8
0
  6
Continuous
 62
     0
370
    18
100
AcDbLine
 10
894.1143808188176
 20
1022.586553983486
 30
0.0
 11
894.1143808188176
 21
998.5865589904865
 31
0.0
  0
LINE
  5
621B
330
1F
100
AcDbEntity
  8
0
  6
Continuous
 62
     0
370
    18
100
AcDbLine
 10
894.1143808188176
 20
1022.586553983486
 30
0.0
 11
883.3143768132172
 21
1022.586553983486
 31
0.0
  0
LINE
  5
621C
330
1F
100
AcDbEntity
  8
0
  6
Continuous
 62
     0
370
    18
100
AcDbLine
 10
894.1143808188176
 20
998.5865589904865
 30
0.0
 11
883.3143768132172
 21
998.5865589904865
 31
0.0
  0
LINE
  5
621D
330
1F
100
AcDbEntity
  8
0
  6
Continuous
 62
     0
370
    18
100
AcDbLine
 10
862.9143801750174
 20
1022.586553983486
 30
0.0
 11
862.9143801750174
 21
998.5865589904865
 31
0.0
  0
LINE
  5
621E
330
1F
100
AcDbEntity
  8
0
  6
Continuous
 62
     0
370
    18
100
AcDbLine
 10
873.7143752400175
 20
1022.586553983486
 30
0.0
 11
873.7143752400175
 21
998.5865589904865
 31
0.0
  0
LINE
  5
621F
330
1F
100
AcDbEntity
  8
0
  6
Continuous
 62
     0
370
    18
100
AcDbLine
 10
873.7143752400175
 20
1022.586553983486
 30
0.0
 11
862.9143801750174
 21
1022.586553983486
 31
0.0
  0
LINE
  5
6220
330
1F
100
AcDbEntity
  8
0
  6
Continuous
 62
     0
370
    18
100
AcDbLine
 10
873.7143752400175
 20
998.5865589904865
 30
0.0
 11
862.9143801750174
 21
998.5865589904865
 31
0.0
  0
LINE
  5
6221
330
1F
100
AcDbEntity
  8
0
  6
Continuous
 62
     0
370
    18
100
AcDbLine
 10
842.5143835368176
 20
1022.586553983486
 30
0.0
 11
842.5143835368176
 21
998.5865589904865
 31
0.0
  0
LINE
  5
6222
330
1F
100
AcDbEntity
  8
0
  6
Continuous
 62
     0
370
    18
100
AcDbLine
 10
853.3143786012174
 20
1022.586553983486
 30
0.0
 11
853.3143786012174
 21
998.5865589904865
 31
0.0
  0
LINE
  5
6223
330
1F
100
AcDbEntity
  8
0
  6
Continuous
 62
     0
370
    18
100
AcDbLine
 10
853.3143786012174
 20
1022.586553983486
 30
0.0
 11
842.5143835368176
 21
1022.586553983486
 31
0.0
  0
LINE
  5
6224
330
1F
100
AcDbEntity
  8
0
  6
Continuous
 62
     0
370
    18
100
AcDbLine
 10
853.3143786012174
 20
998.5865589904865
 30
0.0
 11
842.5143835368176
 21
998.5865589904865
 31
0.0
  0
LINE
  5
6225
330
1F
100
AcDbEntity
  8
0
  6
Continuous
 62
     0
370
    18
100
AcDbLine
 10
822.1143779580175
 20
1022.586553983486
 30
0.0
 11
822.1143779580175
 21
998.5865589904865
 31
0.0
  0
LINE
  5
6226
330
1F
100
AcDbEntity
  8
0
  6
Continuous
 62
     0
370
    18
100
AcDbLine
 10
832.9143819630176
 20
1022.586553983486
 30
0.0
 11
832.9143819630176
 21
998.5865589904865
 31
0.0
  0
LINE
  5
6227
330
1F
100
AcDbEntity
  8
0
  6
Continuous
 62
     0
370
    18
100
AcDbLine
 10
832.9143819630176
 20
1022.586553983486
 30
0.0
 11
822.1143779580175
 21
1022.586553983486
 31
0.0
  0
LINE
  5
6228
330
1F
100
AcDbEntity
  8
0
  6
Continuous
 62
     0
370
    18
100
AcDbLine
 10
832.9143819630176
 20
998.5865589904865
 30
0.0
 11
822.1143779580175
 21
998.5865589904865
 31
0.0
  0
LINE
  5
6229
330
1F
100
AcDbEntity
  8
0
  6
Continuous
 62
     0
370
    18
100
AcDbLine
 10
801.7143813192174
 20
1022.586553983486
 30
0.0
 11
801.7143813192174
 21
998.5865589904865
 31
0.0
  0
LINE
  5
622A
330
1F
100
AcDbEntity
  8
0
  6
Continuous
 62
     0
370
    18
100
AcDbLine
 10
812.5143853248173
 20
1022.586553983486
 30
0.0
 11
812.5143853248173
 21
998.5865589904865
 31
0.0
  0
LINE
  5
622B
330
1F
100
AcDbEntity
  8
0
  6
Continuous
 62
     0
370
    18
100
AcDbLine
 10
812.5143853248173
 20
1022.586553983486
 30
0.0
 11
801.7143813192174
 21
1022.586553983486
 31
0.0
  0
LINE
  5
622C
330
1F
100
AcDbEntity
  8
0
  6
Continuous
 62
     0
370
    18
100
AcDbLine
 10
812.5143853248173
 20
998.5865589904865
 30
0.0
 11
801.7143813192174
 21
998.5865589904865
 31
0.0
  0
LINE
  5
622D
330
1F
100
AcDbEntity
  8
0
  6
Continuous
 62
     0
370
    18
100
AcDbLine
 10
781.3143757404173
 20
1022.586553983486
 30
0.0
 11
781.3143757404173
 21
998.5865589904865
 31
0.0
  0
LINE
  5
622E
330
1F
100
AcDbEntity
  8
0
  6
Continuous
 62
     0
370
    18
100
AcDbLine
 10
792.1143797460172
 20
1022.586553983486
 30
0.0
 11
792.1143797460172
 21
998.5865589904865
 31
0.0
  0
LINE
  5
622F
330
1F
100
AcDbEntity
  8
0
  6
Continuous
 62
     0
370
    18
100
AcDbLine
 10
792.1143797460172
 20
1022.586553983486
 30
0.0
 11
781.3143757404173
 21
1022.586553983486
 31
0.0
  0
LINE
  5
6230
330
1F
100
AcDbEntity
  8
0
  6
Continuous
 62
     0
370
    18
100
AcDbLine
 10
792.1143797460172
 20
998.5865589904865
 30
0.0
 11
781.3143757404173
 21
998.5865589904865
 31
0.0
  0
LINE
  5
6231
330
1F
100
AcDbEntity
  8
0
  6
Continuous
 62
     0
370
    18
100
AcDbLine
 10
760.9143880428173
 20
1022.586553983486
 30
0.0
 11
760.9143880428173
 21
998.5865589904865
 31
0.0
  0
LINE
  5
6232
330
1F
100
AcDbEntity
  8
0
  6
Continuous
 62
     0
370
    18
100
AcDbLine
 10
771.7143741666173
 20
1022.586553983486
 30
0.0
 11
771.7143741666173
 21
998.5865589904865
 31
0.0
  0
LINE
  5
6233
330
1F
100
AcDbEntity
  8
0
  6
Continuous
 62
     0
370
    18
100
AcDbLine
 10
771.7143741666173
 20
1022.586553983486
 30
0.0
 11
760.9143880428173
 21
1022.586553983486
 31
0.0
  0
LINE
  5
6234
330
1F
100
AcDbEntity
  8
0
  6
Continuous
 62
     0
370
    18
100
AcDbLine
 10
771.7143741666173
 20
998.5865589904865
 30
0.0
 11
760.9143880428173
 21
998.5865589904865
 31
0.0
  0
LINE
  5
6235
330
1F
100
AcDbEntity
  8
0
  6
Continuous
 62
     0
370
    18
100
AcDbLine
 10
740.5143824640172
 20
1022.586553983486
 30
0.0
 11
740.5143824640172
 21
998.5865589904865
 31
0.0
  0
LINE
  5
6236
330
1F
100
AcDbEntity
  8
0
  6
Continuous
 62
     0
370
    18
100
AcDbLine
 10
751.3143864690173
 20
1022.586553983486
 30
0.0
 11
751.3143864690173
 21
998.5865589904865
 31
0.0
  0
LINE
  5
6237
330
1F
100
AcDbEntity
  8
0
  6
Continuous
 62
     0
370
    18
100
AcDbLine
 10
751.3143864690173
 20
1022.586553983486
 30
0.0
 11
740.5143824640172
 21
1022.586553983486
 31
0.0
  0
LINE
  5
6238
330
1F
100
AcDbEntity
  8
0
  6
Continuous
 62
     0
370
    18
100
AcDbLine
 10
751.3143864690173
 20
998.5865589904865
 30
0.0
 11
740.5143824640172
 21
998.5865589904865
 31
0.0
  0
LINE
  5
6239
330
1F
100
AcDbEntity
  8
0
  6
Continuous
 62
     0
370
    18
100
AcDbLine
 10
720.1143768846177
 20
1022.586553983486
 30
0.0
 11
720.1143768846177
 21
998.5865589904865
 31
0.0
  0
LINE
  5
623A
330
1F
100
AcDbEntity
  8
0
  6
Continuous
 62
     0
370
    18
100
AcDbLine
 10
730.9143808902172
 20
1022.586553983486
 30
0.0
 11
730.9143808902172
 21
998.5865589904865
 31
0.0
  0
LINE
  5
623B
330
1F
100
AcDbEntity
  8
0
  6
Continuous
 62
     0
370
    18
100
AcDbLine
 10
730.9143808902172
 20
1022.586553983486
 30
0.0
 11
720.1143768846177
 21
1022.586553983486
 31
0.0
  0
LINE
  5
623C
330
1F
100
AcDbEntity
  8
0
  6
Continuous
 62
     0
370
    18
100
AcDbLine
 10
730.9143808902172
 20
998.5865589904865
 30
0.0
 11
720.1143768846177
 21
998.5865589904865
 31
0.0
  0
LINE
  5
623D
330
1F
100
AcDbEntity
  8
0
  6
Continuous
 62
     0
370
    18
100
AcDbLine
 10
699.7143713058176
 20
1022.586553983486
 30
0.0
 11
699.7143713058176
 21
998.5865589904865
 31
0.0
  0
LINE
  5
623E
330
1F
100
AcDbEntity
  8
0
  6
Continuous
 62
     0
370
    18
100
AcDbLine
 10
710.5143753114176
 20
1022.586553983486
 30
0.0
 11
710.5143753114176
 21
998.5865589904865
 31
0.0
  0
LINE
  5
623F
330
1F
100
AcDbEntity
  8
0
  6
Continuous
 62
     0
370
    18
100
AcDbLine
 10
710.5143753114176
 20
1022.586553983486
 30
0.0
 11
699.7143713058176
 21
1022.586553983486
 31
0.0
  0
LINE
  5
6240
330
1F
100
AcDbEntity
  8
0
  6
Continuous
 62
     0
370
    18
100
AcDbLine
 10
710.5143753114176
 20
998.5865589904865
 30
0.0
 11
699.7143713058176
 21
998.5865589904865
 31
0.0
  0
LINE
  5
6241
330
1F
100
AcDbEntity
  8
0
  6
Continuous
 62
     0
370
    18
100
AcDbLine
 10
1046.514376741817
 20
1022.586553983486
 30
0.0
 11
1036.914379638617
 21
1022.586553983486
 31
0.0
  0
LINE
  5
6242
330
1F
100
AcDbEntity
  8
0
  6
Continuous
 62
     0
370
    18
100
AcDbLine
 10
1046.514376741817
 20
998.5865589904865
 30
0.0
 11
1036.914379638617
 21
998.5865589904865
 31
0.0
  0
LINE
  5
6243
330
1F
100
AcDbEntity
  8
0
  6
Continuous
 62
     0
370
    18
100
AcDbLine
 10
1087.314378959417
 20
1022.586553983486
 30
0.0
 11
1077.714377385617
 21
1022.586553983486
 31
0.0
  0
LINE
  5
6244
330
1F
100
AcDbEntity
  8
0
  6
Continuous
 62
     0
370
    18
100
AcDbLine
 10
1087.314378959417
 20
998.5865589904865
 30
0.0
 11
1077.714377385617
 21
998.5865589904865
 31
0.0
  0
LINE
  5
6245
330
1F
100
AcDbEntity
  8
0
  6
Continuous
 62
     0
370
    18
100
AcDbLine
 10
964.9143795714176
 20
1022.586553983486
 30
0.0
 11
955.3143796746176
 21
1022.586553983486
 31
0.0
  0
LINE
  5
6246
330
1F
100
AcDbEntity
  8
0
  6
Continuous
 62
     0
370
    18
100
AcDbLine
 10
964.9143795714176
 20
998.5865589904865
 30
0.0
 11
955.3143796746176
 21
998.5865589904865
 31
0.0
  0
LINE
  5
6247
330
1F
100
AcDbEntity
  8
0
  6
Continuous
 62
     0
370
    18
100
AcDbLine
 10
1107.714375597617
 20
1022.586553983486
 30
0.0
 11
1098.114382964417
 21
1022.586553983486
 31
0.0
  0
LINE
  5
6248
330
1F
100
AcDbEntity
  8
0
  6
Continuous
 62
     0
370
    18
100
AcDbLine
 10
1107.714375597617
 20
998.5865589904865
 30
0.0
 11
1098.114382964417
 21
998.5865589904865
 31
0.0
  0
LINE
  5
6249
330
1F
100
AcDbEntity
  8
0
  6
Continuous
 62
     0
370
    18
100
AcDbLine
 10
1066.914382320617
 20
1022.586553983486
 30
0.0
 11
1057.314380747418
 21
1022.586553983486
 31
0.0
  0
LINE
  5
624A
330
1F
100
AcDbEntity
  8
0
  6
Continuous
 62
     0
370
    18
100
AcDbLine
 10
1066.914382320617
 20
998.5865589904865
 30
0.0
 11
1057.314380747418
 21
998.5865589904865
 31
0.0
  0
LINE
  5
624B
330
1F
100
AcDbEntity
  8
0
  6
Continuous
 62
     0
370
    18
100
AcDbLine
 10
1026.114380103617
 20
1022.586553983486
 30
0.0
 11
1016.514378529817
 21
1022.586553983486
 31
0.0
  0
LINE
  5
624C
330
1F
100
AcDbEntity
  8
0
  6
Continuous
 62
     0
370
    18
100
AcDbLine
 10
1026.114380103617
 20
998.5865589904865
 30
0.0
 11
1016.514378529817
 21
998.5865589904865
 31
0.0
  0
LINE
  5
624D
330
1F
100
AcDbEntity
  8
0
  6
Continuous
 62
     0
370
    18
100
AcDbLine
 10
985.3143801216174
 20
1022.586553983486
 30
0.0
 11
975.7143796656178
 21
1022.586553983486
 31
0.0
  0
LINE
  5
624E
330
1F
100
AcDbEntity
  8
0
  6
Continuous
 62
     0
370
    18
100
AcDbLine
 10
985.3143801216174
 20
998.5865589904865
 30
0.0
 11
975.7143796656178
 21
998.5865589904865
 31
0.0
  0
LINE
  5
624F
330
1F
100
AcDbEntity
  8
0
  6
Continuous
 62
     0
370
    18
100
AcDbLine
 10
1128.114381176417
 20
1022.586553983486
 30
0.0
 11
1118.514379602617
 21
1022.586553983486
 31
0.0
  0
LINE
  5
6250
330
1F
100
AcDbEntity
  8
0
  6
Continuous
 62
     0
370
    18
100
AcDbLine
 10
1128.114381176417
 20
998.5865589904865
 30
0.0
 11
1118.514379602617
 21
998.5865589904865
 31
0.0
  0
LINE
  5
6251
330
1F
100
AcDbEntity
  8
0
  6
Continuous
 62
     0
370
    18
100
AcDbLine
 10
740.5143824640172
 20
1022.586553983486
 30
0.0
 11
730.9143808902172
 21
1022.586553983486
 31
0.0
  0
LINE
  5
6252
330
1F
100
AcDbEntity
  8
0
  6
Continuous
 62
     0
370
    18
100
AcDbLine
 10
740.5143824640172
 20
998.5865589904865
 30
0.0
 11
730.9143808902172
 21
998.5865589904865
 31
0.0
  0
LINE
  5
6253
330
1F
100
AcDbEntity
  8
0
  6
Continuous
 62
     0
370
    18
100
AcDbLine
 10
883.3143768132172
 20
1022.586553983486
 30
0.0
 11
873.7143752400175
 21
1022.586553983486
 31
0.0
  0
LINE
  5
6254
330
1F
100
AcDbEntity
  8
0
  6
Continuous
 62
     0
370
    18
100
AcDbLine
 10
883.3143768132172
 20
998.5865589904865
 30
0.0
 11
873.7143752400175
 21
998.5865589904865
 31
0.0
  0
LINE
  5
6255
330
1F
100
AcDbEntity
  8
0
  6
Continuous
 62
     0
370
    18
100
AcDbLine
 10
1005.714378994817
 20
1022.586553983486
 30
0.0
 11
996.1143796566175
 21
1022.586553983486
 31
0.0
  0
LINE
  5
6256
330
1F
100
AcDbEntity
  8
0
  6
Continuous
 62
     0
370
    18
100
AcDbLine
 10
1005.714378994817
 20
998.5865589904865
 30
0.0
 11
996.1143796566175
 21
998.5865589904865
 31
0.0
  0
LINE
  5
6257
330
1F
100
AcDbEntity
  8
0
  6
Continuous
 62
     0
370
    18
100
AcDbLine
 10
1148.514386755217
 20
1022.586553983486
 30
0.0
 11
1138.914385182018
 21
1022.586553983486
 31
0.0
  0
LINE
  5
6258
330
1F
100
AcDbEntity
  8
0
  6
Continuous
 62
     0
370
    18
100
AcDbLine
 10
1148.514386755217
 20
998.5865589904865
 30
0.0
 11
1138.914385182018
 21
998.5865589904865
 31
0.0
  0
LINE
  5
6259
330
1F
100
AcDbEntity
  8
0
  6
Continuous
 62
     0
370
    18
100
AcDbLine
 10
760.9143880428173
 20
1022.586553983486
 30
0.0
 11
751.3143864690173
 21
1022.586553983486
 31
0.0
  0
LINE
  5
625A
330
1F
100
AcDbEntity
  8
0
  6
Continuous
 62
     0
370
    18
100
AcDbLine
 10
760.9143880428173
 20
998.5865589904865
 30
0.0
 11
751.3143864690173
 21
998.5865589904865
 31
0.0
  0
LINE
  5
625B
330
1F
100
AcDbEntity
  8
0
  6
Continuous
 62
     0
370
    18
100
AcDbLine
 10
720.1143768846177
 20
1022.586553983486
 30
0.0
 11
710.5143753114176
 21
1022.586553983486
 31
0.0
  0
LINE
  5
625C
330
1F
100
AcDbEntity
  8
0
  6
Continuous
 62
     0
370
    18
100
AcDbLine
 10
720.1143768846177
 20
998.5865589904865
 30
0.0
 11
710.5143753114176
 21
998.5865589904865
 31
0.0
  0
LINE
  5
625D
330
1F
100
AcDbEntity
  8
0
  6
Continuous
 62
     0
370
    18
100
AcDbLine
 10
1209.714385611017
 20
1022.586553983486
 30
0.0
 11
1200.114384037217
 21
1022.586553983486
 31
0.0
  0
LINE
  5
625E
330
1F
100
AcDbEntity
  8
0
  6
Continuous
 62
     0
370
    18
100
AcDbLine
 10
1209.714385611017
 20
998.5865589904865
 30
0.0
 11
1200.114384037217
 21
998.5865589904865
 31
0.0
  0
LINE
  5
625F
330
1F
100
AcDbEntity
  8
0
  6
Continuous
 62
     0
370
    18
100
AcDbLine
 10
1168.914374452818
 20
1022.586553983486
 30
0.0
 11
1159.314372879618
 21
1022.586553983486
 31
0.0
  0
LINE
  5
6260
330
1F
100
AcDbEntity
  8
0
  6
Continuous
 62
     0
370
    18
100
AcDbLine
 10
1168.914374452818
 20
998.5865589904865
 30
0.0
 11
1159.314372879618
 21
998.5865589904865
 31
0.0
  0
LINE
  5
6261
330
1F
100
AcDbEntity
  8
0
  6
Continuous
 62
     0
370
    18
100
AcDbLine
 10
781.3143757404173
 20
1022.586553983486
 30
0.0
 11
771.7143741666173
 21
1022.586553983486
 31
0.0
  0
LINE
  5
6262
330
1F
100
AcDbEntity
  8
0
  6
Continuous
 62
     0
370
    18
100
AcDbLine
 10
781.3143757404173
 20
998.5865589904865
 30
0.0
 11
771.7143741666173
 21
998.5865589904865
 31
0.0
  0
LINE
  5
6263
330
1F
100
AcDbEntity
  8
0
  6
Continuous
 62
     0
370
    18
100
AcDbLine
 10
1189.314380032217
 20
1022.586553983486
 30
0.0
 11
1179.714378458417
 21
1022.586553983486
 31
0.0
  0
LINE
  5
6264
330
1F
100
AcDbEntity
  8
0
  6
Continuous
 62
     0
370
    18
100
AcDbLine
 10
1189.314380032217
 20
998.5865589904865
 30
0.0
 11
1179.714378458417
 21
998.5865589904865
 31
0.0
  0
LINE
  5
6265
330
1F
100
AcDbEntity
  8
0
  6
Continuous
 62
     0
370
    18
100
AcDbLine
 10
801.7143813192174
 20
1022.586553983486
 30
0.0
 11
792.1143797460172
 21
1022.586553983486
 31
0.0
  0
LINE
  5
6266
330
1F
100
AcDbEntity
  8
0
  6
Continuous
 62
     0
370
    18
100
AcDbLine
 10
801.7143813192174
 20
998.5865589904865
 30
0.0
 11
792.1143797460172
 21
998.5865589904865
 31
0.0
  0
LINE
  5
6267
330
1F
100
AcDbEntity
  8
0
  6
Continuous
 62
     0
370
    18
100
AcDbLine
 10
822.1143779580175
 20
1022.586553983486
 30
0.0
 11
812.5143853248173
 21
1022.586553983486
 31
0.0
  0
LINE
  5
6268
330
1F
100
AcDbEntity
  8
0
  6
Continuous
 62
     0
370
    18
100
AcDbLine
 10
822.1143779580175
 20
998.5865589904865
 30
0.0
 11
812.5143853248173
 21
998.5865589904865
 31
0.0
  0
LINE
  5
6269
330
1F
100
AcDbEntity
  8
0
  6
Continuous
 62
     0
370
    18
100
AcDbLine
 10
842.5143835368176
 20
1022.586553983486
 30
0.0
 11
832.9143819630176
 21
1022.586553983486
 31
0.0
  0
LINE
  5
626A
330
1F
100
AcDbEntity
  8
0
  6
Continuous
 62
     0
370
    18
100
AcDbLine
 10
842.5143835368176
 20
998.5865589904865
 30
0.0
 11
832.9143819630176
 21
998.5865589904865
 31
0.0
  0
LINE
  5
626B
330
1F
100
AcDbEntity
  8
0
  6
Continuous
 62
     0
370
    18
100
AcDbLine
 10
862.9143801750174
 20
1022.586553983486
 30
0.0
 11
853.3143786012174
 21
1022.586553983486
 31
0.0
  0
LINE
  5
626C
330
1F
100
AcDbEntity
  8
0
  6
Continuous
 62
     0
370
    18
100
AcDbLine
 10
862.9143801750174
 20
998.5865589904865
 30
0.0
 11
853.3143786012174
 21
998.5865589904865
 31
0.0
  0
LINE
  5
626D
330
1F
100
AcDbEntity
  8
0
  6
Continuous
 62
     0
370
    18
100
AcDbLine
 10
944.5143801390172
 20
1022.586553983486
 30
0.0
 11
934.9143785658175
 21
1022.586553983486
 31
0.0
  0
LINE
  5
626E
330
1F
100
AcDbEntity
  8
0
  6
Continuous
 62
     0
370
    18
100
AcDbLine
 10
944.5143801390172
 20
998.5865589904865
 30
0.0
 11
934.9143785658175
 21
998.5865589904865
 31
0.0
  0
LINE
  5
626F
330
1F
100
AcDbEntity
  8
0
  6
Continuous
 62
     0
370
    18
100
AcDbLine
 10
903.7143779220173
 20
1022.586553983486
 30
0.0
 11
894.1143808188176
 21
1022.586553983486
 31
0.0
  0
LINE
  5
6270
330
1F
100
AcDbEntity
  8
0
  6
Continuous
 62
     0
370
    18
100
AcDbLine
 10
903.7143779220173
 20
998.5865589904865
 30
0.0
 11
894.1143808188176
 21
998.5865589904865
 31
0.0
  0
LINE
  5
6271
330
1F
100
AcDbEntity
  8
0
  6
Continuous
 62
     0
370
    18
100
AcDbLine
 10
924.1143790308174
 20
1022.586553983486
 30
0.0
 11
914.5143774570174
 21
1022.586553983486
 31
0.0
  0
LINE
  5
6272
330
1F
100
AcDbEntity
  8
0
  6
Continuous
 62
     0
370
    18
100
AcDbLine
 10
924.1143790308174
 20
998.5865589904865
 30
0.0
 11
914.5143774570174
 21
998.5865589904865
 31
0.0
  0
LINE
  5
6273
330
1F
100
AcDbEntity
  8
C2
  6
CENTERX2
 62
     0
 48
10.0
370
    18
100
AcDbLine
 10
638.0838135482923
 20
779.9597321167444
 30
0.0
 11
1248.320096848438
 21
779.9597321167444
 31
0.0
  0
LINE
  5
6274
330
1F
100
AcDbEntity
  8
寸法線
  6
Continuous
 62
     0
370
    18
100
AcDbLine
 10
1226.514379631417
 20
534.1865508364863
 30
0.0
 11
1286.514379631417
 21
534.1865508364863
 31
0.0
  0
LINE
  5
6275
330
1F
100
AcDbEntity
  8
0
  6
Continuous
 62
     0
370
    18
100
AcDbLine
 10
699.7143796314176
 20
528.1865508364863
 30
0.0
 11
699.7143796314176
 21
468.1865508364863
 31
0.0
  0
LINE
  5
6276
330
1F
100
AcDbEntity
  8
寸法線
  6
Continuous
 62
     0
370
    18
100
AcDbLine
 10
1220.514379631417
 20
528.1865508364863
 30
0.0
 11
1220.514379631417
 21
468.1865508364863
 31
0.0
  0
LINE
  5
6277
330
1F
100
AcDbEntity
  8
寸法線
  6
Continuous
 62
     0
370
    18
100
AcDbLine
 10
1226.514379631417
 20
534.1865508364863
 30
0.0
 11
1269.773681235017
 21
534.1865508364863
 31
0.0
  0
LINE
  5
6278
330
1F
100
AcDbEntity
  8
0
  6
Continuous
 62
     0
370
    18
100
AcDbLine
 10
1226.514379631417
 20
1022.586550836486
 30
0.0
 11
1269.773681235017
 21
1022.586550836486
 31
0.0
  0
LINE
  5
6279
330
1F
100
AcDbEntity
  8
0
  6
Continuous
 62
     0
370
    18
100
AcDbLine
 10
1387.026148736417
 20
998.5865589904865
 30
0.0
 11
1387.026148736417
 21
558.1865426824861
 31
0.0
  0
LINE
  5
627A
330
1F
100
AcDbEntity
  8
0
  6
Continuous
 62
     0
370
    18
100
AcDbLine
 10
1395.426150113417
 20
558.1865426824861
 30
0.0
 11
1395.426150113417
 21
998.5865589904865
 31
0.0
  0
LINE
  5
627B
330
1F
100
AcDbEntity
  8
0
  6
Continuous
 62
     0
370
    18
100
AcDbLine
 10
1385.826148539617
 20
558.1865426824861
 30
0.0
 11
1385.826148539617
 21
534.1865476894864
 31
0.0
  0
LINE
  5
627C
330
1F
100
AcDbEntity
  8
0
  6
Continuous
 62
     0
370
    18
100
AcDbLine
 10
1385.826148539617
 20
1022.586553983486
 30
0.0
 11
1385.826148539617
 21
998.5865589904865
 31
0.0
  0
LINE
  5
627D
330
1F
100
AcDbEntity
  8
0
  6
Continuous
 62
     0
370
    18
100
AcDbLine
 10
1391.226149424617
 20
998.5865589904865
 30
0.0
 11
1387.026148736417
 21
998.5865589904865
 31
0.0
  0
LINE
  5
627E
330
1F
100
AcDbEntity
  8
0
  6
Continuous
 62
     0
370
    18
100
AcDbLine
 10
1391.226149424617
 20
558.1865426824861
 30
0.0
 11
1387.026148736417
 21
558.1865426824861
 31
0.0
  0
LINE
  5
627F
330
1F
100
AcDbEntity
  8
0
  6
Continuous
 62
     0
370
    18
100
AcDbLine
 10
1396.626149192417
 20
534.1865476894864
 30
0.0
 11
1396.626149192417
 21
558.1865426824861
 31
0.0
  0
LINE
  5
6280
330
1F
100
AcDbEntity
  8
0
  6
Continuous
 62
     0
370
    18
100
AcDbLine
 10
1396.626149192417
 20
558.1865426824861
 30
0.0
 11
1391.226149424617
 21
558.1865426824861
 31
0.0
  0
LINE
  5
6281
330
1F
100
AcDbEntity
  8
0
  6
Continuous
 62
     0
370
    18
100
AcDbLine
 10
1396.626149192417
 20
534.1865476894864
 30
0.0
 11
1391.226149424617
 21
534.1865476894864
 31
0.0
  0
LINE
  5
6282
330
1F
100
AcDbEntity
  8
0
  6
Continuous
 62
     0
370
    18
100
AcDbLine
 10
1391.226149424617
 20
558.1865426824861
 30
0.0
 11
1385.826148539617
 21
558.1865426824861
 31
0.0
  0
LINE
  5
6283
330
1F
100
AcDbEntity
  8
0
  6
Continuous
 62
     0
370
    18
100
AcDbLine
 10
1391.226149424617
 20
534.1865476894864
 30
0.0
 11
1385.826148539617
 21
534.1865476894864
 31
0.0
  0
LINE
  5
6284
330
1F
100
AcDbEntity
  8
0
  6
Continuous
 62
     0
370
    18
100
AcDbLine
 10
1396.617605310839
 20
1022.586553983486
 30
0.0
 11
1391.226149424617
 21
1022.586553983486
 31
0.0
  0
LINE
  5
6285
330
1F
100
AcDbEntity
  8
0
  6
Continuous
 62
     0
370
    18
100
AcDbLine
 10
1396.626149192417
 20
1020.186553983487
 30
0.0
 11
1396.626149192417
 21
998.5865589904865
 31
0.0
  0
LINE
  5
6286
330
1F
100
AcDbEntity
  8
0
  6
Continuous
 62
     0
370
    18
100
AcDbLine
 10
1396.626149192417
 20
998.5865589904865
 30
0.0
 11
1391.226149424617
 21
998.5865589904865
 31
0.0
  0
LINE
  5
6287
330
1F
100
AcDbEntity
  8
0
  6
Continuous
 62
     0
370
    18
100
AcDbLine
 10
1391.226149424617
 20
1022.586553983486
 30
0.0
 11
1385.826148539617
 21
1022.586553983486
 31
0.0
  0
LINE
  5
6288
330
1F
100
AcDbEntity
  8
0
  6
Continuous
 62
     0
370
    18
100
AcDbLine
 10
1391.226149424617
 20
998.5865589904865
 30
0.0
 11
1385.826148539617
 21
998.5865589904865
 31
0.0
  0
LINE
  5
6289
330
1F
100
AcDbEntity
  8
0
  6
Continuous
 62
     0
370
    18
100
AcDbLine
 10
955.3143796746176
 20
365.3928950980862
 30
0.0
 11
955.3143796746176
 21
368.3928955900865
 31
0.0
  0
LINE
  5
628A
330
1F
100
AcDbEntity
  8
0
  6
Continuous
 62
     0
370
    18
100
AcDbLine
 10
964.9143795714176
 20
365.3928950980862
 30
0.0
 11
955.3143796746176
 21
365.3928950980862
 31
0.0
  0
LINE
  5
628B
330
1F
100
AcDbEntity
  8
0
  6
Continuous
 62
     0
370
    18
100
AcDbLine
 10
964.9143795714176
 20
368.3928955900865
 30
0.0
 11
964.9143795714176
 21
365.3928950980862
 31
0.0
  0
ARC
  5
628C
330
1F
100
AcDbEntity
  8
0
  6
Continuous
 62
     0
370
    18
100
AcDbCircle
 10
970.3143796314175
 20
368.3928953662862
 30
0.0
 40
5.400000000000036
100
AcDbArc
 50
0.0
 51
180.0
  0
LINE
  5
628D
330
1F
100
AcDbEntity
  8
0
  6
Continuous
 62
     0
370
    18
100
AcDbLine
 10
975.7143796656178
 20
365.3928950980862
 30
0.0
 11
975.7143796656178
 21
368.3928955900865
 31
0.0
  0
LINE
  5
628E
330
1F
100
AcDbEntity
  8
0
  6
Continuous
 62
     0
370
    18
100
AcDbLine
 10
985.3143801216174
 20
365.3928950980862
 30
0.0
 11
975.7143796656178
 21
365.3928950980862
 31
0.0
  0
LINE
  5
628F
330
1F
100
AcDbEntity
  8
0
  6
Continuous
 62
     0
370
    18
100
AcDbLine
 10
985.3143801216174
 20
368.3928955900865
 30
0.0
 11
985.3143801216174
 21
365.3928950980862
 31
0.0
  0
ARC
  5
6290
330
1F
100
AcDbEntity
  8
0
  6
Continuous
 62
     0
370
    18
100
AcDbCircle
 10
990.7143796314172
 20
368.3928953662862
 30
0.0
 40
5.400000000000036
100
AcDbArc
 50
0.0
 51
180.0
  0
LINE
  5
6291
330
1F
100
AcDbEntity
  8
0
  6
Continuous
 62
     0
370
    18
100
AcDbLine
 10
996.1143796566175
 20
365.3928950980862
 30
0.0
 11
996.1143796566175
 21
368.3928955900865
 31
0.0
  0
LINE
  5
6292
330
1F
100
AcDbEntity
  8
0
  6
Continuous
 62
     0
370
    18
100
AcDbLine
 10
1005.714378994817
 20
365.3928950980862
 30
0.0
 11
996.1143796566175
 21
365.3928950980862
 31
0.0
  0
LINE
  5
6293
330
1F
100
AcDbEntity
  8
0
  6
Continuous
 62
     0
370
    18
100
AcDbLine
 10
1005.714378994817
 20
368.3928955900865
 30
0.0
 11
1005.714378994817
 21
365.3928950980862
 31
0.0
  0
ARC
  5
6294
330
1F
100
AcDbEntity
  8
0
  6
Continuous
 62
     0
370
    18
100
AcDbCircle
 10
1011.114379631418
 20
368.3928953662862
 30
0.0
 40
5.400000000000036
100
AcDbArc
 50
0.0
 51
180.0
  0
LINE
  5
6295
330
1F
100
AcDbEntity
  8
0
  6
Continuous
 62
     0
370
    18
100
AcDbLine
 10
1016.514378529817
 20
365.3928950980862
 30
0.0
 11
1016.514378529817
 21
368.3928955900865
 31
0.0
  0
LINE
  5
6296
330
1F
100
AcDbEntity
  8
0
  6
Continuous
 62
     0
370
    18
100
AcDbLine
 10
1026.114380103617
 20
365.3928950980862
 30
0.0
 11
1016.514378529817
 21
365.3928950980862
 31
0.0
  0
LINE
  5
6297
330
1F
100
AcDbEntity
  8
0
  6
Continuous
 62
     0
370
    18
100
AcDbLine
 10
1026.114380103617
 20
368.3928955900865
 30
0.0
 11
1026.114380103617
 21
365.3928950980862
 31
0.0
  0
ARC
  5
6298
330
1F
100
AcDbEntity
  8
0
  6
Continuous
 62
     0
370
    18
100
AcDbCircle
 10
1031.514379631417
 20
368.3928953662862
 30
0.0
 40
5.400000000000036
100
AcDbArc
 50
0.0
 51
180.0
  0
LINE
  5
6299
330
1F
100
AcDbEntity
  8
0
  6
Continuous
 62
     0
370
    18
100
AcDbLine
 10
1036.914379638617
 20
365.3928950980862
 30
0.0
 11
1036.914379638617
 21
368.3928955900865
 31
0.0
  0
LINE
  5
629A
330
1F
100
AcDbEntity
  8
0
  6
Continuous
 62
     0
370
    18
100
AcDbLine
 10
1046.514376741817
 20
365.3928950980862
 30
0.0
 11
1036.914379638617
 21
365.3928950980862
 31
0.0
  0
LINE
  5
629B
330
1F
100
AcDbEntity
  8
0
  6
Continuous
 62
     0
370
    18
100
AcDbLine
 10
1046.514376741817
 20
368.3928955900865
 30
0.0
 11
1046.514376741817
 21
365.3928950980862
 31
0.0
  0
ARC
  5
629C
330
1F
100
AcDbEntity
  8
0
  6
Continuous
 62
     0
370
    18
100
AcDbCircle
 10
1051.914379631417
 20
368.3928953662862
 30
0.0
 40
5.400000000000036
100
AcDbArc
 50
0.0
 51
180.0
  0
LINE
  5
629D
330
1F
100
AcDbEntity
  8
0
  6
Continuous
 62
     0
370
    18
100
AcDbLine
 10
1057.314380747418
 20
365.3928950980862
 30
0.0
 11
1057.314380747418
 21
368.3928955900865
 31
0.0
  0
LINE
  5
629E
330
1F
100
AcDbEntity
  8
0
  6
Continuous
 62
     0
370
    18
100
AcDbLine
 10
1066.914382320617
 20
365.3928950980862
 30
0.0
 11
1057.314380747418
 21
365.3928950980862
 31
0.0
  0
LINE
  5
629F
330
1F
100
AcDbEntity
  8
0
  6
Continuous
 62
     0
370
    18
100
AcDbLine
 10
1066.914382320617
 20
368.3928955900865
 30
0.0
 11
1066.914382320617
 21
365.3928950980862
 31
0.0
  0
ARC
  5
62A0
330
1F
100
AcDbEntity
  8
0
  6
Continuous
 62
     0
370
    18
100
AcDbCircle
 10
1072.314379631418
 20
368.3928953662862
 30
0.0
 40
5.400000000000204
100
AcDbArc
 50
0.0
 51
180.0
  0
LINE
  5
62A1
330
1F
100
AcDbEntity
  8
0
  6
Continuous
 62
     0
370
    18
100
AcDbLine
 10
1077.714377385617
 20
365.3928950980862
 30
0.0
 11
1077.714377385617
 21
368.3928955900865
 31
0.0
  0
LINE
  5
62A2
330
1F
100
AcDbEntity
  8
0
  6
Continuous
 62
     0
370
    18
100
AcDbLine
 10
1087.314378959417
 20
365.3928950980862
 30
0.0
 11
1077.714377385617
 21
365.3928950980862
 31
0.0
  0
LINE
  5
62A3
330
1F
100
AcDbEntity
  8
0
  6
Continuous
 62
     0
370
    18
100
AcDbLine
 10
1087.314378959417
 20
368.3928955900865
 30
0.0
 11
1087.314378959417
 21
365.3928950980862
 31
0.0
  0
ARC
  5
62A4
330
1F
100
AcDbEntity
  8
0
  6
Continuous
 62
     0
370
    18
100
AcDbCircle
 10
1092.714379631417
 20
368.3928953662862
 30
0.0
 40
5.400000000000204
100
AcDbArc
 50
0.0
 51
180.0
  0
LINE
  5
62A5
330
1F
100
AcDbEntity
  8
0
  6
Continuous
 62
     0
370
    18
100
AcDbLine
 10
1098.114382964417
 20
365.3928950980862
 30
0.0
 11
1098.114382964417
 21
368.3928955900865
 31
0.0
  0
LINE
  5
62A6
330
1F
100
AcDbEntity
  8
0
  6
Continuous
 62
     0
370
    18
100
AcDbLine
 10
1107.714375597617
 20
365.3928950980862
 30
0.0
 11
1098.114382964417
 21
365.3928950980862
 31
0.0
  0
LINE
  5
62A7
330
1F
100
AcDbEntity
  8
0
  6
Continuous
 62
     0
370
    18
100
AcDbLine
 10
1107.714375597617
 20
368.3928955900865
 30
0.0
 11
1107.714375597617
 21
365.3928950980862
 31
0.0
  0
ARC
  5
62A8
330
1F
100
AcDbEntity
  8
0
  6
Continuous
 62
     0
370
    18
100
AcDbCircle
 10
1113.114379631418
 20
368.3928953662862
 30
0.0
 40
5.400000000000036
100
AcDbArc
 50
0.0
 51
180.0
  0
LINE
  5
62A9
330
1F
100
AcDbEntity
  8
0
  6
Continuous
 62
     0
370
    18
100
AcDbLine
 10
1118.514379602617
 20
365.3928950980862
 30
0.0
 11
1118.514379602617
 21
368.3928955900865
 31
0.0
  0
LINE
  5
62AA
330
1F
100
AcDbEntity
  8
0
  6
Continuous
 62
     0
370
    18
100
AcDbLine
 10
1128.114381176417
 20
365.3928950980862
 30
0.0
 11
1118.514379602617
 21
365.3928950980862
 31
0.0
  0
LINE
  5
62AB
330
1F
100
AcDbEntity
  8
0
  6
Continuous
 62
     0
370
    18
100
AcDbLine
 10
1128.114381176417
 20
368.3928955900865
 30
0.0
 11
1128.114381176417
 21
365.3928950980862
 31
0.0
  0
ARC
  5
62AC
330
1F
100
AcDbEntity
  8
0
  6
Continuous
 62
     0
370
    18
100
AcDbCircle
 10
1133.514379631417
 20
368.3928953662862
 30
0.0
 40
5.400000000000036
100
AcDbArc
 50
0.0
 51
180.0
  0
LINE
  5
62AD
330
1F
100
AcDbEntity
  8
0
  6
Continuous
 62
     0
370
    18
100
AcDbLine
 10
1138.914385182018
 20
365.3928950980862
 30
0.0
 11
1138.914385182018
 21
368.3928955900865
 31
0.0
  0
LINE
  5
62AE
330
1F
100
AcDbEntity
  8
0
  6
Continuous
 62
     0
370
    18
100
AcDbLine
 10
1148.514386755217
 20
365.3928950980862
 30
0.0
 11
1138.914385182018
 21
365.3928950980862
 31
0.0
  0
LINE
  5
62AF
330
1F
100
AcDbEntity
  8
0
  6
Continuous
 62
     0
370
    18
100
AcDbLine
 10
1148.514386755217
 20
368.3928955900865
 30
0.0
 11
1148.514386755217
 21
365.3928950980862
 31
0.0
  0
ARC
  5
62B0
330
1F
100
AcDbEntity
  8
0
  6
Continuous
 62
     0
370
    18
100
AcDbCircle
 10
1153.914379631417
 20
368.3928953662862
 30
0.0
 40
5.400000000000036
100
AcDbArc
 50
0.0
 51
180.0
  0
LINE
  5
62B1
330
1F
100
AcDbEntity
  8
0
  6
Continuous
 62
     0
370
    18
100
AcDbLine
 10
1159.314372879618
 20
365.3928950980862
 30
0.0
 11
1159.314372879618
 21
368.3928955900865
 31
0.0
  0
LINE
  5
62B2
330
1F
100
AcDbEntity
  8
0
  6
Continuous
 62
     0
370
    18
100
AcDbLine
 10
1168.914374452818
 20
365.3928950980862
 30
0.0
 11
1159.314372879618
 21
365.3928950980862
 31
0.0
  0
LINE
  5
62B3
330
1F
100
AcDbEntity
  8
0
  6
Continuous
 62
     0
370
    18
100
AcDbLine
 10
1168.914374452818
 20
368.3928955900865
 30
0.0
 11
1168.914374452818
 21
365.3928950980862
 31
0.0
  0
ARC
  5
62B4
330
1F
100
AcDbEntity
  8
0
  6
Continuous
 62
     0
370
    18
100
AcDbCircle
 10
1174.314379631418
 20
368.3928953662862
 30
0.0
 40
5.400000000000036
100
AcDbArc
 50
0.0
 51
180.0
  0
LINE
  5
62B5
330
1F
100
AcDbEntity
  8
0
  6
Continuous
 62
     0
370
    18
100
AcDbLine
 10
1179.714378458417
 20
365.3928950980862
 30
0.0
 11
1179.714378458417
 21
368.3928955900865
 31
0.0
  0
LINE
  5
62B6
330
1F
100
AcDbEntity
  8
0
  6
Continuous
 62
     0
370
    18
100
AcDbLine
 10
1189.314380032217
 20
365.3928950980862
 30
0.0
 11
1179.714378458417
 21
365.3928950980862
 31
0.0
  0
LINE
  5
62B7
330
1F
100
AcDbEntity
  8
0
  6
Continuous
 62
     0
370
    18
100
AcDbLine
 10
1189.314380032217
 20
368.3928955900865
 30
0.0
 11
1189.314380032217
 21
365.3928950980862
 31
0.0
  0
ARC
  5
62B8
330
1F
100
AcDbEntity
  8
0
  6
Continuous
 62
     0
370
    18
100
AcDbCircle
 10
1194.714379631417
 20
368.3928953662862
 30
0.0
 40
5.400000000000036
100
AcDbArc
 50
0.0
 51
180.0
  0
LINE
  5
62B9
330
1F
100
AcDbEntity
  8
0
  6
Continuous
 62
     0
370
    18
100
AcDbLine
 10
1200.114384037217
 20
365.3928950980862
 30
0.0
 11
1200.114384037217
 21
368.3928955900865
 31
0.0
  0
LINE
  5
62BA
330
1F
100
AcDbEntity
  8
0
  6
Continuous
 62
     0
370
    18
100
AcDbLine
 10
1209.714385611017
 20
365.3928950980862
 30
0.0
 11
1200.114384037217
 21
365.3928950980862
 31
0.0
  0
LINE
  5
62BB
330
1F
100
AcDbEntity
  8
0
  6
Continuous
 62
     0
370
    18
100
AcDbLine
 10
1209.714385611017
 20
368.3928955900865
 30
0.0
 11
1209.714385611017
 21
365.3928950980862
 31
0.0
  0
ARC
  5
62BC
330
1F
100
AcDbEntity
  8
0
  6
Continuous
 62
     0
370
    18
100
AcDbCircle
 10
1215.114379631418
 20
368.3928953662862
 30
0.0
 40
5.400000000000204
100
AcDbArc
 50
0.0
 51
180.0
  0
LINE
  5
62BD
330
1F
100
AcDbEntity
  8
0
  6
Continuous
 62
     0
370
    18
100
AcDbLine
 10
1220.514371734817
 20
362.9928958222863
 30
0.0
 11
1220.514371734817
 21
368.3928955900865
 31
0.0
  0
LINE
  5
62BE
330
1F
100
AcDbEntity
  8
0
  6
Continuous
 62
     0
370
    18
100
AcDbLine
 10
699.7143713058176
 20
362.9928958222863
 30
0.0
 11
1220.514371734817
 21
362.9928958222863
 31
0.0
  0
LINE
  5
62BF
330
1F
100
AcDbEntity
  8
0
  6
Continuous
 62
     0
370
    18
100
AcDbLine
 10
699.7143713058176
 20
368.3928955900865
 30
0.0
 11
699.7143713058176
 21
362.9928958222863
 31
0.0
  0
ARC
  5
62C0
330
1F
100
AcDbEntity
  8
0
  6
Continuous
 62
     0
370
    18
100
AcDbCircle
 10
705.1143796314173
 20
368.3928953662862
 30
0.0
 40
5.400000000000036
100
AcDbArc
 50
0.0
 51
180.0
  0
LINE
  5
62C1
330
1F
100
AcDbEntity
  8
0
  6
Continuous
 62
     0
370
    18
100
AcDbLine
 10
710.5143753114176
 20
365.3928950980862
 30
0.0
 11
710.5143753114176
 21
368.3928955900865
 31
0.0
  0
LINE
  5
62C2
330
1F
100
AcDbEntity
  8
0
  6
Continuous
 62
     0
370
    18
100
AcDbLine
 10
720.1143768846177
 20
365.3928950980862
 30
0.0
 11
710.5143753114176
 21
365.3928950980862
 31
0.0
  0
LINE
  5
62C3
330
1F
100
AcDbEntity
  8
0
  6
Continuous
 62
     0
370
    18
100
AcDbLine
 10
720.1143768846177
 20
368.3928955900865
 30
0.0
 11
720.1143768846177
 21
365.3928950980862
 31
0.0
  0
ARC
  5
62C4
330
1F
100
AcDbEntity
  8
0
  6
Continuous
 62
     0
370
    18
100
AcDbCircle
 10
725.5143796314173
 20
368.3928953662862
 30
0.0
 40
5.400000000000036
100
AcDbArc
 50
0.0
 51
180.0
  0
LINE
  5
62C5
330
1F
100
AcDbEntity
  8
0
  6
Continuous
 62
     0
370
    18
100
AcDbLine
 10
730.9143808902172
 20
365.3928950980862
 30
0.0
 11
730.9143808902172
 21
368.3928955900865
 31
0.0
  0
LINE
  5
62C6
330
1F
100
AcDbEntity
  8
0
  6
Continuous
 62
     0
370
    18
100
AcDbLine
 10
740.5143824640172
 20
365.3928950980862
 30
0.0
 11
730.9143808902172
 21
365.3928950980862
 31
0.0
  0
LINE
  5
62C7
330
1F
100
AcDbEntity
  8
0
  6
Continuous
 62
     0
370
    18
100
AcDbLine
 10
740.5143824640172
 20
368.3928955900865
 30
0.0
 11
740.5143824640172
 21
365.3928950980862
 31
0.0
  0
ARC
  5
62C8
330
1F
100
AcDbEntity
  8
0
  6
Continuous
 62
     0
370
    18
100
AcDbCircle
 10
745.9143796314174
 20
368.3928953662862
 30
0.0
 40
5.400000000000036
100
AcDbArc
 50
0.0
 51
180.0
  0
LINE
  5
62C9
330
1F
100
AcDbEntity
  8
0
  6
Continuous
 62
     0
370
    18
100
AcDbLine
 10
751.3143864690173
 20
365.3928950980862
 30
0.0
 11
751.3143864690173
 21
368.3928955900865
 31
0.0
  0
LINE
  5
62CA
330
1F
100
AcDbEntity
  8
0
  6
Continuous
 62
     0
370
    18
100
AcDbLine
 10
760.9143880428173
 20
365.3928950980862
 30
0.0
 11
751.3143864690173
 21
365.3928950980862
 31
0.0
  0
ARC
  5
62CB
330
1F
100
AcDbEntity
  8
0
  6
Continuous
 62
     0
370
    18
100
AcDbCircle
 10
949.9143796314174
 20
368.3928953662862
 30
0.0
 40
5.400000000000036
100
AcDbArc
 50
0.0
 51
180.0
  0
LINE
  5
62CC
330
1F
100
AcDbEntity
  8
0
  6
Continuous
 62
     0
370
    18
100
AcDbLine
 10
944.5143801390172
 20
368.3928955900865
 30
0.0
 11
944.5143801390172
 21
365.3928950980862
 31
0.0
  0
LINE
  5
62CD
330
1F
100
AcDbEntity
  8
0
  6
Continuous
 62
     0
370
    18
100
AcDbLine
 10
944.5143801390172
 20
365.3928950980862
 30
0.0
 11
934.9143785658175
 21
365.3928950980862
 31
0.0
  0
LINE
  5
62CE
330
1F
100
AcDbEntity
  8
0
  6
Continuous
 62
     0
370
    18
100
AcDbLine
 10
934.9143785658175
 20
365.3928950980862
 30
0.0
 11
934.9143785658175
 21
368.3928955900865
 31
0.0
  0
ARC
  5
62CF
330
1F
100
AcDbEntity
  8
0
  6
Continuous
 62
     0
370
    18
100
AcDbCircle
 10
929.5143796314173
 20
368.3928953662862
 30
0.0
 40
5.400000000000036
100
AcDbArc
 50
0.0
 51
180.0
  0
LINE
  5
62D0
330
1F
100
AcDbEntity
  8
0
  6
Continuous
 62
     0
370
    18
100
AcDbLine
 10
924.1143790308174
 20
368.3928955900865
 30
0.0
 11
924.1143790308174
 21
365.3928950980862
 31
0.0
  0
LINE
  5
62D1
330
1F
100
AcDbEntity
  8
0
  6
Continuous
 62
     0
370
    18
100
AcDbLine
 10
924.1143790308174
 20
365.3928950980862
 30
0.0
 11
914.5143774570174
 21
365.3928950980862
 31
0.0
  0
LINE
  5
62D2
330
1F
100
AcDbEntity
  8
0
  6
Continuous
 62
     0
370
    18
100
AcDbLine
 10
914.5143774570174
 20
365.3928950980862
 30
0.0
 11
914.5143774570174
 21
368.3928955900865
 31
0.0
  0
ARC
  5
62D3
330
1F
100
AcDbEntity
  8
0
  6
Continuous
 62
     0
370
    18
100
AcDbCircle
 10
909.1143796314177
 20
368.3928953662862
 30
0.0
 40
5.400000000000036
100
AcDbArc
 50
0.0
 51
180.0
  0
LINE
  5
62D4
330
1F
100
AcDbEntity
  8
0
  6
Continuous
 62
     0
370
    18
100
AcDbLine
 10
903.7143779220173
 20
368.3928955900865
 30
0.0
 11
903.7143779220173
 21
365.3928950980862
 31
0.0
  0
LINE
  5
62D5
330
1F
100
AcDbEntity
  8
0
  6
Continuous
 62
     0
370
    18
100
AcDbLine
 10
903.7143779220173
 20
365.3928950980862
 30
0.0
 11
894.1143808188176
 21
365.3928950980862
 31
0.0
  0
LINE
  5
62D6
330
1F
100
AcDbEntity
  8
0
  6
Continuous
 62
     0
370
    18
100
AcDbLine
 10
894.1143808188176
 20
365.3928950980862
 30
0.0
 11
894.1143808188176
 21
368.3928955900865
 31
0.0
  0
ARC
  5
62D7
330
1F
100
AcDbEntity
  8
0
  6
Continuous
 62
     0
370
    18
100
AcDbCircle
 10
888.7143796314172
 20
368.3928953662862
 30
0.0
 40
5.400000000000204
100
AcDbArc
 50
0.0
 51
180.0
  0
LINE
  5
62D8
330
1F
100
AcDbEntity
  8
0
  6
Continuous
 62
     0
370
    18
100
AcDbLine
 10
883.3143768132172
 20
368.3928955900865
 30
0.0
 11
883.3143768132172
 21
365.3928950980862
 31
0.0
  0
LINE
  5
62D9
330
1F
100
AcDbEntity
  8
0
  6
Continuous
 62
     0
370
    18
100
AcDbLine
 10
883.3143768132172
 20
365.3928950980862
 30
0.0
 11
873.7143752400175
 21
365.3928950980862
 31
0.0
  0
LINE
  5
62DA
330
1F
100
AcDbEntity
  8
0
  6
Continuous
 62
     0
370
    18
100
AcDbLine
 10
873.7143752400175
 20
365.3928950980862
 30
0.0
 11
873.7143752400175
 21
368.3928955900865
 31
0.0
  0
ARC
  5
62DB
330
1F
100
AcDbEntity
  8
0
  6
Continuous
 62
     0
370
    18
100
AcDbCircle
 10
868.3143796314175
 20
368.3928953662862
 30
0.0
 40
5.400000000000204
100
AcDbArc
 50
0.0
 51
180.0
  0
LINE
  5
62DC
330
1F
100
AcDbEntity
  8
0
  6
Continuous
 62
     0
370
    18
100
AcDbLine
 10
862.9143801750174
 20
368.3928955900865
 30
0.0
 11
862.9143801750174
 21
365.3928950980862
 31
0.0
  0
LINE
  5
62DD
330
1F
100
AcDbEntity
  8
0
  6
Continuous
 62
     0
370
    18
100
AcDbLine
 10
862.9143801750174
 20
365.3928950980862
 30
0.0
 11
853.3143786012174
 21
365.3928950980862
 31
0.0
  0
LINE
  5
62DE
330
1F
100
AcDbEntity
  8
0
  6
Continuous
 62
     0
370
    18
100
AcDbLine
 10
853.3143786012174
 20
365.3928950980862
 30
0.0
 11
853.3143786012174
 21
368.3928955900865
 31
0.0
  0
ARC
  5
62DF
330
1F
100
AcDbEntity
  8
0
  6
Continuous
 62
     0
370
    18
100
AcDbCircle
 10
847.9143796314174
 20
368.3928953662862
 30
0.0
 40
5.400000000000036
100
AcDbArc
 50
0.0
 51
180.0
  0
LINE
  5
62E0
330
1F
100
AcDbEntity
  8
0
  6
Continuous
 62
     0
370
    18
100
AcDbLine
 10
842.5143835368176
 20
368.3928955900865
 30
0.0
 11
842.5143835368176
 21
365.3928950980862
 31
0.0
  0
LINE
  5
62E1
330
1F
100
AcDbEntity
  8
0
  6
Continuous
 62
     0
370
    18
100
AcDbLine
 10
842.5143835368176
 20
365.3928950980862
 30
0.0
 11
832.9143819630176
 21
365.3928950980862
 31
0.0
  0
LINE
  5
62E2
330
1F
100
AcDbEntity
  8
0
  6
Continuous
 62
     0
370
    18
100
AcDbLine
 10
832.9143819630176
 20
365.3928950980862
 30
0.0
 11
832.9143819630176
 21
368.3928955900865
 31
0.0
  0
ARC
  5
62E3
330
1F
100
AcDbEntity
  8
0
  6
Continuous
 62
     0
370
    18
100
AcDbCircle
 10
827.5143796314173
 20
368.3928953662862
 30
0.0
 40
5.400000000000204
100
AcDbArc
 50
0.0
 51
180.0
  0
LINE
  5
62E4
330
1F
100
AcDbEntity
  8
0
  6
Continuous
 62
     0
370
    18
100
AcDbLine
 10
822.1143779580175
 20
368.3928955900865
 30
0.0
 11
822.1143779580175
 21
365.3928950980862
 31
0.0
  0
LINE
  5
62E5
330
1F
100
AcDbEntity
  8
0
  6
Continuous
 62
     0
370
    18
100
AcDbLine
 10
822.1143779580175
 20
365.3928950980862
 30
0.0
 11
812.5143853248173
 21
365.3928950980862
 31
0.0
  0
LINE
  5
62E6
330
1F
100
AcDbEntity
  8
0
  6
Continuous
 62
     0
370
    18
100
AcDbLine
 10
812.5143853248173
 20
365.3928950980862
 30
0.0
 11
812.5143853248173
 21
368.3928955900865
 31
0.0
  0
ARC
  5
62E7
330
1F
100
AcDbEntity
  8
0
  6
Continuous
 62
     0
370
    18
100
AcDbCircle
 10
807.1143796314177
 20
368.3928953662862
 30
0.0
 40
5.400000000000204
100
AcDbArc
 50
0.0
 51
180.0
  0
LINE
  5
62E8
330
1F
100
AcDbEntity
  8
0
  6
Continuous
 62
     0
370
    18
100
AcDbLine
 10
801.7143813192174
 20
368.3928955900865
 30
0.0
 11
801.7143813192174
 21
365.3928950980862
 31
0.0
  0
LINE
  5
62E9
330
1F
100
AcDbEntity
  8
0
  6
Continuous
 62
     0
370
    18
100
AcDbLine
 10
801.7143813192174
 20
365.3928950980862
 30
0.0
 11
792.1143797460172
 21
365.3928950980862
 31
0.0
  0
LINE
  5
62EA
330
1F
100
AcDbEntity
  8
0
  6
Continuous
 62
     0
370
    18
100
AcDbLine
 10
792.1143797460172
 20
365.3928950980862
 30
0.0
 11
792.1143797460172
 21
368.3928955900865
 31
0.0
  0
ARC
  5
62EB
330
1F
100
AcDbEntity
  8
0
  6
Continuous
 62
     0
370
    18
100
AcDbCircle
 10
786.7143796314176
 20
368.3928953662862
 30
0.0
 40
5.400000000000036
100
AcDbArc
 50
0.0
 51
180.0
  0
LINE
  5
62EC
330
1F
100
AcDbEntity
  8
0
  6
Continuous
 62
     0
370
    18
100
AcDbLine
 10
781.3143757404173
 20
368.3928955900865
 30
0.0
 11
781.3143757404173
 21
365.3928950980862
 31
0.0
  0
LINE
  5
62ED
330
1F
100
AcDbEntity
  8
0
  6
Continuous
 62
     0
370
    18
100
AcDbLine
 10
781.3143757404173
 20
365.3928950980862
 30
0.0
 11
771.7143741666173
 21
365.3928950980862
 31
0.0
  0
LINE
  5
62EE
330
1F
100
AcDbEntity
  8
0
  6
Continuous
 62
     0
370
    18
100
AcDbLine
 10
771.7143741666173
 20
365.3928950980862
 30
0.0
 11
771.7143741666173
 21
368.3928955900865
 31
0.0
  0
ARC
  5
62EF
330
1F
100
AcDbEntity
  8
0
  6
Continuous
 62
     0
370
    18
100
AcDbCircle
 10
766.3143796314175
 20
368.3928953662862
 30
0.0
 40
5.400000000000036
100
AcDbArc
 50
0.0
 51
180.0
  0
LINE
  5
62F0
330
1F
100
AcDbEntity
  8
0
  6
Continuous
 62
     0
370
    18
100
AcDbLine
 10
760.9143880428173
 20
368.3928955900865
 30
0.0
 11
760.9143880428173
 21
365.3928950980862
 31
0.0
  0
POINT
  5
62F1
330
1F
100
AcDbEntity
  8
0
 62
     0
370
    18
100
AcDbPoint
 10
1215.114379631418
 20
373.7928953662863
 30
0.0
  0
LINE
  5
62F2
330
1F
100
AcDbEntity
  8
寸法線
  6
Continuous
 62
     0
370
    18
100
AcDbLine
 10
1223.003298124817
 20
373.7928953662863
 30
0.0
 11
1298.952465015017
 21
373.7928953662863
 31
0.0
  0
LINE
  5
62F3
330
1F
100
AcDbEntity
  8
寸法線
  6
Continuous
 62
     0
370
    18
100
AcDbLine
 10
1226.514379631417
 20
362.9928953662866
 30
0.0
 11
1298.952465015017
 21
362.9928953662866
 31
0.0
  0
LINE
  5
62F4
330
1F
100
AcDbEntity
  8
0
  6
Continuous
 62
     0
370
    18
100
AcDbLine
 10
1226.514379631417
 20
362.9928953662866
 30
0.0
 11
1268.472820827018
 21
362.9928953662866
 31
0.0
  0
LINE
  5
62F8
330
1F
100
AcDbEntity
  8
0
  6
ByBlock
 62
     0
370
    18
100
AcDbLine
 10
710.5143753114176
 20
365.3928950980862
 30
0.0
 11
699.7143713058176
 21
365.3928950980862
 31
0.0
  0
LINE
  5
62F9
330
1F
100
AcDbEntity
  8
0
  6
ByBlock
 62
     0
370
    18
100
AcDbLine
 10
1220.514371734817
 20
534.1865476894864
 30
0.0
 11
699.7143713058176
 21
534.1865476894864
 31
0.0
  0
LINE
  5
62FA
330
1F
100
AcDbEntity
  8
0
  6
ByBlock
 62
     0
370
    18
100
AcDbLine
 10
1226.514379631417
 20
1022.586550836486
 30
0.0
 11
699.7143713058176
 21
1022.586550836486
 31
0.0
  0
LINE
  5
62FB
330
1F
100
AcDbEntity
  8
0
 62
     0
370
    18
100
AcDbLine
 10
1396.626149192417
 20
1020.186553983487
 30
0.0
 11
1396.617605310839
 21
1022.586553983486
 31
0.0
  0
DIMENSION
  5
62FC
330
1F
100
AcDbEntity
  8
寸法線
 62
     0
370
    18
100
AcDbDimension
  2
*D21
 10
1325.49811425185
 20
534.1865508364863
 30
0.0
 11
1314.49811425185
 21
778.3865524099863
 31
0.0
 70
    32
  1
{408}
 71
     5
 42
1465.200009441
  3
ISO-25
100
AcDbAlignedDimension
 13
1220.514371734817
 23
1022.586553983486
 33
0.0
 14
1226.514379631417
 24
534.1865508364863
 34
0.0
 50
90.0
100
AcDbRotatedDimension
1001
ACAD
1000
DSTYLE
1002
{
1070
   340
1005
414
1070
   343
1005
132
1070
   173
1070
     1
1070
   344
1005
132
1070
    47
1040
0.5
1070
    48
1040
0.5
1070
    72
1070
     0
1070
    71
1070
     1
1070
   144
1040
3.0
1070
    41
1040
20.0
1070
    42
1040
1.0
1070
    43
1040
2.0
1070
    44
1040
1.0
1070
    77
1070
     3
1070
    78
1070
     0
1070
   140
1040
18.0
1070
   143
1040
0.0393700787401575
1070
   147
1040
2.0
1070
   179
1070
     1
1070
   271
1070
     1
1070
   284
1070
     0
1002
}
  0
DIMENSION
  5
62FD
330
1F
100
AcDbEntity
  8
寸法線
 62
     0
370
    18
100
AcDbDimension
  2
*D22
 10
1220.514371734817
 20
474.1865508364863
 30
0.0
 11
960.1143715203175
 21
489.8740508364863
 31
0.0
 70
    32
  1
(451)
 71
     5
 42
520.8000004289997
  3
ISO-25
100
AcDbAlignedDimension
 13
699.7143713058176
 23
534.1865476894864
 33
0.0
 14
1220.514371734817
 24
534.1865476894864
 34
0.0
100
AcDbRotatedDimension
1001
ACAD
1000
DSTYLE
1002
{
1070
   340
1005
414
1070
   343
1005
132
1070
   173
1070
     1
1070
   344
1005
132
1070
    41
1040
20.0
1070
    42
1040
1.0
1070
    43
1040
2.0
1070
    44
1040
1.0
1070
    77
1070
     3
1070
    78
1070
     0
1070
   140
1040
18.0
1070
   143
1040
0.0393700787401575
1070
   147
1040
2.0
1070
   179
1070
     1
1070
   271
1070
     1
1070
   284
1070
     0
1002
}
  0
DIMENSION
  5
62FE
330
1F
100
AcDbEntity
  8
寸法線
 62
     0
370
    18
100
AcDbDimension
  2
*D23
 10
1298.952465015017
 20
362.9928958222863
 30
0.0
 11
1287.952465015017
 21
315.4616458222863
 31
0.0
 70
    32
  1
9
 71
     5
 42
10.79999954400046
  3
ISO-25
100
AcDbAlignedDimension
 13
1215.114379631418
 23
373.7928953662868
 33
0.0
 14
1220.514371734817
 24
362.9928958222863
 34
0.0
 50
90.0
100
AcDbRotatedDimension
1001
ACAD
1000
DSTYLE
1002
{
1070
   340
1005
140
1070
   343
1005
132
1070
   173
1070
     1
1070
   344
1005
132
1070
    41
1040
20.0
1070
    42
1040
1.0
1070
    43
1040
2.0
1070
    44
1040
1.0
1070
    77
1070
     3
1070
    78
1070
     0
1070
   140
1040
18.0
1070
   143
1040
0.0393700787401575
1070
   147
1040
2.0
1070
   179
1070
     1
1070
   271
1070
     1
1070
   284
1070
     0
1002
}
  0
DIMENSION
  5
6300
330
1F
100
AcDbEntity
  8
寸法線
 62
     0
370
    18
100
AcDbDimension
  2
*D24
 10
1278.434833118379
 20
534.1865476894864
 30
0.0
 11
1278.434833118379
 21
622.3770188729632
 31
0.0
 70
   160
  1
20
 71
     5
 42
23.99999499299975
  3
ISO-25
100
AcDbAlignedDimension
 13
1220.514371734817
 23
558.1865426824861
 33
0.0
 14
1220.514371734817
 24
534.1865476894864
 34
0.0
 50
90.0
100
AcDbRotatedDimension
1001
ACAD
1000
DSTYLE
1002
{
1070
   340
1005
140
1070
   343
1005
132
1070
   173
1070
     1
1070
   344
1005
132
1070
    41
1040
20.0
1070
    42
1040
1.0
1070
    43
1040
2.0
1070
    44
1040
1.0
1070
    77
1070
     3
1070
    78
1070
     0
1070
   140
1040
18.0
1070
   143
1040
0.0393700787401575
1070
   147
1040
2.0
1070
   179
1070
     1
1070
   271
1070
     1
1070
   284
1070
     0
1002
}
  0
CIRCLE
  5
6309
330
1F
100
AcDbEntity
  8
0
370
    15
100
AcDbCircle
 10
705.1397917478548
 20
368.3928355719127
 30
0.0
 40
2.0
  0
CIRCLE
  5
630A
330
1F
100
AcDbEntity
  8
0
370
    15
100
AcDbCircle
 10
725.5143796314173
 20
368.3928953662862
 30
0.0
 40
2.0
  0
CIRCLE
  5
630B
330
1F
100
AcDbEntity
  8
0
370
    15
100
AcDbCircle
 10
745.9143796314174
 20
368.3928953662862
 30
0.0
 40
2.0
  0
CIRCLE
  5
630C
330
1F
100
AcDbEntity
  8
0
370
    15
100
AcDbCircle
 10
766.3143796314175
 20
368.3928953662862
 30
0.0
 40
2.0
  0
CIRCLE
  5
630D
330
1F
100
AcDbEntity
  8
0
370
    15
100
AcDbCircle
 10
786.7143796314176
 20
368.3928953662862
 30
0.0
 40
2.0
  0
CIRCLE
  5
630E
330
1F
100
AcDbEntity
  8
0
370
    15
100
AcDbCircle
 10
807.1143796314177
 20
368.3928953662862
 30
0.0
 40
2.0
  0
CIRCLE
  5
630F
330
1F
100
AcDbEntity
  8
0
370
    15
100
AcDbCircle
 10
827.5143796314173
 20
368.3928953662862
 30
0.0
 40
2.0
  0
CIRCLE
  5
6310
330
1F
100
AcDbEntity
  8
0
370
    15
100
AcDbCircle
 10
847.9143796314174
 20
368.3928953662862
 30
0.0
 40
2.0
  0
CIRCLE
  5
6311
330
1F
100
AcDbEntity
  8
0
370
    15
100
AcDbCircle
 10
868.3143796314175
 20
368.3928953662862
 30
0.0
 40
2.0
  0
CIRCLE
  5
6312
330
1F
100
AcDbEntity
  8
0
370
    15
100
AcDbCircle
 10
888.7143796314172
 20
368.3928953662862
 30
0.0
 40
2.0
  0
CIRCLE
  5
6313
330
1F
100
AcDbEntity
  8
0
370
    15
100
AcDbCircle
 10
909.1143796314177
 20
368.3928953662862
 30
0.0
 40
2.0
  0
CIRCLE
  5
6314
330
1F
100
AcDbEntity
  8
0
370
    15
100
AcDbCircle
 10
929.5143796314173
 20
368.3928953662862
 30
0.0
 40
2.0
  0
CIRCLE
  5
6315
330
1F
100
AcDbEntity
  8
0
370
    15
100
AcDbCircle
 10
949.9143796314174
 20
368.3928953662862
 30
0.0
 40
2.0
  0
CIRCLE
  5
6316
330
1F
100
AcDbEntity
  8
0
370
    15
100
AcDbCircle
 10
970.3143796314175
 20
368.3928953662862
 30
0.0
 40
2.0
  0
CIRCLE
  5
6317
330
1F
100
AcDbEntity
  8
0
370
    15
100
AcDbCircle
 10
990.7143796314172
 20
368.3928953662862
 30
0.0
 40
2.0
  0
CIRCLE
  5
6318
330
1F
100
AcDbEntity
  8
0
370
    15
100
AcDbCircle
 10
1011.114379631418
 20
368.3928953662862
 30
0.0
 40
2.0
  0
CIRCLE
  5
6319
330
1F
100
AcDbEntity
  8
0
370
    15
100
AcDbCircle
 10
1031.514379631417
 20
368.3928953662862
 30
0.0
 40
2.0
  0
CIRCLE
  5
631A
330
1F
100
AcDbEntity
  8
0
370
    15
100
AcDbCircle
 10
1051.914379631417
 20
368.3928953662862
 30
0.0
 40
2.0
  0
CIRCLE
  5
631B
330
1F
100
AcDbEntity
  8
0
370
    15
100
AcDbCircle
 10
1072.314379631418
 20
368.3928953662862
 30
0.0
 40
2.0
  0
CIRCLE
  5
631C
330
1F
100
AcDbEntity
  8
0
370
    15
100
AcDbCircle
 10
1092.714379631417
 20
368.3928953662862
 30
0.0
 40
2.0
  0
CIRCLE
  5
631D
330
1F
100
AcDbEntity
  8
0
370
    15
100
AcDbCircle
 10
1113.114379631418
 20
368.3928953662862
 30
0.0
 40
2.0
  0
CIRCLE
  5
631E
330
1F
100
AcDbEntity
  8
0
370
    15
100
AcDbCircle
 10
1133.514379631417
 20
368.3928953662862
 30
0.0
 40
2.0
  0
CIRCLE
  5
631F
330
1F
100
AcDbEntity
  8
0
370
    15
100
AcDbCircle
 10
1153.914379631417
 20
368.3928953662862
 30
0.0
 40
2.0
  0
CIRCLE
  5
6320
330
1F
100
AcDbEntity
  8
0
370
    15
100
AcDbCircle
 10
1174.314379631418
 20
368.3928953662862
 30
0.0
 40
2.0
  0
CIRCLE
  5
6321
330
1F
100
AcDbEntity
  8
0
370
    15
100
AcDbCircle
 10
1194.714379631417
 20
368.3928953662867
 30
0.0
 40
2.0
  0
CIRCLE
  5
6322
330
1F
100
AcDbEntity
  8
0
370
    15
100
AcDbCircle
 10
1215.114379631418
 20
368.3928953662862
 30
0.0
 40
2.0
  0
LINE
  5
64DD
330
1F
100
AcDbEntity
  8
0
  6
CENTERX2
 48
10.0
100
AcDbLine
 10
960.1143796230176
 20
300.9443119600001
 30
0.0
 11
960.1143796230176
 21
1055.102835585707
 31
0.0
  0
VIEWPORT
  5
302
330
58
100
AcDbEntity
 67
     1
  8
0
100
AcDbViewport
 10
9.13098982590112
 20
3.587778208449254
 30
0.0
 40
20.43041096756502
 41
10.20759922504552
 68
     1
 69
     1
 12
9.13098982590112
 22
3.587778208449254
 13
0.0
 23
0.0
 14
0.5
 24
0.5
 15
0.0
 25
0.0
 16
0.0
 26
0.0
 36
1.0
 17
0.0
 27
0.0
 37
0.0
 42
50.0
 43
0.0
 44
0.0
 45
10.20759922504552
 50
0.0
 51
0.0
 72
   100
 90
   557152
  1

281
     0
 71
     1
 74
     0
110
0.0
120
0.0
130
0.0
111
1.0
121
0.0
131
0.0
112
0.0
122
1.0
132
0.0
 79
     0
146
0.0
170
     0
  0
VIEWPORT
  5
303
330
58
100
AcDbEntity
 67
     1
  8
0
100
AcDbViewport
 10
5.25
 20
3.5
 30
0.0
 40
8.4
 41
5.600000000000001
 68
     2
 69
     2
 12
964.4037529726501
 22
674.8085805103583
 13
0.0
 23
0.0
 14
0.5
 24
0.5
 15
0.0
 25
0.0
 16
0.0
 26
0.0
 36
1.0
 17
0.0
 27
0.0
 37
0.0
 42
50.0
 43
0.0
 44
0.0
 45
1119.999994361461
 50
0.0
 51
0.0
 72
   100
 90
   557152
  1

281
     0
 71
     1
 74
     0
110
0.0
120
0.0
130
0.0
111
1.0
121
0.0
131
0.0
112
0.0
122
1.0
132
0.0
 79
     0
146
0.0
170
     0
  0
ENDSEC
  0
SECTION
  2
OBJECTS
  0
DICTIONARY
  5
C
330
0
100
AcDbDictionary
281
     1
  3
ACAD_CIP_PREVIOUS_PRODUCT_INFO
350
503
  3
ACAD_COLOR
350
73
  3
ACAD_DETAILVIEWSTYLE
350
122
  3
ACAD_GROUP
350
D
  3
ACAD_IMAGE_VARS
350
DC
  3
ACAD_LAYOUT
350
1A
  3
ACAD_MATERIAL
350
72
  3
ACAD_MLEADERSTYLE
350
B5
  3
ACAD_MLINESTYLE
350
17
  3
ACAD_PLOTSETTINGS
350
19
  3
ACAD_PLOTSTYLENAME
350
E
  3
ACAD_SCALELIST
350
B6
  3
ACAD_SECTIONVIEWSTYLE
350
123
  3
ACAD_TABLESTYLE
350
86
  3
ACDB_RECOMPOSE_DATA
350
661D
  3
AcDbVariableDictionary
350
66
  3
AcDsDecomposeData
350
661E
  3
APPDATA
350
E1
  0
DICTIONARY
  5
22F
330
2
100
AcDbDictionary
280
     1
281
     1
  3
ACAD_LAYERSTATES
360
230
  0
DICTIONARY
  5
40B
330
40A
100
AcDbDictionary
280
     1
281
     1
  3
ADSK_XREC_LAYER_RECONCILED
360
40C
  0
DICTIONARY
  5
2D9D
330
2D9C
100
AcDbDictionary
280
     1
281
     1
  3
ADSK_XREC_LAYER_RECONCILED
360
2D9E
  0
DICTIONARY
  5
49A5
330
49A4
100
AcDbDictionary
280
     1
281
     1
  3
ADSK_XREC_LAYER_RECONCILED
360
49A6
  0
DICTIONARY
  5
700
330
1F
100
AcDbDictionary
280
     1
281
     1
  3
ACAD_SORTENTS
360
701
  0
XRECORD
  5
503
102
{ACAD_REACTORS
330
C
102
}
330
C
100
AcDbXrecord
280
     1
300
ACDLT
300
2015
300
ACDLT_F_S
  0
DICTIONARY
  5
73
102
{ACAD_REACTORS
330
C
102
}
330
C
100
AcDbDictionary
281
     1
  0
DICTIONARY
  5
122
102
{ACAD_REACTORS
330
C
102
}
330
C
100
AcDbDictionary
281
     1
  3
Imperial24
350
4F9
  0
DICTIONARY
  5
D
102
{ACAD_REACTORS
330
C
102
}
330
C
100
AcDbDictionary
281
     1
  0
RASTERVARIABLES
  5
DC
102
{ACAD_REACTORS
330
C
102
}
330
C
100
AcDbRasterVariables
 90
        0
 70
     1
 71
     1
 72
     5
  0
DICTIONARY
  5
1A
102
{ACAD_REACTORS
330
C
102
}
330
C
100
AcDbDictionary
281
     1
  3
Model
350
22
  3
Sheet1
350
59
  3
Sheet2
350
5E
  0
DICTIONARY
  5
72
102
{ACAD_REACTORS
330
C
102
}
330
C
100
AcDbDictionary
281
     1
  3
ByBlock
350
E2
  3
ByLayer
350
96
  3
Global
350
98
  0
DICTIONARY
  5
B5
102
{ACAD_REACTORS
330
C
102
}
330
C
100
AcDbDictionary
281
     1
  3
Standard
350
124
  0
DICTIONARY
  5
17
102
{ACAD_REACTORS
330
C
102
}
330
C
100
AcDbDictionary
281
     1
  3
Standard
350
18
  0
DICTIONARY
  5
19
102
{ACAD_REACTORS
330
C
102
}
330
C
100
AcDbDictionary
281
     1
  0
ACDBDICTIONARYWDFLT
  5
E
102
{ACAD_REACTORS
330
C
102
}
330
C
100
AcDbDictionary
281
     1
  3
Normal
350
F
100
AcDbDictionaryWithDefault
340
F
  0
DICTIONARY
  5
B6
102
{ACAD_REACTORS
330
C
102
}
330
C
100
AcDbDictionary
281
     1
  3
A0
350
B7
  3
A1
350
B8
  3
A2
350
B9
  3
A3
350
BA
  3
A4
350
BB
  3
A5
350
BC
  3
A6
350
BD
  3
A7
350
BE
  3
A8
350
BF
  3
A9
350
C0
  3
B0
350
C1
  3
B1
350
C2
  3
B2
350
C3
  3
B3
350
C4
  3
B4
350
C5
  3
B5
350
C6
  3
B6
350
C7
  3
B7
350
C8
  3
B8
350
C9
  3
B9
350
CA
  3
C0
350
CB
  3
C1
350
CC
  3
C2
350
CD
  3
C3
350
CE
  3
C4
350
CF
  3
C5
350
D0
  3
C6
350
D1
  3
C7
350
D2
  3
C8
350
D3
  3
C9
350
D4
  3
D0
350
D5
  3
D1
350
D6
  3
D2
350
D7
  0
DICTIONARY
  5
123
102
{ACAD_REACTORS
330
C
102
}
330
C
100
AcDbDictionary
281
     1
  3
Imperial24
350
4F8
  0
DICTIONARY
  5
86
102
{ACAD_REACTORS
330
C
102
}
330
C
100
AcDbDictionary
281
     1
  3
Standard
350
87
  0
XRECORD
  5
661D
102
{ACAD_REACTORS
330
C
102
}
330
C
100
AcDbXrecord
280
     1
 90
        1
330
87
  0
DICTIONARY
  5
66
102
{ACAD_REACTORS
330
C
102
}
330
C
100
AcDbDictionary
281
     1
  3
CANNOSCALE
350
D8
  3
CMLEADERSTYLE
350
31A
  3
CTABLESTYLE
350
89
  3
CVIEWDETAILSTYLE
350
57C
  3
CVIEWSECTIONSTYLE
350
57D
  3
DGNFRAME
350
6462
  3
DIMASSOC
350
67
  3
HIDETEXT
350
6B
  3
LAYEREVAL
350
580
  3
LAYERNOTIFY
350
581
  3
LIGHTINGUNITS
350
57F
  3
LIGHTSINBLOCKS
350
DF
  3
MSLTSCALE
350
57E
  3
SOLIDHIST
350
582
  3
XCLIPFRAME
350
65FB
  0
DICTIONARY
  5
661E
102
{ACAD_REACTORS
330
C
102
}
330
C
100
AcDbDictionary
281
     1
  3
AcDsRecords
350
661F
  3
AcDsSchemas
350
6620
1001
ACAD
1070
     2
  0
DICTIONARY
  5
E1
102
{ACAD_REACTORS
330
C
102
}
330
C
100
AcDbDictionary
281
     1
  0
DICTIONARY
  5
230
102
{ACAD_REACTORS
330
22F
102
}
330
22F
100
AcDbDictionary
281
     1
  0
XRECORD
  5
40C
102
{ACAD_REACTORS
330
40B
102
}
330
40B
100
AcDbXrecord
280
     1
290
     1
  0
XRECORD
  5
2D9E
102
{ACAD_REACTORS
330
2D9D
102
}
330
2D9D
100
AcDbXrecord
280
     1
290
     1
  0
XRECORD
  5
49A6
102
{ACAD_REACTORS
330
49A5
102
}
330
49A5
100
AcDbXrecord
280
     1
290
     1
  0
SORTENTSTABLE
  5
701
102
{ACAD_REACTORS
330
700
102
}
330
700
100
AcDbSortentsTable
330
1F
331
2BC
  5
2BE
331
319
  5
31D
331
4F3
  5
4F5
331
4F6
  5
686
  0
ACDBDETAILVIEWSTYLE
  5
4F9
102
{ACAD_REACTORS
330
122
102
}
102
{ACAD_XDICTIONARY
360
65BA
102
}
330
122
100
AcDbModelDocViewStyle
 70
     0
  3
Imperial24
290
     0
100
AcDbDetailViewStyle
 70
     0
 71
     0
 90
        3
 71
     1
340
11
 62
   256
 40
0.24
340
0
 62
   256
 40
0.24
300

 40
0.36
280
     3
 71
     2
340
16
 90
       25
 62
   256
 71
     3
340
11
 62
   256
 40
0.24
 90
        1
 40
0.75
 90
        1
300
%<\AcVar ViewType \f "%tc1">% %<\AcVar ViewDetailId>%\PSCALE %<\AcVar ViewScale \f "%sn">%
 71
     4
340
16
 90
       25
 62
   256
340
16
 90
       25
 62
   256
280
     0
  0
LAYOUT
  5
22
102
{ACAD_REACTORS
330
1A
102
}
102
{ACAD_XDICTIONARY
360
6618
102
}
330
1A
100
AcDbPlotSettings
  1

  2
none_device
  4
ANSI_A_(8.50_x_11.00_Inches)
  6

 40
6.35
 41
19.05
 42
6.35
 43
19.05
 44
215.9
 45
279.4
 46
11.11250000000003
 47
0.0000000000000142
 48
0.0
 49
0.0
140
0.0
141
0.0
142
1.0
143
1.263157894736842
 70
 11444
 72
     0
 73
     1
 74
     1
  7
monochrome.ctb
 75
     0
 76
     0
 77
     2
 78
   300
147
0.7916666666666665
148
-702.8076765758875
149
-496.2830551296954
100
AcDbLayout
  1
Model
 70
     1
 71
     0
 10
0.0
 20
0.0
 11
12.0
 21
9.0
 12
0.0
 22
0.0
 32
0.0
 14
1.000000000000000E+20
 24
1.000000000000000E+20
 34
1.000000000000000E+20
 15
-1.000000000000000E+20
 25
-1.000000000000000E+20
 35
-1.000000000000000E+20
146
0.0
 13
0.0
 23
0.0
 33
0.0
 16
1.0
 26
0.0
 36
0.0
 17
0.0
 27
1.0
 37
0.0
 76
     0
330
1F
331
94
  0
LAYOUT
  5
59
102
{ACAD_REACTORS
330
1A
102
}
330
1A
100
AcDbPlotSettings
  1

  2
none_device
  4
ANSI_A_(11.00_x_8.50_Inches)
  6

 40
6.35
 41
19.05
 42
6.35
 43
19.05
 44
279.4
 45
215.9
 46
0.0
 47
0.0
 48
0.0
 49
0.0
140
0.0
141
0.0
142
1.0
143
1.0
 70
   688
 72
     0
 73
     0
 74
     5
  7

 75
    16
 76
     0
 77
     2
 78
   300
147
1.0
148
0.0
149
0.0
100
AcDbLayout
  1
Sheet1
 70
     1
 71
     1
 10
0.0
 20
0.0
 11
10.75
 21
7.75
 12
0.0
 22
0.0
 32
0.0
 14
1.05
 24
0.6999999999999997
 34
0.0
 15
9.45
 25
6.300000000000001
 35
0.0
146
0.0
 13
0.0
 23
0.0
 33
0.0
 16
1.0
 26
0.0
 36
0.0
 17
0.0
 27
1.0
 37
0.0
 76
     0
330
58
331
302
  0
LAYOUT
  5
5E
102
{ACAD_REACTORS
330
1A
102
}
330
1A
100
AcDbPlotSettings
  1

  2
none_device
  4
ANSI_A_(11.00_x_8.50_Inches)
  6

 40
6.35
 41
19.05
 42
6.35
 43
19.05
 44
279.4
 45
215.9
 46
0.0
 47
0.0
 48
0.0
 49
0.0
140
0.0
141
0.0
142
1.0
143
1.0
 70
   688
 72
     0
 73
     0
 74
     5
  7

 75
    16
 76
     0
 77
     2
 78
   300
147
1.0
148
0.0
149
0.0
100
AcDbLayout
  1
Sheet2
 70
     1
 71
     2
 10
0.0
 20
0.0
 11
10.75
 21
7.75
 12
0.0
 22
0.0
 32
0.0
 14
1.05
 24
0.6999999999999997
 34
0.0
 15
9.45
 25
6.300000000000001
 35
0.0
146
0.0
 13
0.0
 23
0.0
 33
0.0
 16
1.0
 26
0.0
 36
0.0
 17
0.0
 27
1.0
 37
0.0
 76
     0
330
5D
331
316
  0
MATERIAL
  5
E2
102
{ACAD_REACTORS
330
72
102
}
330
72
100
AcDbMaterial
  1
ByBlock
  0
MATERIAL
  5
96
102
{ACAD_REACTORS
330
72
102
}
330
72
100
AcDbMaterial
  1
ByLayer
  0
MATERIAL
  5
98
102
{ACAD_REACTORS
330
72
102
}
102
{ACAD_XDICTIONARY
360
514
102
}
330
72
100
AcDbMaterial
  1
Global
  0
MLEADERSTYLE
  5
124
102
{ACAD_REACTORS
330
B5
102
}
330
B5
100
AcDbMLeaderStyle
170
     2
171
     1
172
     0
 90
        2
 40
0.0
 41
0.0
173
     1
 91
-1056964608
340
14
 92
       -2
290
     1
 42
0.09
291
     1
 43
0.36
  3
Standard
341
0
 44
0.18
300

342
11
174
     1
178
     6
175
     1
176
     0
 93
-1056964608
 45
0.18
292
     0
297
     0
 46
0.18
343
0
 94
-1056964608
 47
1.0
 49
1.0
140
1.0
293
     1
141
0.0
294
     1
177
     0
142
1.0
295
     0
296
     0
143
0.125
1001
ACAD_MLEADERVER
1070
     2
  0
MLINESTYLE
  5
18
102
{ACAD_REACTORS
330
17
102
}
330
17
100
AcDbMlineStyle
  2
STANDARD
 70
     0
  3

 62
   256
 51
90.0
 52
90.0
 71
     2
 49
0.5
 62
   256
  6
BYLAYER
 49
-0.5
 62
   256
  6
BYLAYER
  0
ACDBPLACEHOLDER
  5
F
102
{ACAD_REACTORS
330
E
102
}
330
E
  0
SCALE
  5
B7
102
{ACAD_REACTORS
330
B6
102
}
330
B6
100
AcDbScale
 70
     0
300
1:1
140
1.0
141
1.0
290
     1
  0
SCALE
  5
B8
102
{ACAD_REACTORS
330
B6
102
}
330
B6
100
AcDbScale
 70
     0
300
1:2
140
1.0
141
2.0
290
     0
  0
SCALE
  5
B9
102
{ACAD_REACTORS
330
B6
102
}
330
B6
100
AcDbScale
 70
     0
300
1:4
140
1.0
141
4.0
290
     0
  0
SCALE
  5
BA
102
{ACAD_REACTORS
330
B6
102
}
330
B6
100
AcDbScale
 70
     0
300
1:5
140
1.0
141
5.0
290
     0
  0
SCALE
  5
BB
102
{ACAD_REACTORS
330
B6
102
}
330
B6
100
AcDbScale
 70
     0
300
1:8
140
1.0
141
8.0
290
     0
  0
SCALE
  5
BC
102
{ACAD_REACTORS
330
B6
102
}
330
B6
100
AcDbScale
 70
     0
300
1:10
140
1.0
141
10.0
290
     0
  0
SCALE
  5
BD
102
{ACAD_REACTORS
330
B6
102
}
330
B6
100
AcDbScale
 70
     0
300
1:16
140
1.0
141
16.0
290
     0
  0
SCALE
  5
BE
102
{ACAD_REACTORS
330
B6
102
}
330
B6
100
AcDbScale
 70
     0
300
1:20
140
1.0
141
20.0
290
     0
  0
SCALE
  5
BF
102
{ACAD_REACTORS
330
B6
102
}
330
B6
100
AcDbScale
 70
     0
300
1:30
140
1.0
141
30.0
290
     0
  0
SCALE
  5
C0
102
{ACAD_REACTORS
330
B6
102
}
330
B6
100
AcDbScale
 70
     0
300
1:40
140
1.0
141
40.0
290
     0
  0
SCALE
  5
C1
102
{ACAD_REACTORS
330
B6
102
}
330
B6
100
AcDbScale
 70
     0
300
1:50
140
1.0
141
50.0
290
     0
  0
SCALE
  5
C2
102
{ACAD_REACTORS
330
B6
102
}
330
B6
100
AcDbScale
 70
     0
300
1:100
140
1.0
141
100.0
290
     0
  0
SCALE
  5
C3
102
{ACAD_REACTORS
330
B6
102
}
330
B6
100
AcDbScale
 70
     0
300
2:1
140
2.0
141
1.0
290
     0
  0
SCALE
  5
C4
102
{ACAD_REACTORS
330
B6
102
}
330
B6
100
AcDbScale
 70
     0
300
4:1
140
4.0
141
1.0
290
     0
  0
SCALE
  5
C5
102
{ACAD_REACTORS
330
B6
102
}
330
B6
100
AcDbScale
 70
     0
300
8:1
140
8.0
141
1.0
290
     0
  0
SCALE
  5
C6
102
{ACAD_REACTORS
330
B6
102
}
330
B6
100
AcDbScale
 70
     0
300
10:1
140
10.0
141
1.0
290
     0
  0
SCALE
  5
C7
102
{ACAD_REACTORS
330
B6
102
}
330
B6
100
AcDbScale
 70
     0
300
100:1
140
100.0
141
1.0
290
     0
  0
SCALE
  5
C8
102
{ACAD_REACTORS
330
B6
102
}
330
B6
100
AcDbScale
 70
     0
300
1/128" = 1'-0"
140
0.0078125
141
12.0
290
     0
  0
SCALE
  5
C9
102
{ACAD_REACTORS
330
B6
102
}
330
B6
100
AcDbScale
 70
     0
300
1/64" = 1'-0"
140
0.015625
141
12.0
290
     0
  0
SCALE
  5
CA
102
{ACAD_REACTORS
330
B6
102
}
330
B6
100
AcDbScale
 70
     0
300
1/32" = 1'-0"
140
0.03125
141
12.0
290
     0
  0
SCALE
  5
CB
102
{ACAD_REACTORS
330
B6
102
}
330
B6
100
AcDbScale
 70
     0
300
1/16" = 1'-0"
140
0.0625
141
12.0
290
     0
  0
SCALE
  5
CC
102
{ACAD_REACTORS
330
B6
102
}
330
B6
100
AcDbScale
 70
     0
300
3/32" = 1'-0"
140
0.09375
141
12.0
290
     0
  0
SCALE
  5
CD
102
{ACAD_REACTORS
330
B6
102
}
330
B6
100
AcDbScale
 70
     0
300
1/8" = 1'-0"
140
0.125
141
12.0
290
     0
  0
SCALE
  5
CE
102
{ACAD_REACTORS
330
B6
102
}
330
B6
100
AcDbScale
 70
     0
300
3/16" = 1'-0"
140
0.1875
141
12.0
290
     0
  0
SCALE
  5
CF
102
{ACAD_REACTORS
330
B6
102
}
330
B6
100
AcDbScale
 70
     0
300
1/4" = 1'-0"
140
0.25
141
12.0
290
     0
  0
SCALE
  5
D0
102
{ACAD_REACTORS
330
B6
102
}
330
B6
100
AcDbScale
 70
     0
300
3/8" = 1'-0"
140
0.375
141
12.0
290
     0
  0
SCALE
  5
D1
102
{ACAD_REACTORS
330
B6
102
}
330
B6
100
AcDbScale
 70
     0
300
1/2" = 1'-0"
140
0.5
141
12.0
290
     0
  0
SCALE
  5
D2
102
{ACAD_REACTORS
330
B6
102
}
330
B6
100
AcDbScale
 70
     0
300
3/4" = 1'-0"
140
0.75
141
12.0
290
     0
  0
SCALE
  5
D3
102
{ACAD_REACTORS
330
B6
102
}
330
B6
100
AcDbScale
 70
     0
300
1" = 1'-0"
140
1.0
141
12.0
290
     0
  0
SCALE
  5
D4
102
{ACAD_REACTORS
330
B6
102
}
330
B6
100
AcDbScale
 70
     0
300
1-1/2" = 1'-0"
140
1.5
141
12.0
290
     0
  0
SCALE
  5
D5
102
{ACAD_REACTORS
330
B6
102
}
330
B6
100
AcDbScale
 70
     0
300
3" = 1'-0"
140
3.0
141
12.0
290
     0
  0
SCALE
  5
D6
102
{ACAD_REACTORS
330
B6
102
}
330
B6
100
AcDbScale
 70
     0
300
6" = 1'-0"
140
6.0
141
12.0
290
     0
  0
SCALE
  5
D7
102
{ACAD_REACTORS
330
B6
102
}
330
B6
100
AcDbScale
 70
     0
300
1'-0" = 1'-0"
140
12.0
141
12.0
290
     0
  0
ACDBSECTIONVIEWSTYLE
  5
4F8
102
{ACAD_REACTORS
330
123
102
}
102
{ACAD_XDICTIONARY
360
65B8
102
}
330
123
100
AcDbModelDocViewStyle
 70
     0
  3
Imperial24
290
     0
100
AcDbSectionViewStyle
 70
     0
 71
     0
 90
       78
 71
     1
340
11
 62
   256
 40
0.24
340
0
340
0
 62
   256
 40
0.24
300
I, O, Q, S, X, Z
 40
0.48
 90
        3
 40
0.18
 90
        1
 71
     2
340
16
 90
       25
 62
   256
340
16
 90
       50
 62
   256
 40
0.24
 40
0.0
 40
0.24
 71
     3
340
11
 62
   256
 40
0.24
 90
        1
 40
0.75
 90
        1
300
%<\AcVar ViewType \f "%tc1">% %<\AcVar ViewSectionStartId>%-%<\AcVar ViewSectionEndId>%\PSCALE %<\AcVar ViewScale \f "%sn">%
 71
     4
 62
   256
 62
   257
300
ANSI31
 40
1.0
 90
        0
290
     0
290
     0
 90
        6
 40
0.0
 40
1.570796326794897
 40
0.2617993877991494
 40
1.308996938995747
 40
-0.2617993877991494
 40
1.832595714594046
  0
TABLESTYLE
  5
87
102
{ACAD_REACTORS
330
86
102
}
102
{ACAD_XDICTIONARY
360
661A
102
}
330
86
100
AcDbTableStyle
  3
Standard
 70
     0
 71
     0
 40
0.06
 41
0.06
280
     0
281
     0
  7
Standard
140
0.18
170
     2
 62
     0
 63
   257
283
     0
274
    -2
284
     1
 64
     0
275
    -2
285
     1
 65
     0
276
    -2
286
     1
 66
     0
277
    -2
287
     1
 67
     0
278
    -2
288
     1
 68
     0
279
    -2
289
     1
 69
     0
  7
Standard
140
0.25
170
     5
 62
     0
 63
   257
283
     0
274
    -2
284
     1
 64
     0
275
    -2
285
     1
 65
     0
276
    -2
286
     1
 66
     0
277
    -2
287
     1
 67
     0
278
    -2
288
     1
 68
     0
279
    -2
289
     1
 69
     0
  7
Standard
140
0.18
170
     5
 62
     0
 63
   257
283
     0
274
    -2
284
     1
 64
     0
275
    -2
285
     1
 65
     0
276
    -2
286
     1
 66
     0
277
    -2
287
     1
 67
     0
278
    -2
288
     1
 68
     0
279
    -2
289
     1
 69
     0
  0
DICTIONARYVAR
  5
D8
102
{ACAD_REACTORS
330
66
102
}
330
66
100
DictionaryVariables
280
     0
  1
1:1
  0
DICTIONARYVAR
  5
31A
102
{ACAD_REACTORS
330
66
102
}
330
66
100
DictionaryVariables
280
     0
  1
Standard
  0
DICTIONARYVAR
  5
89
102
{ACAD_REACTORS
330
66
102
}
330
66
100
DictionaryVariables
280
     0
  1
Standard
  0
DICTIONARYVAR
  5
57C
102
{ACAD_REACTORS
330
66
102
}
330
66
100
DictionaryVariables
280
     0
  1
Imperial24
  0
DICTIONARYVAR
  5
57D
102
{ACAD_REACTORS
330
66
102
}
330
66
100
DictionaryVariables
280
     0
  1
Imperial24
  0
DICTIONARYVAR
  5
6462
102
{ACAD_REACTORS
330
66
102
}
330
66
100
DictionaryVariables
280
     0
  1
2
  0
DICTIONARYVAR
  5
67
102
{ACAD_REACTORS
330
66
102
}
330
66
100
DictionaryVariables
280
     0
  1
2
  0
DICTIONARYVAR
  5
6B
102
{ACAD_REACTORS
330
66
102
}
330
66
100
DictionaryVariables
280
     0
  1
1
  0
DICTIONARYVAR
  5
580
102
{ACAD_REACTORS
330
66
102
}
330
66
100
DictionaryVariables
280
     0
  1
0
  0
DICTIONARYVAR
  5
581
102
{ACAD_REACTORS
330
66
102
}
330
66
100
DictionaryVariables
280
     0
  1
0
  0
DICTIONARYVAR
  5
57F
102
{ACAD_REACTORS
330
66
102
}
330
66
100
DictionaryVariables
280
     0
  1
2
  0
DICTIONARYVAR
  5
DF
102
{ACAD_REACTORS
330
66
102
}
330
66
100
DictionaryVariables
280
     0
  1
0
  0
DICTIONARYVAR
  5
57E
102
{ACAD_REACTORS
330
66
102
}
330
66
100
DictionaryVariables
280
     0
  1
1
  0
DICTIONARYVAR
  5
582
102
{ACAD_REACTORS
330
66
102
}
330
66
100
DictionaryVariables
280
     0
  1
0
  0
DICTIONARYVAR
  5
65FB
102
{ACAD_REACTORS
330
66
102
}
330
66
100
DictionaryVariables
280
     0
  1
0
  0
DICTIONARY
  5
661F
102
{ACAD_REACTORS
330
661E
102
}
330
661E
100
AcDbDictionary
281
     1
  0
DICTIONARY
  5
6620
102
{ACAD_REACTORS
330
661E
102
}
330
661E
100
AcDbDictionary
281
     1
  3
8796077534768
350
6621
  3
8796077534784
350
6622
  3
8796077534800
350
6623
  3
8796077534816
350
6624
  3
8796077534832
350
6625
  3
8796077534848
350
6626
  0
DICTIONARY
  5
65BA
330
4F9
100
AcDbDictionary
280
     1
281
     1
  3
ACAD_XREC_ROUNDTRIP
360
65BB
  0
DICTIONARY
  5
6618
330
22
100
AcDbDictionary
280
     1
281
     1
  3
ADSK_XREC_LAYOUTTHUMBNAIL
360
6619
  0
DICTIONARY
  5
514
330
98
100
AcDbDictionary
280
     1
281
     1
  3
FBXASSET
360
515
  0
DICTIONARY
  5
65B8
330
4F8
100
AcDbDictionary
280
     1
281
     1
  3
ACAD_XREC_ROUNDTRIP
360
65B9
  0
DICTIONARY
  5
661A
330
87
100
AcDbDictionary
280
     1
281
     1
  3
ACAD_ROUNDTRIP_2008_TABLESTYLE_CELLSTYLEMAP
360
661C
  3
ACAD_XREC_ROUNDTRIP
360
661B
  0
XRECORD
  5
6621
102
{ACAD_REACTORS
330
6620
102
}
330
6620
100
AcDbXrecord
280
     1
  1
AcDb_Thumbnail_Schema
102
{ATTRRECORD
341
6623
  2
AcDbDs::TreatedAsObjectData
280
     1
291
     1
102
ATTRRECORD}
102
{ATTRRECORD
341
6624
  2
AcDbDs::Legacy
280
     1
291
     1
102
ATTRRECORD}
  2
AcDbDs::ID
280
    10
 91
        8
102
{ATTRRECORD
341
6625
  2
AcDs:Indexable
280
     1
291
     1
102
ATTRRECORD}
102
{ATTRRECORD
341
6626
  2
AcDbDs::HandleAttribute
280
     7
282
     1
102
ATTRRECORD}
  2
Thumbnail_Data
280
    15
 91
        0
  0
XRECORD
  5
6622
102
{ACAD_REACTORS
330
6620
102
}
330
6620
100
AcDbXrecord
280
     1
  1
AcDb3DSolid_ASM_Data
102
{ATTRRECORD
341
6623
  2
AcDbDs::TreatedAsObjectData
280
     1
291
     1
102
ATTRRECORD}
102
{ATTRRECORD
341
6624
  2
AcDbDs::Legacy
280
     1
291
     1
102
ATTRRECORD}
  2
AcDbDs::ID
280
    10
 91
        8
102
{ATTRRECORD
341
6625
  2
AcDs:Indexable
280
     1
291
     1
102
ATTRRECORD}
102
{ATTRRECORD
341
6626
  2
AcDbDs::HandleAttribute
280
     7
282
     1
102
ATTRRECORD}
  2
ASM_Data
280
    15
 91
        0
  0
XRECORD
  5
6623
102
{ACAD_REACTORS
330
6620
102
}
330
6620
100
AcDbXrecord
280
     1
  1
AcDbDs::TreatedAsObjectDataSchema
  2
AcDbDs::TreatedAsObjectData
280
     1
 91
        0
  0
XRECORD
  5
6624
102
{ACAD_REACTORS
330
6620
102
}
330
6620
100
AcDbXrecord
280
     1
  1
AcDbDs::LegacySchema
  2
AcDbDs::Legacy
280
     1
 91
        0
  0
XRECORD
  5
6625
102
{ACAD_REACTORS
330
6620
102
}
330
6620
100
AcDbXrecord
280
     1
  1
AcDbDs::IndexedPropertySchema
  2
AcDs:Indexable
280
     1
 91
        0
  0
XRECORD
  5
6626
102
{ACAD_REACTORS
330
6620
102
}
330
6620
100
AcDbXrecord
280
     1
  1
AcDbDs::HandleAttributeSchema
  2
AcDbDs::HandleAttribute
280
     7
 91
        1
284
     1
  0
XRECORD
  5
65BB
102
{ACAD_REACTORS
330
65BA
102
}
330
65BA
100
AcDbXrecord
280
     1
102
DISPLAYNAME
  1
Imperial24
102
FLAGS
 90
        0
  0
XRECORD
  5
6619
102
{ACAD_REACTORS
330
6618
102
}
330
6618
100
AcDbXrecord
280
     1
310
28000000000100007E0000000100080000000000007E00000100000001000000000100000000000030282100000000C8C8C8C8FF000000FF000000FF000000FF000000FF000000FF000000FF000000FF000000FF330000FF660000FF990000FFCC0000FFFF0000FF003300FF333300FF663300FF993300FFCC3300FFFF3300
310
FF006600FF336600FF666600FF996600FFCC6600FFFF6600FF009900FF339900FF669900FF999900FFCC9900FFFF9900FF00CC00FF33CC00FF66CC00FF99CC00FFCCCC00FFFFCC00FF00FF00FF33FF00FF66FF00FF99FF00FFCCFF00FFFFFF00FF000033FF330033FF660033FF990033FFCC0033FFFF0033FF003333FF3333
310
33FF663333FF993333FFCC3333FFFF3333FF006633FF336633FF666633FF996633FFCC6633FFFF6633FF009933FF339933FF669933FF999933FFCC9933FFFF9933FF00CC33FF33CC33FF66CC33FF99CC33FFCCCC33FFFFCC33FF00FF33FF33FF33FF66FF33FF99FF33FFCCFF33FFFFFF33FF000066FF330066FF660066FF99
310
0066FFCC0066FFFF0066FF003366FF333366FF663366FF993366FFCC3366FFFF3366FF006666FF336666FF666666FF996666FFCC6666FFFF6666FF009966FF339966FF669966FF999966FFCC9966FFFF9966FF00CC66FF33CC66FF66CC66FF99CC66FFCCCC66FFFFCC66FF00FF66FF33FF66FF66FF66FF99FF66FFCCFF66FF
310
FFFF66FF000099FF330099FF660099FF990099FFCC0099FFFF0099FF003399FF333399FF663399FF993399FFCC3399FFFF3399FF006699FF336699FF666699FF996699FFCC6699FFFF6699FF009999FF339999FF669999FF999999FFCC9999FFFF9999FF00CC99FF33CC99FF66CC99FF99CC99FFCCCC99FFFFCC99FF00FF99
310
FF33FF99FF66FF99FF99FF99FFCCFF99FFFFFF99FF0000CCFF3300CCFF6600CCFF9900CCFFCC00CCFFFF00CCFF0033CCFF3333CCFF6633CCFF9933CCFFCC33CCFFFF33CCFF0066CCFF3366CCFF6666CCFF9966CCFFCC66CCFFFF66CCFF0099CCFF3399CCFF6699CCFF9999CCFFCC99CCFFFF99CCFF00CCCCFF33CCCCFF66CC
310
CCFF99CCCCFFCCCCCCFFFFCCCCFF00FFCCFF33FFCCFF66FFCCFF99FFCCFFCCFFCCFFFFFFCCFF0000FFFF3300FFFF6600FFFF9900FFFFCC00FFFFFF00FFFF0033FFFF3333FFFF6633FFFF9933FFFFCC33FFFFFF33FFFF0066FFFF3366FFFF6666FFFF9966FFFFCC66FFFFFF66FFFF0099FFFF3399FFFF6699FFFF9999FFFFCC
310
99FFFFFF99FFFF00CCFFFF33CCFFFF66CCFFFF99CCFFFFCCCCFFFFFFCCFFFF00FFFFFF33FFFFFF66FFFFFF99FFFFFFCCFFFFFFFFFFFFFF000000FF0D0D0DFF1A1A1AFF282828FF353535FF434343FF505050FF5D5D5DFF6B6B6BFF787878FF868686FF939393FFA1A1A1FFAEAEAEFFBBBBBBFFC9C9C9FFD6D6D6FFE4E4E4FF
310
F1F1F1FFFFFFFFFF000000FF000000FF000000FF000000FF000000FF000000FF000000FF000000FF000000FF000000FF00000000000000000000000000000000000000000000000000000000000000000000000000000000000000000000000000000000000000000000000000000000000000000000000000000000000000
310
00000000000000000000000000000000000000000000000000000000000000000000000000000000000000000000000000000000000000000000000000000000000000000000000000000000000000000000000000000000000000000000000000000000000000000000000000000000000000000000000000000000000000
310
00000000000000000000000000000000000000000000000000000000000000000000000000000000000000000000000000000000000000000000000000000000000000000000000000000000000000000000000000000000000000000000000000000000000000000000000000000000000000000000000000000000000000
310
00000000000000000000000000000000000000000000000000000000000000000000000000000000000000000000000000000000000000000000000000000000000000000000000000000000000000000000000000000000000000000000000000000000000000000000000000000000000000000000000000000000000000
310
00000000000000000000000000000000000000000000000000000000000000000000000000000000000000000000000000000000000000000000000000000000000000000000000000000000000000000000000000000000000000000000000000000000000000000000000000000000000000000000000000000000000000
310
00000000000000000000000000000000000000000000000000000000000000000000000000000000000000000000000000000000000000000000000000000000000000000000000000000000000000000000000000000000000000000000000000000000000000000000000000000000000000000000000000000000000000
310
00000000000000000000000000000000000000000000000000000000000000000000000000000000000000000000000000000000000000000000000000000000000000000000000000000000000000000000000000000000000000000000000000000000000000000000000000000000000000000000000000000000000000
310
00000000000000000000000000000000000000000000000000000000000000000000000000000000000000000000000000000000000000000000000000000000000000000000000000000000000000000000000000000000000000000000000000000000000000000000000000000000000000000000000000000000000000
310
00000000000000000000000000000000000000000000000000000000000000000000000000000000000000000000000000000000000000000000000000000000000000000000000000000000000000000000000000000000000000000000000000000000000000000000000000000000000000000000000000000000000000
310
00000000000000000000000000000000000000000000000000000000000000000000000000000000000000000000000000000000000000000000000000000000000000000000000000000000000000000000000000000000000000000000000000000000000000000000000000000000000000000000000000000000000000
310
00000000000000000000000000000000000000000000000000000000000000000000000000000000000000000000000000000000000000000000000000000000000000000000000000000000000000000000000000000000000000000000000000000000000000000000000000000000000000000000000000000000000000
310
00000000000000000000000000000000000000000000000000000000000000000000000000000000000000000000000000000000000000000000000000000000000000000000000000000000000000000000000000000000000000000000000000000000000000000000000000000000000000000000000000000000000000
310
00000000000000000000000000000000000000000000000000000000000000000000000000000000000000000000000000000000000000000000000000000000000000000000000000000000000000000000000000000000000000000000000000000000000000000000000000000000000000000000000000000000000000
310
00000000000000000000000000000000000000000000000000000000000000000000000000000000000000000000000000000000000000000000000000000000000000000000000000000000000000000000000000000000000000000000000000000000000000000000000000000000000000000000000000000000000000
310
00000000000000000000000000000000000000000000000000000000000000000000000000000000000000000000000000000000000000000000000000000000000000000000000000000000000000000000000000000000000000000000000000000000000000000000000000000000000000000000000000000000000000
310
00000000000000000000000000000000000000000000000000000000000000000000000000000000000000000000000000000000000000000000000000000000000000000000000000000000000000000000000000000000000000000000000000000000000000000000000000000000000000000000000000000000000000
310
00000000000000000000000000000000000000000000000000000000000000000000000000000000000000000000000000000000000000000000000000000000000000000000000000000000000000000000000000000000000000000000000000000000000000000000000000000000000000000000000000000000000000
310
00000000000000000000000000000000000000000000000000000000000000000000000000000000000000000000000000000000000000000000000000000000000000000000000000000000000000000000000000000000000000000000000000000000000000000000000000000000000000000000000000000000000000
310
00000000000000000000000000000000000000000000000000000000000000000000000000000000000000000000000000000000000000000000000000000000000000000000000000000000000000000000000000000000000000000000000000000000000000000000000000000000000000000000000000000000000000
310
00000000000000000000000000000000000000000000000000000000000000000000000000000000000000000000000000000000000000000000000000000000000000000000000000000000000000000000000000000000000000000000000000000000000000000000000000000000000000000000000000000000000000
310
00000000000000000000000000000000000000000000000000000000000000000000000000000000000000000000000000000000000000000000000000000000000000000000000000000000000000000000000000000000000000000000000000000000000000000000000000000000000000000000000000000000000000
310
00000000000000000000000000000000000000000000000000000000000000000000000000000000000000000000000000000000000000000000000000000000000000000000000000000000000000000000000000000000000000000000000000000000000000000000000000000000000000000000000000000000000000
310
00000000000000000000000000000000000000000000000000000000000000000000000000000000000000000000000000000000000000000000000000000000000000000000000000000000000000000000000000000000000000000000000000000000000000000000000000000000000000000000000000000000000000
310
00000000000000000000000000000000000000000000000000000000000000000000000000000000000000000000000000000000000000000000000000000000000000000000000000000000000000000000000000000000000000000000000000000000000000000000000000000000000000000000000000000000000000
310
00000000000000000000000000000000000000000000000000000000000000000000000000000000000000000000000000000000000000000000000000000000000000000000000000000000000000000000000000000000000000000000000000000000000000000000000000000000000000000000000000000000000000
310
00000000000000000000000000000000000000000000000000000000000000000000000000000000000000000000000000000000000000000000000000000000000000000000000000000000000000000000000000000000000000000000000000000000000000000000000000000000000000000000000000000000000000
310
00000000000000000000000000000000000000000000000000000000000000000000000000000000000000000000000000000000000000000000000000000000000000000000000000000000000000000000000000000000000000000000000000000000000000000000000000000000000000000000000000000000000000
310
00000000000000000000000000000000000000000000000000000000000000000000000000000000000000000000000000000000000000000000000000000000000000000000000000000000000000000000000000000000000000000000000000000000000000000000000000000000000000000000000000000000000000
310
00000000000000000000000000000000000000000000000000000000000000000000000000000000000000000000000000000000000000000000000000000000000000000000000000000000000000000000000000000000000000000000000000000000000000000000000000000000000000000000000000000000000000
310
00000000000000000000000000000000000000000000000000000000000000000000000000000000000000000000000000000000000000000000000000000000000000000000000000000000000000000000000000000000000000000000000000000000000000000000000000000000000000000000000000000000000000
310
00000000000000000000000000000000000000000000000000000000000000000000000000000000000000000000000000000000000000000000000000000000000000000000000000000000000000000000000000000000000000000000000000000000000000000000000000000000000000000000000000000000000000
310
00000000000000000000000000000000000000000000000000000000000000000000000000000000000000000000000000000000000000000000000000000000000000000000000000000000000000000000000000000000000000000000000000000000000000000000000000000000000000000000000000000000000000
310
00000000000000000000000000000000000000000000000000000000000000000000000000000000000000000000000000000000000000000000000000000000000000000000000000000000000000000000000000000000000000000000000000000000000000000000000000000000000000000000000000000000000000
310
00000000000000000000000000000000000000000000000000000000000000000000000000000000000000000000000000000000000000000000000000000000000000000000000000000000000000000000000000000000000000000000000000000000000000000000000000000000000000000000000000000000000000
310
00000000000000000000000000000000000000000000000000000000000000000000000000000000000000000000000000000000000000000000000000000000000000000000000000000000000000000000000000000000000000000000000000000000000000000000000000000000000000000000000000000000000000
310
00000000000000000000000000000000000000000000000000000000000000000000000000000000000000000000000000000000000000000000000000000000000000000000000000000000000000000000000000000000000000000000000000000000000000000000000000000000000000000000000000000000000000
310
00000000000000000000000000000000000000000000000000000000000000000000000000000000000000000000000000000000000000000000000000000000000000000000000000000000000000000000000000000000000000000000000000000000000000000000000000000000000000000000000000000000000000
310
00000000000000000000000000000000000000000000000000000000000000000000000000000000000000000000000000000000000000000000000000000000000000000000000000000000000000000000000000000000000000000000000000000000000000000000000000000000000000000000000000000000000000
310
00000000000000000000000000000000000000000000000000000000000000000000000000000000000000000000000000000000000000000000000000000000000000000000000000000000000000000000000000000000000000000000000000000000000000000000000000000000000000000000000000000000000000
310
00000000000000000000000000000000000000000000000000000000000000000000000000000000000000000000000000000000000000000000000000000000000000000000000000000000000000000000000000000000000000000000000000000000000000000000000000000000000000000000000000000000000000
310
00000000000000000000000000000000000000000000000000000000000000000000000000000000000000000000000000000000000000000000000000000000000000000000000000000000000000000000000000000000000000000000000000000000000000000000000000000000000000000000000000000000000000
310
00000000000000000000000000000000000000000000000000000000000000000000000000000000000000000000000000000000000000000000000000000000000000000000000000000000000000000000000000000000000000000000000000000000000000000000000000000000000000000000000000000000000000
310
00000000000000000000000000000000000000000000000000000000000000000000000000000000000000000000000000000000000000000000000000000000000000000000000000000000000000000000000000000000000000000000000000000000000000000000000000000000000000000000000000000000000000
310
00000000000000000000000000000000000000000000000000000000000000000000000000000000000000000000000000000000000000000000000000000000000000000000000000000000000000000000000000000000000000000000000000000000000000000000000000000000000000000000000000000000000000
310
00000000000000000000000000000000000000000000000000000000000000000000000000000000000000000000000000000000000000000000000000000000000000000000000000000000000000000000000000000000000000000000000000000000000000000000000000000000000000000000000000000000000000
310
00000000000000000000000000000000000000000000000000000000000000000000000000000000000000000000000000000000000000000000000000000000000000000000000000000000000000000000000000000000000000000000000000000000000000000000000000000000000000000000000000000000000000
310
00000000000000000000000000000000000000000000000000000000000000000000000000000000000000000000000000000000000000000000000000000000000000000000000000000000000000000000000000000000000000000000000000000000000000000000000000000000000000000000000000000000000000
310
00000000000000000000000000000000000000000000000000000000000000000000000000000000000000000000000000000000000000000000000000000000000000000000000000000000000000000000000000000000000000000000000000000000000000000000000000000000000000000000000000000000000000
310
00000000000000000000000000000000000000000000000000000000000000000000000000000000000000000000000000000000000000000000000000000000000000000000000000000000000000000000000000000000000000000000000000000000000000000000000000000000000000000000000000000000000000
310
00000000000000000000000000000000000000000000000000000000000000000000000000000000000000000000000000000000000000000000000000000000000000000000000000000000000000000000000000000000000000000000000000000000000000000000000000000000000000000000000000000000000000
310
00000000000000000000000000000000000000000000000000000000000000000000000000000000000000000000000000000000000000000000000000000000000000000000000000000000000000000000000000000000000000000000000000000000000000000000000000000000000000000000000000000000000000
310
00000000000000000000000000000000000000000000000000000000000000000000000000000000000000000000000000000000000000000000000000000000000000000000000000000000000000000000000000000000000000000000000000000000000000000000000000000000000000000000000000000000000000
310
00000000000000000000000000000000000000000000000000000000000000000000000000000000000000000000000000000000000000000000000000000000000000000000000000000000000000000000000000000000000000000000000000000000000000000000000000000000000000000000000000000000000000
310
00000000000000000000000000000000000000000000000000000000000000000000000000000000000000000000000000000000000000000000000000000000000000000000000000000000000000000000000000000000000000000000000000000000000000000000000000000000000000000000000000000000000000
310
00000000000000000000000000000000000000000000000000000000000000000000000000000000000000000000000000000000000000000000000000000000000000000000000000000000000000000000000000000000000000000000000000000000000000000000000000000000000000000000000000000000000000
310
00000000000000000000000000000000000000000000000000000000000000000000000000000000000000000000000000000000000000000000000000000000000000000000000000000000000000000000000000000000000000000000000000000000000000000000000000000000000000000000000000000000000000
310
00000000000000000000000000000000000000000000000000000000000000000000000000000000000000000000000000000000000000000000000000000000000000000000000000000000000000000000000000000000000000000000000000000000000000000000000000000000000000000000000000000000000000
310
00000000000000000000000000000000000000000000000000000000000000000000000000000000000000000000000000000000000000000000000000000000000000000000000000000000000000000000000000000000000000000000000000000000000000000000000000000000000000000000000000000000000000
310
00000000000000000000000000000000000000000000000000000000000000000000000000000000000000000000000000000000000000000000000000000000000000000000000000000000000000000000000000000000000000000000000000000000000000000000F5F5F5F5F5F5F5F5F5F5F5F5F5F5F5F5F5F5F5F5F5
310
F5F5F5F5F5F5F5F5F5F5F5F5F5F5F5F5F5F5F5F5F5F5F5F5F5F5F5F5F5F5F5F5F5F5F5F5F5F5F5F5F5F5F5F5F5F5F5F5F5F5F5F5F5F5F5F5F5F5F5F5F5F5F5F5F5F5F5F5F5F5F5F5F5F5F5F5F5F5F5F5F5F5F5F5F5F5F5F5F5F5F5F5F5F5F5F5F5F5F5F5F5F5F5F5F5F5F5F5F5F5F5F5F5F5F5F5F5F5F5F5F5F5F5F5F5F5F5
310
F5F5F5F5F5F5F5F5F5F5F5F5F5F5F5F5F5F5F5F5F5F5F5F5F5F5F5F5F5F5F5F5F5F5F5F5F5F5F5F5F5F5F5F5F5F5F5F5F5F5F500000000000000000000000000000000000000000000000000000000000000000000000000000000000000000000000000000000000000000000000000000000000000000000000000000000
310
00000000000000000000000000000000000000000000000000000000000000000000000000000000000000000000000000000000000000000000000000000000000000000000000000000000000000000000000000000000000000000000000000000000000000000000000000000000000000000000000000000000000000
310
00000000000000000000000000000000000000000000000000000000000000000000000000000000000000000000000000000000F50000000000000000000000000000000000000000000000000000000000000000000000000000000000000000000000000000000000000000000000000000000000000000000000000000
310
00000000000000000000000000000000000000000000000000000000000000000000000000000000000000000000000000000000000000000000000000000000000000000000000000000000000000000000000000000000000000000000000000000000000000000000000000000000000000000000000000000000000000
310
000000000000000000000000000000000000000000000000000000000000000000000000000000000000000000000000000000000000F5000000000000000000000000000000000000000000000000000000000000000000000000000000000000000000000000000000000000000000000000000000000000000000000000
310
00000000000000000000000000000000000000000000000000000000000000000000000000000000000000000000000000000000000000000000000000000000000000000000000000000000000000000000000000000000000000000000000000000000000000000000000000000000000000000000000000000000000000
310
0000000000000000000000000000000000000000000000000000000000000000000000000000000000000000000000000000000000000000F500000000000000000000000000000000000000000000000000000000000000000000000000000000000000000000000000000000000000000000000000000000000000000000
310
00000000000000000000000000000000000000000000000000000000000000000000000000000000000000000000000000000000000000000000000000000000000000000000000000000000000000000000000000000000000000000000000000000000000000000000000000000000000000000000000000000000000000
310
00000000000000000000000000000000000000000000000000000000000000000000000000000000000000000000000000000000000000000000F50000000000000000000000000000000000000000000000000000000000000000000000000000000000000000000000000000000000000000000000000000000000000000
310
00000000000000000000000000000000000000000000000000000000000000000000000000000000000000000000000000000000000000000000000000000000000000000000000000000000000000000000000000000000000000000000000000000000000000000000000000000000000000000000000000000000000000
310
000000000000000000000000000000000000000000000000000000000000000000000000000000000000000000000000000000000000000000000000F5000000000000000000000000000000000000000000000000000000000000000000000000000000000000000000000000000000000000000000000000000000000000
310
00000000000000000000000000000000000000000000000000000000000000000000000000000000000000000000000000000000000000000000000000000000000000000000000000000000000000000000000000000000000000000000000000000000000000000000000000000000000000000000000000000000000000
310
0000000000000000000000000000000000000000000000000000000000000000000000000000000000000000000000000000000000000000000000000000F500000000000000000000000000000000000000000000000000000000000000000000000000000000000000000000000000000000000000000000000000000000
310
000000000000000000000000000000000000000000000000000000000000000000000000000000000000000000000000000000000000000000000000000000000000000000000000000000000000000000000000000000000000000000000000000000000000000000000000000000000000000000000000F5F5F500F5F500
310
F5F5F500F5F5F500F5F500F500F500F5F50000F5F50000F500F5F5F500F5F50000F5000000000000000000000000000000000000000000000000000000000000F50000000000000000000000000000000000000000000000000000000000000000000000000000000000000000000000000000000000000000000000000000
310
0000000000000000000000000000000000000000000000000000000000000000000000000000000000000000000000000000000000000000000000000000000000000000000000000000000000000000000000000000000000000000000000000000000000000000000000000000000000000000000000000000F5F5F500F5
310
F5F5F5F5F500F5F5F5F5F5F500F5F5F5F5F5F5F500F5F500F5F500F5F5F500F5F500F5F5F5F500000000000000000000000000000000000000000000000000000000F5000000000000000000000000000000000000000000000000000000000000000000000000000000000000000000000000000000000000000000000000
310
00000000000000000000000000000000000000000000000000000000000000000000000000000000000000000000000000000000000000000000000000000000000000000000000000000000000000000000000000000000000000000000000000000000000000000000000000000000000000000000000000000000F5F5F5
310
F5F5F5F5F5F5F500F5F5F5F5F5F5F5F5F5F500F5F500F5F5F500F5F500F5F5F500F5F5F5F500F5F500000000000000000000000000000000000000000000000000000000F500000000000000000000000000000000000000000000000000000000000000000000000000000000000000000000000000000000000000000000
310
000000000000000000000000000000000000000000000000000000000000000000000000000000000000000000000000000000000000000000000000000000000000000000000000000000000000000000000000000000000000000000000000000000000000000000000000000000000000000000000000000000000000F5
310
F5F500F5F5F5F5F5F500F5F50000F50000F5F5F50000F500F5F5F50000F500F5F5F5F5F5F500F500000000000000000000000000000000000000000000000000000000000000F50000000000000000000000000000000000000000000000000000000000000000000000000000000000000000000000000000000000000000
310
00000000000000000000000000000000000000000000000000000000000000000000000000000000000000000000000000000000000000000000000000000000000000000000000000000000000000000000000000000000000000000000000000000000000000000000000000000000000000000000000000000000000000
310
000000000000000000000000000000000000000000000000000000000000000000000000000000000000000000000000000000000000000000000000000000000000000000000000F5000000000000000000000000000000000000000000000000000000000000000000000000000000000000000000000000000000000000
310
00000000000000000000000000000000000000000000000000000000000000000000000000000000000000000000000000000000000000000000000000000000000000000000000000000000000000000000000000000000000000000000000000000000000000000000000000000000000000000000000000000000000000
310
0000000000000000000000000000000000000000000000000000000000000000000000000000000000000000000000000000000000000000000000000000000000000000000000000000F500000000000000000000000000000000000000000000000000000000000000000000000000000000000000000000000000000000
310
00000000000000000000000000000000000000000000000000000000000000000000000000000000000000000000000000000000000000000000000000000000000000000000000000000000000000000000000000000000000000000000000000000000000000000000000000000000000000000000000000000000000000
310
00000000000000000000000000000000000000000000000000000000000000000000000000000000000000000000000000000000000000000000000000000000000000000000000000000000F50000000000000000000000000000000000000000000000000000000000000000000000000000000000000000000000000000
310
00000000000000000000000000000000000000000000000000000000000000000000000000000000000000000000000000000000000000000000000000000000000000000000000000000000000000000000000000000000000000000000000000000000000000000000000000000000000000000000000000000000000000
310
00000000F5F5F5F5F5F5F5F5F5F5F5F5F5F5F5F5F5F5F5F5F5F5F5F5F5F5F5F5F5F5F5F5F5F5F5F5F5F5F5F5F5F5F5F5F5F5F5F5F5F5F5F5F5F5F5F5F5F500000000000000000000000000000000F5000000000000000000000000000000000000000000000000000000000000000000000000000000000000000000000000
310
00000000000000000000000000000000000000000000000000000000000000000000000000000000000000000000000000000000000000000000000000000000000000000000000000000000000000000000000000000000000000000000000000000000000000000000000000000000000000000000000000000000000000
310
000000000000000000F5F5F5F50000000000F5F5F500000000000000F50000F5F5F5000000000000F50000F50000F5F50000F5F5F5F5F5F5F5F5F5F5F500000000000000000000000000000000000000F500000000000000000000000000000000000000000000000000000000000000000000000000000000000000000000
310
00000000000000000000000000000000000000000000000000000000000000000000000000000000000000000000000000000000000000000000000000000000000000000000000000000000000000000000000000000000000000000000000000000000000000000000000000000000000000000000000000000000000000
310
0000000000000000000000F5F5F5F500000000F5F5F5F5F50000000000F5F500000000F5F5F5F5F5F5F5F5F500F500F500F5F5F500F500F5F5F5F5F5F5F5F500000000000000000000000000000000000000F50000000000000000000000000000000000000000000000000000000000000000000000000000000000000000
310
00000000000000000000000000000000000000000000000000000000000000000000000000000000000000000000000000000000000000000000000000000000000000000000000000000000000000000000000000000000000000000000000000000000000000000000000000000000000000000000000000000000000000
310
00000000000000000000000000F5F5F50000000000F5F5F5F5F50000000000F5F50000F5F5000000000000F5F50000F500F50000F5F500F500F5F5F5F5F5F5F5F500000000000000000000000000000000000000F5000000000000000000000000000000000000000000000000000000000000000000000000000000000000
310
00000000000000000000000000000000000000000000000000000000000000000000000000000000000000000000000000000000000000000000000000000000000000000000000000000000000000000000000000000000000000000000000000000000000000000000000000000000000000000000000000000000000000
310
000000000000000000000000000000F5F5F5000000000000F5F5F500000000000000F50000F5F5F5000000000000F500F5F500F5F5F5F5F5F5F5F5F5F5F5F5F5F5F5F500000000000000000000000000000000000000F500000000000000000000000000000000000000000000000000000000000000000000000000000000
310
00000000000000000000000000000000000000000000000000000000000000000000000000000000000000000000000000000000000000000000000000000000000000000000000000000000000000000000000000000000000000000000000000000000000000000000000000000000000000000000000000000000000000
310
00000000000000000000000000000000000000000000000000000000000000000000000000000000000000000000000000000000000000000000000000000000000000000000000000000000000000000000000000000000F50000000000000000000000000000000000000000000000000000000000000000000000000000
310
00000000000000000000000000000000000000000000000000000000000000000000000000000000000000000000000000000000000000000000000000000000000000000000000000000000000000000000000000000000000000000000000000000000000000000000000000000000000000000000000000000000000000
310
000000000000000000000000000000000000000000000000000000000000000000000000000000000000000000000000000000000000000000000000000000000000000000000000000000000000000000000000000000000000F5000000000000000000000000000000000000000000000000000000000000000000000000
310
00000000000000000000000000000000000000000000000000000000000000000000000000000000000000000000000000000000000000000000000000000000000000000000000000000000000000000000000000000000000000000000000000000000000000000000000000000000000000000000000000000000000000
310
0000000000000000000000000000000000000000000000000000000000000000000000000000000000000000000000000000000000000000000000000000000000000000000000000000000000000000000000000000000000000000F500000000000000000000000000000000000000000000000000000000000000000000
310
00000000000000000000000000000000000000000000000000000000000000000000000000000000000000000000000000000000000000000000000000000000000000000000000000000000000000000000000000000000000000000000000000000000000000000000000000000000000000000000000000000000000000
310
00000000000000000000000000000000000000000000000000000000000000000000000000000000000000000000000000000000000000000000000000000000000000000000000000000000000000000000000000000000000000000000F50000000000000000000000000000000000000000000000000000000000000000
310
00000000000000000000000000000000000000000000000000000000000000000000000000000000000000000000000000000000000000000000000000000000000000000000000000000000000000000000000000000000000000000000000000000000000000000000000000000000000000000000000000000000000000
310
000000000000000000000000000000000000000000000000000000000000000000000000000000000000000000000000000000000000000000000000000000000000000000000000000000000000000000000000000000000000000000000000F5000000000000000000000000000000000000000000000000000000000000
310
00000000000000000000000000000000000000000000000000000000000000000000000000000000000000000000000000000000000000000000000000000000000000000000000000000000000000000000000000000000000000000000000000000000000000000000000000000000000000000000000000000000000000
310
0000000000000000000000000000000000000000000000000000000000000000000000000000000000000000000000000000000000000000000000000000000000000000000000000000000000000000000000000000000000000000000000000000F500000000000000000000000000000000000000000000000000000000
310
00000000000000000000000000000000000000000000000000000000000000000000000000000000000000000000000000000000000000000000000000000000000000000000000000000000000000000000000000000000000000000000000000000000000000000000000000000000000000000000000000000000000000
310
00000000000000000000000000000000000000000000000000000000000000000000000000000000000000000000000000000000000000000000000000000000000000000000000000000000000000000000000000000000000000000000000000000000F50000000000000000000000000000000000000000000000000000
310
00000000000000000000000000000000000000000000000000000000000000000000000000000000000000000000000000000000000000000000000000000000000000000000000000000000000000000000000000000000000000000000000000000000000000000000000000000000000000000000000000000000000000
310
000000000000000000000000000000000000000000000000000000000000000000000000000000000000000000000000000000000000000000000000000000000000000000000000000000000000000000000000000000000000000000000000000000000000F5000000000000000000000000000000000000000000000000
310
000000000000000000000000000000000000000000000000000000000000000000000000000000000000000000000000000000000000000000000000000000000000000000000000000000000000000000000000000000000000000000000000000000000000000000000000000000000000000000000000000000F5000000
310
0000000000000000000000000000000000000000000000000000000000000000000000000000000000000000000000000000000000000000000000000000000000000000000000000000000000000000000000000000000000000000000000000000000000000000F500000000000000000000000000000000000000000000
310
0000000000000000000000000000000000000000000000000000000000000000000000000000000000000000000000000000000000000000000000000000000000000000000000000000000000000000000000000000000000000000000000000000000000000000000000000000000000000000000000000000000000F500
310
00000000000000000000000000000000000000000000000000000000000000000000000000000000000000000000000000000000000000000000000000000000000000000000000000000000000000000000000000000000000000000000000000000000000000000000F50000000000000000000000000000000000000000
310
00000000000000000000000000000000000000000000000000000000000000000000000000000000000000000000000000000000000000000000000000000000000000000000000000000000000000000000000000000000000000000000000000000000000000000000000000000000000000000000000000000000000000
310
F50000000000000000000000000000000000000000000000000000000000000000000000000000000000000000000000000000000000000000000000000000000000000000000000000000000000000000000000000000000000000000000000000000000000000000000000F5000000000000000000000000000000000000
310
00000000000000000000000000000000000000000000000000000000000000000000000000000000000000000000000000000000000000000000000000000000000000000000000000000000000000000000000000000000000000000000000000000000000000000000000000000000000000000000000000000000000000
310
0000F50000000000000000000000000000000000000000000000000000000000000000000000000000000000000000000000000000000000000000000000000000000000000000000000000000000000000000000000000000000000000000000000000000000000000000000000F500000000000000000000000000000000
310
00000000000000000000000000000000000000000000000000000000000000000000000000000000000000000000000000000000000000000000000000000000000000000000000000000000000000000000000000000000000000000000000000000000000000000000000000000000000000000000000000000000000000
310
00000000F5000000000000000000000000000000000000000000000000000000000000000000000000000000F500000000000000000000000000000000000000000000000000000000000000000000000000000000000000000000000000000000000000000000000000000000000000F50000000000000000000000000000
310
00000000000000000000000000000000000000000000000000000000000000000000000000000000000000000000000000000000000000000000000000000000000000000000000000000000000000000000000000000000000000000000000000000000000000000000000000000000000000000000000000000000000000
310
000000000000F500000000000000000000000000000000000000000000000000000000000000000000000000F5F5F500000000000000000000000000000000000000000000000000000000000000000000000000000000000000000000000000000000000000000000000000000000000000F5000000000000000000000000
310
00000000000000000000000000000000000000000000000000000000000000000000000000000000000000000000000000000000000000000000000000000000000000000000000000000000000000000000000000000000000000000000000000000000000000000000000000000000000000000000000000000000000000
310
0000000000000000F500000000000000000000000000000000000000000000000000000000000000000000000000F5F5F500000000000000000000000000000000000000000000000000000000000000000000000000000000000000000000000000000000000000000000000000000000000000F500000000000000000000
310
00000000000000000000000000000000000000000000000000000000000000000000000000000000000000000000000000000000000000000000000000000000000000000000000000000000000000000000000000000000000000000000000000000000000000000000F5F5F5F5F5F5F5F5F5F5F5F5F5F5F5F5F5F5F5F5F5
310
F5F5F5F5F5F5F5F5F5F5F5F5F5F5F5F5F5F5F5F5F5F5F5F5F5F5F5F5F5F5F5F5F5F5F5F5F5F5F5F5F5F5F5F5F5F5F5F5F5F5F500000000000000000000000000000000000000000000000000000000000000000000000000000000000000000000000000000000000000000000000000000000000000F50000000000000000
310
000000000000000000000000000000000000000000000000000000000000000000000000000000000000000000000000000000000000000000000000000000000000000000000000000000000000000000000000000000000000000000000000000000000000000000000000F5F5F5F500F5F5F5F5F5F5F5F5F5F5F5F5F5F5
310
F5F500F5F5F5F5F5F5F5F5F5F5F5F5F5F5F5F500F5F5F5F5F5F5F5F5F5F5F5F5F5F5F5F5F5F5F5F5F5F5F5F5F5F5F5F5F5F5F5F5F500000000000000000000000000000000000000000000000000000000000000000000000000000000000000000000000000000000000000000000000000000000000000F5000000000000
310
00000000000000000000000000000000000000000000000000000000000000000000000000000000000000000000000000000000000000000000000000000000000000000000000000000000000000000000000000000000000000000000000000000000000000000000000000000000000000000000000000000000000000
310
0000000000000000000000000000F5000000000000000000000000000000000000000000000000000000000000000000000000000000F500000000000000000000000000000000000000000000000000000000000000000000000000000000000000000000000000000000000000000000000000000000000000F500000000
310
00000000000000000000000000000000000000000000000000000000000000000000000000000000000000000000000000000000000000000000000000000000000000000000000000000000000000000000000000000000000000000000000000000000000000000000000000000000000000000000000000000000000000
310
00000000000000000000000000000000F50000000000000000000000000000000000000000000000000000000000000000000000000000000000000000000000000000000000000000000000000000000000000000000000000000000000000000000000000000000000000000000000000000000000000000000000F50000
310
00000000000000000000000000000000000000000000000000000000000000000000000000000000000000000000000000000000000000000000000000000000000000000000000000000000000000000000000000000000000000000000000000000000000000000000000000000000000000000000000000000000000000
310
000000000000000000000000000000000000F50000000000000000000000000000000000000000000000000000000000000000000000000000000000000000000000000000000000000000000000000000000000000000000000000000000000000000000000000000000000000000000000000000000000000000000000F5
310
00000000000000000000000000000000000000000000000000000000000000000000000000000000000000000000000000000000000000000000000000000000000000000000000000000000000000000000000000000000000000000000000000000000000000000000000000000000000000000000000000000000000000
310
0000000000000000000000000000000000000000F500000000000000000000000000000000000000000000000000000000000000000000000000000000000000000000000000000000000000000000000000000000000000000000000000000000000000000000000000000000000000000000000000000000000000000000
310
00F50000000000000000000000000000000000000000000000000000000000000000000000000000000000000000000000000000000000000000000000000000000000000000000000000000000000000000000000000000000000000000000000000000000000000000000000000000000000000000000000000000000000
310
00000000000000000000000000000000000000000000F50000000000000000000000000000000000000000000000000000000000000000000000000000000000000000000000000000000000000000000000000000000000000000000000000000000000000000000000000000000000000000000000000000000000000000
310
000000F5000000000000000000000000000000000000000000000000000000000000000000000000000000000000000000000000000000000000000000000000000000000000000000000000000000000000000000000000000000000000000000000000000000000000000000000000000000000000000000000000000000
310
000000000000000000000000000000000000000000000000F5000000000000000000000000000000000000000000000000000000000000000000000000000000000000000000000000000000000000000000000000000000000000000000000000000000000000000000000000000000000000000000000000000000000000
310
0000000000F500000000000000000000000000000000000000000000000000000000000000000000000000000000000000000000000000000000000000000000000000000000000000000000000000000000000000000000000000000000000000000000000000000000000000000000000000000000000000000000000000
310
0000000000000000000000000000000000000000000000000000F500000000000000000000000000000000000000000000000000000000000000000000000000000000000000000000000000000000000000000000000000000000000000000000000000000000000000000000000000000000000000000000000000000000
310
00000000000000F50000000000000000000000000000000000000000000000000000000000000000000000000000000000000000000000000000000000000000000000000000000000000000000000000000000000000000000000000000000000000000000000000000000000000000000000000000000000000000000000
310
00000000000000000000000000000000000000000000000000000000F50000000000000000000000000000000000000000000000000000000000000000000000000000000000000000000000000000000000000000000000000000000000000000000000000000000000000000000000000000000000000000000000000000
310
000000000000000000F5000000000000000000000000000000000000000000000000000000000000000000000000000000000000000000000000000000000000000000000000000000000000000000000000000000000000000000000000000000000000000000000000000000000000000000000000000000000000000000
310
00000000000000000000000000000000000000000000000000000000000000000000000000000000000000000000000000000000000000000000000000000000000000000000000000000000000000000000000000000000000000000000000000000000000000000000000000000000000000000000000000000000000000
310
0000000000000000000000F500000000000000000000000000000000000000000000000000000000000000000000000000000000000000000000000000000000000000000000000000000000000000000000000000000000000000000000000000000000000000000000000000000000000000000000000000000000000000
310
00000000000000000000000000000000000000000000000000000000000000000000000000000000000000000000000000000000000000000000000000000000000000000000000000000000000000000000000000000000000000000000000000000000000000000000000000000000000000000000000000000000000000
310
00000000000000000000000000F50000000000000000000000000000000000000000000000000000000000000000000000000000000000000000000000000000000000000000000000000000000000000000000000000000000000000000000000000000000000000000000000000000000000000000000000000000000000
310
000000F5000000000000000000000000000000000000000000000000000000000000F5000000000000000000000000000000000000000000000000000000000000F500000000000000000000000000000000000000000000000000000000000000000000000000000000000000000000000000000000000000000000000000
310
000000000000000000000000000000F5000000000000000000000000000000000000000000000000000000000000000000000000000000000000000000000000000000000000000000000000000000000000000000000000000000000000000000000000000000000000000000000000000000000000000000000000000000
310
0000000000F5F5F5F5F5F5F5F5F5F5F5F5F5F5F5F5F5F5F5F5F5F5F5F5F5F5F5F5F5F5F5F5F5F5F5F5F5F5F5F5F5F5F5F5F5F5F5F5F5F5F5F5F5F5F5F5F5F5F5F5F5F5F50000000000000000000000000000000000000000000000000000000000000000000000000000000000000000000000000000000000000000000000
310
0000000000000000000000000000000000F500000000000000000000000000000000000000000000000000000000000000000000000000000000000000000000000000000000000000000000000000000000000000000000000000000000000000000000000000000000000000000000000000000000000000000000000000
310
00000000000000F50000000000000000000000000000000000000000000000000000F500F5F5F500F5F5F50000000000000000000000000000000000000000000000000000F5000000000000000000000000000000000000000000000000000000000000000000000000000000000000000000000000000000000000000000
310
00000000000000000000000000000000000000F50000000000000000000000000000000000000000000000000000000000000000000000000000000000000000000000000000000000000000000000000000000000000000000000000000000000000000000000000000000000000000000000000000000000000000000000
310
000000000000000000F50000000000000000000000000000000000000000000000000000F5F5F5F5F500F500F50000000000000000000000000000000000000000000000000000F500000000000000000000000000000000000000000000000000000000000000000000000000000000000000000000000000000000000000
310
000000000000000000000000000000000000000000F5000000000000000000000000000000000000000000000000000000000000000000000000000000000000000000000000000000000000000000000000000000000000000000000000000000000000000000000000000000000000000000000000000000000000000000
310
0000000000000000000000F50000000000000000000000000000000000000000000000000000F500F5F5F5F5F5F5F50000000000000000000000000000000000000000000000000000F50000000000000000000000000000000000000000000000000000000000000000000000000000000000000000000000000000000000
310
0000000000000000000000000000000000000000000000F500000000000000000000000000000000000000000000000000000000000000000000000000000000000000000000000000000000000000000000000000000000000000000000000000000000000000000000000000000000000000000000000000000000000000
310
00000000000000000000000000F50000000000000000000000000000000000000000000000000000F5000000000000F5000000000000000000000000000000000000000000000000000000F5000000000000000000000000000000000000000000000000000000000000000000000000000000000000000000000000000000
310
00000000000000000000000000000000000000000000000000F50000000000000000000000000000000000000000000000000000000000000000000000000000000000000000000000000000000000000000000000000000000000000000000000000000000000000000000000000000000000000000000000000000000000
310
000000000000000000000000000000F5000000000000000000000000000000000000000000000000000000000000F5000000000000000000000000000000000000000000000000000000000000F500000000000000000000000000000000000000000000000000000000000000000000000000000000000000000000000000
310
000000000000000000000000000000000000000000000000000000F5000000000000000000000000000000000000000000000000000000000000000000000000000000000000000000000000000000000000000000000000000000000000000000000000000000000000000000000000000000000000000000000000000000
310
0000000000000000000000000000000000F5000000000000000000000000000000000000000000000000000000000000F5000000000000000000000000000000000000000000000000000000000000F50000000000000000000000000000000000000000000000000000000000000000000000000000000000000000000000
310
0000000000000000000000000000000000000000000000000000000000F500000000000000000000000000000000000000000000000000000000000000000000000000000000000000000000000000000000000000000000000000000000000000000000000000000000000000000000000000000000000000000000000000
310
00000000000000000000000000000000000000F5F5F5F5F5F5F5F5F5F5F5F5F5F5F5F5F5F5F5F5F5F5F5F5F5F5F5F5F5F5F5F5F5F5F5F5F5F5F5F5F5F5F5F5F5F5F5F5F5F5F5F5F5F5F5F5F5F5F5F5F5F5F5F5F5F5F5F5F5F5F5F5F5F5F5000000000000F5F5F5000000000000000000000000000000000000000000000000
310
00000000000000000000000000000000000000000000000000000000000000F50000000000000000000000000000000000000000000000000000000000000000000000000000000000000000000000000000000000000000000000000000000000000000000000000000000000000000000000000000000000000000000000
310
000000000000000000000000000000000000000000F5F5F5F500F5F5F5F5F500F5F5F5F500F5F5F5F5F500F5F5F5F5F500F5F5F5F500F5F5F5F5F500F5F5F5F5F500F5F5F5F500F5F5F5F5F5F500F5F5F5F500F50000000000F5F500000000F5000000000000F500F500000000000000000000000000000000000000000000
310
000000000000000000000000000000000000000000000000000000000000000000F5000000000000000000000000000000000000000000000000000000000000000000000000000000000000000000000000000000000000000000000000000000000000000000000000000000000000000000000000000000000000000000
310
0000000000000000000000000000000000000000000000F5F5F5F500F5F5F5F5F500F5F5F5F500F5F5F5F5F500F5F5F5F5F500F5F5F5F500F5F5F5F5F500F5F5F5F5F500F5F5F5F500F5F5F5F5F5F500F5F5F5F500F5000000000000F500000000F5000000000000F500F50000000000000000000000000000000000000000
310
0000000000000000000000000000000000000000000000000000000000000000000000F500000000000000000000000000000000000000000000000000000000000000000000000000000000000000000000000000000000000000000000000000000000000000000000000000000000000000000000000000000000000000
310
00000000000000000000000000000000000000000000000000F5F5F5F5F5F5F5F5F5F5F5F5F5F5F5F5F5F5F5F5F5F5F5F5F5F5F5F5F5F5F5F5F5F5F5F5F5F5F5F5F5F5F5F5F5F5F5F5F5F5F5F5F5F5F5F5F5F5F5F5F5F5F5F5F5F5F5F5F5F500000000F5000000000000F5F5F5000000000000000000000000000000000000
310
00000000000000000000000000000000000000000000000000000000000000000000000000F50000000000000000000000000000000000000000000000000000000000000000000000000000000000000000000000000000000000000000000000000000000000000000000000000000000000000000000000000000000000
310
000000000000000000000000000000000000000000000000000000F5F5F5F500F5F5F5F500F5F5F5F5F5F500F5F5F5F500F5F5F5F500F5F5F5F5F5F500F5F5F5F500F5F5F5F500F5F5F5F5F5F500F5F5F5F500F5F5F5F5F5F500000000000000F500000000F5000000000000F5F50000000000000000000000000000000000
310
000000000000000000000000000000000000000000000000000000000000000000000000000000F5000000000000000000000000000000000000000000000000000000000000000000000000000000000000000000000000000000000000000000000000000000000000000000000000000000000000000000000000000000
310
0000000000000000000000000000000000000000000000000000000000F5F5F5F500F5F5F5F500F5F5F5F5F5F500F5F5F5F500F5F5F5F500F5F5F5F5F5F500F5F5F5F500F5F5F5F500F5F5F5F5F5F500F5F5F5F500F5F5F5F5F5F500000000000000F500000000F5000000000000F5F5000000000000000000000000000000
310
0000000000000000000000000000000000000000000000000000000000000000000000000000000000F500000000000000000000000000000000000000000000000000000000000000000000000000000000000000000000000000000000000000000000000000000000000000000000000000000000000000000000000000
310
00000000000000000000000000000000000000000000000000000000000000F5F5F5F500F5F5F5F500F5F5F5F5F5F500F5F5F5F500F5F5F5F500F5F5F5F5F5F500F5F5F5F500F5F5F5F500F5F5F5F5F5F500F5F5F5F500F5F5F5F5F5F500000000000000F500000000F5000000000000F5F500000000000000000000000000
310
00000000000000000000000000000000000000000000000000000000000000000000000000000000000000F50000000000000000000000000000000000000000000000000000000000000000000000000000000000000000000000000000000000000000000000000000000000000000000000000000000000000000000000
310
000000000000000000000000000000000000000000000000000000000000000000F5F5F5F500F5F5F5F500F5F5F5F5F5F500F5F5F5F500F5F5F5F500F5F5F5F5F5F500F5F5F5F500F5F5F5F500F5F5F5F5F5F500F5F5F5F500F5F5F5F5F5F500000000000000F500000000F5000000000000F5F50000000000000000000000
310
000000000000000000000000000000000000000000000000000000000000000000000000000000000000000000F5000000000000000000000000000000000000000000000000000000000000000000000000000000000000000000000000000000000000000000000000000000000000000000000000000000000000000000
310
0000000000000000000000000000000000000000000000000000000000000000000000F5F5F5F500F5F5F5F500F5F5F5F5F5F500F5F5F5F500F5F5F5F500F5F5F5F5F5F500F5F5F5F500F5F5F5F500F5F5F5F5F5F500F5F5F5F500F5F5F5F5F5F500000000000000F500000000F5000000000000F5F5000000000000000000
310
0000000000000000000000000000000000000000000000000000000000000000000000000000000000000000000000F500000000000000000000000000000000000000000000000000000000000000000000000000000000000000000000000000000000000000000000000000000000000000000000000000000000000000
310
00000000000000000000000000000000000000000000000000000000000000000000000000F5F5F5F500F5F5F5F500F5F5F5F5F5F500F5F5F5F500F5F5F5F500F5F5F5F5F5F500F5F5F5F500F5F5F5F500F5F5F5F5F5F500F5F5F5F500F5F5F5F5F5F500000000F5F5F5F500000000F5000000000000F5F500000000000000
310
00000000000000000000000000000000000000000000000000000000000000000000000000000000000000000000000000F50000000000000000000000000000000000000000000000000000000000000000000000000000000000000000000000000000000000000000000000000000000000000000000000000000000000
310
000000000000000000000000000000000000000000000000000000000000000000000000000000F5F5F5F500F5F5F5F500F5F5F5F5F5F500F5F5F5F500F5F5F5F500F5F5F5F5F5F500F5F5F5F500F5F5F5F500F5F5F5F5F5F500F5F5F5F500F5F5F5F5F5F500000000F5F5F5F500000000F5000000000000F5F50000000000
310
000000000000000000000000000000000000000000000000000000000000000000000000000000000000000000000000000000F5000000000000000000000000000000000000000000000000000000000000000000000000000000000000000000000000000000000000000000000000000000000000000000000000000000
310
0000000000000000000000000000000000000000000000000000000000000000000000000000000000F5F5F5F500F5F5F5F500F5F5F5F5F5F500F5F5F5F500F5F5F5F500F5F5F5F5F5F500F5F5F5F500F5F5F5F500F5F5F5F5F5F500F5F5F5F500F5F5F5F5F5F500000000F5F5F5F500000000F5000000000000F5F5000000
310
0000000000000000000000000000000000000000000000000000000000000000000000000000000000000000000000000000000000F500000000000000000000000000000000000000000000000000000000000000000000000000000000000000000000000000000000000000000000000000000000000000000000000000
310
00000000000000000000000000000000000000000000000000000000000000000000000000000000000000F5F5F5F500F5F5F5F500F5F5F5F5F5F500F5F5F5F500F5F5F5F500F5F5F5F5F5F500F5F5F5F500F5F5F5F500F5F5F5F5F5F500F5F5F5F500F5F5F5F5F5F500000000F5F5F5F500000000F5000000000000F5F500
310
00000000000000000000000000000000000000000000000000000000000000000000000000000000000000000000000000000000000000F50000000000000000000000000000000000000000000000000000000000000000000000000000000000000000000000000000000000000000000000000000000000000000000000
310
000000000000000000000000000000000000000000000000000000000000000000000000000000000000000000F5F5F5F500F5F5F5F500F5F5F5F5F5F500F5F5F5F500F5F5F5F500F5F5F5F5F5F500F5F5F5F500F5F5F5F500F5F5F5F5F5F500F5F5F5F500F5F5F5F5F5F500000000000000F500000000F5000000000000F5
310
F50000000000000000000000000000000000000000000000000000000000000000000000000000000000000000000000000000000000000000F5000000000000000000000000000000000000000000000000000000000000000000000000000000000000000000000000000000000000000000000000000000000000000000
310
0000000000000000000000000000000000000000000000000000000000000000000000000000000000000000000000F5F5F5F500F5F5F5F500F5F5F5F5F5F500F5F5F5F500F5F5F5F500F5F5F5F5F5F500F5F5F5F500F5F5F5F500F5F5F5F5F5F500F5F5F5F500F5F5F5F5F5F5000000000000000000000000F50000000000
310
00F5F50000000000000000000000000000000000000000000000000000000000000000000000000000000000000000000000000000000000000000F500000000000000000000000000000000000000000000000000000000000000000000000000000000000000000000000000000000000000000000000000000000000000
310
00000000000000000000000000000000000000000000000000000000000000000000000000000000000000000000000000F5F5F5F500F5F5F5F500F5F5F5F5F5F500F5F5F5F500F5F5F5F500F5F5F5F5F5F500F5F5F5F500F5F5F5F500F5F5F5F5F5F500F5F5F5F500F5F5F5F5F5F5000000000000000000000000F5000000
310
000000F5F50000000000000000000000000000000000000000000000000000000000000000000000000000000000000000000000000000000000000000F50000000000000000000000000000000000000000000000000000000000000000000000000000000000000000000000000000000000000000000000000000000000
310
000000000000000000000000000000000000000000000000000000000000000000000000000000000000000000000000000000F5F5F5F500F5F5F5F500F5F5F5F5F5F500F5F5F5F500F5F5F5F500F5F5F5F5F5F500F5F5F5F500F5F5F5F500F5F5F5F5F5F500F5F5F5F500F5F5F5F5F5F5000000000000000000000000F500
310
0000000000F5F50000000000000000000000000000000000000000000000000000000000000000000000000000000000000000000000000000000000000000F5000000000000000000000000000000000000000000000000000000000000000000000000000000000000000000000000000000000000000000000000000000
310
0000000000000000000000000000000000000000000000000000000000000000000000000000000000000000000000000000000000F5F5F5F500F5F5F5F500F5F5F5F5F5F500F5F5F5F500F5F5F5F500F5F5F5F5F5F500F5F5F5F500F5F5F5F500F5F5F5F5F5F500F5F5F5F500F5F5F5F5F5F5000000000000000000000000
310
F5000000000000F5F50000000000000000000000000000000000000000000000000000000000000000000000000000000000000000000000000000000000000000F500000000000000000000000000000000000000000000000000000000000000000000000000000000000000000000000000000000000000000000000000
310
00000000000000000000000000000000000000000000000000000000000000000000000000000000000000000000000000000000000000F5F5F5F500F5F5F5F500F5F5F5F5F5F500F5F5F5F500F5F5F5F500F5F5F5F5F5F500F5F5F5F500F5F5F5F500F5F5F5F5F5F500F5F5F5F500F5F5F5F5F5F500000000000000000000
310
0000F5000000000000F5F50000000000000000000000000000000000000000000000000000000000000000000000000000000000000000000000000000000000000000F50000000000000000000000000000000000000000000000000000000000000000000000000000000000000000000000000000000000000000000000
310
000000000000000000000000000000000000000000000000000000000000000000000000000000000000000000000000000000000000000000F5F5F5F500F5F5F5F500F5F5F5F5F5F500F5F5F5F500F5F5F5F500F5F5F5F5F5F500F5F5F5F500F5F5F5F500F5F5F5F5F5F500F5F5F5F500F5F5F5F5F5F50000000000000000
310
00000000F5000000000000F5F50000000000000000000000000000000000000000000000000000000000000000000000000000000000000000000000000000000000000000F5000000000000000000000000000000000000000000000000000000000000000000000000000000000000000000000000000000000000000000
310
0000000000000000000000000000000000000000000000000000000000000000000000000000000000000000000000000000000000000000000000F5F5F5F500F5F5F5F500F5F5F5F5F5F500F5F5F5F500F5F5F5F500F5F5F5F5F5F500F5F5F5F500F5F5F5F500F5F5F5F5F5F500F5F5F5F500F5F5F5F5F5F5000000000000
310
000000000000F5000000000000F5F50000000000000000000000000000000000000000000000000000000000000000000000000000000000000000000000000000000000000000F500000000000000000000000000000000000000000000000000000000000000000000000000000000000000000000000000000000000000
310
00000000000000000000000000000000000000000000000000000000000000000000000000000000000000000000000000000000000000000000000000F5F5F5F500F5F5F5F500F5F5F5F5F5F500F5F5F5F500F5F5F5F500F5F5F5F5F5F500F5F5F5F500F5F5F5F500F5F5F5F5F5F500F5F5F5F500F5F5F5F5F5F500000000
310
0000000000000000F5000000000000F5F50000000000000000000000000000000000000000000000000000000000000000000000000000000000000000000000000000000000000000F50000000000000000000000000000000000000000000000000000000000000000000000000000000000000000000000000000000000
310
000000000000000000000000000000000000000000000000000000000000000000000000000000000000000000000000000000000000000000000000000000F5F5F5F500F5F5F5F500F5F5F5F5F5F500F5F5F5F500F5F5F5F500F5F5F5F5F5F500F5F5F5F500F5F5F5F500F5F5F5F5F5F500F5F5F5F500F5F5F5F5F5F50000
310
00000000000000000000F5000000000000F5F50000000000000000000000000000000000000000000000000000000000000000000000000000000000000000000000000000000000000000F5000000000000000000000000000000000000000000000000000000000000000000000000000000000000000000000000000000
310
0000000000000000000000000000000000000000000000000000000000000000000000000000000000000000000000000000000000000000000000000000000000F5F5F5F500F5F5F5F500F5F5F5F5F5F500F5F5F5F500F5F5F5F500F5F5F5F5F5F500F5F5F5F500F5F5F5F500F5F5F5F5F5F500F5F5F5F500F5F5F5F5F5F5
310
000000000000000000000000F5000000000000F5F50000000000000000000000000000000000000000000000000000000000000000000000000000000000000000000000000000000000000000F500000000000000000000000000000000000000000000000000000000000000000000000000000000000000000000000000
310
00000000000000000000000000000000000000000000000000000000000000000000000000000000000000000000000000000000000000000000000000000000000000F5F5F5F500F5F5F5F500F5F5F5F5F5F500F5F5F5F500F5F5F5F500F5F5F5F5F5F500F5F5F5F500F5F5F5F500F5F5F5F5F5F500F5F5F5F500F5F5F5F5
310
F5F5000000000000000000000000F5000000000000F5F50000000000000000000000000000000000000000000000000000000000000000000000000000000000000000000000000000000000000000F50000000000000000000000000000000000000000000000000000000000000000000000000000000000000000000000
310
000000000000000000000000000000000000000000000000000000000000000000000000000000000000000000000000000000000000000000000000000000000000000000F5F5F5F500F5F5F5F500F5F5F5F5F5F500F5F5F5F500F5F5F5F500F5F5F5F5F5F500F5F5F5F500F5F5F5F500F5F5F5F5F5F500F5F5F5F500F5F5
310
F5F5F5F50000000000000000000000F5F5000000000000F5F50000000000000000000000000000000000000000000000000000000000000000000000000000000000000000000000000000000000000000F5000000000000000000000000000000000000000000000000000000000000000000000000000000000000000000
310
0000000000000000000000000000000000000000000000000000000000000000000000000000000000000000000000000000000000000000000000000000000000000000000000F5F5F5F500F5F5F5F500F5F5F5F5F5F500F5F5F5F500F5F5F5F500F5F5F5F5F5F500F5F5F5F500F5F5F5F500F5F5F5F5F5F500F5F5F5F500
310
F5F5F5F5F5F500000000000000000000F5F5F5000000000000F5F50000000000000000000000000000000000000000000000000000000000000000000000000000000000000000000000000000000000000000F500000000000000000000000000000000000000000000000000000000000000000000000000000000000000
310
00000000000000000000000000000000000000000000000000000000000000000000000000000000000000000000000000000000000000000000000000000000000000000000000000F5F5F5F500F5F5F5F500F5F5F5F5F5F500F5F5F5F500F5F5F5F500F5F5F5F5F5F500F5F5F5F500F5F5F5F500F5F5F5F5F5F500F5F5F5
310
F500F5F5F5F5F5F500000000000000000000F5F5F5000000000000F5F50000000000000000000000000000000000000000000000000000000000000000000000000000000000000000000000000000000000000000F50000000000000000000000000000000000000000000000000000000000000000000000000000000000
310
000000000000000000000000000000000000000000000000000000000000000000000000000000000000000000000000000000000000000000000000000000000000000000000000000000F5F5F5F500F5F5F5F500F5F5F5F5F5F500F5F5F5F500F5F5F5F500F5F5F5F5F5F500F5F5F5F500F5F5F5F500F5F5F5F5F5F500F5
310
F5F5F500F5F5F5F5F5F500000000000000000000F5F5F5000000000000F5F50000000000000000000000000000000000000000000000000000000000000000000000000000000000000000000000000000000000000000F5000000000000000000000000000000000000000000000000000000000000000000000000000000
310
000000000000000000000000000000000000000000000000000000000000000000000000000000000000000000000000000000000000000000000000000000000000000000F5F5F5F5F5F5F5F5F5F5F5F5F5F5F5F5F5F5F5F5F5F5F5F5F5F5F5F5F5F5F5F5F5F500F5F5F5F5F5F5F5F5F5F5F5F5F5F5F5F5F5F5F5F5F5F5F5
310
00F5F5F5F500F5F5F5F5F5F5F5F5F5F5000000000000F500F5000000000000F5F50000000000000000000000000000000000000000000000000000000000000000000000000000000000000000000000000000000000000000F500000000000000000000000000000000000000000000000000000000000000000000000000
310
00000000000000000000000000000000000000000000000000000000000000000000000000000000000000000000000000000000000000000000000000000000000000000000000000000000000000F5F5F5F500F5F5F5F500F5F5F5F5F5F500F5F5F5F500F5F5F5F500F5F5F5F5F5F500F5F5F5F500F5F5F5F500F5F5F5F5
310
F5F500F5F5F5F500F5F5F5F5F5F500000000000000000000F5F5F5000000000000F5F50000000000000000000000000000000000000000000000000000000000000000000000000000000000000000000000000000000000000000F50000000000000000000000000000000000000000000000000000000000000000000000
310
000000000000000000000000000000000000000000000000000000000000000000000000000000000000000000000000000000000000000000000000000000000000000000000000000000000000000000F5F5F5F500F5F5F5F500F5F5F5F5F5F500F5F5F5F500F5F5F5F500F5F5F5F5F5F500F5F5F5F500F5F5F5F500F5F5
310
F5F5F5F500F5F5F5F500F5F5F5F5F5F5000000000000000000000000F5000000000000F5F50000000000000000000000000000000000000000000000000000000000000000000000000000000000000000000000000000000000000000F5000000000000000000000000000000000000000000000000000000000000000000
310
0000000000000000000000000000000000000000000000000000000000000000000000000000000000000000000000000000000000000000000000000000000000000000000000000000000000000000000000F5F5F5F500F5F5F5F500F5F5F5F5F5F500F5F5F5F500F5F5F5F500F5F5F5F5F5F500F5F5F5F500F5F5F5F500
310
F5F5F5F5F5F500F5F5F5F500F5F5F5F5F5F500000000000000000000F5F5F5000000000000F5F50000000000000000000000000000000000000000000000000000000000000000000000000000000000000000000000000000000000000000F500000000000000000000000000000000000000000000000000000000000000
310
00000000000000000000000000000000000000000000000000000000000000000000000000000000000000000000000000000000000000000000000000000000000000000000000000000000000000000000000000F5F5F5F500F5F5F5F500F5F5F5F5F5F500F5F5F5F500F5F5F5F500F5F5F5F5F5F500F5F5F5F500F5F5F5
310
F500F5F5F5F5F5F500F5F5F5F500F5F5F5F5F5F500000000000000000000F5F5F5000000000000F5F50000000000000000000000000000000000000000000000000000000000000000000000000000000000000000000000000000000000000000F50000000000000000000000000000000000000000000000000000000000
310
000000000000000000000000000000000000000000000000000000000000000000000000000000000000000000000000000000000000000000000000000000000000000000000000000000000000000000000000000000F5F5F5F500F5F5F5F500F5F5F5F5F5F500F5F5F5F500F5F5F5F500F5F5F5F5F5F500F5F5F5F500F5
310
F5F5F500F5F5F5F5F5F500F5F5F5F500F5F5F5F5F5F5000000000000000000000000F5000000000000F5F50000000000000000000000000000000000000000000000000000000000000000000000000000000000000000000000000000000000000000F5000000000000000000000000000000000000000000000000000000
310
0000000000000000000000000000000000000000000000000000000000000000000000000000000000000000000000000000000000000000000000000000000000000000000000000000000000000000000000000000000000F5F5F5F500F5F5F5F500F5F5F5F5F5F500F5F5F5F500F5F5F5F500F5F5F5F5F5F500F5F5F5F5
310
00F5F5F5F500F5F5F5F5F5F500F5F5F5F500F5F5F5F5F5F5000000000000000000000000F5000000000000F5F50000000000000000000000000000000000000000000000000000000000000000000000000000000000000000000000000000000000000000F500000000000000000000000000000000000000000000000000
310
00000000000000000000000000000000000000000000000000000000000000000000000000000000000000000000000000000000000000000000000000000000000000000000000000000000000000000000000000000000000000F5F5F5F500F5F5F5F500F5F5F5F5F5F500F5F5F5F500F5F5F5F500F5F5F5F5F5F500F5F5
310
F5F500F5F5F5F500F5F5F5F5F5F500F5F5F5F500F5F5F5F5F5F5000000000000000000000000F5000000000000F5F50000000000000000000000000000000000000000000000000000000000000000000000000000000000000000000000000000000000000000F50000000000000000000000000000000000000000000000
310
000000000000000000000000000000000000000000000000000000000000000000000000000000000000000000000000000000000000000000000000000000000000000000000000000000000000000000000000000000000000000000F5F5F5F500F5F5F5F500F5F5F5F5F5F500F5F5F5F500F5F5F5F500F5F5F5F5F5F500
310
F5F5F5F500F5F5F5F500F5F5F5F5F5F500F5F5F5F500F5F5F5F5F5F5000000000000000000000000F5000000000000F5F50000000000000000000000000000000000000000000000000000000000000000000000000000000000000000000000000000000000000000F5000000000000000000000000000000000000000000
310
0000000000000000000000000000000000000000000000000000000000000000000000000000000000000000000000000000000000000000000000000000000000000000000000000000000000000000000000000000000000000000000000F5F5F5F500F5F5F5F500F5F5F5F5F5F500F5F5F5F500F5F5F5F500F5F5F5F5F5
310
F500F5F5F5F500F5F5F5F500F5F5F5F5F5F500F5F5F5F500F5F5F5F5F5F5000000000000000000000000F5000000000000F5F50000000000000000000000000000000000000000000000000000000000000000000000000000000000000000000000000000000000000000F500000000000000000000000000000000000000
310
00000000000000000000000000000000000000000000000000000000000000000000000000000000000000000000000000000000000000000000000000000000000000000000000000000000000000000000000000000000000000000000000000F5F5F5F500F5F5F5F500F5F5F5F5F5F500F5F5F5F500F5F5F5F500F5F5F5
310
F5F5F500F5F5F5F500F5F5F5F500F5F5F5F5F5F500F5F5F5F500F5F5F5F5F5F5000000000000000000000000F5000000000000F5F50000000000000000000000000000000000000000000000000000000000000000000000000000000000000000000000000000000000000000F50000000000000000000000000000000000
310
000000000000000000000000000000000000000000000000000000000000000000000000000000000000000000000000000000000000000000000000000000000000000000000000000000000000000000000000000000000000000000000000000000F5F5F5F500F5F5F5F500F5F5F5F5F5F500F5F5F5F500F5F5F5F500F5
310
F5F5F5F5F500F5F5F5F500F5F5F5F500F5F5F5F5F5F500F5F5F5F500F5F5F5F5F5F5000000000000000000000000F5000000000000F5F50000000000000000000000000000000000000000000000000000000000000000000000000000000000000000000000000000000000000000F5000000000000000000000000000000
310
0000000000000000000000000000000000000000000000000000000000000000000000000000000000000000000000000000000000000000000000000000000000000000000000000000000000000000000000000000000000000000000000000000000000F5F5F5F500F5F5F5F500F5F5F5F5F5F500F5F5F5F500F5F5F5F5
310
00F5F5F5F5F5F500F5F5F5F500F5F5F5F500F5F5F5F5F5F500F5F5F5F500F5F5F5F5F5F5000000000000000000000000F5000000000000F5F50000000000000000000000000000000000000000000000000000000000000000000000000000000000000000000000000000000000000000F500000000000000000000000000
310
00000000000000000000000000000000000000000000000000000000000000000000000000000000000000000000000000000000000000000000000000000000000000000000000000000000000000000000000000000000000000000000000000000000000000F5F5F5F500F5F5F5F500F5F5F5F5F5F500F5F5F5F500F5F5
310
F5F500F5F5F5F5F5F500F5F5F5F500F5F5F5F500F5F5F5F5F5F500F5F5F5F500F5F5F5F5F5F5000000000000000000000000F5000000000000F5F50000000000000000000000000000000000000000000000000000000000000000000000000000000000000000000000000000000000000000F50000000000000000000000
310
00000000000000000000000000000000000000000000000000000000000000000000000000000000000000000000
  0
XRECORD
  5
515
102
{ACAD_REACTORS
330
514
102
}
330
514
100
AcDbXrecord
280
     1
 70
     1
 90
-1625056298
 71
     1
  1
F07682C9-3C95-4432-A75A-C8950725C7D2
311
504B03041400060808001473D846258B9C57DA000000200100004F00000039393636413538382D363236332D343736352D423736452D3230423431383944333732422F4173736574446174612F446566696E6974696F6E4974657261746F7250726F706572746965732E62696E454E3D6FC23010753BB4EAD0817F80D85D27
311
C68DD308A8425D9860A153177438078DE424284EA48E1DFBAF8B4F0571D2BB779FEFEE9731F677B610B29B809FE01F032FB1C6B6B41BFB8515B03BAAB86607EEFEDABB0D21A506F7D0BB8EB656A5B7E81CD4D8F47E701D1D56D00539704FB4F4107029785238FC1FA3FBEB007A89188A63F60ADE633715FBDDB7984BA5F57C
311
61B8D1A9E66A91A73C1F8F0D4F74FC265FF2C4BCA746B4E89BBEB5E88514D1F6ACBC3DD687B2984DBAB2C2610D154E47B6C5F053319AC9287EE651C2A5FA88552655A6E2CF89A0C913504B03041400060808001473D846AEF44FC0FF000000300200004500000039393636413538382D363236332D343736352D423736452D
311
3230423431383944333732422F4173736574446174612F496E7374616E636550726F706572746965732E62696EEB606060F80F0540260323103700495E20ED9E9A975A94991C9C9C919A9BA8021470333037B33072B6D43576B634D535313136D275343775D475B6B0343530373275367731624768046931363471713532B5
311
D435052AD735313332D475727372D13534373670367376B67474B5042A03DBCBA019D37FE8ABC6157B20CD04146B0062181F4C03F940F0C11EA29A8141C08141002C0426541C106CAC2CA046088033B02A030AC2157C6006F21A8018AAF50194E6010A610250382264E08660284CD9E98021862280A91564B406929A0FF62C
311
401E28B6F88038B83CB1243943D7A928312F2535052403520FA4E000C4E7807805AC4B172AC30D5781CAC0A51F00504B03041400060808001473D84628BB58AF800100009E0500003D00000039393636413538382D363236332D343736352D423736452D3230423431383944333732422F536368656D61732F436F6D6D6F6E
311
536368656D612E786D6CBD544D4FC23018BEFB2B96DE15493C78601010A34B880709DEDFB52FD0D8B54BD70DF6EFED3AC0B12E6442E2716BFB3CEFF3D18E26FB440405EA8C2B1992E1C323095052C5B8DC842437EBFB673219DF8DA659866649B798C078B48AE6410122242F2A4994AC7F93815DF85C049C8564CA0A901499
311
DD886B2EB9B1E02448F358701A9235880C49A0119892A20C89D1B9FD768815CAD268CB5E0355B40B1E47F3E37A2020464BED06AA57CE8FCC20C3C3446D46761A2632A8C1283D07031EFF2AE7CCB1BFEEE916E406DFAC8E36FFD99A9D60A6944090EEDC3B670C7DC13DE86B6B2C5C240D6E503BB85ACD579D513F1B9F9A69DC
311
9CC22AFA80C426D40AF0B21EA168559156B6276F0F726A6BFF04DCD513A87A62CAD41FB24FCB2858B3952E3D852084DA25B9303C15687973CC8E8AAE11DF2836C38C6A9E765E8C1BA1BFB1DC29CDFE518C8B5A7655A4ED7E77291ABEB80DBD82EC866ADE1B8D05AF9E35CF09D7A061F38A986D9EC412B8F0F65E5D81534D9B
311
231D1E5A8FE577A241F3A5FD01504B03041400060808001473D8462CCEBD668A040000E01200003E00000039393636413538382D363236332D343736352D423736452D3230423431383944333732422F536368656D61732F47656E65726963536368656D612E786D6CD5586D6FDB380CFE7EBF42F0F7A649B70E1B90744856
311
B4970F450FCD7A5F05459613EDE4174872DADCAF3F522F8ED3B88D2F1D06AC4050DBA2493EE4438AF2F8EB73AEC8466823CB62928C06C384888297A92C5693A4B6D9D9E7E4EBD51FE3A931C22EF85AE4EC6AFC38BF261BA626C9AD288496DC3F4FCEAFC63366845F7A10452AF41DB320C0D44EC26EAB209187355655826956
311
70811A6A49643A49A6E9069FA4604A64B29016DC4B48552F95E4932463CA888468C1D2B250DB4962750DF7CE273069CE8363F1FF4EDB00E0A21999574AE4A2B00C353B93F3BD4777B8A61ED8F604ABFEDD79CE56A2B7BDFBDBC50996E0ADDE16FED26223C5D30956C29BDF4A55EA686E5E58B112DA45CE67F76F4FA27EFA3F
311
B672FD7372FC388FAECDCA5209E693CAD167BADCD272F943701B3812F8A3D852008B1D2E32DB927B2F833C6EA95879925356D254582695095A3CE982924720BE5774A3CB9CDCDB350427D2DF20DA1B5532EBE2D5D6288D75D4F7E4FD9890A0EF8E3D93EBB8F8BA4758158EF6FB90A6F9520281C93DE7AAC6D24607DA296BB9
311
6018123F821A7D6A5C5884050C475DA4865442732C8B95684A50165CBB3A32F25F783A4A480ED59AD7F924B968AEA50131F46303223E6A397B0E52976030DC1DCA81D7E7C1EDEEA42C19FF27635C505E2BD5198A599020DF50A2330FCB3AAF28CB0124108429553EF1B228802E2265D8F7CC2401042B155BCC7070F1E5C55F
311
13B4A9577362CCCE46C32174E010C3C378C44841A4BDA00FE3A12006CE11EE6AEC59894D3526DDE1CD59D503ECC324017F8061B7F162162FA62EDD81AE3308617770796DCBDAD2B2625C5AE8A63DE20B2C8AA5E95E76E5730823955956E33E705425A2187C185D36489A1B44D3DCEC2172F6BA2105C3546287A7194B233176
311
8EBBE64F6E70A9930ABE0ADEA89E9E2C38523B810287AD67A54A039C1606EAFE68F8304610BB9093DBDDABC0B2AE4E290DCDA15376D7E39F72B556F0B32EAB5D3D498B4C41ABADEC3A1434C422D87E8025A84BDCB2B1417ED750FAE4DA8976863974C577C7F902D3F156AD354DEA3540DE6BEAE2BEA52F7A2EB4CA43802ECE
311
5BF2CE2EDC9347179FFB023CE412E60BE16DA0BE29B374988A553F561DC04615DD35F7D2C8979F60E5955CE93DF29DED8AFA1EE6642D53418086C03C47C377910F75F7E8F5EF665F70B60FFB22AEDF897D119E8423C773E819A3C1E55E550599EE6EDCA34D0C86FD72057DF2CD46F16A470682471C164E4346D5306BF12D7D
311
12D82CFF673D41636C347443FEB51B50D72EA171A8E4A58623A4A16E0FA2B8B10A0D23268D87C33896EE8FB73305A74BF224EDBADFA0BD674AB354D63DB7BD5D83426761C077DE767728235446A552754EB93B755891C3C4CC6CADE37CF0E912A7BB38DBA010F9DE1282EDF470CA69A9CDA482E334C4A6EA4107987980B17E
311
72F31730EBF88BBD39E7C629F56797A3C0009C2C5AE7951D9A05A02773440F02EEB4DE396A3B6A570C72CCFBCD823B0B8ED3F1D5CEDDFED772FA70236C83FB7D86C385D570B87107535572A60A96035F8F7C6A7192F13007246BBE0521855E6AC46F3E27689CEE7D186A6FD679D98CDCAD13333E04EBE7ED6F55FF01504B03
311
041400060808001473D8466180134D5F0100006B0300004500000039393636413538382D363236332D343736352D423736452D3230423431383944333732422F536368656D61732F52656E6465724D6174657269616C536368656D612E786D6CA5934D6FC2300C86EFFB1551EEE343DBA41D1A103009551ADAD40EAE28A4A6
311
8D9426284961FCFBE5A340113B2071746D3F765EBF4DC6BFB5407BD0862B49F0B037C0082453059725C18DDD3EBFE3F1E829991803366715D474942CD30FB4A782E00C64017A412D684E454CE3FE28995203B162A6EA5AC94B66997D225E109CD63B0135484BAD1B3C07E9080CA35DB3119C11BCA5C200461A68A1A438126C
311
75E3E230D40FF81FB3F03C91D1E3A3A0AF79FE28E25BC39EC3E17E4C2A2D94A0833A51AF55BCCA7D88572FCBAC529C4140B020FC3AAFA886621DCED7EAD7664CC86024E806DC297DA1BB393E4156543457A4537DB8817349A70F8ACBF09B3EEE2CB2F33E91B65D60786E4E3B39B77E3FEEEF5650424525DA657FB8B46BE6BF
311
064646F0A0F7327C0BC1BC1B4CBBC1C419FA3CCB23500007872A2580CAAE5461865565294E4EDB4617B62FF579DF9A5B2F54E834076A597573A020912FED777F9B3F504B03041400060808001473D84685F0870451000000570000004700000039393636413538382D363236332D343736352D423736452D32304234313839
311
44333732422F4173736574446174612F41737365745461626C654F66436F6E74656E74732E62696E5361606070333037B33072B6D43576B634D535313136D275343775D475B6B03435303732753677311202AACB4D2C492DCA4CCC492C28484D2C4ACC4B4E050A82012F90744FCD03CA26072767A4E6260200504B03041400
311
060808001473D846F865834058000000680000004500000039393636413538382D363236332D343736352D423736452D3230423431383944333732422F4173736574446174612F53747265616D56657273696F6E5461626C652E696E66558CBD0A80300C06F73E4B117FB66E451741D041DC5BF98480A492E4FDD18EAEC7DD
311
4555D89EF28DF51A0B1BD8340C4DE7DD848B988C0ACF0649566493F2408C508DDEBB99D5129FF8F1AF8CF5B9503E20FAE5A16B5AF702504B03041400060808001473D846D775B5C8340100009A0400003600000039393636413538382D363236332D343736352D423736452D3230423431383944333732422F417373657444
311
6174612F636E782E786D6CCD94314FC3301085FF4AE43D761205842AC71582A51348540C6C57E752AC3A76645F10FC7BEC3603A888A943D7F3BBF3F327BF93EBCFD1161F18A2F1AE6335AF58814EFBDEB87DC7661ACA3B56AC950CDED30F192B1C8CD8B15C664AEE839FA7A5D4E300B3CD556BDC6129DEC788B4859DC5A7E1
311
C13B42479115DA428C1D8BFA1D47E03093EF311E780F04BCE601A39F83C63489CC88CB241D10087BA69AAABE29ABDBB269B775BB6ADA555BBF4991954AEEBCB78BDEA4CB829F0A7DBA95A94A8A7CACE41CCCA2C96F61EA2F8F7C679C1449A964A490982C1DF435A50E98266B34504227BC26A432891046294E62254566F08B
311
C4230EC699DCB249C6807C784EF63090C1AB23F29FD7CB93D9B848E0345E2F8F738797A7F072FC41AFA7401E13736D393977C88D1B2E9012715C23293479ABA86F504B03041400060808001473D84666010AF7080100004F0300003400000039393636413538382D363236332D343736352D423736452D3230423431383944
311
333732422F536368656D61732F636E782E786D6CCD93314F04211484FF0AA15FD8DDACC65C58AEB0B0B2512B3B84772739E06D8035FAEF8595E22EB1D3E23A18BE9099E121F69FDE910F88C96298E9C07A4A206834361C67BAE6437747C95E8A8898CF304A82F230D32A53298E11D7A549060E6A755575369C9A788FDE6378
311
D6EFE01525DAA994669AB62D536B4603E9C48CCA8A0D2C42C2356A283764EBA1DDA023A80C86CAB11F6EBAFEB61BA79761DA8DD36E1A5E05AFA4146F88AEF1366488B8108D65118A9D5EF07A2CC51A6D636A062ACFBDB1D286E0859022E5583A6864FE5A0AA996C559AD72A98A6FE00F2305AF512F023F408068F57526BE30
311
F76F919F2018888FE595A255EE3A93FFE6F16F05F06DF6CB08D4AF20BF01504B03041400060808001473D846410A3D5871000000A40000002C00000039393636413538382D363236332D343736352D423736452D3230423431383944333732422F636E782E786D6C55CC4D0E82301086E1AB34B31774E7A22D31F1069E6002
311
0334B633A63FC6E34B0909B07DDE2F9FEE7EC1AB2FC5E4840DDC9A2B28E25E06C7938192C7CB1D54677514C9871928C640062A83D55394F2D968A0118BAFEA1DBF377CA444F98919176EAB9FEAAB9F2960DA5BBB1E2ED3FA6FFF504B03041400060808001473D8465619E8887E000000A300000007000000636E782E786D6C
311
4D8CDF0AC2201C465F457EF7D6E636FF803A927A90D1DC909C86CDE8F1D3D845571F1CBE73E4F8D93C7ADBF4723128684F0D201BEE7176615590F7057340A39629C6FDEF06284C9B55503168B9A6989F079AED32655FA977E171402128BD0C9C634A68877B46076C18BD61D298BEE5E2DA31628A71AE4A995FAF6CCDEB2F50
311
4B03041400060808001473D84616E99B5DA600000035010000130000005B436F6E74656E745F54797065735D2E786D6C9590410E82301045AFD2740F4517C6180A0BF5065E60AC53688469D30E066F6F91AD9AB89CF9FFFD3F99BA9DC7413C3026E749CB4D59498164FCCD51A7E5C4B6D84BD136F5E5193089ECA5A465CF1C
311
0E4A25D3E308A9F401292BD6C711388FB15301CC1D3A54DBAADA29E38991B8E0254336F5092D4C038BF39CD76B6FC6A538AEBEA54A4B08617006389FA516557DE4AE8E7E70DE30729138228C5F021CD93F02D4FB0DCD0B504B03041400060808001473D8463DEE336E64000000790000001B0000006175746F6465736B2D64
311
657369676E2D7061636B6167652E786D6C35CBC10E83200C00D05F21DCA56CA76D41FC96062B120735B69A7DBE268BB7777961F8D5AF396893C2ADB70FE7ADA196782C2DF776D7A97B5933C430F15651E5469C55D70F80A4992A3ADC954792C525AE70A1E4D6AD9816CC044FEFDF01FE3FDE907802504B0304140006080800
311
1473D846AA7FF34CF8000000960100003700000039393636413538382D363236332D343736352D423736452D3230423431383944333732422F4173736574446174612F636F72652E786D6C8550CB6E833010FC15B47703360E94C838A2A2FD829E7AB38C43AD041BF951F5F36B072AB5A79E76353B33BB3BECF2B5DE8B4FE5
311
BCB666005CD6502823EDACCD32400C57F404C58533676DF84583C288550D9061E06C71366E0724AD09CA64D4D8591DA0F05E0528E43D350378F9A156518A1812C3DFCA4DC89B585489CB9DC7598C7A3EA47A4E6EFAAA9503DEF71D1D9BAE43CD384E88B6F884FAF6441179EE297939BDE2A9695895C59C05BDFE6C974E89A0
311
66E0A44E8ABA4584BE617A26F44CF13BAB3293331F5CFAF9589ABF033EE6AB271104ABF6E91FD7B8CDFFBB466D42430ED75DE181E374E463C05995534AE51161AA3951FE0D504B03041400060808001473D846AF04F8C4F7000000940100003500000039393636413538382D363236332D343736352D423736452D32304234
311
31383944333732422F536368656D61732F636F72652E786D6C8550CB6EC32010FC156BEF7E80B15D4798C855DA1F684FBD21200E4A0C9681AA9F5FB05DA93DF5B4ABD999D9DDA1E7AFF9917DAAD5696B064045059932C24A6DA60182BFE64F909D195DADF5BF6890193EAB01120C8C4EAB0DCB01096BBC32093556AA03E4CE
311
290F9978C46600276E6AE6050F3E32DCBD58B8B8F34915A8D8798C86A0E521D532BAE9AB562BB0BEEFC858775D5E8FE325272D6AF2BE6D488E9F7B825F9A5774A96B5A2631A35ECF3FDBC5AAB8571218AEA2A26A734CDE1139617222E8839689C9A8F36BFCF9589ABE03F6B6DDE968B9CFFE788645FEEF19B4F1353E3C7785
311
0386E289DB80D1326514CB1660AC294FF60D504B03041400060808001473D84640EA056400010000D70100002D00000039393636413538382D363236332D343736352D423736452D3230423431383944333732422F636F72652E786D6C9591C16E842010865FC5CC1D1554D40DB2A969DFA0A7DEA8CCBA645730824D1FBF58
311
6DDADEDA13E4E7FB67F867C4F97DBA276FB878E36C0734CD21413B386DECD8C11A2EA481E42CC5E25CF8814162D5841D6C3248312E6E9D0F697036A0DD54EB341EA2F21E0324C33D5E3AF0C3152795AA3544C2DFD2590D3735624AD39D932298E9CB3A2CA8026A902CA715C93961E5332D4FAC3C95F445641B29C56A6C28D8
311
D10CA757D4899B438C04B212D9FE1AA9D5E883313AFED15C0C2E20DB96F387AA690867BC2065CD2BD2D7FC89B0BC2F69D33E1635EB63916896C287254EE628B2CDE0AFF6DDF82BD93AEB7F26DB1D1E24FD0E956D639622FBDC413CB795C80F504B03041400060808001473D84639F25D4A06010000B201000008000000636F
311
72652E786D6C8D504B6EC32010BD0A9ABD3F606CD711267295F6045D75470D71506CB00047EDED0B892BB5BBAE06BD793F861D3F9719DD94F3DA9A1E705E025266B4529BA9872D9CB3274047CE9CB5E1170D90118BEA21C1C0D9E4ECB6EED0684D5026A1C64AB583C27B15008D737CF4E0C78B5A442EB61019FE9AAF62BC8A
311
49E5387FF0380B7AF9918E4E89A0247052E23A2B9B8CD0374C0F841E287E67456272B66D5AEE515AC6747DD6CA01EFBA960E55DB66D5309C32DA4483AEA969469E3B4A5EEA577CAA2A562431673EB8F8E7DD24F60CC88B5BCA65C563C5D987B5F34E88A524B266FE025EB2222DFE94DE56F98FD2DA848AEC860F85078E63A1
311
FB2206A70BC6713F6F9CE9DAFC1B504B010214001400060808001473D846258B9C57DA000000200100004F000000000000000000000000000000000039393636413538382D363236332D343736352D423736452D3230423431383944333732422F4173736574446174612F446566696E6974696F6E4974657261746F725072
311
6F706572746965732E62696E504B010214001400060808001473D846AEF44FC0FF0000003002000045000000000000000000000000004701000039393636413538382D363236332D343736352D423736452D3230423431383944333732422F4173736574446174612F496E7374616E636550726F706572746965732E62696E
311
504B010214001400060808001473D84628BB58AF800100009E0500003D00000000000000000000000000A902000039393636413538382D363236332D343736352D423736452D3230423431383944333732422F536368656D61732F436F6D6D6F6E536368656D612E786D6C504B010214001400060808001473D8462CCEBD66
311
8A040000E01200003E000000000000000000000000008404000039393636413538382D363236332D343736352D423736452D3230423431383944333732422F536368656D61732F47656E65726963536368656D612E786D6C504B010214001400060808001473D8466180134D5F0100006B0300004500000000000000000000
311
0000006A09000039393636413538382D363236332D343736352D423736452D3230423431383944333732422F536368656D61732F52656E6465724D6174657269616C536368656D612E786D6C504B010214001400060808001473D84685F08704510000005700000047000000000000000000000000002C0B00003939363641
311
3538382D363236332D343736352D423736452D3230423431383944333732422F4173736574446174612F41737365745461626C654F66436F6E74656E74732E62696E504B010214001400060808001473D846F865834058000000680000004500000000000000000000000000E20B000039393636413538382D363236332D34
311
3736352D423736452D3230423431383944333732422F4173736574446174612F53747265616D56657273696F6E5461626C652E696E66504B010214001400060808001473D846D775B5C8340100009A04000036000000000000000000000000009D0C000039393636413538382D363236332D343736352D423736452D323042
311
3431383944333732422F4173736574446174612F636E782E786D6C504B010214001400060808001473D84666010AF7080100004F0300003400000000000000000000000000250E000039393636413538382D363236332D343736352D423736452D3230423431383944333732422F536368656D61732F636E782E786D6C504B
311
010214001400060808001473D846410A3D5871000000A40000002C000000000000000000000000007F0F000039393636413538382D363236332D343736352D423736452D3230423431383944333732422F636E782E786D6C504B010214001400060808001473D8465619E8887E000000A30000000700000000000000000000
311
0000003A100000636E782E786D6C504B010214001400060808001473D84616E99B5DA6000000350100001300000000000000000000000000DD1000005B436F6E74656E745F54797065735D2E786D6C504B010214001400060808001473D8463DEE336E64000000790000001B00000000000000000000000000B41100006175
311
746F6465736B2D64657369676E2D7061636B6167652E786D6C504B010214001400060808001473D846AA7FF34CF80000009601000037000000000000000000000000005112000039393636413538382D363236332D343736352D423736452D3230423431383944333732422F4173736574446174612F636F72652E786D6C50
311
4B010214001400060808001473D846AF04F8C4F70000009401000035000000000000000000000000009E13000039393636413538382D363236332D343736352D423736452D3230423431383944333732422F536368656D61732F636F72652E786D6C504B010214001400060808001473D84640EA056400010000D70100002D
311
00000000000000000000000000E814000039393636413538382D363236332D343736352D423736452D3230423431383944333732422F636F72652E786D6C504B010214001400060808001473D84639F25D4A06010000B2010000080000000000000000000000000033160000636F72652E786D6C504B050600000000110011
311
005A0600005F1700000000
310
504B03041400060808001473D846000000000000000000000000370000006662782F45464243463435452D433535352D343136462D393534342D3838383930323039333742452F617474726962757465732E62696E504B03041400060808001473D846000000000000000000000000350000006662782F4546424346343545
310
2D433535352D343136462D393534342D3838383930323039333742452F76657274696365732E62696E504B03041400060808001473D846F270F1330600000004000000360000006662782F45464243463435452D433535352D343136462D393534342D3838383930323039333742452F747269616E676C65732E62696E6366
310
60600000504B03041400060808001473D84651464CB48900000043010000360000006662782F45464243463435452D433535352D343136462D393534342D3838383930323039333742452F6469726563746F72792E786D6C9D8F310EC2300C45AF127987122606C71DD918B841D4B851A43646695A717C52A85029031293A5
310
A76FBF6FACEF7DA7264E43906840EF0FA03836E242F406C6DCEE4EA06AC22492573150D1F66C60C640E8938CB705396EEDD86DE9B5042FE27813D640EA63BB001C722AF6E55CB61E4863F58284D5D3F53DD715CE1C3985E63FD7F1B7EBDD617E9F1E504B03041400060808001473D84609DDB0443D070000201C0000340000
310
006662782F45464243463435452D433535352D343136462D393534342D3838383930323039333742452F6F626A656374732E786D6CDD59596FDB3810FE2B84F665F741976F178E0BC76E02A3485BD4E862DF045AA61D6EA803949438FBEB774891B2A8C88ED203586C02C40E450E67BEB947B3F7C788A147C2339AC45796EF
310
7816227198EC687CB8B28A7C6F4F2CF47E8E663C49F2DA3E0BC53822579658B6E6B3034F8A542DEDC81E17ACB97A73FD17CA4212130B850C67D9959585F724C20E2EF26447B207678773EC1CF647C777CA8D26D903C7E97DE3AA147312E7C02AACC7404571E09BFF8248EE7CE68A0DC6B67EB76DBD0BDB5C29B8C9288DB31C
310
C7E10BAE1AD7F5CE70D5B8AEEF0F561F7AC3A93D1C0CFAF660D4F3EDEB9BEB95ED8FFBDE72B45C4E171FA6169ACFB649C22A05A424DE81169FADB93F73C5934A7C85421BDF6112C7245468B66DD811459792AC898901AC2F45AB29A494B5B6D0EF28FC996D9D40315832D0D6C2E9CFBAF526DBBF0184AC8B95F28C082BCF72
310
0EBA56D897FEE0CDDC72D5D00BCD508473C2296688D12DC71C14045B4B05196484B70852486026B5A8E9D57905C37EDD97DAB8DC178C09FFB5E6D2D302F04792679233FA0FE127EEEBB7014F206D41E37CA284CD9F5320319DB972B17CD6EFA987259068CFF001AC05C4149BFABD065E4B110BD62B6BFEF1667BDC88F8D07E
310
79CA9394F05C589E7466E5775A8335D302E3EB004A89ABA9BB132A5F01FA4F807CC50B9A81E6383D0E8E032D3BC771B64F7804DA411EB23DF8E321F1F5C5B7995B1D9E2364C4CA739882DBFE244C0D318CBB6B90CE678F60F409EF2BE136216660D37734167E0E868258024B10EFF7DBA3355F43308545388519480FBF3357
310
7C45F051D28178D3D0505BF8EDA028ED304D3F3BE9EA166C86D3B0529521E3397C873F05DFC56AF37153F03D0EC99D72EC15D9D398E6904CDB193240375CFEDBFA93F4C85B966C313B9D36368570CD211171A3452D1BA51624F5029C88345C6A46AEDC51F076C6704C922253EB6D712A4C58C283ED7350BA70EB5D7F6A1B28
310
2F5306D01ACB20B9879CA602136BAEB4550542A726285818E6CA020FA556836D11A5018E922216A1F6A52936F98038232C11A84A6ADAB0B5D76AB23BBADF171904AF56924B0348E5CF9A7069E10388636DFC72B2E71892681207147230384BEB0DC60515789779CE08DB0794B1220AF694411E09229C9EA1DF51827AE67A20
310
CF4F09DFB512342D4BFBA4B62101B8025683A4B35519F3954E3979A4A2CC94F94C67036387AA43ADF9E04CBA1099A205506D8CD2CC6FBCF168D25B4EEDFE723AB4A16AEAD98BF170612F27D3A137EE0D97E355AFC9A78E56F57C07AA14658EE17FF97D116D634C193C1062E35DFAEEBDCC9E572E8446F7BA37188FAF6F56F6
310
6A3C19DB839BC5C45EF4FB2B7B34F697BDE962B4FA3059B99C6449C14392B93DD70BB449A6F1E11C579ABB973114CA9AD7939DD6575398FF710C6DE6044389FFD5205AC5AE9682B06B1015479B2114870F22450521547DADEED308A24D3EDAE2DC1BE3B2E7F43DF9E3FBD39E37ED4DA6A3CAD82F066A79CF0FC7B9360942E8
310
3B8B3C48521CD2BC3DA13670E918A7DF945B9CBE3F44804EF5B7BAE4729E51970434C20712ECB1E8125A02E36B12B4E6B0034BB28CC624935DDE8BEAAF41D373A09832736E8B11D22C88488EBFC7FE64DBD0B06988CD2C807E3417138157AB82CAA05507728EA2E87E21714BF99F830C47292B3BDDD730F0AB84A27B9C368B
310
134C8B2B1EC1DE029C07DE8EC8C1C56BD42BF6757DD0AAB526F5E977933F038FAE6B7E213CFA8AEEA59333F4A7E26702416534F4FBE3A62D9EC34A5F958B3E8E15D07986CFC113A187FB4E8566379DD44AB6B2A8CE49046D2CCE0BDEC95F4743EFC5452A2E341CA276D31B8B43D9BFE90E0ED0930DDCB9F2B6760DD4A13486
310
395727415E48D1AA16A90B39D313A3AB37F8F545C7A853FDE178F9CB2BE6BAF34572F8F33A0E502D970158451FA3A66EADBA8D7A287BC279088174233FED6BF0881DD99D1A33835C5B89AEEBD3D7AAE7B508A8114C6CB188B377E20BFB8A41D5D03D67EE6D59B4B9E5FA5A24360786D3273E0CA64D5A9F6F370D2AB0D2F9F4
310
178111796A5050AB4BD10D5F20F56D7DEAF91B149444DFD6178EFF273A0AADC0DA180DA6C159C2280CE5C90E1D4802D91BC60E1DBA0D1E914C6665305E15A4F41B810EA71FCB996A8EB74C9F0EEF310CA699EAC58A1086A29031AF2CB58E7E8331A89844CAE194F3006D988A61162A38BDB2C062730ADD96B38571961C1E4A
310
EA8D712538368E0F22DF97A7AAFF4FC7043A10954E72557BBAE0A224339C090ADB54BE2780AAAF7C309F7DBFE89A1D8473F8BA2DF24A98D3C2491A05827E21500A0753BF0705EF110A8ACB72F98EDC6340D269327FD10E4AAA768EF9418ED76B782F565F5C31195F7F46292B0E429D97BA5F83922DBA6E569453A819188612
310
33C5A2865CBE73BFF0045E3145E8868211A0DF8F93D11FEE3289A2242E97DC857A518536F7F0DA69E7EA911FB4F19E3F74E514408DF5832DCE888377D9032C806A3915B3D11262C300AA685A3300AD11A10B3866EC5FAF90AA8D6A13927AD815F0C8993E024712EF7284DBD437D40690E00BC0957C78FAA217662E8721F8FC
310
5F504B03041400060808001473D84618868CFB3E01000046050000300000006662782F45464243463435452D433535352D343136462D393534342D3838383930323039333742452F636E782E786D6CCD94414EC3301045AF12791F3B89024295E34A2C38010BC4CE71A6C134B1237B8CE8EDB18B5B40A88845A576678DFF48
310
FFCD7C0D5FBFCF53F106CE6B6B3A52D38A1460941DB4193B127053DE91622DB8B316BFC94861E40C1D496522F8E86C587269808D0C53AA4EDA6C7351223ADD07044F0A3549EF3BE2D50BCC92CA807600BFA58344496BEAC0DBE014C47ED433E47EE540220C4434557D5356B765D33ED6EDAA69576DFDCC59520ADE5B3B65BD
310
3608CE2E85B2F161A2998AB3F42D78703A6B1201115FCE68AF0D67F15F701FDD9A31EB70B724DDB24C5A498C636256216019452067CE3EC582B3C4FB83FAE1FEE9E0A018B40385D6ED2E3480FAD4008EC6684CC2FFF8F7C2BFB16DFF1A712FB5ED93B0D9D6D9500F69F531AEBFF71F5324CD385D5FE88FC6CE9FF9784A50AB
310
EB433EF83A1331DB9FBCB8F47401C507504B03041400060808001473D846485E60FC7E000000A30000000B0000006662782F636E782E786D6C4D8CD10AC22018465F45FE7BCB2D2D0575B0A1EF319A1BD2A661337AFC3476D1D50787EF1CD97DB615BD5D7AF91814342702C8857B9C7C5814E47DC61C50A7658A71FFBB010A
310
E3E614540C5A2E29E6E78126378F79AD74F5E1714063FBC15266F0C018C3B4B95A2C18A598732E484BC4E5D69B629CAB52E6D72B5BF3FA0B504B03041400060808001473D846A6D797065F0000008200000007000000636E782E786D6C4DCB3B0E80201045D1AD90E9FD7516806B51190811670C8A61F982B1B0BAC9C97B72
310
CA7B1037C6D3332918DA1E04D2CAC69353902EDB8C20262D23F3F59B81A079470595414B17391D1F19B4730A5583A7ED43BBE4025D9592775E5ADFFA01504B03041400060808001473D8464FEB6A7CA0000000F4000000130000005B436F6E74656E745F54797065735D2E786D6C7D8F4B0EC2300C44AF1279DFA6B0400835
310
ED02B8011730C16D239A8F121795DB93D02D6269CFBC19BBED573B8B17C564BC53B0AB1B10E4B47F18372A5878A88E20FAAEBDBD032591BD2E299898C349CAA427B2986A1FC86565F0D122E7318E32A07EE24872DF3407A9BD63725C71C980AEBDD080CBCCE2BAE6F5D69B7110E7CD57AA146008B3D1C8F92C5954F993BB1B
310
F787F39A89ABC491D09600F9FDA2FB00504B03041400060808001473D8463DEE336E64000000790000001B0000006175746F6465736B2D64657369676E2D7061636B6167652E786D6C35CBC10E83200C00D05F21DCA56CA76D41FC96062B120735B69A7DBE268BB7777961F8D5AF396893C2ADB70FE7ADA196782C2DF776D7
310
A97B5933C430F15651E5469C55D70F80A4992A3ADC954792C525AE70A1E4D6AD9816CC044FEFDF01FE3FDE907802504B03041400060808001473D8462FCEE449F9000000960100003B0000006662782F45464243463435452D433535352D343136462D393534342D3838383930323039333742452F7265736F75726365732F
310
636F72652E786D6C8550CB4EC33010FC9568EF4E62D749DACA7105A17C01276E96B32D561BBBF203F1F9D86D90E0C46957B333B3BB230E5FCBB5FA441F8CB323D0BA850AAD76B3B1E711523C912D540729BC73F1170D2AAB161CA1C020C5D9BB745B21ED6C445B50EB665C41150246A8F435372304FD818BAA558A99112EF5
310
4DE98B3A634DEB074F8A94CCBC4ACD9CDDCCC9A00739ED76AFD3763812B6D94C84F369224F47F64238A31D1B68DF3D0FBD688A588A68969FEDDAA38A3883642DED48DB13C6DF28DF33BEE7F45D34852945883EFFBC2E2DDF81F4185CF21A83681ED33FAEE936FFEF9A8C8D1BB6BA3E140124CD47DE07523425A55CEE11E65A
310
1295DF504B03041400060808001473D846AD87EAD9F2000000B1010000310000006662782F45464243463435452D433535352D343136462D393534342D3838383930323039333742452F636F72652E786D6C8D50CB6EC32010FC156BEFD8C681D48E309112D95FD0536F08131725068B47D5CF2FC4AED4DE725A343BC3CC0E
310
3B7F2F8FE24B39AFADE901973514CA483B6933F710C30DB5509C3973D6863F34288C58540F1906CE6667E3BA43D29AA04C468D9DD40E0AEF5580423ED2A3072F3FD5224A114362F87BB90A7917B32A71B9F1380B7AF9954AA7445013F0A6C614D547D490774C4E0D3911FCC1AACCE42C463DED567A4AEEFAA695033E8C97EB
310
48E880AE945244F071441D2504B56DDBD54DDD1DDE2E03ABB298331F5CBA79FF245FF7AA7C13FECB1CD7E985CCDA8443B31B6E0A0F1CA73CCF0567552E308D67BB69E6B2F90F504B03041400060808001473D846B19F352953010000DD0200000C0000006662782F636F72652E786D6C8D52DB6E842014FC15C33B2AAC7B0D
310
B269EDF60BFAD43716594B56C12098FDFC8297581FBA6D4C90CC3967E6CC04727E3475D40BD349AD7280E2144442715D4A55E5C0D91B3C80E84C89D1DAFE680391628DC84180012595D1AE9D20AE95152AA04A97620259D7090B225EFB4B0E3AFE251A1633677D47778F5BC6EFAC12318AC73E4A9C93E5342A4BCF266F5218
310
408BE3F1BD38EC2F106F3605CCB2A2802F17FC06338CB6788F76DBD7FD8E246198122B9B599D1BC1AC2801C529DAC2740771F681B213CE4E19FA2449E8A4A4B3C67B9E44833B406FD70749467CC5E7DAF26F3E2795DDE0896F9CE800457EBDA1404912F2F1BF21BC75865ED8E767D9B59E2DDC3DD40B6EB5C97CA5D46E29F5
310
AC76C253A7D1F09164AC7AE681E0371EFC84E739870F8AA9CAAFC6ACBF5E9D0DEAEB9D5A61606F1F91D2A661F5B2DCB8E2722E422B4BF338D7B536FF999EADCE6126E161D26F504B03041400060808001473D846CC024F3908010000B201000008000000636F72652E786D6C8D50C172832014FC15E6DD5141D42483645A9B
310
7E414FBD5121868982239869FFBE90D899F6D6D36376F7BD5D961F3FA711DDF4E28DB32D90AC00A46DEF94B1430B6B38E31DA0A3E08B73E1970C9095936E21C120F8B0B875DEA0DED9A06D42AD537A03A5F73A00EAC7F868C1F7173DC94CAE212AFC359B657F9583CE48F6D0091ECCF4B3DA2F5A06AD40D08254B8A831656F
310
841D283B30F2CEF3A4147C5D8DDAAC8C8AEEE66CF402A2DBEF5FBB5D73C2B42C3BCC58D7E1A7137DC18C928A36A4AE9E9B9AE76959701F96F8E7ED48CC199097B7E4CBF30725F88773E32688A1147276FC0251F03C117F42AFB3FA4768634349B7838F0D0F82C44077221AA706E3B8D71B676A5B7C03504B01021400140006
310
0808001473D8460000000000000000000000003700000000000000000000000000000000006662782F45464243463435452D433535352D343136462D393534342D3838383930323039333742452F617474726962757465732E62696E504B010214001400060808001473D84600000000000000000000000035000000000000
310
00000000000000550000006662782F45464243463435452D433535352D343136462D393534342D3838383930323039333742452F76657274696365732E62696E504B010214001400060808001473D846F270F13306000000040000003600000000000000000000000000A80000006662782F45464243463435452D43353535
310
2D343136462D393534342D3838383930323039333742452F747269616E676C65732E62696E504B010214001400060808001473D84651464CB489000000430100003600000000000000000000000000020100006662782F45464243463435452D433535352D343136462D393534342D3838383930323039333742452F646972
310
6563746F72792E786D6C504B010214001400060808001473D84609DDB0443D070000201C00003400000000000000000000000000DF0100006662782F45464243463435452D433535352D343136462D393534342D3838383930323039333742452F6F626A656374732E786D6C504B010214001400060808001473D84618868C
310
FB3E0100004605000030000000000000000000000000006E0900006662782F45464243463435452D433535352D343136462D393534342D3838383930323039333742452F636E782E786D6C504B010214001400060808001473D846485E60FC7E000000A30000000B00000000000000000000000000FA0A00006662782F636E
310
782E786D6C504B010214001400060808001473D846A6D797065F000000820000000700000000000000000000000000A10B0000636E782E786D6C504B010214001400060808001473D8464FEB6A7CA0000000F40000001300000000000000000000000000250C00005B436F6E74656E745F54797065735D2E786D6C504B0102
310
14001400060808001473D8463DEE336E64000000790000001B00000000000000000000000000F60C00006175746F6465736B2D64657369676E2D7061636B6167652E786D6C504B010214001400060808001473D8462FCEE449F9000000960100003B00000000000000000000000000930D00006662782F4546424346343545
310
2D433535352D343136462D393534342D3838383930323039333742452F7265736F75726365732F636F72652E786D6C504B010214001400060808001473D846AD87EAD9F2000000B10100003100000000000000000000000000E50E00006662782F45464243463435452D433535352D343136462D393534342D383838393032
310
3039333742452F636F72652E786D6C504B010214001400060808001473D846B19F352953010000DD0200000C00000000000000000000000000261000006662782F636F72652E786D6C504B010214001400060808001473D846CC024F3908010000B20100000800000000000000000000000000A3110000636F72652E786D6C
310
504B0506000000000E000E0080040000D11200000000
  0
XRECORD
  5
65B9
102
{ACAD_REACTORS
330
65B8
102
}
330
65B8
100
AcDbXrecord
280
     1
102
DISPLAYNAME
  1
Imperial24
102
FLAGS
 90
        0
  0
CELLSTYLEMAP
  5
661C
102
{ACAD_REACTORS
330
661A
102
}
330
661A
100
AcDbCellStyleMap
 90
        3
300
CELLSTYLE
  1
TABLEFORMAT_BEGIN
 90
        5
170
     1
 91
        0
 92
    32768
 62
   257
 93
        1
300
CONTENTFORMAT
  1
CONTENTFORMAT_BEGIN
 90
        0
 91
        0
 92
      512
 93
        0
300

 40
0.0
140
1.0
 94
        5
 62
     0
340
11
144
0.25
309
CONTENTFORMAT_END
171
     0
 94
        6
 95
        1
302
GRIDFORMAT
  1
GRIDFORMAT_BEGIN
 90
        0
 91
        1
 62
     0
 92
       -2
340
0
 93
        0
 40
0.045
309
GRIDFORMAT_END
 95
        2
302
GRIDFORMAT
  1
GRIDFORMAT_BEGIN
 90
        0
 91
        1
 62
     0
 92
       -2
340
0
 93
        0
 40
0.045
309
GRIDFORMAT_END
 95
        4
302
GRIDFORMAT
  1
GRIDFORMAT_BEGIN
 90
        0
 91
        1
 62
     0
 92
       -2
340
0
 93
        0
 40
0.045
309
GRIDFORMAT_END
 95
        8
302
GRIDFORMAT
  1
GRIDFORMAT_BEGIN
 90
        0
 91
        1
 62
     0
 92
       -2
340
0
 93
        0
 40
0.045
309
GRIDFORMAT_END
 95
       16
302
GRIDFORMAT
  1
GRIDFORMAT_BEGIN
 90
        0
 91
        1
 62
     0
 92
       -2
340
0
 93
        0
 40
0.045
309
GRIDFORMAT_END
 95
       32
302
GRIDFORMAT
  1
GRIDFORMAT_BEGIN
 90
        0
 91
        1
 62
     0
 92
       -2
340
0
 93
        0
 40
0.045
309
GRIDFORMAT_END
309
TABLEFORMAT_END
  1
CELLSTYLE_BEGIN
 90
        1
 91
        1
300
_TITLE
309
CELLSTYLE_END
300
CELLSTYLE
  1
TABLEFORMAT_BEGIN
 90
        5
170
     1
 91
        0
 92
        0
 62
   257
 93
        1
300
CONTENTFORMAT
  1
CONTENTFORMAT_BEGIN
 90
        0
 91
        0
 92
      512
 93
        0
300

 40
0.0
140
1.0
 94
        5
 62
     0
340
11
144
0.18
309
CONTENTFORMAT_END
171
     0
 94
        6
 95
        1
302
GRIDFORMAT
  1
GRIDFORMAT_BEGIN
 90
        0
 91
        1
 62
     0
 92
       -2
340
0
 93
        0
 40
0.045
309
GRIDFORMAT_END
 95
        2
302
GRIDFORMAT
  1
GRIDFORMAT_BEGIN
 90
        0
 91
        1
 62
     0
 92
       -2
340
0
 93
        0
 40
0.045
309
GRIDFORMAT_END
 95
        4
302
GRIDFORMAT
  1
GRIDFORMAT_BEGIN
 90
        0
 91
        1
 62
     0
 92
       -2
340
0
 93
        0
 40
0.045
309
GRIDFORMAT_END
 95
        8
302
GRIDFORMAT
  1
GRIDFORMAT_BEGIN
 90
        0
 91
        1
 62
     0
 92
       -2
340
0
 93
        0
 40
0.045
309
GRIDFORMAT_END
 95
       16
302
GRIDFORMAT
  1
GRIDFORMAT_BEGIN
 90
        0
 91
        1
 62
     0
 92
       -2
340
0
 93
        0
 40
0.045
309
GRIDFORMAT_END
 95
       32
302
GRIDFORMAT
  1
GRIDFORMAT_BEGIN
 90
        0
 91
        1
 62
     0
 92
       -2
340
0
 93
        0
 40
0.045
309
GRIDFORMAT_END
309
TABLEFORMAT_END
  1
CELLSTYLE_BEGIN
 90
        2
 91
        1
300
_HEADER
309
CELLSTYLE_END
300
CELLSTYLE
  1
TABLEFORMAT_BEGIN
 90
        5
170
     1
 91
        0
 92
        0
 62
   257
 93
        1
300
CONTENTFORMAT
  1
CONTENTFORMAT_BEGIN
 90
        0
 91
        0
 92
      512
 93
        0
300

 40
0.0
140
1.0
 94
        2
 62
     0
340
11
144
0.18
309
CONTENTFORMAT_END
171
     0
 94
        6
 95
        1
302
GRIDFORMAT
  1
GRIDFORMAT_BEGIN
 90
        0
 91
        1
 62
     0
 92
       -2
340
0
 93
        0
 40
0.045
309
GRIDFORMAT_END
 95
        2
302
GRIDFORMAT
  1
GRIDFORMAT_BEGIN
 90
        0
 91
        1
 62
     0
 92
       -2
340
0
 93
        0
 40
0.045
309
GRIDFORMAT_END
 95
        4
302
GRIDFORMAT
  1
GRIDFORMAT_BEGIN
 90
        0
 91
        1
 62
     0
 92
       -2
340
0
 93
        0
 40
0.045
309
GRIDFORMAT_END
 95
        8
302
GRIDFORMAT
  1
GRIDFORMAT_BEGIN
 90
        0
 91
        1
 62
     0
 92
       -2
340
0
 93
        0
 40
0.045
309
GRIDFORMAT_END
 95
       16
302
GRIDFORMAT
  1
GRIDFORMAT_BEGIN
 90
        0
 91
        1
 62
     0
 92
       -2
340
0
 93
        0
 40
0.045
309
GRIDFORMAT_END
 95
       32
302
GRIDFORMAT
  1
GRIDFORMAT_BEGIN
 90
        0
 91
        1
 62
     0
 92
       -2
340
0
 93
        0
 40
0.045
309
GRIDFORMAT_END
309
TABLEFORMAT_END
  1
CELLSTYLE_BEGIN
 90
        3
 91
        2
300
_DATA
309
CELLSTYLE_END
  0
XRECORD
  5
661B
102
{ACAD_REACTORS
330
661A
102
}
330
661A
100
AcDbXrecord
280
     1
102
ACAD_ROUNDTRIP_PRE2007_TABLESTYLE
 90
      512
 91
        0
  1

 92
      512
 93
        0
  2

 94
      512
 95
        0
  3

  0
ENDSEC
  0
EOF
