  0
SECTION
  2
HEADER
  9
$ACADVER
  1
AC1015
  9
$ACADMAINTVER
 70
     6
  9
$DWGCODEPAGE
  3
ANSI_932
  9
$INSBASE
 10
0.0
 20
0.0
 30
0.0
  9
$EXTMIN
 10
0.0
 20
0.0
 30
0.0
  9
$EXTMAX
 10
1680.0
 20
2376.0
 30
0.0
  9
$LIMMIN
 10
0.0
 20
0.0
  9
$LIMMAX
 10
12.0
 20
9.0
  9
$ORTHOMODE
 70
     0
  9
$REGENMODE
 70
     1
  9
$FILLMODE
 70
     1
  9
$QTEXTMODE
 70
     0
  9
$MIRRTEXT
 70
     1
  9
$LTSCALE
 40
1.0
  9
$ATTMODE
 70
     1
  9
$TEXTSIZE
 40
0.2
  9
$TRACEWID
 40
0.05
  9
$TEXTSTYLE
  7
Standard
  9
$CLAYER
  8
0
  9
$CELTYPE
  6
ByLayer
  9
$CECOLOR
 62
   256
  9
$CELTSCALE
 40
1.0
  9
$DISPSILH
 70
     0
  9
$DIMSCALE
 40
1.0
  9
$DIMASZ
 40
0.18
  9
$DIMEXO
 40
0.0625
  9
$DIMDLI
 40
0.38
  9
$DIMRND
 40
0.0
  9
$DIMDLE
 40
0.0
  9
$DIMEXE
 40
0.18
  9
$DIMTP
 40
0.0
  9
$DIMTM
 40
0.0
  9
$DIMTXT
 40
0.18
  9
$DIMCEN
 40
0.09
  9
$DIMTSZ
 40
0.0
  9
$DIMTOL
 70
     0
  9
$DIMLIM
 70
     0
  9
$DIMTIH
 70
     1
  9
$DIMTOH
 70
     1
  9
$DIMSE1
 70
     0
  9
$DIMSE2
 70
     0
  9
$DIMTAD
 70
     0
  9
$DIMZIN
 70
     0
  9
$DIMBLK
  1

  9
$DIMASO
 70
     1
  9
$DIMSHO
 70
     1
  9
$DIMPOST
  1

  9
$DIMAPOST
  1

  9
$DIMALT
 70
     0
  9
$DIMALTD
 70
     2
  9
$DIMALTF
 40
25.4
  9
$DIMLFAC
 40
1.0
  9
$DIMTOFL
 70
     0
  9
$DIMTVP
 40
0.0
  9
$DIMTIX
 70
     0
  9
$DIMSOXD
 70
     0
  9
$DIMSAH
 70
     0
  9
$DIMBLK1
  1

  9
$DIMBLK2
  1

  9
$DIMSTYLE
  2
Standard
  9
$DIMCLRD
 70
     0
  9
$DIMCLRE
 70
     0
  9
$DIMCLRT
 70
     0
  9
$DIMTFAC
 40
1.0
  9
$DIMGAP
 40
0.09
  9
$DIMJUST
 70
     0
  9
$DIMSD1
 70
     0
  9
$DIMSD2
 70
     0
  9
$DIMTOLJ
 70
     1
  9
$DIMTZIN
 70
     0
  9
$DIMALTZ
 70
     0
  9
$DIMALTTZ
 70
     0
  9
$DIMUPT
 70
     0
  9
$DIMDEC
 70
     4
  9
$DIMTDEC
 70
     4
  9
$DIMALTU
 70
     2
  9
$DIMALTTD
 70
     2
  9
$DIMTXSTY
  7
Standard
  9
$DIMAUNIT
 70
     0
  9
$DIMADEC
 70
     0
  9
$DIMALTRND
 40
0.0
  9
$DIMAZIN
 70
     0
  9
$DIMDSEP
 70
    46
  9
$DIMATFIT
 70
     3
  9
$DIMFRAC
 70
     0
  9
$DIMLDRBLK
  1

  9
$DIMLUNIT
 70
     2
  9
$DIMLWD
 70
    -2
  9
$DIMLWE
 70
    -2
  9
$DIMTMOVE
 70
     0
  9
$LUNITS
 70
     2
  9
$LUPREC
 70
     4
  9
$SKETCHINC
 40
0.1
  9
$FILLETRAD
 40
0.5
  9
$AUNITS
 70
     0
  9
$AUPREC
 70
     0
  9
$MENU
  1
.
  9
$ELEVATION
 40
0.0
  9
$PELEVATION
 40
0.0
  9
$THICKNESS
 40
0.0
  9
$LIMCHECK
 70
     0
  9
$CHAMFERA
 40
0.5
  9
$CHAMFERB
 40
0.5
  9
$CHAMFERC
 40
1.0
  9
$CHAMFERD
 40
0.0
  9
$SKPOLY
 70
     0
  9
$TDCREATE
 40
2456699.427083553
  9
$TDUCREATE
 40
2456699.052083553
  9
$TDUPDATE
 40
2456699.427084283
  9
$TDUUPDATE
 40
2456699.052084283
  9
$TDINDWG
 40
0.0000000116
  9
$TDUSRTIMER
 40
0.0000000116
  9
$USRTIMER
 70
     1
  9
$ANGBASE
 50
0.0
  9
$ANGDIR
 70
     0
  9
$PDMODE
 70
     0
  9
$PDSIZE
 40
0.0
  9
$PLINEWID
 40
0.0
  9
$SPLFRAME
 70
     0
  9
$SPLINETYPE
 70
     6
  9
$SPLINESEGS
 70
     8
  9
$HANDSEED
  5
168
  9
$SURFTAB1
 70
     6
  9
$SURFTAB2
 70
     6
  9
$SURFTYPE
 70
     6
  9
$SURFU
 70
     6
  9
$SURFV
 70
     6
  9
$UCSBASE
  2

  9
$UCSNAME
  2

  9
$UCSORG
 10
0.0
 20
0.0
 30
0.0
  9
$UCSXDIR
 10
1.0
 20
0.0
 30
0.0
  9
$UCSYDIR
 10
0.0
 20
1.0
 30
0.0
  9
$UCSORTHOREF
  2

  9
$UCSORTHOVIEW
 70
     0
  9
$UCSORGTOP
 10
0.0
 20
0.0
 30
0.0
  9
$UCSORGBOTTOM
 10
0.0
 20
0.0
 30
0.0
  9
$UCSORGLEFT
 10
0.0
 20
0.0
 30
0.0
  9
$UCSORGRIGHT
 10
0.0
 20
0.0
 30
0.0
  9
$UCSORGFRONT
 10
0.0
 20
0.0
 30
0.0
  9
$UCSORGBACK
 10
0.0
 20
0.0
 30
0.0
  9
$PUCSBASE
  2

  9
$PUCSNAME
  2

  9
$PUCSORG
 10
0.0
 20
0.0
 30
0.0
  9
$PUCSXDIR
 10
1.0
 20
0.0
 30
0.0
  9
$PUCSYDIR
 10
0.0
 20
1.0
 30
0.0
  9
$PUCSORTHOREF
  2

  9
$PUCSORTHOVIEW
 70
     0
  9
$PUCSORGTOP
 10
0.0
 20
0.0
 30
0.0
  9
$PUCSORGBOTTOM
 10
0.0
 20
0.0
 30
0.0
  9
$PUCSORGLEFT
 10
0.0
 20
0.0
 30
0.0
  9
$PUCSORGRIGHT
 10
0.0
 20
0.0
 30
0.0
  9
$PUCSORGFRONT
 10
0.0
 20
0.0
 30
0.0
  9
$PUCSORGBACK
 10
0.0
 20
0.0
 30
0.0
  9
$USERI1
 70
     0
  9
$USERI2
 70
     0
  9
$USERI3
 70
     0
  9
$USERI4
 70
     0
  9
$USERI5
 70
     0
  9
$USERR1
 40
18.1
  9
$USERR2
 40
0.0
  9
$USERR3
 40
0.0
  9
$USERR4
 40
0.0
  9
$USERR5
 40
0.0
  9
$WORLDVIEW
 70
     1
  9
$SHADEDGE
 70
     3
  9
$SHADEDIF
 70
    70
  9
$TILEMODE
 70
     1
  9
$MAXACTVP
 70
    64
  9
$PINSBASE
 10
0.0
 20
0.0
 30
0.0
  9
$PLIMCHECK
 70
     0
  9
$PEXTMIN
 10
1.00000000000000E+20
 20
1.00000000000000E+20
 30
1.00000000000000E+20
  9
$PEXTMAX
 10
-1.00000000000000E+20
 20
-1.00000000000000E+20
 30
-1.00000000000000E+20
  9
$PLIMMIN
 10
0.0
 20
0.0
  9
$PLIMMAX
 10
12.0
 20
9.0
  9
$UNITMODE
 70
     0
  9
$VISRETAIN
 70
     1
  9
$PLINEGEN
 70
     0
  9
$PSLTSCALE
 70
     1
  9
$TREEDEPTH
 70
  3020
  9
$CMLSTYLE
  2
Standard
  9
$CMLJUST
 70
     0
  9
$CMLSCALE
 40
1.0
  9
$PROXYGRAPHICS
 70
     1
  9
$MEASUREMENT
 70
     1
  9
$CELWEIGHT
370
    -1
  9
$ENDCAPS
280
     0
  9
$JOINSTYLE
280
     0
  9
$LWDISPLAY
290
     0
  9
$INSUNITS
 70
     4
  9
$HYPERLINKBASE
  1

  9
$STYLESHEET
  1

  9
$XEDIT
290
     1
  9
$CEPSNTYPE
380
     0
  9
$PSTYLEMODE
290
     1
  9
$FINGERPRINTGUID
  2
{D06EBFE9-F94B-4E85-8658-5A8F3FAEADD2}
  9
$VERSIONGUID
  2
{FAEB1C32-E019-11D5-929B-00C0DF256EC4}
  9
$EXTNAMES
290
     1
  9
$PSVPSCALE
 40
0.0
  9
$OLESTARTUP
290
     0
  0
ENDSEC
  0
SECTION
  2
CLASSES
  0
CLASS
  1
ACDBDICTIONARYWDFLT
  2
AcDbDictionaryWithDefault
  3
ObjectDBX Classes
 90
        0
280
     0
281
     0
  0
CLASS
  1
VISUALSTYLE
  2
AcDbVisualStyle
  3
ObjectDBX Classes
 90
     4095
280
     0
281
     0
  0
CLASS
  1
MATERIAL
  2
AcDbMaterial
  3
ObjectDBX Classes
 90
     1153
280
     0
281
     0
  0
CLASS
  1
DICTIONARYVAR
  2
AcDbDictionaryVar
  3
ObjectDBX Classes
 90
        0
280
     0
281
     0
  0
CLASS
  1
ACDBPLACEHOLDER
  2
AcDbPlaceHolder
  3
ObjectDBX Classes
 90
        0
280
     0
281
     0
  0
CLASS
  1
LAYOUT
  2
AcDbLayout
  3
ObjectDBX Classes
 90
        0
280
     0
281
     0
  0
ENDSEC
  0
SECTION
  2
TABLES
  0
TABLE
  2
VPORT
  5
8
330
0
100
AcDbSymbolTable
 70
     1
  0
VPORT
  5
29
330
8
100
AcDbSymbolTableRecord
100
AcDbViewportTableRecord
  2
*Active
 70
     0
 10
0.0
 20
0.0
 11
1.0
 21
1.0
 12
840.0
 22
1188.0
 13
0.0
 23
0.0
 14
0.5
 24
0.5
 15
0.5
 25
0.5
 16
0.0
 26
0.0
 36
1.0
 17
0.0
 27
0.0
 37
0.0
 40
2613.6
 41
1.60267857142857
 42
50.0
 43
0.0
 44
0.0
 50
0.0
 51
0.0
 71
     0
 72
   100
 73
     1
 74
     3
 75
     0
 76
     0
 77
     0
 78
     0
281
     0
 65
     1
110
0.0
120
0.0
130
0.0
111
1.0
121
0.0
131
0.0
112
0.0
122
1.0
132
0.0
 79
     0
146
0.0
  0
ENDTAB
  0
TABLE
  2
LTYPE
  5
5
330
0
100
AcDbSymbolTable
 70
     8
  0
LTYPE
  5
14
330
5
100
AcDbSymbolTableRecord
100
AcDbLinetypeTableRecord
  2
ByBlock
 70
     0
  3

 72
    65
 73
     0
 40
0.0
  0
LTYPE
  5
15
330
5
100
AcDbSymbolTableRecord
100
AcDbLinetypeTableRecord
  2
ByLayer
 70
     0
  3

 72
    65
 73
     0
 40
0.0
  0
LTYPE
  5
16
330
5
100
AcDbSymbolTableRecord
100
AcDbLinetypeTableRecord
  2
Continuous
 70
     0
  3
Solid line
 72
    65
 73
     0
 40
0.0
  0
LTYPE
  5
3F
330
5
100
AcDbSymbolTableRecord
100
AcDbLinetypeTableRecord
  2
DASHED
 70
     0
  3
Dashed
 72
    65
 73
     2
 40
15.0
 49
7.0
 74
     0
 49
-8.0
 74
     0
  0
LTYPE
  5
40
330
5
100
AcDbSymbolTableRecord
100
AcDbLinetypeTableRecord
  2
DOTTED
 70
     0
  3
Dotted
 72
    65
 73
     2
 40
1.0
 49
0.0
 74
     0
 49
-1.0
 74
     0
  0
LTYPE
  5
41
330
5
100
AcDbSymbolTableRecord
100
AcDbLinetypeTableRecord
  2
DOT_CENTER
 70
     0
  3
Dot_Center
 72
    65
 73
     4
 40
14.0
 49
12.0
 74
     0
 49
-1.0
 74
     0
 49
0.0
 74
     0
 49
-1.0
 74
     0
  0
LTYPE
  5
42
330
5
100
AcDbSymbolTableRecord
100
AcDbLinetypeTableRecord
  2
LONG_DASHED
 70
     0
  3
Long_Dashed
 72
    65
 73
     2
 40
15.0
 49
10.0
 74
     0
 49
-5.0
 74
     0
  0
LTYPE
  5
43
330
5
100
AcDbSymbolTableRecord
100
AcDbLinetypeTableRecord
  2
DASH_CENTER
 70
     0
  3
Dash_Center
 72
    65
 73
     4
 40
14.0
 49
11.0
 74
     0
 49
-1.0
 74
     0
 49
1.0
 74
     0
 49
-1.0
 74
     0
  0
LTYPE
  5
44
330
5
100
AcDbSymbolTableRecord
100
AcDbLinetypeTableRecord
  2
PHANTOM
 70
     0
  3
Phantom
 72
    65
 73
     6
 40
13.0
 49
10.0
 74
     0
 49
-1.0
 74
     0
 49
0.0
 74
     0
 49
-1.0
 74
     0
 49
0.0
 74
     0
 49
-1.0
 74
     0
  0
LTYPE
  5
45
330
5
100
AcDbSymbolTableRecord
100
AcDbLinetypeTableRecord
  2
CENTER_DASH_DASH
 70
     0
  3
Center_Dash_Dash
 72
    65
 73
     6
 40
14.0
 49
9.0
 74
     0
 49
-1.0
 74
     0
 49
1.0
 74
     0
 49
-1.0
 74
     0
 49
1.0
 74
     0
 49
-1.0
 74
     0
  0
ENDTAB
  0
TABLE
  2
LAYER
  5
2
330
0
100
AcDbSymbolTable
 70
     2
  0
LAYER
  5
10
330
2
100
AcDbSymbolTableRecord
100
AcDbLayerTableRecord
  2
0
 70
     0
 62
     7
  6
Continuous
370
    -3
390
F
  0
LAYER
  5
46
330
2
100
AcDbSymbolTableRecord
100
AcDbLayerTableRecord
  2
1
 70
     0
 62
     7
  6
Continuous
370
    -3
390
F
  0
ENDTAB
  0
TABLE
  2
STYLE
  5
3
330
0
100
AcDbSymbolTable
 70
     3
  0
STYLE
  5
11
330
3
100
AcDbSymbolTableRecord
100
AcDbTextStyleTableRecord
  2
Standard
 70
     0
 40
0.0
 41
1.0
 50
0.0
 71
     0
 42
0.2
  3
txt
  4

  0
STYLE
  5
96
330
3
100
AcDbSymbolTableRecord
100
AcDbTextStyleTableRecord
  2
CONVERTER_11
 70
     0
 40
0.0
 41
0.89
 50
0.0
 71
     0
 42
0.2
  3
MS Mincho.ttf
  4

1001
ACAD
1000
MS Mincho
1071
    32785
  0
STYLE
  5
CA
330
3
100
AcDbSymbolTableRecord
100
AcDbTextStyleTableRecord
  2
CONVERTER_12
 70
     0
 40
0.0
 41
0.9
 50
0.0
 71
     0
 42
0.2
  3
txt.shx
  4

  0
ENDTAB
  0
TABLE
  2
VIEW
  5
6
330
0
100
AcDbSymbolTable
 70
     0
  0
ENDTAB
  0
TABLE
  2
UCS
  5
7
330
0
100
AcDbSymbolTable
 70
     0
  0
ENDTAB
  0
TABLE
  2
APPID
  5
9
330
0
100
AcDbSymbolTable
 70
     1
  0
APPID
  5
12
330
9
100
AcDbSymbolTableRecord
100
AcDbRegAppTableRecord
  2
ACAD
 70
     0
  0
ENDTAB
  0
TABLE
  2
DIMSTYLE
  5
A
330
0
100
AcDbSymbolTable
 70
     7
100
AcDbDimStyleTable
  0
DIMSTYLE
105
27
330
A
100
AcDbSymbolTableRecord
100
AcDbDimStyleTableRecord
  2
Standard
 70
     0
178
     0
340
11
  0
DIMSTYLE
105
EC
102
{ACAD_REACTORS
330
ED
102
}
330
A
100
AcDbSymbolTableRecord
100
AcDbDimStyleTableRecord
  2
ME10_DIM_10
 70
     0
 41
28.0
 42
0.0
 44
8.0
 73
     0
 74
     0
 77
     1
 78
     8
140
28.0
147
8.0
172
     1
173
     1
174
     1
175
     1
176
     2
177
     2
271
     2
178
     7
271
     2
340
CA
  0
DIMSTYLE
105
F7
102
{ACAD_REACTORS
330
F8
102
}
330
A
100
AcDbSymbolTableRecord
100
AcDbDimStyleTableRecord
  2
ME10_DIM_11
 70
     0
 41
28.0
 42
0.0
 44
8.0
 73
     0
 74
     0
 77
     1
 78
     8
140
28.0
147
8.0
172
     1
173
     1
174
     1
175
     1
176
     2
177
     2
271
     2
178
     7
271
     2
340
CA
  0
DIMSTYLE
105
102
102
{ACAD_REACTORS
330
103
102
}
330
A
100
AcDbSymbolTableRecord
100
AcDbDimStyleTableRecord
  2
ME10_DIM_12
 70
     0
 41
28.0
 42
0.0
 44
8.0
 73
     0
 74
     0
 77
     1
 78
     8
140
28.0
147
8.0
172
     1
173
     1
174
     1
175
     1
176
     2
177
     2
271
     2
178
     7
271
     2
340
CA
  0
DIMSTYLE
105
10D
102
{ACAD_REACTORS
330
10E
102
}
330
A
100
AcDbSymbolTableRecord
100
AcDbDimStyleTableRecord
  2
ME10_DIM_13
 70
     0
 41
28.0
 42
0.0
 44
8.0
 73
     0
 74
     0
 77
     1
 78
     8
140
28.0
147
8.0
172
     1
173
     1
174
     1
175
     1
176
     2
177
     2
271
     2
178
     7
271
     2
340
CA
  0
DIMSTYLE
105
118
102
{ACAD_REACTORS
330
119
102
}
330
A
100
AcDbSymbolTableRecord
100
AcDbDimStyleTableRecord
  2
ME10_DIM_14
 70
     0
 41
28.0
 42
0.0
 44
8.0
 73
     0
 74
     0
 77
     1
 78
     8
140
28.0
147
8.0
172
     1
173
     1
174
     1
175
     1
176
     2
177
     2
271
     2
178
     7
271
     2
340
CA
  0
DIMSTYLE
105
123
102
{ACAD_REACTORS
330
124
102
}
330
A
100
AcDbSymbolTableRecord
100
AcDbDimStyleTableRecord
  2
ME10_DIM_15
 70
     0
 41
28.0
 42
0.0
 44
8.0
 73
     0
 74
     0
 77
     1
 78
     8
140
28.0
147
8.0
172
     1
173
     1
174
     1
175
     1
176
     2
177
     2
271
     2
178
     7
271
     2
340
CA
  0
ENDTAB
  0
TABLE
  2
BLOCK_RECORD
  5
1
330
0
100
AcDbSymbolTable
 70
    11
  0
BLOCK_RECORD
  5
1F
330
1
100
AcDbSymbolTableRecord
100
AcDbBlockTableRecord
  2
*Model_Space
340
22
  0
BLOCK_RECORD
  5
1B
330
1
100
AcDbSymbolTableRecord
100
AcDbBlockTableRecord
  2
*Paper_Space
340
1E
  0
BLOCK_RECORD
  5
23
330
1
100
AcDbSymbolTableRecord
100
AcDbBlockTableRecord
  2
*Paper_Space0
340
26
  0
BLOCK_RECORD
  5
47
330
1
100
AcDbSymbolTableRecord
100
AcDbBlockTableRecord
  2
開示A4
340
0
102
{BLKREFS
331
4A
102
}
  0
BLOCK_RECORD
  5
E1
330
1
100
AcDbSymbolTableRecord
100
AcDbBlockTableRecord
  2
*D2
340
0
  0
BLOCK_RECORD
  5
EE
330
1
100
AcDbSymbolTableRecord
100
AcDbBlockTableRecord
  2
*D3
340
0
  0
BLOCK_RECORD
  5
F9
330
1
100
AcDbSymbolTableRecord
100
AcDbBlockTableRecord
  2
*D4
340
0
  0
BLOCK_RECORD
  5
104
330
1
100
AcDbSymbolTableRecord
100
AcDbBlockTableRecord
  2
*D5
340
0
  0
BLOCK_RECORD
  5
10F
330
1
100
AcDbSymbolTableRecord
100
AcDbBlockTableRecord
  2
*D6
340
0
  0
BLOCK_RECORD
  5
11A
330
1
100
AcDbSymbolTableRecord
100
AcDbBlockTableRecord
  2
*D7
340
0
  0
BLOCK_RECORD
  5
125
330
1
100
AcDbSymbolTableRecord
100
AcDbBlockTableRecord
  2
*D8
340
0
102
{BLKREFS
331
12C
102
}
  0
BLOCK_RECORD
  5
12D
330
1
100
AcDbSymbolTableRecord
100
AcDbBlockTableRecord
  2
*D9
340
0
102
{BLKREFS
331
134
102
}
  0
BLOCK_RECORD
  5
135
330
1
100
AcDbSymbolTableRecord
100
AcDbBlockTableRecord
  2
*D10
340
0
102
{BLKREFS
331
13C
102
}
  0
ENDTAB
  0
ENDSEC
  0
SECTION
  2
BLOCKS
  0
BLOCK
  5
20
330
1F
100
AcDbEntity
  8
0
100
AcDbBlockBegin
  2
*Model_Space
 70
     0
 10
0.0
 20
0.0
 30
0.0
  3
*Model_Space
  1

  0
ENDBLK
  5
21
330
1F
100
AcDbEntity
  8
0
100
AcDbBlockEnd
  0
BLOCK
  5
1C
330
1B
100
AcDbEntity
 67
     1
  8
0
100
AcDbBlockBegin
  2
*Paper_Space
 70
     0
 10
0.0
 20
0.0
 30
0.0
  3
*Paper_Space
  1

  0
ENDBLK
  5
1D
330
1B
100
AcDbEntity
 67
     1
  8
0
100
AcDbBlockEnd
  0
BLOCK
  5
24
330
23
100
AcDbEntity
  8
0
100
AcDbBlockBegin
  2
*Paper_Space0
 70
     0
 10
0.0
 20
0.0
 30
0.0
  3
*Paper_Space0
  1

  0
ENDBLK
  5
25
330
23
100
AcDbEntity
  8
0
100
AcDbBlockEnd
  0
BLOCK
  5
48
330
47
100
AcDbEntity
  8
0
100
AcDbBlockBegin
  2
開示A4
 70
     0
 10
0.0
 20
0.0
 30
0.0
  3
開示A4
  1

  0
POINT
  5
4B
330
47
100
AcDbEntity
  8
1
 62
     4
100
AcDbPoint
 10
34.0
 20
34.00000000000001
 30
0.0
  0
POINT
  5
4C
330
47
100
AcDbEntity
  8
1
 62
     4
100
AcDbPoint
 10
57.0
 20
12.25
 30
0.0
  0
POINT
  5
4D
330
47
100
AcDbEntity
  8
1
 62
     4
100
AcDbPoint
 10
57.0
 20
20.75000000000001
 30
0.0
  0
POINT
  5
4E
330
47
100
AcDbEntity
  8
1
 62
     4
100
AcDbPoint
 10
57.0
 20
24.75000000000001
 30
0.0
  0
POINT
  5
4F
330
47
100
AcDbEntity
  8
1
 62
     4
100
AcDbPoint
 10
57.0
 20
16.25
 30
0.0
  0
POINT
  5
50
330
47
100
AcDbEntity
  8
1
 62
     4
100
AcDbPoint
 10
157.5
 20
19.00000000000001
 30
0.0
  0
POINT
  5
51
330
47
100
AcDbEntity
  8
1
 62
     4
100
AcDbPoint
 10
47.5
 20
282.0000000000003
 30
0.0
  0
POINT
  5
52
330
47
100
AcDbEntity
  8
1
 62
     4
100
AcDbPoint
 10
57.0
 20
22.75000000000001
 30
0.0
  0
POINT
  5
53
330
47
100
AcDbEntity
  8
1
 62
     4
100
AcDbPoint
 10
57.0
 20
14.25
 30
0.0
  0
POINT
  5
54
330
47
100
AcDbEntity
  8
1
 62
     4
100
AcDbPoint
 10
157.5
 20
12.5
 30
0.0
  0
POINT
  5
55
330
47
100
AcDbEntity
  8
1
 62
     4
100
AcDbPoint
 10
163.25
 20
12.5
 30
0.0
  0
POINT
  5
56
330
47
100
AcDbEntity
  8
1
 62
     4
100
AcDbPoint
 10
151.75
 20
12.5
 30
0.0
  0
POINT
  5
57
330
47
100
AcDbEntity
  8
1
 62
     4
100
AcDbPoint
 10
134.75
 20
12.5
 30
0.0
  0
POINT
  5
58
330
47
100
AcDbEntity
  8
1
 62
     4
100
AcDbPoint
 10
146.25
 20
12.5
 30
0.0
  0
POINT
  5
59
330
47
100
AcDbEntity
  8
1
 62
     4
100
AcDbPoint
 10
140.5
 20
12.5
 30
0.0
  0
POINT
  5
5A
330
47
100
AcDbEntity
  8
1
 62
     4
100
AcDbPoint
 10
140.5
 20
19.00000000000001
 30
0.0
  0
POINT
  5
5B
330
47
100
AcDbEntity
  8
1
 62
     4
100
AcDbPoint
 10
117.75
 20
12.5
 30
0.0
  0
POINT
  5
5C
330
47
100
AcDbEntity
  8
1
 62
     4
100
AcDbPoint
 10
129.25
 20
12.5
 30
0.0
  0
POINT
  5
5D
330
47
100
AcDbEntity
  8
1
 62
     4
100
AcDbPoint
 10
123.5
 20
12.5
 30
0.0
  0
POINT
  5
5E
330
47
100
AcDbEntity
  8
1
 62
     4
100
AcDbPoint
 10
123.5
 20
19.00000000000001
 30
0.0
  0
POINT
  5
5F
330
47
100
AcDbEntity
  8
1
 62
     4
100
AcDbPoint
 10
100.75
 20
12.5
 30
0.0
  0
POINT
  5
60
330
47
100
AcDbEntity
  8
1
 62
     4
100
AcDbPoint
 10
112.25
 20
12.5
 30
0.0
  0
POINT
  5
61
330
47
100
AcDbEntity
  8
1
 62
     4
100
AcDbPoint
 10
106.5
 20
12.5
 30
0.0
  0
POINT
  5
62
330
47
100
AcDbEntity
  8
1
 62
     4
100
AcDbPoint
 10
106.5
 20
19.00000000000001
 30
0.0
  0
POINT
  5
63
330
47
100
AcDbEntity
  8
1
 62
     4
100
AcDbPoint
 10
85.25
 20
17.0
 30
0.0
  0
POINT
  5
64
330
47
100
AcDbEntity
  8
1
 62
     4
100
AcDbPoint
 10
93.75
 20
17.0
 30
0.0
  0
LINE
  5
65
330
47
100
AcDbEntity
  8
1
  6
Continuous
 62
     2
100
AcDbLine
 10
81.0
 20
27.00000000000001
 30
0.0
 11
81.0
 21
10.0
 31
0.0
  0
LINE
  5
66
330
47
100
AcDbEntity
  8
1
  6
DOT_CENTER
 62
     2
100
AcDbLine
 10
187.0
 20
26.50000000000001
 30
0.0
 11
187.0
 21
20.50000000000001
 31
0.0
  0
LINE
  5
67
330
47
100
AcDbEntity
  8
1
  6
DOT_CENTER
 62
     2
100
AcDbLine
 10
184.0
 20
23.50000000000001
 30
0.0
 11
197.0
 21
23.50000000000001
 31
0.0
  0
LINE
  5
68
330
47
100
AcDbEntity
  8
1
  6
Continuous
 62
     7
100
AcDbLine
 10
196.0
 20
21.50000000000001
 30
0.0
 11
191.0
 21
22.30000000000001
 31
0.0
  0
LINE
  5
69
330
47
100
AcDbEntity
  8
1
  6
Continuous
 62
     7
100
AcDbLine
 10
196.0
 20
25.50000000000001
 30
0.0
 11
196.0
 21
21.50000000000001
 31
0.0
  0
LINE
  5
6A
330
47
100
AcDbEntity
  8
1
  6
Continuous
 62
     7
100
AcDbLine
 10
191.0
 20
24.70000000000001
 30
0.0
 11
196.0
 21
25.50000000000001
 31
0.0
  0
LINE
  5
6B
330
47
100
AcDbEntity
  8
1
  6
Continuous
 62
     7
100
AcDbLine
 10
191.0
 20
24.70000000000001
 30
0.0
 11
191.0
 21
22.30000000000001
 31
0.0
  0
LINE
  5
6C
330
47
100
AcDbEntity
  8
1
  6
Continuous
 62
     2
100
AcDbLine
 10
33.0
 20
27.0
 30
0.0
 11
33.0
 21
10.0
 31
0.0
  0
LINE
  5
6D
330
47
100
AcDbEntity
  8
1
  6
Continuous
 62
     2
100
AcDbLine
 10
25.0
 20
18.50000000000001
 30
0.0
 11
81.0
 21
18.50000000000001
 31
0.0
  0
LINE
  5
6E
330
47
100
AcDbEntity
  8
1
  6
Continuous
 62
     7
100
AcDbLine
 10
200.0
 20
287.0000000000003
 30
0.0
 11
105.0
 21
287.0000000000003
 31
0.0
  0
LINE
  5
6F
330
47
100
AcDbEntity
  8
1
  6
Continuous
 62
     7
100
AcDbLine
 10
200.0
 20
10.0
 30
0.0
 11
200.0
 21
148.5
 31
0.0
  0
LINE
  5
70
330
47
100
AcDbEntity
  8
1
  6
Continuous
 62
     7
100
AcDbLine
 10
25.0
 20
10.0
 30
0.0
 11
105.0
 21
10.0
 31
0.0
  0
LINE
  5
71
330
47
100
AcDbEntity
  8
1
  6
PHANTOM
 62
     4
100
AcDbLine
 10
0.0
 20
297.0
 30
0.0
 11
0.0
 21
0.0
 31
0.0
  0
LINE
  5
72
330
47
100
AcDbEntity
  8
1
  6
PHANTOM
 62
     4
100
AcDbLine
 10
210.0
 20
297.0
 30
0.0
 11
0.0
 21
297.0
 31
0.0
  0
LINE
  5
73
330
47
100
AcDbEntity
  8
1
  6
PHANTOM
 62
     4
100
AcDbLine
 10
210.0
 20
0.0
 30
0.0
 11
210.0
 21
297.0
 31
0.0
  0
LINE
  5
74
330
47
100
AcDbEntity
  8
1
  6
PHANTOM
 62
     4
100
AcDbLine
 10
0.0
 20
0.0
 30
0.0
 11
210.0
 21
0.0
 31
0.0
  0
LINE
  5
75
330
47
100
AcDbEntity
  8
1
  6
Continuous
 62
     7
100
AcDbLine
 10
25.0
 20
41.0
 30
0.0
 11
200.0
 21
41.0
 31
0.0
  0
LINE
  5
76
330
47
100
AcDbEntity
  8
1
  6
Continuous
 62
     7
100
AcDbLine
 10
200.0
 20
27.00000000000001
 30
0.0
 11
25.0
 21
27.00000000000001
 31
0.0
  0
LINE
  5
77
330
47
100
AcDbEntity
  8
1
  6
Continuous
 62
     2
100
AcDbLine
 10
33.0
 20
41.00000000000001
 30
0.0
 11
33.0
 21
27.0
 31
0.0
  0
LINE
  5
78
330
47
100
AcDbEntity
  8
1
  6
Continuous
 62
     2
100
AcDbLine
 10
55.0
 20
287.0000000000003
 30
0.0
 11
55.0
 21
277.0000000000003
 31
0.0
  0
LINE
  5
79
330
47
100
AcDbEntity
  8
1
  6
Continuous
 62
     2
100
AcDbLine
 10
40.0
 20
287.0000000000003
 30
0.0
 11
40.0
 21
277.0000000000003
 31
0.0
  0
LINE
  5
7A
330
47
100
AcDbEntity
  8
1
  6
Continuous
 62
     7
100
AcDbLine
 10
25.0
 20
10.0
 30
0.0
 11
25.0
 21
148.5
 31
0.0
  0
LINE
  5
7B
330
47
100
AcDbEntity
  8
1
  6
Continuous
 62
     2
100
AcDbLine
 10
55.0
 20
277.0000000000003
 30
0.0
 11
25.0
 21
277.0000000000003
 31
0.0
  0
LINE
  5
7C
330
47
100
AcDbEntity
  8
1
  6
Continuous
 62
     2
100
AcDbLine
 10
166.0
 20
27.00000000000001
 30
0.0
 11
166.0
 21
10.0
 31
0.0
  0
LINE
  5
7D
330
47
100
AcDbEntity
  8
1
  6
Continuous
 62
     2
100
AcDbLine
 10
132.0
 20
27.00000000000001
 30
0.0
 11
132.0
 21
9.99999999999999
 31
0.0
  0
LINE
  5
7E
330
47
100
AcDbEntity
  8
1
  6
Continuous
 62
     2
100
AcDbLine
 10
149.0
 20
27.00000000000001
 30
0.0
 11
149.0
 21
10.0
 31
0.0
  0
LINE
  5
7F
330
47
100
AcDbEntity
  8
1
  6
Continuous
 62
     2
100
AcDbLine
 10
115.0
 20
27.00000000000001
 30
0.0
 11
115.0
 21
9.99999999999999
 31
0.0
  0
LINE
  5
80
330
47
100
AcDbEntity
  8
1
  6
Continuous
 62
     2
100
AcDbLine
 10
98.0
 20
27.00000000000001
 30
0.0
 11
98.0
 21
9.99999999999999
 31
0.0
  0
LINE
  5
81
330
47
100
AcDbEntity
  8
1
  6
Continuous
 62
     2
100
AcDbLine
 10
166.0
 20
20.00000000000001
 30
0.0
 11
200.0
 21
20.00000000000001
 31
0.0
  0
LINE
  5
82
330
47
100
AcDbEntity
  8
1
  6
Continuous
 62
     2
100
AcDbLine
 10
105.0
 20
287.0000000000003
 30
0.0
 11
105.0
 21
292.0000000000003
 31
0.0
  0
LINE
  5
83
330
47
100
AcDbEntity
  8
1
  6
Continuous
 62
     7
100
AcDbLine
 10
105.0
 20
287.0000000000003
 30
0.0
 11
25.0
 21
287.0000000000003
 31
0.0
  0
LINE
  5
84
330
47
100
AcDbEntity
  8
1
  6
Continuous
 62
     2
100
AcDbLine
 10
25.0
 20
148.5
 30
0.0
 11
20.0
 21
148.5
 31
0.0
  0
LINE
  5
85
330
47
100
AcDbEntity
  8
1
  6
Continuous
 62
     7
100
AcDbLine
 10
25.0
 20
148.5
 30
0.0
 11
25.0
 21
287.0000000000003
 31
0.0
  0
LINE
  5
86
330
47
100
AcDbEntity
  8
1
  6
Continuous
 62
     2
100
AcDbLine
 10
200.0
 20
148.5
 30
0.0
 11
205.0
 21
148.5
 31
0.0
  0
LINE
  5
87
330
47
100
AcDbEntity
  8
1
  6
Continuous
 62
     7
100
AcDbLine
 10
200.0
 20
148.5
 30
0.0
 11
200.0
 21
287.0000000000003
 31
0.0
  0
LINE
  5
88
330
47
100
AcDbEntity
  8
1
  6
Continuous
 62
     2
100
AcDbLine
 10
105.0
 20
10.0
 30
0.0
 11
105.0
 21
5.0
 31
0.0
  0
LINE
  5
89
330
47
100
AcDbEntity
  8
1
  6
Continuous
 62
     7
100
AcDbLine
 10
105.0
 20
10.0
 30
0.0
 11
200.0
 21
10.0
 31
0.0
  0
CIRCLE
  5
8A
330
47
100
AcDbEntity
  8
1
  6
DOT_CENTER
 62
     7
100
AcDbCircle
 10
89.5
 20
18.0
 30
0.0
 40
0.1000000000000227
  0
CIRCLE
  5
8B
330
47
100
AcDbEntity
  8
1
  6
DOT_CENTER
 62
     7
100
AcDbCircle
 10
89.5
 20
16.0
 30
0.0
 40
0.1000000000000227
  0
CIRCLE
  5
8C
330
47
100
AcDbEntity
  8
1
  6
Continuous
 62
     7
100
AcDbCircle
 10
187.0
 20
23.50000000000001
 30
0.0
 40
2.0
  0
CIRCLE
  5
8D
330
47
100
AcDbEntity
  8
1
  6
Continuous
 62
     7
100
AcDbCircle
 10
187.0
 20
23.50000000000001
 30
0.0
 40
1.200000000000102
  0
CIRCLE
  5
8E
330
47
100
AcDbEntity
  8
1
  6
Continuous
 62
     7
100
AcDbCircle
 10
154.5
 20
12.5
 30
0.0
 40
0.3000000000000114
  0
CIRCLE
  5
8F
330
47
100
AcDbEntity
  8
1
  6
Continuous
 62
     7
100
AcDbCircle
 10
160.5
 20
12.5
 30
0.0
 40
0.3000000000000114
  0
CIRCLE
  5
90
330
47
100
AcDbEntity
  8
1
  6
Continuous
 62
     7
100
AcDbCircle
 10
143.5
 20
12.5
 30
0.0
 40
0.3000000000000114
  0
CIRCLE
  5
91
330
47
100
AcDbEntity
  8
1
  6
Continuous
 62
     7
100
AcDbCircle
 10
137.5
 20
12.5
 30
0.0
 40
0.3000000000000114
  0
CIRCLE
  5
92
330
47
100
AcDbEntity
  8
1
  6
Continuous
 62
     7
100
AcDbCircle
 10
126.5
 20
12.5
 30
0.0
 40
0.2999999999999972
  0
CIRCLE
  5
93
330
47
100
AcDbEntity
  8
1
  6
Continuous
 62
     7
100
AcDbCircle
 10
120.5
 20
12.5
 30
0.0
 40
0.2999999999999972
  0
CIRCLE
  5
94
330
47
100
AcDbEntity
  8
1
  6
Continuous
 62
     7
100
AcDbCircle
 10
109.5
 20
12.5
 30
0.0
 40
0.2999999999999972
  0
CIRCLE
  5
95
330
47
100
AcDbEntity
  8
1
  6
Continuous
 62
     7
100
AcDbCircle
 10
103.5
 20
12.5
 30
0.0
 40
0.2999999999999972
  0
MTEXT
  5
97
330
47
100
AcDbEntity
  8
1
 62
   250
100
AcDbMText
 10
25.0
 20
5.0
 30
0.0
 40
3.5
 41
0.0
 71
     4
 72
     1
  1
備考欄の文字列 原点位置=4
  7
CONVERTER_11
 73
     1
 44
0.54545454545455
  0
MTEXT
  5
98
330
47
100
AcDbEntity
  8
1
 62
     2
100
AcDbMText
 10
89.5
 20
24.00000000000001
 30
0.0
 40
3.5
 41
0.0
 71
     5
 72
     1
  1
尺度
  7
CONVERTER_11
 73
     1
 44
0.54545454545455
  0
MTEXT
  5
99
330
47
100
AcDbEntity
  8
1
 62
     2
100
AcDbMText
 10
135.5
 20
25.00000000000001
 30
0.0
 40
3.0
 41
0.0
 71
     5
 72
     1
  1
製図
  7
CONVERTER_11
 73
     1
 44
0.59090909090909
  0
MTEXT
  5
9A
330
47
100
AcDbEntity
  8
1
 62
     2
100
AcDbMText
 10
152.5
 20
25.00000000000001
 30
0.0
 40
3.0
 41
0.0
 71
     5
 72
     1
  1
担当
  7
CONVERTER_11
 73
     1
 44
0.59090909090909
  0
MTEXT
  5
9B
330
47
100
AcDbEntity
  8
1
 62
     2
100
AcDbMText
 10
118.5
 20
25.00000000000001
 30
0.0
 40
3.0
 41
0.0
 71
     5
 72
     1
  1
検図
  7
CONVERTER_11
 73
     1
 44
0.59090909090909
  0
MTEXT
  5
9C
330
47
100
AcDbEntity
  8
1
 62
     2
100
AcDbMText
 10
175.0
 20
23.50000000000001
 30
0.0
 40
3.5
 41
0.0
 71
     5
 72
     1
  1
第三角法
  7
CONVERTER_11
 73
     1
 44
0.54545454545455
  0
MTEXT
  5
9D
330
47
100
AcDbEntity
  8
1
 62
     2
100
AcDbMText
 10
101.5
 20
25.00000000000001
 30
0.0
 40
3.0
 41
0.0
 71
     5
 72
     1
  1
承認
  7
CONVERTER_11
 73
     1
 44
0.59090909090909
  0
MTEXT
  5
9E
330
47
100
AcDbEntity
  8
1
 62
     2
100
AcDbMText
 10
29.0
 20
14.25
 30
0.0
 40
3.5
 41
0.0
 71
     5
 72
     1
  1
品番
  7
CONVERTER_11
 73
     1
 44
0.72727272727273
  0
MTEXT
  5
9F
330
47
100
AcDbEntity
  8
1
 62
     2
100
AcDbMText
 10
29.0
 20
22.75
 30
0.0
 40
3.5
 41
0.0
 71
     5
 72
     1
  1
品名
  7
CONVERTER_11
 73
     1
 44
0.72727272727273
  0
MTEXT
  5
A0
330
47
100
AcDbEntity
  8
1
 62
     2
100
AcDbMText
 10
29.0
 20
34.00000000000001
 30
0.0
 40
3.5
 41
0.0
 71
     5
 72
     1
  1
備考
  7
CONVERTER_11
 73
     1
 44
0.45454545454545
  0
MTEXT
  5
A1
330
47
100
AcDbEntity
  8
1
 62
     2
100
AcDbMText
 10
32.5
 20
282.0000000000003
 30
0.0
 40
5.0
 41
0.0
 71
     5
 72
     1
  1
図番
  7
CONVERTER_11
 73
     1
 44
0.45454545454545
  0
MTEXT
  5
A2
330
47
100
AcDbEntity
  8
1
 62
     7
100
AcDbMText
 10
171.5
 20
15.0
 30
0.0
 40
2.5
 41
0.0
 71
     5
 72
     1
  1
株式会社
  7
CONVERTER_11
 73
     1
 44
1.0
  0
MTEXT
  5
A3
330
47
100
AcDbEntity
  8
1
 62
     7
100
AcDbMText
 10
188.5
 20
15.0
 30
0.0
 40
3.0
 41
0.0
 71
     5
 72
     1
  1
三栄水栓製作所
  7
CONVERTER_11
 73
     1
 44
1.0
  0
ENDBLK
  5
49
330
47
100
AcDbEntity
  8
0
100
AcDbBlockEnd
  0
BLOCK
  5
EA
330
E1
100
AcDbEntity
  8
0
100
AcDbBlockBegin
  2
*D2
 70
     1
 10
0.0
 20
0.0
 30
0.0
  3
*D2
  1

  0
LINE
  5
E2
330
E1
100
AcDbEntity
  8
1
  6
Continuous
 62
     2
100
AcDbLine
 10
922.623448201257
 20
912.9294549826709
 30
0.0
 11
922.623448201257
 21
856.9294549826709
 31
0.0
  0
LINE
  5
E3
330
E1
100
AcDbEntity
  8
1
  6
Continuous
 62
     2
100
AcDbLine
 10
922.623448201257
 20
936.9292430278376
 30
0.0
 11
922.623448201257
 21
912.9294549826709
 31
0.0
  0
LINE
  5
E4
330
E1
100
AcDbEntity
  8
1
  6
Continuous
 62
     2
100
AcDbLine
 10
922.623448201257
 20
1024.41398230424
 30
0.0
 11
922.623448201257
 21
936.9292430278376
 31
0.0
  0
LINE
  5
E5
330
E1
100
AcDbEntity
  8
1
  6
Continuous
 62
     2
100
AcDbLine
 10
896.0171196974502
 20
936.9292430278376
 30
0.0
 11
930.623448201257
 21
936.9292430278376
 31
0.0
  0
LINE
  5
E6
330
E1
100
AcDbEntity
  8
1
  6
Continuous
 62
     2
100
AcDbLine
 10
885.5165605787506
 20
912.9294549826709
 30
0.0
 11
930.623448201257
 21
912.9294549826709
 31
0.0
  0
SOLID
  5
E7
330
E1
100
AcDbEntity
  8
1
 62
     2
100
AcDbTrace
 10
918.9371782688099
 20
964.9292430278376
 30
0.0
 11
926.3097181337041
 21
964.9292430278376
 31
0.0
 12
922.623448201257
 22
936.9292430278376
 32
0.0
 13
922.623448201257
 23
936.9292430278376
 33
0.0
  0
SOLID
  5
E8
330
E1
100
AcDbEntity
  8
1
 62
     2
100
AcDbTrace
 10
926.3097181337041
 20
884.9294549826709
 30
0.0
 11
918.9371782688099
 21
884.9294549826709
 31
0.0
 12
922.623448201257
 22
912.9294549826709
 32
0.0
 13
922.623448201257
 23
912.9294549826709
 33
0.0
  0
MTEXT
  5
E9
330
E1
100
AcDbEntity
  8
1
 62
     7
100
AcDbMText
 10
914.623448201257
 20
982.41398230424
 30
0.0
 40
28.0
 41
0.0
 71
     7
 72
     1
  1
25
  7
CONVERTER_12
 11
0.0
 21
1.0
 31
0.0
 73
     1
 44
0.60024009603842
  0
ENDBLK
  5
EB
330
E1
100
AcDbEntity
  8
0
100
AcDbBlockEnd
  0
BLOCK
  5
F5
330
EE
100
AcDbEntity
  8
0
100
AcDbBlockBegin
  2
*D3
 70
     1
 10
0.0
 20
0.0
 30
0.0
  3
*D3
  1

  0
LINE
  5
EF
330
EE
100
AcDbEntity
  8
1
  6
Continuous
 62
     2
100
AcDbLine
 10
867.914624691611
 20
710.2088785913802
 30
0.0
 11
867.914624691611
 21
912.9294549826709
 31
0.0
  0
LINE
  5
F0
330
EE
100
AcDbEntity
  8
1
  6
Continuous
 62
     2
100
AcDbLine
 10
1210.524326986672
 20
710.2088785913802
 30
0.0
 11
859.914624691611
 21
710.2088785913802
 31
0.0
  0
LINE
  5
F1
330
EE
100
AcDbEntity
  8
1
  6
Continuous
 62
     2
100
AcDbLine
 10
885.5165605787506
 20
912.9294549826709
 30
0.0
 11
859.914624691611
 21
912.9294549826709
 31
0.0
  0
SOLID
  5
F2
330
EE
100
AcDbEntity
  8
1
 62
     2
100
AcDbTrace
 10
864.228354759164
 20
738.2088785913802
 30
0.0
 11
871.6008946240581
 21
738.2088785913802
 31
0.0
 12
867.914624691611
 22
710.2088785913802
 32
0.0
 13
867.914624691611
 23
710.2088785913802
 33
0.0
  0
SOLID
  5
F3
330
EE
100
AcDbEntity
  8
1
 62
     2
100
AcDbTrace
 10
871.6008946240581
 20
884.9294549826709
 30
0.0
 11
864.228354759164
 21
884.9294549826709
 31
0.0
 12
867.914624691611
 22
912.9294549826709
 32
0.0
 13
867.914624691611
 23
912.9294549826709
 33
0.0
  0
MTEXT
  5
F4
330
EE
100
AcDbEntity
  8
1
 62
     7
100
AcDbMText
 10
859.914624691611
 20
771.9428075277419
 30
0.0
 40
28.0
 41
0.0
 71
     7
 72
     1
  1
200
  7
CONVERTER_12
 11
0.0
 21
1.0
 31
0.0
 73
     1
 44
0.60024009603842
  0
ENDBLK
  5
F6
330
EE
100
AcDbEntity
  8
0
100
AcDbBlockEnd
  0
BLOCK
  5
100
330
F9
100
AcDbEntity
  8
0
100
AcDbBlockBegin
  2
*D4
 70
     1
 10
0.0
 20
0.0
 30
0.0
  3
*D4
  1

  0
LINE
  5
FA
330
F9
100
AcDbEntity
  8
1
  6
Continuous
 62
     2
100
AcDbLine
 10
677.6356709130393
 20
1251.275816233225
 30
0.0
 11
677.6356709130393
 21
1741.280338524112
 31
0.0
  0
LINE
  5
FB
330
F9
100
AcDbEntity
  8
1
  6
Continuous
 62
     2
100
AcDbLine
 10
1210.524326986713
 20
1251.275816233225
 30
0.0
 11
669.6356709130393
 21
1251.275816233225
 31
0.0
  0
LINE
  5
FC
330
F9
100
AcDbEntity
  8
1
  6
Continuous
 62
     2
100
AcDbLine
 10
1210.524326986708
 20
1741.280338524112
 30
0.0
 11
669.6356709130393
 21
1741.280338524112
 31
0.0
  0
SOLID
  5
FD
330
F9
100
AcDbEntity
  8
1
 62
     2
100
AcDbTrace
 10
673.9494009805923
 20
1279.275816233225
 30
0.0
 11
681.3219408454864
 21
1279.275816233225
 31
0.0
 12
677.6356709130393
 22
1251.275816233225
 32
0.0
 13
677.6356709130393
 23
1251.275816233225
 33
0.0
  0
SOLID
  5
FE
330
F9
100
AcDbEntity
  8
1
 62
     2
100
AcDbTrace
 10
681.3219408454864
 20
1713.280338524112
 30
0.0
 11
673.9494009805923
 21
1713.280338524112
 31
0.0
 12
677.6356709130393
 22
1741.280338524112
 32
0.0
 13
677.6356709130393
 23
1741.280338524112
 33
0.0
  0
MTEXT
  5
FF
330
F9
100
AcDbEntity
  8
1
 62
     7
100
AcDbMText
 10
669.6356709130393
 20
1477.219835015021
 30
0.0
 40
28.0
 41
0.0
 71
     7
 72
     1
  1
490
  7
CONVERTER_12
 11
0.0
 21
1.0
 31
0.0
 73
     1
 44
0.60024009603842
  0
ENDBLK
  5
101
330
F9
100
AcDbEntity
  8
0
100
AcDbBlockEnd
  0
BLOCK
  5
10B
330
104
100
AcDbEntity
  8
0
100
AcDbBlockBegin
  2
*D5
 70
     1
 10
0.0
 20
0.0
 30
0.0
  3
*D5
  1

  0
LINE
  5
105
330
104
100
AcDbEntity
  8
1
  6
Continuous
 62
     2
100
AcDbLine
 10
741.6356709130393
 20
1741.280338524112
 30
0.0
 11
741.6356709130393
 21
1510.819835015031
 31
0.0
  0
LINE
  5
106
330
104
100
AcDbEntity
  8
1
  6
Continuous
 62
     2
100
AcDbLine
 10
1210.524326986708
 20
1741.280338524112
 30
0.0
 11
733.6356709130393
 21
1741.280338524112
 31
0.0
  0
LINE
  5
107
330
104
100
AcDbEntity
  8
1
  6
Continuous
 62
     2
100
AcDbLine
 10
861.6356709130393
 20
1510.819835015031
 30
0.0
 11
733.6356709130393
 21
1510.819835015031
 31
0.0
  0
SOLID
  5
108
330
104
100
AcDbEntity
  8
1
 62
     2
100
AcDbTrace
 10
745.3219408454864
 20
1713.280338524112
 30
0.0
 11
737.9494009805923
 21
1713.280338524112
 31
0.0
 12
741.6356709130393
 22
1741.280338524112
 32
0.0
 13
741.6356709130393
 23
1741.280338524112
 33
0.0
  0
SOLID
  5
109
330
104
100
AcDbEntity
  8
1
 62
     2
100
AcDbTrace
 10
737.9494009805923
 20
1538.819835015031
 30
0.0
 11
745.3219408454864
 21
1538.819835015031
 31
0.0
 12
741.6356709130393
 22
1510.819835015031
 32
0.0
 13
741.6356709130393
 23
1510.819835015031
 33
0.0
  0
MTEXT
  5
10A
330
104
100
AcDbEntity
  8
1
 62
     7
100
AcDbMText
 10
733.6356709130393
 20
1592.450086769567
 30
0.0
 40
28.0
 41
0.0
 71
     7
 72
     1
  1
230
  7
CONVERTER_12
 11
0.0
 21
1.0
 31
0.0
 73
     1
 44
0.60024009603842
  0
ENDBLK
  5
10C
330
104
100
AcDbEntity
  8
0
100
AcDbBlockEnd
  0
BLOCK
  5
116
330
10F
100
AcDbEntity
  8
0
100
AcDbBlockBegin
  2
*D6
 70
     1
 10
0.0
 20
0.0
 30
0.0
  3
*D6
  1

  0
LINE
  5
110
330
10F
100
AcDbEntity
  8
1
  6
Continuous
 62
     2
100
AcDbLine
 10
805.6356709130393
 20
1685.588266237327
 30
0.0
 11
805.6356709130393
 21
1510.81983501503
 31
0.0
  0
LINE
  5
111
330
10F
100
AcDbEntity
  8
1
  6
Continuous
 62
     2
100
AcDbLine
 10
1175.516621608983
 20
1685.588266237327
 30
0.0
 11
797.6356709130393
 21
1685.588266237327
 31
0.0
  0
LINE
  5
112
330
10F
100
AcDbEntity
  8
1
  6
Continuous
 62
     2
100
AcDbLine
 10
861.6356709130393
 20
1510.81983501503
 30
0.0
 11
797.6356709130393
 21
1510.81983501503
 31
0.0
  0
SOLID
  5
113
330
10F
100
AcDbEntity
  8
1
 62
     2
100
AcDbTrace
 10
809.3219408454864
 20
1657.588266237327
 30
0.0
 11
801.9494009805923
 21
1657.588266237327
 31
0.0
 12
805.6356709130393
 22
1685.588266237327
 32
0.0
 13
805.6356709130393
 23
1685.588266237327
 33
0.0
  0
SOLID
  5
114
330
10F
100
AcDbEntity
  8
1
 62
     2
100
AcDbTrace
 10
801.9494009805923
 20
1538.81983501503
 30
0.0
 11
809.3219408454864
 21
1538.81983501503
 31
0.0
 12
805.6356709130393
 22
1510.81983501503
 32
0.0
 13
805.6356709130393
 23
1510.81983501503
 33
0.0
  0
MTEXT
  5
115
330
10F
100
AcDbEntity
  8
1
 62
     7
100
AcDbMText
 10
797.6356709130393
 20
1568.804050626174
 30
0.0
 40
28.0
 41
0.0
 71
     7
 72
     1
  1
175
  7
CONVERTER_12
 11
0.0
 21
1.0
 31
0.0
 73
     1
 44
0.60024009603842
  0
ENDBLK
  5
117
330
10F
100
AcDbEntity
  8
0
100
AcDbBlockEnd
  0
BLOCK
  5
121
330
11A
100
AcDbEntity
  8
0
100
AcDbBlockBegin
  2
*D7
 70
     1
 10
0.0
 20
0.0
 30
0.0
  3
*D7
  1

  0
LINE
  5
11B
330
11A
100
AcDbEntity
  8
1
  6
Continuous
 62
     2
100
AcDbLine
 10
885.6356709130393
 20
1171.275816233225
 30
0.0
 11
1535.470065509567
 21
1171.275816233225
 31
0.0
  0
LINE
  5
11C
330
11A
100
AcDbEntity
  8
1
  6
Continuous
 62
     2
100
AcDbLine
 10
885.6356709130393
 20
1510.819835015026
 30
0.0
 11
885.6356709130393
 21
1163.275816233225
 31
0.0
  0
LINE
  5
11D
330
11A
100
AcDbEntity
  8
1
  6
Continuous
 62
     2
100
AcDbLine
 10
1535.470065509567
 20
1510.819835015035
 30
0.0
 11
1535.470065509567
 21
1163.275816233225
 31
0.0
  0
SOLID
  5
11E
330
11A
100
AcDbEntity
  8
1
 62
     2
100
AcDbTrace
 10
913.6356709130393
 20
1174.962086165672
 30
0.0
 11
913.6356709130393
 21
1167.589546300778
 31
0.0
 12
885.6356709130393
 22
1171.275816233225
 32
0.0
 13
885.6356709130393
 23
1171.275816233225
 33
0.0
  0
SOLID
  5
11F
330
11A
100
AcDbEntity
  8
1
 62
     2
100
AcDbTrace
 10
1507.470065509567
 20
1167.589546300778
 30
0.0
 11
1507.470065509567
 21
1174.962086165672
 31
0.0
 12
1535.470065509567
 22
1171.275816233225
 32
0.0
 13
1535.470065509567
 23
1171.275816233225
 33
0.0
  0
MTEXT
  5
120
330
11A
100
AcDbEntity
  8
1
 62
     7
100
AcDbMText
 10
1176.924326986713
 20
1179.275816233225
 30
0.0
 40
28.0
 41
0.0
 71
     7
 72
     1
  1
650
  7
CONVERTER_12
 11
0.9999999999970619
 21
2.424068405545306E-6
 31
0.0
 73
     1
 44
0.60024009603842
  0
ENDBLK
  5
122
330
11A
100
AcDbEntity
  8
0
100
AcDbBlockEnd
  0
BLOCK
  5
12A
330
125
100
AcDbEntity
  8
0
100
AcDbBlockBegin
  2
*D8
 70
     1
 10
0.0
 20
0.0
 30
0.0
  3
*D8
  1

  0
LINE
  5
126
330
125
100
AcDbEntity
  8
1
  6
Continuous
 62
     2
100
AcDbLine
 10
1230.364224566994
 20
1572.71796474447
 30
0.0
 11
1168.013219482946
 21
1378.190216512536
 31
0.0
  0
SOLID
  5
127
330
125
100
AcDbEntity
  8
1
 62
     2
100
AcDbTrace
 10
1198.467995262046
 20
1461.128452951734
 30
0.0
 11
1191.447280969851
 21
1463.378767349063
 31
0.0
 12
1203.504055535167
 22
1488.917419880002
 32
0.0
 13
1203.504055535167
 23
1488.917419880002
 33
0.0
  0
SOLID
  5
128
330
125
100
AcDbEntity
  8
1
 62
     2
100
AcDbTrace
 10
1222.580658711288
 20
1560.511217078332
 30
0.0
 11
1229.601373003483
 21
1558.260902681003
 31
0.0
 12
1217.544598438167
 22
1532.722250150064
 32
0.0
 13
1217.544598438167
 23
1532.722250150064
 33
0.0
  0
MTEXT
  5
129
330
125
100
AcDbEntity
  8
1
 62
     7
100
AcDbMText
 10
1163.642626750934
 20
1390.764297758133
 30
0.0
 40
28.0
 41
0.0
 71
     7
 72
     1
  1
\C7;{\Fgdt;n}\C7;46
  7
CONVERTER_12
 11
0.3052291935434864
 21
0.9522789189144076
 31
0.0
 73
     1
 44
0.60024009603842
  0
ENDBLK
  5
12B
330
125
100
AcDbEntity
  8
0
100
AcDbBlockEnd
  0
BLOCK
  5
132
330
12D
100
AcDbEntity
  8
0
100
AcDbBlockBegin
  2
*D9
 70
     1
 10
0.0
 20
0.0
 30
0.0
  3
*D9
  1

  0
LINE
  5
12E
330
12D
100
AcDbEntity
  8
1
  6
Continuous
 62
     2
100
AcDbLine
 10
1276.422328436852
 20
1555.291212381506
 30
0.0
 11
1085.853583693023
 21
1426.685573739119
 31
0.0
  0
SOLID
  5
12F
330
12D
100
AcDbEntity
  8
1
 62
     2
100
AcDbTrace
 10
1158.293061656522
 20
1471.124325092286
 30
0.0
 11
1154.168948417766
 21
1477.235465252139
 31
0.0
 12
1179.440364038466
 22
1489.842770219526
 32
0.0
 13
1179.440364038466
 23
1489.842770219526
 33
0.0
  0
SOLID
  5
130
330
12D
100
AcDbEntity
  8
1
 62
     2
100
AcDbTrace
 10
1262.755592316812
 20
1550.515344937779
 30
0.0
 11
1266.879705555568
 21
1544.404204777925
 31
0.0
 12
1241.608289934867
 22
1531.796899810539
 32
0.0
 13
1241.608289934867
 23
1531.796899810539
 33
0.0
  0
MTEXT
  5
131
330
12D
100
AcDbEntity
  8
1
 62
     7
100
AcDbMText
 10
1090.198032957151
 20
1439.268711686047
 30
0.0
 40
28.0
 41
0.0
 71
     7
 72
     1
  1
\C7;{\Fgdt;n}\C7;75
  7
CONVERTER_12
 11
0.8289056786186868
 21
0.5593883945468429
 31
0.0
 73
     1
 44
0.60024009603842
  0
ENDBLK
  5
133
330
12D
100
AcDbEntity
  8
0
100
AcDbBlockEnd
  0
BLOCK
  5
13A
330
135
100
AcDbEntity
  8
0
100
AcDbBlockBegin
  2
*D10
 70
     1
 10
0.0
 20
0.0
 30
0.0
  3
*D10
  1

  0
LINE
  5
136
330
135
100
AcDbEntity
  8
1
  6
Continuous
 62
     2
100
AcDbLine
 10
1172.6129299812
 20
1637.799920617357
 30
0.0
 11
1310.772455283789
 21
1811.953754750643
 31
0.0
  0
SOLID
  5
137
330
135
100
AcDbEntity
  8
1
 62
     2
100
AcDbTrace
 10
1236.846866620711
 20
1724.699805368754
 30
0.0
 11
1242.622628639737
 21
1720.117784290776
 31
0.0
 12
1222.332794906403
 22
1700.473160774696
 32
0.0
 13
1222.332794906403
 23
1700.473160774696
 33
0.0
  0
SOLID
  5
138
330
135
100
AcDbEntity
  8
1
 62
     2
100
AcDbTrace
 10
1184.201787352623
 20
1646.476727105902
 30
0.0
 11
1178.426025333597
 21
1651.05874818388
 31
0.0
 12
1198.715859066932
 22
1670.70337169996
 32
0.0
 13
1198.715859066932
 23
1670.70337169996
 33
0.0
  0
MTEXT
  5
139
330
135
100
AcDbEntity
  8
1
 62
     7
100
AcDbMText
 10
1264.13260094879
 20
1766.035070235404
 30
0.0
 40
28.0
 41
0.0
 71
     7
 72
     1
  1
\C7;{\Fgdt;n}\C7;38
  7
CONVERTER_12
 11
0.6214983115650348
 21
0.7834155019667477
 31
0.0
 73
     1
 44
0.60024009603842
  0
ENDBLK
  5
13B
330
135
100
AcDbEntity
  8
0
100
AcDbBlockEnd
  0
ENDSEC
  0
SECTION
  2
ENTITIES
  0
INSERT
  5
4A
330
1F
100
AcDbEntity
  8
1
100
AcDbBlockReference
  2
開示A4
 10
0.0
 20
0.0
 30
0.0
 41
8.0
 42
8.0
 43
8.0
  0
LINE
  5
A4
330
1F
100
AcDbEntity
  8
1
  6
PHANTOM
 62
     4
100
AcDbLine
 10
896.0171196974502
 20
936.9292430278376
 30
0.0
 11
896.1171196974506
 21
936.9292430278376
 31
0.0
  0
LINE
  5
A5
330
1F
100
AcDbEntity
  8
1
  6
PHANTOM
 62
     4
100
AcDbLine
 10
896.0671196974495
 20
936.9792430278396
 30
0.0
 11
896.0671196974495
 21
936.8792430278386
 31
0.0
  0
LINE
  5
A6
330
1F
100
AcDbEntity
  8
1
  6
DASH_CENTER
 62
     2
100
AcDbLine
 10
1210.524326986672
 20
710.2088785913802
 30
0.0
 11
1210.524326986264
 21
960.9293840037349
 31
0.0
  0
LINE
  5
A7
330
1F
100
AcDbEntity
  8
1
  6
DASH_CENTER
 62
     2
100
AcDbLine
 10
1210.524326986713
 20
1251.275816233225
 30
0.0
 11
1210.524326986668
 21
1227.275816233225
 31
0.0
  0
LINE
  5
A8
330
1F
100
AcDbEntity
  8
1
  6
DASH_CENTER
 62
     2
100
AcDbLine
 10
1210.524326986708
 20
1741.280338524112
 30
0.0
 11
1210.524326986713
 21
1251.275816233225
 31
0.0
  0
LINE
  5
A9
330
1F
100
AcDbEntity
  8
1
  6
DASH_CENTER
 62
     2
100
AcDbLine
 10
1535.470065509567
 20
1510.819835015035
 30
0.0
 11
1559.470065509567
 21
1510.819835015035
 31
0.0
  0
LINE
  5
AA
330
1F
100
AcDbEntity
  8
1
  6
DASH_CENTER
 62
     2
100
AcDbLine
 10
885.6356709130393
 20
1510.819835015026
 30
0.0
 11
1233.524326986667
 21
1510.819835015033
 31
0.0
  0
LINE
  5
AB
330
1F
100
AcDbEntity
  8
1
  6
DASH_CENTER
 62
     2
100
AcDbLine
 10
1233.524326986667
 20
1510.819835015033
 30
0.0
 11
1248.024326986667
 21
1510.819835015033
 31
0.0
  0
LINE
  5
AC
330
1F
100
AcDbEntity
  8
1
  6
DASH_CENTER
 62
     2
100
AcDbLine
 10
1248.024326986667
 20
1510.819835015033
 30
0.0
 11
1535.470065509567
 21
1510.819835015035
 31
0.0
  0
LINE
  5
AD
330
1F
100
AcDbEntity
  8
1
  6
DASH_CENTER
 62
     2
100
AcDbLine
 10
1229.524326986667
 20
1685.588266237328
 30
0.0
 11
1245.498959425114
 21
1685.588266237328
 31
0.0
  0
LINE
  5
AE
330
1F
100
AcDbEntity
  8
1
  6
DASH_CENTER
 62
     2
100
AcDbLine
 10
498.4678864865334
 20
685.8340519553128
 30
0.0
 11
498.4678864865297
 21
960.9293840037349
 31
0.0
  0
LINE
  5
AF
330
1F
100
AcDbEntity
  8
1
  6
DASH_CENTER
 62
     2
100
AcDbLine
 10
1210.524326986714
 20
686.2088785913802
 30
0.0
 11
1210.524326986672
 21
710.2088785913802
 31
0.0
  0
LINE
  5
B0
330
1F
100
AcDbEntity
  8
1
  6
DASH_CENTER
 62
     2
100
AcDbLine
 10
1175.516621608983
 20
1685.588266237328
 30
0.0
 11
1229.524326986667
 21
1685.588266237328
 31
0.0
  0
LINE
  5
B1
330
1F
100
AcDbEntity
  8
1
  6
DASH_CENTER
 62
     2
100
AcDbLine
 10
1210.524326986667
 20
1765.280338524112
 30
0.0
 11
1210.524326986708
 21
1741.280338524112
 31
0.0
  0
LINE
  5
B2
330
1F
100
AcDbEntity
  8
1
  6
DASH_CENTER
 62
     2
100
AcDbLine
 10
861.6356709130393
 20
1510.819835015031
 30
0.0
 11
885.6356709130393
 21
1510.819835015026
 31
0.0
  0
CIRCLE
  5
B4
330
1F
100
AcDbEntity
  8
1
  6
Continuous
 62
     7
100
AcDbCircle
 10
1210.524326986667
 20
1510.819835015033
 30
0.0
 40
23.0
  0
CIRCLE
  5
B5
330
1F
100
AcDbEntity
  8
1
  6
Continuous
 62
     7
100
AcDbCircle
 10
1210.524326986667
 20
1510.819835015033
 30
0.0
 40
37.5
  0
CIRCLE
  5
B6
330
1F
100
AcDbEntity
  8
1
  6
Continuous
 62
     7
100
AcDbCircle
 10
1210.524326986667
 20
1685.588266237328
 30
0.0
 40
19.0
  0
SPLINE
  5
B7
330
1F
100
AcDbEntity
  8
0
  6
Continuous
 62
     7
100
AcDbSpline
210
0.0
220
0.0
230
1.0
 70
     8
 71
     3
 72
   307
 73
   303
 74
   301
 42
0.000000001
 43
0.0000000001
 44
0.00000001
 40
0.0
 40
0.0
 40
0.0
 40
0.0
 40
0.0740326215682151
 40
0.2896221375002708
 40
0.6370059990210108
 40
1.106421662012929
 40
1.688106582357749
 40
2.372298215938355
 40
3.149234018636863
 40
4.009151446335514
 40
4.942287954916774
 40
5.938881000263191
 40
6.98916803825646
 40
8.083386524779481
 40
9.211773915714152
 40
10.3645676669431
 40
11.53200523434856
 40
12.70432407381262
 40
13.87176164121795
 40
15.02455539244678
 40
16.15294278338132
 40
17.24716126990388
 40
18.297448307897
 40
19.29404135324281
 40
20.22717786182363
 40
21.08709528952213
 40
21.8640310922203
 40
22.54822272580055
 40
23.12990764614521
 40
23.59932330913654
 40
23.94670717065716
 40
24.16229668658908
 40
24.23632931281462
 40
25.37498549838215
 40
26.47627839461372
 40
27.55146502328532
 40
28.61011494231484
 40
29.66003151327663
 40
30.70731279187865
 40
31.75652842474878
 40
32.81097735530619
 40
33.87299179935147
 40
34.94426057559743
 40
36.02615404797504
 40
37.12004025150005
 40
38.22758590264188
 40
38.24687845011194
 40
38.26617099758177
 40
38.33876566694195
 40
38.55162800249823
 40
38.89737549544044
 40
39.36862563696076
 40
39.95799591827852
 40
40.65810383063997
 40
41.46156686530706
 40
42.36100251354697
 40
43.34902826662938
 40
44.41826161582055
 40
45.56132005238674
 40
46.77082106759352
 40
48.03938215270372
 40
49.35962079898066
 40
50.72415449768716
 40
52.12560074008493
 40
53.55657701743521
 40
55.00970082099971
 40
56.47758964204012
 40
57.95286097181678
 40
59.4281323015914
 40
60.89602112262407
 40
62.34914492617673
 40
63.78012120350925
 40
65.18156744588289
 40
66.54610114455798
 40
67.86633979079575
 40
69.13490087585656
 40
70.34440189100141
 40
71.48746032749041
 40
72.55669367658481
 40
73.5447194295454
 40
74.44415507763227
 40
75.24761811210647
 40
75.9477260242283
 40
76.53709630525904
 40
77.00834644645877
 40
77.35409393908807
 40
77.56695627440818
 40
77.63955094367898
 40
78.57789439439112
 40
79.50664946836035
 40
80.43034047592893
 40
81.35299204805176
 40
82.27829240926539
 40
83.20977178419429
 40
83.28563440818401
 40
83.48894624047618
 40
83.78329322155552
 40
84.13226129190762
 40
84.4994363920169
 40
84.84840446236903
 40
85.1427514434483
 40
85.34606327574008
 40
85.42192589972956
 40
86.50611940628053
 40
87.57604162568072
 40
88.63713362694585
 40
89.69412868186804
 40
90.75161096747757
 40
91.81459196161475
 40
91.89025050176112
 40
92.1107870975071
 40
92.46654321181299
 40
92.94786030763896
 40
93.54507984794557
 40
94.24854329569318
 40
95.04859211384262
 40
95.93556776535465
 40
96.89981171318998
 40
97.93166542030987
 40
99.0214703496754
 40
100.1595679642478
 40
101.3362997269889
 40
102.5420071008603
 40
103.7670315488243
 40
105.0017145338432
 40
106.23639751888
 40
107.4614219668974
 40
108.6671293408584
 40
109.8438611037253
 40
110.9819587184578
 40
112.071763648011
 40
113.1036173553299
 40
114.0678613033405
 40
114.9548369549422
 40
115.7548857730099
 40
116.4583492204279
 40
117.0555687601548
 40
117.5368858552633
 40
117.8926419688927
 40
118.1131785641638
 40
118.1888371041389
 40
118.7036826849848
 40
119.1991167734332
 40
119.6865440583626
 40
120.1746913218204
 40
120.6718996037966
 40
121.1884726801084
 40
121.2642832634213
 40
121.4876171439896
 40
121.8523275177581
 40
122.3522675806692
 40
122.9812905286635
 40
123.7332495576805
 40
124.6019978636605
 40
125.5813886425435
 40
126.6652750902727
 40
127.8475104027921
 40
129.1219477760506
 40
130.4824404059996
 40
131.9228414885934
 40
133.4370042197884
 40
135.0187817955412
 40
136.6620274118057
 40
138.360594264537
 40
140.1083355496849
 40
141.8991044631976
 40
143.7267542010207
 40
145.5851379590975
 40
147.4681089333701
 40
149.3695203197799
 40
151.2832253142681
 40
153.20307711278
 40
155.1229289112621
 40
157.0366339056693
 40
158.9380452919634
 40
160.8210162661162
 40
162.6794000241069
 40
164.5070497619181
 40
166.2978186755293
 40
168.0455599609056
 40
169.7441268139981
 40
171.3873724307423
 40
172.9691500070635
 40
174.4833127388822
 40
175.9237138221208
 40
177.2842064527038
 40
178.5586438265609
 40
179.7408791396265
 40
180.8247655878374
 40
181.8041563671348
 40
182.6729046734602
 40
183.4248637027572
 40
184.053886650971
 40
184.5538267140467
 40
184.9185370879295
 40
185.1418709685657
 40
185.2176815519011
 40
185.7261675360627
 40
186.2222414181453
 40
186.7147751917116
 40
187.213840202245
 40
187.7332178149035
 40
188.7711639667014
 40
189.7915102983922
 40
190.7996511969645
 40
191.7999663302882
 40
192.7961499019556
 40
193.791581781925
 40
194.7897180416988
 40
195.7944802100596
 40
196.8106215606119
 40
197.8440452746317
 40
197.9173465091414
 40
198.1300988727196
 40
198.4715753554433
 40
198.9310489473887
 40
199.4977926386334
 40
200.1610794192543
 40
200.9101822793266
 40
201.7343742089208
 40
202.6229281981072
 40
203.5651172369546
 40
204.5502143155299
 40
205.5674924238994
 40
206.60622455213
 40
207.6556836902894
 40
208.7051428284453
 40
209.7438749566665
 40
210.7611530650226
 40
211.7462501435836
 40
212.6884391824203
 40
213.5769931716031
 40
214.4011851012033
 40
215.1502879612919
 40
215.8135747419408
 40
216.3803184332214
 40
216.8397920252048
 40
217.1812685079621
 40
217.3940208715644
 40
217.4673221060827
 40
218.659117382415
 40
219.852099988541
 40
221.0415572346534
 40
222.2232990894217
 40
223.3938179116935
 40
224.5504757455971
 40
225.6917235279446
 40
226.8173529842778
 40
227.9287750687452
 40
229.0293072656063
 40
230.1244358672084
 40
231.2220016926833
 40
232.3322470497214
 40
233.4676704774737
 40
234.6426724058956
 40
235.8730319192612
 40
237.1753060542695
 40
237.2495338758188
 40
237.467752509095
 40
237.8232647070415
 40
238.309373222601
 40
238.9193808087162
 40
239.6465902183303
 40
240.4843042043861
 40
241.4258255198268
 40
242.4644569175951
 40
243.5935011506337
 40
244.806260971886
 40
246.0960391342948
 40
247.4561383908029
 40
248.8798614943532
 40
250.3605111978889
 40
251.8913902543525
 40
253.4658014166873
 40
255.0770474378361
 40
256.7184310707416
 40
258.3832550683473
 40
260.0648221835957
 40
261.7564351694297
 40
263.4513967787923
 40
265.1430097646265
 40
266.8245768798751
 40
268.4894008774812
 40
270.1307845103875
 40
271.7420305315369
 40
273.3164416938727
 40
274.8473207503372
 40
276.3279704538739
 40
277.7516935574254
 40
279.1117928139346
 40
280.4015709763445
 40
281.6143307975981
 40
282.7433750306381
 40
283.7820064284074
 40
284.7235277438491
 40
285.561241729906
 40
286.288451139521
 40
286.898458725637
 40
287.3845672411972
 40
287.7400794391442
 40
287.9582980724208
 40
288.0325258892585
 40
288.0325258892585
 40
288.0325258892585
 40
288.0325258892585
 10
1306.413799942652
 20
779.7778046765552
 30
0.0
 10
1306.412419266993
 20
779.753165789791
 30
0.0
 10
1306.407017921047
 20
779.6567762953845
 30
0.0
 10
1306.395138060665
 20
779.4447735535136
 30
0.0
 10
1306.37588445065
 20
779.1011829027971
 30
0.0
 10
1306.349803338674
 20
778.6357515947142
 30
0.0
 10
1306.317440904379
 20
778.0582268830049
 30
0.0
 10
1306.27934335773
 20
777.378356019709
 30
0.0
 10
1306.236056897066
 20
776.6058862575172
 30
0.0
 10
1306.1881277248
 20
775.7505648488923
 30
0.0
 10
1306.136102042005
 20
774.8221390463725
 30
0.0
 10
1306.08052605017
 20
773.8303561024719
 30
0.0
 10
1306.02194595066
 20
772.7849632697121
 30
0.0
 10
1305.960907944881
 20
771.6957078006129
 30
0.0
 10
1305.897958234222
 20
770.5723369476942
 30
0.0
 10
1305.833643020077
 20
769.4245979634759
 30
0.0
 10
1305.768508503848
 20
768.2622381004767
 30
0.0
 10
1305.703100886891
 20
767.0950046112201
 30
0.0
 10
1305.637966370752
 20
765.9326447482158
 30
0.0
 10
1305.573651156256
 20
764.7849057640187
 30
0.0
 10
1305.510701446869
 20
763.6615349110233
 30
0.0
 10
1305.449663436559
 20
762.5722794421965
 30
0.0
 10
1305.391083352935
 20
761.5268866084847
 30
0.0
 10
1305.335507306385
 20
760.5351036678644
 30
0.0
 10
1305.283481808319
 20
759.6066778542729
 30
0.0
 10
1305.235552027167
 20
758.7513564821417
 30
0.0
 10
1305.192267514527
 20
757.9788866031965
 30
0.0
 10
1305.154163971808
 20
757.299016099271
 30
0.0
 10
1305.121819040786
 20
756.7214903385163
 30
0.0
 10
1305.095690687514
 20
756.2560618618065
 30
0.0
 10
1305.076549058678
 20
755.91246449958
 30
0.0
 10
1305.064464820599
 20
755.7004740053812
 30
0.0
 10
1305.038901094334
 20
755.2250626473361
 30
0.0
 10
1304.922442762174
 20
754.4593370074329
 30
0.0
 10
1304.634089724269
 20
753.3903182899314
 30
0.0
 10
1304.217417348453
 20
752.3921750082584
 30
0.0
 10
1303.688316714042
 20
751.4691912485182
 30
0.0
 10
1303.055377715851
 20
750.6256966715858
 30
0.0
 10
1302.328992306506
 20
749.8658442407823
 30
0.0
 10
1301.518939467285
 20
749.1937426923123
 30
0.0
 10
1300.63502212557
 20
748.6134900833554
 30
0.0
 10
1299.686917078821
 20
748.1292210837818
 30
0.0
 10
1298.68426396711
 20
747.7451046958122
 30
0.0
 10
1297.636613547149
 20
747.4654350479134
 30
0.0
 10
1296.553699804163
 20
747.2943260823682
 30
0.0
 10
1295.812869696081
 20
747.2559562808219
 30
0.0
 10
1295.430828322442
 20
747.2560824654552
 30
0.0
 10
1295.393768346339
 20
747.2560874593934
 30
0.0
 10
1295.292185398289
 20
747.255858251879
 30
0.0
 10
1295.081784046092
 20
747.2555986852327
 30
0.0
 10
1294.738497853113
 20
747.2550343860325
 30
0.0
 10
1294.269709079548
 20
747.2543276791126
 30
0.0
 10
1293.682800339483
 20
747.253418147523
 30
0.0
 10
1292.98515408745
 20
747.2523457772281
 30
0.0
 10
1292.184152839857
 20
747.2511116054087
 30
0.0
 10
1291.287179091119
 20
747.2497305012404
 30
0.0
 10
1290.301615343017
 20
747.248212699081
 30
0.0
 10
1289.234844094966
 20
747.2465699235103
 30
0.0
 10
1288.094247847117
 20
747.2448134345907
 30
0.0
 10
1286.887209099403
 20
747.2429546337078
 30
0.0
 10
1285.621110351817
 20
747.2410048800928
 30
0.0
 10
1284.303334104343
 20
747.2389755453489
 30
0.0
 10
1282.94126285696
 20
747.2368779974989
 30
0.0
 10
1281.542279109656
 20
747.2347236055907
 30
0.0
 10
1280.113765362415
 20
747.2325237383823
 30
0.0
 10
1278.663104115221
 20
747.230289764713
 30
0.0
 10
1277.197677868059
 20
747.2280330534003
 30
0.0
 10
1275.724869120914
 20
747.2257649732677
 30
0.0
 10
1274.252060373772
 20
747.2234968931368
 30
0.0
 10
1272.786634126617
 20
747.221240181831
 30
0.0
 10
1271.335972879436
 20
747.2190062081697
 30
0.0
 10
1269.907459132213
 20
747.2168063409856
 30
0.0
 10
1268.508475384933
 20
747.2146519490645
 30
0.0
 10
1267.146404137584
 20
747.2125544013616
 30
0.0
 10
1265.828627890143
 20
747.210525066226
 30
0.0
 10
1264.562529142625
 20
747.2085753141498
 30
0.0
 10
1263.355490394914
 20
747.2067165081287
 30
0.0
 10
1262.214894147347
 20
747.2049600370692
 30
0.0
 10
1261.148122898709
 20
747.2033172015733
 30
0.0
 10
1260.162559153003
 20
747.2017995982662
 30
0.0
 10
1259.265585397064
 20
747.2004178507694
 30
0.0
 10
1258.464584172815
 20
747.1991857041718
 30
0.0
 10
1257.766937850844
 20
747.1981071952938
 30
0.0
 10
1257.180029313062
 20
747.197215333972
 30
0.0
 10
1256.711240001576
 20
747.1964615464912
 30
0.0
 10
1256.36795507005
 20
747.1960075668933
 30
0.0
 10
1256.157551438137
 20
747.1955485661618
 30
0.0
 10
1255.749629239758
 20
747.1955324918173
 30
0.0
 10
1255.102453963177
 20
747.1598792217108
 30
0.0
 10
1254.184256271257
 20
746.9976890052304
 30
0.0
 10
1253.295895886366
 20
746.7331358270272
 30
0.0
 10
1252.443751016641
 20
746.3702039798238
 30
0.0
 10
1251.639202906551
 20
745.9084069062428
 30
0.0
 10
1251.11074769989
 20
745.5358462883478
 30
0.0
 10
1250.805811656249
 20
745.2714992822597
 30
0.0
 10
1250.660848520758
 20
745.1468710574387
 30
0.0
 10
1250.447148665596
 20
744.9625480583945
 30
0.0
 10
1250.191976651162
 20
744.7426811058784
 30
0.0
 10
1249.92304337419
 20
744.510892109749
 30
0.0
 10
1249.667901120679
 20
744.2909888373006
 30
0.0
 10
1249.454110698988
 20
744.1067763647404
 30
0.0
 10
1249.309336869512
 20
743.981917112755
 30
0.0
 10
1248.964866106763
 20
743.6855301114731
 30
0.0
 10
1248.415993368484
 20
743.1810999672318
 30
0.0
 10
1247.747529311542
 20
742.338212177275
 30
0.0
 10
1247.199703946024
 20
741.4241432063512
 30
0.0
 10
1246.784363348045
 20
740.4470286677445
 30
0.0
 10
1246.50190762349
 20
739.422445483891
 30
0.0
 10
1246.414465183047
 20
738.6932885886081
 30
0.0
 10
1246.383323924917
 20
738.2413242833063
 30
0.0
 10
1246.367989960651
 20
738.0245440631261
 30
0.0
 10
1246.343372494687
 20
737.6728706322506
 30
0.0
 10
1246.309871347993
 20
737.1959471302664
 30
0.0
 10
1246.26829310774
 20
736.6034044757557
 30
0.0
 10
1246.21926256385
 20
735.9048790492709
 30
0.0
 10
1246.163474317021
 20
735.1100051339487
 30
0.0
 10
1246.101598455986
 20
734.2284177493701
 30
0.0
 10
1246.034313181312
 20
733.2697516714027
 30
0.0
 10
1245.962294120452
 20
732.24364175322
 30
0.0
 10
1245.886217691256
 20
731.1597228242492
 30
0.0
 10
1245.806760074894
 20
730.0276297210287
 30
0.0
 10
1245.724597521935
 20
728.8569972780106
 30
0.0
 10
1245.640406262959
 20
727.6574603302474
 30
0.0
 10
1245.554862534205
 20
726.4386537126227
 30
0.0
 10
1245.468642570367
 20
725.210212260064
 30
0.0
 10
1245.38242260641
 20
723.9817708074937
 30
0.0
 10
1245.296878877795
 20
722.7629641898121
 30
0.0
 10
1245.212687617745
 20
721.5634272420103
 30
0.0
 10
1245.130525067681
 20
720.3927947987502
 30
0.0
 10
1245.051067439653
 20
719.2607016958835
 30
0.0
 10
1244.974991049277
 20
718.1767827650759
 30
0.0
 10
1244.902971852553
 20
717.1506728525657
 30
0.0
 10
1244.835687031907
 20
716.1920067549509
 30
0.0
 10
1244.773809674065
 20
715.3104194346873
 30
0.0
 10
1244.718026199258
 20
714.515545314373
 30
0.0
 10
1244.668980993605
 20
713.8170205185354
 30
0.0
 10
1244.627445460285
 20
713.2244760287385
 30
0.0
 10
1244.593829254553
 20
712.7475574735618
 30
0.0
 10
1244.569484074893
 20
712.3958723383914
 30
0.0
 10
1244.553653824419
 20
712.1791134528336
 30
0.0
 10
1244.536516927165
 20
711.9093574540667
 30
0.0
 10
1244.464238560947
 20
711.5501667259881
 30
0.0
 10
1244.242088195891
 20
711.0972743428908
 30
0.0
 10
1243.92084763894
 20
710.7201118900189
 30
0.0
 10
1243.516485411518
 20
710.4331656731563
 30
0.0
 10
1243.045157158753
 20
710.2492479293136
 30
0.0
 10
1242.680290032806
 20
710.2076308305259
 30
0.0
 10
1242.408447919936
 20
710.2092192835689
 30
0.0
 10
1242.187140778053
 20
710.2086660875968
 30
0.0
 10
1241.824491695413
 20
710.208974049759
 30
0.0
 10
1241.32659525344
 20
710.2088416137584
 30
0.0
 10
1240.699623251217
 20
710.2088917361125
 30
0.0
 10
1239.94971245188
 20
710.2088741646465
 30
0.0
 10
1239.083013315392
 20
710.2088800163069
 30
0.0
 10
1238.105671395817
 20
710.2088781371315
 30
0.0
 10
1237.023833906307
 20
710.2088787231482
 30
0.0
 10
1235.843647521283
 20
710.2088785434248
 30
0.0
 10
1234.571259084864
 20
710.2088785966555
 30
0.0
 10
1233.21281538896
 20
710.2088785802302
 30
0.0
 10
1231.774463241233
 20
710.2088785843882
 30
0.0
 10
1230.262349444666
 20
710.2088785826048
 30
0.0
 10
1228.68262080361
 20
710.2088785826007
 30
0.0
 10
1227.041424122023
 20
710.2088785821595
 30
0.0
 10
1225.344906203977
 20
710.2088785819168
 30
0.0
 10
1223.599213853512
 20
710.2088785816907
 30
0.0
 10
1221.810493874684
 20
710.2088785815322
 30
0.0
 10
1219.984893071547
 20
710.2088785814253
 30
0.0
 10
1218.128558248156
 20
710.2088785813746
 30
0.0
 10
1216.247636208569
 20
710.2088785813818
 30
0.0
 10
1214.348273756846
 20
710.2088785814514
 30
0.0
 10
1212.436617697042
 20
710.2088785815921
 30
0.0
 10
1210.518814833215
 20
710.2088785818146
 30
0.0
 10
1208.601011969414
 20
710.2088785821337
 30
0.0
 10
1206.689355909687
 20
710.2088785825645
 30
0.0
 10
1204.789993458069
 20
710.2088785831222
 30
0.0
 10
1202.90907141859
 20
710.2088785838162
 30
0.0
 10
1201.052736595272
 20
710.2088785846447
 30
0.0
 10
1199.227135792134
 20
710.2088785855918
 30
0.0
 10
1197.438415813201
 20
710.2088785866209
 30
0.0
 10
1195.692723462507
 20
710.208878587702
 30
0.0
 10
1193.996205544104
 20
710.2088785887341
 30
0.0
 10
1192.355008862047
 20
710.2088785898624
 30
0.0
 10
1190.775280220434
 20
710.2088785904019
 30
0.0
 10
1189.263166423257
 20
710.2088785926289
 30
0.0
 10
1187.824814274884
 20
710.2088785885755
 30
0.0
 10
1186.466370578399
 20
710.2088786056322
 30
0.0
 10
1185.193982141233
 20
710.2088785506844
 30
0.0
 10
1184.01379575618
 20
710.2088787360788
 30
0.0
 10
1182.931958264508
 20
710.2088781310995
 30
0.0
 10
1181.954616349904
 20
710.2088800703775
 30
0.0
 10
1181.087917196295
 20
710.2088740307472
 30
0.0
 10
1180.338006447046
 20
710.2088921658192
 30
0.0
 10
1179.711034300914
 20
710.2088404350172
 30
0.0
 10
1179.213138238432
 20
710.2089771202988
 30
0.0
 10
1178.850488272833
 20
710.2086592765229
 30
0.0
 10
1178.629182716743
 20
710.2092302226658
 30
0.0
 10
1178.360031160846
 20
710.2076070546462
 30
0.0
 10
1177.998392350851
 20
710.2495849347367
 30
0.0
 10
1177.528740990945
 20
710.4349656304379
 30
0.0
 10
1177.125308577984
 20
710.730671152295
 30
0.0
 10
1176.798733075835
 20
711.1254260313879
 30
0.0
 10
1176.55740109279
 20
711.7723048127508
 30
0.0
 10
1176.266709743733
 20
712.5800047819171
 30
0.0
 10
1175.765251345546
 20
713.476283744439
 30
0.0
 10
1175.172633122567
 20
714.2958972547764
 30
0.0
 10
1174.485776954671
 20
715.0287308420634
 30
0.0
 10
1173.717597823289
 20
715.6686021714846
 30
0.0
 10
1172.876682679628
 20
716.2082257692498
 30
0.0
 10
1171.972715687775
 20
716.6405916141287
 30
0.0
 10
1171.015001137461
 20
716.9582451232827
 30
0.0
 10
1170.013217040671
 20
717.1547119699953
 30
0.0
 10
1169.304745191661
 20
717.1989121717202
 30
0.0
 10
1168.864933042293
 20
717.198203650549
 30
0.0
 10
1168.655753584062
 20
717.1983474543063
 30
0.0
 10
1168.317854279049
 20
717.1982690288525
 30
0.0
 10
1167.861955724635
 20
717.1983019259972
 30
0.0
 10
1167.298787936183
 20
717.1982898161971
 30
0.0
 10
1166.639076746348
 20
717.1982939356631
 30
0.0
 10
1165.893549581778
 20
717.1982926083709
 30
0.0
 10
1165.072933314251
 20
717.1982930202557
 30
0.0
 10
1164.187954997418
 20
717.1982928970626
 30
0.0
 10
1163.249341627852
 20
717.1982929337345
 30
0.0
 10
1162.267820219455
 20
717.1982929237461
 30
0.0
 10
1161.254117781006
 20
717.1982929270547
 30
0.0
 10
1160.218961322769
 20
717.1982929265968
 30
0.0
 10
1159.173077854583
 20
717.1982929271188
 30
0.0
 10
1158.127194386404
 20
717.1982929274
 30
0.0
 10
1157.092037928163
 20
717.1982929274582
 30
0.0
 10
1156.078335489772
 20
717.1982929284336
 30
0.0
 10
1155.096814081229
 20
717.1982929259422
 30
0.0
 10
1154.158200712222
 20
717.1982929354792
 30
0.0
 10
1153.273222393517
 20
717.1982929036669
 30
0.0
 10
1152.452606132224
 20
717.1982930101419
 30
0.0
 10
1151.707078947499
 20
717.1982926670496
 30
0.0
 10
1151.047367820114
 20
717.1982937318487
 30
0.0
 10
1150.484199847941
 20
717.1982906016278
 30
0.0
 10
1150.028301792473
 20
717.1982991050027
 30
0.0
 10
1149.690401297861
 20
717.1982788332195
 30
0.0
 10
1149.481224020831
 20
717.1983160042406
 30
0.0
 10
1148.988610948787
 20
717.1981108807266
 30
0.0
 10
1148.169013131455
 20
717.2132819338462
 30
0.0
 10
1146.980432790461
 20
717.3043863406133
 30
0.0
 10
1145.801974003268
 20
717.4599294656457
 30
0.0
 10
1144.642057419316
 20
717.6837707437506
 30
0.0
 10
1143.509049799722
 20
717.9775273407532
 30
0.0
 10
1142.411325522877
 20
718.3434554687624
 30
0.0
 10
1141.357261950475
 20
718.7837003873769
 30
0.0
 10
1140.355263709387
 20
719.3005099976215
 30
0.0
 10
1139.413794883536
 20
719.8961861802862
 30
0.0
 10
1138.5414217124
 20
720.5730853390626
 30
0.0
 10
1137.746863764072
 20
721.3335718551779
 30
0.0
 10
1137.038993904047
 20
722.1799366098292
 30
0.0
 10
1136.426892793675
 20
723.1143043753594
 30
0.0
 10
1135.919419477041
 20
724.1385183868756
 30
0.0
 10
1135.52633261194
 20
725.2542761644854
 30
0.0
 10
1135.253150783157
 20
726.4626754608498
 30
0.0
 10
1135.165523564962
 20
727.3289921129362
 30
0.0
 10
1135.132410848157
 20
727.8595185747955
 30
0.0
 10
1135.118713612818
 20
728.075072637798
 30
0.0
 10
1135.096469136604
 20
728.4276499702671
 30
0.0
 10
1135.06592889153
 20
728.9105619385085
 30
0.0
 10
1135.027596947659
 20
729.5171268880024
 30
0.0
 10
1134.981863094783
 20
730.2406600067139
 30
0.0
 10
1134.929161647569
 20
731.0744777128118
 30
0.0
 10
1134.869911032329
 20
732.0118959854764
 30
0.0
 10
1134.80453502699
 20
733.0462309517507
 30
0.0
 10
1134.733455679162
 20
734.1707986908691
 30
0.0
 10
1134.657095579049
 20
735.3789152970592
 30
0.0
 10
1134.575877150723
 20
736.6638968599576
 30
0.0
 10
1134.490222868149
 20
738.0190594705787
 30
0.0
 10
1134.400555190549
 20
739.4377192195307
 30
0.0
 10
1134.307296581439
 20
740.91319219754
 30
0.0
 10
1134.210869503101
 20
742.4387944952986
 30
0.0
 10
1134.111696418168
 20
744.0078422035087
 30
0.0
 10
1134.010199789175
 20
745.6136514128696
 30
0.0
 10
1133.906802078681
 20
747.2495382140811
 30
0.0
 10
1133.801925749245
 20
748.908818697844
 30
0.0
 10
1133.695993263418
 20
750.5848089548562
 30
0.0
 10
1133.589427083757
 20
752.2708250758196
 30
0.0
 10
1133.482649672818
 20
753.9601831514324
 30
0.0
 10
1133.376083493159
 20
755.646199272396
 30
0.0
 10
1133.270151007331
 20
757.3221895294088
 30
0.0
 10
1133.165274677893
 20
758.9814700131716
 30
0.0
 10
1133.061876967399
 20
760.6173568143839
 30
0.0
 10
1132.960380338406
 20
762.2231660237456
 30
0.0
 10
1132.861207253468
 20
763.7922137319563
 30
0.0
 10
1132.764780175143
 20
765.3178160297164
 30
0.0
 10
1132.671521565985
 20
766.7932890077252
 30
0.0
 10
1132.581853888549
 20
768.2119487566828
 30
0.0
 10
1132.496199605392
 20
769.5671113672889
 30
0.0
 10
1132.41498117907
 20
770.8520929302437
 30
0.0
 10
1132.338621072136
 20
772.0602095362467
 30
0.0
 10
1132.267541747154
 20
773.1847772759977
 30
0.0
 10
1132.202165666647
 20
774.2191122401956
 30
0.0
 10
1132.142915293285
 20
775.1565305195462
 30
0.0
 10
1132.09021308926
 20
775.9903482047278
 30
0.0
 10
1132.044481518239
 20
776.7138813865085
 30
0.0
 10
1132.006143039514
 20
777.3204461553842
 30
0.0
 10
1131.975620124644
 20
777.8033586026222
 30
0.0
 10
1131.953335213691
 20
778.1559348175012
 30
0.0
 10
1131.939710816443
 20
778.3714908921327
 30
0.0
 10
1131.933561618165
 20
778.4687789023732
 30
0.0
 10
1131.932000853822
 20
778.4934722323869
 30
0.0
 11
1306.413799942652
 21
779.7778046765552
 31
0.0
 11
1306.409657915414
 21
779.703888011612
 31
0.0
 11
1306.397595967961
 21
779.4886361851288
 31
0.0
 11
1306.37816030169
 21
779.1417964496258
 31
0.0
 11
1306.351897117992
 21
778.6731160576227
 31
0.0
 11
1306.319352618263
 21
778.0923422616399
 31
0.0
 11
1306.281073003896
 21
777.4092223141971
 31
0.0
 11
1306.237604476285
 21
776.6335034678145
 31
0.0
 11
1306.189493236825
 21
775.774932975012
 31
0.0
 11
1306.13728548691
 21
774.8432580883094
 31
0.0
 11
1306.081527427933
 21
773.8482260602268
 31
0.0
 11
1306.022765261289
 21
772.7995841432844
 31
0.0
 11
1305.961545188372
 21
771.7070795900019
 31
0.0
 11
1305.898413410575
 21
770.5804596528995
 31
0.0
 11
1305.833916129293
 21
769.4294715844972
 31
0.0
 11
1305.76859954592
 21
768.2638626373148
 31
0.0
 11
1305.703009861851
 21
767.0933800638725
 31
0.0
 11
1305.637693278478
 21
765.9277711166901
 31
0.0
 11
1305.573195997196
 21
764.7767830482877
 31
0.0
 11
1305.510064219399
 21
763.6501631111853
 31
0.0
 11
1305.448844146482
 21
762.557658557903
 31
0.0
 11
1305.390081979838
 21
761.5090166409605
 31
0.0
 11
1305.334323920861
 21
760.513984612878
 31
0.0
 11
1305.282116170946
 21
759.5823097261755
 31
0.0
 11
1305.234004931486
 21
758.7237392333727
 31
0.0
 11
1305.190536403875
 21
757.94802038699
 31
0.0
 11
1305.152256789508
 21
757.2649004395473
 31
0.0
 11
1305.119712289779
 21
756.6841266435644
 31
0.0
 11
1305.093449106081
 21
756.2154462515615
 31
0.0
 11
1305.074013439809
 21
755.8686065160584
 31
0.0
 11
1305.061951492357
 21
755.6533546895753
 31
0.0
 11
1305.057809465119
 21
755.579438024632
 31
0.0
 11
1304.89934688575
 21
754.4518620759176
 31
0.0
 11
1304.608517284068
 21
753.3896642663941
 31
0.0
 11
1304.195030284705
 21
752.3971650026815
 31
0.0
 11
1303.668595512292
 21
751.4786846913987
 31
0.0
 11
1303.038922591463
 21
750.6385437391654
 31
0.0
 11
1302.31572114685
 21
749.8810625526005
 31
0.0
 11
1301.508700803085
 21
749.2105615383239
 31
0.0
 11
1300.6275711848
 21
748.6313611029545
 31
0.0
 11
1299.682041916628
 21
748.147781653112
 31
0.0
 11
1298.681822623201
 21
747.7641435954156
 31
0.0
 11
1297.636622929152
 21
747.4847673364848
 31
0.0
 11
1296.556152459112
 21
747.3139732829386
 31
0.0
 11
1295.450120837715
 21
747.2560818413967
 31
0.0
 11
1295.43082829027
 21
747.2560818413967
 31
0.0
 11
1295.411535742825
 21
747.2560818413967
 31
0.0
 11
1295.338941159634
 21
747.2559700479745
 31
0.0
 11
1295.126079076717
 21
747.2556422469228
 31
0.0
 11
1294.780331994061
 21
747.2551098070643
 31
0.0
 11
1294.309082411652
 21
747.2543840972215
 31
0.0
 11
1293.719712829473
 21
747.2534764862173
 31
0.0
 11
1293.019605747511
 21
747.2523983428739
 31
0.0
 11
1292.216143665752
 21
747.251161036014
 31
0.0
 11
1291.316709084181
 21
747.2497759344604
 31
0.0
 11
1290.328684502783
 21
747.2482544070357
 31
0.0
 11
1289.259452421545
 21
747.246607822562
 31
0.0
 11
1288.116395340451
 21
747.2448475498629
 31
0.0
 11
1286.906895759487
 21
747.24298495776
 31
0.0
 11
1285.63833617864
 21
747.2410314150763
 31
0.0
 11
1284.318099097893
 21
747.2389982906343
 31
0.0
 11
1282.953567017233
 21
747.2368969532569
 31
0.0
 11
1281.552122436645
 21
747.2347387717664
 31
0.0
 11
1280.121147856116
 21
747.2325351149855
 31
0.0
 11
1278.66802577563
 21
747.2302973517368
 31
0.0
 11
1277.200138695172
 21
747.2280368508428
 31
0.0
 11
1275.724869114729
 21
747.2257649811263
 31
0.0
 11
1274.249599534286
 21
747.2234931114099
 31
0.0
 11
1272.781712453829
 21
747.221232610516
 31
0.0
 11
1271.328590373342
 21
747.2189948472671
 31
0.0
 11
1269.897615792813
 21
747.2167911904862
 31
0.0
 11
1268.496171212225
 21
747.2146330089957
 31
0.0
 11
1267.131639131565
 21
747.2125316716183
 31
0.0
 11
1265.811402050819
 21
747.2104985471765
 31
0.0
 11
1264.542842469971
 21
747.2085450044926
 31
0.0
 11
1263.333342889007
 21
747.2066824123899
 31
0.0
 11
1262.190285807913
 21
747.2049221396903
 31
0.0
 11
1261.121053726675
 21
747.2032755552169
 31
0.0
 11
1260.133029145277
 21
747.201754027792
 31
0.0
 11
1259.233594563706
 21
747.2003689262385
 31
0.0
 11
1258.430132481947
 21
747.1991316193787
 31
0.0
 11
1257.730025399985
 21
747.1980534760354
 31
0.0
 11
1257.140655817806
 21
747.197145865031
 31
0.0
 11
1256.669406235396
 21
747.1964201551882
 31
0.0
 11
1256.32365915274
 21
747.1958877153298
 31
0.0
 11
1256.110797069824
 21
747.1955599142782
 31
0.0
 11
1256.038202486633
 21
747.1954481208559
 31
0.0
 11
1255.101442127379
 21
747.140964537795
 31
0.0
 11
1254.186730393776
 21
746.9800657128769
 31
0.0
 11
1253.301416827708
 21
746.7165795324996
 31
0.0
 11
1252.452850971059
 21
746.3543338830607
 31
0.0
 11
1251.648382365711
 21
745.8971566509579
 31
0.0
 11
1250.895360553548
 21
745.3488757225887
 31
0.0
 11
1250.837894999725
 21
745.2993494887019
 31
0.0
 11
1250.68388731548
 21
745.1666191818854
 31
0.0
 11
1250.460920966648
 21
744.9744573944048
 31
0.0
 11
1250.196579419063
 21
744.7466367185257
 31
0.0
 11
1249.918446138561
 21
744.5069297465137
 31
0.0
 11
1249.654104590975
 21
744.2791090706347
 31
0.0
 11
1249.431138242143
 21
744.086947283154
 31
0.0
 11
1249.277130557898
 21
743.9542169763376
 31
0.0
 11
1249.219665004075
 21
743.9046907424508
 31
0.0
 11
1248.433340580252
 21
743.1582528948926
 31
0.0
 11
1247.765068172936
 21
742.3227018519951
 31
0.0
 11
1247.220819284906
 21
741.4118180047901
 31
0.0
 11
1246.806565418943
 21
740.4393817443096
 31
0.0
 11
1246.528278077828
 21
739.4191734615854
 31
0.0
 11
1246.39192876434
 21
738.3649735476492
 31
0.0
 11
1246.386631590102
 21
738.2895006741003
 31
0.0
 11
1246.371190890727
 21
738.0695052767342
 31
0.0
 11
1246.346282901224
 21
737.714622190472
 31
0.0
 11
1246.312583856602
 21
737.234486250235
 31
0.0
 11
1246.270769991871
 21
736.6387322909443
 31
0.0
 11
1246.221517542039
 21
735.9369951475211
 31
0.0
 11
1246.165502742116
 21
735.1389096548863
 31
0.0
 11
1246.103401827111
 21
734.2541106479614
 31
0.0
 11
1246.035891032033
 21
733.2922329616673
 31
0.0
 11
1245.96364659189
 21
732.2629114309251
 31
0.0
 11
1245.887344741694
 21
731.175780890656
 31
0.0
 11
1245.807661716451
 21
730.0404761757814
 31
0.0
 11
1245.725273751172
 21
728.866632121222
 31
0.0
 11
1245.640857080865
 21
727.6638835618993
 31
0.0
 11
1245.55508794054
 21
726.4418653327342
 31
0.0
 11
1245.468642565207
 21
725.2102122686481
 31
0.0
 11
1245.382197189873
 21
723.9785592045619
 31
0.0
 11
1245.296428049548
 21
722.7565409753969
 31
0.0
 11
1245.212011379241
 21
721.5537924160742
 31
0.0
 11
1245.129623413962
 21
720.3799483615148
 31
0.0
 11
1245.04994038872
 21
719.2446436466402
 31
0.0
 11
1244.973638538523
 21
718.1575131063712
 31
0.0
 11
1244.90139409838
 21
717.128191575629
 31
0.0
 11
1244.833883303302
 21
716.1663138893348
 31
0.0
 11
1244.771782388297
 21
715.2815148824097
 31
0.0
 11
1244.715767588374
 21
714.4834293897751
 31
0.0
 11
1244.666515138542
 21
713.7816922463519
 31
0.0
 11
1244.624701273811
 21
713.1859382870612
 31
0.0
 11
1244.59100222919
 21
712.7058023468242
 31
0.0
 11
1244.566094239686
 21
712.350919260562
 31
0.0
 11
1244.550653540311
 21
712.1309238631959
 31
0.0
 11
1244.545356366073
 21
712.0554509896469
 31
0.0
 11
1244.441493048481
 21
711.5511907548519
 31
0.0
 11
1244.223405600781
 21
711.1063393169501
 31
0.0
 11
1243.907324261299
 21
710.7352895287963
 31
0.0
 11
1243.509479268361
 21
710.4524342432466
 31
0.0
 11
1243.046100860294
 21
710.272166313156
 31
0.0
 11
1242.533419275424
 21
710.2088785913802
 31
0.0
 11
1242.457608692098
 21
710.2088785913801
 31
0.0
 11
1242.234274811488
 21
710.2088785913802
 31
0.0
 11
1241.869564437649
 21
710.2088785913801
 31
0.0
 11
1241.369624374633
 21
710.2088785913802
 31
0.0
 11
1240.740601426493
 21
710.2088785913802
 31
0.0
 11
1239.988642397285
 21
710.2088785913802
 31
0.0
 11
1239.11989409106
 21
710.2088785913802
 31
0.0
 11
1238.140503311873
 21
710.2088785913803
 31
0.0
 11
1237.056616863777
 21
710.2088785913801
 31
0.0
 11
1235.874381550825
 21
710.2088785913802
 31
0.0
 11
1234.599944177071
 21
710.2088785913803
 31
0.0
 11
1233.239451546568
 21
710.2088785913801
 31
0.0
 11
1231.799050463371
 21
710.2088785913803
 31
0.0
 11
1230.284887731531
 21
710.2088785913802
 31
0.0
 11
1228.703110155103
 21
710.2088785913802
 31
0.0
 11
1227.059864538141
 21
710.2088785913802
 31
0.0
 11
1225.361297684697
 21
710.2088785913803
 31
0.0
 11
1223.613556398825
 21
710.2088785913802
 31
0.0
 11
1221.82278748458
 21
710.2088785913803
 31
0.0
 11
1219.995137746013
 21
710.2088785913803
 31
0.0
 11
1218.136753987179
 21
710.2088785913802
 31
0.0
 11
1216.25378301213
 21
710.2088785913802
 31
0.0
 11
1214.352371624921
 21
710.2088785913802
 31
0.0
 11
1212.438666629607
 21
710.2088785913802
 31
0.0
 11
1210.518814830237
 21
710.2088785913802
 31
0.0
 11
1208.598963030869
 21
710.2088785913802
 31
0.0
 11
1206.685258035553
 21
710.2088785913801
 31
0.0
 11
1204.783846648344
 21
710.2088785913803
 31
0.0
 11
1202.900875673296
 21
710.2088785913801
 31
0.0
 11
1201.042491914462
 21
710.2088785913802
 31
0.0
 11
1199.214842175896
 21
710.2088785913802
 31
0.0
 11
1197.424073261649
 21
710.2088785913802
 31
0.0
 11
1195.676331975778
 21
710.2088785913803
 31
0.0
 11
1193.977765122334
 21
710.2088785913802
 31
0.0
 11
1192.334519505372
 21
710.2088785913803
 31
0.0
 11
1190.752741928944
 21
710.2088785913802
 31
0.0
 11
1189.238579197104
 21
710.2088785913802
 31
0.0
 11
1187.798178113906
 21
710.2088785913802
 31
0.0
 11
1186.437685483404
 21
710.2088785913802
 31
0.0
 11
1185.16324810965
 21
710.2088785913802
 31
0.0
 11
1183.981012796698
 21
710.2088785913802
 31
0.0
 11
1182.897126348602
 21
710.2088785913802
 31
0.0
 11
1181.917735569415
 21
710.2088785913802
 31
0.0
 11
1181.04898726319
 21
710.2088785913802
 31
0.0
 11
1180.297028233981
 21
710.2088785913802
 31
0.0
 11
1179.668005285842
 21
710.2088785913802
 31
0.0
 11
1179.168065222826
 21
710.2088785913801
 31
0.0
 11
1178.803354848987
 21
710.2088785913802
 31
0.0
 11
1178.580020968377
 21
710.2088785913802
 31
0.0
 11
1178.504210385051
 21
710.2088785913802
 31
0.0
 11
1177.999649635654
 21
710.2719376607419
 31
0.0
 11
1177.538215998031
 21
710.4540593086186
 31
0.0
 11
1177.14054698579
 21
710.7446601946979
 31
0.0
 11
1176.827280112542
 21
711.1331569786673
 31
0.0
 11
1176.619052891894
 21
711.6089663202147
 31
0.0
 11
1176.238157371617
 21
712.5744976860956
 31
0.0
 11
1175.746765163891
 21
713.4687237966216
 31
0.0
 11
1175.154434347935
 21
714.2845008970812
 31
0.0
 11
1174.470723002968
 21
715.0146852327639
 31
0.0
 11
1173.70518920821
 21
715.6521330489586
 31
0.0
 11
1172.867391042882
 21
716.1897005909547
 31
0.0
 11
1171.966886586202
 21
716.6202441040409
 31
0.0
 11
1171.01323391739
 21
716.9366198335065
 31
0.0
 11
1170.015991115667
 21
717.1316840246404
 31
0.0
 11
1168.984716260251
 21
717.198292922732
 31
0.0
 11
1168.911415025739
 21
717.1982929227319
 31
0.0
 11
1168.698662662156
 21
717.198292922732
 31
0.0
 11
1168.357186179429
 21
717.1982929227319
 31
0.0
 11
1167.897712587488
 21
717.1982929227319
 31
0.0
 11
1167.330968896262
 21
717.1982929227321
 31
0.0
 11
1166.667682115678
 21
717.1982929227321
 31
0.0
 11
1165.918579255665
 21
717.198292922732
 31
0.0
 11
1165.094387326152
 21
717.198292922732
 31
0.0
 11
1164.205833337069
 21
717.198292922732
 31
0.0
 11
1163.263644298342
 21
717.198292922732
 31
0.0
 11
1162.2785472199
 21
717.198292922732
 31
0.0
 11
1161.261269111673
 21
717.198292922732
 31
0.0
 11
1160.222536983589
 21
717.198292922732
 31
0.0
 11
1159.173077845576
 21
717.198292922732
 31
0.0
 11
1158.123618707564
 21
717.198292922732
 31
0.0
 11
1157.08488657948
 21
717.198292922732
 31
0.0
 11
1156.067608471253
 21
717.198292922732
 31
0.0
 11
1155.082511392812
 21
717.198292922732
 31
0.0
 11
1154.140322354084
 21
717.1982929227321
 31
0.0
 11
1153.251768365
 21
717.198292922732
 31
0.0
 11
1152.427576435488
 21
717.198292922732
 31
0.0
 11
1151.678473575475
 21
717.198292922732
 31
0.0
 11
1151.015186794892
 21
717.1982929227321
 31
0.0
 11
1150.448443103665
 21
717.1982929227319
 31
0.0
 11
1149.988969511724
 21
717.198292922732
 31
0.0
 11
1149.647493028997
 21
717.198292922732
 31
0.0
 11
1149.434740665414
 21
717.198292922732
 31
0.0
 11
1149.361439430902
 21
717.198292922732
 31
0.0
 11
1148.1699385222
 21
717.2247799955168
 31
0.0
 11
1146.980396543907
 21
717.3153193804538
 31
0.0
 11
1145.801295462739
 21
717.4719373251477
 31
0.0
 11
1144.641117245413
 21
717.6966600772026
 31
0.0
 11
1143.508343858647
 21
717.9915138842234
 31
0.0
 11
1142.411457269156
 21
718.3585249938149
 31
0.0
 11
1141.358939443659
 21
718.7997196535814
 31
0.0
 11
1140.359272348872
 21
719.3171241111277
 31
0.0
 11
1139.420937951512
 21
719.9127646140581
 31
0.0
 11
1138.552418218296
 21
720.5886674099775
 31
0.0
 11
1137.762195115941
 21
721.3468587464904
 31
0.0
 11
1137.058750611163
 21
722.1893648712013
 31
0.0
 11
1136.45056667068
 21
723.1182120317151
 31
0.0
 11
1135.946125261209
 21
724.135426475636
 31
0.0
 11
1135.553908349466
 21
725.2430344505689
 31
0.0
 11
1135.28239790217
 21
726.4430622041184
 31
0.0
 11
1135.140075886035
 21
727.7375359838888
 31
0.0
 11
1135.13539359271
 21
727.8116159786329
 31
0.0
 11
1135.121628354437
 21
728.0294000233315
 31
0.0
 11
1135.099202633773
 21
728.3842042086845
 31
0.0
 11
1135.068538893273
 21
728.8693446253917
 31
0.0
 11
1135.030059595493
 21
729.4781373641529
 31
0.0
 11
1134.984187202988
 21
730.2038985156678
 31
0.0
 11
1134.931344178315
 21
731.0399441706361
 31
0.0
 11
1134.871952984028
 21
731.9795904197579
 31
0.0
 11
1134.806436082685
 21
733.0161533537328
 31
0.0
 11
1134.735215936839
 21
734.1429490632603
 31
0.0
 11
1134.658715009048
 21
735.3532936390407
 31
0.0
 11
1134.577355761866
 21
736.6405031717736
 31
0.0
 11
1134.49156065785
 21
737.9978937521587
 31
0.0
 11
1134.401752159554
 21
739.4187814708957
 31
0.0
 11
1134.308352729535
 21
740.8964824186847
 31
0.0
 11
1134.211784830349
 21
742.4243126862252
 31
0.0
 11
1134.112470924551
 21
743.9955883642172
 31
0.0
 11
1134.010833474696
 21
745.6036255433603
 31
0.0
 11
1133.907294943341
 21
747.2417403143542
 31
0.0
 11
1133.802277793041
 21
748.903248767899
 31
0.0
 11
1133.696204486352
 21
750.5814669946944
 31
0.0
 11
1133.589497485829
 21
752.26971108544
 31
0.0
 11
1133.482579254028
 21
753.9612971308358
 31
0.0
 11
1133.375872253506
 21
755.6495412215814
 31
0.0
 11
1133.269798946816
 21
757.3277594483767
 31
0.0
 11
1133.164781796516
 21
758.9892679019216
 31
0.0
 11
1133.061243265161
 21
760.6273826729156
 31
0.0
 11
1132.959605815307
 21
762.2354198520586
 31
0.0
 11
1132.860291909508
 21
763.8066955300507
 31
0.0
 11
1132.763724010322
 21
765.3345257975911
 31
0.0
 11
1132.670324580303
 21
766.81222674538
 31
0.0
 11
1132.580516082007
 21
768.2331144641171
 31
0.0
 11
1132.494720977991
 21
769.5905050445023
 31
0.0
 11
1132.413361730809
 21
770.8777145772351
 31
0.0
 11
1132.336860803018
 21
772.0880591530155
 31
0.0
 11
1132.265640657172
 21
773.2148548625432
 31
0.0
 11
1132.200123755828
 21
774.251417796518
 31
0.0
 11
1132.140732561542
 21
775.1910640456397
 31
0.0
 11
1132.087889536869
 21
776.0271097006081
 31
0.0
 11
1132.042017144364
 21
776.7528708521229
 31
0.0
 11
1132.003537846584
 21
777.361663590884
 31
0.0
 11
1131.972874106084
 21
777.8468040075912
 31
0.0
 11
1131.95044838542
 21
778.2016081929443
 31
0.0
 11
1131.936683147148
 21
778.4193922376429
 31
0.0
 11
1131.932000853822
 21
778.4934722323869
 31
0.0
  0
SPLINE
  5
B8
330
1F
100
AcDbEntity
  8
0
  6
Continuous
 62
     7
100
AcDbSpline
210
0.0
220
0.0
230
1.0
 70
     8
 71
     3
 72
    23
 73
    19
 74
    17
 42
0.000000001
 43
0.0000000001
 44
0.00000001
 40
0.0
 40
0.0
 40
0.0
 40
0.0
 40
3.811884002186507
 40
12.19802881992218
 40
20.58417363772138
 40
24.39605764581477
 40
30.57431000903041
 40
37.26201686793702
 40
45.05118161256742
 40
52.83434658722752
 40
56.92540017382488
 40
65.92571806364447
 40
74.92603595290109
 40
79.0170895391069
 40
82.16590888902249
 40
89.09331145949693
 40
96.02071403067418
 40
99.16953339129634
 40
99.16953339129634
 40
99.16953339129634
 40
99.16953339129634
 10
1174.491360516577
 20
777.402065262665
 30
0.0
 10
1174.604816861744
 20
776.1372061173896
 30
0.0
 10
1174.967877183149
 20
772.0896568496601
 30
0.0
 10
1175.443733906977
 20
765.2113520643156
 30
0.0
 10
1176.466820763054
 20
758.5253088433267
 30
0.0
 10
1176.081115143585
 20
752.1000172301798
 30
0.0
 10
1181.329812319055
 20
748.2356297223332
 30
0.0
 10
1188.13621211571
 20
747.7287130594866
 30
0.0
 10
1195.250498871609
 20
745.4886127679547
 30
0.0
 10
1201.634695324246
 20
743.7048054423415
 30
0.0
 10
1208.621001895341
 20
743.9994907689627
 30
0.0
 10
1215.972613544458
 20
743.8707868528033
 30
0.0
 10
1223.340111658537
 20
743.9085202607295
 30
0.0
 10
1228.753096283684
 20
743.9042005517546
 30
0.0
 10
1233.475595112648
 20
743.9049722631491
 30
0.0
 10
1239.143433508837
 20
743.9045905500554
 30
0.0
 10
1244.811318857535
 20
743.9047007084179
 30
0.0
 10
1248.170058776947
 20
743.9046931145031
 30
0.0
 10
1249.219665004075
 20
743.9046907424508
 30
0.0
 11
1174.491360516577
 21
777.402065262665
 31
0.0
 11
1174.82381245022
 21
773.6047062589518
 31
0.0
 11
1175.555206704236
 21
765.2505164507825
 31
0.0
 11
1176.286600958251
 21
756.8963266426132
 31
0.0
 11
1176.619052891894
 21
753.0989676388999
 31
0.0
 11
1181.213435261912
 21
748.9682954271034
 31
0.0
 11
1187.742584532801
 21
747.5206653492078
 31
0.0
 11
1195.272190192602
 21
745.5266427668996
 31
0.0
 11
1202.884478198594
 21
743.9046907424508
 31
0.0
 11
1206.975531786173
 21
743.9046907424508
 31
0.0
 11
1215.975849678848
 21
743.9046907424508
 31
0.0
 11
1224.976167571524
 21
743.9046907424508
 31
0.0
 11
1229.067221159103
 21
743.9046907424508
 31
0.0
 11
1232.21604050988
 21
743.9046907424508
 31
0.0
 11
1239.143443081589
 21
743.9046907424508
 31
0.0
 11
1246.070845653298
 21
743.9046907424508
 31
0.0
 11
1249.219665004075
 21
743.9046907424508
 31
0.0
  0
SPLINE
  5
B9
330
1F
100
AcDbEntity
  8
0
  6
Continuous
 62
     7
100
AcDbSpline
210
0.0
220
0.0
230
1.0
 70
     8
 71
     3
 72
    21
 73
    17
 74
    15
 42
0.000000001
 43
0.0000000001
 44
0.00000001
 40
0.0
 40
0.0
 40
0.0
 40
0.0
 40
2.553669033012748
 40
5.759230364748196
 40
12.50520770509174
 40
19.25076615761609
 40
22.30976339740334
 40
27.02190815042516
 40
32.50722301042025
 40
37.51758824853249
 40
40.73761828612436
 40
46.10833422855796
 40
51.47649103528524
 40
52.46541272651429
 40
54.30198158172142
 40
55.29090326738323
 40
55.29090326738323
 40
55.29090326738323
 40
55.29090326738323
 10
1202.884478198594
 20
743.9046907424508
 30
0.0
 10
1202.768767037308
 20
743.0627081404339
 30
0.0
 10
1202.507806336058
 20
741.1638043665126
 30
0.0
 10
1201.734254625553
 20
737.0254562289583
 30
0.0
 10
1202.389529427786
 20
731.6298158996325
 30
0.0
 10
1204.774446744173
 20
725.616149184911
 30
0.0
 10
1200.982590399867
 20
721.9254419905027
 30
0.0
 10
1196.700006458948
 20
720.7425154277003
 30
0.0
 10
1191.772838137989
 20
719.5679639923894
 30
0.0
 10
1187.250584755139
 20
718.8650915426497
 30
0.0
 10
1182.759119385521
 20
718.251136236335
 30
0.0
 10
1178.164855463099
 20
717.5179927878883
 30
0.0
 10
1174.259005572492
 20
717.1854341990293
 30
0.0
 10
1171.527632087794
 20
717.2007916715613
 30
0.0
 10
1170.256190907008
 20
717.1979126951625
 30
0.0
 10
1169.314357834437
 20
717.1981943411369
 30
0.0
 10
1168.984716260251
 20
717.198292922732
 30
0.0
 11
1202.884478198594
 21
743.9046907424508
 31
0.0
 11
1202.518608816698
 21
741.3773670272107
 31
0.0
 11
1202.057654736684
 21
738.2051210116797
 31
0.0
 11
1202.743229190518
 21
731.4940705791705
 31
0.0
 11
1203.424669527042
 21
724.7830201466609
 31
0.0
 11
1201.339927874493
 21
722.5444231843194
 31
0.0
 11
1196.947753450321
 21
720.8376390726788
 31
0.0
 11
1191.602549231011
 21
719.6057823575599
 31
0.0
 11
1186.658718193051
 21
718.7919675847829
 31
0.0
 11
1183.470663312928
 21
718.3393093001687
 31
0.0
 11
1178.15349943329
 21
717.5827658325211
 31
0.0
 11
1172.799128497866
 21
717.198292922732
 31
0.0
 11
1171.810206806632
 21
717.198292922732
 31
0.0
 11
1169.973637951485
 21
717.198292922732
 31
0.0
 11
1168.984716260251
 21
717.198292922732
 31
0.0
  0
SPLINE
  5
BA
330
1F
100
AcDbEntity
  8
0
  6
Continuous
 62
     7
100
AcDbSpline
210
0.0
220
0.0
230
1.0
 70
    11
 71
     3
 72
    38
 73
    34
 74
    32
 42
0.000000001
 43
0.0000000001
 44
0.00000001
 40
0.0
 40
0.0
 40
0.0
 40
0.0
 40
4.893684419265314
 40
9.787368839864001
 40
20.90406725425251
 40
32.01504913550788
 40
46.43315235263255
 40
85.96666117165502
 40
145.0343743476543
 40
218.0550906359236
 40
299.4476087915669
 40
383.630727569656
 40
465.0232457252642
 40
538.0439620134581
 40
597.111675189284
 40
636.6451840077669
 40
651.0632872239231
 40
662.1761888044952
 40
673.292026428645
 40
678.1858606362389
 40
683.0796948438335
 40
695.8692438614241
 40
731.2285852629998
 40
784.6437605717626
 40
851.6008113109176
 40
927.5857790036698
 40
1008.084705173221
 40
1088.583631342775
 40
1164.568599035535
 40
1231.525649774702
 40
1284.940825083477
 40
1320.300166485061
 40
1333.08971549377
 40
1333.08971549377
 40
1333.08971549377
 40
1333.08971549377
 10
885.5165605787506
 20
912.9294549826709
 30
0.0
 10
885.6213044408652
 20
914.5605177637797
 30
0.0
 10
885.8307921785647
 20
917.8226433258868
 30
0.0
 10
885.8540628153365
 20
924.7330467079737
 30
0.0
 10
889.4850941929508
 20
934.18189947854
 30
0.0
 10
902.2353508994327
 20
937.887065015175
 30
0.0
 10
923.6618442764351
 20
936.0792257182412
 30
0.0
 10
961.5265447408062
 20
937.4060425482692
 30
0.0
 10
1018.638030047493
 20
936.742872914557
 30
0.0
 10
1089.834331133407
 20
936.9895979810073
 30
0.0
 10
1169.354278325375
 20
936.916146253438
 30
0.0
 10
1251.68313276734
 20
936.9165259108823
 30
0.0
 10
1331.204298284394
 20
936.9885469607589
 30
0.0
 10
1402.396501927815
 20
936.74602140258
 30
0.0
 10
1459.519001635169
 20
937.39801425469
 30
0.0
 10
1497.361665228691
 20
936.0935427100333
 30
0.0
 10
1518.81881779196
 20
937.8709898263785
 30
0.0
 10
1531.50794805511
 20
934.2277658683172
 30
0.0
 10
1535.318374057823
 20
924.6038928171394
 30
0.0
 10
1535.003362805664
 20
918.0164842456858
 30
0.0
 10
1537.024072225176
 20
909.0516344496801
 30
0.0
 10
1510.799920144374
 20
917.0743978439529
 30
0.0
 10
1483.866525510804
 20
910.5747702418723
 30
0.0
 10
1428.448305495626
 20
913.8687681402153
 30
0.0
 10
1364.332528987018
 20
912.6135777887499
 30
0.0
 10
1289.414667752203
 20
913.024467497146
 30
0.0
 10
1210.549402465
 20
912.903319004866
 30
0.0
 10
1131.520269080679
 20
912.9360552655569
 30
0.0
 10
1057.048592888919
 20
912.9279428841435
 30
0.0
 10
991.5942621175818
 20
912.9297579882593
 30
0.0
 10
939.684113169183
 20
912.9294072056292
 30
0.0
 10
905.8293705694321
 20
912.9294579504265
 30
0.0
 10
889.7797429207554
 20
912.9294556033055
 30
0.0
 10
885.5165605787506
 20
912.9294549826709
 30
0.0
 11
885.5165605787506
 21
912.9294549826709
 31
0.0
 11
885.7811440865621
 21
917.8159816425639
 31
0.0
 11
886.0457275943736
 21
922.7025083024569
 31
0.0
 11
890.6759389810743
 21
932.809047085213
 31
0.0
 11
900.994695785721
 21
936.9293840037349
 31
0.0
 11
915.4127990019193
 21
936.929384003735
 31
0.0
 11
954.9463078205275
 21
936.9293840037349
 31
0.0
 11
1014.014020996566
 21
936.9293840037349
 31
0.0
 11
1087.034737285054
 21
936.9293840037349
 31
0.0
 11
1168.427255441013
 21
936.929384003735
 31
0.0
 11
1252.610374219461
 21
936.9293840037349
 31
0.0
 11
1334.00289237542
 21
936.9293840037349
 31
0.0
 11
1407.023608663908
 21
936.9293840037349
 31
0.0
 11
1466.091321839946
 21
936.9293840037349
 31
0.0
 11
1505.624830658555
 21
936.9293840037349
 31
0.0
 11
1520.042933874753
 21
936.9293840037349
 31
0.0
 11
1530.363757738055
 21
932.809047085213
 31
0.0
 11
1534.991902066101
 21
922.7025083024569
 31
0.0
 11
1535.259241652119
 21
917.8159816425639
 31
0.0
 11
1535.526581238137
 21
912.9294549826709
 31
0.0
 11
1522.737032220534
 21
912.9294549826709
 31
0.0
 11
1487.377690818923
 21
912.9294549826709
 31
0.0
 11
1433.962515510108
 21
912.9294549826709
 31
0.0
 11
1367.005464770889
 21
912.9294549826709
 31
0.0
 11
1291.020497078066
 21
912.9294549826709
 31
0.0
 11
1210.521570908444
 21
912.9294549826709
 31
0.0
 11
1130.022644738821
 21
912.9294549826709
 31
0.0
 11
1054.037677045999
 21
912.9294549826709
 31
0.0
 11
987.0806263067797
 21
912.9294549826709
 31
0.0
 11
933.6654509979645
 21
912.9294549826709
 31
0.0
 11
898.3061095963542
 21
912.9294549826709
 31
0.0
 11
885.5165605787506
 21
912.9294549826709
 31
0.0
  0
SPLINE
  5
BB
330
1F
100
AcDbEntity
  8
0
  6
Continuous
 62
     7
100
AcDbSpline
210
0.0
220
0.0
230
1.0
 70
     8
 71
     3
 72
   161
 73
   157
 74
   155
 42
0.000000001
 43
0.0000000001
 44
0.00000001
 40
0.0
 40
0.0
 40
0.0
 40
0.0
 40
0.1104973830474144
 40
0.3954643263079824
 40
0.7851130038283292
 40
1.209655592768348
 40
1.599304270288695
 40
1.884271213549863
 40
1.994768599712244
 40
7.594994144953203
 40
13.22113488045947
 40
18.86458764246566
 40
24.51736791235694
 40
30.17221022727416
 40
35.82267739921287
 40
41.46327951488929
 40
47.08960333864198
 40
52.69845223420601
 40
58.28799600303056
 40
63.85792905531299
 40
69.4096340465652
 40
74.94634652057546
 40
80.47331425023079
 40
85.99794300089697
 40
91.52991861300339
 40
97.08129399167723
 40
102.6665292748871
 40
108.302474603329
 40
114.0082878630925
 40
119.8052845174714
 40
125.6204352301421
 40
131.4042927473771
 40
137.1714940528826
 40
142.9330962686453
 40
148.6967868147267
 40
154.4671499329394
 40
160.2459663991999
 40
166.032527648956
 40
171.8239505674301
 40
177.6154840690118
 40
183.4008025244639
 40
189.1722844599155
 40
199.5917817225246
 40
210.0196078674552
 40
220.4544755017882
 40
230.8932640798996
 40
241.3313672566138
 40
251.7630343321453
 40
262.1817063089359
 40
262.2218354133481
 40
262.2619645177606
 40
263.8150529329938
 40
265.6630301275348
 40
267.7833914627403
 40
270.1535404314054
 40
272.7508325934824
 40
275.5525960605613
 40
278.5361420991571
 40
281.67877106913
 40
284.9577759612697
 40
288.3504446123969
 40
291.8340611509142
 40
295.3859069739148
 40
298.9832614282972
 40
302.6034022990289
 40
306.2236061686878
 40
309.821148689677
 40
313.3733047969075
 40
316.8573488805987
 40
320.2505549341605
 40
323.5301966899283
 40
326.6735477556437
 40
329.6578817674059
 40
332.460472582121
 40
335.0585945481552
 40
337.4295229268293
 40
339.5505346148954
 40
341.3989095120877
 40
342.9519334283588
 40
344.5055475211524
 40
346.3545111254082
 40
348.4761085290157
 40
350.8476181170729
 40
353.4463152750729
 40
356.2494737548025
 40
359.2343663960494
 40
362.3782655477094
 40
365.6584433382221
 40
369.0521718678933
 40
372.5367233617714
 40
376.0893703060727
 40
379.6873855838904
 40
383.3080426230451
 40
386.9286155688745
 40
390.5263794969021
 40
394.0786106850456
 40
397.5625869731569
 40
400.9555882512918
 40
404.2348971408406
 40
407.3777999716772
 40
410.3615882277848
 40
413.1635607625176
 40
415.7610273365044
 40
418.1313145567424
 40
420.2517764814187
 40
422.0998151081309
 40
423.6529243199518
 40
423.6930534243645
 40
423.7331825287773
 40
434.1498191041053
 40
444.5800282613719
 40
455.017154790945
 40
465.4553515865723
 40
475.8899157939506
 40
486.3176303906982
 40
496.7371117651476
 40
502.5098401319188
 40
508.2961756445508
 40
514.0884972641763
 40
519.8804803396289
 40
525.6673755005223
 40
531.4463023317228
 40
537.2165562730511
 40
542.9799237558378
 40
548.7409967389825
 40
554.5074728323983
 40
560.290422207457
 40
566.1044980610753
 40
571.9015514447148
 40
577.6075158610488
 40
583.2436809066163
 40
588.8291808115413
 40
594.3808446991883
 40
599.9131146010536
 40
605.4380283394386
 40
610.9652596633028
 40
616.5022050868462
 40
622.0541057337743
 40
627.6241928060757
 40
633.2138466006754
 40
638.8227608193025
 40
644.449105877274
 40
650.0896867605516
 40
655.7400925676689
 40
661.3948361529311
 40
667.0474832662181
 40
672.6907713010913
 40
678.3167182680625
 40
683.9167229589846
 40
684.0272755964796
 40
684.3123850300195
 40
684.7022285411863
 40
685.126983411562
 40
685.5168269227287
 40
685.8019363562678
 40
685.9124889906739
 40
685.9124889906739
 40
685.9124889906739
 40
685.9124889906739
 10
1479.633315212966
 20
912.9294549826709
 30
0.0
 10
1479.626699550854
 20
912.8932215284806
 30
0.0
 10
1479.603022423003
 20
912.7635439041314
 30
0.0
 10
1479.556016666239
 20
912.5060956258852
 30
0.0
 10
1479.490206935149
 20
912.1456683171845
 30
0.0
 10
1479.418136553993
 20
911.7509134271742
 30
0.0
 10
1479.352310697596
 20
911.3904888374564
 30
0.0
 10
1479.305343704252
 20
911.133034022029
 30
0.0
 10
1478.945660146932
 20
909.1670933899009
 30
0.0
 10
1478.446666774016
 20
905.419283933943
 30
0.0
 10
1477.466714771413
 20
899.8815907722362
 30
0.0
 10
1476.436586212276
 20
894.3355552507908
 30
0.0
 10
1475.290857732236
 20
888.8021094337394
 30
0.0
 10
1474.033115288815
 20
883.2906914004299
 30
0.0
 10
1472.648375853204
 20
877.8138252007789
 30
0.0
 10
1471.126623844536
 20
872.3832029318929
 30
0.0
 10
1469.456494507405
 20
867.0107374289454
 30
0.0
 10
1467.626962212242
 20
861.7082831811647
 30
0.0
 10
1465.626885905098
 20
856.4877152620421
 30
0.0
 10
1463.445128152323
 20
851.3609138254825
 30
0.0
 10
1461.070521279684
 20
846.3397770484846
 30
0.0
 10
1458.491879865976
 20
841.4362228693674
 30
0.0
 10
1455.697990801063
 20
836.662214828493
 30
0.0
 10
1452.677662168733
 20
832.0297078976403
 30
0.0
 10
1449.419578981164
 20
827.5508901367551
 30
0.0
 10
1445.912897016756
 20
823.2373101291564
 30
0.0
 10
1442.145083793894
 20
819.1031701525727
 30
0.0
 10
1438.11014431325
 20
815.152896231583
 30
0.0
 10
1433.77754060166
 20
811.4281890010884
 30
0.0
 10
1429.23585999659
 20
807.8486926310449
 30
0.0
 10
1424.246334739962
 20
804.8752367899492
 30
0.0
 10
1419.169319560466
 20
802.0944111315288
 30
0.0
 10
1413.955552935819
 20
799.6125260044023
 30
0.0
 10
1408.640191338902
 20
797.378385860369
 30
0.0
 10
1403.230630969573
 20
795.3796746455089
 30
0.0
 10
1397.74160077851
 20
793.5937455172118
 30
0.0
 10
1392.185811437978
 20
792.000758445707
 30
0.0
 10
1386.57646809326
 20
790.5802541414403
 30
0.0
 10
1380.926664240843
 20
789.3117260207371
 30
0.0
 10
1375.24936563916
 20
788.1757406193025
 30
0.0
 10
1369.55813341522
 20
787.1488517328044
 30
0.0
 10
1362.32762422568
 20
785.9728052877709
 30
0.0
 10
1353.557964343996
 20
784.6193128259251
 30
0.0
 10
1343.215805798105
 20
783.2824377557481
 30
0.0
 10
1332.845150795971
 20
782.1282650948368
 30
0.0
 10
1322.461759488925
 20
781.0890844849823
 30
0.0
 10
1312.044264187698
 20
780.3052250490525
 30
0.0
 10
1301.719125673528
 20
779.0832312882159
 30
0.0
 10
1294.59290368174
 20
779.5975950294087
 30
0.0
 10
1291.227804615381
 20
778.6368135609954
 30
0.0
 10
1290.704646356294
 20
778.4852849953919
 30
0.0
 10
1289.53154550146
 20
778.5710757345654
 30
0.0
 10
1287.706884028705
 20
778.39982319125
 30
0.0
 10
1285.591738114885
 20
778.3305420350163
 30
0.0
 10
1283.232278759897
 20
778.2315626906366
 30
0.0
 10
1280.64361638048
 20
778.1456153528954
 30
0.0
 10
1277.850849539283
 20
778.0593587058803
 30
0.0
 10
1274.875979105749
 20
777.9768401866942
 30
0.0
 10
1271.741947794429
 20
777.896816870086
 30
0.0
 10
1268.471420627509
 20
777.8196023416197
 30
0.0
 10
1265.087144635115
 20
777.7450477922412
 30
0.0
 10
1261.611843897918
 20
777.6731317136226
 30
0.0
 10
1258.068249384014
 20
777.6037927651086
 30
0.0
 10
1254.479090375381
 20
777.5369782030426
 30
0.0
 10
1250.867096781586
 20
777.4726311231527
 30
0.0
 10
1247.254998447028
 20
777.4106945492335
 30
0.0
 10
1243.665525305561
 20
777.3511106917913
 30
0.0
 10
1240.121407313854
 20
777.2938215997342
 30
0.0
 10
1236.645374451365
 20
777.2387688366072
 30
0.0
 10
1233.260156702474
 20
777.1858954581501
 30
0.0
 10
1229.98848405323
 20
777.1351401194596
 30
0.0
 10
1226.85308644594
 20
777.0864592487623
 30
0.0
 10
1223.876693859101
 20
777.0397514805938
 30
0.0
 10
1221.082035914413
 20
776.9951203891541
 30
0.0
 10
1218.491843004124
 20
776.9519899486036
 30
0.0
 10
1216.128842171657
 20
776.9120457031813
 30
0.0
 10
1214.015769661574
 20
776.8697286080695
 30
0.0
 10
1212.175329744533
 20
776.8420978931945
 30
0.0
 10
1210.524130415689
 20
776.7745551858429
 30
0.0
 10
1208.872734279732
 20
776.8421013150315
 30
0.0
 10
1207.031706147998
 20
776.8697264859481
 30
0.0
 10
1204.918048298354
 20
776.9120454801105
 30
0.0
 10
1202.554466685983
 20
776.9519893461273
 30
0.0
 10
1199.963699006767
 20
776.9951200116451
 30
0.0
 10
1197.16847382936
 20
777.0397511228894
 30
0.0
 10
1194.191523047545
 20
777.0864589467459
 30
0.0
 10
1191.05557779148
 20
777.1351398481268
 30
0.0
 10
1187.783369545915
 20
777.1858952136065
 30
0.0
 10
1184.397629759985
 20
777.2387686118673
 30
0.0
 10
1180.921089926354
 20
777.2938213904506
 30
0.0
 10
1177.376481536053
 20
777.3511104940944
 30
0.0
 10
1173.786536075164
 20
777.4106943599019
 30
0.0
 10
1170.173985006978
 20
777.4726309392619
 30
0.0
 10
1166.561559771965
 20
777.5369780218206
 30
0.0
 10
1162.971991721129
 20
777.6037925837197
 30
0.0
 10
1159.42801227066
 20
777.6731315291113
 30
0.0
 10
1155.952352209074
 20
777.745047600881
 30
0.0
 10
1152.567744011259
 20
777.8196021401038
 30
0.0
 10
1149.29691326377
 20
777.8968166501314
 30
0.0
 10
1146.162608505525
 20
777.9768399509425
 30
0.0
 10
1143.187496257877
 20
778.059358413257
 30
0.0
 10
1140.394520764615
 20
778.1456150864686
 30
0.0
 10
1137.805684331905
 20
778.2315621372974
 30
0.0
 10
1135.446087226209
 20
778.3305419821552
 30
0.0
 10
1133.330840845397
 20
778.3998214720946
 30
0.0
 10
1131.506118860853
 20
778.5710767095853
 30
0.0
 10
1130.332989971639
 20
778.485283094682
 30
0.0
 10
1129.809825045056
 20
778.6368135601132
 30
0.0
 10
1126.445378423221
 20
779.5974090173801
 30
0.0
 10
1119.320363387373
 20
779.0833248264057
 30
0.0
 10
1108.99670777042
 20
780.305231664154
 30
0.0
 10
1098.580226746495
 20
781.0891048207181
 30
0.0
 10
1088.197461510056
 20
782.1282772164034
 30
0.0
 10
1077.827145974907
 20
783.2824594413621
 30
0.0
 10
1067.485124086525
 20
784.6192821401839
 30
0.0
 10
1058.715120139129
 20
785.9729834188831
 30
0.0
 10
1051.483818061569
 20
787.1488197600395
 30
0.0
 10
1045.791554143299
 20
788.1757225203978
 30
0.0
 10
1040.113450119357
 20
789.3117015404582
 30
0.0
 10
1034.463070812933
 20
790.5802282079716
 30
0.0
 10
1028.853380792992
 20
792.0007293288159
 30
0.0
 10
1023.297473755377
 20
793.5937135303047
 30
0.0
 10
1017.808554206527
 20
795.3796392391716
 30
0.0
 10
1012.399334140583
 20
797.3783490383724
 30
0.0
 10
1007.084536835267
 20
799.6124819185487
 30
0.0
 10
1001.871579524943
 20
802.0943853468507
 30
0.0
 10
996.7955389303354
 20
804.8751379675609
 30
0.0
 10
991.8070888808026
 20
807.8490916440568
 30
0.0
 10
987.2654900787684
 20
811.4281792097536
 30
0.0
 10
982.9327261505479
 20
815.1529308759962
 30
0.0
 10
978.8974774570153
 20
819.1031844302797
 30
0.0
 10
975.1292777191279
 20
823.2373205952313
 30
0.0
 10
971.6221402866565
 20
827.5508926422458
 30
0.0
 10
968.3635577882279
 20
832.0297042494923
 30
0.0
 10
965.3427067918418
 20
836.6622056163677
 30
0.0
 10
962.5482942898595
 20
841.4362092247138
 30
0.0
 10
959.9691500255241
 20
846.339760040953
 30
0.0
 10
957.5940825813525
 20
851.3608945127459
 30
0.0
 10
955.4119282000715
 20
856.4876946035845
 30
0.0
 10
953.4115406506601
 20
861.7082619808613
 30
0.0
 10
951.5818045287477
 20
867.0107164299316
 30
0.0
 10
949.9115983596014
 20
872.3831823771754
 30
0.0
 10
948.3899250598629
 20
877.8138064641645
 30
0.0
 10
947.005414674992
 20
883.2906708973554
 30
0.0
 10
945.7481724436161
 20
888.8021014202128
 30
0.0
 10
944.6028656499693
 20
894.3355067565774
 30
0.0
 10
943.5744836263602
 20
899.8816985991783
 30
0.0
 10
942.5924873709512
 20
905.4188158717561
 30
0.0
 10
942.1024276443732
 20
909.1680967735429
 30
0.0
 10
941.7373292995438
 20
911.1330335199534
 30
0.0
 10
941.6896433076786
 20
911.3904890911433
 30
0.0
 10
941.6228031476838
 20
911.7509133425974
 30
0.0
 10
941.5496244931255
 20
912.1456683388121
 30
0.0
 10
941.4828021834269
 20
912.5060956218097
 30
0.0
 10
941.4350732814426
 20
912.7635439044614
 30
0.0
 10
941.4110318893357
 20
912.893221528534
 30
0.0
 10
941.4043144475081
 20
912.9294549826709
 30
0.0
 11
1479.633315212966
 21
912.9294549826709
 31
0.0
 11
1479.613468235795
 21
912.8207546153947
 31
0.0
 11
1479.562283926248
 21
912.540422089261
 31
0.0
 11
1479.492297217276
 21
912.157110267813
 31
0.0
 11
1479.416043041828
 21
911.7394720145935
 31
0.0
 11
1479.346056332856
 21
911.3561601931456
 31
0.0
 11
1479.294872023309
 21
911.0758276670119
 31
0.0
 11
1479.275025046138
 21
910.9671272997357
 31
0.0
 11
1478.408489773855
 21
905.4343483629297
 31
0.0
 11
1477.459898902028
 21
899.8887523679016
 31
0.0
 11
1476.418217404214
 21
894.3422707137934
 31
0.0
 11
1475.27241025397
 21
888.8068347997464
 31
0.0
 11
1474.011442424853
 21
883.2943760249024
 31
0.0
 11
1472.624278890418
 21
877.8168257884029
 31
0.0
 11
1471.099884624223
 21
872.386115489389
 31
0.0
 11
1469.427224599824
 21
867.0141765270026
 31
0.0
 11
1467.595263790777
 21
861.7129403003852
 31
0.0
 11
1465.59296717064
 21
856.4943382086784
 31
0.0
 11
1463.409299712969
 21
851.3703016510235
 31
0.0
 11
1461.033226391321
 21
846.3527620265622
 31
0.0
 11
1458.453712179251
 21
841.4536507344361
 31
0.0
 11
1455.659722050318
 21
836.6848991737867
 31
0.0
 11
1452.640220978077
 21
832.0584387437552
 31
0.0
 11
1449.384173936085
 21
827.5862008434838
 31
0.0
 11
1445.880545897899
 21
823.2801168721132
 31
0.0
 11
1442.118301837075
 21
819.1521182287858
 31
0.0
 11
1438.08640672717
 21
815.2141363126425
 31
0.0
 11
1433.77382554174
 21
811.4781025228251
 31
0.0
 11
1429.169523254343
 21
807.955948258475
 31
0.0
 11
1424.221236837328
 21
804.9013714708102
 31
0.0
 11
1419.13895525696
 21
802.1403170121238
 31
0.0
 11
1413.935903860744
 21
799.6525736422357
 31
0.0
 11
1408.625307996184
 21
797.4179301209658
 31
0.0
 11
1403.220393010783
 21
795.4161752081343
 31
0.0
 11
1397.734384252046
 21
793.6270976635608
 31
0.0
 11
1392.180507067477
 21
792.0304862470654
 31
0.0
 11
1386.571986804581
 21
790.6061297184683
 31
0.0
 11
1380.922048810861
 21
789.3338168375889
 31
0.0
 11
1375.243918433822
 21
788.1933363642477
 31
0.0
 11
1369.550821020967
 21
787.1644770582643
 31
0.0
 11
1363.855981919802
 21
786.2270276794588
 31
0.0
 11
1353.554693669151
 21
784.6619770189128
 31
0.0
 11
1343.214450703794
 21
783.3132985856001
 31
0.0
 11
1332.844895279844
 21
782.1476301733611
 31
0.0
 11
1322.45566965342
 21
781.1316095760359
 31
0.0
 11
1312.056416080635
 21
780.2318745874644
 31
0.0
 11
1301.656776817605
 21
779.4150630014869
 31
0.0
 11
1291.266394120446
 21
778.6478126119437
 31
0.0
 11
1291.227809025557
 21
778.6367882991183
 31
0.0
 11
1291.189223930668
 21
778.6257639862929
 31
0.0
 11
1289.639470056588
 21
778.5240459683865
 31
0.0
 11
1287.794119261863
 21
778.4255565996763
 31
0.0
 11
1285.675901658681
 21
778.3302341094592
 31
0.0
 11
1283.307547359233
 21
778.2380167270317
 31
0.0
 11
1280.711786475711
 21
778.1488426816907
 31
0.0
 11
1277.911349120302
 21
778.062650202733
 31
0.0
 11
1274.928965405197
 21
777.979377519455
 31
0.0
 11
1271.787365442586
 21
777.8989628611542
 31
0.0
 11
1268.509279344659
 21
777.8213444571268
 31
0.0
 11
1265.117437223606
 21
777.7464605366694
 31
0.0
 11
1261.634569191617
 21
777.6742493290792
 31
0.0
 11
1258.083405360882
 21
777.6046490636529
 31
0.0
 11
1254.486675843591
 21
777.5375979696872
 31
0.0
 11
1250.867110751933
 21
777.4730342764786
 31
0.0
 11
1247.247440198099
 21
777.4108962133242
 31
0.0
 11
1243.650394294279
 21
777.3511220095206
 31
0.0
 11
1240.098703152663
 21
777.2936498943646
 31
0.0
 11
1236.61509688544
 21
777.238418097153
 31
0.0
 11
1233.222305604801
 21
777.1853648471824
 31
0.0
 11
1229.943059422935
 21
777.1344283737499
 31
0.0
 11
1226.800088452032
 21
777.0855469061516
 31
0.0
 11
1223.816122804284
 21
777.0386586736852
 31
0.0
 11
1221.013892591878
 21
776.9937019056466
 31
0.0
 11
1218.416127927006
 21
776.9506148313329
 31
0.0
 11
1216.045558921857
 21
776.9093356800408
 31
0.0
 11
1213.924915688622
 21
776.8698026810674
 31
0.0
 11
1212.076928339489
 21
776.8319540637092
 31
0.0
 11
1210.52432698665
 21
776.7957280572627
 31
0.0
 11
1208.971135296724
 21
776.8319540637092
 31
0.0
 11
1207.122559117108
 21
776.8698026810673
 31
0.0
 11
1205.001330066593
 21
776.909335680041
 31
0.0
 11
1202.630179763973
 21
776.9506148313329
 31
0.0
 11
1200.031839828039
 21
776.9937019056466
 31
0.0
 11
1197.229041877585
 21
777.0386586736852
 31
0.0
 11
1194.244517531402
 21
777.0855469061518
 31
0.0
 11
1191.100998408284
 21
777.1344283737499
 31
0.0
 11
1187.821216127022
 21
777.1853648471825
 31
0.0
 11
1184.42790230641
 21
777.2384180971529
 31
0.0
 11
1180.943788565238
 21
777.2936498943645
 31
0.0
 11
1177.391606522302
 21
777.3511220095206
 31
0.0
 11
1173.794087796391
 21
777.4108962133242
 31
0.0
 11
1170.1739640063
 21
777.4730342764785
 31
0.0
 11
1166.55396677082
 21
777.5375979696871
 31
0.0
 11
1162.956827708744
 21
777.6046490636529
 31
0.0
 11
1159.405278438865
 21
777.6742493290793
 31
0.0
 11
1155.922050579975
 21
777.7464605366695
 31
0.0
 11
1152.529875750866
 21
777.8213444571268
 31
0.0
 11
1149.251485570331
 21
777.8989628611542
 31
0.0
 11
1146.109611657162
 21
777.979377519455
 31
0.0
 11
1143.126985630152
 21
778.062650202733
 31
0.0
 11
1140.326339108094
 21
778.1488426816907
 31
0.0
 11
1137.730403709779
 21
778.2380167270317
 31
0.0
 11
1135.361911054
 21
778.3302341094591
 31
0.0
 11
1133.24359275955
 21
778.4255565996763
 31
0.0
 11
1131.398180445222
 21
778.5240459683865
 31
0.0
 11
1129.848405729807
 21
778.6257639862929
 31
0.0
 11
1129.809820634918
 21
778.6367882991183
 31
0.0
 11
1129.771235540028
 21
778.6478126119437
 31
0.0
 11
1119.38289378708
 21
779.4150630014869
 31
0.0
 11
1108.984716932894
 21
780.2318745874643
 31
0.0
 11
1098.586443656148
 21
781.1316095760359
 31
0.0
 11
1088.197812635517
 21
782.1476301733611
 31
0.0
 11
1077.828562549678
 21
783.3132985856001
 31
0.0
 11
1067.488432077309
 21
784.6619770189127
 31
0.0
 11
1057.187159897085
 21
786.2270276794588
 31
0.0
 11
1051.491057593408
 21
787.1644770582643
 31
0.0
 11
1045.796926651227
 21
788.1933363642478
 31
0.0
 11
1040.117992418044
 21
789.3338168375889
 31
0.0
 11
1034.467480241364
 21
790.6061297184683
 31
0.0
 11
1028.858615468692
 21
792.0304862470655
 31
0.0
 11
1023.304623447531
 21
793.6270976635608
 31
0.0
 11
1017.818729525386
 21
795.4161752081344
 31
0.0
 11
1012.414159049762
 21
797.4179301209658
 31
0.0
 11
1007.10413736816
 21
799.6525736422357
 31
0.0
 11
1001.901889828088
 21
802.1403170121239
 31
0.0
 11
996.8206417770475
 21
804.9013714708101
 31
0.0
 11
991.8736185625439
 21
807.955948258475
 31
0.0
 11
987.2692448510271
 21
811.4781025228249
 31
0.0
 11
982.9564636780633
 21
815.2141363126424
 31
0.0
 11
978.924261444445
 21
819.1521182287855
 31
0.0
 11
975.1616245509646
 21
823.2801168721134
 31
0.0
 11
971.6575393984143
 21
827.5862008434834
 31
0.0
 11
968.4009923875866
 21
832.0584387437553
 31
0.0
 11
965.3809699192743
 21
836.6848991737868
 31
0.0
 11
962.5864583942695
 21
841.4536507344362
 31
0.0
 11
960.0064442133646
 21
846.3527620265623
 31
0.0
 11
957.6299137773522
 21
851.3703016510235
 31
0.0
 11
955.4458534870246
 21
856.4943382086785
 31
0.0
 11
953.4432497431743
 21
861.7129403003852
 31
0.0
 11
951.6110889465936
 21
867.0141765270027
 31
0.0
 11
949.938357498075
 21
872.386115489389
 31
0.0
 11
948.4140417984111
 21
877.8168257884026
 31
0.0
 11
947.0271282483939
 21
883.2943760249025
 31
0.0
 11
945.7666032488164
 21
888.8068347997466
 31
0.0
 11
944.6214532004707
 21
894.3422707137934
 31
0.0
 11
943.5806645041491
 21
899.8887523679016
 31
0.0
 11
942.6332235606443
 21
905.4343483629294
 31
0.0
 11
941.7681167707487
 21
910.9671272997357
 31
0.0
 11
941.7479644554672
 21
911.0758276670119
 31
0.0
 11
941.6959926950043
 21
911.3561601931456
 31
0.0
 11
941.6249292674324
 21
911.7394720145936
 31
0.0
 11
941.5475019508244
 21
912.1571102678131
 31
0.0
 11
941.4764385232527
 21
912.540422089261
 31
0.0
 11
941.4244667627895
 21
912.8207546153944
 31
0.0
 11
941.4043144475081
 21
912.9294549826709
 31
0.0
  0
SPLINE
  5
BC
330
1F
100
AcDbEntity
  8
0
  6
Continuous
 62
     7
100
AcDbSpline
210
0.0
220
0.0
230
1.0
 70
     8
 71
     3
 72
    14
 73
    10
 74
     8
 42
0.000000001
 43
0.0000000001
 44
0.00000001
 40
0.0
 40
0.0
 40
0.0
 40
0.0
 40
2.023900374006702
 40
4.137498368634622
 40
10.16312877325313
 40
16.15196118888301
 40
22.77159562325402
 40
30.98740998826623
 40
37.60798784311717
 40
37.60798784311717
 40
37.60798784311717
 40
37.60798784311717
 10
533.4370067689442
 20
737.8247822191997
 30
0.0
 10
533.2167247398094
 20
738.4684052834905
 30
0.0
 10
532.7663979745273
 20
739.7841762689962
 30
0.0
 10
530.6354029425993
 20
742.4478791371124
 30
0.0
 10
528.0203598484879
 20
746.4773880021812
 30
0.0
 10
527.2532368215401
 20
752.7858760973189
 30
0.0
 10
527.6118110218205
 20
759.6963332017983
 30
0.0
 10
527.594167104484
 20
766.8578101368221
 30
0.0
 10
527.7199105074919
 20
771.8008150160692
 30
0.0
 10
527.7760221330609
 20
774.0065769124167
 30
0.0
 11
533.4370067689442
 21
737.8247822191997
 31
0.0
 11
532.6763291839858
 21
739.7002934386343
 31
0.0
 11
531.4691669295962
 21
741.4352446695439
 31
0.0
 11
528.4485052154158
 21
746.6490556164431
 31
0.0
 11
527.4452927482971
 21
752.5532641540378
 31
0.0
 11
527.5310374036064
 21
759.1723432360312
 31
0.0
 11
527.6351559136247
 21
767.387497830424
 31
0.0
 11
527.7760221330609
 21
774.0065769124167
 31
0.0
  0
SPLINE
  5
BD
330
1F
100
AcDbEntity
  8
0
  6
Continuous
 62
     7
100
AcDbSpline
210
0.0
220
0.0
230
1.0
 70
     8
 71
     3
 72
    13
 73
     9
 74
     7
 42
0.000000001
 43
0.0000000001
 44
0.00000001
 40
0.0
 40
0.0
 40
0.0
 40
0.0
 40
26.42069220591214
 40
52.82790265466046
 40
75.12118130160587
 40
97.39761714274638
 40
156.4816997484737
 40
216.0994924883624
 40
216.0994924883624
 40
216.0994924883624
 40
216.0994924883624
 10
553.3083306368671
 20
776.5146080802128
 30
0.0
 10
562.083047403772
 20
777.3731374147172
 30
0.0
 10
579.6280034376857
 20
779.0897580134833
 30
0.0
 10
603.976676587472
 20
785.4320722555515
 30
0.0
 10
625.7794292869338
 20
794.9274829099847
 30
0.0
 10
653.9592582112524
 20
815.4774797687461
 30
0.0
 10
679.8741184656402
 20
856.3372507479926
 30
0.0
 10
693.3028775936045
 20
893.4768824239396
 30
0.0
 10
700.0474465003845
 20
912.1301923028227
 30
0.0
 11
553.3083306368671
 21
776.5146080802128
 31
0.0
 11
579.5269026140586
 21
779.7764266374509
 31
0.0
 11
605.0674793524831
 21
786.4860990308568
 31
0.0
 11
625.3908000462511
 21
795.6486810279321
 31
0.0
 11
643.4155515159064
 21
808.7386744690839
 31
0.0
 11
677.6970302858318
 21
856.860488971844
 31
0.0
 11
700.0474465003845
 21
912.1301923028227
 31
0.0
  0
SPLINE
  5
BE
330
1F
100
AcDbEntity
  8
0
  6
Continuous
 62
     7
100
AcDbSpline
210
0.0
220
0.0
230
1.0
 70
     8
 71
     3
 72
     9
 73
     5
 74
     3
 42
0.000000001
 43
0.0000000001
 44
0.00000001
 40
0.0
 40
0.0
 40
0.0
 40
0.0
 40
5.670964940939643
 40
11.34153607026406
 40
11.34153607026406
 40
11.34153607026406
 40
11.34153607026406
 10
360.184418560154
 20
881.934599473841
 30
0.0
 10
360.8426235112483
 20
880.0108598066291
 30
0.0
 10
362.1589877194563
 20
876.1635140743115
 30
0.0
 10
366.1379992583993
 20
875.3255616860116
 30
0.0
 10
368.1274359509107
 20
874.9066000475989
 30
0.0
 11
360.184418560154
 21
881.934599473841
 31
0.0
 11
362.8247414818558
 21
876.9157810600421
 31
0.0
 11
368.1274359509107
 21
874.9066000475989
 31
0.0
  0
SPLINE
  5
BF
330
1F
100
AcDbEntity
  8
0
  6
Continuous
 62
     7
100
AcDbSpline
210
0.0
220
0.0
230
1.0
 70
     8
 71
     3
 72
     9
 73
     5
 74
     3
 42
0.000000001
 43
0.0000000001
 44
0.00000001
 40
0.0
 40
0.0
 40
0.0
 40
0.0
 40
5.492923368559713
 40
10.98615579857421
 40
10.98615579857421
 40
10.98615579857421
 40
10.98615579857421
 10
384.8513185071588
 20
868.2534272574228
 30
0.0
 10
384.1443545597789
 20
870.0826614156181
 30
0.0
 10
382.7303868735784
 20
873.741232643164
 30
0.0
 10
378.8857801332169
 20
874.5181369660442
 30
0.0
 10
376.9634226805301
 20
874.9066000475989
 30
0.0
 11
384.8513185071588
 21
868.2534272574228
 31
0.0
 11
382.1228010828542
 21
873.0207535348904
 31
0.0
 11
376.9634226805301
 21
874.9066000475989
 31
0.0
  0
SPLINE
  5
C0
330
1F
100
AcDbEntity
  8
0
  6
Continuous
 62
     7
100
AcDbSpline
210
0.0
220
0.0
230
1.0
 70
     8
 71
     3
 72
    17
 73
    13
 74
    11
 42
0.000000001
 43
0.0000000001
 44
0.00000001
 40
0.0
 40
0.0
 40
0.0
 40
0.0
 40
7.031325216140196
 40
22.50024066952403
 40
37.96915612231856
 40
45.00048132789843
 40
75.09906625727399
 40
105.0611149276574
 40
122.0265241703485
 40
139.0046916814073
 40
149.1497945923921
 40
159.463820291114
 40
159.463820291114
 40
159.463820291114
 40
159.463820291114
 10
379.3667228764844
 20
912.9184306698448
 30
0.0
 10
379.6525929907305
 20
910.5921627085833
 30
0.0
 10
380.5673773588844
 20
903.148105240293
 30
0.0
 10
382.0999774745192
 20
890.5844799938286
 30
0.0
 10
383.6769715883784
 20
878.0279678329023
 30
0.0
 10
385.6980559980771
 20
860.6071786325438
 30
0.0
 10
390.2719085203463
 20
838.7060394082173
 30
0.0
 10
399.1766310128758
 20
814.2127333602128
 30
0.0
 10
412.5778269580474
 20
797.347217468901
 30
0.0
 10
424.3359747012959
 20
788.3160028114452
 30
0.0
 10
435.4309434866358
 20
782.5104170979445
 30
0.0
 10
441.8880667714154
 20
780.2905601643555
 30
0.0
 10
445.1432853496954
 20
779.1714674711529
 30
0.0
 11
379.3667228764844
 21
912.9184306698448
 31
0.0
 11
380.2236909437772
 21
905.9395238866538
 31
0.0
 11
382.1090206918216
 21
890.5859289636338
 31
0.0
 11
383.9943504398659
 21
875.2323340406138
 31
0.0
 11
384.8513185071588
 21
868.2534272574228
 31
0.0
 11
390.9966838878119
 21
838.78888417268
 31
0.0
 11
402.479194715098
 21
811.1144138829738
 31
0.0
 11
413.0584009102465
 21
797.8514765343728
 31
0.0
 11
426.4736115797496
 21
787.4452142466739
 31
0.0
 11
435.4777190799586
 21
782.770905608671
 31
0.0
 11
445.1432853496954
 21
779.1714674711529
 31
0.0
  0
SPLINE
  5
C1
330
1F
100
AcDbEntity
  8
0
  6
Continuous
 62
     7
100
AcDbSpline
210
0.0
220
0.0
230
1.0
 70
     8
 71
     3
 72
    46
 73
    42
 74
    40
 42
0.000000001
 43
0.0000000001
 44
0.00000001
 40
0.0
 40
0.0
 40
0.0
 40
0.0
 40
1.258928701118364
 40
4.028571864332026
 40
6.798215027611212
 40
8.057143738196
 40
9.517827647033377
 40
10.97018034404727
 40
12.76284385002618
 40
17.62864480229792
 40
24.79929883656212
 40
33.50652159214872
 40
42.98202870853601
 40
52.45753582507519
 40
61.16475858099228
 40
68.33541261540154
 40
73.20121356737536
 40
74.99387707600624
 40
76.44494325452195
 40
77.90852669392069
 40
79.36964191229669
 40
83.13778115970696
 40
88.29013482457694
 40
93.90389329531504
 40
99.05624696029572
 40
102.8243862078557
 40
104.2855014263067
 40
107.4295516228848
 40
110.6205585018472
 40
112.0695762311551
 40
114.7606091570067
 40
116.2096268863075
 40
119.3998473083063
 40
122.6081881852108
 40
124.3335925914765
 40
128.4480184833679
 40
133.3587848705512
 40
137.473210762718
 40
139.1986151692859
 40
144.7296822286966
 40
150.2629777544921
 40
150.2629777544921
 40
150.2629777544921
 40
150.2629777544921
 10
463.9176900914836
 20
719.7173484033528
 30
0.0
 10
463.9479283387273
 20
719.2987075141981
 30
0.0
 10
464.0446907370121
 20
717.959056662474
 30
0.0
 10
464.1882400401356
 20
715.7015847694892
 30
0.0
 10
464.4107382620134
 20
713.4313571832809
 30
0.0
 10
464.4208846547884
 20
711.625637256286
 30
0.0
 10
464.9328869448098
 20
710.1717693259029
 30
0.0
 10
466.595499076896
 20
709.7230278205406
 30
0.0
 10
469.2557351835658
 20
709.9299700252143
 30
0.0
 10
473.8966287272019
 20
709.7811252541593
 30
0.0
 10
480.7958778083981
 20
709.8543953058277
 30
0.0
 10
489.2524880469518
 20
709.827169459157
 30
0.0
 10
498.4706396021225
 20
709.8376490410258
 30
0.0
 10
507.688808395087
 20
709.8271294121178
 30
0.0
 10
516.1453737925782
 20
709.8545298917234
 30
0.0
 10
523.0447435650251
 20
709.780772082536
 30
0.0
 10
527.6853919285992
 20
709.9306104463723
 30
0.0
 10
530.3455469023568
 20
709.7223195734697
 30
0.0
 10
532.007942604854
 20
710.1739849971572
 30
0.0
 10
532.5452337805983
 20
711.6930702340414
 30
0.0
 10
532.5474004508642
 20
713.8949858212194
 30
0.0
 10
532.8969808682964
 20
717.3618220664214
 30
0.0
 10
533.1965250304444
 20
722.1873522460327
 30
0.0
 10
533.5943121146761
 20
727.482291750485
 30
0.0
 10
533.9236786892563
 20
732.3134191746003
 30
0.0
 10
534.2015690432006
 20
735.7668002103583
 30
0.0
 10
534.3432181686479
 20
738.5476590863648
 30
0.0
 10
534.9165939720187
 20
741.1605168867138
 30
0.0
 10
536.6633504577126
 20
743.190361458533
 30
0.0
 10
538.5619930987656
 20
744.7187200992546
 30
0.0
 10
539.9646237446343
 20
745.9513776357749
 30
0.0
 10
541.8634622173304
 20
747.4799617894498
 30
0.0
 10
543.6213140214007
 20
749.5231760796289
 30
0.0
 10
544.2622329619282
 20
752.2279113118991
 30
0.0
 10
544.4954039006764
 20
755.22733102218
 30
0.0
 10
544.8860710460408
 20
758.7947224991063
 30
0.0
 10
545.2897500178469
 20
763.1499174077987
 30
0.0
 10
545.6948601536676
 20
766.7234495719092
 30
0.0
 10
545.9480010272141
 20
770.4758819433787
 30
0.0
 10
547.7209610804634
 20
774.9314858729095
 30
0.0
 10
551.4456240593288
 20
775.9868298215912
 30
0.0
 10
553.3083306368671
 20
776.5146080802128
 30
0.0
 11
463.9176900914836
 21
719.7173484033528
 31
0.0
 11
464.0072626331905
 21
718.461610270576
 31
0.0
 11
464.2043222249458
 21
715.6989863784668
 31
0.0
 11
464.4013818167012
 21
712.9363624863577
 31
0.0
 11
464.4909543584081
 21
711.6806243535807
 31
0.0
 11
465.1028037202228
 21
710.354261716765
 31
0.0
 11
466.4587941977561
 21
709.8340519553128
 31
0.0
 11
468.251457706307
 21
709.8340519553128
 31
0.0
 11
473.117258658088
 21
709.8340519553128
 31
0.0
 11
480.2879126922914
 21
709.8340519553128
 31
0.0
 11
488.9951354481099
 21
709.8340519553128
 31
0.0
 11
498.470642564736
 21
709.8340519553128
 31
0.0
 11
507.946149681362
 21
709.8340519553128
 31
0.0
 11
516.6533724371806
 21
709.8340519553128
 31
0.0
 11
523.8240264713841
 21
709.8340519553128
 31
0.0
 11
528.6898274231648
 21
709.8340519553128
 31
0.0
 11
530.4824909317158
 21
709.8340519553128
 31
0.0
 11
531.8371033701462
 21
710.354261716765
 31
0.0
 11
532.4558429274766
 21
711.6806243535807
 31
0.0
 11
532.5602685612083
 21
713.1380031541696
 31
0.0
 11
532.8295767745165
 21
716.8965063767414
 31
0.0
 11
533.1978145355705
 21
722.0356842525024
 31
0.0
 11
533.5990288125397
 21
727.63508701266
 31
0.0
 11
533.9672665735936
 21
732.7742648884214
 31
0.0
 11
534.2365747869017
 21
736.5327681109928
 31
0.0
 11
534.3410004206335
 21
737.9901469115819
 31
0.0
 11
535.1485313350995
 21
741.0287231341043
 31
0.0
 11
537.1301515654795
 21
743.5298641063848
 31
0.0
 11
538.2362576189693
 21
744.4659099268443
 31
0.0
 11
540.2904545754498
 21
746.2042807362693
 31
0.0
 11
541.3965606289394
 21
747.1403265567287
 31
0.0
 11
543.3864490939376
 21
749.633888313941
 31
0.0
 11
544.2683941199748
 21
752.71862884642
 31
0.0
 11
544.4392268715185
 21
754.4355553258599
 31
0.0
 11
544.8465972790457
 21
758.5297646229858
 31
0.0
 11
545.3328135719009
 21
763.416401526007
 31
0.0
 11
545.7401839794281
 21
767.5106108231329
 31
0.0
 11
545.9110167309718
 21
769.2275373025727
 31
0.0
 11
548.2681526169692
 21
774.231197286236
 31
0.0
 11
553.3083306368671
 21
776.5146080802128
 31
0.0
  0
SPLINE
  5
C2
330
1F
100
AcDbEntity
  8
0
  6
Continuous
 62
     7
100
AcDbSpline
210
0.0
220
0.0
230
1.0
 70
    11
 71
     3
 72
    35
 73
    31
 74
    29
 42
0.000000001
 43
0.0000000001
 44
0.00000001
 40
0.0
 40
0.0
 40
0.0
 40
0.0
 40
4.904253562490091
 40
9.808507127502494
 40
20.92795315260114
 40
32.04866357219628
 40
44.9005869787561
 40
79.78437908032106
 40
131.1920727030002
 40
193.6157006732111
 40
261.5472958171909
 40
329.4788909611486
 40
391.9025189312854
 40
443.3102125537802
 40
478.1940046547803
 40
491.045928060417
 40
502.1666384777095
 40
513.2860845031316
 40
518.1903380700608
 40
523.0945916369909
 40
536.8145253372847
 40
574.05434538094
 40
628.9340801821178
 40
695.5737581549797
 40
768.0934077136858
 40
840.613057272396
 40
907.2527352452692
 40
962.1324700464609
 40
999.3722900901282
 40
1013.092223781541
 40
1013.092223781541
 40
1013.092223781541
 40
1013.092223781541
 10
268.4786723214202
 20
912.9184306698448
 30
0.0
 10
268.5810519163657
 20
914.5530090328828
 30
0.0
 10
268.7858111191944
 20
917.8221657592941
 30
0.0
 10
268.7889372183606
 20
924.7446335688736
 30
0.0
 10
272.4693857328997
 20
934.1706945941908
 30
0.0
 10
284.6749557151701
 20
937.7731128244176
 30
0.0
 10
304.0741880676835
 20
936.2166419843606
 30
0.0
 10
337.2779908310208
 20
937.3226659822202
 30
0.0
 10
386.7731022947954
 20
936.7782331665086
 30
0.0
 10
447.3882240019431
 20
936.9804535763675
 30
0.0
 10
513.4772696768715
 20
936.9029497293543
 30
0.0
 10
579.5675921635902
 20
936.9797649211796
 30
0.0
 10
640.1793924345038
 20
936.7805472901956
 30
0.0
 10
689.6834436106176
 20
937.3165930870185
 30
0.0
 10
722.8690855884886
 20
936.2276539424571
 30
0.0
 10
742.293874967783
 20
937.7600768258949
 30
0.0
 10
754.4402937635363
 20
934.2133177130289
 30
0.0
 10
758.2961167046135
 20
924.622235621571
 30
0.0
 10
757.9727485733988
 20
918.0069872878244
 30
0.0
 10
759.98150143637
 20
908.7370131654695
 30
0.0
 10
732.1971661457333
 20
917.3590702422606
 30
0.0
 10
704.2398810852712
 20
910.4688160091455
 30
0.0
 10
647.7205294952413
 20
913.8559186361553
 30
0.0
 10
584.3539506834768
 20
912.6203300550798
 30
0.0
 10
513.3892921954765
 20
913.0014201596235
 30
0.0
 10
442.9395087847737
 20
912.8980311042457
 30
0.0
 10
378.2335589948851
 20
912.9227430404337
 30
0.0
 10
325.3191515072818
 20
912.9177213109169
 30
0.0
 10
290.0385197975277
 20
912.9184761597032
 30
0.0
 10
273.0519732994952
 20
912.9184403169852
 30
0.0
 10
268.4786723214202
 20
912.9184306698448
 30
0.0
 11
268.4786723214202
 21
912.9184306698448
 31
0.0
 11
268.7349875946124
 21
917.8159816425633
 31
0.0
 11
268.9913028678047
 21
922.7135326152818
 31
0.0
 11
273.6490750365688
 21
932.810425124316
 31
0.0
 11
283.9788561540418
 21
936.9293840037349
 31
0.0
 11
296.8307795597269
 21
936.9293840037348
 31
0.0
 11
331.714571660872
 21
936.9293840037349
 31
0.0
 11
383.1222652836119
 21
936.9293840037349
 31
0.0
 11
445.5458932540821
 21
936.929384003735
 31
0.0
 11
513.4774883984173
 21
936.9293840037349
 31
0.0
 11
581.4090835427526
 21
936.9293840037349
 31
0.0
 11
643.8327115132228
 21
936.9293840037349
 31
0.0
 11
695.2404051359628
 21
936.9293840037349
 31
0.0
 11
730.1241972371078
 21
936.9293840037349
 31
0.0
 11
742.9761206427929
 21
936.9293840037349
 31
0.0
 11
753.3059017602654
 21
932.8104251243159
 31
0.0
 11
757.963673929029
 21
922.7135326152818
 31
0.0
 11
758.2199892022218
 21
917.8159816425632
 31
0.0
 11
758.4763044754145
 21
912.9184306698448
 31
0.0
 11
744.7563707751027
 21
912.9184306698448
 31
0.0
 11
707.5165507313991
 21
912.9184306698448
 31
0.0
 11
652.6368159301519
 21
912.9184306698448
 31
0.0
 11
585.9971379572083
 21
912.9184306698448
 31
0.0
 11
513.4774883984173
 21
912.9184306698448
 31
0.0
 11
440.9578388396265
 21
912.918430669845
 31
0.0
 11
374.3181608666829
 21
912.9184306698448
 31
0.0
 11
319.4384260654357
 21
912.9184306698448
 31
0.0
 11
282.198606021732
 21
912.9184306698448
 31
0.0
 11
268.4786723214202
 21
912.9184306698448
 31
0.0
  0
SPLINE
  5
C3
330
1F
100
AcDbEntity
  8
0
  6
Continuous
 62
     7
100
AcDbSpline
210
0.0
220
0.0
230
1.0
 70
     8
 71
     3
 72
    33
 73
    29
 74
    27
 42
0.000000001
 43
0.0000000001
 44
0.00000001
 40
0.0
 40
0.0
 40
0.0
 40
0.0
 40
4.877562322542714
 40
15.60819941679546
 40
26.338836511038
 40
31.21639882659923
 40
34.64921574585263
 40
42.20141296820528
 40
49.7536101905512
 40
53.186427109797
 40
56.49778002594783
 40
63.78275644147433
 40
71.06773285699316
 40
74.37908577313564
 40
98.37117790284843
 40
123.2979869523076
 40
150.3978358858367
 40
189.551821671391
 40
229.7227899457291
 40
270.3580973294747
 40
274.1287568254602
 40
282.4242077166905
 40
290.7196586080685
 40
294.4903181042556
 40
299.3369341342849
 40
304.1782906793674
 40
309.7979370154578
 40
314.8856314442949
 40
314.8856314442949
 40
314.8856314442949
 40
314.8856314442949
 10
356.3810306353644
 20
912.9184306698448
 30
0.0
 10
356.5791245649904
 20
911.3046895586583
 30
0.0
 10
357.2130251538697
 20
906.1407180097425
 30
0.0
 10
358.2826904621819
 20
897.4265108742754
 30
0.0
 10
359.3525233846592
 20
888.7123243186343
 30
0.0
 10
360.1256106896099
 20
882.4125771647531
 30
0.0
 10
360.770478277077
 20
877.1645230602687
 30
0.0
 10
361.5238449493212
 20
871.0315508566109
 30
0.0
 10
362.2773472474461
 20
864.8985944963458
 30
0.0
 10
362.8583434181406
 20
860.168689613425
 30
0.0
 10
363.4288567633337
 20
855.5272343209507
 30
0.0
 10
364.1560242531341
 20
849.6113616994917
 30
0.0
 10
364.8827156150813
 20
843.6952562150195
 30
0.0
 10
366.2910566850044
 20
832.2527532273716
 30
0.0
 10
368.356790882677
 20
814.946366559713
 30
0.0
 10
374.3845478864555
 20
790.270783066954
 30
0.0
 10
387.2834290068841
 20
762.2581283410718
 30
0.0
 10
414.4651646377184
 20
737.899054779955
 30
0.0
 10
451.0736616579672
 20
720.7888056225312
 30
0.0
 10
479.4525875056279
 20
716.7286531589859
 30
0.0
 10
497.0161077345485
 20
716.8178091836103
 30
0.0
 10
503.8027321500433
 20
716.7965325099262
 30
0.0
 10
510.5938815240414
 20
716.8262971276436
 30
0.0
 10
516.2231202317453
 20
716.7739710286744
 30
0.0
 10
520.7415724587073
 20
716.9740257686773
 30
0.0
 10
525.6580548996226
 20
717.9383505233181
 30
0.0
 10
531.0951006422508
 20
719.3629480691116
 30
0.0
 10
532.6303488425026
 20
722.7793470214064
 30
0.0
 10
533.3598365791659
 20
724.4026813541809
 30
0.0
 11
356.3810306353644
 21
912.9184306698448
 31
0.0
 11
356.9753099986128
 21
908.0772070454692
 31
0.0
 11
358.2827245977592
 21
897.4265150718429
 31
0.0
 11
359.5901391969056
 21
886.7758230982166
 31
0.0
 11
360.184418560154
 21
881.934599473841
 31
0.0
 11
360.6029979377463
 21
878.5273977912168
 31
0.0
 11
361.5238725684494
 21
871.0315540894435
 31
0.0
 11
362.4447471991525
 21
863.5357103876702
 31
0.0
 11
362.8633265767448
 21
860.128508705046
 31
0.0
 11
363.2672642888658
 21
856.8418854439507
 31
0.0
 11
364.1559272555319
 21
849.6113142695409
 31
0.0
 11
365.0445902221979
 21
842.3807430951313
 31
0.0
 11
365.4485279343189
 21
839.0941198340358
 31
0.0
 11
368.7874656428506
 21
815.3355007714847
 31
0.0
 11
374.9547520529404
 21
791.183681218158
 31
0.0
 11
386.841206972158
 21
766.8297492630309
 31
0.0
 11
415.1671580075162
 21
739.7987466767838
 31
0.0
 11
451.5384075581784
 21
722.7447471975938
 31
0.0
 11
491.737543506576
 21
716.8069298174269
 31
0.0
 11
495.508203002665
 21
716.8069298174269
 31
0.0
 11
503.803653894061
 21
716.8069298174269
 31
0.0
 11
512.0991047854569
 21
716.8069298174269
 31
0.0
 11
515.8697642815459
 21
716.8069298174269
 31
0.0
 11
520.7080595728272
 21
717.0908058726831
 31
0.0
 11
525.4719407525363
 21
717.9534583512768
 31
0.0
 11
530.6726603279558
 21
720.0825287656971
 31
0.0
 11
533.3598365791659
 21
724.4026813541809
 31
0.0
  0
SPLINE
  5
C4
330
1F
100
AcDbEntity
  8
0
  6
Continuous
 62
     7
100
AcDbSpline
210
0.0
220
0.0
230
1.0
 70
     8
 71
     3
 72
     9
 73
     5
 74
     3
 42
0.000000001
 43
0.0000000001
 44
0.00000001
 40
0.0
 40
0.0
 40
0.0
 40
0.0
 40
25.68910877506046
 40
106.8041361683535
 40
106.8041361683535
 40
106.8041361683535
 40
106.8041361683535
 10
446.212643693767
 20
778.6533247683558
 30
0.0
 10
454.628748360999
 20
776.9503501497823
 30
0.0
 10
489.6192494667757
 20
769.870122729052
 30
0.0
 10
525.4097639972083
 20
773.57760332088
 30
0.0
 10
552.5917503032115
 20
776.3933406391329
 30
0.0
 11
446.212643693767
 21
778.6533247683558
 31
0.0
 11
471.5072404522733
 21
774.1684965070413
 31
0.0
 11
552.5917503032115
 21
776.3933406391329
 31
0.0
  0
SPLINE
  5
C5
330
1F
100
AcDbEntity
  8
0
  6
Continuous
 62
     7
100
AcDbSpline
210
0.0
220
0.0
230
1.0
 70
    11
 71
     3
 72
    53
 73
    49
 74
    47
 42
0.000000001
 43
0.0000000001
 44
0.00000001
 40
0.0
 40
0.0
 40
0.0
 40
0.0
 40
101.6207764930894
 40
203.0842645060318
 40
304.7013719261777
 40
341.8872402552074
 40
379.0312597804794
 40
418.4839308777769
 40
457.9574507493418
 40
488.0608033537919
 40
517.8191336704041
 40
547.9346316572284
 40
589.2690795178457
 40
630.6323726344607
 40
671.7166003929125
 40
712.7832743091936
 40
718.2360660795416
 40
723.690834218093
 40
761.5793281243514
 40
798.7230016669913
 40
835.8981011453267
 40
873.851320316494
 40
904.9817925595356
 40
935.6273223986052
 40
966.7486939416708
 40
1068.365597041837
 40
1169.829085053934
 40
1271.449657244105
 40
1308.637800633402
 40
1345.780964384655
 40
1385.227003180808
 40
1424.699260468156
 40
1454.808043204945
 40
1484.566361923742
 40
1514.692313373305
 40
1556.089562815203
 40
1597.513954415428
 40
1639.719876693323
 40
1681.903365734016
 40
1686.180216878018
 40
1690.454432416995
 40
1728.350251478578
 40
1765.363849503129
 40
1802.422107847691
 40
1840.368314773639
 40
1871.547430437134
 40
1902.309767565165
 40
1933.47552709278
 40
1933.47552709278
 40
1933.47552709278
 40
1933.47552709278
 10
1362.70945338559
 20
1734.922066131339
 30
0.0
 10
1328.902671071102
 20
1737.239721524891
 30
0.0
 10
1261.341432527367
 20
1741.871445049084
 30
0.0
 10
1159.716122802061
 20
1741.023889952528
 30
0.0
 10
1079.653077226715
 20
1738.220595937162
 30
0.0
 10
1021.353485623208
 20
1730.144385559195
 30
0.0
 10
985.5393972426987
 20
1716.564077895373
 30
0.0
 10
953.1719906625569
 20
1694.841826780712
 30
0.0
 10
927.4560070600687
 20
1668.792980688665
 30
0.0
 10
909.024316754911
 20
1641.077083833262
 30
0.0
 10
897.2583580410931
 20
1613.306429482744
 30
0.0
 10
889.4731304820219
 20
1580.350519963383
 30
0.0
 10
886.2648157277954
 20
1542.792250330903
 30
0.0
 10
885.3446444614226
 20
1501.546280157901
 30
0.0
 10
885.5276761778803
 20
1460.364999820789
 30
0.0
 10
887.7075483763351
 20
1431.193466830024
 30
0.0
 10
890.1209953289331
 20
1414.036961152116
 30
0.0
 10
892.5169100024266
 20
1397.950276438708
 30
0.0
 10
899.6522598411445
 20
1371.854655475262
 30
0.0
 10
916.8532091604484
 20
1338.344194363045
 30
0.0
 10
940.7103002812155
 20
1309.16802448217
 30
0.0
 10
968.3790831103988
 20
1286.641632234965
 30
0.0
 10
997.8544177043786
 20
1270.909060176819
 30
0.0
 10
1027.541593192223
 20
1261.448078141261
 30
0.0
 10
1081.655370474167
 20
1254.33917072037
 30
0.0
 10
1159.733951269403
 20
1251.322356554035
 30
0.0
 10
1261.299976586915
 20
1251.361187119332
 30
0.0
 10
1341.382130023338
 20
1254.333630979752
 30
0.0
 10
1399.676790036408
 20
1262.421234983428
 30
0.0
 10
1435.494340379117
 20
1275.982206212688
 30
0.0
 10
1467.878754808697
 20
1297.677886078291
 30
0.0
 10
1493.573767148083
 20
1323.751070318363
 30
0.0
 10
1511.987744853934
 20
1351.475377044233
 30
0.0
 10
1523.786001960525
 20
1379.241346259641
 30
0.0
 10
1531.526504178211
 20
1412.22799003318
 30
0.0
 10
1534.955759013579
 20
1449.81076548793
 30
0.0
 10
1535.652831263439
 20
1491.483311242623
 30
0.0
 10
1535.471684283546
 20
1533.425870560354
 30
0.0
 10
1533.20728234358
 20
1562.956060527044
 30
0.0
 10
1530.738852062206
 20
1579.686979715816
 30
0.0
 10
1528.416161308253
 20
1594.992871842543
 30
0.0
 10
1521.363477674597
 20
1620.65990865192
 30
0.0
 10
1504.170858861055
 20
1654.086246889579
 30
0.0
 10
1480.330342949479
 20
1683.151869028303
 30
0.0
 10
1452.817619755548
 20
1705.816396966104
 30
0.0
 10
1423.339394194373
 20
1721.671630333905
 30
0.0
 10
1393.552508774405
 20
1731.114420576735
 30
0.0
 10
1373.035024660946
 20
1733.647350797946
 30
0.0
 10
1362.70945338559
 20
1734.922066131339
 30
0.0
 11
1362.70945338559
 21
1734.922066131339
 31
0.0
 11
1261.245965372661
 21
1740.573863839867
 31
0.0
 11
1159.782477359732
 21
1740.573863839867
 31
0.0
 11
1058.322664117745
 21
1734.922066131339
 31
0.0
 11
1021.648220445141
 21
1728.776011731135
 31
0.0
 11
986.9126777907159
 21
1715.618494373929
 31
0.0
 11
954.0257745932131
 21
1693.824805957063
 31
0.0
 11
926.3726639096067
 21
1665.656308648865
 31
0.0
 11
909.7896475727944
 21
1640.532308027484
 31
0.0
 11
898.1014261304937
 21
1613.165472207943
 31
0.0
 11
890.9515468013478
 21
1583.91102904795
 31
0.0
 11
886.6996071484713
 21
1542.795854365332
 31
0.0
 11
885.5275848912124
 21
1501.449169113379
 31
0.0
 11
886.0085205382246
 21
1460.367756388789
 31
0.0
 11
889.3750700673045
 21
1419.439306004652
 31
0.0
 11
890.1281684371949
 21
1414.038770759272
 31
0.0
 11
890.9515468013478
 21
1408.64650374851
 31
0.0
 11
900.9550771611413
 21
1372.102457026043
 31
0.0
 11
917.9473328327356
 21
1339.073443546025
 31
0.0
 11
941.4260185630204
 21
1310.250894428478
 31
0.0
 11
970.888839098885
 21
1286.326240793425
 31
0.0
 11
998.3744925122118
 21
1271.709635218372
 31
0.0
 11
1027.566464566193
 21
1262.383474875901
 31
0.0
 11
1058.322664117745
 21
1257.629954508708
 31
0.0
 11
1159.782477359732
 21
1251.981831571121
 31
0.0
 11
1261.245965372661
 21
1251.981831571121
 31
0.0
 11
1362.70945338559
 21
1257.629954508708
 31
0.0
 11
1399.384586077746
 21
1263.785655182633
 31
0.0
 11
1434.124951869032
 21
1276.928014109706
 31
0.0
 11
1467.016678203396
 21
1298.702409979127
 31
0.0
 11
1494.653941437316
 21
1326.884687678357
 31
0.0
 11
1511.231037309833
 21
1352.019100150739
 31
0.0
 11
1522.929262295253
 21
1379.381648737515
 31
0.0
 11
1530.080570701988
 21
1408.64650374851
 31
0.0
 11
1534.442064463567
 21
1449.813354897497
 31
0.0
 11
1535.504532612123
 21
1491.224118967748
 31
0.0
 11
1534.962963244571
 21
1533.426566502779
 31
0.0
 11
1531.35387883333
 21
1575.455381110808
 31
0.0
 11
1530.735828295552
 21
1579.687339196689
 31
0.0
 11
1530.080570701988
 21
1583.91102904795
 31
0.0
 11
1520.048704413135
 21
1620.454903515529
 31
0.0
 11
1503.081339572842
 21
1653.350419457426
 31
0.0
 11
1479.671986434936
 21
1682.078745151292
 31
0.0
 11
1450.314155253246
 21
1706.12104887478
 31
0.0
 11
1422.82707276233
 21
1720.838302342851
 31
0.0
 11
1393.50750449509
 21
1730.148742831849
 31
0.0
 11
1362.70945338559
 21
1734.922066131339
 31
0.0
  0
SPLINE
  5
C6
330
1F
100
AcDbEntity
  8
0
  6
Continuous
 62
     7
100
AcDbSpline
210
0.0
220
0.0
230
1.0
 70
    11
 71
     3
 72
    47
 73
    43
 74
    41
 42
0.000000001
 43
0.0000000001
 44
0.00000001
 40
0.0
 40
0.0
 40
0.0
 40
0.0
 40
46.96044102632442
 40
93.91580356942225
 40
116.6107676003655
 40
139.3018620211056
 40
159.3414475357145
 40
179.3500224416562
 40
216.908512605366
 40
254.5084414802752
 40
292.4643136188279
 40
330.4951446809958
 40
375.7778728857753
 40
421.0602312107575
 40
465.6384274775947
 40
510.2021539691831
 40
554.6618239643594
 40
599.1319454642162
 40
644.0270327471014
 40
688.9176183206524
 40
718.673641038074
 40
748.4260610973739
 40
793.0671507636879
 40
837.7128813746983
 40
881.3913345502975
 40
924.9151180294361
 40
968.4001282994211
 40
1011.965779640055
 40
1055.156461572458
 40
1098.612194724888
 40
1132.716133301149
 40
1166.823324469733
 40
1205.71012582986
 40
1244.524233756015
 40
1282.813762418166
 40
1321.043537813082
 40
1340.940527950834
 40
1360.863911060825
 40
1384.189056609725
 40
1407.516020712108
 40
1452.397802337251
 40
1497.279113282675
 40
1497.279113282675
 40
1497.279113282675
 40
1497.279113282675
 10
1210.518814829874
 20
1633.718874393457
 30
0.0
 10
1226.172050134885
 20
1633.569910342399
 30
0.0
 10
1257.47682794367
 20
1633.271998350227
 30
0.0
 10
1296.328038782208
 20
1631.911819878055
 30
0.0
 10
1327.067138826746
 20
1630.290728285075
 30
0.0
 10
1348.82318505533
 20
1628.790589094714
 30
0.0
 10
1369.693123802902
 20
1627.383766217778
 30
0.0
 10
1395.254620366973
 20
1622.686077191303
 30
0.0
 10
1424.21802331312
 20
1608.387686173636
 30
0.0
 10
1452.791023183994
 20
1583.158669614805
 30
0.0
 10
1472.815701814395
 20
1550.164624301965
 30
0.0
 10
1481.721730779725
 20
1510.292966671675
 30
0.0
 10
1483.805760455939
 20
1467.40106884975
 30
0.0
 10
1481.473482167463
 20
1422.331399645926
 30
0.0
 10
1469.553780188726
 20
1378.310963668418
 30
0.0
 10
1441.906829034783
 20
1342.120700154641
 30
0.0
 10
1403.92942040155
 20
1316.978145279162
 30
0.0
 10
1359.508976068581
 20
1308.175557740519
 30
0.0
 10
1314.879657053163
 20
1306.069283274187
 30
0.0
 10
1275.062181454164
 20
1304.05546027881
 30
0.0
 10
1240.272778687592
 20
1303.253180611546
 30
0.0
 10
1205.555400217203
 20
1302.89815306137
 30
0.0
 10
1165.878670486002
 20
1303.44981987042
 30
0.0
 10
1121.571267322241
 20
1305.358763132349
 30
0.0
 10
1077.735688649607
 20
1306.789652196675
 30
0.0
 10
1033.976419901613
 20
1311.090036564149
 30
0.0
 10
993.8643961139635
 20
1330.203416955057
 30
0.0
 10
961.9838401647286
 20
1360.903631081807
 30
0.0
 10
943.2394492745968
 20
1401.122660628078
 30
0.0
 10
938.2629275708928
 20
1441.381160242311
 30
0.0
 10
937.6253524128683
 20
1478.604295825108
 30
0.0
 10
940.097460912205
 20
1514.257670325995
 30
0.0
 10
948.5989165423367
 20
1550.97558409505
 30
0.0
 10
969.3116469475572
 20
1584.507922189154
 30
0.0
 10
998.7939517943819
 20
1609.885378628688
 30
0.0
 10
1028.534334324381
 20
1623.636545656557
 30
0.0
 10
1054.341480350422
 20
1627.663248275042
 30
0.0
 10
1075.346067595384
 20
1628.981149805178
 30
0.0
 10
1097.489405339619
 20
1630.465996665395
 30
0.0
 10
1127.959515755541
 20
1632.053671752343
 30
0.0
 10
1165.635725014335
 20
1633.462281959415
 30
0.0
 10
1195.557837190998
 20
1633.63334388092
 30
0.0
 10
1210.518814829874
 20
1633.718874393457
 30
0.0
 11
1210.518814829874
 21
1633.718874393457
 31
0.0
 11
1257.47480825134
 21
1633.072574054063
 31
0.0
 11
1304.40186285164
 21
1631.442353794995
 31
0.0
 11
1327.064404923063
 21
1630.229679384193
 31
0.0
 11
1349.706276407939
 21
1628.735884996341
 31
0.0
 11
1369.670617915327
 21
1627.000933765432
 31
0.0
 11
1389.300095920641
 21
1623.124509768173
 31
0.0
 11
1423.234308836564
 21
1607.027635003873
 31
0.0
 11
1451.273270469063
 21
1581.976262147078
 31
0.0
 11
1470.85245004711
 21
1549.460051468332
 31
0.0
 11
1480.195555166702
 21
1512.594749379936
 31
0.0
 11
1483.048096110295
 21
1467.401956990995
 31
0.0
 11
1479.831752843462
 21
1422.233969305911
 31
0.0
 11
1466.916081348864
 21
1379.567811612658
 31
0.0
 11
1440.155250984569
 21
1343.933787462958
 31
0.0
 11
1402.87791520432
 21
1319.704414931213
 31
0.0
 11
1359.639182263693
 21
1309.311933034546
 31
0.0
 11
1314.863246703466
 21
1306.043224281792
 31
0.0
 11
1270.017031148976
 21
1304.04782366038
 31
0.0
 11
1240.269990048079
 21
1303.316773916141
 31
0.0
 11
1210.518814829874
 21
1303.044611193262
 31
0.0
 11
1165.882061219068
 21
1303.666795848349
 31
0.0
 11
1121.265978194809
 21
1305.293571009659
 31
0.0
 11
1077.632437051121
 21
1307.273813200936
 31
0.0
 11
1034.565269978842
 21
1313.561805628767
 31
0.0
 11
995.2449912281226
 21
1332.132260583284
 31
0.0
 11
964.097862398391
 21
1362.592436920078
 31
0.0
 11
945.4895113685361
 21
1401.568894914554
 31
0.0
 11
938.7419428997928
 21
1444.497569056962
 31
0.0
 11
938.1163131469464
 21
1478.595768626164
 31
0.0
 11
940.8310501802207
 21
1512.594749379936
 31
0.0
 11
950.5999693826963
 21
1550.234509444322
 31
0.0
 11
970.9108877245353
 21
1583.310203998961
 31
0.0
 11
999.8214590897976
 21
1608.415320380779
 31
0.0
 11
1034.747171140462
 21
1623.962357542909
 31
0.0
 11
1054.352533461471
 21
1627.356467854053
 31
0.0
 11
1074.214211055672
 21
1628.923298314374
 31
0.0
 11
1097.492047586667
 21
1630.408135448055
 31
0.0
 11
1120.786420586901
 21
1631.640791425854
 31
0.0
 11
1165.640215356459
 21
1633.225536394517
 31
0.0
 11
1210.518814829874
 21
1633.718874393457
 31
0.0
  0
SPLINE
  5
C7
330
1F
100
AcDbEntity
  8
0
  6
Continuous
 62
     7
100
AcDbSpline
210
0.0
220
0.0
230
1.0
 70
    11
 71
     3
 72
   205
 73
   201
 74
   199
 42
0.000000001
 43
0.0000000001
 44
0.00000001
 40
0.0
 40
0.0
 40
0.0
 40
0.0
 40
16.16389043658174
 40
32.32920034458234
 40
48.4949262080591
 40
64.6605226288954
 40
80.82597041185804
 40
88.90968115175335
 40
97.03142897140111
 40
105.180564638766
 40
113.3463913294641
 40
121.5185289428708
 40
129.6872787116433
 40
137.8439946344333
 40
145.9814673080814
 40
154.0943243048062
 40
162.1794491524599
 40
167.2051048481718
 40
172.2072283509499
 40
177.1920705257425
 40
182.1650718542015
 40
187.1308819264055
 40
192.093387221108
 40
197.0557456720224
 40
202.0204265432046
 40
206.9892542375517
 40
211.963454814609
 40
216.9437041751201
 40
221.9301770617827
 40
226.9225962147069
 40
231.9202811966827
 40
236.9221965619361
 40
242.1093651913265
 40
247.1976788512742
 40
252.2053229023894
 40
257.1498983704399
 40
262.0482568452557
 40
266.9163510773868
 40
271.7691087024612
 40
276.6203345201133
 40
281.4826442944401
 40
286.3674305261377
 40
291.2848584294961
 40
296.243888671719
 40
301.2523223978819
 40
306.316863646188
 40
311.4431943440573
 40
311.4762672825321
 40
311.5093402210071
 40
319.6404620647181
 40
327.7736893350735
 40
335.908143689808
 40
344.0431073618501
 40
352.1780388006335
 40
360.312588443227
 40
368.4466145890768
 40
376.5801993392196
 40
384.7136645466334
 40
392.8475877090321
 40
400.9828177190216
 40
409.1204903693436
 40
414.1018313399057
 40
419.0826514010105
 40
424.0658529314843
 40
429.0535925865383
 40
434.0473478124345
 40
439.0479855725127
 40
444.0558321313029
 40
449.0707430406577
 40
454.0921727415415
 40
459.1192434292632
 40
464.1508130254065
 40
469.1855422566964
 40
474.2219609616234
 40
479.2585338326519
 40
484.293725857961
 40
489.3260677540428
 40
494.3542216802334
 40
499.37704749839
 40
504.3936697843607
 40
509.4035457105929
 40
514.4065337984565
 40
519.4029633819594
 40
524.3937044294287
 40
529.3802371363702
 40
534.2310986109428
 40
539.0606799643427
 40
543.8805331865816
 40
548.6985282040548
 40
553.5193755583375
 40
558.345192983574
 40
563.1760901558499
 40
568.0107562770214
 40
572.8470436717184
 40
587.5017350181693
 40
602.1586718629156
 40
616.8155825178565
 40
639.2507643821417
 40
661.680446772484
 40
684.111284688671
 40
706.5496479010799
 40
724.648856687014
 40
742.7451848718019
 40
760.8396918311349
 40
778.9339238872717
 40
797.0299677225853
 40
812.1241386488041
 40
827.215711431616
 40
842.305175884878
 40
846.9029645731872
 40
851.4890925517
 40
856.0646471375824
 40
860.6314521959822
 40
865.192555730842
 40
869.7527149598709
 40
874.3188689017503
 40
878.900582476617
 40
883.5104394489134
 40
888.4951804397995
 40
893.4860930916614
 40
898.4848111344295
 40
903.4922770646795
 40
908.5088187111305
 40
913.5342259574451
 40
918.5678268772629
 40
923.6085628305373
 40
928.655062315931
 40
933.7057135717623
 40
938.7587360709208
 40
943.8122511676004
 40
948.864352229765
 40
953.9131746344383
 40
958.9569660152401
 40
963.9941571337512
 40
969.0234336971912
 40
974.0438093621108
 40
979.054700043586
 40
984.0559994873287
 40
989.0481558539382
 40
994.0322488072786
 40
999.0100662927997
 40
1003.984179841861
 40
1012.118423680921
 40
1020.253465189551
 40
1028.389554578385
 40
1036.526738705205
 40
1044.664877813437
 40
1052.803662250653
 40
1060.942629132111
 40
1069.081178926519
 40
1077.218591952149
 40
1085.354044780958
 40
1093.486626556817
 40
1101.615355241009
 40
1101.648884379497
 40
1101.682413517984
 40
1106.802435182093
 40
1111.857764464903
 40
1116.854599177361
 40
1121.8001484607
 40
1126.702703688828
 40
1131.571695799518
 40
1136.417734264096
 40
1141.252622937441
 40
1146.089348590795
 40
1150.942039111469
 40
1155.825890153277
 40
1160.757061306107
 40
1165.75254535231
 40
1170.830016521952
 40
1176.007665459042
 40
1181.015756687294
 40
1186.014681720735
 40
1191.004439141487
 40
1195.985321350634
 40
1200.957953933902
 40
1205.923335057942
 40
1210.882874569559
 40
1215.83843236456
 40
1220.792355480142
 40
1225.747513250175
 40
1230.70732975334
 40
1235.67581268944
 40
1240.65757775058
 40
1245.657867523665
 40
1250.682563981559
 40
1258.592622186629
 40
1266.542289792261
 40
1274.525704015692
 40
1282.534671522799
 40
1290.559095218184
 40
1298.587373062916
 40
1306.606773062623
 40
1314.603790425252
 40
1322.564494148843
 40
1330.474871214891
 40
1351.13738826025
 40
1371.796480773721
 40
1392.455783588484
 40
1413.119016403238
 40
1413.119016403238
 40
1413.119016403238
 40
1413.119016403238
 10
1210.518814829874
 20
1620.136920992469
 30
0.0
 10
1215.906765637546
 20
1620.119275332409
 30
0.0
 10
1226.683140408915
 20
1620.083982463111
 30
0.0
 10
1242.847254143768
 20
1619.897004882382
 30
0.0
 10
1259.009889454762
 20
1619.584228293594
 30
0.0
 10
1275.169562216532
 20
1619.132417719421
 30
0.0
 10
1288.630076450514
 20
1618.582002354895
 30
0.0
 10
1299.410732340162
 20
1618.125522943441
 30
0.0
 10
1307.523872711721
 20
1617.837880187167
 30
0.0
 10
1315.664264285943
 20
1617.547768126798
 30
0.0
 10
1323.820524334525
 20
1617.231123725489
 30
0.0
 10
1331.980871344657
 20
1616.855006693281
 30
0.0
 10
1340.133682944649
 20
1616.389163578996
 30
0.0
 10
1348.267125501658
 20
1615.801427200322
 30
0.0
 10
1356.370091096863
 20
1615.064459028283
 30
0.0
 10
1364.4288395259
 20
1614.133413811397
 30
0.0
 10
1371.438293123488
 20
1613.166268046628
 30
0.0
 10
1377.382872974181
 20
1612.098360697335
 30
0.0
 10
1382.254493934608
 20
1610.943548229725
 30
0.0
 10
1387.048254336456
 20
1609.563573409849
 30
0.0
 10
1391.758462828818
 20
1607.957551568898
 30
0.0
 10
1396.381232604955
 20
1606.135564188068
 30
0.0
 10
1400.912205608855
 20
1604.104758427268
 30
0.0
 10
1405.347157581439
 20
1601.873055913339
 30
0.0
 10
1409.681833298201
 20
1599.448160541639
 30
0.0
 10
1413.911991333435
 20
1596.837826861237
 30
0.0
 10
1418.033380026071
 20
1594.049778530906
 30
0.0
 10
1422.041780928779
 20
1591.091768926281
 30
0.0
 10
1425.932852354766
 20
1587.971423620268
 30
0.0
 10
1429.702707760186
 20
1584.696814865591
 30
0.0
 10
1433.345751691282
 20
1581.274322046122
 30
0.0
 10
1436.905512341831
 20
1577.673389347783
 30
0.0
 10
1440.329999787169
 20
1573.90165772816
 30
0.0
 10
1443.562338839865
 20
1569.961310577642
 30
0.0
 10
1446.55025598324
 20
1565.932977939673
 30
0.0
 10
1449.301973128396
 20
1561.815701416612
 30
0.0
 10
1451.827676267839
 20
1557.610325320054
 30
0.0
 10
1454.137073244143
 20
1553.317221440973
 30
0.0
 10
1456.240064225776
 20
1548.936876544155
 30
0.0
 10
1458.146439478239
 20
1544.469718546211
 30
0.0
 10
1459.866394798036
 20
1539.916187892442
 30
0.0
 10
1461.408720190077
 20
1535.276593752114
 30
0.0
 10
1462.787532531092
 20
1530.551608048074
 30
0.0
 10
1463.996860430474
 20
1525.740416037085
 30
0.0
 10
1465.106711823211
 20
1520.847718485299
 30
0.0
 10
1465.899027253526
 20
1515.857216492557
 30
0.0
 10
1466.796594996747
 20
1512.51767262147
 30
0.0
 10
1466.795500665978
 20
1510.786761877479
 30
0.0
 10
1466.794890354468
 20
1508.054306771441
 30
0.0
 10
1467.966443998396
 20
1502.694697607707
 30
0.0
 10
1468.521713926343
 20
1494.583054998741
 30
0.0
 10
1469.133672337176
 20
1486.470649309398
 30
0.0
 10
1469.462653374086
 20
1478.341216502965
 30
0.0
 10
1469.596373993519
 20
1470.206749781564
 30
0.0
 10
1469.508036862942
 20
1462.071665722503
 30
0.0
 10
1469.20144429223
 20
1453.942427425404
 30
0.0
 10
1468.672513987664
 20
1445.824891313098
 30
0.0
 10
1467.918096761638
 20
1437.725297096954
 30
0.0
 10
1466.939188675795
 20
1429.64896176362
 30
0.0
 10
1465.7192622517
 20
1421.604515161023
 30
0.0
 10
1464.490460656765
 20
1414.625885567851
 30
0.0
 10
1463.212375627187
 20
1408.727433750791
 30
0.0
 10
1461.8880421381
 20
1403.922360857479
 30
0.0
 10
1460.337685273093
 20
1399.183875249956
 30
0.0
 10
1458.559352067708
 20
1394.521338798921
 30
0.0
 10
1456.563072520283
 20
1389.941714546925
 30
0.0
 10
1454.355650490314
 20
1385.452606767426
 30
0.0
 10
1451.944744447495
 20
1381.061447316348
 30
0.0
 10
1449.337773295433
 20
1376.775715428815
 30
0.0
 10
1446.54221116906
 20
1372.602879775346
 30
0.0
 10
1443.56550926578
 20
1368.550414792713
 30
0.0
 10
1440.41511771599
 20
1364.625796852115
 30
0.0
 10
1437.098480466407
 20
1360.836505689918
 30
0.0
 10
1433.623037275587
 20
1357.190024342521
 30
0.0
 10
1429.996223681815
 20
1353.693839439099
 30
0.0
 10
1426.225471397788
 20
1350.355441465371
 30
0.0
 10
1422.318208571409
 20
1347.182324910377
 30
0.0
 10
1418.281859843689
 20
1344.181989219043
 30
0.0
 10
1414.123847223543
 20
1341.361937096773
 30
0.0
 10
1409.851587995222
 20
1338.729683143803
 30
0.0
 10
1405.472504009304
 20
1336.292724495704
 30
0.0
 10
1400.993989126046
 20
1334.058653454915
 30
0.0
 10
1396.42353334167
 20
1332.034741642722
 30
0.0
 10
1391.768264339641
 20
1330.229493006628
 30
0.0
 10
1387.078918563034
 20
1328.660994901812
 30
0.0
 10
1382.368367910588
 20
1327.344660137881
 30
0.0
 10
1377.654998326999
 20
1326.266907233967
 30
0.0
 10
1372.912937418481
 20
1325.383752102214
 30
0.0
 10
1368.146332318005
 20
1324.66588374523
 30
0.0
 10
1363.359700613131
 20
1324.082512265095
 30
0.0
 10
1358.55740554891
 20
1323.603491126642
 30
0.0
 10
1353.743871562082
 20
1323.198041227341
 30
0.0
 10
1348.92335333064
 20
1322.837650031523
 30
0.0
 10
1340.836328640482
 20
1322.247363548682
 30
0.0
 10
1329.4830738647
 20
1321.42925204469
 30
0.0
 10
1314.856076452843
 20
1320.500705099893
 30
0.0
 10
1297.629990997747
 20
1319.59300309481
 30
0.0
 10
1277.805578020379
 20
1318.780401728052
 30
0.0
 10
1255.383588235496
 20
1318.095345867998
 30
0.0
 10
1232.954367317032
 20
1317.680201597936
 30
0.0
 10
1211.965199292008
 20
1317.438311801182
 30
0.0
 10
1192.420750467664
 20
1317.623160066983
 30
0.0
 10
1174.325907067324
 20
1317.882360978218
 30
0.0
 10
1156.235838316382
 20
1318.320353397326
 30
0.0
 10
1138.150970868198
 20
1318.933142424845
 30
0.0
 10
1121.0733573376
 20
1319.708511205257
 30
0.0
 10
1105.003513825199
 20
1320.590838131908
 30
0.0
 10
1089.940593815429
 20
1321.52685389955
 30
0.0
 10
1078.378682139288
 20
1322.377473602487
 30
0.0
 10
1070.312126514629
 20
1323.00740326651
 30
0.0
 10
1065.740171614373
 20
1323.372528000383
 30
0.0
 10
1061.182037807415
 20
1323.779562366468
 30
0.0
 10
1056.638639857672
 20
1324.253602558833
 30
0.0
 10
1052.111104738907
 20
1324.822381174141
 30
0.0
 10
1047.600508387219
 20
1325.512937896275
 30
0.0
 10
1043.108025564228
 20
1326.352746804285
 30
0.0
 10
1038.634688820795
 20
1327.368577933674
 30
0.0
 10
1034.075953538237
 20
1328.619143947563
 30
0.0
 10
1029.454599702022
 20
1330.135919718213
 30
0.0
 10
1024.791082244523
 20
1331.920602071586
 30
0.0
 10
1020.211169573376
 20
1333.928938173211
 30
0.0
 10
1015.722277128734
 20
1336.152320015234
 30
0.0
 10
1011.332026016928
 20
1338.582943973071
 30
0.0
 10
1007.047983368192
 20
1341.212801950571
 30
0.0
 10
1002.877733317095
 20
1344.033951074663
 30
0.0
 10
998.8288587979008
 20
1347.038440020792
 30
0.0
 10
994.9089470185982
 20
1350.218327721521
 30
0.0
 10
991.125588380733
 20
1353.565677422774
 30
0.0
 10
987.4863770420438
 20
1357.072557533465
 30
0.0
 10
983.9989110019011
 20
1360.731040816182
 30
0.0
 10
980.6707922918202
 20
1364.533204157236
 30
0.0
 10
977.5096273370912
 20
1368.471128317736
 30
0.0
 10
974.5230268704518
 20
1372.536897657954
 30
0.0
 10
971.7186079906234
 20
1376.722600263428
 30
0.0
 10
969.1039887730981
 20
1381.020326528275
 30
0.0
 10
966.6868112291025
 20
1385.422173245728
 30
0.0
 10
964.4746593710928
 20
1389.920226683744
 30
0.0
 10
962.4753682448436
 20
1394.50662306032
 30
0.0
 10
960.6958783361736
 20
1399.173319818971
 30
0.0
 10
959.1465046533998
 20
1403.91294190488
 30
0.0
 10
957.8250438788502
 20
1408.71562345333
 30
0.0
 10
956.5538690742287
 20
1414.610920507469
 30
0.0
 10
955.3285509822817
 20
1421.58641724892
 30
0.0
 10
954.1081515602705
 20
1429.63028423023
 30
0.0
 10
953.1251202775463
 20
1437.707997620904
 30
0.0
 10
952.3640698962965
 20
1445.810455360245
 30
0.0
 10
951.8272229419158
 20
1453.931802593719
 30
0.0
 10
951.5119581930957
 20
1462.065333882005
 30
0.0
 10
951.4174227196081
 20
1470.204500944988
 30
0.0
 10
951.540540995524
 20
1478.342979645929
 30
0.0
 10
951.8853642309175
 20
1486.473393820261
 30
0.0
 10
952.4296721686139
 20
1494.592351353693
 30
0.0
 10
953.2491677530461
 20
1502.681583072662
 30
0.0
 10
953.7872141549742
 20
1508.092044152494
 30
0.0
 10
954.236614947136
 20
1510.786762035552
 30
0.0
 10
954.5209263354699
 20
1512.492252681738
 30
0.0
 10
955.0079661949089
 20
1515.86086243246
 30
0.0
 10
955.9593614427883
 20
1520.829274508978
 30
0.0
 10
957.0233357912084
 20
1525.714513875252
 30
0.0
 10
958.240067605341
 20
1530.512009816157
 30
0.0
 10
959.6113426838745
 20
1535.223240502839
 30
0.0
 10
961.1490759916246
 20
1539.848065005325
 30
0.0
 10
962.8625093507977
 20
1544.386741165635
 30
0.0
 10
964.7615872830852
 20
1548.839390078839
 30
0.0
 10
966.8560555815905
 20
1553.206135476542
 30
0.0
 10
969.1556822615195
 20
1557.487077854879
 30
0.0
 10
971.6702237350306
 20
1561.682276138251
 30
0.0
 10
974.409298406591
 20
1565.791880831124
 30
0.0
 10
977.3829048962115
 20
1569.815659402908
 30
0.0
 10
980.5994243116936
 20
1573.754853742392
 30
0.0
 10
984.0088905349494
 20
1577.533742346775
 30
0.0
 10
987.5574583703524
 20
1581.144788135141
 30
0.0
 10
991.1941847419403
 20
1584.576367391224
 30
0.0
 10
994.9569435288951
 20
1587.855621560356
 30
0.0
 10
998.8403898807189
 20
1590.977061376461
 30
0.0
 10
1002.840697405995
 20
1593.933703483079
 30
0.0
 10
1006.953634989579
 20
1596.718958545349
 30
0.0
 10
1011.17508023472
 20
1599.326124984559
 30
0.0
 10
1015.500880631465
 20
1601.748527913185
 30
0.0
 10
1019.926892230227
 20
1603.979466139353
 30
0.0
 10
1024.448958140722
 20
1606.012283702129
 30
0.0
 10
1029.062949677027
 20
1607.840135602599
 30
0.0
 10
1033.764615930533
 20
1609.456855192914
 30
0.0
 10
1038.550138311473
 20
1610.853711362787
 30
0.0
 10
1043.414046132993
 20
1612.031567837619
 30
0.0
 10
1049.292636512247
 20
1613.130061692163
 30
0.0
 10
1056.183688437453
 20
1614.12761981783
 30
0.0
 10
1064.074756498935
 20
1615.079841996028
 30
0.0
 10
1072.020442085669
 20
1615.83470373803
 30
0.0
 10
1080.003922806866
 20
1616.434581819208
 30
0.0
 10
1088.010895972551
 20
1616.905955049673
 30
0.0
 10
1096.026358399475
 20
1617.279667715587
 30
0.0
 10
1104.035498248986
 20
1617.584906319756
 30
0.0
 10
1112.023377863427
 20
1617.852975291762
 30
0.0
 10
1119.975329765123
 20
1618.108315191537
 30
0.0
 10
1132.144882540454
 20
1618.558324356309
 30
0.0
 10
1148.545048495265
 20
1619.150004236005
 30
0.0
 10
1169.199178346397
 20
1619.667734055762
 30
0.0
 10
1189.857039597202
 20
1620.024025402659
 30
0.0
 10
1203.631119755437
 20
1620.099286743121
 30
0.0
 10
1210.518814829874
 20
1620.136920992469
 30
0.0
 11
1210.518814829874
 21
1620.136920992469
 31
0.0
 11
1226.682530002835
 21
1620.061646984497
 31
0.0
 11
1242.846774342812
 21
1619.876041653766
 31
0.0
 11
1259.009431181742
 21
1619.561054987717
 31
0.0
 11
1275.168383851562
 21
1619.097636973785
 31
0.0
 11
1291.321515684211
 21
1618.466737599409
 31
0.0
 11
1299.398428866389
 21
1618.135297146467
 31
0.0
 11
1307.514731918292
 21
1617.837954893095
 31
0.0
 11
1315.658551655008
 21
1617.543655350062
 31
0.0
 11
1323.818014891624
 21
1617.22134302814
 31
0.0
 11
1331.981248443226
 21
1616.839962438099
 31
0.0
 11
1340.136379124901
 21
1616.36845809071
 31
0.0
 11
1348.271533751736
 21
1615.775774496743
 31
0.0
 11
1356.374839138819
 21
1615.030856166969
 31
0.0
 11
1364.434422101236
 21
1614.102647612159
 31
0.0
 11
1372.438409454074
 21
1612.960093343083
 31
0.0
 11
1377.381291584515
 21
1612.051725897357
 31
0.0
 11
1382.249923743153
 21
1610.903831981949
 31
0.0
 11
1387.040023596916
 21
1609.524123716141
 31
0.0
 11
1391.747308812735
 21
1607.920313219216
 31
0.0
 11
1396.367497057537
 21
1606.100112610459
 31
0.0
 11
1400.896305998254
 21
1604.071234009152
 31
0.0
 11
1405.329453301812
 21
1601.841389534578
 31
0.0
 11
1409.662656635142
 21
1599.418291306021
 31
0.0
 11
1413.891633665172
 21
1596.809651442763
 31
0.0
 11
1418.012102058833
 21
1594.023182064089
 31
0.0
 11
1422.019779483051
 21
1591.066595289282
 31
0.0
 11
1425.910383604759
 21
1587.947603237624
 31
0.0
 11
1429.679632090883
 21
1584.673918028398
 31
0.0
 11
1433.323242608354
 21
1581.25325178089
 31
0.0
 11
1436.8369328241
 21
1577.69331661438
 31
0.0
 11
1440.319016743283
 21
1573.848604665426
 31
0.0
 11
1443.54647333406
 21
1569.914845667009
 31
0.0
 11
1446.529111784998
 21
1565.892362998974
 31
0.0
 11
1449.276741284664
 21
1561.781480041161
 31
0.0
 11
1451.799171021626
 21
1557.582520173415
 31
0.0
 11
1454.106210184451
 21
1553.295806775578
 31
0.0
 11
1456.207667961707
 21
1548.921663227493
 31
0.0
 11
1458.11335354196
 21
1544.460412909003
 31
0.0
 11
1459.833076113779
 21
1539.912379199951
 31
0.0
 11
1461.37664486573
 21
1535.27788548018
 31
0.0
 11
1462.753868986381
 21
1530.557255129532
 31
0.0
 11
1463.9745576643
 21
1525.750811527851
 31
0.0
 11
1465.048520088053
 21
1520.858878054979
 31
0.0
 11
1465.985565446209
 21
1515.881778090759
 31
0.0
 11
1466.795502927334
 21
1510.819835015034
 31
0.0
 11
1466.795502927334
 21
1510.786762076558
 31
0.0
 11
1466.795502927334
 21
1510.753689138082
 31
0.0
 11
1467.766586667954
 21
1502.680762852703
 31
0.0
 11
1468.531117658552
 21
1494.583548628129
 31
0.0
 11
1469.086492936378
 21
1486.468075385439
 31
0.0
 11
1469.430109538682
 21
1478.340372045707
 31
0.0
 11
1469.559364502712
 21
1470.206467530012
 31
0.0
 11
1469.471654865719
 21
1462.072390759428
 31
0.0
 11
1469.164377664952
 21
1453.944170655033
 31
0.0
 11
1468.63492993766
 21
1445.827836137903
 31
0.0
 11
1467.880708721093
 21
1437.729416129115
 31
0.0
 11
1466.8991110525
 21
1429.654939549744
 31
0.0
 11
1465.687533969132
 21
1421.610435320868
 31
0.0
 11
1464.243374508237
 21
1413.601932363562
 31
0.0
 11
1463.167507959813
 21
1408.738161292089
 31
0.0
 11
1461.850709456658
 21
1403.934557417502
 31
0.0
 11
1460.300438592389
 21
1399.198635359284
 31
0.0
 11
1458.524154960623
 21
1394.537909736921
 31
0.0
 11
1456.529318154979
 21
1389.959895169897
 31
0.0
 11
1454.323387769074
 21
1385.472106277697
 31
0.0
 11
1451.913823396525
 21
1381.082057679805
 31
0.0
 11
1449.30808463095
 21
1376.797263995706
 31
0.0
 11
1446.513631065968
 21
1372.625239844883
 31
0.0
 11
1443.537922295194
 21
1368.573499846823
 31
0.0
 11
1440.388417912247
 21
1364.649558621009
 31
0.0
 11
1437.072577510744
 21
1360.860930786926
 31
0.0
 11
1433.597860684304
 21
1357.215130964059
 31
0.0
 11
1429.971727026543
 21
1353.719673771891
 31
0.0
 11
1426.201636131079
 21
1350.382073829909
 31
0.0
 11
1422.29504759153
 21
1347.209845757595
 31
0.0
 11
1418.259421001513
 21
1344.210504174435
 31
0.0
 11
1414.102215954646
 21
1341.391563699913
 31
0.0
 11
1409.830892044547
 21
1338.760538953515
 31
0.0
 11
1405.452908864833
 21
1336.324944554723
 31
0.0
 11
1400.975726009122
 21
1334.092295123024
 31
0.0
 11
1396.406803071031
 21
1332.0701052779
 31
0.0
 11
1391.753599644178
 21
1330.265889638838
 31
0.0
 11
1387.02357532218
 21
1328.687162825322
 31
0.0
 11
1382.352087033069
 21
1327.380237344993
 31
0.0
 11
1377.645257428357
 21
1326.298289507881
 31
0.0
 11
1372.907759364921
 21
1325.411104530685
 31
0.0
 11
1368.144265699637
 21
1324.688467630106
 31
0.0
 11
1363.359449289382
 21
1324.100164022845
 31
0.0
 11
1358.557982991033
 21
1323.615978925603
 31
0.0
 11
1353.744539661465
 21
1323.205697555079
 31
0.0
 11
1348.923792157557
 21
1322.839105127975
 31
0.0
 11
1344.100413336184
 21
1322.485986860991
 31
0.0
 11
1329.482378683542
 21
1321.450109763279
 31
0.0
 11
1314.854544641722
 21
1320.526925641116
 31
0.0
 11
1300.218136134371
 21
1319.751957280273
 31
0.0
 11
1277.802349189862
 21
1318.819283189749
 31
0.0
 11
1255.382944892706
 21
1318.140340549098
 31
0.0
 11
1232.956305890259
 21
1317.706344359039
 31
0.0
 11
1210.518814829874
 21
1317.508509620288
 31
0.0
 11
1192.420068172534
 21
1317.637846858356
 31
0.0
 11
1174.325819434826
 21
1317.912175858706
 31
0.0
 11
1156.236597783767
 21
1318.349488299867
 31
0.0
 11
1138.152932386372
 21
1318.967775860371
 31
0.0
 11
1120.075352409657
 21
1319.785030218749
 31
0.0
 11
1105.003687699641
 21
1320.608995525483
 31
0.0
 11
1089.941822378803
 21
1321.555453196945
 31
0.0
 11
1074.892206294438
 21
1322.651351553374
 31
0.0
 11
1070.308352974907
 21
1323.00905194215
 31
0.0
 11
1065.737247934816
 21
1323.37995428579
 31
0.0
 11
1061.180206832898
 21
1323.791143007163
 31
0.0
 11
1056.638545327884
 21
1324.269702529137
 31
0.0
 11
1052.113579078507
 21
1324.842717274578
 31
0.0
 11
1047.6066237435
 21
1325.537271666354
 31
0.0
 11
1043.118994981593
 21
1326.380450127333
 31
0.0
 11
1038.652008451521
 21
1327.399337080382
 31
0.0
 11
1034.206979812014
 21
1328.621016948369
 31
0.0
 11
1029.470036186614
 21
1330.173114830917
 31
0.0
 11
1024.808590443123
 21
1331.956407482172
 31
0.0
 11
1020.230272037616
 21
1333.962942468143
 31
0.0
 11
1015.742710426171
 21
1336.184767354838
 31
0.0
 11
1011.353535064863
 21
1338.613929708267
 31
0.0
 11
1007.070375409769
 21
1341.242477094438
 31
0.0
 11
1002.900860916967
 21
1344.06245707936
 31
0.0
 11
998.8526210425316
 21
1347.065917229041
 31
0.0
 11
994.93328524254
 21
1350.24490510949
 31
0.0
 11
991.1504829730686
 21
1353.591468286716
 31
0.0
 11
987.5118436901938
 21
1357.097654326727
 31
0.0
 11
984.0249968499925
 21
1360.755510795533
 31
0.0
 11
980.6975719085408
 21
1364.557085259142
 31
0.0
 11
977.5371983219151
 21
1368.494425283562
 31
0.0
 11
974.5515055461921
 21
1372.559578434803
 31
0.0
 11
971.7481230374483
 21
1376.744592278873
 31
0.0
 11
969.13468025176
 21
1381.041514381781
 31
0.0
 11
966.7188066452039
 21
1385.442392309535
 31
0.0
 11
964.5081316738563
 21
1389.939273628144
 31
0.0
 11
962.5102847937939
 21
1394.524205903618
 31
0.0
 11
960.732895461093
 21
1399.189236701964
 31
0.0
 11
959.1835931318301
 21
1403.926413589191
 31
0.0
 11
957.8700072620817
 21
1408.727784131308
 31
0.0
 11
956.7997673079244
 21
1413.585395894324
 31
0.0
 11
955.359808952351
 21
1421.591171482571
 31
0.0
 11
954.1477820923308
 21
1429.635417329116
 31
0.0
 11
953.1621747127366
 21
1437.711587748218
 31
0.0
 11
952.4014747984413
 21
1445.813137054136
 31
0.0
 11
951.8641703343178
 21
1453.933519561132
 31
0.0
 11
951.5487493052392
 21
1462.066189583464
 31
0.0
 11
951.453699696078
 21
1470.204601435393
 31
0.0
 11
951.5775094917076
 21
1478.342209431178
 31
0.0
 11
951.9186666770003
 21
1486.47246788508
 31
0.0
 11
952.4756592368294
 21
1494.588831111358
 31
0.0
 11
953.2469751560675
 21
1502.684753424272
 31
0.0
 11
954.2311024195878
 21
1510.753689138082
 31
0.0
 11
954.2366145760006
 21
1510.786762076558
 31
0.0
 11
954.2421267324135
 21
1510.819835015034
 31
0.0
 11
955.049694394589
 21
1515.875767798729
 31
0.0
 11
955.9839681588388
 21
1520.844015648058
 31
0.0
 11
957.0546494204492
 21
1525.724794149582
 31
0.0
 11
958.2714395747065
 21
1530.518318889864
 31
0.0
 11
959.6440400168973
 21
1535.224805455464
 31
0.0
 11
961.1821521423079
 21
1539.844469432946
 31
0.0
 11
962.8954773462248
 21
1544.377526408871
 31
0.0
 11
964.7937170239345
 21
1548.824191969801
 31
0.0
 11
966.8865725707228
 21
1553.184681702297
 31
0.0
 11
969.1837453818771
 21
1557.459211192923
 31
0.0
 11
971.6949368526832
 21
1561.647996028239
 31
0.0
 11
974.4298483784277
 21
1565.751251794808
 31
0.0
 11
977.398181354397
 21
1569.769194079191
 31
0.0
 11
980.6096371758772
 21
1573.702038467951
 31
0.0
 11
984.0739172381554
 21
1577.550000547649
 31
0.0
 11
987.5816722905225
 21
1581.124442076605
 31
0.0
 11
991.2185734928693
 21
1584.554048633508
 31
0.0
 11
994.9804463054055
 21
1587.832156633715
 31
0.0
 11
998.8631161883413
 21
1590.952102492586
 31
0.0
 11
1002.862408601887
 21
1593.90722262548
 31
0.0
 11
1006.974149006253
 21
1596.690853447755
 31
0.0
 11
1011.194162861648
 21
1599.296331374771
 31
0.0
 11
1015.518275628284
 21
1601.716992821886
 31
0.0
 11
1019.94231276637
 21
1603.946174204459
 31
0.0
 11
1024.462099736115
 21
1605.977211937849
 31
0.0
 11
1029.073461997732
 21
1607.803442437414
 31
0.0
 11
1033.772225011428
 21
1609.418202118513
 31
0.0
 11
1038.554214237416
 21
1610.814827396506
 31
0.0
 11
1043.415255135903
 21
1611.98665468675
 31
0.0
 11
1048.351173167102
 21
1612.927020404606
 31
0.0
 11
1056.17454920292
 21
1614.094842398678
 31
0.0
 11
1064.067213044846
 21
1615.045143676391
 31
0.0
 11
1072.014116505874
 21
1615.807789101188
 31
0.0
 11
1080.000211398995
 21
1616.412643536514
 31
0.0
 11
1088.010449537205
 21
1616.889571845814
 31
0.0
 11
1096.029782733496
 21
1617.26843889253
 31
0.0
 11
1104.043162800861
 21
1617.579109540109
 31
0.0
 11
1112.035541552294
 21
1617.851448651993
 31
0.0
 11
1119.991870800787
 21
1618.115321091627
 31
0.0
 11
1127.897102359334
 21
1618.400591722456
 31
0.0
 11
1148.547362830332
 21
1619.112176664363
 31
0.0
 11
1169.199690359984
 21
1619.640826915322
 31
0.0
 11
1189.856152006947
 21
1619.983441887352
 31
0.0
 11
1210.518814829874
 21
1620.136920992469
 31
0.0
  0
LWPOLYLINE
  5
C8
330
1F
100
AcDbEntity
  8
0
  6
Continuous
 62
     7
100
AcDbPolyline
 90
        2
 70
     0
 43
0.0
 10
376.9634226805301
 20
874.9066000475989
 10
368.1274359509107
 20
874.9066000475989
  0
MTEXT
  5
C9
330
1F
100
AcDbEntity
  8
1
 62
     7
100
AcDbMText
 10
456.0
 20
182.0000000000001
 30
0.0
 40
28.0
 41
0.0
 71
     5
 72
     1
  1
洗面器
  7
CONVERTER_11
 73
     1
 44
0.54545454545455
  0
MTEXT
  5
CB
330
1F
100
AcDbEntity
  8
1
 62
     7
100
AcDbMText
 10
456.0
 20
114.0
 30
0.0
 40
28.0
 41
0.0
 71
     5
 72
     1
  1
SL811682-W-104
  7
CONVERTER_12
 73
     1
 44
0.7202881152461
  0
MTEXT
  5
CC
330
1F
100
AcDbEntity
  8
1
 62
     7
100
AcDbMText
 10
750.0
 20
136.0
 30
0.0
 40
28.0
 41
0.0
 71
     5
 72
     1
  1
8
  7
CONVERTER_12
 73
     1
 44
0.7202881152461
  0
MTEXT
  5
CD
330
1F
100
AcDbEntity
  8
1
 62
     7
100
AcDbMText
 10
682.0
 20
136.0
 30
0.0
 40
28.0
 41
0.0
 71
     5
 72
     1
  1
1
  7
CONVERTER_12
 73
     1
 44
0.7202881152461
  0
MTEXT
  5
CE
330
1F
100
AcDbEntity
  8
1
 62
     7
100
AcDbMText
 10
1260.0
 20
100.0
 30
0.0
 40
20.0
 41
0.0
 71
     5
 72
     1
  1
1
  7
CONVERTER_12
 73
     1
 44
0.7202881152461
  0
MTEXT
  5
CF
330
1F
100
AcDbEntity
  8
1
 62
     7
100
AcDbMText
 10
1306.0
 20
100.0
 30
0.0
 40
20.0
 41
0.0
 71
     5
 72
     1
  1
21
  7
CONVERTER_12
 73
     1
 44
0.7202881152461
  0
MTEXT
  5
D0
330
1F
100
AcDbEntity
  8
1
 62
     7
100
AcDbMText
 10
1214.0
 20
100.0
 30
0.0
 40
20.0
 41
0.0
 71
     5
 72
     1
  1
11
  7
CONVERTER_12
 73
     1
 44
0.7202881152461
  0
MTEXT
  5
D1
330
1F
100
AcDbEntity
  8
1
 62
     7
100
AcDbMText
 10
1078.0
 20
100.0
 30
0.0
 40
20.0
 41
0.0
 71
     5
 72
     1
  1
12
  7
CONVERTER_12
 73
     1
 44
0.7202881152461
  0
MTEXT
  5
D2
330
1F
100
AcDbEntity
  8
1
 62
     7
100
AcDbMText
 10
1170.0
 20
100.0
 30
0.0
 40
20.0
 41
0.0
 71
     5
 72
     1
  1
26
  7
CONVERTER_12
 73
     1
 44
0.7202881152461
  0
MTEXT
  5
D3
330
1F
100
AcDbEntity
  8
1
 62
     7
100
AcDbMText
 10
1124.0
 20
100.0
 30
0.0
 40
20.0
 41
0.0
 71
     5
 72
     1
  1
4
  7
CONVERTER_12
 73
     1
 44
0.7202881152461
  0
MTEXT
  5
D4
330
1F
100
AcDbEntity
  8
1
 62
     7
100
AcDbMText
 10
1260.0
 20
152.0000000000001
 30
0.0
 40
40.0
 41
0.0
 71
     5
 72
     1
  1
板津
  7
CONVERTER_11
 73
     1
 44
0.54545454545455
  0
MTEXT
  5
D5
330
1F
100
AcDbEntity
  8
1
 62
     7
100
AcDbMText
 10
1124.0
 20
152.0000000000001
 30
0.0
 40
40.0
 41
0.0
 71
     5
 72
     1
  1
酒光
  7
CONVERTER_11
 73
     1
 44
0.54545454545455
  0
MTEXT
  5
D6
330
1F
100
AcDbEntity
  8
1
 62
     7
100
AcDbMText
 10
272.0
 20
307.0000000000001
 30
0.0
 40
28.0
 41
0.0
 71
     4
 72
     1
  1
シリーズ名：Lb3 classic(LAUFEN)
  7
CONVERTER_11
 73
     1
 44
0.54545454545455
  0
MTEXT
  5
D7
330
1F
100
AcDbEntity
  8
1
 62
     7
100
AcDbMText
 10
272.0
 20
237.0000000000001
 30
0.0
 40
28.0
 41
0.0
 71
     4
 72
     1
  1
{\Fgdt;n}38水栓取付位置の肉厚は最大18です。
  7
CONVERTER_11
 73
     1
 44
0.54545454545455
  0
MTEXT
  5
D8
330
1F
100
AcDbEntity
  8
1
 62
     7
100
AcDbMText
 10
272.0
 20
272.0000000000001
 30
0.0
 40
28.0
 41
0.0
 71
     4
 72
     1
  1
容量：8,9L・アンダーオーバーフロー付・化粧カバー付属
  7
CONVERTER_11
 73
     1
 44
0.54545454545455
  0
MTEXT
  5
D9
330
1F
100
AcDbEntity
  8
1
 62
     7
100
AcDbMText
 10
988.0
 20
152.0000000000001
 30
0.0
 40
40.0
 41
0.0
 71
     5
 72
     1
  1
片岡
  7
CONVERTER_11
 73
     1
 44
0.54545454545455
  0
MTEXT
  5
DA
330
1F
100
AcDbEntity
  8
1
 62
     7
100
AcDbMText
 10
852.0
 20
152.0000000000001
 30
0.0
 40
40.0
 41
0.0
 71
     5
 72
     1
  1
牧
  7
CONVERTER_11
 73
     1
 44
0.54545454545455
  0
MTEXT
  5
DB
330
1F
100
AcDbEntity
  8
1
 62
     7
100
AcDbMText
 10
988.0
 20
100.0
 30
0.0
 40
20.0
 41
0.0
 71
     5
 72
     1
  1
4
  7
CONVERTER_12
 73
     1
 44
0.7202881152461
  0
MTEXT
  5
DC
330
1F
100
AcDbEntity
  8
1
 62
     7
100
AcDbMText
 10
1034.0
 20
100.0
 30
0.0
 40
20.0
 41
0.0
 71
     5
 72
     1
  1
26
  7
CONVERTER_12
 73
     1
 44
0.7202881152461
  0
MTEXT
  5
DD
330
1F
100
AcDbEntity
  8
1
 62
     7
100
AcDbMText
 10
942.0
 20
100.0
 30
0.0
 40
20.0
 41
0.0
 71
     5
 72
     1
  1
12
  7
CONVERTER_12
 73
     1
 44
0.7202881152461
  0
MTEXT
  5
DE
330
1F
100
AcDbEntity
  8
1
 62
     7
100
AcDbMText
 10
806.0
 20
100.0
 30
0.0
 40
20.0
 41
0.0
 71
     5
 72
     1
  1
12
  7
CONVERTER_12
 73
     1
 44
0.7202881152461
  0
MTEXT
  5
DF
330
1F
100
AcDbEntity
  8
1
 62
     7
100
AcDbMText
 10
852.0
 20
100.0
 30
0.0
 40
20.0
 41
0.0
 71
     5
 72
     1
  1
5
  7
CONVERTER_12
 73
     1
 44
0.7202881152461
  0
MTEXT
  5
E0
330
1F
100
AcDbEntity
  8
1
 62
     7
100
AcDbMText
 10
898.0
 20
100.0
 30
0.0
 40
20.0
 41
0.0
 71
     5
 72
     1
  1
2
  7
CONVERTER_12
 73
     1
 44
0.7202881152461
  0
DIMENSION
  5
ED
330
1F
100
AcDbEntity
  8
1
100
AcDbDimension
  2
*D2
 10
922.623448201257
 20
936.9292430278376
 30
0.0
 11
900.623448201257
 21
1003.41398230424
 31
0.0
 70
    32
  1
25
 71
     5
 42
-1.0
 53
90.0
  3
ME10_DIM_10
100
AcDbAlignedDimension
 13
885.5165605787506
 23
912.9294549826709
 33
0.0
 14
896.0171196974502
 24
936.9292430278376
 34
0.0
 50
90.0
100
AcDbRotatedDimension
  0
DIMENSION
  5
F8
330
1F
100
AcDbEntity
  8
1
100
AcDbDimension
  2
*D3
 10
867.914624691611
 20
710.2088785913802
 30
0.0
 11
845.914624691611
 21
805.542807527742
 31
0.0
 70
    32
  1
200
 71
     5
 42
-1.0
 53
90.0
  3
ME10_DIM_11
100
AcDbAlignedDimension
 13
885.5165605787506
 23
912.9294549826709
 33
0.0
 14
1210.524326986672
 24
710.2088785913802
 34
0.0
 50
90.0
100
AcDbRotatedDimension
  0
DIMENSION
  5
103
330
1F
100
AcDbEntity
  8
1
100
AcDbDimension
  2
*D4
 10
677.6356709130393
 20
1251.275816233225
 30
0.0
 11
655.6356709130393
 21
1510.819835015021
 31
0.0
 70
    32
  1
<>
 71
     5
 42
-1.0
 53
90.0
  3
ME10_DIM_12
100
AcDbAlignedDimension
 13
1210.524326986708
 23
1741.280338524112
 33
0.0
 14
1210.524326986713
 24
1251.275816233225
 34
0.0
 50
90.0
100
AcDbRotatedDimension
  0
DIMENSION
  5
10E
330
1F
100
AcDbEntity
  8
1
100
AcDbDimension
  2
*D5
 10
741.6356709130393
 20
1741.280338524112
 30
0.0
 11
719.6356709130393
 21
1626.050086769567
 31
0.0
 70
    32
  1
230
 71
     5
 42
-1.0
 53
90.0
  3
ME10_DIM_13
100
AcDbAlignedDimension
 13
861.6356709130393
 23
1510.819835015031
 33
0.0
 14
1210.524326986708
 24
1741.280338524112
 34
0.0
 50
90.0
100
AcDbRotatedDimension
  0
DIMENSION
  5
119
330
1F
100
AcDbEntity
  8
1
100
AcDbDimension
  2
*D6
 10
805.6356709130393
 20
1685.588266237327
 30
0.0
 11
783.6356709130393
 21
1598.204050626174
 31
0.0
 70
    32
  1
175
 71
     5
 42
-1.0
 53
90.0
  3
ME10_DIM_14
100
AcDbAlignedDimension
 13
861.6356709130393
 23
1510.819835015031
 33
0.0
 14
1175.516621608983
 24
1685.588266237328
 34
0.0
 50
90.0
100
AcDbRotatedDimension
  0
DIMENSION
  5
124
330
1F
100
AcDbEntity
  8
1
100
AcDbDimension
  2
*D7
 10
885.6356709130393
 20
1171.275816233225
 30
0.0
 11
1210.524326986713
 21
1193.275816233225
 31
0.0
 70
    32
  1
650
 71
     5
 42
-1.0
 53
0.00013888888889
  3
ME10_DIM_15
100
AcDbAlignedDimension
 13
1535.470065509567
 23
1510.819835015035
 33
0.0
 14
885.6356709130393
 24
1510.819835015026
 34
0.0
100
AcDbRotatedDimension
  0
INSERT
  5
12C
330
1F
100
AcDbEntity
  8
1
100
AcDbBlockReference
  2
*D8
 10
0.0
 20
0.0
 30
0.0
  0
INSERT
  5
134
330
1F
100
AcDbEntity
  8
1
100
AcDbBlockReference
  2
*D9
 10
0.0
 20
0.0
 30
0.0
  0
INSERT
  5
13C
330
1F
100
AcDbEntity
  8
1
100
AcDbBlockReference
  2
*D10
 10
0.0
 20
0.0
 30
0.0
  0
ENDSEC
  0
SECTION
  2
OBJECTS
  0
DICTIONARY
  5
C
330
0
100
AcDbDictionary
281
     1
  3
ACAD_GROUP
350
D
  3
ACAD_LAYOUT
350
1A
  3
ACAD_MATERIAL
350
3B
  3
ACAD_MLEADERSTYLE
350
13F
  3
ACAD_MLINESTYLE
350
17
  3
ACAD_PLOTSETTINGS
350
19
  3
ACAD_PLOTSTYLENAME
350
E
  3
ACAD_VISUALSTYLE
350
2A
  3
AcDbVariableDictionary
350
13D
  0
DICTIONARY
  5
D
102
{ACAD_REACTORS
330
C
102
}
330
C
100
AcDbDictionary
281
     1
  0
DICTIONARY
  5
1A
102
{ACAD_REACTORS
330
C
102
}
330
C
100
AcDbDictionary
281
     1
  3
Layout1
350
1E
  3
Layout2
350
26
  3
Model
350
22
  0
DICTIONARY
  5
3B
102
{ACAD_REACTORS
330
C
102
}
330
C
100
AcDbDictionary
281
     1
  3
ByBlock
350
3D
  3
ByLayer
350
3C
  3
Global
350
3E
  0
DICTIONARY
  5
13F
102
{ACAD_REACTORS
330
C
102
}
330
C
100
AcDbDictionary
281
     1
  0
DICTIONARY
  5
17
102
{ACAD_REACTORS
330
C
102
}
330
C
100
AcDbDictionary
281
     1
  3
Standard
350
18
  0
DICTIONARY
  5
19
102
{ACAD_REACTORS
330
C
102
}
330
C
100
AcDbDictionary
281
     1
  0
ACDBDICTIONARYWDFLT
  5
E
102
{ACAD_REACTORS
330
C
102
}
330
C
100
AcDbDictionary
281
     1
  3
Normal
350
F
100
AcDbDictionaryWithDefault
340
F
  0
DICTIONARY
  5
2A
102
{ACAD_REACTORS
330
C
102
}
330
C
100
AcDbDictionary
281
     1
  3
2dWireframe
350
2F
  3
3D Hidden
350
31
  3
3dWireframe
350
30
  3
Basic
350
32
  3
Brighten
350
36
  3
ColorChange
350
3A
  3
Conceptual
350
34
  3
Dim
350
35
  3
Facepattern
350
39
  3
Flat
350
2B
  3
FlatWithEdges
350
2C
  3
Gouraud
350
2D
  3
GouraudWithEdges
350
2E
  3
Linepattern
350
38
  3
Realistic
350
33
  3
Thicken
350
37
  0
DICTIONARY
  5
13D
102
{ACAD_REACTORS
330
C
102
}
330
C
100
AcDbDictionary
281
     1
  3
DIMASSOC
350
140
  3
HIDETEXT
350
141
  0
LAYOUT
  5
1E
102
{ACAD_REACTORS
330
1A
102
}
330
1A
100
AcDbPlotSettings
  1

  2
none_device
  4

  6

 40
0.0
 41
0.0
 42
0.0
 43
0.0
 44
0.0
 45
0.0
 46
0.0
 47
0.0
 48
0.0
 49
0.0
140
0.0
141
0.0
142
1.0
143
1.0
 70
   688
 72
     0
 73
     0
 74
     5
  7

 75
    16
147
1.0
148
0.0
149
0.0
100
AcDbLayout
  1
Layout1
 70
     1
 71
     1
 10
0.0
 20
0.0
 11
12.0
 21
9.0
 12
0.0
 22
0.0
 32
0.0
 14
1.00000000000000E+20
 24
1.00000000000000E+20
 34
1.00000000000000E+20
 15
-1.00000000000000E+20
 25
-1.00000000000000E+20
 35
-1.00000000000000E+20
146
0.0
 13
0.0
 23
0.0
 33
0.0
 16
1.0
 26
0.0
 36
0.0
 17
0.0
 27
1.0
 37
0.0
 76
     0
330
1B
  0
LAYOUT
  5
26
102
{ACAD_REACTORS
330
1A
102
}
330
1A
100
AcDbPlotSettings
  1

  2
none_device
  4

  6

 40
0.0
 41
0.0
 42
0.0
 43
0.0
 44
0.0
 45
0.0
 46
0.0
 47
0.0
 48
0.0
 49
0.0
140
0.0
141
0.0
142
1.0
143
1.0
 70
   688
 72
     0
 73
     0
 74
     5
  7

 75
    16
147
1.0
148
0.0
149
0.0
100
AcDbLayout
  1
Layout2
 70
     1
 71
     2
 10
0.0
 20
0.0
 11
0.0
 21
0.0
 12
0.0
 22
0.0
 32
0.0
 14
0.0
 24
0.0
 34
0.0
 15
0.0
 25
0.0
 35
0.0
146
0.0
 13
0.0
 23
0.0
 33
0.0
 16
1.0
 26
0.0
 36
0.0
 17
0.0
 27
1.0
 37
0.0
 76
     0
330
23
  0
LAYOUT
  5
22
102
{ACAD_REACTORS
330
1A
102
}
330
1A
100
AcDbPlotSettings
  1

  2
none_device
  4

  6

 40
0.0
 41
0.0
 42
0.0
 43
0.0
 44
0.0
 45
0.0
 46
0.0
 47
0.0
 48
0.0
 49
0.0
140
0.0
141
0.0
142
1.0
143
1.0
 70
  1712
 72
     0
 73
     0
 74
     0
  7

 75
     0
147
1.0
148
0.0
149
0.0
100
AcDbLayout
  1
Model
 70
     1
 71
     0
 10
0.0
 20
0.0
 11
12.0
 21
9.0
 12
0.0
 22
0.0
 32
0.0
 14
0.0
 24
0.0
 34
0.0
 15
1680.0
 25
2376.0
 35
0.0
146
0.0
 13
0.0
 23
0.0
 33
0.0
 16
1.0
 26
0.0
 36
0.0
 17
0.0
 27
1.0
 37
0.0
 76
     0
330
1F
331
29
  0
MATERIAL
  5
3D
102
{ACAD_REACTORS
330
3B
102
}
102
{ACAD_XDICTIONARY
360
164
102
}
330
3B
100
AcDbMaterial
  1
ByBlock
  0
MATERIAL
  5
3C
102
{ACAD_REACTORS
330
3B
102
}
102
{ACAD_XDICTIONARY
360
162
102
}
330
3B
100
AcDbMaterial
  1
ByLayer
  0
MATERIAL
  5
3E
102
{ACAD_REACTORS
330
3B
102
}
102
{ACAD_XDICTIONARY
360
166
102
}
330
3B
100
AcDbMaterial
  1
Global
  0
MLINESTYLE
  5
18
102
{ACAD_REACTORS
330
17
102
}
330
17
100
AcDbMlineStyle
  2
Standard
 70
     0
  3

 62
   256
 51
90.0
 52
90.0
 71
     2
 49
0.5
 62
   256
  6
BYLAYER
 49
-0.5
 62
   256
  6
BYLAYER
  0
ACDBPLACEHOLDER
  5
F
102
{ACAD_REACTORS
330
E
102
}
330
E
  0
VISUALSTYLE
  5
2F
102
{ACAD_REACTORS
330
2A
102
}
102
{ACAD_XDICTIONARY
360
14A
102
}
330
2A
100
AcDbVisualStyle
  2
2dWireframe
 70
     4
 71
     0
 72
     2
 73
     0
 90
        0
 40
-0.6
 41
-30.0
 62
     5
 63
     7
 74
     1
 91
        4
 64
     7
 65
   257
 75
     1
175
     1
 42
1.0
 92
        0
 66
   257
 43
1.0
 76
     1
 77
     6
 78
     2
 67
     7
 79
     5
170
     0
171
     0
290
     0
174
     0
 93
        1
 44
0.0
173
     0
291
     0
 45
0.0
1001
ACAD
1000
AcDbSavedByObjectVersion
1070
     0
  0
VISUALSTYLE
  5
31
102
{ACAD_REACTORS
330
2A
102
}
102
{ACAD_XDICTIONARY
360
14E
102
}
330
2A
100
AcDbVisualStyle
  2
3D Hidden
 70
     6
 71
     1
 72
     2
 73
     2
 90
        0
 40
-0.6
 41
-30.0
 62
     5
 63
     7
 74
     2
 91
        2
 64
     7
 65
   257
 75
     2
175
     1
 42
40.0
 92
        0
 66
   257
 43
1.0
 76
     1
 77
     6
 78
     2
 67
     7
 79
     3
170
     0
171
     0
290
     0
174
     0
 93
        1
 44
0.0
173
     0
291
     0
 45
0.0
1001
ACAD
1000
AcDbSavedByObjectVersion
1070
     0
  0
VISUALSTYLE
  5
30
102
{ACAD_REACTORS
330
2A
102
}
102
{ACAD_XDICTIONARY
360
14C
102
}
330
2A
100
AcDbVisualStyle
  2
3dWireframe
 70
     5
 71
     0
 72
     2
 73
     0
 90
        0
 40
-0.6
 41
-30.0
 62
     5
 63
     7
 74
     1
 91
        4
 64
     7
 65
   257
 75
     1
175
     1
 42
1.0
 92
        0
 66
   257
 43
1.0
 76
     1
 77
     6
 78
     2
 67
     7
 79
     5
170
     0
171
     0
290
     0
174
     0
 93
        1
 44
0.0
173
     0
291
     0
 45
0.0
1001
ACAD
1000
AcDbSavedByObjectVersion
1070
     0
  0
VISUALSTYLE
  5
32
102
{ACAD_REACTORS
330
2A
102
}
102
{ACAD_XDICTIONARY
360
150
102
}
330
2A
100
AcDbVisualStyle
  2
Basic
 70
     7
 71
     1
 72
     0
 73
     1
 90
        0
 40
-0.6
 41
-30.0
 62
     5
 63
     7
 74
     0
 91
        4
 64
     7
 65
   257
 75
     1
175
     1
 42
1.0
 92
        8
 66
     7
 43
1.0
 76
     1
 77
     6
 78
     2
 67
     7
 79
     5
170
     0
171
     0
290
     0
174
     0
 93
        1
 44
0.0
173
     0
291
     1
 45
0.0
1001
ACAD
1000
AcDbSavedByObjectVersion
1070
     0
  0
VISUALSTYLE
  5
36
102
{ACAD_REACTORS
330
2A
102
}
102
{ACAD_XDICTIONARY
360
158
102
}
330
2A
100
AcDbVisualStyle
  2
Brighten
 70
    12
 71
     2
 72
     2
 73
     0
 90
        0
 40
-0.6
 41
-30.0
 62
     5
 63
     7
 74
     1
 91
        4
 64
     7
 65
   257
 75
     1
175
     1
 42
1.0
 92
        8
 66
     7
 43
1.0
 76
     1
 77
     6
 78
     2
 67
     7
 79
     5
170
     0
171
     0
290
     0
174
     0
 93
        1
 44
50.0
173
     0
291
     1
 45
0.0
1001
ACAD
1000
AcDbSavedByObjectVersion
1070
     0
  0
VISUALSTYLE
  5
3A
102
{ACAD_REACTORS
330
2A
102
}
102
{ACAD_XDICTIONARY
360
160
102
}
330
2A
100
AcDbVisualStyle
  2
ColorChange
 70
    16
 71
     2
 72
     2
 73
     3
 90
        0
 40
-0.6
 41
-30.0
 62
     5
 63
     8
 74
     1
 91
        4
 64
     7
 65
   257
 75
     1
175
     1
 42
1.0
 92
        8
 66
     8
 43
1.0
 76
     1
 77
     6
 78
     2
 67
     7
 79
     5
170
     0
171
     0
290
     0
174
     0
 93
        1
 44
0.0
173
     0
291
     1
 45
0.0
1001
ACAD
1000
AcDbSavedByObjectVersion
1070
     0
  0
VISUALSTYLE
  5
34
102
{ACAD_REACTORS
330
2A
102
}
102
{ACAD_XDICTIONARY
360
154
102
}
330
2A
100
AcDbVisualStyle
  2
Conceptual
 70
     9
 71
     3
 72
     2
 73
     0
 90
        0
 40
-0.6
 41
-30.0
 62
     5
 63
     7
 74
     2
 91
        2
 64
     7
 65
   257
 75
     1
175
     1
 42
40.0
 92
        8
 66
     7
 43
1.0
 76
     1
 77
     6
 78
     2
 67
     7
 79
     3
170
     0
171
     0
290
     0
174
     0
 93
        1
 44
0.0
173
     0
291
     0
 45
0.0
1001
ACAD
1000
AcDbSavedByObjectVersion
1070
     0
  0
VISUALSTYLE
  5
35
102
{ACAD_REACTORS
330
2A
102
}
102
{ACAD_XDICTIONARY
360
156
102
}
330
2A
100
AcDbVisualStyle
  2
Dim
 70
    11
 71
     2
 72
     2
 73
     0
 90
        0
 40
-0.6
 41
-30.0
 62
     5
 63
     7
 74
     1
 91
        4
 64
     7
 65
   257
 75
     1
175
     1
 42
1.0
 92
        8
 66
     7
 43
1.0
 76
     1
 77
     6
 78
     2
 67
     7
 79
     5
170
     0
171
     0
290
     0
174
     0
 93
        1
 44
-50.0
173
     0
291
     1
 45
0.0
1001
ACAD
1000
AcDbSavedByObjectVersion
1070
     0
  0
VISUALSTYLE
  5
39
102
{ACAD_REACTORS
330
2A
102
}
102
{ACAD_XDICTIONARY
360
15E
102
}
330
2A
100
AcDbVisualStyle
  2
Facepattern
 70
    15
 71
     2
 72
     2
 73
     0
 90
        0
 40
-0.6
 41
-30.0
 62
     5
 63
     7
 74
     1
 91
        4
 64
     7
 65
   257
 75
     1
175
     1
 42
1.0
 92
        8
 66
     7
 43
1.0
 76
     1
 77
     6
 78
     2
 67
     7
 79
     5
170
     0
171
     0
290
     0
174
     0
 93
        1
 44
0.0
173
     0
291
     1
 45
0.0
1001
ACAD
1000
AcDbSavedByObjectVersion
1070
     0
  0
VISUALSTYLE
  5
2B
102
{ACAD_REACTORS
330
2A
102
}
102
{ACAD_XDICTIONARY
360
142
102
}
330
2A
100
AcDbVisualStyle
  2
Flat
 70
     0
 71
     2
 72
     1
 73
     1
 90
        2
 40
-0.6
 41
30.0
 62
     5
 63
     7
 74
     0
 91
        4
 64
     7
 65
   257
 75
     1
175
     1
 42
1.0
 92
        8
 66
     7
 43
1.0
 76
     1
 77
     6
 78
     2
 67
     7
 79
     5
170
     0
171
     0
290
     0
174
     0
 93
       13
 44
0.0
173
     0
291
     1
 45
0.0
1001
ACAD
1000
AcDbSavedByObjectVersion
1070
     0
  0
VISUALSTYLE
  5
2C
102
{ACAD_REACTORS
330
2A
102
}
102
{ACAD_XDICTIONARY
360
144
102
}
330
2A
100
AcDbVisualStyle
  2
FlatWithEdges
 70
     1
 71
     2
 72
     1
 73
     1
 90
        2
 40
-0.6
 41
30.0
 62
     5
 63
     7
 74
     1
 91
        4
 64
     7
 65
   257
 75
     1
175
     1
 42
1.0
 92
        0
 66
   257
 43
1.0
 76
     1
 77
     6
 78
     2
 67
     7
 79
     5
170
     0
171
     0
290
     0
174
     0
 93
       13
 44
0.0
173
     0
291
     1
 45
0.0
1001
ACAD
1000
AcDbSavedByObjectVersion
1070
     0
  0
VISUALSTYLE
  5
2D
102
{ACAD_REACTORS
330
2A
102
}
102
{ACAD_XDICTIONARY
360
146
102
}
330
2A
100
AcDbVisualStyle
  2
Gouraud
 70
     2
 71
     2
 72
     2
 73
     1
 90
        2
 40
-0.6
 41
30.0
 62
     5
 63
     7
 74
     0
 91
        4
 64
     7
 65
   257
 75
     1
175
     1
 42
1.0
 92
        0
 66
     7
 43
1.0
 76
     1
 77
     6
 78
     2
 67
     7
 79
     5
170
     0
171
     0
290
     0
174
     0
 93
       13
 44
0.0
173
     0
291
     1
 45
0.0
1001
ACAD
1000
AcDbSavedByObjectVersion
1070
     0
  0
VISUALSTYLE
  5
2E
102
{ACAD_REACTORS
330
2A
102
}
102
{ACAD_XDICTIONARY
360
148
102
}
330
2A
100
AcDbVisualStyle
  2
GouraudWithEdges
 70
     3
 71
     2
 72
     2
 73
     1
 90
        2
 40
-0.6
 41
30.0
 62
     5
 63
     7
 74
     1
 91
        4
 64
     7
 65
   257
 75
     1
175
     1
 42
1.0
 92
        0
 66
   257
 43
1.0
 76
     1
 77
     6
 78
     2
 67
     7
 79
     5
170
     0
171
     0
290
     0
174
     0
 93
       13
 44
0.0
173
     0
291
     1
 45
0.0
1001
ACAD
1000
AcDbSavedByObjectVersion
1070
     0
  0
VISUALSTYLE
  5
38
102
{ACAD_REACTORS
330
2A
102
}
102
{ACAD_XDICTIONARY
360
15C
102
}
330
2A
100
AcDbVisualStyle
  2
Linepattern
 70
    14
 71
     2
 72
     2
 73
     0
 90
        0
 40
-0.6
 41
-30.0
 62
     5
 63
     7
 74
     1
 91
        4
 64
     7
 65
   257
 75
     7
175
     7
 42
1.0
 92
        8
 66
     7
 43
1.0
 76
     1
 77
     6
 78
     2
 67
     7
 79
     5
170
     0
171
     0
290
     0
174
     0
 93
        1
 44
0.0
173
     0
291
     1
 45
0.0
1001
ACAD
1000
AcDbSavedByObjectVersion
1070
     0
  0
VISUALSTYLE
  5
33
102
{ACAD_REACTORS
330
2A
102
}
102
{ACAD_XDICTIONARY
360
152
102
}
330
2A
100
AcDbVisualStyle
  2
Realistic
 70
     8
 71
     2
 72
     2
 73
     0
 90
        0
 40
-0.6
 41
-30.0
 62
     5
 63
     7
 74
     1
 91
        0
 64
     7
 65
   257
 75
     1
175
     1
 42
1.0
 92
        8
 66
     8
 43
1.0
 76
     1
 77
     6
 78
     2
 67
     7
 79
     5
170
     0
171
     0
290
     0
174
     0
 93
       13
 44
0.0
173
     0
291
     0
 45
0.0
1001
ACAD
1000
AcDbSavedByObjectVersion
1070
     0
  0
VISUALSTYLE
  5
37
102
{ACAD_REACTORS
330
2A
102
}
102
{ACAD_XDICTIONARY
360
15A
102
}
330
2A
100
AcDbVisualStyle
  2
Thicken
 70
    13
 71
     2
 72
     2
 73
     0
 90
        0
 40
-0.6
 41
-30.0
 62
     5
 63
     7
 74
     1
 91
        4
 64
     7
 65
   257
 75
     1
175
     1
 42
1.0
 92
       12
 66
     7
 43
1.0
 76
     1
 77
     6
 78
     2
 67
     7
 79
     5
170
     0
171
     0
290
     0
174
     0
 93
        1
 44
0.0
173
     0
291
     1
 45
0.0
1001
ACAD
1000
AcDbSavedByObjectVersion
1070
     0
  0
DICTIONARYVAR
  5
140
102
{ACAD_REACTORS
330
13D
102
}
330
13D
100
DictionaryVariables
280
     0
  1
2
  0
DICTIONARYVAR
  5
141
102
{ACAD_REACTORS
330
13D
102
}
330
13D
100
DictionaryVariables
280
     0
  1
1
  0
DICTIONARY
  5
164
330
3D
100
AcDbDictionary
280
     1
281
     1
  3
ACAD_XREC_ROUNDTRIP
360
165
  0
DICTIONARY
  5
162
330
3C
100
AcDbDictionary
280
     1
281
     1
  3
ACAD_XREC_ROUNDTRIP
360
163
  0
DICTIONARY
  5
166
330
3E
100
AcDbDictionary
280
     1
281
     1
  3
ACAD_XREC_ROUNDTRIP
360
167
  0
DICTIONARY
  5
14A
330
2F
100
AcDbDictionary
280
     1
281
     1
  3
ACAD_XREC_ROUNDTRIP
360
14B
  0
DICTIONARY
  5
14E
330
31
100
AcDbDictionary
280
     1
281
     1
  3
ACAD_XREC_ROUNDTRIP
360
14F
  0
DICTIONARY
  5
14C
330
30
100
AcDbDictionary
280
     1
281
     1
  3
ACAD_XREC_ROUNDTRIP
360
14D
  0
DICTIONARY
  5
150
330
32
100
AcDbDictionary
280
     1
281
     1
  3
ACAD_XREC_ROUNDTRIP
360
151
  0
DICTIONARY
  5
158
330
36
100
AcDbDictionary
280
     1
281
     1
  3
ACAD_XREC_ROUNDTRIP
360
159
  0
DICTIONARY
  5
160
330
3A
100
AcDbDictionary
280
     1
281
     1
  3
ACAD_XREC_ROUNDTRIP
360
161
  0
DICTIONARY
  5
154
330
34
100
AcDbDictionary
280
     1
281
     1
  3
ACAD_XREC_ROUNDTRIP
360
155
  0
DICTIONARY
  5
156
330
35
100
AcDbDictionary
280
     1
281
     1
  3
ACAD_XREC_ROUNDTRIP
360
157
  0
DICTIONARY
  5
15E
330
39
100
AcDbDictionary
280
     1
281
     1
  3
ACAD_XREC_ROUNDTRIP
360
15F
  0
DICTIONARY
  5
142
330
2B
100
AcDbDictionary
280
     1
281
     1
  3
ACAD_XREC_ROUNDTRIP
360
143
  0
DICTIONARY
  5
144
330
2C
100
AcDbDictionary
280
     1
281
     1
  3
ACAD_XREC_ROUNDTRIP
360
145
  0
DICTIONARY
  5
146
330
2D
100
AcDbDictionary
280
     1
281
     1
  3
ACAD_XREC_ROUNDTRIP
360
147
  0
DICTIONARY
  5
148
330
2E
100
AcDbDictionary
280
     1
281
     1
  3
ACAD_XREC_ROUNDTRIP
360
149
  0
DICTIONARY
  5
15C
330
38
100
AcDbDictionary
280
     1
281
     1
  3
ACAD_XREC_ROUNDTRIP
360
15D
  0
DICTIONARY
  5
152
330
33
100
AcDbDictionary
280
     1
281
     1
  3
ACAD_XREC_ROUNDTRIP
360
153
  0
DICTIONARY
  5
15A
330
37
100
AcDbDictionary
280
     1
281
     1
  3
ACAD_XREC_ROUNDTRIP
360
15B
  0
XRECORD
  5
165
102
{ACAD_REACTORS
330
164
102
}
330
164
100
AcDbXrecord
280
     1
102
MATERIAL
148
0.0
149
0.0
149
0.0
 93
        0
 94
      127
282
     0
 72
     1
 77
     1
171
     1
175
     1
179
     1
273
     0
  0
XRECORD
  5
163
102
{ACAD_REACTORS
330
162
102
}
330
162
100
AcDbXrecord
280
     1
102
MATERIAL
148
0.0
149
0.0
149
0.0
 93
        0
 94
      127
282
     0
 72
     1
 77
     1
171
     1
175
     1
179
     1
273
     0
  0
XRECORD
  5
167
102
{ACAD_REACTORS
330
166
102
}
330
166
100
AcDbXrecord
280
     1
102
MATERIAL
148
0.0
149
0.0
149
0.0
 93
        0
 94
      127
282
     0
 72
     1
 77
     1
171
     1
175
     1
179
     1
273
     0
  0
XRECORD
  5
14B
102
{ACAD_REACTORS
330
14A
102
}
330
14A
100
AcDbXrecord
280
     1
102
RTVSPropertyOp0
 70
     1
102
RTVSPropertyOp1
 70
     1
102
RTVSPropertyOp2
 70
     1
102
RTVSPropertyOp3
 70
     1
102
RTVSPropertyOp4
 70
     1
102
RTVSPropertyOp5
 70
     1
102
RTVSPropertyOp6
 70
     1
102
RTVSPropertyOp7
 70
     1
102
RTVSPropertyOp8
 70
     1
102
RTVSPropertyOp9
 70
     1
102
RTVSPropertyOp10
 70
     1
102
RTVSPropertyOp11
 70
     1
102
RTVSPropertyOp12
 70
     1
102
RTVSPropertyOp13
 70
     1
102
RTVSPropertyOp14
 70
     1
102
RTVSPropertyOp15
 70
     1
102
RTVSPropertyOp16
 70
     1
102
RTVSPropertyOp17
 70
     1
102
RTVSPropertyOp18
 70
     1
102
RTVSPropertyOp19
 70
     1
102
RTVSPropertyOp20
 70
     1
102
RTVSPropertyOp21
 70
     1
102
RTVSPropertyOp22
 70
     1
102
RTVSPropertyOp23
 70
     1
102
RTVSPropertyOp24
 70
     1
102
RTVSPropertyOp25
 70
     1
102
RTVSPropertyOp26
 70
     1
102
RTVSPropertyOp27
 70
     1
102
RTVSPropertyOp28
 70
     1
102
RTVSPropertyOp29
 70
     1
102
RTVSPropertyOp30
 70
     1
102
RTVSPropertyOp31
 70
     1
102
RTVSPropertyOp32
 70
     1
  0
XRECORD
  5
14F
102
{ACAD_REACTORS
330
14E
102
}
330
14E
100
AcDbXrecord
280
     1
102
RTVSPropertyOp0
 70
     1
102
RTVSPropertyOp1
 70
     1
102
RTVSPropertyOp2
 70
     1
102
RTVSPropertyOp3
 70
     1
102
RTVSPropertyOp4
 70
     1
102
RTVSPropertyOp5
 70
     1
102
RTVSPropertyOp6
 70
     1
102
RTVSPropertyOp7
 70
     1
102
RTVSPropertyOp8
 70
     1
102
RTVSPropertyOp9
 70
     1
102
RTVSPropertyOp10
 70
     1
102
RTVSPropertyOp11
 70
     1
102
RTVSPropertyOp12
 70
     1
102
RTVSPropertyOp13
 70
     1
102
RTVSPropertyOp14
 70
     1
102
RTVSPropertyOp15
 70
     1
102
RTVSPropertyOp16
 70
     1
102
RTVSPropertyOp17
 70
     1
102
RTVSPropertyOp18
 70
     1
102
RTVSPropertyOp19
 70
     1
102
RTVSPropertyOp20
 70
     1
102
RTVSPropertyOp21
 70
     1
102
RTVSPropertyOp22
 70
     1
102
RTVSPropertyOp23
 70
     1
102
RTVSPropertyOp24
 70
     1
102
RTVSPropertyOp25
 70
     1
102
RTVSPropertyOp26
 70
     1
102
RTVSPropertyOp27
 70
     1
102
RTVSPropertyOp28
 70
     1
102
RTVSPropertyOp29
 70
     1
102
RTVSPropertyOp30
 70
     1
102
RTVSPropertyOp31
 70
     1
102
RTVSPropertyOp32
 70
     1
  0
XRECORD
  5
14D
102
{ACAD_REACTORS
330
14C
102
}
330
14C
100
AcDbXrecord
280
     1
102
RTVSPropertyOp0
 70
     1
102
RTVSPropertyOp1
 70
     1
102
RTVSPropertyOp2
 70
     1
102
RTVSPropertyOp3
 70
     1
102
RTVSPropertyOp4
 70
     1
102
RTVSPropertyOp5
 70
     1
102
RTVSPropertyOp6
 70
     1
102
RTVSPropertyOp7
 70
     1
102
RTVSPropertyOp8
 70
     1
102
RTVSPropertyOp9
 70
     1
102
RTVSPropertyOp10
 70
     1
102
RTVSPropertyOp11
 70
     1
102
RTVSPropertyOp12
 70
     1
102
RTVSPropertyOp13
 70
     1
102
RTVSPropertyOp14
 70
     1
102
RTVSPropertyOp15
 70
     1
102
RTVSPropertyOp16
 70
     1
102
RTVSPropertyOp17
 70
     1
102
RTVSPropertyOp18
 70
     1
102
RTVSPropertyOp19
 70
     1
102
RTVSPropertyOp20
 70
     1
102
RTVSPropertyOp21
 70
     1
102
RTVSPropertyOp22
 70
     1
102
RTVSPropertyOp23
 70
     1
102
RTVSPropertyOp24
 70
     1
102
RTVSPropertyOp25
 70
     1
102
RTVSPropertyOp26
 70
     1
102
RTVSPropertyOp27
 70
     1
102
RTVSPropertyOp28
 70
     1
102
RTVSPropertyOp29
 70
     1
102
RTVSPropertyOp30
 70
     1
102
RTVSPropertyOp31
 70
     1
102
RTVSPropertyOp32
 70
     1
  0
XRECORD
  5
151
102
{ACAD_REACTORS
330
150
102
}
330
150
100
AcDbXrecord
280
     1
102
RTVSPropertyOp0
 70
     1
102
RTVSPropertyOp1
 70
     1
102
RTVSPropertyOp2
 70
     1
102
RTVSPropertyOp3
 70
     1
102
RTVSPropertyOp4
 70
     1
102
RTVSPropertyOp5
 70
     1
102
RTVSPropertyOp6
 70
     1
102
RTVSPropertyOp7
 70
     1
102
RTVSPropertyOp8
 70
     1
102
RTVSPropertyOp9
 70
     1
102
RTVSPropertyOp10
 70
     1
102
RTVSPropertyOp11
 70
     1
102
RTVSPropertyOp12
 70
     1
102
RTVSPropertyOp13
 70
     1
102
RTVSPropertyOp14
 70
     1
102
RTVSPropertyOp15
 70
     1
102
RTVSPropertyOp16
 70
     1
102
RTVSPropertyOp17
 70
     1
102
RTVSPropertyOp18
 70
     1
102
RTVSPropertyOp19
 70
     1
102
RTVSPropertyOp20
 70
     1
102
RTVSPropertyOp21
 70
     1
102
RTVSPropertyOp22
 70
     1
102
RTVSPropertyOp23
 70
     1
102
RTVSPropertyOp24
 70
     1
102
RTVSPropertyOp25
 70
     1
102
RTVSPropertyOp26
 70
     1
102
RTVSPropertyOp27
 70
     1
102
RTVSPropertyOp28
 70
     1
102
RTVSPropertyOp29
 70
     1
102
RTVSPropertyOp30
 70
     1
102
RTVSPropertyOp31
 70
     1
102
RTVSPropertyOp32
 70
     1
  0
XRECORD
  5
159
102
{ACAD_REACTORS
330
158
102
}
330
158
100
AcDbXrecord
280
     1
102
RTVSPropertyOp0
 70
     1
102
RTVSPropertyOp1
 70
     1
102
RTVSPropertyOp2
 70
     1
102
RTVSPropertyOp3
 70
     1
102
RTVSPropertyOp4
 70
     1
102
RTVSPropertyOp5
 70
     1
102
RTVSPropertyOp6
 70
     1
102
RTVSPropertyOp7
 70
     1
102
RTVSPropertyOp8
 70
     1
102
RTVSPropertyOp9
 70
     1
102
RTVSPropertyOp10
 70
     1
102
RTVSPropertyOp11
 70
     1
102
RTVSPropertyOp12
 70
     1
102
RTVSPropertyOp13
 70
     1
102
RTVSPropertyOp14
 70
     1
102
RTVSPropertyOp15
 70
     1
102
RTVSPropertyOp16
 70
     1
102
RTVSPropertyOp17
 70
     1
102
RTVSPropertyOp18
 70
     1
102
RTVSPropertyOp19
 70
     1
102
RTVSPropertyOp20
 70
     1
102
RTVSPropertyOp21
 70
     1
102
RTVSPropertyOp22
 70
     1
102
RTVSPropertyOp23
 70
     1
102
RTVSPropertyOp24
 70
     1
102
RTVSPropertyOp25
 70
     1
102
RTVSPropertyOp26
 70
     1
102
RTVSPropertyOp27
 70
     1
102
RTVSPropertyOp28
 70
     1
102
RTVSPropertyOp29
 70
     1
102
RTVSPropertyOp30
 70
     1
102
RTVSPropertyOp31
 70
     1
102
RTVSPropertyOp32
 70
     1
  0
XRECORD
  5
161
102
{ACAD_REACTORS
330
160
102
}
330
160
100
AcDbXrecord
280
     1
102
RTVSPropertyOp0
 70
     1
102
RTVSPropertyOp1
 70
     1
102
RTVSPropertyOp2
 70
     1
102
RTVSPropertyOp3
 70
     1
102
RTVSPropertyOp4
 70
     1
102
RTVSPropertyOp5
 70
     1
102
RTVSPropertyOp6
 70
     1
102
RTVSPropertyOp7
 70
     1
102
RTVSPropertyOp8
 70
     1
102
RTVSPropertyOp9
 70
     1
102
RTVSPropertyOp10
 70
     1
102
RTVSPropertyOp11
 70
     1
102
RTVSPropertyOp12
 70
     1
102
RTVSPropertyOp13
 70
     1
102
RTVSPropertyOp14
 70
     1
102
RTVSPropertyOp15
 70
     1
102
RTVSPropertyOp16
 70
     1
102
RTVSPropertyOp17
 70
     1
102
RTVSPropertyOp18
 70
     1
102
RTVSPropertyOp19
 70
     1
102
RTVSPropertyOp20
 70
     1
102
RTVSPropertyOp21
 70
     1
102
RTVSPropertyOp22
 70
     1
102
RTVSPropertyOp23
 70
     1
102
RTVSPropertyOp24
 70
     1
102
RTVSPropertyOp25
 70
     1
102
RTVSPropertyOp26
 70
     1
102
RTVSPropertyOp27
 70
     1
102
RTVSPropertyOp28
 70
     1
102
RTVSPropertyOp29
 70
     1
102
RTVSPropertyOp30
 70
     1
102
RTVSPropertyOp31
 70
     1
102
RTVSPropertyOp32
 70
     1
  0
XRECORD
  5
155
102
{ACAD_REACTORS
330
154
102
}
330
154
100
AcDbXrecord
280
     1
102
RTVSPropertyOp0
 70
     1
102
RTVSPropertyOp1
 70
     1
102
RTVSPropertyOp2
 70
     1
102
RTVSPropertyOp3
 70
     1
102
RTVSPropertyOp4
 70
     1
102
RTVSPropertyOp5
 70
     1
102
RTVSPropertyOp6
 70
     1
102
RTVSPropertyOp7
 70
     1
102
RTVSPropertyOp8
 70
     1
102
RTVSPropertyOp9
 70
     1
102
RTVSPropertyOp10
 70
     1
102
RTVSPropertyOp11
 70
     1
102
RTVSPropertyOp12
 70
     1
102
RTVSPropertyOp13
 70
     1
102
RTVSPropertyOp14
 70
     1
102
RTVSPropertyOp15
 70
     1
102
RTVSPropertyOp16
 70
     1
102
RTVSPropertyOp17
 70
     1
102
RTVSPropertyOp18
 70
     1
102
RTVSPropertyOp19
 70
     1
102
RTVSPropertyOp20
 70
     1
102
RTVSPropertyOp21
 70
     1
102
RTVSPropertyOp22
 70
     1
102
RTVSPropertyOp23
 70
     1
102
RTVSPropertyOp24
 70
     1
102
RTVSPropertyOp25
 70
     1
102
RTVSPropertyOp26
 70
     1
102
RTVSPropertyOp27
 70
     1
102
RTVSPropertyOp28
 70
     1
102
RTVSPropertyOp29
 70
     1
102
RTVSPropertyOp30
 70
     1
102
RTVSPropertyOp31
 70
     1
102
RTVSPropertyOp32
 70
     1
  0
XRECORD
  5
157
102
{ACAD_REACTORS
330
156
102
}
330
156
100
AcDbXrecord
280
     1
102
RTVSPropertyOp0
 70
     1
102
RTVSPropertyOp1
 70
     1
102
RTVSPropertyOp2
 70
     1
102
RTVSPropertyOp3
 70
     1
102
RTVSPropertyOp4
 70
     1
102
RTVSPropertyOp5
 70
     1
102
RTVSPropertyOp6
 70
     1
102
RTVSPropertyOp7
 70
     1
102
RTVSPropertyOp8
 70
     1
102
RTVSPropertyOp9
 70
     1
102
RTVSPropertyOp10
 70
     1
102
RTVSPropertyOp11
 70
     1
102
RTVSPropertyOp12
 70
     1
102
RTVSPropertyOp13
 70
     1
102
RTVSPropertyOp14
 70
     1
102
RTVSPropertyOp15
 70
     1
102
RTVSPropertyOp16
 70
     1
102
RTVSPropertyOp17
 70
     1
102
RTVSPropertyOp18
 70
     1
102
RTVSPropertyOp19
 70
     1
102
RTVSPropertyOp20
 70
     1
102
RTVSPropertyOp21
 70
     1
102
RTVSPropertyOp22
 70
     1
102
RTVSPropertyOp23
 70
     1
102
RTVSPropertyOp24
 70
     1
102
RTVSPropertyOp25
 70
     1
102
RTVSPropertyOp26
 70
     1
102
RTVSPropertyOp27
 70
     1
102
RTVSPropertyOp28
 70
     1
102
RTVSPropertyOp29
 70
     1
102
RTVSPropertyOp30
 70
     1
102
RTVSPropertyOp31
 70
     1
102
RTVSPropertyOp32
 70
     1
  0
XRECORD
  5
15F
102
{ACAD_REACTORS
330
15E
102
}
330
15E
100
AcDbXrecord
280
     1
102
RTVSPropertyOp0
 70
     1
102
RTVSPropertyOp1
 70
     1
102
RTVSPropertyOp2
 70
     1
102
RTVSPropertyOp3
 70
     1
102
RTVSPropertyOp4
 70
     1
102
RTVSPropertyOp5
 70
     1
102
RTVSPropertyOp6
 70
     1
102
RTVSPropertyOp7
 70
     1
102
RTVSPropertyOp8
 70
     1
102
RTVSPropertyOp9
 70
     1
102
RTVSPropertyOp10
 70
     1
102
RTVSPropertyOp11
 70
     1
102
RTVSPropertyOp12
 70
     1
102
RTVSPropertyOp13
 70
     1
102
RTVSPropertyOp14
 70
     1
102
RTVSPropertyOp15
 70
     1
102
RTVSPropertyOp16
 70
     1
102
RTVSPropertyOp17
 70
     1
102
RTVSPropertyOp18
 70
     1
102
RTVSPropertyOp19
 70
     1
102
RTVSPropertyOp20
 70
     1
102
RTVSPropertyOp21
 70
     1
102
RTVSPropertyOp22
 70
     1
102
RTVSPropertyOp23
 70
     1
102
RTVSPropertyOp24
 70
     1
102
RTVSPropertyOp25
 70
     1
102
RTVSPropertyOp26
 70
     1
102
RTVSPropertyOp27
 70
     1
102
RTVSPropertyOp28
 70
     1
102
RTVSPropertyOp29
 70
     1
102
RTVSPropertyOp30
 70
     1
102
RTVSPropertyOp31
 70
     1
102
RTVSPropertyOp32
 70
     1
  0
XRECORD
  5
143
102
{ACAD_REACTORS
330
142
102
}
330
142
100
AcDbXrecord
280
     1
102
RTVSPropertyOp0
 70
     1
102
RTVSPropertyOp1
 70
     1
102
RTVSPropertyOp2
 70
     1
102
RTVSPropertyOp3
 70
     1
102
RTVSPropertyOp4
 70
     1
102
RTVSPropertyOp5
 70
     1
102
RTVSPropertyOp6
 70
     1
102
RTVSPropertyOp7
 70
     1
102
RTVSPropertyOp8
 70
     1
102
RTVSPropertyOp9
 70
     1
102
RTVSPropertyOp10
 70
     1
102
RTVSPropertyOp11
 70
     1
102
RTVSPropertyOp12
 70
     1
102
RTVSPropertyOp13
 70
     1
102
RTVSPropertyOp14
 70
     1
102
RTVSPropertyOp15
 70
     1
102
RTVSPropertyOp16
 70
     1
102
RTVSPropertyOp17
 70
     1
102
RTVSPropertyOp18
 70
     1
102
RTVSPropertyOp19
 70
     1
102
RTVSPropertyOp20
 70
     1
102
RTVSPropertyOp21
 70
     1
102
RTVSPropertyOp22
 70
     1
102
RTVSPropertyOp23
 70
     1
102
RTVSPropertyOp24
 70
     1
102
RTVSPropertyOp25
 70
     1
102
RTVSPropertyOp26
 70
     1
102
RTVSPropertyOp27
 70
     1
102
RTVSPropertyOp28
 70
     1
102
RTVSPropertyOp29
 70
     1
102
RTVSPropertyOp30
 70
     1
102
RTVSPropertyOp31
 70
     1
102
RTVSPropertyOp32
 70
     1
  0
XRECORD
  5
145
102
{ACAD_REACTORS
330
144
102
}
330
144
100
AcDbXrecord
280
     1
102
RTVSPropertyOp0
 70
     1
102
RTVSPropertyOp1
 70
     1
102
RTVSPropertyOp2
 70
     1
102
RTVSPropertyOp3
 70
     1
102
RTVSPropertyOp4
 70
     1
102
RTVSPropertyOp5
 70
     1
102
RTVSPropertyOp6
 70
     1
102
RTVSPropertyOp7
 70
     1
102
RTVSPropertyOp8
 70
     1
102
RTVSPropertyOp9
 70
     1
102
RTVSPropertyOp10
 70
     1
102
RTVSPropertyOp11
 70
     1
102
RTVSPropertyOp12
 70
     1
102
RTVSPropertyOp13
 70
     1
102
RTVSPropertyOp14
 70
     1
102
RTVSPropertyOp15
 70
     1
102
RTVSPropertyOp16
 70
     1
102
RTVSPropertyOp17
 70
     1
102
RTVSPropertyOp18
 70
     1
102
RTVSPropertyOp19
 70
     1
102
RTVSPropertyOp20
 70
     1
102
RTVSPropertyOp21
 70
     1
102
RTVSPropertyOp22
 70
     1
102
RTVSPropertyOp23
 70
     1
102
RTVSPropertyOp24
 70
     1
102
RTVSPropertyOp25
 70
     1
102
RTVSPropertyOp26
 70
     1
102
RTVSPropertyOp27
 70
     1
102
RTVSPropertyOp28
 70
     1
102
RTVSPropertyOp29
 70
     1
102
RTVSPropertyOp30
 70
     1
102
RTVSPropertyOp31
 70
     1
102
RTVSPropertyOp32
 70
     1
  0
XRECORD
  5
147
102
{ACAD_REACTORS
330
146
102
}
330
146
100
AcDbXrecord
280
     1
102
RTVSPropertyOp0
 70
     1
102
RTVSPropertyOp1
 70
     1
102
RTVSPropertyOp2
 70
     1
102
RTVSPropertyOp3
 70
     1
102
RTVSPropertyOp4
 70
     1
102
RTVSPropertyOp5
 70
     1
102
RTVSPropertyOp6
 70
     1
102
RTVSPropertyOp7
 70
     1
102
RTVSPropertyOp8
 70
     1
102
RTVSPropertyOp9
 70
     1
102
RTVSPropertyOp10
 70
     1
102
RTVSPropertyOp11
 70
     1
102
RTVSPropertyOp12
 70
     1
102
RTVSPropertyOp13
 70
     1
102
RTVSPropertyOp14
 70
     1
102
RTVSPropertyOp15
 70
     1
102
RTVSPropertyOp16
 70
     1
102
RTVSPropertyOp17
 70
     1
102
RTVSPropertyOp18
 70
     1
102
RTVSPropertyOp19
 70
     1
102
RTVSPropertyOp20
 70
     1
102
RTVSPropertyOp21
 70
     1
102
RTVSPropertyOp22
 70
     1
102
RTVSPropertyOp23
 70
     1
102
RTVSPropertyOp24
 70
     1
102
RTVSPropertyOp25
 70
     1
102
RTVSPropertyOp26
 70
     1
102
RTVSPropertyOp27
 70
     1
102
RTVSPropertyOp28
 70
     1
102
RTVSPropertyOp29
 70
     1
102
RTVSPropertyOp30
 70
     1
102
RTVSPropertyOp31
 70
     1
102
RTVSPropertyOp32
 70
     1
  0
XRECORD
  5
149
102
{ACAD_REACTORS
330
148
102
}
330
148
100
AcDbXrecord
280
     1
102
RTVSPropertyOp0
 70
     1
102
RTVSPropertyOp1
 70
     1
102
RTVSPropertyOp2
 70
     1
102
RTVSPropertyOp3
 70
     1
102
RTVSPropertyOp4
 70
     1
102
RTVSPropertyOp5
 70
     1
102
RTVSPropertyOp6
 70
     1
102
RTVSPropertyOp7
 70
     1
102
RTVSPropertyOp8
 70
     1
102
RTVSPropertyOp9
 70
     1
102
RTVSPropertyOp10
 70
     1
102
RTVSPropertyOp11
 70
     1
102
RTVSPropertyOp12
 70
     1
102
RTVSPropertyOp13
 70
     1
102
RTVSPropertyOp14
 70
     1
102
RTVSPropertyOp15
 70
     1
102
RTVSPropertyOp16
 70
     1
102
RTVSPropertyOp17
 70
     1
102
RTVSPropertyOp18
 70
     1
102
RTVSPropertyOp19
 70
     1
102
RTVSPropertyOp20
 70
     1
102
RTVSPropertyOp21
 70
     1
102
RTVSPropertyOp22
 70
     1
102
RTVSPropertyOp23
 70
     1
102
RTVSPropertyOp24
 70
     1
102
RTVSPropertyOp25
 70
     1
102
RTVSPropertyOp26
 70
     1
102
RTVSPropertyOp27
 70
     1
102
RTVSPropertyOp28
 70
     1
102
RTVSPropertyOp29
 70
     1
102
RTVSPropertyOp30
 70
     1
102
RTVSPropertyOp31
 70
     1
102
RTVSPropertyOp32
 70
     1
  0
XRECORD
  5
15D
102
{ACAD_REACTORS
330
15C
102
}
330
15C
100
AcDbXrecord
280
     1
102
RTVSPropertyOp0
 70
     1
102
RTVSPropertyOp1
 70
     1
102
RTVSPropertyOp2
 70
     1
102
RTVSPropertyOp3
 70
     1
102
RTVSPropertyOp4
 70
     1
102
RTVSPropertyOp5
 70
     1
102
RTVSPropertyOp6
 70
     1
102
RTVSPropertyOp7
 70
     1
102
RTVSPropertyOp8
 70
     1
102
RTVSPropertyOp9
 70
     1
102
RTVSPropertyOp10
 70
     1
102
RTVSPropertyOp11
 70
     1
102
RTVSPropertyOp12
 70
     1
102
RTVSPropertyOp13
 70
     1
102
RTVSPropertyOp14
 70
     1
102
RTVSPropertyOp15
 70
     1
102
RTVSPropertyOp16
 70
     1
102
RTVSPropertyOp17
 70
     1
102
RTVSPropertyOp18
 70
     1
102
RTVSPropertyOp19
 70
     1
102
RTVSPropertyOp20
 70
     1
102
RTVSPropertyOp21
 70
     1
102
RTVSPropertyOp22
 70
     1
102
RTVSPropertyOp23
 70
     1
102
RTVSPropertyOp24
 70
     1
102
RTVSPropertyOp25
 70
     1
102
RTVSPropertyOp26
 70
     1
102
RTVSPropertyOp27
 70
     1
102
RTVSPropertyOp28
 70
     1
102
RTVSPropertyOp29
 70
     1
102
RTVSPropertyOp30
 70
     1
102
RTVSPropertyOp31
 70
     1
102
RTVSPropertyOp32
 70
     1
  0
XRECORD
  5
153
102
{ACAD_REACTORS
330
152
102
}
330
152
100
AcDbXrecord
280
     1
102
RTVSPropertyOp0
 70
     1
102
RTVSPropertyOp1
 70
     1
102
RTVSPropertyOp2
 70
     1
102
RTVSPropertyOp3
 70
     1
102
RTVSPropertyOp4
 70
     1
102
RTVSPropertyOp5
 70
     1
102
RTVSPropertyOp6
 70
     1
102
RTVSPropertyOp7
 70
     1
102
RTVSPropertyOp8
 70
     1
102
RTVSPropertyOp9
 70
     1
102
RTVSPropertyOp10
 70
     1
102
RTVSPropertyOp11
 70
     1
102
RTVSPropertyOp12
 70
     1
102
RTVSPropertyOp13
 70
     1
102
RTVSPropertyOp14
 70
     1
102
RTVSPropertyOp15
 70
     1
102
RTVSPropertyOp16
 70
     1
102
RTVSPropertyOp17
 70
     1
102
RTVSPropertyOp18
 70
     1
102
RTVSPropertyOp19
 70
     1
102
RTVSPropertyOp20
 70
     1
102
RTVSPropertyOp21
 70
     1
102
RTVSPropertyOp22
 70
     1
102
RTVSPropertyOp23
 70
     1
102
RTVSPropertyOp24
 70
     1
102
RTVSPropertyOp25
 70
     1
102
RTVSPropertyOp26
 70
     1
102
RTVSPropertyOp27
 70
     1
102
RTVSPropertyOp28
 70
     1
102
RTVSPropertyOp29
 70
     1
102
RTVSPropertyOp30
 70
     1
102
RTVSPropertyOp31
 70
     1
102
RTVSPropertyOp32
 70
     1
  0
XRECORD
  5
15B
102
{ACAD_REACTORS
330
15A
102
}
330
15A
100
AcDbXrecord
280
     1
102
RTVSPropertyOp0
 70
     1
102
RTVSPropertyOp1
 70
     1
102
RTVSPropertyOp2
 70
     1
102
RTVSPropertyOp3
 70
     1
102
RTVSPropertyOp4
 70
     1
102
RTVSPropertyOp5
 70
     1
102
RTVSPropertyOp6
 70
     1
102
RTVSPropertyOp7
 70
     1
102
RTVSPropertyOp8
 70
     1
102
RTVSPropertyOp9
 70
     1
102
RTVSPropertyOp10
 70
     1
102
RTVSPropertyOp11
 70
     1
102
RTVSPropertyOp12
 70
     1
102
RTVSPropertyOp13
 70
     1
102
RTVSPropertyOp14
 70
     1
102
RTVSPropertyOp15
 70
     1
102
RTVSPropertyOp16
 70
     1
102
RTVSPropertyOp17
 70
     1
102
RTVSPropertyOp18
 70
     1
102
RTVSPropertyOp19
 70
     1
102
RTVSPropertyOp20
 70
     1
102
RTVSPropertyOp21
 70
     1
102
RTVSPropertyOp22
 70
     1
102
RTVSPropertyOp23
 70
     1
102
RTVSPropertyOp24
 70
     1
102
RTVSPropertyOp25
 70
     1
102
RTVSPropertyOp26
 70
     1
102
RTVSPropertyOp27
 70
     1
102
RTVSPropertyOp28
 70
     1
102
RTVSPropertyOp29
 70
     1
102
RTVSPropertyOp30
 70
     1
102
RTVSPropertyOp31
 70
     1
102
RTVSPropertyOp32
 70
     1
  0
ENDSEC
  0
EOF
