  0
SECTION
  2
HEADER
  9
$ACADVER
  1
AC1015
  9
$ACADMAINTVER
 70
     6
  9
$DWGCODEPAGE
  3
ANSI_932
  9
$INSBASE
 10
0.0
 20
0.0
 30
0.0
  9
$EXTMIN
 10
0.0
 20
0.0
 30
0.0
  9
$EXTMAX
 10
1680.0
 20
2376.0
 30
0.0
  9
$LIMMIN
 10
0.0
 20
0.0
  9
$LIMMAX
 10
12.0
 20
9.0
  9
$ORTHOMODE
 70
     0
  9
$REGENMODE
 70
     1
  9
$FILLMODE
 70
     1
  9
$QTEXTMODE
 70
     0
  9
$MIRRTEXT
 70
     1
  9
$LTSCALE
 40
1.0
  9
$ATTMODE
 70
     1
  9
$TEXTSIZE
 40
0.2
  9
$TRACEWID
 40
0.05
  9
$TEXTSTYLE
  7
Standard
  9
$CLAYER
  8
0
  9
$CELTYPE
  6
ByLayer
  9
$CECOLOR
 62
   256
  9
$CELTSCALE
 40
1.0
  9
$DISPSILH
 70
     0
  9
$DIMSCALE
 40
1.0
  9
$DIMASZ
 40
0.18
  9
$DIMEXO
 40
0.0625
  9
$DIMDLI
 40
0.38
  9
$DIMRND
 40
0.0
  9
$DIMDLE
 40
0.0
  9
$DIMEXE
 40
0.18
  9
$DIMTP
 40
0.0
  9
$DIMTM
 40
0.0
  9
$DIMTXT
 40
0.18
  9
$DIMCEN
 40
0.09
  9
$DIMTSZ
 40
0.0
  9
$DIMTOL
 70
     0
  9
$DIMLIM
 70
     0
  9
$DIMTIH
 70
     1
  9
$DIMTOH
 70
     1
  9
$DIMSE1
 70
     0
  9
$DIMSE2
 70
     0
  9
$DIMTAD
 70
     0
  9
$DIMZIN
 70
     0
  9
$DIMBLK
  1

  9
$DIMASO
 70
     1
  9
$DIMSHO
 70
     1
  9
$DIMPOST
  1

  9
$DIMAPOST
  1

  9
$DIMALT
 70
     0
  9
$DIMALTD
 70
     2
  9
$DIMALTF
 40
25.4
  9
$DIMLFAC
 40
1.0
  9
$DIMTOFL
 70
     0
  9
$DIMTVP
 40
0.0
  9
$DIMTIX
 70
     0
  9
$DIMSOXD
 70
     0
  9
$DIMSAH
 70
     0
  9
$DIMBLK1
  1

  9
$DIMBLK2
  1

  9
$DIMSTYLE
  2
Standard
  9
$DIMCLRD
 70
     0
  9
$DIMCLRE
 70
     0
  9
$DIMCLRT
 70
     0
  9
$DIMTFAC
 40
1.0
  9
$DIMGAP
 40
0.09
  9
$DIMJUST
 70
     0
  9
$DIMSD1
 70
     0
  9
$DIMSD2
 70
     0
  9
$DIMTOLJ
 70
     1
  9
$DIMTZIN
 70
     0
  9
$DIMALTZ
 70
     0
  9
$DIMALTTZ
 70
     0
  9
$DIMUPT
 70
     0
  9
$DIMDEC
 70
     4
  9
$DIMTDEC
 70
     4
  9
$DIMALTU
 70
     2
  9
$DIMALTTD
 70
     2
  9
$DIMTXSTY
  7
Standard
  9
$DIMAUNIT
 70
     0
  9
$DIMADEC
 70
     0
  9
$DIMALTRND
 40
0.0
  9
$DIMAZIN
 70
     0
  9
$DIMDSEP
 70
    46
  9
$DIMATFIT
 70
     3
  9
$DIMFRAC
 70
     0
  9
$DIMLDRBLK
  1

  9
$DIMLUNIT
 70
     2
  9
$DIMLWD
 70
    -2
  9
$DIMLWE
 70
    -2
  9
$DIMTMOVE
 70
     0
  9
$LUNITS
 70
     2
  9
$LUPREC
 70
     4
  9
$SKETCHINC
 40
0.1
  9
$FILLETRAD
 40
0.5
  9
$AUNITS
 70
     0
  9
$AUPREC
 70
     0
  9
$MENU
  1
.
  9
$ELEVATION
 40
0.0
  9
$PELEVATION
 40
0.0
  9
$THICKNESS
 40
0.0
  9
$LIMCHECK
 70
     0
  9
$CHAMFERA
 40
0.5
  9
$CHAMFERB
 40
0.5
  9
$CHAMFERC
 40
1.0
  9
$CHAMFERD
 40
0.0
  9
$SKPOLY
 70
     0
  9
$TDCREATE
 40
2457900.678482755
  9
$TDUCREATE
 40
2457900.303482755
  9
$TDUPDATE
 40
2457900.678483658
  9
$TDUUPDATE
 40
2457900.303483658
  9
$TDINDWG
 40
0.0000000116
  9
$TDUSRTIMER
 40
0.0000000116
  9
$USRTIMER
 70
     1
  9
$ANGBASE
 50
0.0
  9
$ANGDIR
 70
     0
  9
$PDMODE
 70
     0
  9
$PDSIZE
 40
0.0
  9
$PLINEWID
 40
0.0
  9
$SPLFRAME
 70
     0
  9
$SPLINETYPE
 70
     6
  9
$SPLINESEGS
 70
     8
  9
$HANDSEED
  5
1E1
  9
$SURFTAB1
 70
     6
  9
$SURFTAB2
 70
     6
  9
$SURFTYPE
 70
     6
  9
$SURFU
 70
     6
  9
$SURFV
 70
     6
  9
$UCSBASE
  2

  9
$UCSNAME
  2

  9
$UCSORG
 10
0.0
 20
0.0
 30
0.0
  9
$UCSXDIR
 10
1.0
 20
0.0
 30
0.0
  9
$UCSYDIR
 10
0.0
 20
1.0
 30
0.0
  9
$UCSORTHOREF
  2

  9
$UCSORTHOVIEW
 70
     0
  9
$UCSORGTOP
 10
0.0
 20
0.0
 30
0.0
  9
$UCSORGBOTTOM
 10
0.0
 20
0.0
 30
0.0
  9
$UCSORGLEFT
 10
0.0
 20
0.0
 30
0.0
  9
$UCSORGRIGHT
 10
0.0
 20
0.0
 30
0.0
  9
$UCSORGFRONT
 10
0.0
 20
0.0
 30
0.0
  9
$UCSORGBACK
 10
0.0
 20
0.0
 30
0.0
  9
$PUCSBASE
  2

  9
$PUCSNAME
  2

  9
$PUCSORG
 10
0.0
 20
0.0
 30
0.0
  9
$PUCSXDIR
 10
1.0
 20
0.0
 30
0.0
  9
$PUCSYDIR
 10
0.0
 20
1.0
 30
0.0
  9
$PUCSORTHOREF
  2

  9
$PUCSORTHOVIEW
 70
     0
  9
$PUCSORGTOP
 10
0.0
 20
0.0
 30
0.0
  9
$PUCSORGBOTTOM
 10
0.0
 20
0.0
 30
0.0
  9
$PUCSORGLEFT
 10
0.0
 20
0.0
 30
0.0
  9
$PUCSORGRIGHT
 10
0.0
 20
0.0
 30
0.0
  9
$PUCSORGFRONT
 10
0.0
 20
0.0
 30
0.0
  9
$PUCSORGBACK
 10
0.0
 20
0.0
 30
0.0
  9
$USERI1
 70
     0
  9
$USERI2
 70
     0
  9
$USERI3
 70
     0
  9
$USERI4
 70
     0
  9
$USERI5
 70
     0
  9
$USERR1
 40
18.1
  9
$USERR2
 40
0.0
  9
$USERR3
 40
0.0
  9
$USERR4
 40
0.0
  9
$USERR5
 40
0.0
  9
$WORLDVIEW
 70
     1
  9
$SHADEDGE
 70
     3
  9
$SHADEDIF
 70
    70
  9
$TILEMODE
 70
     1
  9
$MAXACTVP
 70
    64
  9
$PINSBASE
 10
0.0
 20
0.0
 30
0.0
  9
$PLIMCHECK
 70
     0
  9
$PEXTMIN
 10
1.00000000000000E+20
 20
1.00000000000000E+20
 30
1.00000000000000E+20
  9
$PEXTMAX
 10
-1.00000000000000E+20
 20
-1.00000000000000E+20
 30
-1.00000000000000E+20
  9
$PLIMMIN
 10
0.0
 20
0.0
  9
$PLIMMAX
 10
12.0
 20
9.0
  9
$UNITMODE
 70
     0
  9
$VISRETAIN
 70
     1
  9
$PLINEGEN
 70
     0
  9
$PSLTSCALE
 70
     1
  9
$TREEDEPTH
 70
  3020
  9
$CMLSTYLE
  2
Standard
  9
$CMLJUST
 70
     0
  9
$CMLSCALE
 40
1.0
  9
$PROXYGRAPHICS
 70
     1
  9
$MEASUREMENT
 70
     1
  9
$CELWEIGHT
370
    -1
  9
$ENDCAPS
280
     0
  9
$JOINSTYLE
280
     0
  9
$LWDISPLAY
290
     0
  9
$INSUNITS
 70
     4
  9
$HYPERLINKBASE
  1

  9
$STYLESHEET
  1

  9
$XEDIT
290
     1
  9
$CEPSNTYPE
380
     0
  9
$PSTYLEMODE
290
     1
  9
$FINGERPRINTGUID
  2
{D3259BAC-69C6-4EA2-B4AF-04E506A91B20}
  9
$VERSIONGUID
  2
{FAEB1C32-E019-11D5-929B-00C0DF256EC4}
  9
$EXTNAMES
290
     1
  9
$PSVPSCALE
 40
0.0
  9
$OLESTARTUP
290
     0
  0
ENDSEC
  0
SECTION
  2
CLASSES
  0
CLASS
  1
ACDBDICTIONARYWDFLT
  2
AcDbDictionaryWithDefault
  3
ObjectDBX Classes
 90
        0
280
     0
281
     0
  0
CLASS
  1
VISUALSTYLE
  2
AcDbVisualStyle
  3
ObjectDBX Classes
 90
     4095
280
     0
281
     0
  0
CLASS
  1
MATERIAL
  2
AcDbMaterial
  3
ObjectDBX Classes
 90
     1153
280
     0
281
     0
  0
CLASS
  1
DICTIONARYVAR
  2
AcDbDictionaryVar
  3
ObjectDBX Classes
 90
        0
280
     0
281
     0
  0
CLASS
  1
ACDBPLACEHOLDER
  2
AcDbPlaceHolder
  3
ObjectDBX Classes
 90
        0
280
     0
281
     0
  0
CLASS
  1
LAYOUT
  2
AcDbLayout
  3
ObjectDBX Classes
 90
        0
280
     0
281
     0
  0
ENDSEC
  0
SECTION
  2
TABLES
  0
TABLE
  2
VPORT
  5
8
330
0
100
AcDbSymbolTable
 70
     1
  0
VPORT
  5
29
330
8
100
AcDbSymbolTableRecord
100
AcDbViewportTableRecord
  2
*Active
 70
     0
 10
0.0
 20
0.0
 11
1.0
 21
1.0
 12
840.0
 22
1188.0
 13
0.0
 23
0.0
 14
0.5
 24
0.5
 15
0.5
 25
0.5
 16
0.0
 26
0.0
 36
1.0
 17
0.0
 27
0.0
 37
0.0
 40
2613.6
 41
1.60267857142857
 42
50.0
 43
0.0
 44
0.0
 50
0.0
 51
0.0
 71
     0
 72
   100
 73
     1
 74
     3
 75
     0
 76
     0
 77
     0
 78
     0
281
     0
 65
     1
110
0.0
120
0.0
130
0.0
111
1.0
121
0.0
131
0.0
112
0.0
122
1.0
132
0.0
 79
     0
146
0.0
  0
ENDTAB
  0
TABLE
  2
LTYPE
  5
5
330
0
100
AcDbSymbolTable
 70
     8
  0
LTYPE
  5
14
330
5
100
AcDbSymbolTableRecord
100
AcDbLinetypeTableRecord
  2
ByBlock
 70
     0
  3

 72
    65
 73
     0
 40
0.0
  0
LTYPE
  5
15
330
5
100
AcDbSymbolTableRecord
100
AcDbLinetypeTableRecord
  2
ByLayer
 70
     0
  3

 72
    65
 73
     0
 40
0.0
  0
LTYPE
  5
16
330
5
100
AcDbSymbolTableRecord
100
AcDbLinetypeTableRecord
  2
Continuous
 70
     0
  3
Solid line
 72
    65
 73
     0
 40
0.0
  0
LTYPE
  5
3F
330
5
100
AcDbSymbolTableRecord
100
AcDbLinetypeTableRecord
  2
DASHED
 70
     0
  3
Dashed
 72
    65
 73
     2
 40
15.0
 49
7.0
 74
     0
 49
-8.0
 74
     0
  0
LTYPE
  5
40
330
5
100
AcDbSymbolTableRecord
100
AcDbLinetypeTableRecord
  2
DOTTED
 70
     0
  3
Dotted
 72
    65
 73
     2
 40
1.0
 49
0.0
 74
     0
 49
-1.0
 74
     0
  0
LTYPE
  5
41
330
5
100
AcDbSymbolTableRecord
100
AcDbLinetypeTableRecord
  2
DOT_CENTER
 70
     0
  3
Dot_Center
 72
    65
 73
     4
 40
14.0
 49
12.0
 74
     0
 49
-1.0
 74
     0
 49
0.0
 74
     0
 49
-1.0
 74
     0
  0
LTYPE
  5
42
330
5
100
AcDbSymbolTableRecord
100
AcDbLinetypeTableRecord
  2
LONG_DASHED
 70
     0
  3
Long_Dashed
 72
    65
 73
     2
 40
15.0
 49
10.0
 74
     0
 49
-5.0
 74
     0
  0
LTYPE
  5
43
330
5
100
AcDbSymbolTableRecord
100
AcDbLinetypeTableRecord
  2
DASH_CENTER
 70
     0
  3
Dash_Center
 72
    65
 73
     4
 40
14.0
 49
11.0
 74
     0
 49
-1.0
 74
     0
 49
1.0
 74
     0
 49
-1.0
 74
     0
  0
LTYPE
  5
44
330
5
100
AcDbSymbolTableRecord
100
AcDbLinetypeTableRecord
  2
PHANTOM
 70
     0
  3
Phantom
 72
    65
 73
     6
 40
13.0
 49
10.0
 74
     0
 49
-1.0
 74
     0
 49
0.0
 74
     0
 49
-1.0
 74
     0
 49
0.0
 74
     0
 49
-1.0
 74
     0
  0
LTYPE
  5
45
330
5
100
AcDbSymbolTableRecord
100
AcDbLinetypeTableRecord
  2
CENTER_DASH_DASH
 70
     0
  3
Center_Dash_Dash
 72
    65
 73
     6
 40
14.0
 49
9.0
 74
     0
 49
-1.0
 74
     0
 49
1.0
 74
     0
 49
-1.0
 74
     0
 49
1.0
 74
     0
 49
-1.0
 74
     0
  0
ENDTAB
  0
TABLE
  2
LAYER
  5
2
330
0
100
AcDbSymbolTable
 70
     5
  0
LAYER
  5
10
330
2
100
AcDbSymbolTableRecord
100
AcDbLayerTableRecord
  2
0
 70
     0
 62
     7
  6
Continuous
370
    -3
390
F
  0
LAYER
  5
46
330
2
100
AcDbSymbolTableRecord
100
AcDbLayerTableRecord
  2
1
 70
     0
 62
     7
  6
Continuous
370
    -3
390
F
  0
LAYER
  5
47
330
2
100
AcDbSymbolTableRecord
100
AcDbLayerTableRecord
  2
SL816802-W-112
 70
     0
 62
     7
  6
Continuous
370
    -3
390
F
  0
LAYER
  5
48
330
2
100
AcDbSymbolTableRecord
100
AcDbLayerTableRecord
  2
WAKU
 70
     0
 62
     7
  6
Continuous
370
    -3
390
F
  0
LAYER
  5
49
330
2
100
AcDbSymbolTableRecord
100
AcDbLayerTableRecord
  2
_U_30EC_U_30A4_U_30E4_U_30
 70
     0
 62
     7
  6
Continuous
370
    -3
390
F
  0
ENDTAB
  0
TABLE
  2
STYLE
  5
3
330
0
100
AcDbSymbolTable
 70
     3
  0
STYLE
  5
11
330
3
100
AcDbSymbolTableRecord
100
AcDbTextStyleTableRecord
  2
Standard
 70
     0
 40
0.0
 41
1.0
 50
0.0
 71
     0
 42
0.2
  3
txt
  4

  0
STYLE
  5
14E
330
3
100
AcDbSymbolTableRecord
100
AcDbTextStyleTableRecord
  2
CONVERTER_11
 70
     0
 40
0.0
 41
0.89
 50
0.0
 71
     0
 42
0.2
  3
MS Mincho.ttf
  4

1001
ACAD
1000
MS Mincho
1071
    32785
  0
STYLE
  5
162
330
3
100
AcDbSymbolTableRecord
100
AcDbTextStyleTableRecord
  2
CONVERTER_12
 70
     0
 40
0.0
 41
0.9
 50
0.0
 71
     0
 42
0.2
  3
txt.shx
  4

  0
ENDTAB
  0
TABLE
  2
VIEW
  5
6
330
0
100
AcDbSymbolTable
 70
     0
  0
ENDTAB
  0
TABLE
  2
UCS
  5
7
330
0
100
AcDbSymbolTable
 70
     0
  0
ENDTAB
  0
TABLE
  2
APPID
  5
9
330
0
100
AcDbSymbolTable
 70
     1
  0
APPID
  5
12
330
9
100
AcDbSymbolTableRecord
100
AcDbRegAppTableRecord
  2
ACAD
 70
     0
  0
ENDTAB
  0
TABLE
  2
DIMSTYLE
  5
A
330
0
100
AcDbSymbolTable
 70
     6
100
AcDbDimStyleTable
  0
DIMSTYLE
105
27
330
A
100
AcDbSymbolTableRecord
100
AcDbDimStyleTableRecord
  2
Standard
 70
     0
178
     0
340
11
  0
DIMSTYLE
105
180
102
{ACAD_REACTORS
330
181
102
}
330
A
100
AcDbSymbolTableRecord
100
AcDbDimStyleTableRecord
  2
ME10_DIM_10
 70
     0
 41
28.0
 42
0.0
 44
8.0
 73
     0
 74
     0
 77
     1
 78
     8
140
28.0
147
8.0
172
     1
173
     1
174
     1
175
     1
176
     2
177
     2
271
     2
178
     7
271
     2
340
162
  0
DIMSTYLE
105
18B
102
{ACAD_REACTORS
330
18C
102
}
330
A
100
AcDbSymbolTableRecord
100
AcDbDimStyleTableRecord
  2
ME10_DIM_11
 70
     0
 41
28.0
 42
0.0
 44
8.0
 73
     0
 74
     0
 77
     1
 78
     8
140
28.0
147
8.0
172
     1
173
     1
174
     1
175
     1
176
     2
177
     2
271
     2
178
     7
271
     2
340
162
  0
DIMSTYLE
105
196
102
{ACAD_REACTORS
330
197
102
}
330
A
100
AcDbSymbolTableRecord
100
AcDbDimStyleTableRecord
  2
ME10_DIM_12
 70
     0
 41
28.0
 42
0.0
 44
8.0
 73
     0
 74
     0
 77
     1
 78
     8
140
28.0
147
8.0
172
     1
173
     1
174
     1
175
     1
176
     2
177
     2
271
     2
178
     7
271
     2
340
162
  0
DIMSTYLE
105
1A1
102
{ACAD_REACTORS
330
1A2
102
}
330
A
100
AcDbSymbolTableRecord
100
AcDbDimStyleTableRecord
  2
ME10_DIM_13
 70
     0
 41
28.0
 42
0.0
 44
8.0
 73
     0
 74
     0
 77
     1
 78
     8
140
28.0
147
8.0
172
     1
173
     1
174
     1
175
     1
176
     2
177
     2
271
     2
178
     7
271
     2
340
162
  0
DIMSTYLE
105
1AC
102
{ACAD_REACTORS
330
1AD
102
}
330
A
100
AcDbSymbolTableRecord
100
AcDbDimStyleTableRecord
  2
ME10_DIM_14
 70
     0
 41
28.0
 42
0.0
 44
8.0
 73
     0
 74
     0
 77
     1
 78
     8
140
28.0
147
8.0
172
     1
173
     1
174
     1
175
     1
176
     2
177
     2
271
     2
178
     7
271
     2
340
162
  0
ENDTAB
  0
TABLE
  2
BLOCK_RECORD
  5
1
330
0
100
AcDbSymbolTable
 70
     9
  0
BLOCK_RECORD
  5
1F
330
1
100
AcDbSymbolTableRecord
100
AcDbBlockTableRecord
  2
*Model_Space
340
22
  0
BLOCK_RECORD
  5
1B
330
1
100
AcDbSymbolTableRecord
100
AcDbBlockTableRecord
  2
*Paper_Space
340
1E
  0
BLOCK_RECORD
  5
23
330
1
100
AcDbSymbolTableRecord
100
AcDbBlockTableRecord
  2
*Paper_Space0
340
26
  0
BLOCK_RECORD
  5
4A
330
1
100
AcDbSymbolTableRecord
100
AcDbBlockTableRecord
  2
SL816802-W-112
340
0
102
{BLKREFS
331
50
102
}
  0
BLOCK_RECORD
  5
4D
330
1
100
AcDbSymbolTableRecord
100
AcDbBlockTableRecord
  2
開示A4
340
0
102
{BLKREFS
331
51
102
}
  0
BLOCK_RECORD
  5
177
330
1
100
AcDbSymbolTableRecord
100
AcDbBlockTableRecord
  2
*D3
340
0
  0
BLOCK_RECORD
  5
182
330
1
100
AcDbSymbolTableRecord
100
AcDbBlockTableRecord
  2
*D4
340
0
  0
BLOCK_RECORD
  5
18D
330
1
100
AcDbSymbolTableRecord
100
AcDbBlockTableRecord
  2
*D5
340
0
  0
BLOCK_RECORD
  5
198
330
1
100
AcDbSymbolTableRecord
100
AcDbBlockTableRecord
  2
*D6
340
0
  0
BLOCK_RECORD
  5
1A3
330
1
100
AcDbSymbolTableRecord
100
AcDbBlockTableRecord
  2
*D7
340
0
  0
BLOCK_RECORD
  5
1AE
330
1
100
AcDbSymbolTableRecord
100
AcDbBlockTableRecord
  2
*D8
340
0
102
{BLKREFS
331
1B5
102
}
  0
ENDTAB
  0
ENDSEC
  0
SECTION
  2
BLOCKS
  0
BLOCK
  5
20
330
1F
100
AcDbEntity
  8
0
100
AcDbBlockBegin
  2
*Model_Space
 70
     0
 10
0.0
 20
0.0
 30
0.0
  3
*Model_Space
  1

  0
ENDBLK
  5
21
330
1F
100
AcDbEntity
  8
0
100
AcDbBlockEnd
  0
BLOCK
  5
1C
330
1B
100
AcDbEntity
 67
     1
  8
0
100
AcDbBlockBegin
  2
*Paper_Space
 70
     0
 10
0.0
 20
0.0
 30
0.0
  3
*Paper_Space
  1

  0
ENDBLK
  5
1D
330
1B
100
AcDbEntity
 67
     1
  8
0
100
AcDbBlockEnd
  0
BLOCK
  5
24
330
23
100
AcDbEntity
  8
0
100
AcDbBlockBegin
  2
*Paper_Space0
 70
     0
 10
0.0
 20
0.0
 30
0.0
  3
*Paper_Space0
  1

  0
ENDBLK
  5
25
330
23
100
AcDbEntity
  8
0
100
AcDbBlockEnd
  0
BLOCK
  5
4B
330
4A
100
AcDbEntity
  8
0
100
AcDbBlockBegin
  2
SL816802-W-112
 70
     0
 10
1680.0
 20
0.0
 30
0.0
  3
SL816802-W-112
  1

  0
LINE
  5
52
330
4A
100
AcDbEntity
  8
SL816802-W-112
  6
Continuous
 62
     7
100
AcDbLine
 10
858.2184436097441
 20
1053.382601348665
 30
0.0
 11
856.214672929455
 21
1056.272712928972
 31
0.0
  0
LINE
  5
53
330
4A
100
AcDbEntity
  8
SL816802-W-112
  6
Continuous
 62
     7
100
AcDbLine
 10
580.974811546213
 20
1791.01128603572
 30
0.0
 11
541.476619948684
 21
1791.26138222647
 31
0.0
  0
LINE
  5
54
330
4A
100
AcDbEntity
  8
SL816802-W-112
  6
Continuous
 62
     7
100
AcDbLine
 10
541.476619948684
 20
1791.26138222647
 30
0.0
 11
503.6070547453192
 21
1788.5243295149
 31
0.0
  0
LINE
  5
55
330
4A
100
AcDbEntity
  8
SL816802-W-112
  6
Continuous
 62
     7
100
AcDbLine
 10
621.3103251903731
 20
1788.28523755654
 30
0.0
 11
580.974811546213
 21
1791.01128603572
 31
0.0
  0
LINE
  5
56
330
4A
100
AcDbEntity
  8
WAKU
  6
PHANTOM
 62
     5
100
AcDbLine
 10
549.8532116446481
 20
960.74083214899
 30
0.0
 11
552.9554011663322
 21
960.74083214899
 31
0.0
  0
LINE
  5
57
330
4A
100
AcDbEntity
  8
_U_30EC_U_30A4_U_30E4_U_30
  6
PHANTOM
 62
     5
100
AcDbLine
 10
544.5993942195059
 20
951.042879824102
 30
0.0
 11
544.86010329993
 21
956.003261297172
 31
0.0
  0
LINE
  5
58
330
4A
100
AcDbEntity
  8
WAKU
  6
PHANTOM
 62
     5
100
AcDbLine
 10
469.1500410226918
 20
960.74083214899
 30
0.0
 11
466.0478515010082
 21
960.74083214899
 31
0.0
  0
LINE
  5
59
330
4A
100
AcDbEntity
  8
_U_30EC_U_30A4_U_30E4_U_30
  6
PHANTOM
 62
     5
100
AcDbLine
 10
474.403858447833
 20
951.042879824102
 30
0.0
 11
474.1431493674099
 21
956.003261297172
 31
0.0
  0
LINE
  5
5A
330
4A
100
AcDbEntity
  8
_U_30EC_U_30A4_U_30E4_U_30
  6
PHANTOM
 62
     5
100
AcDbLine
 10
541.595005493291
 20
948.199453981285
 30
0.0
 11
477.3997697505029
 21
948.199453981285
 31
0.0
  0
LINE
  5
5B
330
4A
100
AcDbEntity
  8
_U_30EC_U_30A4_U_30E4_U_30
  6
PHANTOM
 62
     5
100
AcDbLine
 10
1304.64351628369
 20
951.042879825327
 30
0.0
 11
1304.91201360134
 21
956.151444199216
 31
0.0
  0
LINE
  5
5C
330
4A
100
AcDbEntity
  8
_U_30EC_U_30A4_U_30E4_U_30
  6
PHANTOM
 62
     5
100
AcDbLine
 10
1234.44798051202
 20
951.042879825327
 30
0.0
 11
1234.17948319433
 21
956.151444199237
 31
0.0
  0
LINE
  5
5D
330
4A
100
AcDbEntity
  8
_U_30EC_U_30A4_U_30E4_U_30
  6
PHANTOM
 62
     5
100
AcDbLine
 10
1301.63912755747
 20
948.19945398251
 30
0.0
 11
1237.44389181469
 21
948.19945398251
 31
0.0
  0
LINE
  5
5E
330
4A
100
AcDbEntity
  8
WAKU
  6
Continuous
 62
     7
100
AcDbLine
 10
1381.32745486853
 20
928.14943479251
 30
0.0
 11
1190.88820907527
 21
928.14943479251
 31
0.0
  0
LINE
  5
5F
330
4A
100
AcDbEntity
  8
WAKU
  6
Continuous
 62
     7
100
AcDbLine
 10
432.940875471762
 20
928.14943479251
 30
0.0
 11
763.4960119402513
 21
928.14943479251
 31
0.0
  0
LINE
  5
60
330
4A
100
AcDbEntity
  8
SL816802-W-112
  6
Continuous
 62
     7
100
AcDbLine
 10
856.214672929455
 20
1056.272712928972
 30
0.0
 11
853.2085167166401
 21
1058.19945398251
 31
0.0
  0
LINE
  5
61
330
4A
100
AcDbEntity
  8
SL816802-W-112
  6
Continuous
 62
     7
100
AcDbLine
 10
853.2085167166401
 20
1058.19945398251
 30
0.0
 11
343.230371464974
 21
1058.19945398251
 31
0.0
  0
LINE
  5
62
330
4A
100
AcDbEntity
  8
SL816802-W-112
  6
Continuous
 62
     7
100
AcDbLine
 10
343.230371464974
 20
1058.19945398251
 30
0.0
 11
340.2232148673961
 21
1056.272712928972
 31
0.0
  0
LINE
  5
63
330
4A
100
AcDbEntity
  8
SL816802-W-112
  6
Continuous
 62
     7
100
AcDbLine
 10
340.2232148673961
 20
1056.272712928972
 30
0.0
 11
338.2184438025579
 21
1053.382601348665
 31
0.0
  0
LINE
  5
64
330
4A
100
AcDbEntity
  8
SL816802-W-112
  6
Continuous
 62
     7
100
AcDbLine
 10
338.2184438025579
 20
1053.382601348665
 30
0.0
 11
858.2184436097441
 21
1053.382601348665
 31
0.0
  0
LINE
  5
65
330
4A
100
AcDbEntity
  8
SL816802-W-112
  6
Continuous
 62
     7
100
AcDbLine
 10
586.1397980775819
 20
1678.13987399595
 30
0.0
 11
562.4246768859039
 21
1678.143875535
 31
0.0
  0
LINE
  5
66
330
4A
100
AcDbEntity
  8
SL816802-W-112
  6
Continuous
 62
     7
100
AcDbLine
 10
562.4246768859039
 20
1678.143875535
 30
0.0
 11
539.8039766249481
 21
1676.8083618764
 31
0.0
  0
LINE
  5
67
330
4A
100
AcDbEntity
  8
SL816802-W-112
  6
Continuous
 62
     7
100
AcDbLine
 10
539.8039766249481
 20
1676.8083618764
 30
0.0
 11
518.8619219963061
 21
1673.78719989214
 31
0.0
  0
LINE
  5
68
330
4A
100
AcDbEntity
  8
SL816802-W-112
  6
Continuous
 62
     7
100
AcDbLine
 10
518.8619219963061
 20
1673.78719989214
 30
0.0
 11
500.243761172113
 21
1668.68323683131
 31
0.0
  0
LINE
  5
69
330
4A
100
AcDbEntity
  8
SL816802-W-112
  6
Continuous
 62
     7
100
AcDbLine
 10
500.243761172113
 20
1668.68323683131
 30
0.0
 11
484.4526876881582
 21
1661.25237881175
 31
0.0
  0
LINE
  5
6A
330
4A
100
AcDbEntity
  8
SL816802-W-112
  6
Continuous
 62
     7
100
AcDbLine
 10
484.4526876881582
 20
1661.25237881175
 30
0.0
 11
471.705785038012
 21
1651.49662660297
 31
0.0
  0
LINE
  5
6B
330
4A
100
AcDbEntity
  8
SL816802-W-112
  6
Continuous
 62
     7
100
AcDbLine
 10
471.705785038012
 20
1651.49662660297
 30
0.0
 11
461.9660389854439
 21
1639.67207870431
 31
0.0
  0
LINE
  5
6C
330
4A
100
AcDbEntity
  8
SL816802-W-112
  6
Continuous
 62
     7
100
AcDbLine
 10
461.9660389854439
 20
1639.67207870431
 30
0.0
 11
454.9053233281902
 21
1626.34195173734
 31
0.0
  0
LINE
  5
6D
330
4A
100
AcDbEntity
  8
SL816802-W-112
  6
Continuous
 62
     7
100
AcDbLine
 10
454.9053233281902
 20
1626.34195173734
 30
0.0
 11
450.2465314868991
 21
1612.16049733705
 31
0.0
  0
LINE
  5
6E
330
4A
100
AcDbEntity
  8
SL816802-W-112
  6
Continuous
 62
     7
100
AcDbLine
 10
450.2465314868991
 20
1612.16049733705
 30
0.0
 11
447.951648840577
 21
1597.6779271231
 31
0.0
  0
LINE
  5
6F
330
4A
100
AcDbEntity
  8
SL816802-W-112
  6
Continuous
 62
     7
100
AcDbLine
 10
447.951648840577
 20
1597.6779271231
 30
0.0
 11
448.1907407989338
 21
1583.4184427113
 31
0.0
  0
LINE
  5
70
330
4A
100
AcDbEntity
  8
SL816802-W-112
  6
Continuous
 62
     7
100
AcDbLine
 10
448.1907407989338
 20
1583.4184427113
 30
0.0
 11
451.3409524176209
 21
1569.87323302028
 31
0.0
  0
LINE
  5
71
330
4A
100
AcDbEntity
  8
SL816802-W-112
  6
Continuous
 62
     7
100
AcDbLine
 10
451.3409524176209
 20
1569.87323302028
 30
0.0
 11
457.7314102836649
 21
1557.60651505637
 31
0.0
  0
LINE
  5
72
330
4A
100
AcDbEntity
  8
SL816802-W-112
  6
Continuous
 62
     7
100
AcDbLine
 10
467.5291786524872
 20
1547.15049351349
 30
0.0
 11
480.6872394402262
 21
1538.95033961118
 31
0.0
  0
LINE
  5
73
330
4A
100
AcDbEntity
  8
SL816802-W-112
  6
Continuous
 62
     7
100
AcDbLine
 10
480.6872394402262
 20
1538.95033961118
 30
0.0
 11
496.6963968025148
 21
1533.12509913623
 31
0.0
  0
LINE
  5
74
330
4A
100
AcDbEntity
  8
SL816802-W-112
  6
Continuous
 62
     7
100
AcDbLine
 10
496.6963968025148
 20
1533.12509913623
 30
0.0
 11
514.6232917554748
 21
1529.41667281979
 31
0.0
  0
LINE
  5
75
330
4A
100
AcDbEntity
  8
SL816802-W-112
  6
Continuous
 62
     7
100
AcDbLine
 10
514.6232917554748
 20
1529.41667281979
 30
0.0
 11
534.1838150264139
 21
1527.47992791863
 31
0.0
  0
LINE
  5
76
330
4A
100
AcDbEntity
  8
SL816802-W-112
  6
Continuous
 62
     7
100
AcDbLine
 10
534.1838150264139
 20
1527.47992791863
 30
0.0
 11
554.9598057843978
 21
1526.8506859027
 31
0.0
  0
LINE
  5
77
330
4A
100
AcDbEntity
  8
SL816802-W-112
  6
Continuous
 62
     7
100
AcDbLine
 10
554.9598057843978
 20
1526.8506859027
 30
0.0
 11
574.6143652230589
 21
1526.85568782651
 31
0.0
  0
LINE
  5
78
330
4A
100
AcDbEntity
  8
SL816802-W-112
  6
Continuous
 62
     7
100
AcDbLine
 10
574.6143652230589
 20
1526.85568782651
 30
0.0
 11
582.3033225114768
 21
1526.912709758
 31
0.0
  0
LINE
  5
79
330
4A
100
AcDbEntity
  8
SL816802-W-112
  6
Continuous
 62
     7
100
AcDbLine
 10
582.3033225114768
 20
1526.912709758
 30
0.0
 11
589.6821605233649
 21
1527.258842886
 31
0.0
  0
LINE
  5
7A
330
4A
100
AcDbEntity
  8
SL816802-W-112
  6
Continuous
 62
     7
100
AcDbLine
 10
589.6821605233649
 20
1527.258842886
 30
0.0
 11
608.5434148449667
 21
1528.25622649471
 31
0.0
  0
LINE
  5
7B
330
4A
100
AcDbEntity
  8
SL816802-W-112
  6
Continuous
 62
     7
100
AcDbLine
 10
608.5434148449667
 20
1528.25622649471
 30
0.0
 11
628.4830839410829
 21
1529.80282133831
 31
0.0
  0
LINE
  5
7C
330
4A
100
AcDbEntity
  8
SL816802-W-112
  6
Continuous
 62
     7
100
AcDbLine
 10
628.4830839410829
 20
1529.80282133831
 30
0.0
 11
647.3963582703609
 21
1532.22675361906
 31
0.0
  0
LINE
  5
7D
330
4A
100
AcDbEntity
  8
SL816802-W-112
  6
Continuous
 62
     7
100
AcDbLine
 10
647.3963582703609
 20
1532.22675361906
 30
0.0
 11
665.311248606165
 21
1535.62906219802
 31
0.0
  0
LINE
  5
7E
330
4A
100
AcDbEntity
  8
SL816802-W-112
  6
Continuous
 62
     7
100
AcDbLine
 10
665.311248606165
 20
1535.62906219802
 30
0.0
 11
682.4848538325859
 21
1540.00674592091
 31
0.0
  0
LINE
  5
7F
330
4A
100
AcDbEntity
  8
SL816802-W-112
  6
Continuous
 62
     7
100
AcDbLine
 10
682.4848538325859
 20
1540.00674592091
 30
0.0
 11
698.5430300482622
 21
1545.35080132486
 31
0.0
  0
LINE
  5
80
330
4A
100
AcDbEntity
  8
SL816802-W-112
  6
Continuous
 62
     7
100
AcDbLine
 10
698.5430300482622
 20
1545.35080132486
 30
0.0
 11
712.928562940202
 21
1551.8873153663
 31
0.0
  0
LINE
  5
81
330
4A
100
AcDbEntity
  8
SL816802-W-112
  6
Continuous
 62
     7
100
AcDbLine
 10
712.928562940202
 20
1551.8873153663
 30
0.0
 11
725.1252539706979
 21
1559.87638808362
 31
0.0
  0
LINE
  5
82
330
4A
100
AcDbEntity
  8
SL816802-W-112
  6
Continuous
 62
     7
100
AcDbLine
 10
725.1252539706979
 20
1559.87638808362
 30
0.0
 11
734.7459542364691
 21
1569.48408334747
 31
0.0
  0
LINE
  5
83
330
4A
100
AcDbEntity
  8
SL816802-W-112
  6
Continuous
 62
     7
100
AcDbLine
 10
734.7459542364691
 20
1569.48408334747
 30
0.0
 11
741.594588323967
 21
1580.67338692163
 31
0.0
  0
LINE
  5
84
330
4A
100
AcDbEntity
  8
SL816802-W-112
  6
Continuous
 62
     7
100
AcDbLine
 10
741.594588323967
 20
1580.67338692163
 30
0.0
 11
745.7982050980931
 21
1593.05815028757
 31
0.0
  0
LINE
  5
85
330
4A
100
AcDbEntity
  8
SL816802-W-112
  6
Continuous
 62
     7
100
AcDbLine
 10
745.7982050980931
 20
1593.05815028757
 30
0.0
 11
747.5138649666378
 21
1606.02513758557
 31
0.0
  0
LINE
  5
86
330
4A
100
AcDbEntity
  8
SL816802-W-112
  6
Continuous
 62
     7
100
AcDbLine
 10
747.5138649666378
 20
1606.02513758557
 30
0.0
 11
746.8005906306189
 21
1618.91709602635
 31
0.0
  0
LINE
  5
87
330
4A
100
AcDbEntity
  8
SL816802-W-112
  6
Continuous
 62
     7
100
AcDbLine
 10
746.8005906306189
 20
1618.91709602635
 30
0.0
 11
743.53633514895
 21
1630.99274050053
 31
0.0
  0
LINE
  5
88
330
4A
100
AcDbEntity
  8
SL816802-W-112
  6
Continuous
 62
     7
100
AcDbLine
 10
743.53633514895
 20
1630.99274050053
 30
0.0
 11
737.3999750127077
 21
1641.67284823031
 31
0.0
  0
LINE
  5
89
330
4A
100
AcDbEntity
  8
SL816802-W-112
  6
Continuous
 62
     7
100
AcDbLine
 10
737.3999750127077
 20
1641.67284823031
 30
0.0
 11
728.0593824805769
 21
1650.69531840781
 31
0.0
  0
LINE
  5
8A
330
4A
100
AcDbEntity
  8
SL816802-W-112
  6
Continuous
 62
     7
100
AcDbLine
 10
728.0593824805769
 20
1650.69531840781
 30
0.0
 11
715.304476752327
 21
1658.0361417987
 31
0.0
  0
LINE
  5
8B
330
4A
100
AcDbEntity
  8
SL816802-W-112
  6
Continuous
 62
     7
100
AcDbLine
 10
715.304476752327
 20
1658.0361417987
 30
0.0
 11
699.108247439357
 21
1663.88639189273
 31
0.0
  0
LINE
  5
8C
330
4A
100
AcDbEntity
  8
SL816802-W-112
  6
Continuous
 62
     7
100
AcDbLine
 10
699.108247439357
 20
1663.88639189273
 30
0.0
 11
679.8078242067982
 21
1668.54218257973
 31
0.0
  0
LINE
  5
8D
330
4A
100
AcDbEntity
  8
SL816802-W-112
  6
Continuous
 62
     7
100
AcDbLine
 10
679.8078242067982
 20
1668.54218257973
 30
0.0
 11
658.0734648458601
 21
1672.22259812281
 31
0.0
  0
LINE
  5
8E
330
4A
100
AcDbEntity
  8
SL816802-W-112
  6
Continuous
 62
     7
100
AcDbLine
 10
658.0734648458601
 20
1672.22259812281
 30
0.0
 11
634.653457159267
 21
1675.04868507828
 31
0.0
  0
LINE
  5
8F
330
4A
100
AcDbEntity
  8
SL816802-W-112
  6
Continuous
 62
     7
100
AcDbLine
 10
634.653457159267
 20
1675.04868507828
 30
0.0
 11
610.4191362755919
 21
1677.04745383476
 31
0.0
  0
LINE
  5
90
330
4A
100
AcDbEntity
  8
SL816802-W-112
  6
Continuous
 62
     7
100
AcDbLine
 10
610.4191362755919
 20
1677.04745383476
 30
0.0
 11
586.1397980775819
 21
1678.13987399595
 31
0.0
  0
LINE
  5
91
330
4A
100
AcDbEntity
  8
SL816802-W-112
  6
Continuous
 62
     7
100
AcDbLine
 10
661.563807283967
 20
1783.4763880008
 30
0.0
 11
621.3103251903731
 21
1788.28523755654
 31
0.0
  0
LINE
  5
92
330
4A
100
AcDbEntity
  8
SL816802-W-112
  6
Continuous
 62
     7
100
AcDbLine
 10
700.5387976504471
 20
1776.76680739536
 30
0.0
 11
661.563807283967
 21
1783.4763880008
 31
0.0
  0
LINE
  5
93
330
4A
100
AcDbEntity
  8
SL816802-W-112
  6
Continuous
 62
     7
100
AcDbLine
 10
736.9247922502827
 20
1768.09547226967
 30
0.0
 11
700.5387976504471
 21
1776.76680739536
 31
0.0
  0
LINE
  5
94
330
4A
100
AcDbEntity
  8
SL816802-W-112
  6
Continuous
 62
     7
100
AcDbLine
 10
769.5863543774699
 20
1757.2392968216
 30
0.0
 11
736.9247922502827
 21
1768.09547226967
 31
0.0
  0
LINE
  5
95
330
4A
100
AcDbEntity
  8
SL816802-W-112
  6
Continuous
 62
     7
100
AcDbLine
 10
797.405053866974
 20
1743.7150952106
 30
0.0
 11
769.5863543774699
 21
1757.2392968216
 31
0.0
  0
LINE
  5
96
330
4A
100
AcDbEntity
  8
SL816802-W-112
  6
Continuous
 62
     7
100
AcDbLine
 10
819.8156733277001
 20
1726.85561079976
 30
0.0
 11
797.405053866974
 21
1743.7150952106
 31
0.0
  0
LINE
  5
97
330
4A
100
AcDbEntity
  8
SL816802-W-112
  6
Continuous
 62
     7
100
AcDbLine
 10
836.7601904433941
 20
1706.23568006481
 30
0.0
 11
819.8156733277001
 21
1726.85561079976
 31
0.0
  0
LINE
  5
98
330
4A
100
AcDbEntity
  8
SL816802-W-112
  6
Continuous
 62
     7
100
AcDbLine
 10
848.4566890923898
 20
1681.67923528745
 30
0.0
 11
836.7601904433941
 21
1706.23568006481
 31
0.0
  0
LINE
  5
99
330
4A
100
AcDbEntity
  8
SL816802-W-112
  6
Continuous
 62
     7
100
AcDbLine
 10
855.4413755076557
 20
1653.63744999579
 30
0.0
 11
848.4566890923898
 21
1681.67923528745
 31
0.0
  0
LINE
  5
9A
330
4A
100
AcDbEntity
  8
SL816802-W-112
  6
Continuous
 62
     7
100
AcDbLine
 10
858.2184436097441
 20
1623.28377551685
 30
0.0
 11
855.4413755076557
 21
1653.63744999579
 31
0.0
  0
LINE
  5
9B
330
4A
100
AcDbEntity
  8
SL816802-W-112
  6
Continuous
 62
     7
100
AcDbLine
 10
857.0649999780048
 20
1591.92271358156
 30
0.0
 11
858.2184436097441
 21
1623.28377551685
 31
0.0
  0
LINE
  5
9C
330
4A
100
AcDbEntity
  8
SL816802-W-112
  6
Continuous
 62
     7
100
AcDbLine
 10
852.0640765477679
 20
1561.21290212699
 30
0.0
 11
857.0649999780048
 21
1591.92271358156
 31
0.0
  0
LINE
  5
9D
330
4A
100
AcDbEntity
  8
SL816802-W-112
  6
Continuous
 62
     7
100
AcDbLine
 10
842.9595748197053
 20
1532.73194792438
 30
0.0
 11
852.0640765477679
 21
1561.21290212699
 31
0.0
  0
LINE
  5
9E
330
4A
100
AcDbEntity
  8
SL816802-W-112
  6
Continuous
 62
     7
100
AcDbLine
 10
829.5354116850081
 20
1507.46723073481
 30
0.0
 11
842.9595748197053
 21
1532.73194792438
 31
0.0
  0
LINE
  5
9F
330
4A
100
AcDbEntity
  8
SL816802-W-112
  6
Continuous
 62
     7
100
AcDbLine
 10
811.7735802179432
 20
1485.94195178934
 30
0.0
 11
829.5354116850081
 21
1507.46723073481
 31
0.0
  0
LINE
  5
A0
330
4A
100
AcDbEntity
  8
SL816802-W-112
  6
Continuous
 62
     7
100
AcDbLine
 10
790.070232784658
 20
1468.10008954124
 30
0.0
 11
811.7735802179432
 21
1485.94195178934
 31
0.0
  0
LINE
  5
A1
330
4A
100
AcDbEntity
  8
SL816802-W-112
  6
Continuous
 62
     7
100
AcDbLine
 10
765.2196748869751
 20
1453.34541467175
 30
0.0
 11
790.070232784658
 21
1468.10008954124
 31
0.0
  0
LINE
  5
A2
330
4A
100
AcDbEntity
  8
SL816802-W-112
  6
Continuous
 62
     7
100
AcDbLine
 10
737.9721950971439
 20
1441.17273287556
 30
0.0
 11
765.2196748869751
 21
1453.34541467175
 31
0.0
  0
LINE
  5
A3
330
4A
100
AcDbEntity
  8
SL816802-W-112
  6
Continuous
 62
     7
100
AcDbLine
 10
709.1000904522011
 20
1431.1868921713
 30
0.0
 11
737.9721950971439
 21
1441.17273287556
 31
0.0
  0
LINE
  5
A4
330
4A
100
AcDbEntity
  8
SL816802-W-112
  6
Continuous
 62
     7
100
AcDbLine
 10
679.1365660308247
 20
1423.45791949236
 30
0.0
 11
709.1000904522011
 21
1431.1868921713
 31
0.0
  0
LINE
  5
A5
330
4A
100
AcDbEntity
  8
SL816802-W-112
  6
Continuous
 62
     7
100
AcDbLine
 10
647.3783513446269
 20
1417.97881214541
 30
0.0
 11
679.1365660308247
 21
1423.45791949236
 31
0.0
  0
LINE
  5
A6
330
4A
100
AcDbEntity
  8
SL816802-W-112
  6
Continuous
 62
     7
100
AcDbLine
 10
614.234603761674
 20
1414.42944700629
 30
0.0
 11
647.3783513446269
 21
1417.97881214541
 31
0.0
  0
LINE
  5
A7
330
4A
100
AcDbEntity
  8
SL816802-W-112
  6
Continuous
 62
     7
100
AcDbLine
 10
583.3787361317018
 20
1412.11755781899
 30
0.0
 11
614.234603761674
 21
1414.42944700629
 31
0.0
  0
LINE
  5
A8
330
4A
100
AcDbEntity
  8
SL816802-W-112
  6
Continuous
 62
     7
100
AcDbLine
 10
527.2701559293209
 20
1411.11517228647
 30
0.0
 11
583.3787361317018
 21
1412.11755781899
 31
0.0
  0
LINE
  5
A9
330
4A
100
AcDbEntity
  8
SL816802-W-112
  6
Continuous
 62
     7
100
AcDbLine
 10
492.7238689086421
 20
1412.39366401358
 30
0.0
 11
527.2701559293209
 21
1411.11517228647
 31
0.0
  0
LINE
  5
AA
330
4A
100
AcDbEntity
  8
SL816802-W-112
  6
Continuous
 62
     7
100
AcDbLine
 10
459.8292171316762
 20
1416.51725000667
 30
0.0
 11
492.7238689086421
 21
1412.39366401358
 31
0.0
  0
LINE
  5
AB
330
4A
100
AcDbEntity
  8
SL816802-W-112
  6
Continuous
 62
     7
100
AcDbLine
 10
429.546569970903
 20
1424.51732695638
 30
0.0
 11
459.8292171316762
 21
1416.51725000667
 31
0.0
  0
LINE
  5
AC
330
4A
100
AcDbEntity
  8
SL816802-W-112
  6
Continuous
 62
     7
100
AcDbLine
 10
402.0399905274549
 20
1437.25322537413
 30
0.0
 11
429.546569970903
 21
1424.51732695638
 31
0.0
  0
LINE
  5
AD
330
4A
100
AcDbEntity
  8
SL816802-W-112
  6
Continuous
 62
     7
100
AcDbLine
 10
378.8040536372541
 20
1455.40120535971
 30
0.0
 11
402.0399905274549
 21
1437.25322537413
 31
0.0
  0
LINE
  5
AE
330
4A
100
AcDbEntity
  8
SL816802-W-112
  6
Continuous
 62
     7
100
AcDbLine
 10
360.690086733613
 20
1478.84122074157
 30
0.0
 11
378.8040536372541
 21
1455.40120535971
 31
0.0
  0
LINE
  5
AF
330
4A
100
AcDbEntity
  8
SL816802-W-112
  6
Continuous
 62
     7
100
AcDbLine
 10
348.056227561686
 20
1506.97404104665
 30
0.0
 11
360.690086733613
 21
1478.84122074157
 31
0.0
  0
LINE
  5
B0
330
4A
100
AcDbEntity
  8
SL816802-W-112
  6
Continuous
 62
     7
100
AcDbLine
 10
340.7264084031849
 20
1538.49916608307
 30
0.0
 11
348.056227561686
 21
1506.97404104665
 31
0.0
  0
LINE
  5
B1
330
4A
100
AcDbEntity
  8
SL816802-W-112
  6
Continuous
 62
     7
100
AcDbLine
 10
338.2184438023439
 20
1572.11709604369
 30
0.0
 11
340.7264084031849
 21
1538.49916608307
 31
0.0
  0
LINE
  5
B2
330
4A
100
AcDbEntity
  8
SL816802-W-112
  6
Continuous
 62
     7
100
AcDbLine
 10
340.037143301478
 20
1606.80643808547
 30
0.0
 11
338.2184438023439
 21
1572.11709604369
 31
0.0
  0
LINE
  5
B3
330
4A
100
AcDbEntity
  8
SL816802-W-112
  6
Continuous
 62
     7
100
AcDbLine
 10
345.7173279857921
 20
1641.51178628347
 30
0.0
 11
340.037143301478
 21
1606.80643808547
 31
0.0
  0
LINE
  5
B4
330
4A
100
AcDbEntity
  8
SL816802-W-112
  6
Continuous
 62
     7
100
AcDbLine
 10
355.0889324455761
 20
1674.96665352772
 30
0.0
 11
345.7173279857921
 21
1641.51178628347
 31
0.0
  0
LINE
  5
B5
330
4A
100
AcDbEntity
  8
SL816802-W-112
  6
Continuous
 62
     7
100
AcDbLine
 10
368.481083267857
 20
1705.73148614426
 30
0.0
 11
355.0889324455761
 21
1674.96665352772
 31
0.0
  0
LINE
  5
B6
330
4A
100
AcDbEntity
  8
SL816802-W-112
  6
Continuous
 62
     7
100
AcDbLine
 10
436.4842383023079
 20
1770.85553383079
 30
0.0
 11
408.9796596283859
 21
1754.47023179762
 31
0.0
  0
LINE
  5
B7
330
4A
100
AcDbEntity
  8
SL816802-W-112
  6
Continuous
 62
     7
100
AcDbLine
 10
468.2744653009222
 20
1782.0218285554
 30
0.0
 11
436.4842383023079
 21
1770.85553383079
 31
0.0
  0
LINE
  5
B8
330
4A
100
AcDbEntity
  8
SL816802-W-112
  6
Continuous
 62
     7
100
AcDbLine
 10
503.6070547453192
 20
1788.5243295149
 30
0.0
 11
468.2744653009222
 21
1782.0218285554
 31
0.0
  0
LINE
  5
B9
330
4A
100
AcDbEntity
  8
SL816802-W-112
  6
Continuous
 62
     7
100
AcDbLine
 10
661.563807283967
 20
1783.4763880008
 30
0.0
 11
621.3103251903731
 21
1788.28523755654
 31
0.0
  0
LINE
  5
BA
330
4A
100
AcDbEntity
  8
SL816802-W-112
  6
Continuous
 62
     7
100
AcDbLine
 10
700.5387976504471
 20
1776.76680739536
 30
0.0
 11
661.563807283967
 21
1783.4763880008
 31
0.0
  0
LINE
  5
BB
330
4A
100
AcDbEntity
  8
SL816802-W-112
  6
Continuous
 62
     7
100
AcDbLine
 10
736.9247922502827
 20
1768.09547226967
 30
0.0
 11
700.5387976504471
 21
1776.76680739536
 31
0.0
  0
LINE
  5
BC
330
4A
100
AcDbEntity
  8
SL816802-W-112
  6
Continuous
 62
     7
100
AcDbLine
 10
769.5863543774699
 20
1757.2392968216
 30
0.0
 11
736.9247922502827
 21
1768.09547226967
 31
0.0
  0
LINE
  5
BD
330
4A
100
AcDbEntity
  8
SL816802-W-112
  6
Continuous
 62
     7
100
AcDbLine
 10
797.405053866974
 20
1743.7150952106
 30
0.0
 11
769.5863543774699
 21
1757.2392968216
 31
0.0
  0
LINE
  5
BE
330
4A
100
AcDbEntity
  8
SL816802-W-112
  6
Continuous
 62
     7
100
AcDbLine
 10
819.8156733277001
 20
1726.85561079976
 30
0.0
 11
797.405053866974
 21
1743.7150952106
 31
0.0
  0
LINE
  5
BF
330
4A
100
AcDbEntity
  8
SL816802-W-112
  6
Continuous
 62
     7
100
AcDbLine
 10
836.7601904433941
 20
1706.23568006481
 30
0.0
 11
819.8156733277001
 21
1726.85561079976
 31
0.0
  0
LINE
  5
C0
330
4A
100
AcDbEntity
  8
SL816802-W-112
  6
Continuous
 62
     7
100
AcDbLine
 10
848.4566890923898
 20
1681.67923528745
 30
0.0
 11
836.7601904433941
 21
1706.23568006481
 31
0.0
  0
LINE
  5
C1
330
4A
100
AcDbEntity
  8
SL816802-W-112
  6
Continuous
 62
     7
100
AcDbLine
 10
855.4413755076557
 20
1653.63744999579
 30
0.0
 11
848.4566890923898
 21
1681.67923528745
 31
0.0
  0
LINE
  5
C2
330
4A
100
AcDbEntity
  8
SL816802-W-112
  6
Continuous
 62
     7
100
AcDbLine
 10
858.2184436097441
 20
1623.28377551685
 30
0.0
 11
855.4413755076557
 21
1653.63744999579
 31
0.0
  0
LINE
  5
C3
330
4A
100
AcDbEntity
  8
SL816802-W-112
  6
Continuous
 62
     7
100
AcDbLine
 10
857.0649999780048
 20
1591.92271358156
 30
0.0
 11
858.2184436097441
 21
1623.28377551685
 31
0.0
  0
LINE
  5
C4
330
4A
100
AcDbEntity
  8
SL816802-W-112
  6
Continuous
 62
     7
100
AcDbLine
 10
852.0640765477679
 20
1561.21290212699
 30
0.0
 11
857.0649999780048
 21
1591.92271358156
 31
0.0
  0
LINE
  5
C5
330
4A
100
AcDbEntity
  8
SL816802-W-112
  6
Continuous
 62
     7
100
AcDbLine
 10
842.9595748197053
 20
1532.73194792438
 30
0.0
 11
852.0640765477679
 21
1561.21290212699
 31
0.0
  0
LINE
  5
C6
330
4A
100
AcDbEntity
  8
SL816802-W-112
  6
Continuous
 62
     7
100
AcDbLine
 10
829.5354116850081
 20
1507.46723073481
 30
0.0
 11
842.9595748197053
 21
1532.73194792438
 31
0.0
  0
LINE
  5
C7
330
4A
100
AcDbEntity
  8
SL816802-W-112
  6
Continuous
 62
     7
100
AcDbLine
 10
811.7735802179432
 20
1485.94195178934
 30
0.0
 11
829.5354116850081
 21
1507.46723073481
 31
0.0
  0
LINE
  5
C8
330
4A
100
AcDbEntity
  8
SL816802-W-112
  6
Continuous
 62
     7
100
AcDbLine
 10
790.070232784658
 20
1468.10008954124
 30
0.0
 11
811.7735802179432
 21
1485.94195178934
 31
0.0
  0
LINE
  5
C9
330
4A
100
AcDbEntity
  8
SL816802-W-112
  6
Continuous
 62
     7
100
AcDbLine
 10
765.2196748869751
 20
1453.34541467175
 30
0.0
 11
790.070232784658
 21
1468.10008954124
 31
0.0
  0
LINE
  5
CA
330
4A
100
AcDbEntity
  8
SL816802-W-112
  6
Continuous
 62
     7
100
AcDbLine
 10
737.9721950971439
 20
1441.17273287556
 30
0.0
 11
765.2196748869751
 21
1453.34541467175
 31
0.0
  0
LINE
  5
CB
330
4A
100
AcDbEntity
  8
SL816802-W-112
  6
Continuous
 62
     7
100
AcDbLine
 10
709.1000904522011
 20
1431.1868921713
 30
0.0
 11
737.9721950971439
 21
1441.17273287556
 31
0.0
  0
LINE
  5
CC
330
4A
100
AcDbEntity
  8
SL816802-W-112
  6
Continuous
 62
     7
100
AcDbLine
 10
679.1365660308247
 20
1423.45791949236
 30
0.0
 11
709.1000904522011
 21
1431.1868921713
 31
0.0
  0
LINE
  5
CD
330
4A
100
AcDbEntity
  8
SL816802-W-112
  6
Continuous
 62
     7
100
AcDbLine
 10
647.3783513446269
 20
1417.97881214541
 30
0.0
 11
679.1365660308247
 21
1423.45791949236
 31
0.0
  0
LINE
  5
CE
330
4A
100
AcDbEntity
  8
SL816802-W-112
  6
Continuous
 62
     7
100
AcDbLine
 10
614.234603761674
 20
1414.42944700629
 30
0.0
 11
647.3783513446269
 21
1417.97881214541
 31
0.0
  0
LINE
  5
CF
330
4A
100
AcDbEntity
  8
SL816802-W-112
  6
Continuous
 62
     7
100
AcDbLine
 10
583.3787361317018
 20
1412.11755781899
 30
0.0
 11
614.234603761674
 21
1414.42944700629
 31
0.0
  0
LINE
  5
D0
330
4A
100
AcDbEntity
  8
SL816802-W-112
  6
Continuous
 62
     7
100
AcDbLine
 10
527.2701559293209
 20
1411.11517228647
 30
0.0
 11
583.3787361317018
 21
1412.11755781899
 31
0.0
  0
LINE
  5
D1
330
4A
100
AcDbEntity
  8
SL816802-W-112
  6
Continuous
 62
     7
100
AcDbLine
 10
492.7238689086421
 20
1412.39366401358
 30
0.0
 11
527.2701559293209
 21
1411.11517228647
 31
0.0
  0
LINE
  5
D2
330
4A
100
AcDbEntity
  8
SL816802-W-112
  6
Continuous
 62
     7
100
AcDbLine
 10
459.8292171316762
 20
1416.51725000667
 30
0.0
 11
492.7238689086421
 21
1412.39366401358
 31
0.0
  0
LINE
  5
D3
330
4A
100
AcDbEntity
  8
SL816802-W-112
  6
Continuous
 62
     7
100
AcDbLine
 10
429.546569970903
 20
1424.51732695638
 30
0.0
 11
459.8292171316762
 21
1416.51725000667
 31
0.0
  0
LINE
  5
D4
330
4A
100
AcDbEntity
  8
SL816802-W-112
  6
Continuous
 62
     7
100
AcDbLine
 10
402.0399905274549
 20
1437.25322537413
 30
0.0
 11
429.546569970903
 21
1424.51732695638
 31
0.0
  0
LINE
  5
D5
330
4A
100
AcDbEntity
  8
SL816802-W-112
  6
Continuous
 62
     7
100
AcDbLine
 10
378.8040536372541
 20
1455.40120535971
 30
0.0
 11
402.0399905274549
 21
1437.25322537413
 31
0.0
  0
LINE
  5
D6
330
4A
100
AcDbEntity
  8
SL816802-W-112
  6
Continuous
 62
     7
100
AcDbLine
 10
360.690086733613
 20
1478.84122074157
 30
0.0
 11
378.8040536372541
 21
1455.40120535971
 31
0.0
  0
LINE
  5
D7
330
4A
100
AcDbEntity
  8
SL816802-W-112
  6
Continuous
 62
     7
100
AcDbLine
 10
348.056227561686
 20
1506.97404104665
 30
0.0
 11
360.690086733613
 21
1478.84122074157
 31
0.0
  0
LINE
  5
D8
330
4A
100
AcDbEntity
  8
SL816802-W-112
  6
Continuous
 62
     7
100
AcDbLine
 10
340.7264084031849
 20
1538.49916608307
 30
0.0
 11
348.056227561686
 21
1506.97404104665
 31
0.0
  0
LINE
  5
D9
330
4A
100
AcDbEntity
  8
SL816802-W-112
  6
Continuous
 62
     7
100
AcDbLine
 10
340.037143301478
 20
1606.80643808547
 30
0.0
 11
338.2184438023439
 21
1572.11709604369
 31
0.0
  0
LINE
  5
DA
330
4A
100
AcDbEntity
  8
SL816802-W-112
  6
Continuous
 62
     7
100
AcDbLine
 10
345.7173279857921
 20
1641.51178628347
 30
0.0
 11
340.037143301478
 21
1606.80643808547
 31
0.0
  0
LINE
  5
DB
330
4A
100
AcDbEntity
  8
SL816802-W-112
  6
Continuous
 62
     7
100
AcDbLine
 10
355.0889324455761
 20
1674.96665352772
 30
0.0
 11
345.7173279857921
 21
1641.51178628347
 31
0.0
  0
LINE
  5
DC
330
4A
100
AcDbEntity
  8
SL816802-W-112
  6
Continuous
 62
     7
100
AcDbLine
 10
368.481083267857
 20
1705.73148614426
 30
0.0
 11
355.0889324455761
 21
1674.96665352772
 31
0.0
  0
LINE
  5
DD
330
4A
100
AcDbEntity
  8
SL816802-W-112
  6
Continuous
 62
     7
100
AcDbLine
 10
436.4842383023079
 20
1770.85553383079
 30
0.0
 11
408.9796596283859
 21
1754.47023179762
 31
0.0
  0
LINE
  5
DE
330
4A
100
AcDbEntity
  8
SL816802-W-112
  6
Continuous
 62
     7
100
AcDbLine
 10
468.2744653009222
 20
1782.0218285554
 30
0.0
 11
436.4842383023079
 21
1770.85553383079
 31
0.0
  0
LINE
  5
DF
330
4A
100
AcDbEntity
  8
SL816802-W-112
  6
Continuous
 62
     7
100
AcDbLine
 10
503.6070547453192
 20
1788.5243295149
 30
0.0
 11
468.2744653009222
 21
1782.0218285554
 31
0.0
  0
LINE
  5
E0
330
4A
100
AcDbEntity
  8
SL816802-W-112
  6
Continuous
 62
     7
100
AcDbLine
 10
1474.17816664637
 20
1056.272712928972
 30
0.0
 11
1471.16700850974
 21
1058.19945398251
 31
0.0
  0
LINE
  5
E1
330
4A
100
AcDbEntity
  8
SL816802-W-112
  6
Continuous
 62
     7
100
AcDbLine
 10
1471.16700850974
 20
1058.19945398251
 30
0.0
 11
1101.05865928169
 21
1058.19945398251
 31
0.0
  0
LINE
  5
E2
330
4A
100
AcDbEntity
  8
SL816802-W-112
  6
Continuous
 62
     7
100
AcDbLine
 10
1101.05865928169
 20
1058.19945398251
 30
0.0
 11
1098.04750114505
 21
1056.272712928972
 31
0.0
  0
LINE
  5
E3
330
4A
100
AcDbEntity
  8
SL816802-W-112
  6
Continuous
 62
     7
100
AcDbLine
 10
1474.9074471386
 20
1053.382601348665
 30
0.0
 11
1476.18593886571
 21
1053.382601348665
 31
0.0
  0
LINE
  5
E4
330
4A
100
AcDbEntity
  8
SL816802-W-112
  6
Continuous
 62
     7
100
AcDbLine
 10
1476.18593886571
 20
1053.382601348665
 30
0.0
 11
1474.17816664637
 21
1056.272712928972
 31
0.0
  0
LINE
  5
E5
330
4A
100
AcDbEntity
  8
SL816802-W-112
  6
Continuous
 62
     7
100
AcDbLine
 10
1098.04750114505
 20
1056.272712928972
 30
0.0
 11
1096.03972892571
 21
1053.382601348665
 31
0.0
  0
LINE
  5
E6
330
4A
100
AcDbEntity
  8
SL816802-W-112
  6
Continuous
 62
     7
100
AcDbLine
 10
1147.38747804098
 20
974.105110035204
 30
0.0
 11
1168.35154113441
 21
950.346972298717
 31
0.0
  0
LINE
  5
E7
330
4A
100
AcDbEntity
  8
SL816802-W-112
  6
Continuous
 62
     7
100
AcDbLine
 10
1128.32114484296
 20
999.290796828491
 30
0.0
 11
1147.38747804098
 21
974.105110035204
 31
0.0
  0
LINE
  5
E8
330
4A
100
AcDbEntity
  8
SL816802-W-112
  6
Continuous
 62
     7
100
AcDbLine
 10
1111.25658155571
 20
1025.765979581287
 30
0.0
 11
1128.32114484296
 21
999.290796828491
 31
0.0
  0
LINE
  5
E9
330
4A
100
AcDbEntity
  8
SL816802-W-112
  6
Continuous
 62
     7
100
AcDbLine
 10
1103.52060618343
 20
1040.040469764534
 30
0.0
 11
1111.25658155571
 21
1025.765979581287
 31
0.0
  0
LINE
  5
EA
330
4A
100
AcDbEntity
  8
SL816802-W-112
  6
Continuous
 62
     7
100
AcDbLine
 10
1424.16192965066
 20
974.05709156658
 30
0.0
 11
1443.2222605401
 21
999.245779514157
 31
0.0
  0
LINE
  5
EB
330
4A
100
AcDbEntity
  8
SL816802-W-112
  6
Continuous
 62
     7
100
AcDbLine
 10
1381.32745486853
 20
928.14943479251
 30
0.0
 11
1403.41995197462
 21
950.286949212937
 31
0.0
  0
LINE
  5
EC
330
4A
100
AcDbEntity
  8
SL816802-W-112
  6
Continuous
 62
     7
100
AcDbLine
 10
1403.41995197462
 20
950.286949212937
 30
0.0
 11
1424.04288386387
 21
974.019076945586
 31
0.0
  0
LINE
  5
ED
330
4A
100
AcDbEntity
  8
SL816802-W-112
  6
Continuous
 62
     7
100
AcDbLine
 10
1443.2222605401
 20
999.245779514157
 30
0.0
 11
1460.50790885998
 21
1025.715960343137
 31
0.0
  0
LINE
  5
EE
330
4A
100
AcDbEntity
  8
SL816802-W-112
  6
Continuous
 62
     7
100
AcDbLine
 10
1460.50790885998
 20
1025.715960343137
 30
0.0
 11
1476.18593886571
 21
1053.382601348665
 31
0.0
  0
LINE
  5
EF
330
4A
100
AcDbEntity
  8
SL816802-W-112
  6
Continuous
 62
     7
100
AcDbLine
 10
1096.03972892571
 20
1053.382601348665
 30
0.0
 11
1476.18593886571
 21
1053.382601348665
 31
0.0
  0
LINE
  5
F0
330
4A
100
AcDbEntity
  8
SL816802-W-112
  6
Continuous
 62
     7
100
AcDbLine
 10
1190.88820907527
 20
928.14943479251
 30
0.0
 11
1168.35154113441
 21
950.346972298717
 31
0.0
  0
LINE
  5
F1
330
4A
100
AcDbEntity
  8
SL816802-W-112
  6
Continuous
 62
     7
100
AcDbLine
 10
1103.52060618343
 20
1040.040469764534
 30
0.0
 11
1096.03972892571
 21
1053.382601348665
 31
0.0
  0
LINE
  5
F2
330
4A
100
AcDbEntity
  8
SL816802-W-112
  6
Continuous
 62
     7
100
AcDbLine
 10
408.9796596283859
 20
1754.47023179762
 30
0.0
 11
386.2979358968869
 21
1732.61582626512
 31
0.0
  0
LINE
  5
F3
330
4A
100
AcDbEntity
  8
SL816802-W-112
  6
Continuous
 62
     7
100
AcDbLine
 10
386.2979358968869
 20
1732.61582626512
 30
0.0
 11
368.481083267857
 21
1705.73148614426
 31
0.0
  0
LINE
  5
F4
330
4A
100
AcDbEntity
  8
SL816802-W-112
  6
Continuous
 62
     7
100
AcDbLine
 10
408.9796596283859
 20
1754.47023179762
 30
0.0
 11
386.2979358968869
 21
1732.61582626512
 31
0.0
  0
LINE
  5
F5
330
4A
100
AcDbEntity
  8
SL816802-W-112
  6
Continuous
 62
     7
100
AcDbLine
 10
386.2979358968869
 20
1732.61582626512
 30
0.0
 11
368.481083267857
 21
1705.73148614426
 31
0.0
  0
ARC
  5
F6
330
4A
100
AcDbEntity
  8
WAKU
  6
Continuous
 62
     7
100
AcDbCircle
 10
465.9085477964181
 20
1251.6743594252
 30
0.0
 40
439.5755630993891
100
AcDbArc
 50
312.6087354125982
 51
333.1858329530149
  0
ARC
  5
F7
330
4A
100
AcDbEntity
  8
WAKU
  6
Continuous
 62
     7
100
AcDbCircle
 10
730.5283396156701
 20
1251.6743594252
 30
0.0
 40
439.5755630991992
100
AcDbArc
 50
206.8141670469976
 51
227.3912645873946
  0
ARC
  5
F8
330
4A
100
AcDbEntity
  8
_U_30EC_U_30A4_U_30E4_U_30
  6
PHANTOM
 62
     5
100
AcDbCircle
 10
541.6034829168361
 20
951.199453981285
 30
0.0
 40
3.0
100
AcDbArc
 50
270.0
 51
357.0082946164833
  0
ARC
  5
F9
330
4A
100
AcDbEntity
  8
WAKU
  6
PHANTOM
 62
     5
100
AcDbCircle
 10
549.8532116446481
 20
955.74083214899
 30
0.0
 40
5.0
100
AcDbArc
 50
90.0
 51
176.9914010687488
  0
ARC
  5
FA
330
4A
100
AcDbEntity
  8
_U_30EC_U_30A4_U_30E4_U_30
  6
PHANTOM
 62
     5
100
AcDbCircle
 10
477.3997697505029
 20
951.199453981285
 30
0.0
 40
3.000000000027164
100
AcDbArc
 50
182.9917053835165
 51
270.0
  0
ARC
  5
FB
330
4A
100
AcDbEntity
  8
WAKU
  6
PHANTOM
 62
     5
100
AcDbCircle
 10
469.1500410226918
 20
955.74083214899
 30
0.0
 40
4.999999999990861
100
AcDbArc
 50
3.00859893125134
 51
90.0
  0
ARC
  5
FC
330
4A
100
AcDbEntity
  8
_U_30EC_U_30A4_U_30E4_U_30
  6
PHANTOM
 62
     5
100
AcDbCircle
 10
1301.64760498102
 20
951.19945398251
 30
0.0
 40
3.0
100
AcDbArc
 50
270.0
 51
357.0082946164833
  0
ARC
  5
FD
330
4A
100
AcDbEntity
  8
WAKU
  6
PHANTOM
 62
     5
100
AcDbCircle
 10
1309.90512194607
 20
955.889015050957
 30
0.0
 40
5.0
100
AcDbArc
 50
90.0
 51
176.9914010678751
  0
ARC
  5
FE
330
4A
100
AcDbEntity
  8
WAKU
  6
PHANTOM
 62
     5
100
AcDbCircle
 10
1229.18637484964
 20
955.889015050957
 30
0.0
 40
4.999999999967955
100
AcDbArc
 50
3.00859893238836
 51
90.0
  0
ARC
  5
FF
330
4A
100
AcDbEntity
  8
_U_30EC_U_30A4_U_30E4_U_30
  6
PHANTOM
 62
     5
100
AcDbCircle
 10
1237.44389181469
 20
951.19945398251
 30
0.0
 40
3.000000000027278
100
AcDbArc
 50
182.9917053835164
 51
270.0
  0
ARC
  5
100
330
4A
100
AcDbEntity
  8
WAKU
  6
Continuous
 62
     7
100
AcDbCircle
 10
506.9355943853311
 20
1594.2738273664
 30
0.0
 40
61.36402468182411
100
AcDbArc
 50
216.6937443692724
 51
230.5390972974251
  0
CIRCLE
  5
101
330
4A
100
AcDbEntity
  8
WAKU
  6
Continuous
 62
     7
100
AcDbCircle
 10
508.2184438017321
 20
1615.94151809263
 30
0.0
 40
37.78692412823096
  0
CIRCLE
  5
102
330
4A
100
AcDbEntity
  8
1
  6
Continuous
 62
     7
100
AcDbCircle
 10
509.5016263336702
 20
1615.941518093631
 30
0.0
 40
23.0
  0
ENDBLK
  5
4C
330
4A
100
AcDbEntity
  8
0
100
AcDbBlockEnd
  0
BLOCK
  5
4E
330
4D
100
AcDbEntity
  8
0
100
AcDbBlockBegin
  2
開示A4
 70
     0
 10
0.0
 20
0.0
 30
0.0
  3
開示A4
  1

  0
POINT
  5
103
330
4D
100
AcDbEntity
  8
1
 62
     4
100
AcDbPoint
 10
93.75
 20
17.0
 30
0.0
  0
POINT
  5
104
330
4D
100
AcDbEntity
  8
1
 62
     4
100
AcDbPoint
 10
85.25
 20
17.0
 30
0.0
  0
POINT
  5
105
330
4D
100
AcDbEntity
  8
1
 62
     4
100
AcDbPoint
 10
106.5
 20
19.00000000000001
 30
0.0
  0
POINT
  5
106
330
4D
100
AcDbEntity
  8
1
 62
     4
100
AcDbPoint
 10
106.5
 20
12.5
 30
0.0
  0
POINT
  5
107
330
4D
100
AcDbEntity
  8
1
 62
     4
100
AcDbPoint
 10
112.25
 20
12.5
 30
0.0
  0
POINT
  5
108
330
4D
100
AcDbEntity
  8
1
 62
     4
100
AcDbPoint
 10
100.75
 20
12.5
 30
0.0
  0
POINT
  5
109
330
4D
100
AcDbEntity
  8
1
 62
     4
100
AcDbPoint
 10
123.5
 20
19.00000000000001
 30
0.0
  0
POINT
  5
10A
330
4D
100
AcDbEntity
  8
1
 62
     4
100
AcDbPoint
 10
123.5
 20
12.5
 30
0.0
  0
POINT
  5
10B
330
4D
100
AcDbEntity
  8
1
 62
     4
100
AcDbPoint
 10
129.25
 20
12.5
 30
0.0
  0
POINT
  5
10C
330
4D
100
AcDbEntity
  8
1
 62
     4
100
AcDbPoint
 10
117.75
 20
12.5
 30
0.0
  0
POINT
  5
10D
330
4D
100
AcDbEntity
  8
1
 62
     4
100
AcDbPoint
 10
140.5
 20
19.00000000000001
 30
0.0
  0
POINT
  5
10E
330
4D
100
AcDbEntity
  8
1
 62
     4
100
AcDbPoint
 10
140.5
 20
12.5
 30
0.0
  0
POINT
  5
10F
330
4D
100
AcDbEntity
  8
1
 62
     4
100
AcDbPoint
 10
146.25
 20
12.5
 30
0.0
  0
POINT
  5
110
330
4D
100
AcDbEntity
  8
1
 62
     4
100
AcDbPoint
 10
134.75
 20
12.5
 30
0.0
  0
POINT
  5
111
330
4D
100
AcDbEntity
  8
1
 62
     4
100
AcDbPoint
 10
151.75
 20
12.5
 30
0.0
  0
POINT
  5
112
330
4D
100
AcDbEntity
  8
1
 62
     4
100
AcDbPoint
 10
163.25
 20
12.5
 30
0.0
  0
POINT
  5
113
330
4D
100
AcDbEntity
  8
1
 62
     4
100
AcDbPoint
 10
157.5
 20
12.5
 30
0.0
  0
POINT
  5
114
330
4D
100
AcDbEntity
  8
1
 62
     4
100
AcDbPoint
 10
57.0
 20
14.25
 30
0.0
  0
POINT
  5
115
330
4D
100
AcDbEntity
  8
1
 62
     4
100
AcDbPoint
 10
57.0
 20
22.75000000000001
 30
0.0
  0
POINT
  5
116
330
4D
100
AcDbEntity
  8
1
 62
     4
100
AcDbPoint
 10
47.5
 20
282.0000000000003
 30
0.0
  0
POINT
  5
117
330
4D
100
AcDbEntity
  8
1
 62
     4
100
AcDbPoint
 10
157.5
 20
19.00000000000001
 30
0.0
  0
POINT
  5
118
330
4D
100
AcDbEntity
  8
1
 62
     4
100
AcDbPoint
 10
57.0
 20
16.25
 30
0.0
  0
POINT
  5
119
330
4D
100
AcDbEntity
  8
1
 62
     4
100
AcDbPoint
 10
57.0
 20
24.75000000000001
 30
0.0
  0
POINT
  5
11A
330
4D
100
AcDbEntity
  8
1
 62
     4
100
AcDbPoint
 10
57.0
 20
20.75000000000001
 30
0.0
  0
POINT
  5
11B
330
4D
100
AcDbEntity
  8
1
 62
     4
100
AcDbPoint
 10
57.0
 20
12.25
 30
0.0
  0
POINT
  5
11C
330
4D
100
AcDbEntity
  8
1
 62
     4
100
AcDbPoint
 10
34.0
 20
34.00000000000001
 30
0.0
  0
LINE
  5
11D
330
4D
100
AcDbEntity
  8
1
  6
Continuous
 62
     7
100
AcDbLine
 10
105.0
 20
10.0
 30
0.0
 11
200.0
 21
10.0
 31
0.0
  0
LINE
  5
11E
330
4D
100
AcDbEntity
  8
1
  6
Continuous
 62
     2
100
AcDbLine
 10
105.0
 20
10.0
 30
0.0
 11
105.0
 21
5.0
 31
0.0
  0
LINE
  5
11F
330
4D
100
AcDbEntity
  8
1
  6
Continuous
 62
     7
100
AcDbLine
 10
200.0
 20
148.5
 30
0.0
 11
200.0
 21
287.0000000000003
 31
0.0
  0
LINE
  5
120
330
4D
100
AcDbEntity
  8
1
  6
Continuous
 62
     2
100
AcDbLine
 10
200.0
 20
148.5
 30
0.0
 11
205.0
 21
148.5
 31
0.0
  0
LINE
  5
121
330
4D
100
AcDbEntity
  8
1
  6
Continuous
 62
     7
100
AcDbLine
 10
25.0
 20
148.5
 30
0.0
 11
25.0
 21
287.0000000000003
 31
0.0
  0
LINE
  5
122
330
4D
100
AcDbEntity
  8
1
  6
Continuous
 62
     2
100
AcDbLine
 10
25.0
 20
148.5
 30
0.0
 11
20.0
 21
148.5
 31
0.0
  0
LINE
  5
123
330
4D
100
AcDbEntity
  8
1
  6
Continuous
 62
     7
100
AcDbLine
 10
105.0
 20
287.0000000000003
 30
0.0
 11
25.0
 21
287.0000000000003
 31
0.0
  0
LINE
  5
124
330
4D
100
AcDbEntity
  8
1
  6
Continuous
 62
     2
100
AcDbLine
 10
105.0
 20
287.0000000000003
 30
0.0
 11
105.0
 21
292.0000000000003
 31
0.0
  0
LINE
  5
125
330
4D
100
AcDbEntity
  8
1
  6
Continuous
 62
     2
100
AcDbLine
 10
166.0
 20
20.00000000000001
 30
0.0
 11
200.0
 21
20.00000000000001
 31
0.0
  0
LINE
  5
126
330
4D
100
AcDbEntity
  8
1
  6
Continuous
 62
     2
100
AcDbLine
 10
98.0
 20
27.00000000000001
 30
0.0
 11
98.0
 21
9.99999999999999
 31
0.0
  0
LINE
  5
127
330
4D
100
AcDbEntity
  8
1
  6
Continuous
 62
     2
100
AcDbLine
 10
115.0
 20
27.00000000000001
 30
0.0
 11
115.0
 21
9.99999999999999
 31
0.0
  0
LINE
  5
128
330
4D
100
AcDbEntity
  8
1
  6
Continuous
 62
     2
100
AcDbLine
 10
149.0
 20
27.00000000000001
 30
0.0
 11
149.0
 21
10.0
 31
0.0
  0
LINE
  5
129
330
4D
100
AcDbEntity
  8
1
  6
Continuous
 62
     2
100
AcDbLine
 10
132.0
 20
27.00000000000001
 30
0.0
 11
132.0
 21
9.99999999999999
 31
0.0
  0
LINE
  5
12A
330
4D
100
AcDbEntity
  8
1
  6
Continuous
 62
     2
100
AcDbLine
 10
166.0
 20
27.00000000000001
 30
0.0
 11
166.0
 21
10.0
 31
0.0
  0
LINE
  5
12B
330
4D
100
AcDbEntity
  8
1
  6
Continuous
 62
     2
100
AcDbLine
 10
55.0
 20
277.0000000000003
 30
0.0
 11
25.0
 21
277.0000000000003
 31
0.0
  0
LINE
  5
12C
330
4D
100
AcDbEntity
  8
1
  6
Continuous
 62
     7
100
AcDbLine
 10
25.0
 20
10.0
 30
0.0
 11
25.0
 21
148.5
 31
0.0
  0
LINE
  5
12D
330
4D
100
AcDbEntity
  8
1
  6
Continuous
 62
     2
100
AcDbLine
 10
40.0
 20
287.0000000000003
 30
0.0
 11
40.0
 21
277.0000000000003
 31
0.0
  0
LINE
  5
12E
330
4D
100
AcDbEntity
  8
1
  6
Continuous
 62
     2
100
AcDbLine
 10
55.0
 20
287.0000000000003
 30
0.0
 11
55.0
 21
277.0000000000003
 31
0.0
  0
LINE
  5
12F
330
4D
100
AcDbEntity
  8
1
  6
Continuous
 62
     2
100
AcDbLine
 10
33.0
 20
41.00000000000001
 30
0.0
 11
33.0
 21
27.0
 31
0.0
  0
LINE
  5
130
330
4D
100
AcDbEntity
  8
1
  6
Continuous
 62
     7
100
AcDbLine
 10
200.0
 20
27.00000000000001
 30
0.0
 11
25.0
 21
27.00000000000001
 31
0.0
  0
LINE
  5
131
330
4D
100
AcDbEntity
  8
1
  6
Continuous
 62
     7
100
AcDbLine
 10
25.0
 20
41.0
 30
0.0
 11
200.0
 21
41.0
 31
0.0
  0
LINE
  5
132
330
4D
100
AcDbEntity
  8
1
  6
PHANTOM
 62
     4
100
AcDbLine
 10
0.0
 20
0.0
 30
0.0
 11
210.0
 21
0.0
 31
0.0
  0
LINE
  5
133
330
4D
100
AcDbEntity
  8
1
  6
PHANTOM
 62
     4
100
AcDbLine
 10
210.0
 20
0.0
 30
0.0
 11
210.0
 21
297.0
 31
0.0
  0
LINE
  5
134
330
4D
100
AcDbEntity
  8
1
  6
PHANTOM
 62
     4
100
AcDbLine
 10
210.0
 20
297.0
 30
0.0
 11
0.0
 21
297.0
 31
0.0
  0
LINE
  5
135
330
4D
100
AcDbEntity
  8
1
  6
PHANTOM
 62
     4
100
AcDbLine
 10
0.0
 20
297.0
 30
0.0
 11
0.0
 21
0.0
 31
0.0
  0
LINE
  5
136
330
4D
100
AcDbEntity
  8
1
  6
Continuous
 62
     7
100
AcDbLine
 10
25.0
 20
10.0
 30
0.0
 11
105.0
 21
10.0
 31
0.0
  0
LINE
  5
137
330
4D
100
AcDbEntity
  8
1
  6
Continuous
 62
     7
100
AcDbLine
 10
200.0
 20
10.0
 30
0.0
 11
200.0
 21
148.5
 31
0.0
  0
LINE
  5
138
330
4D
100
AcDbEntity
  8
1
  6
Continuous
 62
     7
100
AcDbLine
 10
200.0
 20
287.0000000000003
 30
0.0
 11
105.0
 21
287.0000000000003
 31
0.0
  0
LINE
  5
139
330
4D
100
AcDbEntity
  8
1
  6
Continuous
 62
     2
100
AcDbLine
 10
25.0
 20
18.50000000000001
 30
0.0
 11
81.0
 21
18.50000000000001
 31
0.0
  0
LINE
  5
13A
330
4D
100
AcDbEntity
  8
1
  6
Continuous
 62
     2
100
AcDbLine
 10
33.0
 20
27.0
 30
0.0
 11
33.0
 21
10.0
 31
0.0
  0
LINE
  5
13B
330
4D
100
AcDbEntity
  8
1
  6
Continuous
 62
     7
100
AcDbLine
 10
191.0
 20
24.70000000000001
 30
0.0
 11
191.0
 21
22.30000000000001
 31
0.0
  0
LINE
  5
13C
330
4D
100
AcDbEntity
  8
1
  6
Continuous
 62
     7
100
AcDbLine
 10
191.0
 20
24.70000000000001
 30
0.0
 11
196.0
 21
25.50000000000001
 31
0.0
  0
LINE
  5
13D
330
4D
100
AcDbEntity
  8
1
  6
Continuous
 62
     7
100
AcDbLine
 10
196.0
 20
25.50000000000001
 30
0.0
 11
196.0
 21
21.50000000000001
 31
0.0
  0
LINE
  5
13E
330
4D
100
AcDbEntity
  8
1
  6
Continuous
 62
     7
100
AcDbLine
 10
196.0
 20
21.50000000000001
 30
0.0
 11
191.0
 21
22.30000000000001
 31
0.0
  0
LINE
  5
13F
330
4D
100
AcDbEntity
  8
1
  6
DOT_CENTER
 62
     2
100
AcDbLine
 10
184.0
 20
23.50000000000001
 30
0.0
 11
197.0
 21
23.50000000000001
 31
0.0
  0
LINE
  5
140
330
4D
100
AcDbEntity
  8
1
  6
DOT_CENTER
 62
     2
100
AcDbLine
 10
187.0
 20
26.50000000000001
 30
0.0
 11
187.0
 21
20.50000000000001
 31
0.0
  0
LINE
  5
141
330
4D
100
AcDbEntity
  8
1
  6
Continuous
 62
     2
100
AcDbLine
 10
81.0
 20
27.00000000000001
 30
0.0
 11
81.0
 21
10.0
 31
0.0
  0
CIRCLE
  5
142
330
4D
100
AcDbEntity
  8
1
  6
Continuous
 62
     7
100
AcDbCircle
 10
103.5
 20
12.5
 30
0.0
 40
0.2999999999999972
  0
CIRCLE
  5
143
330
4D
100
AcDbEntity
  8
1
  6
Continuous
 62
     7
100
AcDbCircle
 10
109.5
 20
12.5
 30
0.0
 40
0.2999999999999972
  0
CIRCLE
  5
144
330
4D
100
AcDbEntity
  8
1
  6
Continuous
 62
     7
100
AcDbCircle
 10
120.5
 20
12.5
 30
0.0
 40
0.2999999999999972
  0
CIRCLE
  5
145
330
4D
100
AcDbEntity
  8
1
  6
Continuous
 62
     7
100
AcDbCircle
 10
126.5
 20
12.5
 30
0.0
 40
0.2999999999999972
  0
CIRCLE
  5
146
330
4D
100
AcDbEntity
  8
1
  6
Continuous
 62
     7
100
AcDbCircle
 10
137.5
 20
12.5
 30
0.0
 40
0.3000000000000114
  0
CIRCLE
  5
147
330
4D
100
AcDbEntity
  8
1
  6
Continuous
 62
     7
100
AcDbCircle
 10
143.5
 20
12.5
 30
0.0
 40
0.3000000000000114
  0
CIRCLE
  5
148
330
4D
100
AcDbEntity
  8
1
  6
Continuous
 62
     7
100
AcDbCircle
 10
160.5
 20
12.5
 30
0.0
 40
0.3000000000000114
  0
CIRCLE
  5
149
330
4D
100
AcDbEntity
  8
1
  6
Continuous
 62
     7
100
AcDbCircle
 10
154.5
 20
12.5
 30
0.0
 40
0.3000000000000114
  0
CIRCLE
  5
14A
330
4D
100
AcDbEntity
  8
1
  6
Continuous
 62
     7
100
AcDbCircle
 10
187.0
 20
23.50000000000001
 30
0.0
 40
1.200000000000102
  0
CIRCLE
  5
14B
330
4D
100
AcDbEntity
  8
1
  6
Continuous
 62
     7
100
AcDbCircle
 10
187.0
 20
23.50000000000001
 30
0.0
 40
2.0
  0
CIRCLE
  5
14C
330
4D
100
AcDbEntity
  8
1
  6
DOT_CENTER
 62
     7
100
AcDbCircle
 10
89.5
 20
16.0
 30
0.0
 40
0.1000000000000227
  0
CIRCLE
  5
14D
330
4D
100
AcDbEntity
  8
1
  6
DOT_CENTER
 62
     7
100
AcDbCircle
 10
89.5
 20
18.0
 30
0.0
 40
0.1000000000000227
  0
MTEXT
  5
14F
330
4D
100
AcDbEntity
  8
1
 62
     7
100
AcDbMText
 10
188.5
 20
15.0
 30
0.0
 40
3.0
 41
0.0
 71
     5
 72
     1
  1
三栄水栓製作所
  7
CONVERTER_11
 73
     1
 44
1.0
  0
MTEXT
  5
150
330
4D
100
AcDbEntity
  8
1
 62
     7
100
AcDbMText
 10
171.5
 20
15.0
 30
0.0
 40
2.5
 41
0.0
 71
     5
 72
     1
  1
株式会社
  7
CONVERTER_11
 73
     1
 44
1.0
  0
MTEXT
  5
151
330
4D
100
AcDbEntity
  8
1
 62
     2
100
AcDbMText
 10
32.5
 20
282.0000000000003
 30
0.0
 40
5.0
 41
0.0
 71
     5
 72
     1
  1
図番
  7
CONVERTER_11
 73
     1
 44
0.45454545454545
  0
MTEXT
  5
152
330
4D
100
AcDbEntity
  8
1
 62
     2
100
AcDbMText
 10
29.0
 20
34.00000000000001
 30
0.0
 40
3.5
 41
0.0
 71
     5
 72
     1
  1
備考
  7
CONVERTER_11
 73
     1
 44
0.45454545454545
  0
MTEXT
  5
153
330
4D
100
AcDbEntity
  8
1
 62
     2
100
AcDbMText
 10
29.0
 20
22.75
 30
0.0
 40
3.5
 41
0.0
 71
     5
 72
     1
  1
品名
  7
CONVERTER_11
 73
     1
 44
0.72727272727273
  0
MTEXT
  5
154
330
4D
100
AcDbEntity
  8
1
 62
     2
100
AcDbMText
 10
29.0
 20
14.25
 30
0.0
 40
3.5
 41
0.0
 71
     5
 72
     1
  1
品番
  7
CONVERTER_11
 73
     1
 44
0.72727272727273
  0
MTEXT
  5
155
330
4D
100
AcDbEntity
  8
1
 62
     2
100
AcDbMText
 10
101.5
 20
25.00000000000001
 30
0.0
 40
3.0
 41
0.0
 71
     5
 72
     1
  1
承認
  7
CONVERTER_11
 73
     1
 44
0.59090909090909
  0
MTEXT
  5
156
330
4D
100
AcDbEntity
  8
1
 62
     2
100
AcDbMText
 10
175.0
 20
23.50000000000001
 30
0.0
 40
3.5
 41
0.0
 71
     5
 72
     1
  1
第三角法
  7
CONVERTER_11
 73
     1
 44
0.54545454545455
  0
MTEXT
  5
157
330
4D
100
AcDbEntity
  8
1
 62
     2
100
AcDbMText
 10
118.5
 20
25.00000000000001
 30
0.0
 40
3.0
 41
0.0
 71
     5
 72
     1
  1
検図
  7
CONVERTER_11
 73
     1
 44
0.59090909090909
  0
MTEXT
  5
158
330
4D
100
AcDbEntity
  8
1
 62
     2
100
AcDbMText
 10
152.5
 20
25.00000000000001
 30
0.0
 40
3.0
 41
0.0
 71
     5
 72
     1
  1
担当
  7
CONVERTER_11
 73
     1
 44
0.59090909090909
  0
MTEXT
  5
159
330
4D
100
AcDbEntity
  8
1
 62
     2
100
AcDbMText
 10
135.5
 20
25.00000000000001
 30
0.0
 40
3.0
 41
0.0
 71
     5
 72
     1
  1
製図
  7
CONVERTER_11
 73
     1
 44
0.59090909090909
  0
MTEXT
  5
15A
330
4D
100
AcDbEntity
  8
1
 62
     2
100
AcDbMText
 10
89.5
 20
24.00000000000001
 30
0.0
 40
3.5
 41
0.0
 71
     5
 72
     1
  1
尺度
  7
CONVERTER_11
 73
     1
 44
0.54545454545455
  0
MTEXT
  5
15B
330
4D
100
AcDbEntity
  8
1
 62
   250
100
AcDbMText
 10
25.0
 20
5.0
 30
0.0
 40
3.5
 41
0.0
 71
     4
 72
     1
  1
備考欄の文字列 原点位置=4
  7
CONVERTER_11
 73
     1
 44
0.54545454545455
  0
ENDBLK
  5
4F
330
4D
100
AcDbEntity
  8
0
100
AcDbBlockEnd
  0
BLOCK
  5
17E
330
177
100
AcDbEntity
  8
0
100
AcDbBlockBegin
  2
*D3
 70
     1
 10
0.0
 20
0.0
 30
0.0
  3
*D3
  1

  0
LINE
  5
178
330
177
100
AcDbEntity
  8
1
  6
Continuous
 62
     2
100
AcDbLine
 10
1556.18593886571
 20
928.14943479251
 30
0.0
 11
1556.18593886571
 21
1058.19945398251
 31
0.0
  0
LINE
  5
179
330
177
100
AcDbEntity
  8
1
  6
Continuous
 62
     2
100
AcDbLine
 10
1471.16700850974
 20
1058.19945398251
 30
0.0
 11
1564.18593886571
 21
1058.19945398251
 31
0.0
  0
LINE
  5
17A
330
177
100
AcDbEntity
  8
1
  6
Continuous
 62
     2
100
AcDbLine
 10
1381.32745486853
 20
928.14943479251
 30
0.0
 11
1564.18593886571
 21
928.14943479251
 31
0.0
  0
SOLID
  5
17B
330
177
100
AcDbEntity
  8
1
 62
     2
100
AcDbTrace
 10
1552.499668933263
 20
956.14943479251
 30
0.0
 11
1559.872208798157
 21
956.14943479251
 31
0.0
 12
1556.18593886571
 22
928.14943479251
 32
0.0
 13
1556.18593886571
 23
928.14943479251
 33
0.0
  0
SOLID
  5
17C
330
177
100
AcDbEntity
  8
1
 62
     2
100
AcDbTrace
 10
1559.872208798157
 20
1030.19945398251
 30
0.0
 11
1552.499668933263
 21
1030.19945398251
 31
0.0
 12
1556.18593886571
 22
1058.19945398251
 32
0.0
 13
1556.18593886571
 23
1058.19945398251
 33
0.0
  0
MTEXT
  5
17D
330
177
100
AcDbEntity
  8
1
 62
     7
100
AcDbMText
 10
1548.18593886571
 20
958.931866768594
 30
0.0
 40
28.0
 41
0.0
 71
     7
 72
     1
  1
130
  7
CONVERTER_12
 11
0.0
 21
1.0
 31
0.0
 73
     1
 44
0.60024009603842
  0
ENDBLK
  5
17F
330
177
100
AcDbEntity
  8
0
100
AcDbBlockEnd
  0
BLOCK
  5
189
330
182
100
AcDbEntity
  8
0
100
AcDbBlockBegin
  2
*D4
 70
     1
 10
0.0
 20
0.0
 30
0.0
  3
*D4
  1

  0
LINE
  5
183
330
182
100
AcDbEntity
  8
1
  6
Continuous
 62
     2
100
AcDbLine
 10
338.2184438023439
 20
1331.505744355749
 30
0.0
 11
509.5016263336702
 21
1331.505744355749
 31
0.0
  0
LINE
  5
184
330
182
100
AcDbEntity
  8
1
  6
Continuous
 62
     2
100
AcDbLine
 10
509.5016263336702
 20
1387.772751437519
 30
0.0
 11
509.5016263336702
 21
1323.505744355749
 31
0.0
  0
LINE
  5
185
330
182
100
AcDbEntity
  8
1
  6
Continuous
 62
     2
100
AcDbLine
 10
338.2184438023439
 20
1572.11709604369
 30
0.0
 11
338.2184438023439
 21
1323.505744355749
 31
0.0
  0
SOLID
  5
186
330
182
100
AcDbEntity
  8
1
 62
     2
100
AcDbTrace
 10
366.2184438023439
 20
1335.192014288196
 30
0.0
 11
366.2184438023439
 21
1327.819474423302
 31
0.0
 12
338.2184438023439
 22
1331.505744355749
 32
0.0
 13
338.2184438023439
 23
1331.505744355749
 33
0.0
  0
SOLID
  5
187
330
182
100
AcDbEntity
  8
1
 62
     2
100
AcDbTrace
 10
481.5016263336702
 20
1327.819474423302
 30
0.0
 11
481.5016263336702
 21
1335.192014288196
 31
0.0
 12
509.5016263336702
 22
1331.505744355749
 32
0.0
 13
509.5016263336702
 23
1331.505744355749
 33
0.0
  0
MTEXT
  5
188
330
182
100
AcDbEntity
  8
1
 62
     7
100
AcDbMText
 10
387.765336298137
 20
1339.505744355749
 30
0.0
 40
28.0
 41
0.0
 71
     7
 72
     1
  1
170
  7
CONVERTER_12
 11
0.9999999999970619
 21
2.424068405545306E-6
 31
0.0
 73
     1
 44
0.60024009603842
  0
ENDBLK
  5
18A
330
182
100
AcDbEntity
  8
0
100
AcDbBlockEnd
  0
BLOCK
  5
194
330
18D
100
AcDbEntity
  8
0
100
AcDbBlockBegin
  2
*D5
 70
     1
 10
0.0
 20
0.0
 30
0.0
  3
*D5
  1

  0
LINE
  5
18E
330
18D
100
AcDbEntity
  8
1
  6
Continuous
 62
     2
100
AcDbLine
 10
1002.218443609744
 20
1411.11517228647
 30
0.0
 11
1002.218443609744
 21
1791.26138222647
 31
0.0
  0
LINE
  5
18F
330
18D
100
AcDbEntity
  8
1
  6
Continuous
 62
     2
100
AcDbLine
 10
541.476619948684
 20
1791.26138222647
 30
0.0
 11
1010.218443609744
 21
1791.26138222647
 31
0.0
  0
LINE
  5
190
330
18D
100
AcDbEntity
  8
1
  6
Continuous
 62
     2
100
AcDbLine
 10
527.2701559293209
 20
1411.11517228647
 30
0.0
 11
1010.218443609744
 21
1411.11517228647
 31
0.0
  0
SOLID
  5
191
330
18D
100
AcDbEntity
  8
1
 62
     2
100
AcDbTrace
 10
998.532173677297
 20
1439.11517228647
 30
0.0
 11
1005.904713542191
 21
1439.11517228647
 31
0.0
 12
1002.218443609744
 22
1411.11517228647
 32
0.0
 13
1002.218443609744
 23
1411.11517228647
 33
0.0
  0
SOLID
  5
192
330
18D
100
AcDbEntity
  8
1
 62
     2
100
AcDbTrace
 10
1005.904713542191
 20
1763.26138222647
 30
0.0
 11
998.532173677297
 21
1763.26138222647
 31
0.0
 12
1002.218443609744
 22
1791.26138222647
 32
0.0
 13
1002.218443609744
 23
1791.26138222647
 33
0.0
  0
MTEXT
  5
193
330
18D
100
AcDbEntity
  8
1
 62
     7
100
AcDbMText
 10
994.2184436097441
 20
1577.41369545988
 30
0.0
 40
28.0
 41
0.0
 71
     7
 72
     1
  1
380
  7
CONVERTER_12
 11
0.0
 21
1.0
 31
0.0
 73
     1
 44
0.60024009603842
  0
ENDBLK
  5
195
330
18D
100
AcDbEntity
  8
0
100
AcDbBlockEnd
  0
BLOCK
  5
19F
330
198
100
AcDbEntity
  8
0
100
AcDbBlockBegin
  2
*D6
 70
     1
 10
0.0
 20
0.0
 30
0.0
  3
*D6
  1

  0
LINE
  5
199
330
198
100
AcDbEntity
  8
1
  6
Continuous
 62
     2
100
AcDbLine
 10
938.2184436097441
 20
1615.941518093393
 30
0.0
 11
938.2184436097441
 21
1791.01128603572
 31
0.0
  0
LINE
  5
19A
330
198
100
AcDbEntity
  8
1
  6
Continuous
 62
     2
100
AcDbLine
 10
580.974811546213
 20
1791.01128603572
 30
0.0
 11
946.2184436097441
 21
1791.01128603572
 31
0.0
  0
LINE
  5
19B
330
198
100
AcDbEntity
  8
1
  6
Continuous
 62
     2
100
AcDbLine
 10
881.9483991806001
 20
1615.941518093393
 30
0.0
 11
946.2184436097441
 21
1615.941518093393
 31
0.0
  0
SOLID
  5
19C
330
198
100
AcDbEntity
  8
1
 62
     2
100
AcDbTrace
 10
934.532173677297
 20
1643.941518093393
 30
0.0
 11
941.9047135421912
 21
1643.941518093393
 31
0.0
 12
938.2184436097441
 22
1615.941518093393
 32
0.0
 13
938.2184436097441
 23
1615.941518093393
 33
0.0
  0
SOLID
  5
19D
330
198
100
AcDbEntity
  8
1
 62
     2
100
AcDbTrace
 10
941.9047135421912
 20
1763.01128603572
 30
0.0
 11
934.532173677297
 21
1763.01128603572
 31
0.0
 12
938.2184436097441
 22
1791.01128603572
 32
0.0
 13
938.2184436097441
 23
1791.01128603572
 33
0.0
  0
MTEXT
  5
19E
330
198
100
AcDbEntity
  8
1
 62
     7
100
AcDbMText
 10
930.2184436097441
 20
1674.92922488419
 30
0.0
 40
28.0
 41
0.0
 71
     7
 72
     1
  1
175
  7
CONVERTER_12
 11
0.0
 21
1.0
 31
0.0
 73
     1
 44
0.60024009603842
  0
ENDBLK
  5
1A0
330
198
100
AcDbEntity
  8
0
100
AcDbBlockEnd
  0
BLOCK
  5
1AA
330
1A3
100
AcDbEntity
  8
0
100
AcDbBlockBegin
  2
*D7
 70
     1
 10
0.0
 20
0.0
 30
0.0
  3
*D7
  1

  0
LINE
  5
1A4
330
1A3
100
AcDbEntity
  8
1
  6
Continuous
 62
     2
100
AcDbLine
 10
338.2184438023439
 20
1267.505744355749
 30
0.0
 11
858.2184436097441
 21
1267.505744355749
 31
0.0
  0
LINE
  5
1A5
330
1A3
100
AcDbEntity
  8
1
  6
Continuous
 62
     2
100
AcDbLine
 10
858.2184436097441
 20
1623.28377551685
 30
0.0
 11
858.2184436097441
 21
1259.505744355749
 31
0.0
  0
LINE
  5
1A6
330
1A3
100
AcDbEntity
  8
1
  6
Continuous
 62
     2
100
AcDbLine
 10
338.2184438023439
 20
1572.11709604369
 30
0.0
 11
338.2184438023439
 21
1259.505744355749
 31
0.0
  0
SOLID
  5
1A7
330
1A3
100
AcDbEntity
  8
1
 62
     2
100
AcDbTrace
 10
366.2184438023439
 20
1271.192014288196
 30
0.0
 11
366.2184438023439
 21
1263.819474423302
 31
0.0
 12
338.2184438023439
 22
1267.505744355749
 32
0.0
 13
338.2184438023439
 23
1267.505744355749
 33
0.0
  0
SOLID
  5
1A8
330
1A3
100
AcDbEntity
  8
1
 62
     2
100
AcDbTrace
 10
830.2184436097441
 20
1263.819474423302
 30
0.0
 11
830.2184436097441
 21
1271.192014288196
 31
0.0
 12
858.2184436097441
 22
1267.505744355749
 32
0.0
 13
858.2184436097441
 23
1267.505744355749
 33
0.0
  0
MTEXT
  5
1A9
330
1A3
100
AcDbEntity
  8
1
 62
     7
100
AcDbMText
 10
573.829008679062
 20
1275.505744355749
 30
0.0
 40
28.0
 41
0.0
 71
     7
 72
     1
  1
520
  7
CONVERTER_12
 11
0.9999999999970619
 21
2.424068405545306E-6
 31
0.0
 73
     1
 44
0.60024009603842
  0
ENDBLK
  5
1AB
330
1A3
100
AcDbEntity
  8
0
100
AcDbBlockEnd
  0
BLOCK
  5
1B3
330
1AE
100
AcDbEntity
  8
0
100
AcDbBlockBegin
  2
*D8
 70
     1
 10
0.0
 20
0.0
 30
0.0
  3
*D8
  1

  0
LINE
  5
1AF
330
1AE
100
AcDbEntity
  8
1
  6
Continuous
 62
     2
100
AcDbLine
 10
559.2652725627955
 20
1574.125498268899
 30
0.0
 11
294.5945728880062
 21
1796.526308162718
 31
0.0
  0
SOLID
  5
1B0
330
1AE
100
AcDbEntity
  8
1
 62
     2
100
AcDbTrace
 10
468.0848402681321
 20
1645.928822374215
 30
0.0
 11
472.8277675473478
 21
1651.57319876878
 31
0.0
 12
491.8929515141336
 22
1630.737955877768
 32
0.0
 13
491.8929515141336
 23
1630.737955877768
 33
0.0
  0
SOLID
  5
1B1
330
1AE
100
AcDbEntity
  8
1
 62
     2
100
AcDbTrace
 10
550.9184123992085
 20
1585.954213813048
 30
0.0
 11
546.1754851199928
 21
1580.309837418483
 31
0.0
 12
527.1103011532069
 22
1601.145080309495
 32
0.0
 13
527.1103011532069
 23
1601.145080309495
 33
0.0
  0
MTEXT
  5
1B2
330
1AE
100
AcDbEntity
  8
1
 62
     7
100
AcDbMText
 10
307.8870860337872
 20
1795.806103838069
 30
0.0
 40
28.0
 41
0.0
 71
     7
 72
     1
  1
\C7;{\Fgdt;n}\C7;46
  7
CONVERTER_12
 11
0.7655945573711579
 21
-0.6433233819189701
 31
0.0
 73
     1
 44
0.60024009603842
  0
ENDBLK
  5
1B4
330
1AE
100
AcDbEntity
  8
0
100
AcDbBlockEnd
  0
ENDSEC
  0
SECTION
  2
ENTITIES
  0
INSERT
  5
50
330
1F
100
AcDbEntity
  8
0
100
AcDbBlockReference
  2
SL816802-W-112
 10
1680.0
 20
0.0
 30
0.0
  0
INSERT
  5
51
330
1F
100
AcDbEntity
  8
1
100
AcDbBlockReference
  2
開示A4
 10
0.0
 20
0.0
 30
0.0
 41
8.0
 42
8.0
 43
8.0
  0
LINE
  5
15C
330
1F
100
AcDbEntity
  8
1
  6
DASH_CENTER
 62
     2
100
AcDbLine
 10
1269.54574839785
 20
1001.0
 30
0.0
 11
1269.54574839785
 21
904.14943479251
 31
0.0
  0
LINE
  5
15D
330
1F
100
AcDbEntity
  8
1
  6
DASH_CENTER
 62
     2
100
AcDbLine
 10
509.5016263336702
 20
904.14943479251
 30
0.0
 11
509.5016263336702
 21
1001.0
 31
0.0
  0
LINE
  5
15E
330
1F
100
AcDbEntity
  8
1
  6
DASH_CENTER
 62
     2
100
AcDbLine
 10
509.5016263336702
 20
1812.950364328418
 30
0.0
 11
509.5016263336702
 21
1387.772751437519
 31
0.0
  0
LINE
  5
15F
330
1F
100
AcDbEntity
  8
1
  6
DASH_CENTER
 62
     2
100
AcDbLine
 10
317.5322714084464
 20
1615.941518093754
 30
0.0
 11
881.9483991806001
 21
1615.941518093393
 31
0.0
  0
MTEXT
  5
160
330
1F
100
AcDbEntity
  8
1
 62
     7
100
AcDbMText
 10
1124.0
 20
152.0000000000001
 30
0.0
 40
40.0
 41
0.0
 71
     5
 72
     1
  1
川村
  7
CONVERTER_11
 73
     1
 44
0.54545454545455
  0
MTEXT
  5
161
330
1F
100
AcDbEntity
  8
1
 62
     7
100
AcDbMText
 10
1260.0
 20
152.0000000000001
 30
0.0
 40
40.0
 41
0.0
 71
     5
 72
     1
  1
福永
  7
CONVERTER_11
 73
     1
 44
0.54545454545455
  0
MTEXT
  5
163
330
1F
100
AcDbEntity
  8
1
 62
     7
100
AcDbMText
 10
1124.0
 20
100.0
 30
0.0
 40
20.0
 41
0.0
 71
     5
 72
     1
  1
4
  7
CONVERTER_12
 73
     1
 44
0.7202881152461
  0
MTEXT
  5
164
330
1F
100
AcDbEntity
  8
1
 62
     7
100
AcDbMText
 10
1170.0
 20
100.0
 30
0.0
 40
20.0
 41
0.0
 71
     5
 72
     1
  1
21
  7
CONVERTER_12
 73
     1
 44
0.7202881152461
  0
MTEXT
  5
165
330
1F
100
AcDbEntity
  8
1
 62
     7
100
AcDbMText
 10
1078.0
 20
100.0
 30
0.0
 40
20.0
 41
0.0
 71
     5
 72
     1
  1
17
  7
CONVERTER_12
 73
     1
 44
0.7202881152461
  0
MTEXT
  5
166
330
1F
100
AcDbEntity
  8
1
 62
     7
100
AcDbMText
 10
1214.0
 20
100.0
 30
0.0
 40
20.0
 41
0.0
 71
     5
 72
     1
  1
17
  7
CONVERTER_12
 73
     1
 44
0.7202881152461
  0
MTEXT
  5
167
330
1F
100
AcDbEntity
  8
1
 62
     7
100
AcDbMText
 10
1306.0
 20
100.0
 30
0.0
 40
20.0
 41
0.0
 71
     5
 72
     1
  1
21
  7
CONVERTER_12
 73
     1
 44
0.7202881152461
  0
MTEXT
  5
168
330
1F
100
AcDbEntity
  8
1
 62
     7
100
AcDbMText
 10
1260.0
 20
100.0
 30
0.0
 40
20.0
 41
0.0
 71
     5
 72
     1
  1
4
  7
CONVERTER_12
 73
     1
 44
0.7202881152461
  0
MTEXT
  5
169
330
1F
100
AcDbEntity
  8
1
 62
     7
100
AcDbMText
 10
682.0
 20
136.0
 30
0.0
 40
28.0
 41
0.0
 71
     5
 72
     1
  1
1
  7
CONVERTER_12
 73
     1
 44
0.7202881152461
  0
MTEXT
  5
16A
330
1F
100
AcDbEntity
  8
1
 62
     7
100
AcDbMText
 10
750.0
 20
136.0
 30
0.0
 40
28.0
 41
0.0
 71
     5
 72
     1
  1
8
  7
CONVERTER_12
 73
     1
 44
0.7202881152461
  0
MTEXT
  5
16B
330
1F
100
AcDbEntity
  8
1
 62
     7
100
AcDbMText
 10
456.0
 20
182.0000000000001
 30
0.0
 40
28.0
 41
0.0
 71
     5
 72
     1
  1
洗面器
  7
CONVERTER_11
 73
     1
 44
0.54545454545455
  0
MTEXT
  5
16C
330
1F
100
AcDbEntity
  8
1
 62
     7
100
AcDbMText
 10
456.0
 20
114.0
 30
0.0
 40
28.0
 41
0.0
 71
     5
 72
     1
  1
SL816802-W-112
  7
CONVERTER_12
 73
     1
 44
0.7202881152461
  0
MTEXT
  5
16D
330
1F
100
AcDbEntity
  8
1
 62
     7
100
AcDbMText
 10
272.0
 20
295.6666666666667
 30
0.0
 40
28.0
 41
0.0
 71
     4
 72
     1
  1
シリーズ名：palomba collection(LAUFEN)
  7
CONVERTER_11
 73
     1
 44
0.54545454545455
  0
MTEXT
  5
16E
330
1F
100
AcDbEntity
  8
1
 62
     7
100
AcDbMText
 10
272.0
 20
248.3333333333334
 30
0.0
 40
28.0
 41
0.0
 71
     4
 72
     1
  1
容量：8,5L・オーバーフロー無・重量：7kg
  7
CONVERTER_11
 73
     1
 44
0.54545454545455
  0
MTEXT
  5
16F
330
1F
100
AcDbEntity
  8
1
 62
     7
100
AcDbMText
 10
988.0
 20
100.0
 30
0.0
 40
20.0
 41
0.0
 71
     5
 72
     1
  1
4
  7
CONVERTER_12
 73
     1
 44
0.7202881152461
  0
MTEXT
  5
170
330
1F
100
AcDbEntity
  8
1
 62
     7
100
AcDbMText
 10
1034.0
 20
100.0
 30
0.0
 40
20.0
 41
0.0
 71
     5
 72
     1
  1
26
  7
CONVERTER_12
 73
     1
 44
0.7202881152461
  0
MTEXT
  5
171
330
1F
100
AcDbEntity
  8
1
 62
     7
100
AcDbMText
 10
942.0
 20
100.0
 30
0.0
 40
20.0
 41
0.0
 71
     5
 72
     1
  1
17
  7
CONVERTER_12
 73
     1
 44
0.7202881152461
  0
MTEXT
  5
172
330
1F
100
AcDbEntity
  8
1
 62
     7
100
AcDbMText
 10
806.0
 20
100.0
 30
0.0
 40
20.0
 41
0.0
 71
     5
 72
     1
  1
17
  7
CONVERTER_12
 73
     1
 44
0.7202881152461
  0
MTEXT
  5
173
330
1F
100
AcDbEntity
  8
1
 62
     7
100
AcDbMText
 10
898.0
 20
100.0
 30
0.0
 40
20.0
 41
0.0
 71
     5
 72
     1
  1
11
  7
CONVERTER_12
 73
     1
 44
0.7202881152461
  0
MTEXT
  5
174
330
1F
100
AcDbEntity
  8
1
 62
     7
100
AcDbMText
 10
852.0
 20
100.0
 30
0.0
 40
20.0
 41
0.0
 71
     5
 72
     1
  1
5
  7
CONVERTER_12
 73
     1
 44
0.7202881152461
  0
MTEXT
  5
175
330
1F
100
AcDbEntity
  8
1
 62
     7
100
AcDbMText
 10
988.0
 20
152.0000000000001
 30
0.0
 40
40.0
 41
0.0
 71
     5
 72
     1
  1
上村
  7
CONVERTER_11
 73
     1
 44
0.54545454545455
  0
MTEXT
  5
176
330
1F
100
AcDbEntity
  8
1
 62
     7
100
AcDbMText
 10
852.0
 20
152.0000000000001
 30
0.0
 40
40.0
 41
0.0
 71
     5
 72
     1
  1
牧
  7
CONVERTER_11
 73
     1
 44
0.54545454545455
  0
DIMENSION
  5
181
330
1F
100
AcDbEntity
  8
1
100
AcDbDimension
  2
*D3
 10
1556.18593886571
 20
928.14943479251
 30
0.0
 11
1534.18593886571
 21
988.331866768594
 31
0.0
 70
    32
  1
130
 71
     5
 42
-1.0
 53
90.0
  3
ME10_DIM_10
100
AcDbAlignedDimension
 13
1471.16700850974
 23
1058.19945398251
 33
0.0
 14
1381.32745486853
 24
928.14943479251
 34
0.0
 50
90.0
100
AcDbRotatedDimension
  0
DIMENSION
  5
18C
330
1F
100
AcDbEntity
  8
1
100
AcDbDimension
  2
*D4
 10
338.2184438023439
 20
1331.505744355749
 30
0.0
 11
417.165336298137
 21
1353.505744355749
 31
0.0
 70
    32
  1
170
 71
     5
 42
-1.0
 53
0.00013888888889
  3
ME10_DIM_11
100
AcDbAlignedDimension
 13
509.5016263336702
 23
1387.772751437519
 33
0.0
 14
338.2184438023439
 24
1572.11709604369
 34
0.0
100
AcDbRotatedDimension
  0
DIMENSION
  5
197
330
1F
100
AcDbEntity
  8
1
100
AcDbDimension
  2
*D5
 10
1002.218443609744
 20
1411.11517228647
 30
0.0
 11
980.2184436097441
 21
1611.01369545988
 31
0.0
 70
    32
  1
380
 71
     5
 42
-1.0
 53
90.0
  3
ME10_DIM_12
100
AcDbAlignedDimension
 13
541.476619948684
 23
1791.26138222647
 33
0.0
 14
527.2701559293209
 24
1411.11517228647
 34
0.0
 50
90.0
100
AcDbRotatedDimension
  0
DIMENSION
  5
1A2
330
1F
100
AcDbEntity
  8
1
100
AcDbDimension
  2
*D6
 10
938.2184436097441
 20
1615.941518093393
 30
0.0
 11
916.2184436097441
 21
1704.32922488419
 31
0.0
 70
    32
  1
175
 71
     5
 42
-1.0
 53
90.0
  3
ME10_DIM_13
100
AcDbAlignedDimension
 13
580.974811546213
 23
1791.01128603572
 33
0.0
 14
881.9483991806001
 24
1615.941518093393
 34
0.0
 50
90.0
100
AcDbRotatedDimension
  0
DIMENSION
  5
1AD
330
1F
100
AcDbEntity
  8
1
100
AcDbDimension
  2
*D7
 10
338.2184438023439
 20
1267.505744355749
 30
0.0
 11
607.429008679062
 21
1289.505744355749
 31
0.0
 70
    32
  1
<>
 71
     5
 42
-1.0
 53
0.00013888888889
  3
ME10_DIM_14
100
AcDbAlignedDimension
 13
858.2184436097441
 23
1623.28377551685
 33
0.0
 14
338.2184438023439
 24
1572.11709604369
 34
0.0
100
AcDbRotatedDimension
  0
INSERT
  5
1B5
330
1F
100
AcDbEntity
  8
1
100
AcDbBlockReference
  2
*D8
 10
0.0
 20
0.0
 30
0.0
  0
ENDSEC
  0
SECTION
  2
OBJECTS
  0
DICTIONARY
  5
C
330
0
100
AcDbDictionary
281
     1
  3
ACAD_GROUP
350
D
  3
ACAD_LAYOUT
350
1A
  3
ACAD_MATERIAL
350
3B
  3
ACAD_MLEADERSTYLE
350
1B8
  3
ACAD_MLINESTYLE
350
17
  3
ACAD_PLOTSETTINGS
350
19
  3
ACAD_PLOTSTYLENAME
350
E
  3
ACAD_VISUALSTYLE
350
2A
  3
AcDbVariableDictionary
350
1B6
  0
DICTIONARY
  5
D
102
{ACAD_REACTORS
330
C
102
}
330
C
100
AcDbDictionary
281
     1
  0
DICTIONARY
  5
1A
102
{ACAD_REACTORS
330
C
102
}
330
C
100
AcDbDictionary
281
     1
  3
Layout1
350
1E
  3
Layout2
350
26
  3
Model
350
22
  0
DICTIONARY
  5
3B
102
{ACAD_REACTORS
330
C
102
}
330
C
100
AcDbDictionary
281
     1
  3
ByBlock
350
3D
  3
ByLayer
350
3C
  3
Global
350
3E
  0
DICTIONARY
  5
1B8
102
{ACAD_REACTORS
330
C
102
}
330
C
100
AcDbDictionary
281
     1
  0
DICTIONARY
  5
17
102
{ACAD_REACTORS
330
C
102
}
330
C
100
AcDbDictionary
281
     1
  3
Standard
350
18
  0
DICTIONARY
  5
19
102
{ACAD_REACTORS
330
C
102
}
330
C
100
AcDbDictionary
281
     1
  0
ACDBDICTIONARYWDFLT
  5
E
102
{ACAD_REACTORS
330
C
102
}
330
C
100
AcDbDictionary
281
     1
  3
Normal
350
F
100
AcDbDictionaryWithDefault
340
F
  0
DICTIONARY
  5
2A
102
{ACAD_REACTORS
330
C
102
}
330
C
100
AcDbDictionary
281
     1
  3
2dWireframe
350
2F
  3
3D Hidden
350
31
  3
3dWireframe
350
30
  3
Basic
350
32
  3
Brighten
350
36
  3
ColorChange
350
3A
  3
Conceptual
350
34
  3
Dim
350
35
  3
Facepattern
350
39
  3
Flat
350
2B
  3
FlatWithEdges
350
2C
  3
Gouraud
350
2D
  3
GouraudWithEdges
350
2E
  3
Linepattern
350
38
  3
Realistic
350
33
  3
Thicken
350
37
  0
DICTIONARY
  5
1B6
102
{ACAD_REACTORS
330
C
102
}
330
C
100
AcDbDictionary
281
     1
  3
DIMASSOC
350
1B9
  3
HIDETEXT
350
1BA
  0
LAYOUT
  5
1E
102
{ACAD_REACTORS
330
1A
102
}
330
1A
100
AcDbPlotSettings
  1

  2
none_device
  4

  6

 40
0.0
 41
0.0
 42
0.0
 43
0.0
 44
0.0
 45
0.0
 46
0.0
 47
0.0
 48
0.0
 49
0.0
140
0.0
141
0.0
142
1.0
143
1.0
 70
   688
 72
     0
 73
     0
 74
     5
  7

 75
    16
147
1.0
148
0.0
149
0.0
100
AcDbLayout
  1
Layout1
 70
     1
 71
     1
 10
0.0
 20
0.0
 11
12.0
 21
9.0
 12
0.0
 22
0.0
 32
0.0
 14
1.00000000000000E+20
 24
1.00000000000000E+20
 34
1.00000000000000E+20
 15
-1.00000000000000E+20
 25
-1.00000000000000E+20
 35
-1.00000000000000E+20
146
0.0
 13
0.0
 23
0.0
 33
0.0
 16
1.0
 26
0.0
 36
0.0
 17
0.0
 27
1.0
 37
0.0
 76
     0
330
1B
  0
LAYOUT
  5
26
102
{ACAD_REACTORS
330
1A
102
}
330
1A
100
AcDbPlotSettings
  1

  2
none_device
  4

  6

 40
0.0
 41
0.0
 42
0.0
 43
0.0
 44
0.0
 45
0.0
 46
0.0
 47
0.0
 48
0.0
 49
0.0
140
0.0
141
0.0
142
1.0
143
1.0
 70
   688
 72
     0
 73
     0
 74
     5
  7

 75
    16
147
1.0
148
0.0
149
0.0
100
AcDbLayout
  1
Layout2
 70
     1
 71
     2
 10
0.0
 20
0.0
 11
0.0
 21
0.0
 12
0.0
 22
0.0
 32
0.0
 14
0.0
 24
0.0
 34
0.0
 15
0.0
 25
0.0
 35
0.0
146
0.0
 13
0.0
 23
0.0
 33
0.0
 16
1.0
 26
0.0
 36
0.0
 17
0.0
 27
1.0
 37
0.0
 76
     0
330
23
  0
LAYOUT
  5
22
102
{ACAD_REACTORS
330
1A
102
}
330
1A
100
AcDbPlotSettings
  1

  2
none_device
  4

  6

 40
0.0
 41
0.0
 42
0.0
 43
0.0
 44
0.0
 45
0.0
 46
0.0
 47
0.0
 48
0.0
 49
0.0
140
0.0
141
0.0
142
1.0
143
1.0
 70
  1712
 72
     0
 73
     0
 74
     0
  7

 75
     0
147
1.0
148
0.0
149
0.0
100
AcDbLayout
  1
Model
 70
     1
 71
     0
 10
0.0
 20
0.0
 11
12.0
 21
9.0
 12
0.0
 22
0.0
 32
0.0
 14
0.0
 24
0.0
 34
0.0
 15
1680.0
 25
2376.0
 35
0.0
146
0.0
 13
0.0
 23
0.0
 33
0.0
 16
1.0
 26
0.0
 36
0.0
 17
0.0
 27
1.0
 37
0.0
 76
     0
330
1F
331
29
  0
MATERIAL
  5
3D
102
{ACAD_REACTORS
330
3B
102
}
102
{ACAD_XDICTIONARY
360
1DD
102
}
330
3B
100
AcDbMaterial
  1
ByBlock
  0
MATERIAL
  5
3C
102
{ACAD_REACTORS
330
3B
102
}
102
{ACAD_XDICTIONARY
360
1DB
102
}
330
3B
100
AcDbMaterial
  1
ByLayer
  0
MATERIAL
  5
3E
102
{ACAD_REACTORS
330
3B
102
}
102
{ACAD_XDICTIONARY
360
1DF
102
}
330
3B
100
AcDbMaterial
  1
Global
  0
MLINESTYLE
  5
18
102
{ACAD_REACTORS
330
17
102
}
330
17
100
AcDbMlineStyle
  2
Standard
 70
     0
  3

 62
   256
 51
90.0
 52
90.0
 71
     2
 49
0.5
 62
   256
  6
BYLAYER
 49
-0.5
 62
   256
  6
BYLAYER
  0
ACDBPLACEHOLDER
  5
F
102
{ACAD_REACTORS
330
E
102
}
330
E
  0
VISUALSTYLE
  5
2F
102
{ACAD_REACTORS
330
2A
102
}
102
{ACAD_XDICTIONARY
360
1C3
102
}
330
2A
100
AcDbVisualStyle
  2
2dWireframe
 70
     4
 71
     0
 72
     2
 73
     0
 90
        0
 40
-0.6
 41
-30.0
 62
     5
 63
     7
 74
     1
 91
        4
 64
     7
 65
   257
 75
     1
175
     1
 42
1.0
 92
        0
 66
   257
 43
1.0
 76
     1
 77
     6
 78
     2
 67
     7
 79
     5
170
     0
171
     0
290
     0
174
     0
 93
        1
 44
0.0
173
     0
291
     0
 45
0.0
1001
ACAD
1000
AcDbSavedByObjectVersion
1070
     0
  0
VISUALSTYLE
  5
31
102
{ACAD_REACTORS
330
2A
102
}
102
{ACAD_XDICTIONARY
360
1C7
102
}
330
2A
100
AcDbVisualStyle
  2
3D Hidden
 70
     6
 71
     1
 72
     2
 73
     2
 90
        0
 40
-0.6
 41
-30.0
 62
     5
 63
     7
 74
     2
 91
        2
 64
     7
 65
   257
 75
     2
175
     1
 42
40.0
 92
        0
 66
   257
 43
1.0
 76
     1
 77
     6
 78
     2
 67
     7
 79
     3
170
     0
171
     0
290
     0
174
     0
 93
        1
 44
0.0
173
     0
291
     0
 45
0.0
1001
ACAD
1000
AcDbSavedByObjectVersion
1070
     0
  0
VISUALSTYLE
  5
30
102
{ACAD_REACTORS
330
2A
102
}
102
{ACAD_XDICTIONARY
360
1C5
102
}
330
2A
100
AcDbVisualStyle
  2
3dWireframe
 70
     5
 71
     0
 72
     2
 73
     0
 90
        0
 40
-0.6
 41
-30.0
 62
     5
 63
     7
 74
     1
 91
        4
 64
     7
 65
   257
 75
     1
175
     1
 42
1.0
 92
        0
 66
   257
 43
1.0
 76
     1
 77
     6
 78
     2
 67
     7
 79
     5
170
     0
171
     0
290
     0
174
     0
 93
        1
 44
0.0
173
     0
291
     0
 45
0.0
1001
ACAD
1000
AcDbSavedByObjectVersion
1070
     0
  0
VISUALSTYLE
  5
32
102
{ACAD_REACTORS
330
2A
102
}
102
{ACAD_XDICTIONARY
360
1C9
102
}
330
2A
100
AcDbVisualStyle
  2
Basic
 70
     7
 71
     1
 72
     0
 73
     1
 90
        0
 40
-0.6
 41
-30.0
 62
     5
 63
     7
 74
     0
 91
        4
 64
     7
 65
   257
 75
     1
175
     1
 42
1.0
 92
        8
 66
     7
 43
1.0
 76
     1
 77
     6
 78
     2
 67
     7
 79
     5
170
     0
171
     0
290
     0
174
     0
 93
        1
 44
0.0
173
     0
291
     1
 45
0.0
1001
ACAD
1000
AcDbSavedByObjectVersion
1070
     0
  0
VISUALSTYLE
  5
36
102
{ACAD_REACTORS
330
2A
102
}
102
{ACAD_XDICTIONARY
360
1D1
102
}
330
2A
100
AcDbVisualStyle
  2
Brighten
 70
    12
 71
     2
 72
     2
 73
     0
 90
        0
 40
-0.6
 41
-30.0
 62
     5
 63
     7
 74
     1
 91
        4
 64
     7
 65
   257
 75
     1
175
     1
 42
1.0
 92
        8
 66
     7
 43
1.0
 76
     1
 77
     6
 78
     2
 67
     7
 79
     5
170
     0
171
     0
290
     0
174
     0
 93
        1
 44
50.0
173
     0
291
     1
 45
0.0
1001
ACAD
1000
AcDbSavedByObjectVersion
1070
     0
  0
VISUALSTYLE
  5
3A
102
{ACAD_REACTORS
330
2A
102
}
102
{ACAD_XDICTIONARY
360
1D9
102
}
330
2A
100
AcDbVisualStyle
  2
ColorChange
 70
    16
 71
     2
 72
     2
 73
     3
 90
        0
 40
-0.6
 41
-30.0
 62
     5
 63
     8
 74
     1
 91
        4
 64
     7
 65
   257
 75
     1
175
     1
 42
1.0
 92
        8
 66
     8
 43
1.0
 76
     1
 77
     6
 78
     2
 67
     7
 79
     5
170
     0
171
     0
290
     0
174
     0
 93
        1
 44
0.0
173
     0
291
     1
 45
0.0
1001
ACAD
1000
AcDbSavedByObjectVersion
1070
     0
  0
VISUALSTYLE
  5
34
102
{ACAD_REACTORS
330
2A
102
}
102
{ACAD_XDICTIONARY
360
1CD
102
}
330
2A
100
AcDbVisualStyle
  2
Conceptual
 70
     9
 71
     3
 72
     2
 73
     0
 90
        0
 40
-0.6
 41
-30.0
 62
     5
 63
     7
 74
     2
 91
        2
 64
     7
 65
   257
 75
     1
175
     1
 42
40.0
 92
        8
 66
     7
 43
1.0
 76
     1
 77
     6
 78
     2
 67
     7
 79
     3
170
     0
171
     0
290
     0
174
     0
 93
        1
 44
0.0
173
     0
291
     0
 45
0.0
1001
ACAD
1000
AcDbSavedByObjectVersion
1070
     0
  0
VISUALSTYLE
  5
35
102
{ACAD_REACTORS
330
2A
102
}
102
{ACAD_XDICTIONARY
360
1CF
102
}
330
2A
100
AcDbVisualStyle
  2
Dim
 70
    11
 71
     2
 72
     2
 73
     0
 90
        0
 40
-0.6
 41
-30.0
 62
     5
 63
     7
 74
     1
 91
        4
 64
     7
 65
   257
 75
     1
175
     1
 42
1.0
 92
        8
 66
     7
 43
1.0
 76
     1
 77
     6
 78
     2
 67
     7
 79
     5
170
     0
171
     0
290
     0
174
     0
 93
        1
 44
-50.0
173
     0
291
     1
 45
0.0
1001
ACAD
1000
AcDbSavedByObjectVersion
1070
     0
  0
VISUALSTYLE
  5
39
102
{ACAD_REACTORS
330
2A
102
}
102
{ACAD_XDICTIONARY
360
1D7
102
}
330
2A
100
AcDbVisualStyle
  2
Facepattern
 70
    15
 71
     2
 72
     2
 73
     0
 90
        0
 40
-0.6
 41
-30.0
 62
     5
 63
     7
 74
     1
 91
        4
 64
     7
 65
   257
 75
     1
175
     1
 42
1.0
 92
        8
 66
     7
 43
1.0
 76
     1
 77
     6
 78
     2
 67
     7
 79
     5
170
     0
171
     0
290
     0
174
     0
 93
        1
 44
0.0
173
     0
291
     1
 45
0.0
1001
ACAD
1000
AcDbSavedByObjectVersion
1070
     0
  0
VISUALSTYLE
  5
2B
102
{ACAD_REACTORS
330
2A
102
}
102
{ACAD_XDICTIONARY
360
1BB
102
}
330
2A
100
AcDbVisualStyle
  2
Flat
 70
     0
 71
     2
 72
     1
 73
     1
 90
        2
 40
-0.6
 41
30.0
 62
     5
 63
     7
 74
     0
 91
        4
 64
     7
 65
   257
 75
     1
175
     1
 42
1.0
 92
        8
 66
     7
 43
1.0
 76
     1
 77
     6
 78
     2
 67
     7
 79
     5
170
     0
171
     0
290
     0
174
     0
 93
       13
 44
0.0
173
     0
291
     1
 45
0.0
1001
ACAD
1000
AcDbSavedByObjectVersion
1070
     0
  0
VISUALSTYLE
  5
2C
102
{ACAD_REACTORS
330
2A
102
}
102
{ACAD_XDICTIONARY
360
1BD
102
}
330
2A
100
AcDbVisualStyle
  2
FlatWithEdges
 70
     1
 71
     2
 72
     1
 73
     1
 90
        2
 40
-0.6
 41
30.0
 62
     5
 63
     7
 74
     1
 91
        4
 64
     7
 65
   257
 75
     1
175
     1
 42
1.0
 92
        0
 66
   257
 43
1.0
 76
     1
 77
     6
 78
     2
 67
     7
 79
     5
170
     0
171
     0
290
     0
174
     0
 93
       13
 44
0.0
173
     0
291
     1
 45
0.0
1001
ACAD
1000
AcDbSavedByObjectVersion
1070
     0
  0
VISUALSTYLE
  5
2D
102
{ACAD_REACTORS
330
2A
102
}
102
{ACAD_XDICTIONARY
360
1BF
102
}
330
2A
100
AcDbVisualStyle
  2
Gouraud
 70
     2
 71
     2
 72
     2
 73
     1
 90
        2
 40
-0.6
 41
30.0
 62
     5
 63
     7
 74
     0
 91
        4
 64
     7
 65
   257
 75
     1
175
     1
 42
1.0
 92
        0
 66
     7
 43
1.0
 76
     1
 77
     6
 78
     2
 67
     7
 79
     5
170
     0
171
     0
290
     0
174
     0
 93
       13
 44
0.0
173
     0
291
     1
 45
0.0
1001
ACAD
1000
AcDbSavedByObjectVersion
1070
     0
  0
VISUALSTYLE
  5
2E
102
{ACAD_REACTORS
330
2A
102
}
102
{ACAD_XDICTIONARY
360
1C1
102
}
330
2A
100
AcDbVisualStyle
  2
GouraudWithEdges
 70
     3
 71
     2
 72
     2
 73
     1
 90
        2
 40
-0.6
 41
30.0
 62
     5
 63
     7
 74
     1
 91
        4
 64
     7
 65
   257
 75
     1
175
     1
 42
1.0
 92
        0
 66
   257
 43
1.0
 76
     1
 77
     6
 78
     2
 67
     7
 79
     5
170
     0
171
     0
290
     0
174
     0
 93
       13
 44
0.0
173
     0
291
     1
 45
0.0
1001
ACAD
1000
AcDbSavedByObjectVersion
1070
     0
  0
VISUALSTYLE
  5
38
102
{ACAD_REACTORS
330
2A
102
}
102
{ACAD_XDICTIONARY
360
1D5
102
}
330
2A
100
AcDbVisualStyle
  2
Linepattern
 70
    14
 71
     2
 72
     2
 73
     0
 90
        0
 40
-0.6
 41
-30.0
 62
     5
 63
     7
 74
     1
 91
        4
 64
     7
 65
   257
 75
     7
175
     7
 42
1.0
 92
        8
 66
     7
 43
1.0
 76
     1
 77
     6
 78
     2
 67
     7
 79
     5
170
     0
171
     0
290
     0
174
     0
 93
        1
 44
0.0
173
     0
291
     1
 45
0.0
1001
ACAD
1000
AcDbSavedByObjectVersion
1070
     0
  0
VISUALSTYLE
  5
33
102
{ACAD_REACTORS
330
2A
102
}
102
{ACAD_XDICTIONARY
360
1CB
102
}
330
2A
100
AcDbVisualStyle
  2
Realistic
 70
     8
 71
     2
 72
     2
 73
     0
 90
        0
 40
-0.6
 41
-30.0
 62
     5
 63
     7
 74
     1
 91
        0
 64
     7
 65
   257
 75
     1
175
     1
 42
1.0
 92
        8
 66
     8
 43
1.0
 76
     1
 77
     6
 78
     2
 67
     7
 79
     5
170
     0
171
     0
290
     0
174
     0
 93
       13
 44
0.0
173
     0
291
     0
 45
0.0
1001
ACAD
1000
AcDbSavedByObjectVersion
1070
     0
  0
VISUALSTYLE
  5
37
102
{ACAD_REACTORS
330
2A
102
}
102
{ACAD_XDICTIONARY
360
1D3
102
}
330
2A
100
AcDbVisualStyle
  2
Thicken
 70
    13
 71
     2
 72
     2
 73
     0
 90
        0
 40
-0.6
 41
-30.0
 62
     5
 63
     7
 74
     1
 91
        4
 64
     7
 65
   257
 75
     1
175
     1
 42
1.0
 92
       12
 66
     7
 43
1.0
 76
     1
 77
     6
 78
     2
 67
     7
 79
     5
170
     0
171
     0
290
     0
174
     0
 93
        1
 44
0.0
173
     0
291
     1
 45
0.0
1001
ACAD
1000
AcDbSavedByObjectVersion
1070
     0
  0
DICTIONARYVAR
  5
1B9
102
{ACAD_REACTORS
330
1B6
102
}
330
1B6
100
DictionaryVariables
280
     0
  1
2
  0
DICTIONARYVAR
  5
1BA
102
{ACAD_REACTORS
330
1B6
102
}
330
1B6
100
DictionaryVariables
280
     0
  1
1
  0
DICTIONARY
  5
1DD
330
3D
100
AcDbDictionary
280
     1
281
     1
  3
ACAD_XREC_ROUNDTRIP
360
1DE
  0
DICTIONARY
  5
1DB
330
3C
100
AcDbDictionary
280
     1
281
     1
  3
ACAD_XREC_ROUNDTRIP
360
1DC
  0
DICTIONARY
  5
1DF
330
3E
100
AcDbDictionary
280
     1
281
     1
  3
ACAD_XREC_ROUNDTRIP
360
1E0
  0
DICTIONARY
  5
1C3
330
2F
100
AcDbDictionary
280
     1
281
     1
  3
ACAD_XREC_ROUNDTRIP
360
1C4
  0
DICTIONARY
  5
1C7
330
31
100
AcDbDictionary
280
     1
281
     1
  3
ACAD_XREC_ROUNDTRIP
360
1C8
  0
DICTIONARY
  5
1C5
330
30
100
AcDbDictionary
280
     1
281
     1
  3
ACAD_XREC_ROUNDTRIP
360
1C6
  0
DICTIONARY
  5
1C9
330
32
100
AcDbDictionary
280
     1
281
     1
  3
ACAD_XREC_ROUNDTRIP
360
1CA
  0
DICTIONARY
  5
1D1
330
36
100
AcDbDictionary
280
     1
281
     1
  3
ACAD_XREC_ROUNDTRIP
360
1D2
  0
DICTIONARY
  5
1D9
330
3A
100
AcDbDictionary
280
     1
281
     1
  3
ACAD_XREC_ROUNDTRIP
360
1DA
  0
DICTIONARY
  5
1CD
330
34
100
AcDbDictionary
280
     1
281
     1
  3
ACAD_XREC_ROUNDTRIP
360
1CE
  0
DICTIONARY
  5
1CF
330
35
100
AcDbDictionary
280
     1
281
     1
  3
ACAD_XREC_ROUNDTRIP
360
1D0
  0
DICTIONARY
  5
1D7
330
39
100
AcDbDictionary
280
     1
281
     1
  3
ACAD_XREC_ROUNDTRIP
360
1D8
  0
DICTIONARY
  5
1BB
330
2B
100
AcDbDictionary
280
     1
281
     1
  3
ACAD_XREC_ROUNDTRIP
360
1BC
  0
DICTIONARY
  5
1BD
330
2C
100
AcDbDictionary
280
     1
281
     1
  3
ACAD_XREC_ROUNDTRIP
360
1BE
  0
DICTIONARY
  5
1BF
330
2D
100
AcDbDictionary
280
     1
281
     1
  3
ACAD_XREC_ROUNDTRIP
360
1C0
  0
DICTIONARY
  5
1C1
330
2E
100
AcDbDictionary
280
     1
281
     1
  3
ACAD_XREC_ROUNDTRIP
360
1C2
  0
DICTIONARY
  5
1D5
330
38
100
AcDbDictionary
280
     1
281
     1
  3
ACAD_XREC_ROUNDTRIP
360
1D6
  0
DICTIONARY
  5
1CB
330
33
100
AcDbDictionary
280
     1
281
     1
  3
ACAD_XREC_ROUNDTRIP
360
1CC
  0
DICTIONARY
  5
1D3
330
37
100
AcDbDictionary
280
     1
281
     1
  3
ACAD_XREC_ROUNDTRIP
360
1D4
  0
XRECORD
  5
1DE
102
{ACAD_REACTORS
330
1DD
102
}
330
1DD
100
AcDbXrecord
280
     1
102
MATERIAL
148
0.0
149
0.0
149
0.0
 93
        0
 94
      127
282
     0
 72
     1
 77
     1
171
     1
175
     1
179
     1
273
     0
  0
XRECORD
  5
1DC
102
{ACAD_REACTORS
330
1DB
102
}
330
1DB
100
AcDbXrecord
280
     1
102
MATERIAL
148
0.0
149
0.0
149
0.0
 93
        0
 94
      127
282
     0
 72
     1
 77
     1
171
     1
175
     1
179
     1
273
     0
  0
XRECORD
  5
1E0
102
{ACAD_REACTORS
330
1DF
102
}
330
1DF
100
AcDbXrecord
280
     1
102
MATERIAL
148
0.0
149
0.0
149
0.0
 93
        0
 94
      127
282
     0
 72
     1
 77
     1
171
     1
175
     1
179
     1
273
     0
  0
XRECORD
  5
1C4
102
{ACAD_REACTORS
330
1C3
102
}
330
1C3
100
AcDbXrecord
280
     1
102
RTVSPropertyOp0
 70
     1
102
RTVSPropertyOp1
 70
     1
102
RTVSPropertyOp2
 70
     1
102
RTVSPropertyOp3
 70
     1
102
RTVSPropertyOp4
 70
     1
102
RTVSPropertyOp5
 70
     1
102
RTVSPropertyOp6
 70
     1
102
RTVSPropertyOp7
 70
     1
102
RTVSPropertyOp8
 70
     1
102
RTVSPropertyOp9
 70
     1
102
RTVSPropertyOp10
 70
     1
102
RTVSPropertyOp11
 70
     1
102
RTVSPropertyOp12
 70
     1
102
RTVSPropertyOp13
 70
     1
102
RTVSPropertyOp14
 70
     1
102
RTVSPropertyOp15
 70
     1
102
RTVSPropertyOp16
 70
     1
102
RTVSPropertyOp17
 70
     1
102
RTVSPropertyOp18
 70
     1
102
RTVSPropertyOp19
 70
     1
102
RTVSPropertyOp20
 70
     1
102
RTVSPropertyOp21
 70
     1
102
RTVSPropertyOp22
 70
     1
102
RTVSPropertyOp23
 70
     1
102
RTVSPropertyOp24
 70
     1
102
RTVSPropertyOp25
 70
     1
102
RTVSPropertyOp26
 70
     1
102
RTVSPropertyOp27
 70
     1
102
RTVSPropertyOp28
 70
     1
102
RTVSPropertyOp29
 70
     1
102
RTVSPropertyOp30
 70
     1
102
RTVSPropertyOp31
 70
     1
102
RTVSPropertyOp32
 70
     1
  0
XRECORD
  5
1C8
102
{ACAD_REACTORS
330
1C7
102
}
330
1C7
100
AcDbXrecord
280
     1
102
RTVSPropertyOp0
 70
     1
102
RTVSPropertyOp1
 70
     1
102
RTVSPropertyOp2
 70
     1
102
RTVSPropertyOp3
 70
     1
102
RTVSPropertyOp4
 70
     1
102
RTVSPropertyOp5
 70
     1
102
RTVSPropertyOp6
 70
     1
102
RTVSPropertyOp7
 70
     1
102
RTVSPropertyOp8
 70
     1
102
RTVSPropertyOp9
 70
     1
102
RTVSPropertyOp10
 70
     1
102
RTVSPropertyOp11
 70
     1
102
RTVSPropertyOp12
 70
     1
102
RTVSPropertyOp13
 70
     1
102
RTVSPropertyOp14
 70
     1
102
RTVSPropertyOp15
 70
     1
102
RTVSPropertyOp16
 70
     1
102
RTVSPropertyOp17
 70
     1
102
RTVSPropertyOp18
 70
     1
102
RTVSPropertyOp19
 70
     1
102
RTVSPropertyOp20
 70
     1
102
RTVSPropertyOp21
 70
     1
102
RTVSPropertyOp22
 70
     1
102
RTVSPropertyOp23
 70
     1
102
RTVSPropertyOp24
 70
     1
102
RTVSPropertyOp25
 70
     1
102
RTVSPropertyOp26
 70
     1
102
RTVSPropertyOp27
 70
     1
102
RTVSPropertyOp28
 70
     1
102
RTVSPropertyOp29
 70
     1
102
RTVSPropertyOp30
 70
     1
102
RTVSPropertyOp31
 70
     1
102
RTVSPropertyOp32
 70
     1
  0
XRECORD
  5
1C6
102
{ACAD_REACTORS
330
1C5
102
}
330
1C5
100
AcDbXrecord
280
     1
102
RTVSPropertyOp0
 70
     1
102
RTVSPropertyOp1
 70
     1
102
RTVSPropertyOp2
 70
     1
102
RTVSPropertyOp3
 70
     1
102
RTVSPropertyOp4
 70
     1
102
RTVSPropertyOp5
 70
     1
102
RTVSPropertyOp6
 70
     1
102
RTVSPropertyOp7
 70
     1
102
RTVSPropertyOp8
 70
     1
102
RTVSPropertyOp9
 70
     1
102
RTVSPropertyOp10
 70
     1
102
RTVSPropertyOp11
 70
     1
102
RTVSPropertyOp12
 70
     1
102
RTVSPropertyOp13
 70
     1
102
RTVSPropertyOp14
 70
     1
102
RTVSPropertyOp15
 70
     1
102
RTVSPropertyOp16
 70
     1
102
RTVSPropertyOp17
 70
     1
102
RTVSPropertyOp18
 70
     1
102
RTVSPropertyOp19
 70
     1
102
RTVSPropertyOp20
 70
     1
102
RTVSPropertyOp21
 70
     1
102
RTVSPropertyOp22
 70
     1
102
RTVSPropertyOp23
 70
     1
102
RTVSPropertyOp24
 70
     1
102
RTVSPropertyOp25
 70
     1
102
RTVSPropertyOp26
 70
     1
102
RTVSPropertyOp27
 70
     1
102
RTVSPropertyOp28
 70
     1
102
RTVSPropertyOp29
 70
     1
102
RTVSPropertyOp30
 70
     1
102
RTVSPropertyOp31
 70
     1
102
RTVSPropertyOp32
 70
     1
  0
XRECORD
  5
1CA
102
{ACAD_REACTORS
330
1C9
102
}
330
1C9
100
AcDbXrecord
280
     1
102
RTVSPropertyOp0
 70
     1
102
RTVSPropertyOp1
 70
     1
102
RTVSPropertyOp2
 70
     1
102
RTVSPropertyOp3
 70
     1
102
RTVSPropertyOp4
 70
     1
102
RTVSPropertyOp5
 70
     1
102
RTVSPropertyOp6
 70
     1
102
RTVSPropertyOp7
 70
     1
102
RTVSPropertyOp8
 70
     1
102
RTVSPropertyOp9
 70
     1
102
RTVSPropertyOp10
 70
     1
102
RTVSPropertyOp11
 70
     1
102
RTVSPropertyOp12
 70
     1
102
RTVSPropertyOp13
 70
     1
102
RTVSPropertyOp14
 70
     1
102
RTVSPropertyOp15
 70
     1
102
RTVSPropertyOp16
 70
     1
102
RTVSPropertyOp17
 70
     1
102
RTVSPropertyOp18
 70
     1
102
RTVSPropertyOp19
 70
     1
102
RTVSPropertyOp20
 70
     1
102
RTVSPropertyOp21
 70
     1
102
RTVSPropertyOp22
 70
     1
102
RTVSPropertyOp23
 70
     1
102
RTVSPropertyOp24
 70
     1
102
RTVSPropertyOp25
 70
     1
102
RTVSPropertyOp26
 70
     1
102
RTVSPropertyOp27
 70
     1
102
RTVSPropertyOp28
 70
     1
102
RTVSPropertyOp29
 70
     1
102
RTVSPropertyOp30
 70
     1
102
RTVSPropertyOp31
 70
     1
102
RTVSPropertyOp32
 70
     1
  0
XRECORD
  5
1D2
102
{ACAD_REACTORS
330
1D1
102
}
330
1D1
100
AcDbXrecord
280
     1
102
RTVSPropertyOp0
 70
     1
102
RTVSPropertyOp1
 70
     1
102
RTVSPropertyOp2
 70
     1
102
RTVSPropertyOp3
 70
     1
102
RTVSPropertyOp4
 70
     1
102
RTVSPropertyOp5
 70
     1
102
RTVSPropertyOp6
 70
     1
102
RTVSPropertyOp7
 70
     1
102
RTVSPropertyOp8
 70
     1
102
RTVSPropertyOp9
 70
     1
102
RTVSPropertyOp10
 70
     1
102
RTVSPropertyOp11
 70
     1
102
RTVSPropertyOp12
 70
     1
102
RTVSPropertyOp13
 70
     1
102
RTVSPropertyOp14
 70
     1
102
RTVSPropertyOp15
 70
     1
102
RTVSPropertyOp16
 70
     1
102
RTVSPropertyOp17
 70
     1
102
RTVSPropertyOp18
 70
     1
102
RTVSPropertyOp19
 70
     1
102
RTVSPropertyOp20
 70
     1
102
RTVSPropertyOp21
 70
     1
102
RTVSPropertyOp22
 70
     1
102
RTVSPropertyOp23
 70
     1
102
RTVSPropertyOp24
 70
     1
102
RTVSPropertyOp25
 70
     1
102
RTVSPropertyOp26
 70
     1
102
RTVSPropertyOp27
 70
     1
102
RTVSPropertyOp28
 70
     1
102
RTVSPropertyOp29
 70
     1
102
RTVSPropertyOp30
 70
     1
102
RTVSPropertyOp31
 70
     1
102
RTVSPropertyOp32
 70
     1
  0
XRECORD
  5
1DA
102
{ACAD_REACTORS
330
1D9
102
}
330
1D9
100
AcDbXrecord
280
     1
102
RTVSPropertyOp0
 70
     1
102
RTVSPropertyOp1
 70
     1
102
RTVSPropertyOp2
 70
     1
102
RTVSPropertyOp3
 70
     1
102
RTVSPropertyOp4
 70
     1
102
RTVSPropertyOp5
 70
     1
102
RTVSPropertyOp6
 70
     1
102
RTVSPropertyOp7
 70
     1
102
RTVSPropertyOp8
 70
     1
102
RTVSPropertyOp9
 70
     1
102
RTVSPropertyOp10
 70
     1
102
RTVSPropertyOp11
 70
     1
102
RTVSPropertyOp12
 70
     1
102
RTVSPropertyOp13
 70
     1
102
RTVSPropertyOp14
 70
     1
102
RTVSPropertyOp15
 70
     1
102
RTVSPropertyOp16
 70
     1
102
RTVSPropertyOp17
 70
     1
102
RTVSPropertyOp18
 70
     1
102
RTVSPropertyOp19
 70
     1
102
RTVSPropertyOp20
 70
     1
102
RTVSPropertyOp21
 70
     1
102
RTVSPropertyOp22
 70
     1
102
RTVSPropertyOp23
 70
     1
102
RTVSPropertyOp24
 70
     1
102
RTVSPropertyOp25
 70
     1
102
RTVSPropertyOp26
 70
     1
102
RTVSPropertyOp27
 70
     1
102
RTVSPropertyOp28
 70
     1
102
RTVSPropertyOp29
 70
     1
102
RTVSPropertyOp30
 70
     1
102
RTVSPropertyOp31
 70
     1
102
RTVSPropertyOp32
 70
     1
  0
XRECORD
  5
1CE
102
{ACAD_REACTORS
330
1CD
102
}
330
1CD
100
AcDbXrecord
280
     1
102
RTVSPropertyOp0
 70
     1
102
RTVSPropertyOp1
 70
     1
102
RTVSPropertyOp2
 70
     1
102
RTVSPropertyOp3
 70
     1
102
RTVSPropertyOp4
 70
     1
102
RTVSPropertyOp5
 70
     1
102
RTVSPropertyOp6
 70
     1
102
RTVSPropertyOp7
 70
     1
102
RTVSPropertyOp8
 70
     1
102
RTVSPropertyOp9
 70
     1
102
RTVSPropertyOp10
 70
     1
102
RTVSPropertyOp11
 70
     1
102
RTVSPropertyOp12
 70
     1
102
RTVSPropertyOp13
 70
     1
102
RTVSPropertyOp14
 70
     1
102
RTVSPropertyOp15
 70
     1
102
RTVSPropertyOp16
 70
     1
102
RTVSPropertyOp17
 70
     1
102
RTVSPropertyOp18
 70
     1
102
RTVSPropertyOp19
 70
     1
102
RTVSPropertyOp20
 70
     1
102
RTVSPropertyOp21
 70
     1
102
RTVSPropertyOp22
 70
     1
102
RTVSPropertyOp23
 70
     1
102
RTVSPropertyOp24
 70
     1
102
RTVSPropertyOp25
 70
     1
102
RTVSPropertyOp26
 70
     1
102
RTVSPropertyOp27
 70
     1
102
RTVSPropertyOp28
 70
     1
102
RTVSPropertyOp29
 70
     1
102
RTVSPropertyOp30
 70
     1
102
RTVSPropertyOp31
 70
     1
102
RTVSPropertyOp32
 70
     1
  0
XRECORD
  5
1D0
102
{ACAD_REACTORS
330
1CF
102
}
330
1CF
100
AcDbXrecord
280
     1
102
RTVSPropertyOp0
 70
     1
102
RTVSPropertyOp1
 70
     1
102
RTVSPropertyOp2
 70
     1
102
RTVSPropertyOp3
 70
     1
102
RTVSPropertyOp4
 70
     1
102
RTVSPropertyOp5
 70
     1
102
RTVSPropertyOp6
 70
     1
102
RTVSPropertyOp7
 70
     1
102
RTVSPropertyOp8
 70
     1
102
RTVSPropertyOp9
 70
     1
102
RTVSPropertyOp10
 70
     1
102
RTVSPropertyOp11
 70
     1
102
RTVSPropertyOp12
 70
     1
102
RTVSPropertyOp13
 70
     1
102
RTVSPropertyOp14
 70
     1
102
RTVSPropertyOp15
 70
     1
102
RTVSPropertyOp16
 70
     1
102
RTVSPropertyOp17
 70
     1
102
RTVSPropertyOp18
 70
     1
102
RTVSPropertyOp19
 70
     1
102
RTVSPropertyOp20
 70
     1
102
RTVSPropertyOp21
 70
     1
102
RTVSPropertyOp22
 70
     1
102
RTVSPropertyOp23
 70
     1
102
RTVSPropertyOp24
 70
     1
102
RTVSPropertyOp25
 70
     1
102
RTVSPropertyOp26
 70
     1
102
RTVSPropertyOp27
 70
     1
102
RTVSPropertyOp28
 70
     1
102
RTVSPropertyOp29
 70
     1
102
RTVSPropertyOp30
 70
     1
102
RTVSPropertyOp31
 70
     1
102
RTVSPropertyOp32
 70
     1
  0
XRECORD
  5
1D8
102
{ACAD_REACTORS
330
1D7
102
}
330
1D7
100
AcDbXrecord
280
     1
102
RTVSPropertyOp0
 70
     1
102
RTVSPropertyOp1
 70
     1
102
RTVSPropertyOp2
 70
     1
102
RTVSPropertyOp3
 70
     1
102
RTVSPropertyOp4
 70
     1
102
RTVSPropertyOp5
 70
     1
102
RTVSPropertyOp6
 70
     1
102
RTVSPropertyOp7
 70
     1
102
RTVSPropertyOp8
 70
     1
102
RTVSPropertyOp9
 70
     1
102
RTVSPropertyOp10
 70
     1
102
RTVSPropertyOp11
 70
     1
102
RTVSPropertyOp12
 70
     1
102
RTVSPropertyOp13
 70
     1
102
RTVSPropertyOp14
 70
     1
102
RTVSPropertyOp15
 70
     1
102
RTVSPropertyOp16
 70
     1
102
RTVSPropertyOp17
 70
     1
102
RTVSPropertyOp18
 70
     1
102
RTVSPropertyOp19
 70
     1
102
RTVSPropertyOp20
 70
     1
102
RTVSPropertyOp21
 70
     1
102
RTVSPropertyOp22
 70
     1
102
RTVSPropertyOp23
 70
     1
102
RTVSPropertyOp24
 70
     1
102
RTVSPropertyOp25
 70
     1
102
RTVSPropertyOp26
 70
     1
102
RTVSPropertyOp27
 70
     1
102
RTVSPropertyOp28
 70
     1
102
RTVSPropertyOp29
 70
     1
102
RTVSPropertyOp30
 70
     1
102
RTVSPropertyOp31
 70
     1
102
RTVSPropertyOp32
 70
     1
  0
XRECORD
  5
1BC
102
{ACAD_REACTORS
330
1BB
102
}
330
1BB
100
AcDbXrecord
280
     1
102
RTVSPropertyOp0
 70
     1
102
RTVSPropertyOp1
 70
     1
102
RTVSPropertyOp2
 70
     1
102
RTVSPropertyOp3
 70
     1
102
RTVSPropertyOp4
 70
     1
102
RTVSPropertyOp5
 70
     1
102
RTVSPropertyOp6
 70
     1
102
RTVSPropertyOp7
 70
     1
102
RTVSPropertyOp8
 70
     1
102
RTVSPropertyOp9
 70
     1
102
RTVSPropertyOp10
 70
     1
102
RTVSPropertyOp11
 70
     1
102
RTVSPropertyOp12
 70
     1
102
RTVSPropertyOp13
 70
     1
102
RTVSPropertyOp14
 70
     1
102
RTVSPropertyOp15
 70
     1
102
RTVSPropertyOp16
 70
     1
102
RTVSPropertyOp17
 70
     1
102
RTVSPropertyOp18
 70
     1
102
RTVSPropertyOp19
 70
     1
102
RTVSPropertyOp20
 70
     1
102
RTVSPropertyOp21
 70
     1
102
RTVSPropertyOp22
 70
     1
102
RTVSPropertyOp23
 70
     1
102
RTVSPropertyOp24
 70
     1
102
RTVSPropertyOp25
 70
     1
102
RTVSPropertyOp26
 70
     1
102
RTVSPropertyOp27
 70
     1
102
RTVSPropertyOp28
 70
     1
102
RTVSPropertyOp29
 70
     1
102
RTVSPropertyOp30
 70
     1
102
RTVSPropertyOp31
 70
     1
102
RTVSPropertyOp32
 70
     1
  0
XRECORD
  5
1BE
102
{ACAD_REACTORS
330
1BD
102
}
330
1BD
100
AcDbXrecord
280
     1
102
RTVSPropertyOp0
 70
     1
102
RTVSPropertyOp1
 70
     1
102
RTVSPropertyOp2
 70
     1
102
RTVSPropertyOp3
 70
     1
102
RTVSPropertyOp4
 70
     1
102
RTVSPropertyOp5
 70
     1
102
RTVSPropertyOp6
 70
     1
102
RTVSPropertyOp7
 70
     1
102
RTVSPropertyOp8
 70
     1
102
RTVSPropertyOp9
 70
     1
102
RTVSPropertyOp10
 70
     1
102
RTVSPropertyOp11
 70
     1
102
RTVSPropertyOp12
 70
     1
102
RTVSPropertyOp13
 70
     1
102
RTVSPropertyOp14
 70
     1
102
RTVSPropertyOp15
 70
     1
102
RTVSPropertyOp16
 70
     1
102
RTVSPropertyOp17
 70
     1
102
RTVSPropertyOp18
 70
     1
102
RTVSPropertyOp19
 70
     1
102
RTVSPropertyOp20
 70
     1
102
RTVSPropertyOp21
 70
     1
102
RTVSPropertyOp22
 70
     1
102
RTVSPropertyOp23
 70
     1
102
RTVSPropertyOp24
 70
     1
102
RTVSPropertyOp25
 70
     1
102
RTVSPropertyOp26
 70
     1
102
RTVSPropertyOp27
 70
     1
102
RTVSPropertyOp28
 70
     1
102
RTVSPropertyOp29
 70
     1
102
RTVSPropertyOp30
 70
     1
102
RTVSPropertyOp31
 70
     1
102
RTVSPropertyOp32
 70
     1
  0
XRECORD
  5
1C0
102
{ACAD_REACTORS
330
1BF
102
}
330
1BF
100
AcDbXrecord
280
     1
102
RTVSPropertyOp0
 70
     1
102
RTVSPropertyOp1
 70
     1
102
RTVSPropertyOp2
 70
     1
102
RTVSPropertyOp3
 70
     1
102
RTVSPropertyOp4
 70
     1
102
RTVSPropertyOp5
 70
     1
102
RTVSPropertyOp6
 70
     1
102
RTVSPropertyOp7
 70
     1
102
RTVSPropertyOp8
 70
     1
102
RTVSPropertyOp9
 70
     1
102
RTVSPropertyOp10
 70
     1
102
RTVSPropertyOp11
 70
     1
102
RTVSPropertyOp12
 70
     1
102
RTVSPropertyOp13
 70
     1
102
RTVSPropertyOp14
 70
     1
102
RTVSPropertyOp15
 70
     1
102
RTVSPropertyOp16
 70
     1
102
RTVSPropertyOp17
 70
     1
102
RTVSPropertyOp18
 70
     1
102
RTVSPropertyOp19
 70
     1
102
RTVSPropertyOp20
 70
     1
102
RTVSPropertyOp21
 70
     1
102
RTVSPropertyOp22
 70
     1
102
RTVSPropertyOp23
 70
     1
102
RTVSPropertyOp24
 70
     1
102
RTVSPropertyOp25
 70
     1
102
RTVSPropertyOp26
 70
     1
102
RTVSPropertyOp27
 70
     1
102
RTVSPropertyOp28
 70
     1
102
RTVSPropertyOp29
 70
     1
102
RTVSPropertyOp30
 70
     1
102
RTVSPropertyOp31
 70
     1
102
RTVSPropertyOp32
 70
     1
  0
XRECORD
  5
1C2
102
{ACAD_REACTORS
330
1C1
102
}
330
1C1
100
AcDbXrecord
280
     1
102
RTVSPropertyOp0
 70
     1
102
RTVSPropertyOp1
 70
     1
102
RTVSPropertyOp2
 70
     1
102
RTVSPropertyOp3
 70
     1
102
RTVSPropertyOp4
 70
     1
102
RTVSPropertyOp5
 70
     1
102
RTVSPropertyOp6
 70
     1
102
RTVSPropertyOp7
 70
     1
102
RTVSPropertyOp8
 70
     1
102
RTVSPropertyOp9
 70
     1
102
RTVSPropertyOp10
 70
     1
102
RTVSPropertyOp11
 70
     1
102
RTVSPropertyOp12
 70
     1
102
RTVSPropertyOp13
 70
     1
102
RTVSPropertyOp14
 70
     1
102
RTVSPropertyOp15
 70
     1
102
RTVSPropertyOp16
 70
     1
102
RTVSPropertyOp17
 70
     1
102
RTVSPropertyOp18
 70
     1
102
RTVSPropertyOp19
 70
     1
102
RTVSPropertyOp20
 70
     1
102
RTVSPropertyOp21
 70
     1
102
RTVSPropertyOp22
 70
     1
102
RTVSPropertyOp23
 70
     1
102
RTVSPropertyOp24
 70
     1
102
RTVSPropertyOp25
 70
     1
102
RTVSPropertyOp26
 70
     1
102
RTVSPropertyOp27
 70
     1
102
RTVSPropertyOp28
 70
     1
102
RTVSPropertyOp29
 70
     1
102
RTVSPropertyOp30
 70
     1
102
RTVSPropertyOp31
 70
     1
102
RTVSPropertyOp32
 70
     1
  0
XRECORD
  5
1D6
102
{ACAD_REACTORS
330
1D5
102
}
330
1D5
100
AcDbXrecord
280
     1
102
RTVSPropertyOp0
 70
     1
102
RTVSPropertyOp1
 70
     1
102
RTVSPropertyOp2
 70
     1
102
RTVSPropertyOp3
 70
     1
102
RTVSPropertyOp4
 70
     1
102
RTVSPropertyOp5
 70
     1
102
RTVSPropertyOp6
 70
     1
102
RTVSPropertyOp7
 70
     1
102
RTVSPropertyOp8
 70
     1
102
RTVSPropertyOp9
 70
     1
102
RTVSPropertyOp10
 70
     1
102
RTVSPropertyOp11
 70
     1
102
RTVSPropertyOp12
 70
     1
102
RTVSPropertyOp13
 70
     1
102
RTVSPropertyOp14
 70
     1
102
RTVSPropertyOp15
 70
     1
102
RTVSPropertyOp16
 70
     1
102
RTVSPropertyOp17
 70
     1
102
RTVSPropertyOp18
 70
     1
102
RTVSPropertyOp19
 70
     1
102
RTVSPropertyOp20
 70
     1
102
RTVSPropertyOp21
 70
     1
102
RTVSPropertyOp22
 70
     1
102
RTVSPropertyOp23
 70
     1
102
RTVSPropertyOp24
 70
     1
102
RTVSPropertyOp25
 70
     1
102
RTVSPropertyOp26
 70
     1
102
RTVSPropertyOp27
 70
     1
102
RTVSPropertyOp28
 70
     1
102
RTVSPropertyOp29
 70
     1
102
RTVSPropertyOp30
 70
     1
102
RTVSPropertyOp31
 70
     1
102
RTVSPropertyOp32
 70
     1
  0
XRECORD
  5
1CC
102
{ACAD_REACTORS
330
1CB
102
}
330
1CB
100
AcDbXrecord
280
     1
102
RTVSPropertyOp0
 70
     1
102
RTVSPropertyOp1
 70
     1
102
RTVSPropertyOp2
 70
     1
102
RTVSPropertyOp3
 70
     1
102
RTVSPropertyOp4
 70
     1
102
RTVSPropertyOp5
 70
     1
102
RTVSPropertyOp6
 70
     1
102
RTVSPropertyOp7
 70
     1
102
RTVSPropertyOp8
 70
     1
102
RTVSPropertyOp9
 70
     1
102
RTVSPropertyOp10
 70
     1
102
RTVSPropertyOp11
 70
     1
102
RTVSPropertyOp12
 70
     1
102
RTVSPropertyOp13
 70
     1
102
RTVSPropertyOp14
 70
     1
102
RTVSPropertyOp15
 70
     1
102
RTVSPropertyOp16
 70
     1
102
RTVSPropertyOp17
 70
     1
102
RTVSPropertyOp18
 70
     1
102
RTVSPropertyOp19
 70
     1
102
RTVSPropertyOp20
 70
     1
102
RTVSPropertyOp21
 70
     1
102
RTVSPropertyOp22
 70
     1
102
RTVSPropertyOp23
 70
     1
102
RTVSPropertyOp24
 70
     1
102
RTVSPropertyOp25
 70
     1
102
RTVSPropertyOp26
 70
     1
102
RTVSPropertyOp27
 70
     1
102
RTVSPropertyOp28
 70
     1
102
RTVSPropertyOp29
 70
     1
102
RTVSPropertyOp30
 70
     1
102
RTVSPropertyOp31
 70
     1
102
RTVSPropertyOp32
 70
     1
  0
XRECORD
  5
1D4
102
{ACAD_REACTORS
330
1D3
102
}
330
1D3
100
AcDbXrecord
280
     1
102
RTVSPropertyOp0
 70
     1
102
RTVSPropertyOp1
 70
     1
102
RTVSPropertyOp2
 70
     1
102
RTVSPropertyOp3
 70
     1
102
RTVSPropertyOp4
 70
     1
102
RTVSPropertyOp5
 70
     1
102
RTVSPropertyOp6
 70
     1
102
RTVSPropertyOp7
 70
     1
102
RTVSPropertyOp8
 70
     1
102
RTVSPropertyOp9
 70
     1
102
RTVSPropertyOp10
 70
     1
102
RTVSPropertyOp11
 70
     1
102
RTVSPropertyOp12
 70
     1
102
RTVSPropertyOp13
 70
     1
102
RTVSPropertyOp14
 70
     1
102
RTVSPropertyOp15
 70
     1
102
RTVSPropertyOp16
 70
     1
102
RTVSPropertyOp17
 70
     1
102
RTVSPropertyOp18
 70
     1
102
RTVSPropertyOp19
 70
     1
102
RTVSPropertyOp20
 70
     1
102
RTVSPropertyOp21
 70
     1
102
RTVSPropertyOp22
 70
     1
102
RTVSPropertyOp23
 70
     1
102
RTVSPropertyOp24
 70
     1
102
RTVSPropertyOp25
 70
     1
102
RTVSPropertyOp26
 70
     1
102
RTVSPropertyOp27
 70
     1
102
RTVSPropertyOp28
 70
     1
102
RTVSPropertyOp29
 70
     1
102
RTVSPropertyOp30
 70
     1
102
RTVSPropertyOp31
 70
     1
102
RTVSPropertyOp32
 70
     1
  0
ENDSEC
  0
EOF
