  0
SECTION
  2
HEADER
  9
$ACADVER
  1
AC1009
  9
$DWGCODEPAGE
  3
ansi_932
  9
$INSBASE
 10
0.0
 20
0.0
 30
0.0
  9
$EXTMIN
 10
0.0
 20
0.0
 30
0.0
  9
$EXTMAX
 10
1680.0
 20
2376.0
 30
0.0
  9
$LIMMIN
 10
0.0
 20
0.0
  9
$LIMMAX
 10
1680.0
 20
2376.0
  9
$ORTHOMODE
 70
     0
  9
$REGENMODE
 70
     1
  9
$FILLMODE
 70
     1
  9
$QTEXTMODE
 70
     0
  9
$MIRRTEXT
 70
     0
  9
$DRAGMODE
 70
     2
  9
$LTSCALE
 40
8.0
  9
$OSMODE
 70
     0
  9
$ATTMODE
 70
     1
  9
$TEXTSIZE
 40
0.05
  9
$TRACEWID
 40
0.05
  9
$TEXTSTYLE
  7
STANDARD
  9
$CLAYER
  8
SL816952-W
  9
$CELTYPE
  6
CONTINUOUS
  9
$CECOLOR
 62
     7
  9
$DIMSCALE
 40
1.0
  9
$DIMASZ
 40
15.75692404819533
  9
$DIMEXO
 40
8.0
  9
$DIMDLI
 40
0.38
  9
$DIMRND
 40
0.0
  9
$DIMDLE
 40
0.0
  9
$DIMEXE
 40
12.0
  9
$DIMTP
 40
0.0
  9
$DIMTM
 40
0.0
  9
$DIMTXT
 40
24.0
  9
$DIMCEN
 40
0.09
  9
$DIMTSZ
 40
0.0
  9
$DIMTOL
 70
     0
  9
$DIMLIM
 70
     0
  9
$DIMTIH
 70
     1
  9
$DIMTOH
 70
     1
  9
$DIMSE1
 70
     0
  9
$DIMSE2
 70
     0
  9
$DIMTAD
 70
     1
  9
$DIMZIN
 70
     0
  9
$DIMBLK
  1

  9
$DIMASO
 70
     1
  9
$DIMSHO
 70
     0
  9
$DIMPOST
  1

  9
$DIMAPOST
  1

  9
$DIMALT
 70
     0
  9
$DIMALTD
 70
     2
  9
$DIMALTF
 40
25.4
  9
$DIMLFAC
 40
1.0
  9
$DIMTOFL
 70
     0
  9
$DIMTVP
 40
1.0
  9
$DIMTIX
 70
     0
  9
$DIMSOXD
 70
     0
  9
$DIMSAH
 70
     0
  9
$DIMBLK1
  1

  9
$DIMBLK2
  1

  9
$DIMSTYLE
  2
STANDARD
  9
$DIMCLRD
 70
     0
  9
$DIMCLRE
 70
     0
  9
$DIMCLRT
 70
     0
  9
$DIMTFAC
 40
0.6
  9
$DIMGAP
 40
0.09
  9
$LUNITS
 70
     2
  9
$LUPREC
 70
     4
  9
$SKETCHINC
 40
0.1
  9
$FILLETRAD
 40
10.0
  9
$AUNITS
 70
     0
  9
$AUPREC
 70
     0
  9
$MENU
  1
acad
  9
$ELEVATION
 40
0.0
  9
$PELEVATION
 40
0.0
  9
$THICKNESS
 40
0.0
  9
$LIMCHECK
 70
     0
  9
$BLIPMODE
 70
     1
  9
$CHAMFERA
 40
0.0
  9
$CHAMFERB
 40
0.0
  9
$SKPOLY
 70
     0
  9
$TDCREATE
 40
2447893.375
  9
$TDUPDATE
 40
2447893.375
  9
$TDINDWG
 40
0.0
  9
$TDUSRTIMER
 40
0.0
  9
$USRTIMER
 70
     1
  9
$ANGBASE
 50
0.0
  9
$ANGDIR
 70
     0
  9
$PDMODE
 70
     0
  9
$PDSIZE
 40
0.0
  9
$PLINEWID
 40
0.0
  9
$COORDS
 70
     1
  9
$SPLFRAME
 70
     0
  9
$SPLINETYPE
 70
     6
  9
$SPLINESEGS
 70
     8
  9
$ATTDIA
 70
     0
  9
$ATTREQ
 70
     1
  9
$HANDLING
 70
     1
  9
$HANDSEED
  5
2CD
  9
$SURFTAB1
 70
     6
  9
$SURFTAB2
 70
     6
  9
$SURFTYPE
 70
     6
  9
$SURFU
 70
     6
  9
$SURFV
 70
     6
  9
$UCSNAME
  2

  9
$UCSORG
 10
0.0
 20
0.0
 30
0.0
  9
$UCSXDIR
 10
1.0
 20
0.0
 30
0.0
  9
$UCSYDIR
 10
0.0
 20
1.0
 30
0.0
  9
$PUCSNAME
  2

  9
$PUCSORG
 10
0.0
 20
0.0
 30
0.0
  9
$PUCSXDIR
 10
1.0
 20
0.0
 30
0.0
  9
$PUCSYDIR
 10
0.0
 20
1.0
 30
0.0
  9
$USERI1
 70
     0
  9
$USERI2
 70
     0
  9
$USERI3
 70
     0
  9
$USERI4
 70
     0
  9
$USERI5
 70
     0
  9
$USERR1
 40
0.0
  9
$USERR2
 40
0.0
  9
$USERR3
 40
0.0
  9
$USERR4
 40
0.0
  9
$USERR5
 40
0.0
  9
$WORLDVIEW
 70
     1
  9
$SHADEDGE
 70
     3
  9
$SHADEDIF
 70
    70
  9
$TILEMODE
 70
     1
  9
$MAXACTVP
 70
    64
  9
$PLIMCHECK
 70
     0
  9
$PEXTMIN
 10
1.000000000000000E+20
 20
1.000000000000000E+20
 30
1.000000000000000E+20
  9
$PEXTMAX
 10
-1.000000000000000E+20
 20
-1.000000000000000E+20
 30
-1.000000000000000E+20
  9
$PLIMMIN
 10
0.0
 20
0.0
  9
$PLIMMAX
 10
12.0
 20
9.0
  9
$UNITMODE
 70
     0
  9
$VISRETAIN
 70
     1
  9
$PLINEGEN
 70
     0
  9
$PSLTSCALE
 70
     1
  0
ENDSEC
  0
SECTION
  2
TABLES
  0
TABLE
  2
VPORT
 70
     1
  0
VPORT
  2
*ACTIVE
 70
     0
 10
0.0
 20
0.0
 11
1.0
 21
1.0
 12
840.0
 22
1188.0
 13
0.0
 23
0.0
 14
0.5
 24
0.5
 15
0.5
 25
0.5
 16
0.0
 26
0.0
 36
1.0
 17
0.0
 27
0.0
 37
0.0
 40
2376.0
 41
0.7070707070707071
 42
50.0
 43
0.0
 44
0.0
 50
0.0
 51
0.0
 71
     0
 72
   100
 73
     1
 74
     3
 75
     0
 76
     0
 77
     0
 78
     0
  0
ENDTAB
  0
TABLE
  2
LTYPE
 70
    30
  0
LTYPE
  2
CONTINUOUS
 70
     0
  3
Solid line
 72
    65
 73
     0
 40
0.0
  0
LTYPE
  2
BORDER
 70
     0
  3
Border __ __ . __ __ . __ __ . __ __ . __ __ .
 72
    65
 73
     6
 40
11.1125
 49
3.175
 49
-1.5875
 49
3.175
 49
-1.5875
 49
0.0
 49
-1.5875
  0
LTYPE
  2
BORDER2
 70
     0
  3
Border (.5x) __.__.__.__.__.__.__.__.__.__.__.
 72
    65
 73
     6
 40
5.556249999999999
 49
1.5875
 49
-0.79375
 49
1.5875
 49
-0.79375
 49
0.0
 49
-0.79375
  0
LTYPE
  2
BORDERX2
 70
     0
  3
Border (2x) ____  ____  .  ____  ____  .  ___
 72
    65
 73
     6
 40
22.225
 49
6.35
 49
-3.175
 49
6.35
 49
-3.175
 49
0.0
 49
-3.175
  0
LTYPE
  2
CENTER
 70
     0
  3
Center ____ _ ____ _ ____ _ ____ _ ____ _ ____
 72
    65
 73
     4
 40
12.7
 49
7.9375
 49
-1.5875
 49
1.5875
 49
-1.5875
  0
LTYPE
  2
CENTER2
 70
     0
  3
Center (.5x) ___ _ ___ _ ___ _ ___ _ ___ _ ___
 72
    65
 73
     4
 40
7.143750000000001
 49
4.7625
 49
-0.79375
 49
0.79375
 49
-0.79375
  0
LTYPE
  2
CENTERX2
 70
     0
  3
Center (2x) ________  __  ________  __  _____
 72
    65
 73
     4
 40
25.4
 49
15.875
 49
-3.175
 49
3.175
 49
-3.175
  0
LTYPE
  2
DASHDOT
 70
     0
  3
Dash dot __ . __ . __ . __ . __ . __ . __ . __
 72
    65
 73
     4
 40
6.35
 49
3.175
 49
-1.5875
 49
0.0
 49
-1.5875
  0
LTYPE
  2
DASHDOT2
 70
     0
  3
Dash dot (.5x) _._._._._._._._._._._._._._._.
 72
    65
 73
     4
 40
3.175
 49
1.5875
 49
-0.79375
 49
0.0
 49
-0.79375
  0
LTYPE
  2
DASHDOTX2
 70
     0
  3
Dash dot (2x) ____  .  ____  .  ____  .  ___
 72
    65
 73
     4
 40
12.7
 49
6.35
 49
-3.175
 49
0.0
 49
-3.175
  0
LTYPE
  2
DASHED
 70
     0
  3
Dashed
 72
    65
 73
     2
 40
15.0
 49
7.0
 49
-8.0
  0
LTYPE
  2
DASHED2
 70
     0
  3
Dashed (.5x) _ _ _ _ _ _ _ _ _ _ _ _ _ _ _ _ _ 
 72
    65
 73
     2
 40
2.38125
 49
1.5875
 49
-0.79375
  0
LTYPE
  2
DASHEDX2
 70
     0
  3
Dashed (2x) ____  ____  ____  ____  ____  ___
 72
    65
 73
     2
 40
9.524999999999999
 49
6.35
 49
-3.175
  0
LTYPE
  2
DIVIDE
 70
     0
  3
Divide ____ . . ____ . . ____ . . ____ . . ____
 72
    65
 73
     6
 40
7.9375
 49
3.175
 49
-1.5875
 49
0.0
 49
-1.5875
 49
0.0
 49
-1.5875
  0
LTYPE
  2
DIVIDE2
 70
     0
  3
Divide (.5x) __..__..__..__..__..__..__..__.._
 72
    65
 73
     6
 40
3.96875
 49
1.5875
 49
-0.79375
 49
0.0
 49
-0.79375
 49
0.0
 49
-0.79375
  0
LTYPE
  2
DIVIDEX2
 70
     0
  3
Divide (2x) ________  .  .  ________  .  .  _
 72
    65
 73
     6
 40
15.875
 49
6.35
 49
-3.175
 49
0.0
 49
-3.175
 49
0.0
 49
-3.175
  0
LTYPE
  2
DOT
 70
     0
  3
Dot . . . . . . . . . . . . . . . . . . . . . . . .
 72
    65
 73
     2
 40
1.5875
 49
0.0
 49
-1.5875
  0
LTYPE
  2
DOT2
 70
     0
  3
Dot (.5x) ........................................
 72
    65
 73
     2
 40
0.79375
 49
0.0
 49
-0.79375
  0
LTYPE
  2
DOTX2
 70
     0
  3
Dot (2x) .  .  .  .  .  .  .  .  .  .  .  .  .  .
 72
    65
 73
     2
 40
3.175
 49
0.0
 49
-3.175
  0
LTYPE
  2
HIDDEN
 70
     0
  3
Hidden __ __ __ __ __ __ __ __ __ __ __ __ __ __
 72
    65
 73
     2
 40
2.38125
 49
1.5875
 49
-0.79375
  0
LTYPE
  2
HIDDEN2
 70
     0
  3
Hidden (.5x) _ _ _ _ _ _ _ _ _ _ _ _ _ _ _ _ _ 
 72
    65
 73
     2
 40
1.190625
 49
0.79375
 49
-0.396875
  0
LTYPE
  2
HIDDENX2
 70
     0
  3
Hidden (2x) ____ ____ ____ ____ ____ ____ ____ 
 72
    65
 73
     2
 40
4.762499999999999
 49
3.175
 49
-1.5875
  0
LTYPE
  2
PHANTOM
 70
     0
  3
Phantom
 72
    65
 73
     6
 40
13.0
 49
10.0
 49
-1.0
 49
0.0
 49
-1.0
 49
0.0
 49
-1.0
  0
LTYPE
  2
PHANTOM2
 70
     0
  3
Phantom (.5x) ___ _ _ ___ _ _ ___ _ _ ___ _ _
 72
    65
 73
     6
 40
7.937500000000001
 49
3.96875
 49
-0.79375
 49
0.79375
 49
-0.79375
 49
0.79375
 49
-0.79375
  0
LTYPE
  2
PHANTOMX2
 70
     0
  3
Phantom (2x) ____________    ____    ____   _
 72
    65
 73
     6
 40
31.75
 49
15.875
 49
-3.175
 49
3.175
 49
-3.175
 49
3.175
 49
-3.175
  0
LTYPE
  2
DOTTED
 70
     0
  3
Dotted
 72
    65
 73
     2
 40
1.0
 49
0.0
 49
-1.0
  0
LTYPE
  2
DOT_CENTER
 70
     0
  3
Dot_Center
 72
    65
 73
     4
 40
14.0
 49
12.0
 49
-1.0
 49
0.0
 49
-1.0
  0
LTYPE
  2
LONG_DASHED
 70
     0
  3
Long_Dashed
 72
    65
 73
     2
 40
15.0
 49
10.0
 49
-5.0
  0
LTYPE
  2
DASH_CENTER
 70
     0
  3
Dash_Center
 72
    65
 73
     4
 40
14.0
 49
11.0
 49
-1.0
 49
1.0
 49
-1.0
  0
LTYPE
  2
CENTER_DASH_DASH
 70
     0
  3
Center_Dash_Dash
 72
    65
 73
     6
 40
14.0
 49
9.0
 49
-1.0
 49
1.0
 49
-1.0
 49
1.0
 49
-1.0
  0
ENDTAB
  0
TABLE
  2
LAYER
 70
     3
  0
LAYER
  2
0
 70
     0
 62
     7
  6
CONTINUOUS
  0
LAYER
  2
SL816952-W
 70
     0
 62
     7
  6
CONTINUOUS
  0
LAYER
  2
図枠-A4縦-開示
 70
     0
 62
     7
  6
CONTINUOUS
  0
ENDTAB
  0
TABLE
  2
STYLE
 70
     3
  0
STYLE
  2
STANDARD
 70
     0
 40
0.0
 41
1.0
 50
0.0
 71
     0
 42
0.2
  3
txt
  4
BIGFONT
  0
STYLE
  2
TATEGAKI
 70
     4
 40
0.0
 41
1.0
 50
0.0
 71
     0
 42
0.2
  3
monotxt
  4
BIGFONT
  0
STYLE
  2
1H
 70
     0
 40
0.0
 41
1.0
 50
0.0
 71
     0
 42
0.2
  3
MS Gothic.ttf
  4

  0
ENDTAB
  0
TABLE
  2
VIEW
 70
     0
  0
ENDTAB
  0
TABLE
  2
UCS
 70
     0
  0
ENDTAB
  0
TABLE
  2
APPID
 70
     1
  0
APPID
  2
ACAD
 70
     0
  0
ENDTAB
  0
TABLE
  2
DIMSTYLE
 70
     3
  0
DIMSTYLE
  2
STANDARD
 70
     0
  3

  4

  5

  6

  7

 40
1.0
 41
0.18
 42
0.0625
 43
0.38
 44
0.18
 45
0.0
 46
0.0
 47
0.0
 48
0.0
140
0.18
141
0.09
142
0.0
143
25.4
144
1.0
145
0.0
146
1.0
147
0.09
 71
     0
 72
     0
 73
     1
 74
     1
 75
     0
 76
     0
 77
     0
 78
     0
170
     0
171
     2
172
     0
173
     0
174
     0
175
     0
176
     0
177
     0
178
     0
  0
DIMSTYLE
  2
DS345211072
 70
     0
  3

  4

  5

  6

  7

 40
1.0
 41
0.0
 42
8.0
 43
0.38
 44
12.0
 45
0.0
 46
0.0
 47
0.0
 48
0.0
140
24.0
141
0.09
142
0.0
143
25.4
144
1.0
145
1.0
146
0.6
147
0.09
 71
     0
 72
     0
 73
     0
 74
     0
 75
     0
 76
     0
 77
     1
 78
     0
170
     0
171
     2
172
     0
173
     0
174
     0
175
     0
176
     7
177
     7
178
     7
  0
DIMSTYLE
  2
DS347378376
 70
     0
  3

  4

  5

  6

  7

 40
1.0
 41
0.0
 42
0.0625
 43
0.38
 44
0.18
 45
0.0
 46
0.0
 47
0.0
 48
0.0
140
24.0
141
0.09
142
0.0
143
25.4
144
1.0
145
1.0
146
0.6
147
0.09
 71
     0
 72
     0
 73
     0
 74
     0
 75
     1
 76
     1
 77
     1
 78
     0
170
     0
171
     2
172
     0
173
     0
174
     0
175
     0
176
     7
177
     7
178
     7
  0
ENDTAB
  0
ENDSEC
  0
SECTION
  2
BLOCKS
  0
BLOCK
  8
0
  2
$MODEL_SPACE
 70
     0
 10
0.0
 20
0.0
 30
0.0
  3
$MODEL_SPACE
  1

  0
ENDBLK
  5
21
  8
0
  0
BLOCK
 67
     1
  8
0
  2
$PAPER_SPACE
 70
     0
 10
0.0
 20
0.0
 30
0.0
  3
$PAPER_SPACE
  1

  0
ENDBLK
  5
1D
 67
     1
  8
0
  0
BLOCK
  8
0
  2
_D345211072
 70
     0
 10
0.0
 20
0.0
 30
0.0
  3
_D345211072
  1

  0
SOLID
  5
65
  8
SL816952-W
 62
     7
 10
992.1658127619937
 20
1548.021434683856
 30
0.0
 11
989.7008867778347
 21
1563.778358732051
 31
0.0
 12
994.6307387461527
 22
1563.778358732051
 32
0.0
 13
994.6307387461527
 23
1563.778358732051
 33
0.0
  0
SOLID
  5
66
  8
SL816952-W
 62
     7
 10
992.1658127619937
 20
1748.228335683856
 30
0.0
 11
994.6307387461527
 21
1732.471411635661
 31
0.0
 12
989.7008867778347
 22
1732.471411635661
 32
0.0
 13
989.7008867778347
 23
1732.471411635661
 33
0.0
  0
LINE
  5
67
  8
SL816952-W
  6
CONTINUOUS
 62
     7
 10
936.6745459247719
 20
1548.021434683856
 30
0.0
 11
1004.165812761994
 21
1548.021434683856
 31
0.0
  0
LINE
  5
68
  8
SL816952-W
  6
CONTINUOUS
 62
     7
 10
604.4853919831316
 20
1748.228335683856
 30
0.0
 11
1004.165812761994
 21
1748.228335683856
 31
0.0
  0
LINE
  5
69
  8
SL816952-W
  6
CONTINUOUS
 62
     7
 10
992.1658127619937
 20
1548.021434683856
 30
0.0
 11
992.1658127619937
 21
1748.228335683856
 31
0.0
  0
TEXT
  5
6A
  8
SL816952-W
 62
     7
 10
987.3658127619939
 20
1632.894115953087
 30
0.0
 40
18.46153846153846
  1
200
 50
90.0
  0
ENDBLK
  5
64
  8
0
  0
BLOCK
  8
0
  2
_D345213520
 70
     0
 10
0.0
 20
0.0
 30
0.0
  3
_D345213520
  1

  0
SOLID
  5
6E
  8
SL816952-W
 62
     7
 10
1057.182114578482
 20
1347.796619104693
 30
0.0
 11
1054.717188594323
 21
1363.553543152888
 31
0.0
 12
1059.647040562641
 22
1363.553543152888
 32
0.0
 13
1059.647040562641
 23
1363.553543152888
 33
0.0
  0
SOLID
  5
6F
  8
SL816952-W
 62
     7
 10
1057.182114578482
 20
1748.228335683856
 30
0.0
 11
1059.647040562641
 21
1732.471411635661
 31
0.0
 12
1054.717188594323
 22
1732.471411635661
 32
0.0
 13
1054.717188594323
 23
1732.471411635661
 33
0.0
  0
LINE
  5
70
  8
SL816952-W
  6
CONTINUOUS
 62
     7
 10
604.4853919831316
 20
1347.796619104693
 30
0.0
 11
1069.182114578482
 21
1347.796619104693
 31
0.0
  0
LINE
  5
71
  8
SL816952-W
  6
CONTINUOUS
 62
     7
 10
604.4853919831178
 20
1748.228335683856
 30
0.0
 11
1069.182114578482
 21
1748.228335683856
 31
0.0
  0
LINE
  5
72
  8
SL816952-W
  6
CONTINUOUS
 62
     7
 10
1057.182114578482
 20
1347.796619104693
 30
0.0
 11
1057.182114578482
 21
1748.228335683856
 31
0.0
  0
TEXT
  5
73
  8
SL816952-W
 62
     7
 10
1052.382114578482
 20
1532.781708163505
 30
0.0
 40
18.46153846153846
  1
400
 50
90.0
  0
ENDBLK
  5
6D
  8
0
  0
BLOCK
  8
0
  2
_D345214744
 70
     0
 10
0.0
 20
0.0
 30
0.0
  3
_D345214744
  1

  0
SOLID
  5
77
  8
SL816952-W
 62
     7
 10
296.2687470177548
 20
1264.082906380997
 30
0.0
 11
312.0256710659501
 21
1266.547832365156
 31
0.0
 12
312.0256710659501
 22
1261.617980396838
 32
0.0
 13
312.0256710659501
 23
1261.617980396838
 33
0.0
  0
SOLID
  5
78
  8
SL816952-W
 62
     7
 10
896.68550048934
 20
1264.082906380997
 30
0.0
 11
880.9285764411447
 21
1261.617980396838
 31
0.0
 12
880.9285764411447
 22
1266.547832365156
 32
0.0
 13
880.9285764411447
 23
1266.547832365156
 33
0.0
  0
LINE
  5
79
  8
SL816952-W
  6
CONTINUOUS
 62
     7
 10
296.2687470177548
 20
1540.021434683857
 30
0.0
 11
296.2687470177548
 21
1252.082906380997
 31
0.0
  0
LINE
  5
7A
  8
SL816952-W
  6
CONTINUOUS
 62
     7
 10
896.6855004893399
 20
1540.021434683855
 30
0.0
 11
896.68550048934
 21
1252.082906380997
 31
0.0
  0
LINE
  5
7B
  8
SL816952-W
  6
CONTINUOUS
 62
     7
 10
296.2687470177548
 20
1264.082906380997
 30
0.0
 11
896.68550048934
 21
1264.082906380997
 31
0.0
  0
TEXT
  5
7C
  8
SL816952-W
 62
     7
 10
578.4771237535474
 20
1271.652137150228
 30
0.0
 40
18.46153846153846
  1
600
  0
ENDBLK
  5
76
  8
0
  0
BLOCK
  8
0
  2
_D345215968
 70
     0
 10
0.0
 20
0.0
 30
0.0
  3
_D345215968
  1

  0
SOLID
  5
80
  8
SL816952-W
 62
     7
 10
992.1658127619937
 20
957.3981000743365
 30
0.0
 11
994.6307387461527
 21
941.6411760261412
 31
0.0
 12
989.7008867778347
 22
941.6411760261412
 32
0.0
 13
989.7008867778347
 23
941.6411760261412
 33
0.0
  0
SOLID
  5
81
  8
SL816952-W
 62
     7
 10
992.1658127619937
 20
842.3422736509584
 30
0.0
 11
989.7008867778347
 21
858.0991976991537
 31
0.0
 12
994.6307387461527
 22
858.0991976991537
 32
0.0
 13
994.6307387461527
 23
858.0991976991537
 33
0.0
  0
LINE
  5
82
  8
SL816952-W
  6
CONTINUOUS
 62
     7
 10
895.0332641253485
 20
957.3981000743365
 30
0.0
 11
1004.165812761994
 21
957.3981000743365
 31
0.0
  0
LINE
  5
83
  8
SL816952-W
  6
CONTINUOUS
 62
     7
 10
885.8110118771095
 20
842.3422736509584
 30
0.0
 11
1004.165812761994
 21
842.3422736509584
 31
0.0
  0
LINE
  5
84
  8
SL816952-W
  6
CONTINUOUS
 62
     7
 10
992.1658127619937
 20
957.3981000743365
 30
0.0
 11
992.1658127619937
 21
842.3422736509584
 31
0.0
  0
TEXT
  5
85
  8
SL816952-W
 62
     7
 10
987.3658127619938
 20
884.6394176318782
 30
0.0
 40
18.46153846153846
  1
115
 50
90.0
  0
ENDBLK
  5
7F
  8
0
  0
BLOCK
  8
0
  2
_D345217192
 70
     0
 10
0.0
 20
0.0
 30
0.0
  3
_D345217192
  1

  0
SOLID
  5
89
  8
SL816952-W
 62
     7
 10
1057.165812761994
 20
957.3981000743365
 30
0.0
 11
1059.630738746153
 21
941.6411760261412
 31
0.0
 12
1054.700886777835
 22
941.6411760261412
 32
0.0
 13
1054.700886777835
 23
941.6411760261412
 33
0.0
  0
SOLID
  5
8A
  8
SL816952-W
 62
     7
 10
1057.165812761994
 20
812.3888949560553
 30
0.0
 11
1054.700886777835
 21
828.1458190042506
 31
0.0
 12
1059.630738746153
 22
828.1458190042506
 32
0.0
 13
1059.630738746153
 23
828.1458190042506
 33
0.0
  0
LINE
  5
8B
  8
SL816952-W
  6
CONTINUOUS
 62
     7
 10
895.0332641253485
 20
957.3981000743365
 30
0.0
 11
1069.165812761994
 21
957.3981000743365
 31
0.0
  0
LINE
  5
8C
  8
SL816952-W
  6
CONTINUOUS
 62
     7
 10
634.2592077013123
 20
812.3888949560553
 30
0.0
 11
1069.165812761994
 21
812.3888949560554
 31
0.0
  0
LINE
  5
8D
  8
SL816952-W
  6
CONTINUOUS
 62
     7
 10
1057.165812761994
 20
957.3981000743365
 30
0.0
 11
1057.165812761994
 21
812.3888949560553
 31
0.0
  0
TEXT
  5
8E
  8
SL816952-W
 62
     7
 10
1052.365812761994
 20
869.6627282844266
 30
0.0
 40
18.46153846153846
  1
145
 50
90.0
  0
ENDBLK
  5
88
  8
0
  0
BLOCK
  8
0
  2
_D347378376
 70
     0
 10
0.0
 20
0.0
 30
0.0
  3
_D347378376
  1

  0
SOLID
  5
92
  8
SL816952-W
 62
     7
 10
580.221936015704
 20
1531.757978716696
 30
0.0
 11
570.8230740493312
 21
1518.873184992889
 31
0.0
 12
567.3371422922268
 22
1522.359116749872
 32
0.0
 13
567.3371422922268
 23
1522.359116749872
 33
0.0
  0
SOLID
  5
93
  8
SL816952-W
 62
     7
 10
612.748847949718
 20
1564.284890651844
 30
0.0
 11
622.1477099160908
 21
1577.169684375651
 31
0.0
 12
625.6336416731953
 22
1573.683752618668
 32
0.0
 13
625.6336416731953
 23
1573.683752618668
 33
0.0
  0
LINE
  5
94
  8
SL816952-W
  6
CONTINUOUS
 62
     7
 10
580.221936015704
 20
1531.757978716696
 30
0.0
 11
612.748847949718
 21
1564.284890651844
 31
0.0
  0
LINE
  5
95
  8
SL816952-W
  6
CONTINUOUS
 62
     7
 10
526.9959482596521
 20
1478.531990958787
 30
0.0
 11
580.221936015704
 21
1531.757978716696
 31
0.0
  0
LINE
  5
96
  8
SL816952-W
  6
CONTINUOUS
 62
     7
 10
629.7194106978992
 20
1581.255453400617
 30
0.0
 11
612.748847949718
 21
1564.284890651844
 31
0.0
  0
TEXT
  5
97
  8
SL816952-W
 62
     7
 10
527.844476396839
 20
1488.937974964951
 30
0.0
 40
18.46153846153846
  1
φ46
 50
45.00000000099909
  0
ENDBLK
  5
91
  8
0
  0
BLOCK
  8
0
  2
_D347380568
 70
     0
 10
0.0
 20
0.0
 30
0.0
  3
_D347380568
  1

  0
SOLID
  5
9B
  8
SL816952-W
 62
     7
 10
569.9688876887133
 20
1574.537938978436
 30
0.0
 11
557.0840939650553
 21
1583.936800945012
 31
0.0
 12
560.570025722093
 22
1587.422732702062
 32
0.0
 13
560.570025722093
 23
1587.422732702062
 33
0.0
  0
SOLID
  5
9C
  8
SL816952-W
 62
     7
 10
623.0018962777925
 20
1521.504930389533
 30
0.0
 11
635.8866900014505
 21
1512.106068422956
 31
0.0
 12
632.4007582444128
 22
1508.620136665907
 32
0.0
 13
632.4007582444128
 23
1508.620136665907
 33
0.0
  0
LINE
  5
9D
  8
SL816952-W
  6
CONTINUOUS
 62
     7
 10
569.9688876887133
 20
1574.537938978436
 30
0.0
 11
623.0018962777925
 21
1521.504930389533
 31
0.0
  0
LINE
  5
9E
  8
SL816952-W
  6
CONTINUOUS
 62
     7
 10
517.8080483348879
 20
1626.698778332088
 30
0.0
 11
569.9688876887133
 21
1574.537938978436
 31
0.0
  0
LINE
  5
9F
  8
SL816952-W
  6
CONTINUOUS
 62
     7
 10
639.9724590262979
 20
1504.534367641084
 30
0.0
 11
623.0018962777925
 21
1521.504930389533
 31
0.0
  0
TEXT
  5
A0
  8
SL816952-W
 62
     7
 10
525.4448015717032
 20
1628.619480963906
 30
0.0
 40
18.46153846153846
  1
φ75
 50
315.0000000000953
  0
ENDBLK
  5
9A
  8
0
  0
ENDSEC
  0
SECTION
  2
ENTITIES
  0
LINE
  5
A1
  8
SL816952-W
  6
CENTER
 62
     7
 10
268.8282487659457
 20
1548.021434683856
 30
0.0
 11
928.674545924772
 21
1548.021434683856
 31
0.0
  0
LINE
  5
A2
  8
SL816952-W
  6
CENTER2
 62
     7
 10
596.4853919831178
 20
1748.228335683856
 30
0.0
 11
596.4853919828067
 21
1772.228335683856
 31
0.0
  0
LINE
  5
A3
  8
SL816952-W
  6
CENTER
 62
     7
 10
596.4853919831316
 20
1347.796619104692
 30
0.0
 11
596.4853919831178
 21
1748.228335683856
 31
0.0
  0
LINE
  5
A4
  8
SL816952-W
  6
CENTER2
 62
     7
 10
596.4853919829447
 20
1323.796619104691
 30
0.0
 11
596.4853919831316
 21
1347.796619104692
 31
0.0
  0
LINE
  5
A5
  8
SL816952-W
  6
CENTER
 62
     7
 10
596.1948801698287
 20
807.8030809414513
 30
0.0
 11
596.1948801696956
 21
981.3422736497844
 31
0.0
  0
LINE
  5
A6
  8
SL816952-W
  6
CONTINUOUS
 62
     7
 10
896.4142812114966
 20
957.2973102493662
 30
0.0
 11
896.4142812114966
 21
957.3973102493684
 31
0.0
  0
LINE
  5
A7
  8
SL816952-W
  6
CONTINUOUS
 62
     7
 10
896.3642812114957
 20
957.3473102493673
 30
0.0
 11
896.4642812114956
 21
957.3473102493672
 31
0.0
  0
LINE
  5
A8
  8
SL816952-W
  6
CENTER
 62
     7
 10
1330.26277354184
 20
782.8909320450584
 30
0.0
 11
1330.26277354182
 21
980.6506108645025
 31
0.0
  0
LINE
  5
A9
  8
SL816952-W
  6
CENTER2
 62
     7
 10
596.1948801698476
 20
783.8030809414513
 30
0.0
 11
596.1948801698287
 21
807.8030809414513
 31
0.0
  0
LINE
  5
AA
  8
SL816952-W
  6
CONTINUOUS
 62
     7
 10
1288.728702541841
 20
827.0156165377653
 30
0.0
 11
1372.623667541841
 21
827.0156165377654
 31
0.0
  0
LINE
  5
AB
  8
SL816952-W
  6
CONTINUOUS
 62
     7
 10
554.2529101698296
 20
826.8061636384875
 30
0.0
 11
638.1478751698286
 21
826.8061636384875
 31
0.0
  0
ARC
  5
AC
  8
SL816952-W
  6
CONTINUOUS
 62
     7
 10
-11114.09361213068
 20
1548.018678566148
 30
0.0
 40
12010.77911262034
 50
359.2628555935696
 51
0.7371444064304401
  0
ARC
  5
AD
  8
SL816952-W
  6
CONTINUOUS
 62
     7
 10
12307.05186867658
 20
1548.018678566144
 30
0.0
 40
12010.78312165914
 50
179.2615532259217
 51
180.7384467740784
  0
ARC
  5
AE
  8
SL816952-W
  6
CONTINUOUS
 62
     7
 10
14326.06277085765
 20
1548.068869898906
 30
0.0
 40
14018.77444609212
 50
179.3668528883537
 51
180.6331471116463
  0
ARC
  5
AF
  8
SL816952-W
  6
CONTINUOUS
 62
     7
 10
-11130.27336941185
 20
1548.018678566149
 30
0.0
 40
12015.95387473752
 50
359.2886542446282
 51
0.71134575537183
  0
ARC
  5
B0
  8
SL816952-W
  6
CONTINUOUS
 62
     7
 10
-4315.198628758335
 20
1548.015930219683
 30
0.0
 40
5169.44606501463
 50
358.5703028472412
 51
1.42969715275895
  0
ARC
  5
B1
  8
SL816952-W
  6
CONTINUOUS
 62
     7
 10
5508.168883119546
 20
1548.015922706758
 30
0.0
 40
5169.445535410418
 50
178.5689640236085
 51
181.4310359763914
  0
ARC
  5
B2
  8
SL816952-W
  6
CONTINUOUS
 62
     7
 10
596.4826229343337
 20
6882.23606163649
 30
0.0
 40
5523.860241580571
 50
267.3018379413966
 51
272.6981620586034
  0
ARC
  5
B3
  8
SL816952-W
  6
CONTINUOUS
 62
     7
 10
596.4771237535497
 20
11156.56024722296
 30
0.0
 40
9768.319585149864
 50
268.6664263135382
 51
271.3335736864618
  0
ARC
  5
B4
  8
SL816952-W
  6
CONTINUOUS
 62
     7
 10
596.4771286426198
 20
7471.430623256208
 30
0.0
 40
6123.634004157091
 50
267.5598531577147
 51
272.4401468422853
  0
ARC
  5
B5
  8
SL816952-W
  6
CONTINUOUS
 62
     7
 10
596.4771265008487
 20
-4389.098394674393
 30
0.0
 40
6137.326730363815
 50
87.56595783920275
 51
92.43404216079725
  0
ARC
  5
B6
  8
SL816952-W
  6
CONTINUOUS
 62
     7
 10
596.4759310559607
 20
-8059.433920762758
 30
0.0
 40
9767.230615823046
 50
88.66551813738447
 51
91.33448186261549
  0
ARC
  5
B7
  8
SL816952-W
  6
CONTINUOUS
 62
     7
 10
596.4826216101537
 20
-3797.529657976245
 30
0.0
 40
5535.1785941136
 50
87.30737734887681
 51
92.69262265112322
  0
CIRCLE
  5
B8
  8
SL816952-W
  6
CONTINUOUS
 62
     7
 10
596.4853919831248
 20
1548.021434683856
 30
0.0
 40
23.0
  0
CIRCLE
  5
B9
  8
SL816952-W
  6
CONTINUOUS
 62
     7
 10
596.4853919831248
 20
1548.021434683856
 30
0.0
 40
37.5
  0
LINE
  5
BA
  8
SL816952-W
  6
CONTINUOUS
 62
     7
 10
852.6381462360816
 20
1419.036528334878
 30
0.0
 11
852.6351315660488
 21
1418.915792281426
 31
0.0
  0
LINE
  5
BB
  8
SL816952-W
  6
CONTINUOUS
 62
     7
 10
297.2662827192441
 20
1393.224057007343
 30
0.0
 11
297.2692027466046
 21
1392.997649920315
 31
0.0
  0
TEXT
  5
BC
  8
図枠-A4縦-開示
 62
     7
 10
207.08
 20
261.2307692307693
 30
0.0
 40
21.53846153846154
  1
備考
 41
0.89
  0
LINE
  5
BD
  8
図枠-A4縦-開示
  6
CONTINUOUS
 62
     7
 10
648.0
 20
216.0000000000001
 30
0.0
 11
648.0
 21
80.0
 31
0.0
  0
LINE
  5
BE
  8
図枠-A4縦-開示
  6
DASHED
 62
     7
 10
1496.0
 20
212.0000000000001
 30
0.0
 11
1496.0
 21
164.0000000000001
 31
0.0
  0
LINE
  5
BF
  8
図枠-A4縦-開示
  6
DASHED
 62
     7
 10
1472.0
 20
188.0000000000001
 30
0.0
 11
1576.0
 21
188.0000000000001
 31
0.0
  0
LINE
  5
C0
  8
図枠-A4縦-開示
  6
CONTINUOUS
 62
     7
 10
1568.0
 20
172.0000000000001
 30
0.0
 11
1528.0
 21
178.4000000000001
 31
0.0
  0
LINE
  5
C1
  8
図枠-A4縦-開示
  6
CONTINUOUS
 62
     7
 10
1568.0
 20
204.0000000000001
 30
0.0
 11
1568.0
 21
172.0000000000001
 31
0.0
  0
LINE
  5
C2
  8
図枠-A4縦-開示
  6
CONTINUOUS
 62
     7
 10
1528.0
 20
197.6000000000001
 30
0.0
 11
1568.0
 21
204.0000000000001
 31
0.0
  0
LINE
  5
C3
  8
図枠-A4縦-開示
  6
CONTINUOUS
 62
     7
 10
1528.0
 20
197.6000000000001
 30
0.0
 11
1528.0
 21
178.4000000000001
 31
0.0
  0
LINE
  5
C4
  8
図枠-A4縦-開示
  6
CONTINUOUS
 62
     7
 10
264.0
 20
216.0
 30
0.0
 11
264.0
 21
80.0
 31
0.0
  0
LINE
  5
C5
  8
図枠-A4縦-開示
  6
CONTINUOUS
 62
     7
 10
200.0
 20
148.0000000000001
 30
0.0
 11
648.0
 21
148.0000000000001
 31
0.0
  0
LINE
  5
C6
  8
図枠-A4縦-開示
  6
CONTINUOUS
 62
     7
 10
1600.0
 20
80.0
 30
0.0
 11
1600.0
 21
2296.000000000002
 31
0.0
  0
LINE
  5
C7
  8
図枠-A4縦-開示
  6
CONTINUOUS
 62
     7
 10
200.0
 20
80.0
 30
0.0
 11
1600.0
 21
80.0
 31
0.0
  0
LINE
  5
C8
  8
図枠-A4縦-開示
  6
CONTINUOUS
 62
     7
 10
200.0
 20
328.0
 30
0.0
 11
1600.0
 21
328.0
 31
0.0
  0
LINE
  5
C9
  8
図枠-A4縦-開示
  6
CONTINUOUS
 62
     7
 10
1600.0
 20
216.0000000000001
 30
0.0
 11
200.0
 21
216.0000000000001
 31
0.0
  0
LINE
  5
CA
  8
図枠-A4縦-開示
  6
CONTINUOUS
 62
     7
 10
264.0
 20
328.0000000000001
 30
0.0
 11
264.0
 21
216.0
 31
0.0
  0
LINE
  5
CB
  8
図枠-A4縦-開示
  6
CONTINUOUS
 62
     7
 10
440.0
 20
2296.000000000002
 30
0.0
 11
440.0
 21
2216.000000000002
 31
0.0
  0
LINE
  5
CC
  8
図枠-A4縦-開示
  6
CONTINUOUS
 62
     7
 10
320.0
 20
2296.000000000002
 30
0.0
 11
320.0
 21
2216.000000000002
 31
0.0
  0
LINE
  5
CD
  8
図枠-A4縦-開示
  6
CONTINUOUS
 62
     7
 10
200.0
 20
80.0
 30
0.0
 11
200.0
 21
2296.000000000002
 31
0.0
  0
LINE
  5
CE
  8
図枠-A4縦-開示
  6
CONTINUOUS
 62
     7
 10
440.0
 20
2216.000000000002
 30
0.0
 11
200.0
 21
2216.000000000002
 31
0.0
  0
LINE
  5
CF
  8
図枠-A4縦-開示
  6
CONTINUOUS
 62
     7
 10
1328.0
 20
216.0000000000001
 30
0.0
 11
1328.0
 21
80.0
 31
0.0
  0
LINE
  5
D0
  8
図枠-A4縦-開示
  6
CONTINUOUS
 62
     7
 10
1056.0
 20
216.0000000000001
 30
0.0
 11
1056.0
 21
79.99999999999991
 31
0.0
  0
LINE
  5
D1
  8
図枠-A4縦-開示
  6
CONTINUOUS
 62
     7
 10
1192.0
 20
216.0000000000001
 30
0.0
 11
1192.0
 21
80.0
 31
0.0
  0
LINE
  5
D2
  8
図枠-A4縦-開示
  6
CONTINUOUS
 62
     7
 10
920.0
 20
216.0000000000001
 30
0.0
 11
920.0
 21
79.99999999999991
 31
0.0
  0
LINE
  5
D3
  8
図枠-A4縦-開示
  6
CONTINUOUS
 62
     7
 10
784.0
 20
216.0000000000001
 30
0.0
 11
784.0
 21
79.99999999999991
 31
0.0
  0
LINE
  5
D4
  8
図枠-A4縦-開示
  6
CONTINUOUS
 62
     7
 10
1328.0
 20
160.0000000000001
 30
0.0
 11
1600.0
 21
160.0000000000001
 31
0.0
  0
LINE
  5
D5
  8
図枠-A4縦-開示
  6
CONTINUOUS
 62
     7
 10
840.0000000000001
 20
2296.000000000002
 30
0.0
 11
840.0
 21
2336.000000000002
 31
0.0
  0
LINE
  5
D6
  8
図枠-A4縦-開示
  6
CONTINUOUS
 62
     7
 10
1600.0
 20
2296.000000000002
 30
0.0
 11
200.0
 21
2296.000000000002
 31
0.0
  0
LINE
  5
D7
  8
図枠-A4縦-開示
  6
CONTINUOUS
 62
     7
 10
200.0
 20
1188.0
 30
0.0
 11
160.0
 21
1188.0
 31
0.0
  0
LINE
  5
D8
  8
図枠-A4縦-開示
  6
CONTINUOUS
 62
     7
 10
1600.0
 20
1188.0
 30
0.0
 11
1640.0
 21
1188.0
 31
0.0
  0
LINE
  5
D9
  8
図枠-A4縦-開示
  6
CONTINUOUS
 62
     7
 10
840.0
 20
80.0
 30
0.0
 11
840.0
 21
40.0
 31
0.0
  0
CIRCLE
  5
DA
  8
図枠-A4縦-開示
  6
CONTINUOUS
 62
     7
 10
716.0
 20
144.0
 30
0.0
 40
0.8000000000001816
  0
CIRCLE
  5
DB
  8
図枠-A4縦-開示
  6
CONTINUOUS
 62
     7
 10
716.0
 20
128.0
 30
0.0
 40
0.8000000000001816
  0
CIRCLE
  5
DC
  8
図枠-A4縦-開示
  6
CONTINUOUS
 62
     7
 10
1496.0
 20
188.0000000000001
 30
0.0
 40
16.0
  0
CIRCLE
  5
DD
  8
図枠-A4縦-開示
  6
CONTINUOUS
 62
     7
 10
1496.0
 20
188.0000000000001
 30
0.0
 40
9.600000000000817
  0
CIRCLE
  5
DE
  8
図枠-A4縦-開示
  6
CONTINUOUS
 62
     7
 10
1236.0
 20
100.0
 30
0.0
 40
2.400000000000091
  0
CIRCLE
  5
DF
  8
図枠-A4縦-開示
  6
CONTINUOUS
 62
     7
 10
1284.0
 20
100.0
 30
0.0
 40
2.400000000000091
  0
CIRCLE
  5
E0
  8
図枠-A4縦-開示
  6
CONTINUOUS
 62
     7
 10
1148.0
 20
100.0
 30
0.0
 40
2.400000000000091
  0
CIRCLE
  5
E1
  8
図枠-A4縦-開示
  6
CONTINUOUS
 62
     7
 10
1100.0
 20
100.0
 30
0.0
 40
2.400000000000091
  0
CIRCLE
  5
E2
  8
図枠-A4縦-開示
  6
CONTINUOUS
 62
     7
 10
1012.0
 20
100.0
 30
0.0
 40
2.399999999999978
  0
CIRCLE
  5
E3
  8
図枠-A4縦-開示
  6
CONTINUOUS
 62
     7
 10
964.0
 20
100.0
 30
0.0
 40
2.399999999999978
  0
CIRCLE
  5
E4
  8
図枠-A4縦-開示
  6
CONTINUOUS
 62
     7
 10
876.0
 20
100.0
 30
0.0
 40
2.399999999999978
  0
CIRCLE
  5
E5
  8
図枠-A4縦-開示
  6
CONTINUOUS
 62
     7
 10
828.0
 20
100.0
 30
0.0
 40
2.399999999999978
  0
TEXT
  5
E6
  8
図枠-A4縦-開示
 62
     7
 10
220.84
 20
2239.076923076923
 30
0.0
 40
33.84615384615385
  1
図番
 41
0.8899999999999999
  0
TEXT
  5
E7
  8
図枠-A4縦-開示
 62
     7
 10
686.9387172740812
 20
176.810770825396
 30
0.0
 40
25.84615384615385
  1
尺度
 41
0.89
  0
TEXT
  5
E8
  8
図枠-A4縦-開示
 62
     7
 10
207.08
 20
103.2307692307693
 30
0.0
 40
21.53846153846154
  1
品番
 41
0.89
  0
TEXT
  5
E9
  8
図枠-A4縦-開示
 62
     7
 10
207.08
 20
171.2307692307693
 30
0.0
 40
21.53846153846154
  1
品名
 41
0.89
  0
TEXT
  5
EA
  8
図枠-A4縦-開示
 62
     7
 10
1068.0
 20
188.4646892209718
 30
0.0
 40
21.53846153846154
  1
製図
  0
TEXT
  5
EB
  8
図枠-A4縦-開示
 62
     7
 10
1204.0
 20
188.4646892307691
 30
0.0
 40
21.53846153846154
  1
設計
  0
TEXT
  5
EC
  8
図枠-A4縦-開示
 62
     7
 10
932.0
 20
188.4646892209718
 30
0.0
 40
21.53846153846154
  1
検図
  0
TEXT
  5
ED
  8
図枠-A4縦-開示
 62
     7
 10
795.7527352297602
 20
188.464689220972
 30
0.0
 40
21.53846153846154
  1
承認
  0
TEXT
  5
EE
  8
図枠-A4縦-開示
 62
     7
 10
1343.526200621897
 20
175.6923076923078
 30
0.0
 40
24.61538461538461
  1
第三角法
  0
TEXT
  5
EF
  8
図枠-A4縦-開示
 62
     7
 10
1337.415027195102
 20
114.3076923076923
 30
0.0
 40
15.38461538461538
  1
株式会社
 41
0.89
  0
TEXT
  5
F0
  8
図枠-A4縦-開示
 62
     7
 10
1413.107634533107
 20
111.4153846153846
 30
0.0
 40
22.76923076923077
  1
三栄水栓製作所
 41
0.89
  0
TEXT
  5
F1
  8
図枠-A4縦-開示
 62
     7
 10
283.8103551872455
 20
171.2307692307693
 30
0.0
 40
21.53846153846154
  1
洗面器
  0
TEXT
  5
F2
  8
図枠-A4縦-開示
 62
     7
 10
283.8103551872455
 20
103.2307692307692
 30
0.0
 40
21.53846153846154
  1
SL816952-W-112
  0
TEXT
  5
F3
  8
図枠-A4縦-開示
 62
     7
 10
679.0453184383239
 20
122.3572320803702
 30
0.0
 40
27.69230769230769
  1
1
  0
TEXT
  5
F4
  8
図枠-A4縦-開示
 62
     7
 10
733.4308994587086
 20
122.3572320803702
 30
0.0
 40
27.69230769230769
  1
8
  0
TEXT
  5
F5
  8
SL816952-W
 62
     7
 10
1241.164415463438
 20
1955.29318189961
 30
0.0
 40
61.53846153846153
  1
参考図
  0
TEXT
  5
F6
  8
SL816952-W
 62
     7
 10
310.8779692594321
 20
280.680663537673
 30
0.0
 40
24.61538461538461
  1
シリーズ名：laufenpro(LAUFEN)
  0
TEXT
  5
F7
  8
SL816952-W
 62
     7
 10
313.6446204005592
 20
240.5642219913292
 30
0.0
 40
24.61538461538461
  1
容量：13.9L　・オーバーフロー付・水栓取付穴なし・天板取付金具付属
  0
LINE
  5
F8
  8
SL816952-W
  6
CONTINUOUS
 62
     7
 10
784.0
 20
80.0
 30
0.0
 11
1328.0
 21
216.0000000000001
 31
0.0
  0
LINE
  5
F9
  8
SL816952-W
  6
CENTER
 62
     7
 10
843.9853919831316
 20
1530.718910107126
 30
0.0
 11
843.9853919825192
 21
1568.241616208664
 31
0.0
  0
LINE
  5
FA
  8
SL816952-W
  6
CENTER
 62
     7
 10
348.9853919831316
 20
1530.718910107126
 30
0.0
 11
348.9853919825192
 21
1568.241616208664
 31
0.0
  0
LINE
  5
FB
  8
SL816952-W
  6
CONTINUOUS
 62
     7
 10
895.6914805922058
 20
1702.540258833106
 30
0.0
 11
895.6417925984529
 21
1704.461414392284
 31
0.0
  0
LINE
  5
FC
  8
SL816952-W
  6
CONTINUOUS
 62
     7
 10
895.6417925984529
 20
1704.461414392284
 30
0.0
 11
895.5049868611136
 21
1706.378326266275
 31
0.0
  0
LINE
  5
FD
  8
SL816952-W
  6
CONTINUOUS
 62
     7
 10
895.5049868611136
 20
1706.378326266275
 30
0.0
 11
895.277076336658
 21
1708.28655282048
 31
0.0
  0
LINE
  5
FE
  8
SL816952-W
  6
CONTINUOUS
 62
     7
 10
895.277076336658
 20
1708.28655282048
 30
0.0
 11
894.9583269921675
 21
1710.181719142745
 31
0.0
  0
LINE
  5
FF
  8
SL816952-W
  6
CONTINUOUS
 62
     7
 10
894.9583269921675
 20
1710.181719142745
 30
0.0
 11
894.5491066136017
 21
1712.059426418879
 31
0.0
  0
LINE
  5
100
  8
SL816952-W
  6
CONTINUOUS
 62
     7
 10
894.5491066136017
 20
1712.059426418879
 30
0.0
 11
894.0501446469298
 21
1713.915302696497
 31
0.0
  0
LINE
  5
101
  8
SL816952-W
  6
CONTINUOUS
 62
     7
 10
894.0501446469298
 20
1713.915302696497
 30
0.0
 11
893.4625041800455
 21
1715.745032539704
 31
0.0
  0
LINE
  5
102
  8
SL816952-W
  6
CONTINUOUS
 62
     7
 10
893.4625041800455
 20
1715.745032539704
 30
0.0
 11
892.7875418849471
 21
1717.54438062712
 31
0.0
  0
LINE
  5
103
  8
SL816952-W
  6
CONTINUOUS
 62
     7
 10
892.7875418849471
 20
1717.54438062712
 30
0.0
 11
892.0268853689404
 21
1719.309210668741
 31
0.0
  0
LINE
  5
104
  8
SL816952-W
  6
CONTINUOUS
 62
     7
 10
892.0268853689404
 20
1719.309210668741
 30
0.0
 11
891.1824025419817
 21
1721.035498275121
 31
0.0
  0
LINE
  5
105
  8
SL816952-W
  6
CONTINUOUS
 62
     7
 10
891.1824025419817
 20
1721.035498275121
 30
0.0
 11
890.2561744910968
 21
1722.719338869344
 31
0.0
  0
LINE
  5
106
  8
SL816952-W
  6
CONTINUOUS
 62
     7
 10
890.2561744910968
 20
1722.719338869344
 30
0.0
 11
889.2504702924937
 21
1724.356951352053
 31
0.0
  0
LINE
  5
107
  8
SL816952-W
  6
CONTINUOUS
 62
     7
 10
889.2504702924937
 20
1724.356951352053
 30
0.0
 11
888.1677249770921
 21
1725.944678272556
 31
0.0
  0
LINE
  5
108
  8
SL816952-W
  6
CONTINUOUS
 62
     7
 10
888.1677249770921
 20
1725.944678272556
 30
0.0
 11
887.0105212115063
 21
1727.478983557157
 31
0.0
  0
LINE
  5
109
  8
SL816952-W
  6
CONTINUOUS
 62
     7
 10
887.0105212115063
 20
1727.478983557157
 30
0.0
 11
885.7815752673396
 21
1728.956449135791
 31
0.0
  0
LINE
  5
10A
  8
SL816952-W
  6
CONTINUOUS
 62
     7
 10
885.7815752673396
 20
1728.956449135791
 30
0.0
 11
884.4837271236984
 21
1730.373771450264
 31
0.0
  0
LINE
  5
10B
  8
SL816952-W
  6
CONTINUOUS
 62
     7
 10
884.4837271236984
 20
1730.373771450264
 30
0.0
 11
883.1199344766087
 21
1731.727758859395
 31
0.0
  0
LINE
  5
10C
  8
SL816952-W
  6
CONTINUOUS
 62
     7
 10
883.1199344766087
 20
1731.727758859395
 30
0.0
 11
881.6932702994675
 21
1733.015330937925
 31
0.0
  0
LINE
  5
10D
  8
SL816952-W
  6
CONTINUOUS
 62
     7
 10
881.6932702994675
 20
1733.015330937925
 30
0.0
 11
880.2069233241739
 21
1734.233520467833
 31
0.0
  0
LINE
  5
10E
  8
SL816952-W
  6
CONTINUOUS
 62
     7
 10
880.2069233241739
 20
1734.233520467833
 30
0.0
 11
878.6642004032572
 21
1735.379478530515
 31
0.0
  0
LINE
  5
10F
  8
SL816952-W
  6
CONTINUOUS
 62
     7
 10
878.6642004032572
 20
1735.379478530515
 30
0.0
 11
877.0685301948879
 21
1736.450483522618
 31
0.0
  0
LINE
  5
110
  8
SL816952-W
  6
CONTINUOUS
 62
     7
 10
877.0685301948879
 20
1736.450483522618
 30
0.0
 11
875.4234670794119
 21
1737.44395429985
 31
0.0
  0
LINE
  5
111
  8
SL816952-W
  6
CONTINUOUS
 62
     7
 10
875.4234670794119
 20
1737.44395429985
 30
0.0
 11
873.732694212398
 21
1738.357467489242
 31
0.0
  0
LINE
  5
112
  8
SL816952-W
  6
CONTINUOUS
 62
     7
 10
873.732694212398
 20
1738.357467489242
 30
0.0
 11
872.0000246239285
 21
1739.188778806014
 31
0.0
  0
LINE
  5
113
  8
SL816952-W
  6
CONTINUOUS
 62
     7
 10
872.0000246239285
 20
1739.188778806014
 30
0.0
 11
870.2293993481439
 21
1739.935848103406
 31
0.0
  0
LINE
  5
114
  8
SL816952-W
  6
CONTINUOUS
 62
     7
 10
870.2293993481439
 20
1739.935848103406
 30
0.0
 11
868.4248812336446
 21
1740.59686676296
 31
0.0
  0
LINE
  5
115
  8
SL816952-W
  6
CONTINUOUS
 62
     7
 10
868.4248812336446
 20
1740.59686676296
 30
0.0
 11
866.5906439270013
 21
1741.170287255824
 31
0.0
  0
LINE
  5
116
  8
SL816952-W
  6
CONTINUOUS
 62
     7
 10
866.5906439270013
 20
1741.170287255824
 30
0.0
 11
864.7309548691437
 21
1741.654850024168
 31
0.0
  0
LINE
  5
117
  8
SL816952-W
  6
CONTINUOUS
 62
     7
 10
864.7309548691437
 20
1741.654850024168
 30
0.0
 11
862.8501546327643
 21
1742.049621649109
 31
0.0
  0
LINE
  5
118
  8
SL816952-W
  6
CONTINUOUS
 62
     7
 10
862.8501546327643
 20
1742.049621649109
 30
0.0
 11
860.9526228167181
 21
1742.353985529357
 31
0.0
  0
LINE
  5
119
  8
SL816952-W
  6
CONTINUOUS
 62
     7
 10
860.9526228167181
 20
1742.353985529357
 30
0.0
 11
859.0427610136123
 21
1742.567756961697
 31
0.0
  0
LINE
  5
11A
  8
SL816952-W
  6
CONTINUOUS
 62
     7
 10
859.0427610136123
 20
1742.567756961697
 30
0.0
 11
857.1249304414948
 21
1742.691076396765
 31
0.0
  0
LINE
  5
11B
  8
SL816952-W
  6
CONTINUOUS
 62
     7
 10
857.1952758755746
 20
1353.349268405455
 30
0.0
 11
861.0174426904651
 21
1353.704154862478
 31
0.0
  0
LINE
  5
11C
  8
SL816952-W
  6
CONTINUOUS
 62
     7
 10
861.0174426904651
 20
1353.704154862478
 30
0.0
 11
862.9129427770025
 21
1353.994056518693
 31
0.0
  0
LINE
  5
11D
  8
SL816952-W
  6
CONTINUOUS
 62
     7
 10
862.9129427770025
 20
1353.994056518693
 30
0.0
 11
864.7908711758889
 21
1354.391326774017
 31
0.0
  0
LINE
  5
11E
  8
SL816952-W
  6
CONTINUOUS
 62
     7
 10
864.7908711758889
 20
1354.391326774017
 30
0.0
 11
866.6473138331705
 21
1354.88425374363
 31
0.0
  0
LINE
  5
11F
  8
SL816952-W
  6
CONTINUOUS
 62
     7
 10
866.6473138331705
 20
1354.88425374363
 30
0.0
 11
868.4783423943686
 21
1355.462028203247
 31
0.0
  0
LINE
  5
120
  8
SL816952-W
  6
CONTINUOUS
 62
     7
 10
868.4783423943686
 20
1355.462028203247
 30
0.0
 11
870.279711733983
 21
1356.123912434758
 31
0.0
  0
LINE
  5
121
  8
SL816952-W
  6
CONTINUOUS
 62
     7
 10
870.279711733983
 20
1356.123912434758
 30
0.0
 11
872.0471056199946
 21
1356.871689963081
 31
0.0
  0
LINE
  5
122
  8
SL816952-W
  6
CONTINUOUS
 62
     7
 10
872.0471056199946
 20
1356.871689963081
 30
0.0
 11
873.7764445635637
 21
1357.704661905259
 31
0.0
  0
LINE
  5
123
  8
SL816952-W
  6
CONTINUOUS
 62
     7
 10
873.7764445635637
 20
1357.704661905259
 30
0.0
 11
875.4638635783516
 21
1358.619881161809
 31
0.0
  0
LINE
  5
124
  8
SL816952-W
  6
CONTINUOUS
 62
     7
 10
875.4638635783516
 20
1358.619881161809
 30
0.0
 11
877.1055673175458
 21
1359.614494267656
 31
0.0
  0
LINE
  5
125
  8
SL816952-W
  6
CONTINUOUS
 62
     7
 10
877.1055673175458
 20
1359.614494267656
 30
0.0
 11
878.6979345416205
 21
1360.686139651951
 31
0.0
  0
LINE
  5
126
  8
SL816952-W
  6
CONTINUOUS
 62
     7
 10
878.6979345416205
 20
1360.686139651951
 30
0.0
 11
880.2373934430461
 21
1361.832502609834
 31
0.0
  0
LINE
  5
127
  8
SL816952-W
  6
CONTINUOUS
 62
     7
 10
880.2373934430461
 20
1361.832502609834
 30
0.0
 11
881.7205579394561
 21
1363.050888088884
 31
0.0
  0
LINE
  5
128
  8
SL816952-W
  6
CONTINUOUS
 62
     7
 10
881.7205579394561
 20
1363.050888088884
 30
0.0
 11
883.1441482955395
 21
1364.338385361485
 31
0.0
  0
LINE
  5
129
  8
SL816952-W
  6
CONTINUOUS
 62
     7
 10
883.1441482955395
 20
1364.338385361485
 30
0.0
 11
884.5049844505811
 21
1365.692016074886
 31
0.0
  0
LINE
  5
12A
  8
SL816952-W
  6
CONTINUOUS
 62
     7
 10
884.5049844505811
 20
1365.692016074886
 30
0.0
 11
885.8000431694122
 21
1367.108698053612
 31
0.0
  0
LINE
  5
12B
  8
SL816952-W
  6
CONTINUOUS
 62
     7
 10
885.8000431694122
 20
1367.108698053612
 30
0.0
 11
887.0263519574935
 21
1368.585301512735
 31
0.0
  0
LINE
  5
12C
  8
SL816952-W
  6
CONTINUOUS
 62
     7
 10
887.0263519574935
 20
1368.585301512735
 30
0.0
 11
888.1811180434463
 21
1370.118509136239
 31
0.0
  0
LINE
  5
12D
  8
SL816952-W
  6
CONTINUOUS
 62
     7
 10
888.1811180434463
 20
1370.118509136239
 30
0.0
 11
889.2616124399292
 21
1371.704938944439
 31
0.0
  0
LINE
  5
12E
  8
SL816952-W
  6
CONTINUOUS
 62
     7
 10
889.2616124399292
 20
1371.704938944439
 30
0.0
 11
890.2652774791237
 21
1373.34106647079
 31
0.0
  0
LINE
  5
12F
  8
SL816952-W
  6
CONTINUOUS
 62
     7
 10
890.2652774791237
 20
1373.34106647079
 30
0.0
 11
891.1897099085883
 21
1375.023238838225
 31
0.0
  0
LINE
  5
130
  8
SL816952-W
  6
CONTINUOUS
 62
     7
 10
891.1897099085883
 20
1375.023238838225
 30
0.0
 11
892.0326037455907
 21
1376.747730377053
 31
0.0
  0
LINE
  5
131
  8
SL816952-W
  6
CONTINUOUS
 62
     7
 10
892.0326037455907
 20
1376.747730377053
 30
0.0
 11
892.7918972054724
 21
1378.51063389152
 31
0.0
  0
LINE
  5
132
  8
SL816952-W
  6
CONTINUOUS
 62
     7
 10
892.7918972054724
 20
1378.51063389152
 30
0.0
 11
893.465618672443
 21
1380.307991024579
 31
0.0
  0
LINE
  5
133
  8
SL816952-W
  6
CONTINUOUS
 62
     7
 10
893.465618672443
 20
1380.307991024579
 30
0.0
 11
894.052279475146
 21
1382.135637691305
 31
0.0
  0
LINE
  5
134
  8
SL816952-W
  6
CONTINUOUS
 62
     7
 10
894.052279475146
 20
1382.135637691305
 30
0.0
 11
894.5506614462826
 21
1383.989294948776
 31
0.0
  0
LINE
  5
135
  8
SL816952-W
  6
CONTINUOUS
 62
     7
 10
894.5506614462826
 20
1383.989294948776
 30
0.0
 11
894.9595494920478
 21
1385.86471832471
 31
0.0
  0
LINE
  5
136
  8
SL816952-W
  6
CONTINUOUS
 62
     7
 10
894.9595494920478
 20
1385.86471832471
 30
0.0
 11
895.2777286944997
 21
1387.757728219513
 31
0.0
  0
LINE
  5
137
  8
SL816952-W
  6
CONTINUOUS
 62
     7
 10
895.2777286944997
 20
1387.757728219513
 30
0.0
 11
895.5042949577188
 21
1389.664072264667
 31
0.0
  0
LINE
  5
138
  8
SL816952-W
  6
CONTINUOUS
 62
     7
 10
895.5042949577188
 20
1389.664072264667
 30
0.0
 11
895.6406920814443
 21
1391.578896575174
 31
0.0
  0
LINE
  5
139
  8
SL816952-W
  6
CONTINUOUS
 62
     7
 10
895.6406920814443
 20
1391.578896575174
 30
0.0
 11
895.6914805922058
 21
1393.497098299171
 31
0.0
  0
LINE
  5
13A
  8
SL816952-W
  6
CONTINUOUS
 62
     7
 10
335.8293225602098
 20
1742.691076396765
 30
0.0
 11
333.9201124213713
 21
1742.568393668768
 31
0.0
  0
LINE
  5
13B
  8
SL816952-W
  6
CONTINUOUS
 62
     7
 10
333.9201124213713
 20
1742.568393668768
 30
0.0
 11
332.0187976668996
 21
1742.355964852716
 31
0.0
  0
LINE
  5
13C
  8
SL816952-W
  6
CONTINUOUS
 62
     7
 10
332.0187976668996
 20
1742.355964852716
 30
0.0
 11
330.1296883515942
 21
1742.053666153485
 31
0.0
  0
LINE
  5
13D
  8
SL816952-W
  6
CONTINUOUS
 62
     7
 10
330.1296883515942
 20
1742.053666153485
 30
0.0
 11
328.2571304212775
 21
1741.661703189583
 31
0.0
  0
LINE
  5
13E
  8
SL816952-W
  6
CONTINUOUS
 62
     7
 10
328.2571304212775
 20
1741.661703189583
 30
0.0
 11
326.4054461077734
 21
1741.180699886495
 31
0.0
  0
LINE
  5
13F
  8
SL816952-W
  6
CONTINUOUS
 62
     7
 10
326.4054461077734
 20
1741.180699886495
 30
0.0
 11
324.5789170041157
 21
1740.611592113074
 31
0.0
  0
LINE
  5
140
  8
SL816952-W
  6
CONTINUOUS
 62
     7
 10
324.5789170041157
 20
1740.611592113074
 30
0.0
 11
322.7817510271062
 21
1739.955634327045
 31
0.0
  0
LINE
  5
141
  8
SL816952-W
  6
CONTINUOUS
 62
     7
 10
322.7817510271062
 20
1739.955634327045
 30
0.0
 11
321.0180625369587
 21
1739.214362216235
 31
0.0
  0
LINE
  5
142
  8
SL816952-W
  6
CONTINUOUS
 62
     7
 10
321.0180625369587
 20
1739.214362216235
 30
0.0
 11
319.291856043302
 21
1738.389566047491
 31
0.0
  0
LINE
  5
143
  8
SL816952-W
  6
CONTINUOUS
 62
     7
 10
319.291856043302
 20
1738.389566047491
 30
0.0
 11
317.6070158450221
 21
1737.483261457406
 31
0.0
  0
LINE
  5
144
  8
SL816952-W
  6
CONTINUOUS
 62
     7
 10
317.6070158450221
 20
1737.483261457406
 30
0.0
 11
315.9673002945514
 21
1736.497662615849
 31
0.0
  0
LINE
  5
145
  8
SL816952-W
  6
CONTINUOUS
 62
     7
 10
315.9673002945514
 20
1736.497662615849
 30
0.0
 11
314.376340300846
 21
1735.435157667284
 31
0.0
  0
LINE
  5
146
  8
SL816952-W
  6
CONTINUOUS
 62
     7
 10
314.376340300846
 20
1735.435157667284
 30
0.0
 11
312.8376407695115
 21
1734.298287827371
 31
0.0
  0
LINE
  5
147
  8
SL816952-W
  6
CONTINUOUS
 62
     7
 10
312.8376407695115
 20
1734.298287827371
 30
0.0
 11
311.3545839216587
 21
1733.08973048077
 31
0.0
  0
LINE
  5
148
  8
SL816952-W
  6
CONTINUOUS
 62
     7
 10
311.3545839216587
 20
1733.08973048077
 30
0.0
 11
309.9304334474724
 21
1731.812286397576
 31
0.0
  0
LINE
  5
149
  8
SL816952-W
  6
CONTINUOUS
 62
     7
 10
309.9304334474724
 20
1731.812286397576
 30
0.0
 11
308.568338449179
 21
1730.468871003166
 31
0.0
  0
LINE
  5
14A
  8
SL816952-W
  6
CONTINUOUS
 62
     7
 10
308.568338449179
 20
1730.468871003166
 30
0.0
 11
307.2713361170408
 21
1729.062509495778
 31
0.0
  0
LINE
  5
14B
  8
SL816952-W
  6
CONTINUOUS
 62
     7
 10
307.2713361170408
 20
1729.062509495778
 30
0.0
 11
306.0423523781326
 21
1727.596335219625
 31
0.0
  0
LINE
  5
14C
  8
SL816952-W
  6
CONTINUOUS
 62
     7
 10
306.0423523781326
 20
1727.596335219625
 30
0.0
 11
304.8841998745686
 21
1726.073590535274
 31
0.0
  0
LINE
  5
14D
  8
SL816952-W
  6
CONTINUOUS
 62
     7
 10
304.8841998745686
 20
1726.073590535274
 30
0.0
 11
303.7995724104546
 21
1724.497629645717
 31
0.0
  0
LINE
  5
14E
  8
SL816952-W
  6
CONTINUOUS
 62
     7
 10
303.7995724104546
 20
1724.497629645717
 30
0.0
 11
302.7910355441356
 21
1722.871922374917
 31
0.0
  0
LINE
  5
14F
  8
SL816952-W
  6
CONTINUOUS
 62
     7
 10
302.7910355441356
 20
1722.871922374917
 30
0.0
 11
301.8610131066438
 21
1721.200057897291
 31
0.0
  0
LINE
  5
150
  8
SL816952-W
  6
CONTINUOUS
 62
     7
 10
301.8610131066438
 20
1721.200057897291
 30
0.0
 11
301.0117696181391
 21
1719.48574738112
 31
0.0
  0
LINE
  5
151
  8
SL816952-W
  6
CONTINUOUS
 62
     7
 10
301.0117696181391
 20
1719.48574738112
 30
0.0
 11
300.2453886866456
 21
1717.732824543023
 31
0.0
  0
LINE
  5
152
  8
SL816952-W
  6
CONTINUOUS
 62
     7
 10
300.2453886866456
 20
1717.732824543023
 30
0.0
 11
299.5637483119649
 21
1715.945242770825
 31
0.0
  0
LINE
  5
153
  8
SL816952-W
  6
CONTINUOUS
 62
     7
 10
299.5637483119649
 20
1715.945242770825
 30
0.0
 11
298.9684939982294
 21
1714.127068037292
 31
0.0
  0
LINE
  5
154
  8
SL816952-W
  6
CONTINUOUS
 62
     7
 10
298.9684939982294
 20
1714.127068037292
 30
0.0
 11
298.4610093885506
 21
1712.282467038408
 31
0.0
  0
LINE
  5
155
  8
SL816952-W
  6
CONTINUOUS
 62
     7
 10
298.4610093885506
 20
1712.282467038408
 30
0.0
 11
298.0423911514195
 21
1710.4156893667
 31
0.0
  0
LINE
  5
156
  8
SL816952-W
  6
CONTINUOUS
 62
     7
 10
298.0423911514195
 20
1710.4156893667
 30
0.0
 11
297.7134105356585
 21
1708.531045625481
 31
0.0
  0
LINE
  5
157
  8
SL816952-W
  6
CONTINUOUS
 62
     7
 10
297.7134105356585
 20
1708.531045625481
 30
0.0
 11
297.4745201932436
 21
1706.632875328381
 31
0.0
  0
LINE
  5
158
  8
SL816952-W
  6
CONTINUOUS
 62
     7
 10
297.4745201932436
 20
1706.632875328381
 30
0.0
 11
297.3257964302913
 21
1704.725517529538
 31
0.0
  0
LINE
  5
159
  8
SL816952-W
  6
CONTINUOUS
 62
     7
 10
297.3257964302913
 20
1704.725517529538
 30
0.0
 11
297.266282719244
 21
1702.813300124951
 31
0.0
  0
LINE
  5
15A
  8
SL816952-W
  6
CONTINUOUS
 62
     7
 10
884.7544458021599
 20
1398.84053186476
 30
0.0
 11
884.8082434670026
 21
1392.550827030952
 31
0.0
  0
LINE
  5
15B
  8
SL816952-W
  6
CONTINUOUS
 62
     7
 10
884.8082434670026
 20
1392.550827030952
 30
0.0
 11
884.7400386136949
 21
1390.979977237489
 31
0.0
  0
LINE
  5
15C
  8
SL816952-W
  6
CONTINUOUS
 62
     7
 10
884.7400386136949
 20
1390.979977237489
 30
0.0
 11
884.5817788593411
 21
1389.415632404144
 31
0.0
  0
LINE
  5
15D
  8
SL816952-W
  6
CONTINUOUS
 62
     7
 10
884.5817788593411
 20
1389.415632404144
 30
0.0
 11
884.334197237444
 21
1387.862916764057
 31
0.0
  0
LINE
  5
15E
  8
SL816952-W
  6
CONTINUOUS
 62
     7
 10
884.334197237444
 20
1387.862916764057
 30
0.0
 11
883.9985093907436
 21
1386.326837309266
 31
0.0
  0
LINE
  5
15F
  8
SL816952-W
  6
CONTINUOUS
 62
     7
 10
883.9985093907436
 20
1386.326837309266
 30
0.0
 11
883.5763689846062
 21
1384.812231819061
 31
0.0
  0
LINE
  5
160
  8
SL816952-W
  6
CONTINUOUS
 62
     7
 10
883.5763689846062
 20
1384.812231819061
 30
0.0
 11
883.069796560819
 21
1383.323734614693
 31
0.0
  0
LINE
  5
161
  8
SL816952-W
  6
CONTINUOUS
 62
     7
 10
883.069796560819
 20
1383.323734614693
 30
0.0
 11
882.4811072461772
 21
1381.865759178689
 31
0.0
  0
LINE
  5
162
  8
SL816952-W
  6
CONTINUOUS
 62
     7
 10
882.4811072461772
 20
1381.865759178689
 30
0.0
 11
881.8128432282426
 21
1380.442495770194
 31
0.0
  0
LINE
  5
163
  8
SL816952-W
  6
CONTINUOUS
 62
     7
 10
881.8128432282426
 20
1380.442495770194
 30
0.0
 11
881.0677144770457
 21
1379.057921350533
 31
0.0
  0
LINE
  5
164
  8
SL816952-W
  6
CONTINUOUS
 62
     7
 10
881.0677144770457
 20
1379.057921350533
 30
0.0
 11
880.2485499155117
 21
1377.715818733152
 31
0.0
  0
LINE
  5
165
  8
SL816952-W
  6
CONTINUOUS
 62
     7
 10
880.2485499155117
 20
1377.715818733152
 30
0.0
 11
879.3582601597707
 21
1376.4198018165
 31
0.0
  0
LINE
  5
166
  8
SL816952-W
  6
CONTINUOUS
 62
     7
 10
879.3582601597707
 20
1376.4198018165
 30
0.0
 11
878.3998120817846
 21
1375.173343931858
 31
0.0
  0
LINE
  5
167
  8
SL816952-W
  6
CONTINUOUS
 62
     7
 10
878.3998120817846
 20
1375.173343931858
 30
0.0
 11
877.3762148057097
 21
1373.979806629083
 31
0.0
  0
LINE
  5
168
  8
SL816952-W
  6
CONTINUOUS
 62
     7
 10
877.3762148057097
 20
1373.979806629083
 30
0.0
 11
876.2905163085406
 21
1372.84246654447
 31
0.0
  0
LINE
  5
169
  8
SL816952-W
  6
CONTINUOUS
 62
     7
 10
876.2905163085406
 20
1372.84246654447
 30
0.0
 11
875.1458095038936
 21
1371.764538288977
 31
0.0
  0
LINE
  5
16A
  8
SL816952-W
  6
CONTINUOUS
 62
     7
 10
875.1458095038936
 20
1371.764538288977
 30
0.0
 11
873.945246486716
 21
1370.749191535673
 31
0.0
  0
LINE
  5
16B
  8
SL816952-W
  6
CONTINUOUS
 62
     7
 10
873.945246486716
 20
1370.749191535673
 30
0.0
 11
872.6920594364663
 21
1369.799560675344
 31
0.0
  0
LINE
  5
16C
  8
SL816952-W
  6
CONTINUOUS
 62
     7
 10
872.6920594364663
 20
1369.799560675344
 30
0.0
 11
871.3895864905951
 21
1368.918745564775
 31
0.0
  0
LINE
  5
16D
  8
SL816952-W
  6
CONTINUOUS
 62
     7
 10
871.3895864905951
 20
1368.918745564775
 30
0.0
 11
870.0413006643928
 21
1368.109802070149
 31
0.0
  0
LINE
  5
16E
  8
SL816952-W
  6
CONTINUOUS
 62
     7
 10
870.0413006643928
 20
1368.109802070149
 30
0.0
 11
868.6508395938449
 21
1367.375721347944
 31
0.0
  0
LINE
  5
16F
  8
SL816952-W
  6
CONTINUOUS
 62
     7
 10
868.6508395938449
 20
1367.375721347944
 30
0.0
 11
867.2220335353962
 21
1366.719397175284
 31
0.0
  0
LINE
  5
170
  8
SL816952-W
  6
CONTINUOUS
 62
     7
 10
867.2220335353962
 20
1366.719397175284
 30
0.0
 11
865.758928711956
 21
1366.143581201474
 31
0.0
  0
LINE
  5
171
  8
SL816952-W
  6
CONTINUOUS
 62
     7
 10
865.758928711956
 20
1366.143581201474
 30
0.0
 11
864.2658028259633
 21
1365.650826784833
 31
0.0
  0
LINE
  5
172
  8
SL816952-W
  6
CONTINUOUS
 62
     7
 10
864.2658028259633
 20
1365.650826784833
 30
0.0
 11
862.7471694750301
 21
1365.243423112995
 31
0.0
  0
LINE
  5
173
  8
SL816952-W
  6
CONTINUOUS
 62
     7
 10
862.7471694750301
 20
1365.243423112995
 30
0.0
 11
861.2077684266887
 21
1364.923322541571
 31
0.0
  0
LINE
  5
174
  8
SL816952-W
  6
CONTINUOUS
 62
     7
 10
861.2077684266887
 20
1364.923322541571
 30
0.0
 11
859.6525393520194
 21
1364.692065223091
 31
0.0
  0
LINE
  5
175
  8
SL816952-W
  6
CONTINUOUS
 62
     7
 10
859.6525393520194
 20
1364.692065223091
 30
0.0
 11
858.08657781031
 21
1364.550701221743
 31
0.0
  0
LINE
  5
176
  8
SL816952-W
  6
CONTINUOUS
 62
     7
 10
858.08657781031
 20
1364.550701221743
 30
0.0
 11
856.5150746060157
 21
1364.499651423303
 31
0.0
  0
LINE
  5
177
  8
SL816952-W
  6
CONTINUOUS
 62
     7
 10
308.1442574850166
 20
1702.980208574914
 30
0.0
 11
308.1808145373853
 21
1704.371359799124
 31
0.0
  0
LINE
  5
178
  8
SL816952-W
  6
CONTINUOUS
 62
     7
 10
308.1808145373853
 20
1704.371359799124
 30
0.0
 11
308.2871735676114
 21
1705.75893770679
 31
0.0
  0
LINE
  5
179
  8
SL816952-W
  6
CONTINUOUS
 62
     7
 10
308.2871735676114
 20
1705.75893770679
 30
0.0
 11
308.4625534448764
 21
1707.139479913708
 31
0.0
  0
LINE
  5
17A
  8
SL816952-W
  6
CONTINUOUS
 62
     7
 10
308.4625534448764
 20
1707.139479913708
 30
0.0
 11
308.7065162126548
 21
1708.509563828573
 31
0.0
  0
LINE
  5
17B
  8
SL816952-W
  6
CONTINUOUS
 62
     7
 10
308.7065162126548
 20
1708.509563828573
 30
0.0
 11
309.0182374311296
 21
1709.865837367168
 31
0.0
  0
LINE
  5
17C
  8
SL816952-W
  6
CONTINUOUS
 62
     7
 10
309.0182374311296
 20
1709.865837367168
 30
0.0
 11
309.3966320163531
 21
1711.205041342149
 31
0.0
  0
LINE
  5
17D
  8
SL816952-W
  6
CONTINUOUS
 62
     7
 10
309.3966320163531
 20
1711.205041342149
 30
0.0
 11
309.8404058917627
 21
1712.524024569262
 31
0.0
  0
LINE
  5
17E
  8
SL816952-W
  6
CONTINUOUS
 62
     7
 10
309.8404058917627
 20
1712.524024569262
 30
0.0
 11
310.3480913440931
 21
1713.819752161343
 31
0.0
  0
LINE
  5
17F
  8
SL816952-W
  6
CONTINUOUS
 62
     7
 10
310.3480913440931
 20
1713.819752161343
 30
0.0
 11
310.9180790518992
 21
1715.089307664962
 31
0.0
  0
LINE
  5
180
  8
SL816952-W
  6
CONTINUOUS
 62
     7
 10
310.9180790518992
 20
1715.089307664962
 30
0.0
 11
311.5486469873931
 21
1716.329889746593
 31
0.0
  0
LINE
  5
181
  8
SL816952-W
  6
CONTINUOUS
 62
     7
 10
311.5486469873931
 20
1716.329889746593
 30
0.0
 11
312.2379850240571
 21
1717.538804687658
 31
0.0
  0
LINE
  5
182
  8
SL816952-W
  6
CONTINUOUS
 62
     7
 10
312.2379850240571
 20
1717.538804687658
 30
0.0
 11
312.9842146816559
 21
1718.713455963048
 31
0.0
  0
LINE
  5
183
  8
SL816952-W
  6
CONTINUOUS
 62
     7
 10
312.9842146816559
 20
1718.713455963048
 30
0.0
 11
313.7854038355448
 21
1719.851332000786
 31
0.0
  0
LINE
  5
184
  8
SL816952-W
  6
CONTINUOUS
 62
     7
 10
313.7854038355448
 20
1719.851332000786
 30
0.0
 11
314.639576400246
 21
1720.949993136351
 31
0.0
  0
LINE
  5
185
  8
SL816952-W
  6
CONTINUOUS
 62
     7
 10
314.639576400246
 20
1720.949993136351
 30
0.0
 11
315.5447171496164
 21
1722.007058799082
 31
0.0
  0
LINE
  5
186
  8
SL816952-W
  6
CONTINUOUS
 62
     7
 10
315.5447171496164
 20
1722.007058799082
 30
0.0
 11
316.4987719748354
 21
1723.020195947216
 31
0.0
  0
LINE
  5
187
  8
SL816952-W
  6
CONTINUOUS
 62
     7
 10
316.4987719748354
 20
1723.020195947216
 30
0.0
 11
317.499644049881
 21
1723.987109526289
 31
0.0
  0
LINE
  5
188
  8
SL816952-W
  6
CONTINUOUS
 62
     7
 10
317.499644049881
 20
1723.987109526289
 30
0.0
 11
318.5451863947762
 21
1724.905535713676
 31
0.0
  0
LINE
  5
189
  8
SL816952-W
  6
CONTINUOUS
 62
     7
 10
318.5451863947762
 20
1724.905535713676
 30
0.0
 11
319.6331915321908
 21
1725.773238625975
 31
0.0
  0
LINE
  5
18A
  8
SL816952-W
  6
CONTINUOUS
 62
     7
 10
319.6331915321908
 20
1725.773238625975
 30
0.0
 11
320.7613789170576
 21
1726.588011158651
 31
0.0
  0
LINE
  5
18B
  8
SL816952-W
  6
CONTINUOUS
 62
     7
 10
320.7613789170576
 20
1726.588011158651
 30
0.0
 11
321.9273809384365
 21
1727.347680480997
 31
0.0
  0
LINE
  5
18C
  8
SL816952-W
  6
CONTINUOUS
 62
     7
 10
321.9273809384365
 20
1727.347680480997
 30
0.0
 11
323.1287283575095
 21
1728.050118660959
 31
0.0
  0
LINE
  5
18D
  8
SL816952-W
  6
CONTINUOUS
 62
     7
 10
323.1287283575095
 20
1728.050118660959
 30
0.0
 11
324.3628363157868
 21
1728.693258722579
 31
0.0
  0
LINE
  5
18E
  8
SL816952-W
  6
CONTINUOUS
 62
     7
 10
324.3628363157868
 20
1728.693258722579
 30
0.0
 11
325.6269921847023
 21
1729.275116152968
 31
0.0
  0
LINE
  5
18F
  8
SL816952-W
  6
CONTINUOUS
 62
     7
 10
325.6269921847023
 20
1729.275116152968
 30
0.0
 11
326.9183463872984
 21
1729.793815712709
 31
0.0
  0
LINE
  5
190
  8
SL816952-W
  6
CONTINUOUS
 62
     7
 10
326.9183463872984
 20
1729.793815712709
 30
0.0
 11
328.2339074824556
 21
1730.247623091402
 31
0.0
  0
LINE
  5
191
  8
SL816952-W
  6
CONTINUOUS
 62
     7
 10
328.2339074824556
 20
1730.247623091402
 30
0.0
 11
329.5705428415293
 21
1730.634980576555
 31
0.0
  0
LINE
  5
192
  8
SL816952-W
  6
CONTINUOUS
 62
     7
 10
329.5705428415293
 20
1730.634980576555
 30
0.0
 11
330.9249863355051
 21
1730.954544923155
 31
0.0
  0
LINE
  5
193
  8
SL816952-W
  6
CONTINUOUS
 62
     7
 10
330.9249863355051
 20
1730.954544923155
 30
0.0
 11
332.2938535384928
 21
1731.205226621408
 31
0.0
  0
LINE
  5
194
  8
SL816952-W
  6
CONTINUOUS
 62
     7
 10
332.2938535384928
 20
1731.205226621408
 30
0.0
 11
333.6736647182188
 21
1731.386238243258
 31
0.0
  0
LINE
  5
195
  8
SL816952-W
  6
CONTINUOUS
 62
     7
 10
333.6736647182188
 20
1731.386238243258
 30
0.0
 11
335.0608750600429
 21
1731.49719616261
 31
0.0
  0
LINE
  5
196
  8
SL816952-W
  6
CONTINUOUS
 62
     7
 10
335.0608750600429
 20
1731.49719616261
 30
0.0
 11
336.4519191812149
 21
1731.537722923344
 31
0.0
  0
LINE
  5
197
  8
SL816952-W
  6
CONTINUOUS
 62
     7
 10
340.3356528212806
 20
1677.116067554504
 30
0.0
 11
341.6495159206949
 21
1682.938740068709
 31
0.0
  0
LINE
  5
198
  8
SL816952-W
  6
CONTINUOUS
 62
     7
 10
341.6495159206949
 20
1682.938740068709
 30
0.0
 11
342.3971021539188
 21
1685.75747729425
 31
0.0
  0
LINE
  5
199
  8
SL816952-W
  6
CONTINUOUS
 62
     7
 10
342.3971021539188
 20
1685.75747729425
 30
0.0
 11
343.2534740068241
 21
1688.465095682269
 31
0.0
  0
LINE
  5
19A
  8
SL816952-W
  6
CONTINUOUS
 62
     7
 10
343.2534740068241
 20
1688.465095682269
 30
0.0
 11
343.7337863759701
 21
1689.765660433345
 31
0.0
  0
LINE
  5
19B
  8
SL816952-W
  6
CONTINUOUS
 62
     7
 10
343.7337863759701
 20
1689.765660433345
 30
0.0
 11
344.2548933524124
 21
1691.024555620406
 31
0.0
  0
LINE
  5
19C
  8
SL816952-W
  6
CONTINUOUS
 62
     7
 10
344.2548933524124
 20
1691.024555620406
 30
0.0
 11
344.8213276702761
 21
1692.237151291907
 31
0.0
  0
LINE
  5
19D
  8
SL816952-W
  6
CONTINUOUS
 62
     7
 10
344.8213276702761
 20
1692.237151291907
 30
0.0
 11
345.4376220636864
 21
1693.398817496302
 31
0.0
  0
LINE
  5
19E
  8
SL816952-W
  6
CONTINUOUS
 62
     7
 10
345.4376220636864
 20
1693.398817496302
 30
0.0
 11
346.1083092667687
 21
1694.504924282046
 31
0.0
  0
LINE
  5
19F
  8
SL816952-W
  6
CONTINUOUS
 62
     7
 10
346.1083092667687
 20
1694.504924282046
 30
0.0
 11
346.8379220136482
 21
1695.550841697594
 31
0.0
  0
LINE
  5
1A0
  8
SL816952-W
  6
CONTINUOUS
 62
     7
 10
346.8379220136482
 20
1695.550841697594
 30
0.0
 11
347.6309930384504
 21
1696.531939791402
 31
0.0
  0
LINE
  5
1A1
  8
SL816952-W
  6
CONTINUOUS
 62
     7
 10
347.6309930384504
 20
1696.531939791402
 30
0.0
 11
348.4920550533062
 21
1697.443588634389
 31
0.0
  0
LINE
  5
1A2
  8
SL816952-W
  6
CONTINUOUS
 62
     7
 10
348.4920550533062
 20
1697.443588634389
 30
0.0
 11
349.4240189652722
 21
1698.282814886789
 31
0.0
  0
LINE
  5
1A3
  8
SL816952-W
  6
CONTINUOUS
 62
     7
 10
349.4240189652722
 20
1698.282814886789
 30
0.0
 11
350.4237665853107
 21
1699.052803616097
 31
0.0
  0
LINE
  5
1A4
  8
SL816952-W
  6
CONTINUOUS
 62
     7
 10
350.4237665853107
 20
1699.052803616097
 30
0.0
 11
351.4867789995574
 21
1699.758170657172
 31
0.0
  0
LINE
  5
1A5
  8
SL816952-W
  6
CONTINUOUS
 62
     7
 10
351.4867789995574
 20
1699.758170657172
 30
0.0
 11
352.6085372941479
 21
1700.403531844878
 31
0.0
  0
LINE
  5
1A6
  8
SL816952-W
  6
CONTINUOUS
 62
     7
 10
352.6085372941479
 20
1700.403531844878
 30
0.0
 11
353.7845225552176
 21
1700.993503014075
 31
0.0
  0
LINE
  5
1A7
  8
SL816952-W
  6
CONTINUOUS
 62
     7
 10
353.7845225552176
 20
1700.993503014075
 30
0.0
 11
355.0102158689022
 21
1701.532699999625
 31
0.0
  0
LINE
  5
1A8
  8
SL816952-W
  6
CONTINUOUS
 62
     7
 10
355.0102158689022
 20
1701.532699999625
 30
0.0
 11
356.2810983213374
 21
1702.02573863639
 31
0.0
  0
LINE
  5
1A9
  8
SL816952-W
  6
CONTINUOUS
 62
     7
 10
356.2810983213374
 20
1702.02573863639
 30
0.0
 11
357.5926509986585
 21
1702.47723475923
 31
0.0
  0
LINE
  5
1AA
  8
SL816952-W
  6
CONTINUOUS
 62
     7
 10
357.5926509986585
 20
1702.47723475923
 30
0.0
 11
360.3196913725017
 21
1703.274062802587
 31
0.0
  0
LINE
  5
1AB
  8
SL816952-W
  6
CONTINUOUS
 62
     7
 10
360.3196913725017
 20
1703.274062802587
 30
0.0
 11
363.1551856795159
 21
1703.960110808585
 31
0.0
  0
LINE
  5
1AC
  8
SL816952-W
  6
CONTINUOUS
 62
     7
 10
363.1551856795159
 20
1703.960110808585
 30
0.0
 11
369.0069308493971
 21
1705.147573424079
 31
0.0
  0
LINE
  5
1AD
  8
SL816952-W
  6
CONTINUOUS
 62
     7
 10
336.4501712628971
 20
1364.499651423301
 30
0.0
 11
335.0565579371872
 21
1364.546417904167
 31
0.0
  0
LINE
  5
1AE
  8
SL816952-W
  6
CONTINUOUS
 62
     7
 10
335.0565579371872
 20
1364.546417904167
 30
0.0
 11
333.667027556202
 21
1364.66280753629
 31
0.0
  0
LINE
  5
1AF
  8
SL816952-W
  6
CONTINUOUS
 62
     7
 10
333.667027556202
 20
1364.66280753629
 30
0.0
 11
332.2850752132678
 21
1364.848672435129
 31
0.0
  0
LINE
  5
1B0
  8
SL816952-W
  6
CONTINUOUS
 62
     7
 10
332.2850752132678
 20
1364.848672435129
 30
0.0
 11
330.9141754248759
 21
1365.103565105561
 31
0.0
  0
LINE
  5
1B1
  8
SL816952-W
  6
CONTINUOUS
 62
     7
 10
330.9141754248759
 20
1365.103565105561
 30
0.0
 11
329.5577453678983
 21
1365.426727466167
 31
0.0
  0
LINE
  5
1B2
  8
SL816952-W
  6
CONTINUOUS
 62
     7
 10
329.5577453678983
 20
1365.426727466167
 30
0.0
 11
328.2191172931638
 21
1365.817127573191
 31
0.0
  0
LINE
  5
1B3
  8
SL816952-W
  6
CONTINUOUS
 62
     7
 10
328.2191172931638
 20
1365.817127573191
 30
0.0
 11
326.9015178440878
 21
1366.273494575768
 31
0.0
  0
LINE
  5
1B4
  8
SL816952-W
  6
CONTINUOUS
 62
     7
 10
326.9015178440878
 20
1366.273494575768
 30
0.0
 11
325.6080545531246
 21
1366.794353700174
 31
0.0
  0
LINE
  5
1B5
  8
SL816952-W
  6
CONTINUOUS
 62
     7
 10
325.6080545531246
 20
1366.794353700174
 30
0.0
 11
324.3417090956345
 21
1367.378060295121
 31
0.0
  0
LINE
  5
1B6
  8
SL816952-W
  6
CONTINUOUS
 62
     7
 10
324.3417090956345
 20
1367.378060295121
 30
0.0
 11
323.1053365455898
 21
1368.022831515563
 31
0.0
  0
LINE
  5
1B7
  8
SL816952-W
  6
CONTINUOUS
 62
     7
 10
323.1053365455898
 20
1368.022831515563
 30
0.0
 11
321.9016695905044
 21
1368.726774424952
 31
0.0
  0
LINE
  5
1B8
  8
SL816952-W
  6
CONTINUOUS
 62
     7
 10
321.9016695905044
 20
1368.726774424952
 30
0.0
 11
320.7333265713157
 21
1369.48790970796
 31
0.0
  0
LINE
  5
1B9
  8
SL816952-W
  6
CONTINUOUS
 62
     7
 10
320.7333265713157
 20
1369.48790970796
 30
0.0
 11
319.6028221545253
 21
1370.304190507185
 31
0.0
  0
LINE
  5
1BA
  8
SL816952-W
  6
CONTINUOUS
 62
     7
 10
319.6028221545253
 20
1370.304190507185
 30
0.0
 11
318.5125794003202
 21
1371.173516182179
 31
0.0
  0
LINE
  5
1BB
  8
SL816952-W
  6
CONTINUOUS
 62
     7
 10
318.5125794003202
 20
1371.173516182179
 30
0.0
 11
317.4649421605346
 21
1372.093741100427
 31
0.0
  0
LINE
  5
1BC
  8
SL816952-W
  6
CONTINUOUS
 62
     7
 10
317.4649421605346
 20
1372.093741100427
 30
0.0
 11
316.4621868136403
 21
1373.062678730085
 31
0.0
  0
LINE
  5
1BD
  8
SL816952-W
  6
CONTINUOUS
 62
     7
 10
316.4621868136403
 20
1373.062678730085
 30
0.0
 11
315.506532440333
 21
1374.078101443165
 31
0.0
  0
LINE
  5
1BE
  8
SL816952-W
  6
CONTINUOUS
 62
     7
 10
315.506532440333
 20
1374.078101443165
 30
0.0
 11
314.600148645348
 21
1375.137736547709
 31
0.0
  0
LINE
  5
1BF
  8
SL816952-W
  6
CONTINUOUS
 62
     7
 10
314.600148645348
 20
1375.137736547709
 30
0.0
 11
313.7451603337913
 21
1376.23925918709
 31
0.0
  0
LINE
  5
1C0
  8
SL816952-W
  6
CONTINUOUS
 62
     7
 10
313.7451603337913
 20
1376.23925918709
 30
0.0
 11
312.9436488072441
 21
1377.380282797272
 31
0.0
  0
LINE
  5
1C1
  8
SL816952-W
  6
CONTINUOUS
 62
     7
 10
312.9436488072441
 20
1377.380282797272
 30
0.0
 11
312.1976486729943
 21
1378.558347913636
 31
0.0
  0
LINE
  5
1C2
  8
SL816952-W
  6
CONTINUOUS
 62
     7
 10
312.1976486729943
 20
1378.558347913636
 30
0.0
 11
311.5091401622146
 21
1379.770910207146
 31
0.0
  0
LINE
  5
1C3
  8
SL816952-W
  6
CONTINUOUS
 62
     7
 10
311.5091401622146
 20
1379.770910207146
 30
0.0
 11
310.8800365841462
 21
1381.015328716176
 31
0.0
  0
LINE
  5
1C4
  8
SL816952-W
  6
CONTINUOUS
 62
     7
 10
310.8800365841462
 20
1381.015328716176
 30
0.0
 11
310.312166795224
 21
1382.288855312988
 31
0.0
  0
LINE
  5
1C5
  8
SL816952-W
  6
CONTINUOUS
 62
     7
 10
310.312166795224
 20
1382.288855312988
 30
0.0
 11
309.8072528682698
 21
1383.588626611961
 31
0.0
  0
LINE
  5
1C6
  8
SL816952-W
  6
CONTINUOUS
 62
     7
 10
309.8072528682698
 20
1383.588626611961
 30
0.0
 11
309.3668833815294
 21
1384.911659455899
 31
0.0
  0
LINE
  5
1C7
  8
SL816952-W
  6
CONTINUOUS
 62
     7
 10
309.3668833815294
 20
1384.911659455899
 30
0.0
 11
308.9924830797543
 21
1386.254851105079
 31
0.0
  0
LINE
  5
1C8
  8
SL816952-W
  6
CONTINUOUS
 62
     7
 10
308.9924830797543
 20
1386.254851105079
 30
0.0
 11
308.6852799791471
 21
1387.614985156669
 31
0.0
  0
LINE
  5
1C9
  8
SL816952-W
  6
CONTINUOUS
 62
     7
 10
308.6852799791471
 20
1387.614985156669
 30
0.0
 11
308.4462702767908
 21
1388.988743969033
 31
0.0
  0
LINE
  5
1CA
  8
SL816952-W
  6
CONTINUOUS
 62
     7
 10
308.4462702767908
 20
1388.988743969033
 30
0.0
 11
308.2761724542929
 21
1390.372728153667
 31
0.0
  0
LINE
  5
1CB
  8
SL816952-W
  6
CONTINUOUS
 62
     7
 10
308.2761724542929
 20
1390.372728153667
 30
0.0
 11
308.1753312539964
 21
1391.763483254064
 31
0.0
  0
LINE
  5
1CC
  8
SL816952-W
  6
CONTINUOUS
 62
     7
 10
308.1753312539964
 20
1391.763483254064
 30
0.0
 11
308.1442574850164
 21
1393.157531222972
 31
0.0
  0
LINE
  5
1CD
  8
SL816952-W
  6
CONTINUOUS
 62
     7
 10
369.1375549298949
 20
1390.886474355594
 30
0.0
 11
366.3300282743526
 21
1391.060486299584
 31
0.0
  0
LINE
  5
1CE
  8
SL816952-W
  6
CONTINUOUS
 62
     7
 10
366.3300282743526
 20
1391.060486299584
 30
0.0
 11
363.5414956356429
 21
1391.429212770441
 31
0.0
  0
LINE
  5
1CF
  8
SL816952-W
  6
CONTINUOUS
 62
     7
 10
363.5414956356429
 20
1391.429212770441
 30
0.0
 11
360.7894938959563
 21
1392.010260550129
 31
0.0
  0
LINE
  5
1D0
  8
SL816952-W
  6
CONTINUOUS
 62
     7
 10
360.7894938959563
 20
1392.010260550129
 30
0.0
 11
359.4339541940341
 21
1392.385830962366
 31
0.0
  0
LINE
  5
1D1
  8
SL816952-W
  6
CONTINUOUS
 62
     7
 10
359.4339541940341
 20
1392.385830962366
 30
0.0
 11
358.0963040164409
 21
1392.820807022209
 31
0.0
  0
LINE
  5
1D2
  8
SL816952-W
  6
CONTINUOUS
 62
     7
 10
358.0963040164409
 20
1392.820807022209
 30
0.0
 11
356.7801423081526
 21
1393.316992734164
 31
0.0
  0
LINE
  5
1D3
  8
SL816952-W
  6
CONTINUOUS
 62
     7
 10
356.7801423081526
 20
1393.316992734164
 30
0.0
 11
355.4893852391215
 21
1393.875917564675
 31
0.0
  0
LINE
  5
1D4
  8
SL816952-W
  6
CONTINUOUS
 62
     7
 10
355.4893852391215
 20
1393.875917564675
 30
0.0
 11
354.2282349390143
 21
1394.498749392048
 31
0.0
  0
LINE
  5
1D5
  8
SL816952-W
  6
CONTINUOUS
 62
     7
 10
354.2282349390143
 20
1394.498749392048
 30
0.0
 11
353.0011263275496
 21
1395.186203904279
 31
0.0
  0
LINE
  5
1D6
  8
SL816952-W
  6
CONTINUOUS
 62
     7
 10
353.0011263275496
 20
1395.186203904279
 30
0.0
 11
351.812649731868
 21
1395.938456781346
 31
0.0
  0
LINE
  5
1D7
  8
SL816952-W
  6
CONTINUOUS
 62
     7
 10
351.812649731868
 20
1395.938456781346
 30
0.0
 11
350.6674492059002
 21
1396.755066780911
 31
0.0
  0
LINE
  5
1D8
  8
SL816952-W
  6
CONTINUOUS
 62
     7
 10
350.6674492059002
 20
1396.755066780911
 30
0.0
 11
349.5700995550976
 21
1397.634918859104
 31
0.0
  0
LINE
  5
1D9
  8
SL816952-W
  6
CONTINUOUS
 62
     7
 10
349.5700995550976
 20
1397.634918859104
 30
0.0
 11
348.524968653663
 21
1398.576196180343
 31
0.0
  0
LINE
  5
1DA
  8
SL816952-W
  6
CONTINUOUS
 62
     7
 10
348.524968653663
 20
1398.576196180343
 30
0.0
 11
347.5360750214663
 21
1399.576387875071
 31
0.0
  0
LINE
  5
1DB
  8
SL816952-W
  6
CONTINUOUS
 62
     7
 10
347.5360750214663
 20
1399.576387875071
 30
0.0
 11
346.6069529298463
 21
1400.632335763118
 31
0.0
  0
LINE
  5
1DC
  8
SL816952-W
  6
CONTINUOUS
 62
     7
 10
346.6069529298463
 20
1400.632335763118
 30
0.0
 11
345.7405377455729
 21
1401.740318466613
 31
0.0
  0
LINE
  5
1DD
  8
SL816952-W
  6
CONTINUOUS
 62
     7
 10
345.7405377455729
 20
1401.740318466613
 30
0.0
 11
344.9390824124437
 21
1402.896166376445
 31
0.0
  0
LINE
  5
1DE
  8
SL816952-W
  6
CONTINUOUS
 62
     7
 10
344.9390824124437
 20
1402.896166376445
 30
0.0
 11
344.2041121543899
 21
1404.095396954896
 31
0.0
  0
LINE
  5
1DF
  8
SL816952-W
  6
CONTINUOUS
 62
     7
 10
344.2041121543899
 20
1404.095396954896
 30
0.0
 11
343.5364194878543
 21
1405.333357758964
 31
0.0
  0
LINE
  5
1E0
  8
SL816952-W
  6
CONTINUOUS
 62
     7
 10
343.5364194878543
 20
1405.333357758964
 30
0.0
 11
342.9360965976392
 21
1406.605364725253
 31
0.0
  0
LINE
  5
1E1
  8
SL816952-W
  6
CONTINUOUS
 62
     7
 10
342.9360965976392
 20
1406.605364725253
 30
0.0
 11
342.4025981544571
 21
1407.906825394989
 31
0.0
  0
LINE
  5
1E2
  8
SL816952-W
  6
CONTINUOUS
 62
     7
 10
342.4025981544571
 20
1407.906825394989
 30
0.0
 11
341.9348253461337
 21
1409.2333401204
 31
0.0
  0
LINE
  5
1E3
  8
SL816952-W
  6
CONTINUOUS
 62
     7
 10
341.9348253461337
 20
1409.2333401204
 30
0.0
 11
341.5312213883924
 21
1410.580777998766
 31
0.0
  0
LINE
  5
1E4
  8
SL816952-W
  6
CONTINUOUS
 62
     7
 10
341.5312213883924
 20
1410.580777998766
 30
0.0
 11
341.1898697464533
 21
1411.945327557987
 31
0.0
  0
LINE
  5
1E5
  8
SL816952-W
  6
CONTINUOUS
 62
     7
 10
341.1898697464533
 20
1411.945327557987
 30
0.0
 11
340.9085881639072
 21
1413.323524613358
 31
0.0
  0
LINE
  5
1E6
  8
SL816952-W
  6
CONTINUOUS
 62
     7
 10
340.9085881639072
 20
1413.323524613358
 30
0.0
 11
340.5166766377014
 21
1416.108779389713
 31
0.0
  0
LINE
  5
1E7
  8
SL816952-W
  6
CONTINUOUS
 62
     7
 10
340.5166766377014
 20
1416.108779389713
 30
0.0
 11
340.3356528212807
 21
1418.915777859016
 31
0.0
  0
LINE
  5
1E8
  8
SL816952-W
  6
CONTINUOUS
 62
     7
 10
823.9449312625497
 20
1705.147573424079
 30
0.0
 11
826.7526707428822
 21
1704.978708265097
 31
0.0
  0
LINE
  5
1E9
  8
SL816952-W
  6
CONTINUOUS
 62
     7
 10
826.7526707428822
 20
1704.978708265097
 30
0.0
 11
829.541218660165
 21
1704.609050632097
 31
0.0
  0
LINE
  5
1EA
  8
SL816952-W
  6
CONTINUOUS
 62
     7
 10
829.541218660165
 20
1704.609050632097
 30
0.0
 11
830.9228400924976
 21
1704.345198141386
 31
0.0
  0
LINE
  5
1EB
  8
SL816952-W
  6
CONTINUOUS
 62
     7
 10
830.9228400924976
 20
1704.345198141386
 30
0.0
 11
832.292486977336
 21
1704.024837122921
 31
0.0
  0
LINE
  5
1EC
  8
SL816952-W
  6
CONTINUOUS
 62
     7
 10
832.292486977336
 20
1704.024837122921
 30
0.0
 11
833.6470811476242
 21
1703.645576695849
 31
0.0
  0
LINE
  5
1ED
  8
SL816952-W
  6
CONTINUOUS
 62
     7
 10
833.6470811476242
 20
1703.645576695849
 30
0.0
 11
834.983265761502
 21
1703.205877810281
 31
0.0
  0
LINE
  5
1EE
  8
SL816952-W
  6
CONTINUOUS
 62
     7
 10
834.983265761502
 20
1703.205877810281
 30
0.0
 11
836.2973056521944
 21
1702.703872541867
 31
0.0
  0
LINE
  5
1EF
  8
SL816952-W
  6
CONTINUOUS
 62
     7
 10
836.2973056521944
 20
1702.703872541867
 30
0.0
 11
837.5851687895922
 21
1702.138054242185
 31
0.0
  0
LINE
  5
1F0
  8
SL816952-W
  6
CONTINUOUS
 62
     7
 10
837.5851687895922
 20
1702.138054242185
 30
0.0
 11
838.842563727078
 21
1701.5073901109
 31
0.0
  0
LINE
  5
1F1
  8
SL816952-W
  6
CONTINUOUS
 62
     7
 10
838.842563727078
 20
1701.5073901109
 30
0.0
 11
840.0649737205779
 21
1700.811340128676
 31
0.0
  0
LINE
  5
1F2
  8
SL816952-W
  6
CONTINUOUS
 62
     7
 10
840.0649737205779
 20
1700.811340128676
 30
0.0
 11
841.2477827048763
 21
1700.049929266966
 31
0.0
  0
LINE
  5
1F3
  8
SL816952-W
  6
CONTINUOUS
 62
     7
 10
841.2477827048763
 20
1700.049929266966
 30
0.0
 11
842.3863565398335
 21
1699.223817725344
 31
0.0
  0
LINE
  5
1F4
  8
SL816952-W
  6
CONTINUOUS
 62
     7
 10
842.3863565398335
 20
1699.223817725344
 30
0.0
 11
843.476193870262
 21
1698.334402810545
 31
0.0
  0
LINE
  5
1F5
  8
SL816952-W
  6
CONTINUOUS
 62
     7
 10
843.476193870262
 20
1698.334402810545
 30
0.0
 11
844.5130660543193
 21
1697.383766072542
 31
0.0
  0
LINE
  5
1F6
  8
SL816952-W
  6
CONTINUOUS
 62
     7
 10
844.5130660543193
 20
1697.383766072542
 30
0.0
 11
845.4931248067098
 21
1696.374654218507
 31
0.0
  0
LINE
  5
1F7
  8
SL816952-W
  6
CONTINUOUS
 62
     7
 10
845.4931248067098
 20
1696.374654218507
 30
0.0
 11
846.4130815379008
 21
1695.310467456698
 31
0.0
  0
LINE
  5
1F8
  8
SL816952-W
  6
CONTINUOUS
 62
     7
 10
846.4130815379008
 20
1695.310467456698
 30
0.0
 11
847.2702765383069
 21
1694.19510167759
 31
0.0
  0
LINE
  5
1F9
  8
SL816952-W
  6
CONTINUOUS
 62
     7
 10
847.2702765383069
 20
1694.19510167759
 30
0.0
 11
848.0627140688193
 21
1693.032839404091
 31
0.0
  0
LINE
  5
1FA
  8
SL816952-W
  6
CONTINUOUS
 62
     7
 10
848.0627140688193
 20
1693.032839404091
 30
0.0
 11
848.7891641396277
 21
1691.828235227198
 31
0.0
  0
LINE
  5
1FB
  8
SL816952-W
  6
CONTINUOUS
 62
     7
 10
848.7891641396277
 20
1691.828235227198
 30
0.0
 11
849.449091840567
 21
1690.585937106543
 31
0.0
  0
LINE
  5
1FC
  8
SL816952-W
  6
CONTINUOUS
 62
     7
 10
849.449091840567
 20
1690.585937106543
 30
0.0
 11
850.0425991892062
 21
1689.310586300166
 31
0.0
  0
LINE
  5
1FD
  8
SL816952-W
  6
CONTINUOUS
 62
     7
 10
850.0425991892062
 20
1689.310586300166
 30
0.0
 11
850.5704507856185
 21
1688.006685402851
 31
0.0
  0
LINE
  5
1FE
  8
SL816952-W
  6
CONTINUOUS
 62
     7
 10
850.5704507856185
 20
1688.006685402851
 30
0.0
 11
851.0338198175882
 21
1686.67850877589
 31
0.0
  0
LINE
  5
1FF
  8
SL816952-W
  6
CONTINUOUS
 62
     7
 10
851.0338198175882
 20
1686.67850877589
 30
0.0
 11
851.4342876800781
 21
1685.330069893523
 31
0.0
  0
LINE
  5
200
  8
SL816952-W
  6
CONTINUOUS
 62
     7
 10
851.4342876800781
 20
1685.330069893523
 30
0.0
 11
851.7741320118942
 21
1683.965025152655
 31
0.0
  0
LINE
  5
201
  8
SL816952-W
  6
CONTINUOUS
 62
     7
 10
851.7741320118942
 20
1683.965025152655
 30
0.0
 11
852.0552343947643
 21
1682.586710744543
 31
0.0
  0
LINE
  5
202
  8
SL816952-W
  6
CONTINUOUS
 62
     7
 10
852.0552343947643
 20
1682.586710744543
 30
0.0
 11
852.4498431531404
 21
1679.801825645455
 31
0.0
  0
LINE
  5
203
  8
SL816952-W
  6
CONTINUOUS
 62
     7
 10
852.4498431531404
 20
1679.801825645455
 30
0.0
 11
852.573308420642
 21
1678.40030672257
 31
0.0
  0
LINE
  5
204
  8
SL816952-W
  6
CONTINUOUS
 62
     7
 10
852.573308420642
 20
1678.40030672257
 30
0.0
 11
852.6381462360816
 21
1676.995332104488
 31
0.0
  0
LINE
  5
205
  8
SL816952-W
  6
CONTINUOUS
 62
     7
 10
856.5133240389528
 20
1731.537722923345
 30
0.0
 11
858.0855844133198
 21
1731.492240955919
 31
0.0
  0
LINE
  5
206
  8
SL816952-W
  6
CONTINUOUS
 62
     7
 10
858.0855844133198
 20
1731.492240955919
 30
0.0
 11
859.6525129784316
 21
1731.355085670544
 31
0.0
  0
LINE
  5
207
  8
SL816952-W
  6
CONTINUOUS
 62
     7
 10
859.6525129784316
 20
1731.355085670544
 30
0.0
 11
861.2087880152496
 21
1731.126891010422
 31
0.0
  0
LINE
  5
208
  8
SL816952-W
  6
CONTINUOUS
 62
     7
 10
861.2087880152496
 20
1731.126891010422
 30
0.0
 11
862.7492058889454
 21
1730.808805581607
 31
0.0
  0
LINE
  5
209
  8
SL816952-W
  6
CONTINUOUS
 62
     7
 10
862.7492058889454
 20
1730.808805581607
 30
0.0
 11
864.268746805287
 21
1730.402521248507
 31
0.0
  0
LINE
  5
20A
  8
SL816952-W
  6
CONTINUOUS
 62
     7
 10
864.268746805287
 20
1730.402521248507
 30
0.0
 11
865.7626193264375
 21
1729.910154878452
 31
0.0
  0
LINE
  5
20B
  8
SL816952-W
  6
CONTINUOUS
 62
     7
 10
865.7626193264375
 20
1729.910154878452
 30
0.0
 11
867.226285241394
 21
1729.334159088217
 31
0.0
  0
LINE
  5
20C
  8
SL816952-W
  6
CONTINUOUS
 62
     7
 10
867.226285241394
 20
1729.334159088217
 30
0.0
 11
868.655466299067
 21
1728.677241847739
 31
0.0
  0
LINE
  5
20D
  8
SL816952-W
  6
CONTINUOUS
 62
     7
 10
868.655466299067
 20
1728.677241847739
 30
0.0
 11
870.0461356920666
 21
1727.942294995302
 31
0.0
  0
LINE
  5
20E
  8
SL816952-W
  6
CONTINUOUS
 62
     7
 10
870.0461356920666
 20
1727.942294995302
 30
0.0
 11
871.3944978198615
 21
1727.132334146979
 31
0.0
  0
LINE
  5
20F
  8
SL816952-W
  6
CONTINUOUS
 62
     7
 10
871.3944978198615
 20
1727.132334146979
 30
0.0
 11
872.696959991368
 21
1726.250451528814
 31
0.0
  0
LINE
  5
210
  8
SL816952-W
  6
CONTINUOUS
 62
     7
 10
872.696959991368
 20
1726.250451528814
 30
0.0
 11
873.9500995260596
 21
1725.299782179908
 31
0.0
  0
LINE
  5
211
  8
SL816952-W
  6
CONTINUOUS
 62
     7
 10
873.9500995260596
 20
1725.299782179908
 30
0.0
 11
875.1506293327004
 21
1724.283483159132
 31
0.0
  0
LINE
  5
212
  8
SL816952-W
  6
CONTINUOUS
 62
     7
 10
875.1506293327004
 20
1724.283483159132
 30
0.0
 11
876.2953646101962
 21
1723.204724847328
 31
0.0
  0
LINE
  5
213
  8
SL816952-W
  6
CONTINUOUS
 62
     7
 10
876.2953646101962
 20
1723.204724847328
 30
0.0
 11
877.381192911082
 21
1722.066693112781
 31
0.0
  0
LINE
  5
214
  8
SL816952-W
  6
CONTINUOUS
 62
     7
 10
877.381192911082
 20
1722.066693112781
 30
0.0
 11
878.4050494813275
 21
1720.872600926139
 31
0.0
  0
LINE
  5
215
  8
SL816952-W
  6
CONTINUOUS
 62
     7
 10
878.4050494813275
 20
1720.872600926139
 30
0.0
 11
879.3638995527267
 21
1719.625707897535
 31
0.0
  0
LINE
  5
216
  8
SL816952-W
  6
CONTINUOUS
 62
     7
 10
879.3638995527267
 20
1719.625707897535
 30
0.0
 11
880.2547291013916
 21
1718.329346099097
 31
0.0
  0
LINE
  5
217
  8
SL816952-W
  6
CONTINUOUS
 62
     7
 10
880.2547291013916
 20
1718.329346099097
 30
0.0
 11
881.0745454613468
 21
1716.986950381127
 31
0.0
  0
LINE
  5
218
  8
SL816952-W
  6
CONTINUOUS
 62
     7
 10
881.0745454613468
 20
1716.986950381127
 30
0.0
 11
881.8203890428906
 21
1715.602091159763
 31
0.0
  0
LINE
  5
219
  8
SL816952-W
  6
CONTINUOUS
 62
     7
 10
881.8203890428906
 20
1715.602091159763
 30
0.0
 11
882.4893571854848
 21
1714.178507340444
 31
0.0
  0
LINE
  5
21A
  8
SL816952-W
  6
CONTINUOUS
 62
     7
 10
882.4893571854848
 20
1714.178507340444
 30
0.0
 11
883.0786408024042
 21
1712.72013666629
 31
0.0
  0
LINE
  5
21B
  8
SL816952-W
  6
CONTINUOUS
 62
     7
 10
883.0786408024042
 20
1712.72013666629
 30
0.0
 11
883.5855738806315
 21
1711.231140398173
 31
0.0
  0
LINE
  5
21C
  8
SL816952-W
  6
CONTINUOUS
 62
     7
 10
883.5855738806315
 20
1711.231140398173
 30
0.0
 11
884.007695031295
 21
1709.715918935747
 31
0.0
  0
LINE
  5
21D
  8
SL816952-W
  6
CONTINUOUS
 62
     7
 10
884.007695031295
 20
1709.715918935747
 30
0.0
 11
884.3428190765148
 21
1708.179114901401
 31
0.0
  0
LINE
  5
21E
  8
SL816952-W
  6
CONTINUOUS
 62
     7
 10
884.3428190765148
 20
1708.179114901401
 30
0.0
 11
884.5891144892448
 21
1706.625600476591
 31
0.0
  0
LINE
  5
21F
  8
SL816952-W
  6
CONTINUOUS
 62
     7
 10
884.5891144892448
 20
1706.625600476591
 30
0.0
 11
884.7451731827794
 21
1705.060446548886
 31
0.0
  0
LINE
  5
220
  8
SL816952-W
  6
CONTINUOUS
 62
     7
 10
884.7451731827794
 20
1705.060446548886
 30
0.0
 11
884.8100082531741
 21
1703.488872661391
 31
0.0
  0
LINE
  5
221
  8
SL816952-W
  6
CONTINUOUS
 62
     7
 10
884.8100082531741
 20
1703.488872661391
 30
0.0
 11
884.7544458021598
 21
1697.196825267537
 31
0.0
  0
LINE
  5
222
  8
SL816952-W
  6
CONTINUOUS
 62
     7
 10
297.2692027466046
 20
1392.997649920315
 30
0.0
 11
299.1839526102571
 21
1385.229701413042
 31
0.0
  0
LINE
  5
223
  8
SL816952-W
  6
CONTINUOUS
 62
     7
 10
299.1839526102571
 20
1385.229701413042
 30
0.0
 11
300.256875884646
 21
1381.457901703349
 31
0.0
  0
LINE
  5
224
  8
SL816952-W
  6
CONTINUOUS
 62
     7
 10
300.256875884646
 20
1381.457901703349
 30
0.0
 11
301.4684571695558
 21
1377.820711446029
 31
0.0
  0
LINE
  5
225
  8
SL816952-W
  6
CONTINUOUS
 62
     7
 10
301.4684571695558
 20
1377.820711446029
 30
0.0
 11
302.8649158015958
 21
1374.363000458389
 31
0.0
  0
LINE
  5
226
  8
SL816952-W
  6
CONTINUOUS
 62
     7
 10
302.8649158015958
 20
1374.363000458389
 30
0.0
 11
303.6469176654799
 21
1372.715471508609
 31
0.0
  0
LINE
  5
227
  8
SL816952-W
  6
CONTINUOUS
 62
     7
 10
303.6469176654799
 20
1372.715471508609
 30
0.0
 11
304.4924711173752
 21
1371.12963855774
 31
0.0
  0
LINE
  5
228
  8
SL816952-W
  6
CONTINUOUS
 62
     7
 10
304.4924711173752
 20
1371.12963855774
 30
0.0
 11
305.4073535743578
 21
1369.611110332945
 31
0.0
  0
LINE
  5
229
  8
SL816952-W
  6
CONTINUOUS
 62
     7
 10
305.4073535743578
 20
1369.611110332945
 30
0.0
 11
306.3973424535036
 21
1368.165495561388
 31
0.0
  0
LINE
  5
22A
  8
SL816952-W
  6
CONTINUOUS
 62
     7
 10
306.3973424535036
 20
1368.165495561388
 30
0.0
 11
307.4682151718889
 21
1366.798402970233
 31
0.0
  0
LINE
  5
22B
  8
SL816952-W
  6
CONTINUOUS
 62
     7
 10
307.4682151718889
 20
1366.798402970233
 30
0.0
 11
308.6257491465901
 21
1365.515441286642
 31
0.0
  0
LINE
  5
22C
  8
SL816952-W
  6
CONTINUOUS
 62
     7
 10
308.6257491465901
 20
1365.515441286642
 30
0.0
 11
309.8737987737064
 21
1364.320352365467
 31
0.0
  0
LINE
  5
22D
  8
SL816952-W
  6
CONTINUOUS
 62
     7
 10
309.8737987737064
 20
1364.320352365467
 30
0.0
 11
311.2085149922519
 21
1363.209399531203
 31
0.0
  0
LINE
  5
22E
  8
SL816952-W
  6
CONTINUOUS
 62
     7
 10
311.2085149922519
 20
1363.209399531203
 30
0.0
 11
312.6241200294735
 21
1362.176973711399
 31
0.0
  0
LINE
  5
22F
  8
SL816952-W
  6
CONTINUOUS
 62
     7
 10
312.6241200294735
 20
1362.176973711399
 30
0.0
 11
314.114836112616
 21
1361.217465833607
 31
0.0
  0
LINE
  5
230
  8
SL816952-W
  6
CONTINUOUS
 62
     7
 10
314.114836112616
 20
1361.217465833607
 30
0.0
 11
315.6748854689258
 21
1360.325266825378
 31
0.0
  0
LINE
  5
231
  8
SL816952-W
  6
CONTINUOUS
 62
     7
 10
315.6748854689258
 20
1360.325266825378
 30
0.0
 11
317.2984903256488
 21
1359.494767614262
 31
0.0
  0
LINE
  5
232
  8
SL816952-W
  6
CONTINUOUS
 62
     7
 10
317.2984903256488
 20
1359.494767614262
 30
0.0
 11
320.7132554493172
 21
1357.996432293572
 31
0.0
  0
LINE
  5
233
  8
SL816952-W
  6
CONTINUOUS
 62
     7
 10
320.7132554493172
 20
1357.996432293572
 30
0.0
 11
324.3129093015878
 21
1356.677587291941
 31
0.0
  0
LINE
  5
234
  8
SL816952-W
  6
CONTINUOUS
 62
     7
 10
324.3129093015878
 20
1356.677587291941
 30
0.0
 11
328.0512297004269
 21
1355.493360029774
 31
0.0
  0
LINE
  5
235
  8
SL816952-W
  6
CONTINUOUS
 62
     7
 10
328.0512297004269
 20
1355.493360029774
 30
0.0
 11
335.7589814096782
 21
1353.349268405455
 31
0.0
  0
LINE
  5
236
  8
SL816952-W
  6
CONTINUOUS
 62
     7
 10
852.6351315660488
 20
1418.915792281426
 30
0.0
 11
852.4361206809007
 21
1416.110669456011
 31
0.0
  0
LINE
  5
237
  8
SL816952-W
  6
CONTINUOUS
 62
     7
 10
852.4361206809007
 20
1416.110669456011
 30
0.0
 11
852.0314139656934
 21
1413.327904008637
 31
0.0
  0
LINE
  5
238
  8
SL816952-W
  6
CONTINUOUS
 62
     7
 10
852.0314139656934
 20
1413.327904008637
 30
0.0
 11
851.7456921343828
 21
1411.950966154552
 31
0.0
  0
LINE
  5
239
  8
SL816952-W
  6
CONTINUOUS
 62
     7
 10
851.7456921343828
 20
1411.950966154552
 30
0.0
 11
851.4011677905335
 21
1410.587563025369
 31
0.0
  0
LINE
  5
23A
  8
SL816952-W
  6
CONTINUOUS
 62
     7
 10
851.4011677905335
 20
1410.587563025369
 30
0.0
 11
850.9955977734554
 21
1409.241068813539
 31
0.0
  0
LINE
  5
23B
  8
SL816952-W
  6
CONTINUOUS
 62
     7
 10
850.9955977734554
 20
1409.241068813539
 30
0.0
 11
850.5269754942857
 21
1407.915212756585
 31
0.0
  0
LINE
  5
23C
  8
SL816952-W
  6
CONTINUOUS
 62
     7
 10
850.5269754942857
 20
1407.915212756585
 30
0.0
 11
849.9936244934065
 21
1406.614057546951
 31
0.0
  0
LINE
  5
23D
  8
SL816952-W
  6
CONTINUOUS
 62
     7
 10
849.9936244934065
 20
1406.614057546951
 30
0.0
 11
849.3942985520916
 21
1405.341955239507
 31
0.0
  0
LINE
  5
23E
  8
SL816952-W
  6
CONTINUOUS
 62
     7
 10
849.3942985520916
 20
1405.341955239507
 30
0.0
 11
848.7282819429308
 21
1404.103477415749
 31
0.0
  0
LINE
  5
23F
  8
SL816952-W
  6
CONTINUOUS
 62
     7
 10
848.7282819429308
 20
1404.103477415749
 30
0.0
 11
847.995481183674
 21
1402.903318536099
 31
0.0
  0
LINE
  5
240
  8
SL816952-W
  6
CONTINUOUS
 62
     7
 10
847.995481183674
 20
1402.903318536099
 30
0.0
 11
847.1964981901897
 21
1401.746174642763
 31
0.0
  0
LINE
  5
241
  8
SL816952-W
  6
CONTINUOUS
 62
     7
 10
847.1964981901897
 20
1401.746174642763
 30
0.0
 11
846.3326746157745
 21
1400.636603488665
 31
0.0
  0
LINE
  5
242
  8
SL816952-W
  6
CONTINUOUS
 62
     7
 10
846.3326746157745
 20
1400.636603488665
 30
0.0
 11
845.4060989555014
 21
1399.578876041722
 31
0.0
  0
LINE
  5
243
  8
SL816952-W
  6
CONTINUOUS
 62
     7
 10
845.4060989555014
 20
1399.578876041722
 30
0.0
 11
844.4195717132113
 21
1398.576832182699
 31
0.0
  0
LINE
  5
244
  8
SL816952-W
  6
CONTINUOUS
 62
     7
 10
844.4195717132113
 20
1398.576832182699
 30
0.0
 11
843.3765291361235
 21
1397.633754317272
 31
0.0
  0
LINE
  5
245
  8
SL816952-W
  6
CONTINUOUS
 62
     7
 10
843.3765291361235
 20
1397.633754317272
 30
0.0
 11
842.2809315672771
 21
1396.752271077741
 31
0.0
  0
LINE
  5
246
  8
SL816952-W
  6
CONTINUOUS
 62
     7
 10
842.2809315672771
 20
1396.752271077741
 30
0.0
 11
841.1371271107287
 21
1395.934299465236
 31
0.0
  0
LINE
  5
247
  8
SL816952-W
  6
CONTINUOUS
 62
     7
 10
841.1371271107287
 20
1395.934299465236
 30
0.0
 11
839.9497039507941
 21
1395.181028535831
 31
0.0
  0
LINE
  5
248
  8
SL816952-W
  6
CONTINUOUS
 62
     7
 10
839.9497039507941
 20
1395.181028535831
 30
0.0
 11
838.7233448283553
 21
1394.492942316423
 31
0.0
  0
LINE
  5
249
  8
SL816952-W
  6
CONTINUOUS
 62
     7
 10
838.7233448283553
 20
1394.492942316423
 30
0.0
 11
837.4626951048965
 21
1393.86987526805
 31
0.0
  0
LINE
  5
24A
  8
SL816952-W
  6
CONTINUOUS
 62
     7
 10
837.4626951048965
 20
1393.86987526805
 30
0.0
 11
836.172252353068
 21
1393.311090999064
 31
0.0
  0
LINE
  5
24B
  8
SL816952-W
  6
CONTINUOUS
 62
     7
 10
836.172252353068
 20
1393.311090999064
 30
0.0
 11
834.8562814638985
 21
1392.815374227351
 31
0.0
  0
LINE
  5
24C
  8
SL816952-W
  6
CONTINUOUS
 62
     7
 10
834.8562814638985
 20
1392.815374227351
 30
0.0
 11
833.5187557272646
 21
1392.381126896172
 31
0.0
  0
LINE
  5
24D
  8
SL816952-W
  6
CONTINUOUS
 62
     7
 10
833.5187557272646
 20
1392.381126896172
 30
0.0
 11
832.1633217134695
 21
1392.00646120169
 31
0.0
  0
LINE
  5
24E
  8
SL816952-W
  6
CONTINUOUS
 62
     7
 10
832.1633217134695
 20
1392.00646120169
 30
0.0
 11
829.4116068531185
 21
1391.42737336757
 31
0.0
  0
LINE
  5
24F
  8
SL816952-W
  6
CONTINUOUS
 62
     7
 10
829.4116068531185
 20
1391.42737336757
 30
0.0
 11
826.6235610573335
 21
1391.060158347792
 31
0.0
  0
LINE
  5
250
  8
SL816952-W
  6
CONTINUOUS
 62
     7
 10
826.6235610573335
 20
1391.060158347792
 30
0.0
 11
823.8166925772077
 21
1390.886474355594
 31
0.0
  0
LINE
  5
251
  8
SL816952-W
  6
CONTINUOUS
 62
     7
 10
1512.30599379739
 20
842.3422736511907
 30
0.0
 11
1513.802579556746
 21
846.1226649379058
 31
0.0
  0
LINE
  5
252
  8
SL816952-W
  6
CONTINUOUS
 62
     7
 10
1513.802579556746
 20
846.1226649379058
 30
0.0
 11
1516.030143139071
 21
853.5508682647207
 31
0.0
  0
LINE
  5
253
  8
SL816952-W
  6
CONTINUOUS
 62
     7
 10
1516.030143139071
 20
853.5508682647207
 30
0.0
 11
1520.393791248705
 21
868.4114524002852
 31
0.0
  0
LINE
  5
254
  8
SL816952-W
  6
CONTINUOUS
 62
     7
 10
1520.393791248705
 20
868.4114524002852
 30
0.0
 11
1526.787256155581
 21
898.7106579957274
 31
0.0
  0
LINE
  5
255
  8
SL816952-W
  6
CONTINUOUS
 62
     7
 10
1526.787256155581
 20
898.7106579957274
 30
0.0
 11
1528.817864763592
 21
914.066214296499
 31
0.0
  0
LINE
  5
256
  8
SL816952-W
  6
CONTINUOUS
 62
     7
 10
1528.817864763592
 20
914.066214296499
 30
0.0
 11
1530.005976957313
 21
929.506632093743
 31
0.0
  0
LINE
  5
257
  8
SL816952-W
  6
CONTINUOUS
 62
     7
 10
1530.005976957313
 20
929.506632093743
 30
0.0
 11
1530.538425803288
 21
944.984976092852
 31
0.0
  0
LINE
  5
258
  8
SL816952-W
  6
CONTINUOUS
 62
     7
 10
1530.538425803288
 20
944.984976092852
 30
0.0
 11
1530.228664205782
 21
948.8476986270508
 31
0.0
  0
LINE
  5
259
  8
SL816952-W
  6
CONTINUOUS
 62
     7
 10
1530.228664205782
 20
948.8476986270508
 30
0.0
 11
1528.684539854272
 21
952.3797163838985
 31
0.0
  0
LINE
  5
25A
  8
SL816952-W
  6
CONTINUOUS
 62
     7
 10
1528.684539854272
 20
952.3797163838985
 30
0.0
 11
1525.917743027109
 21
955.0638975767097
 31
0.0
  0
LINE
  5
25B
  8
SL816952-W
  6
CONTINUOUS
 62
     7
 10
1525.917743027109
 20
955.0638975767097
 30
0.0
 11
1522.340770012723
 21
956.5007839228964
 31
0.0
  0
LINE
  5
25C
  8
SL816952-W
  6
CONTINUOUS
 62
     7
 10
1522.340770012723
 20
956.5007839228964
 30
0.0
 11
1398.442344605907
 21
956.6506108601699
 31
0.0
  0
LINE
  5
25D
  8
SL816952-W
  6
CONTINUOUS
 62
     7
 10
1398.442344605907
 20
956.6506108601699
 30
0.0
 11
1150.629897470204
 21
956.6506099723415
 31
0.0
  0
LINE
  5
25E
  8
SL816952-W
  6
CONTINUOUS
 62
     7
 10
1150.629897470204
 20
956.6506099723415
 30
0.0
 11
1142.885774462082
 21
956.6506308264139
 31
0.0
  0
LINE
  5
25F
  8
SL816952-W
  6
CONTINUOUS
 62
     7
 10
1142.885774462082
 20
956.6506308264139
 30
0.0
 11
1139.01200156199
 21
956.6054595876121
 31
0.0
  0
LINE
  5
260
  8
SL816952-W
  6
CONTINUOUS
 62
     7
 10
1139.01200156199
 20
956.6054595876121
 30
0.0
 11
1135.323355055971
 21
955.4974543059939
 31
0.0
  0
LINE
  5
261
  8
SL816952-W
  6
CONTINUOUS
 62
     7
 10
1135.323355055971
 20
955.4974543059939
 30
0.0
 11
1132.338970698646
 21
953.0577843344915
 31
0.0
  0
LINE
  5
262
  8
SL816952-W
  6
CONTINUOUS
 62
     7
 10
1132.338970698646
 20
953.0577843344915
 30
0.0
 11
1130.500259801693
 21
949.6691076004881
 31
0.0
  0
LINE
  5
263
  8
SL816952-W
  6
CONTINUOUS
 62
     7
 10
1130.500259801693
 20
949.6691076004881
 30
0.0
 11
1130.081016768699
 21
941.9649263973508
 31
0.0
  0
LINE
  5
264
  8
SL816952-W
  6
CONTINUOUS
 62
     7
 10
1130.081016768699
 20
941.9649263973508
 30
0.0
 11
1130.644704745853
 21
926.4880118468279
 31
0.0
  0
LINE
  5
265
  8
SL816952-W
  6
CONTINUOUS
 62
     7
 10
1130.644704745853
 20
926.4880118468279
 30
0.0
 11
1132.028921009189
 21
911.0618669333954
 31
0.0
  0
LINE
  5
266
  8
SL816952-W
  6
CONTINUOUS
 62
     7
 10
1132.028921009189
 20
911.0618669333954
 30
0.0
 11
1134.201488384183
 21
895.7269806426846
 31
0.0
  0
LINE
  5
267
  8
SL816952-W
  6
CONTINUOUS
 62
     7
 10
1134.201488384183
 20
895.7269806426846
 30
0.0
 11
1137.16707791765
 21
880.5260091031954
 31
0.0
  0
LINE
  5
268
  8
SL816952-W
  6
CONTINUOUS
 62
     7
 10
1137.16707791765
 20
880.5260091031954
 30
0.0
 11
1145.287876733661
 21
850.635933995563
 31
0.0
  0
LINE
  5
269
  8
SL816952-W
  6
CONTINUOUS
 62
     7
 10
1145.287876733661
 20
850.635933995563
 30
0.0
 11
1148.093175915305
 21
842.342273651339
 31
0.0
  0
LINE
  5
26A
  8
SL816952-W
  6
CONTINUOUS
 62
     7
 10
1148.093175915205
 20
842.3422736509584
 30
0.0
 11
1512.305993797393
 21
842.3422736509584
 31
0.0
  0
LINE
  5
26B
  8
SL816952-W
  6
CONTINUOUS
 62
     7
 10
1425.131592822
 20
842.3422736508031
 30
0.0
 11
1421.811249059802
 21
840.8669906867121
 31
0.0
  0
LINE
  5
26C
  8
SL816952-W
  6
CONTINUOUS
 62
     7
 10
1421.811249059802
 20
840.8669906867121
 30
0.0
 11
1408.023819903154
 21
835.1519430951697
 31
0.0
  0
LINE
  5
26D
  8
SL816952-W
  6
CONTINUOUS
 62
     7
 10
1408.023819903154
 20
835.1519430951697
 30
0.0
 11
1400.919252788117
 21
832.7444439985659
 31
0.0
  0
LINE
  5
26E
  8
SL816952-W
  6
CONTINUOUS
 62
     7
 10
1400.919252788117
 20
832.7444439985659
 30
0.0
 11
1393.686440533212
 21
830.849647733157
 31
0.0
  0
LINE
  5
26F
  8
SL816952-W
  6
CONTINUOUS
 62
     7
 10
1393.686440533212
 20
830.849647733157
 30
0.0
 11
1379.014853989761
 21
828.6028272385804
 31
0.0
  0
LINE
  5
270
  8
SL816952-W
  6
CONTINUOUS
 62
     7
 10
1379.014853989761
 20
828.6028272385804
 30
0.0
 11
1371.625004671185
 21
826.9689252077553
 31
0.0
  0
LINE
  5
271
  8
SL816952-W
  6
CONTINUOUS
 62
     7
 10
1371.625004671185
 20
826.9689252077553
 30
0.0
 11
1368.260037308109
 21
825.3239020068482
 31
0.0
  0
LINE
  5
272
  8
SL816952-W
  6
CONTINUOUS
 62
     7
 10
1368.260037308109
 20
825.3239020068482
 30
0.0
 11
1367.140984018475
 21
823.8282375688276
 31
0.0
  0
LINE
  5
273
  8
SL816952-W
  6
CONTINUOUS
 62
     7
 10
1367.140984018475
 20
823.8282375688276
 30
0.0
 11
1366.544158842501
 21
822.00377726001
 31
0.0
  0
LINE
  5
274
  8
SL816952-W
  6
CONTINUOUS
 62
     7
 10
1366.544158842501
 20
822.00377726001
 30
0.0
 11
1366.382045371317
 21
814.5295100143629
 31
0.0
  0
LINE
  5
275
  8
SL816952-W
  6
CONTINUOUS
 62
     7
 10
1366.382045371317
 20
814.5295100143629
 30
0.0
 11
1365.661455400616
 21
812.8306050962807
 31
0.0
  0
LINE
  5
276
  8
SL816952-W
  6
CONTINUOUS
 62
     7
 10
1365.661455400616
 20
812.8306050962807
 30
0.0
 11
1363.869007540496
 21
812.301067056429
 31
0.0
  0
LINE
  5
277
  8
SL816952-W
  6
CONTINUOUS
 62
     7
 10
1363.869007540496
 20
812.301067056429
 30
0.0
 11
1360.146329087228
 21
812.3883943685453
 31
0.0
  0
LINE
  5
278
  8
SL816952-W
  6
CONTINUOUS
 62
     7
 10
1360.146329087228
 20
812.3883943685453
 30
0.0
 11
1330.257644982736
 21
812.3422657358084
 31
0.0
  0
LINE
  5
279
  8
SL816952-W
  6
CONTINUOUS
 62
     7
 10
1330.257644982736
 20
812.3422657358084
 30
0.0
 11
1300.369046632152
 21
812.388722651997
 31
0.0
  0
LINE
  5
27A
  8
SL816952-W
  6
CONTINUOUS
 62
     7
 10
1300.369046632152
 20
812.388722651997
 30
0.0
 11
1296.646247165087
 21
812.300489695853
 31
0.0
  0
LINE
  5
27B
  8
SL816952-W
  6
CONTINUOUS
 62
     7
 10
1296.646247165087
 20
812.300489695853
 30
0.0
 11
1294.853709434291
 21
812.8294312829752
 31
0.0
  0
LINE
  5
27C
  8
SL816952-W
  6
CONTINUOUS
 62
     7
 10
1294.853709434291
 20
812.8294312829752
 30
0.0
 11
1294.132273109146
 21
814.5279881828758
 31
0.0
  0
LINE
  5
27D
  8
SL816952-W
  6
CONTINUOUS
 62
     7
 10
1294.132273109146
 20
814.5279881828758
 30
0.0
 11
1293.959100154558
 21
822.0020562043351
 31
0.0
  0
LINE
  5
27E
  8
SL816952-W
  6
CONTINUOUS
 62
     7
 10
1293.959100154558
 20
822.0020562043351
 30
0.0
 11
1293.36290657738
 21
823.8267207824786
 31
0.0
  0
LINE
  5
27F
  8
SL816952-W
  6
CONTINUOUS
 62
     7
 10
1293.36290657738
 20
823.8267207824786
 30
0.0
 11
1292.245296309368
 21
825.3230060146806
 31
0.0
  0
LINE
  5
280
  8
SL816952-W
  6
CONTINUOUS
 62
     7
 10
1292.245296309368
 20
825.3230060146806
 30
0.0
 11
1288.88113249935
 21
826.9697086125535
 31
0.0
  0
LINE
  5
281
  8
SL816952-W
  6
CONTINUOUS
 62
     7
 10
1288.88113249935
 20
826.9697086125535
 30
0.0
 11
1281.491714728582
 21
828.6044725589398
 31
0.0
  0
LINE
  5
282
  8
SL816952-W
  6
CONTINUOUS
 62
     7
 10
1281.491714728582
 20
828.6044725589398
 30
0.0
 11
1266.817937240076
 21
830.8416237998324
 31
0.0
  0
LINE
  5
283
  8
SL816952-W
  6
CONTINUOUS
 62
     7
 10
1266.817937240076
 20
830.8416237998324
 30
0.0
 11
1259.583007462104
 21
832.7298854467095
 31
0.0
  0
LINE
  5
284
  8
SL816952-W
  6
CONTINUOUS
 62
     7
 10
1259.583007462104
 20
832.7298854467095
 30
0.0
 11
1252.478049125082
 21
835.1355827278946
 31
0.0
  0
LINE
  5
285
  8
SL816952-W
  6
CONTINUOUS
 62
     7
 10
1252.478049125082
 20
835.1355827278946
 30
0.0
 11
1238.697365550682
 21
840.8664029543587
 31
0.0
  0
LINE
  5
286
  8
SL816952-W
  6
CONTINUOUS
 62
     7
 10
1238.697365550682
 20
840.8664029543587
 30
0.0
 11
1235.378377970566
 21
842.342273650186
 31
0.0
  0
LINE
  5
287
  8
SL816952-W
  6
CONTINUOUS
 62
     7
 10
877.8110118769551
 20
842.3422736506134
 30
0.0
 11
878.9417518503411
 21
844.8695242786353
 31
0.0
  0
LINE
  5
288
  8
SL816952-W
  6
CONTINUOUS
 62
     7
 10
878.9417518503411
 20
844.8695242786353
 30
0.0
 11
880.7032711897007
 21
850.0095981584084
 31
0.0
  0
LINE
  5
289
  8
SL816952-W
  6
CONTINUOUS
 62
     7
 10
880.7032711897007
 20
850.0095981584084
 30
0.0
 11
883.7518405321689
 21
860.4516370188061
 31
0.0
  0
LINE
  5
28A
  8
SL816952-W
  6
CONTINUOUS
 62
     7
 10
883.7518405321689
 20
860.4516370188061
 30
0.0
 11
889.289444033113
 21
881.4569688476038
 31
0.0
  0
LINE
  5
28B
  8
SL816952-W
  6
CONTINUOUS
 62
     7
 10
889.289444033113
 20
881.4569688476038
 30
0.0
 11
893.2291221456725
 21
902.8252692398345
 31
0.0
  0
LINE
  5
28C
  8
SL816952-W
  6
CONTINUOUS
 62
     7
 10
893.2291221456725
 20
902.8252692398345
 30
0.0
 11
895.6089472417724
 21
924.4236072984506
 31
0.0
  0
LINE
  5
28D
  8
SL816952-W
  6
CONTINUOUS
 62
     7
 10
895.6089472417724
 20
924.4236072984506
 30
0.0
 11
896.4126926718608
 21
946.1375077324512
 31
0.0
  0
LINE
  5
28E
  8
SL816952-W
  6
CONTINUOUS
 62
     7
 10
896.4126926718608
 20
946.1375077324512
 30
0.0
 11
895.5433267147224
 21
951.4598291810007
 31
0.0
  0
LINE
  5
28F
  8
SL816952-W
  6
CONTINUOUS
 62
     7
 10
895.5433267147224
 20
951.4598291810007
 30
0.0
 11
892.1153937945754
 21
955.6073938516829
 31
0.0
  0
LINE
  5
290
  8
SL816952-W
  6
CONTINUOUS
 62
     7
 10
892.1153937945754
 20
955.6073938516829
 30
0.0
 11
887.0332641253483
 21
957.3981000743365
 31
0.0
  0
LINE
  5
291
  8
SL816952-W
  6
CONTINUOUS
 62
     7
 10
887.0332641253483
 20
957.3981000743365
 30
0.0
 11
881.6025247342589
 21
957.3427660968888
 31
0.0
  0
LINE
  5
292
  8
SL816952-W
  6
CONTINUOUS
 62
     7
 10
881.6025247342589
 20
957.3427660968888
 30
0.0
 11
838.1390740975168
 21
957.3422736509585
 31
0.0
  0
LINE
  5
293
  8
SL816952-W
  6
CONTINUOUS
 62
     7
 10
838.1390740975168
 20
957.3422736509585
 30
0.0
 11
664.285207843886
 21
957.3422736471828
 31
0.0
  0
LINE
  5
294
  8
SL816952-W
  6
CONTINUOUS
 62
     7
 10
664.285207843886
 20
957.3422736471828
 30
0.0
 11
316.5774740209553
 21
957.3422788019722
 31
0.0
  0
LINE
  5
295
  8
SL816952-W
  6
CONTINUOUS
 62
     7
 10
316.5774740209553
 20
957.3422788019722
 30
0.0
 11
305.7082115712988
 21
957.3468148000371
 31
0.0
  0
LINE
  5
296
  8
SL816952-W
  6
CONTINUOUS
 62
     7
 10
305.7082115712988
 20
957.3468148000371
 30
0.0
 11
300.5696965751589
 21
955.7957333972671
 31
0.0
  0
LINE
  5
297
  8
SL816952-W
  6
CONTINUOUS
 62
     7
 10
300.5696965751589
 20
955.7957333972671
 30
0.0
 11
296.9965079992051
 21
951.774294505827
 31
0.0
  0
LINE
  5
298
  8
SL816952-W
  6
CONTINUOUS
 62
     7
 10
296.9965079992051
 20
951.774294505827
 30
0.0
 11
295.9611397678049
 21
946.4843362832765
 31
0.0
  0
LINE
  5
299
  8
SL816952-W
  6
CONTINUOUS
 62
     7
 10
295.9611397678049
 20
946.4843362832765
 30
0.0
 11
295.9800655654583
 21
941.0514981279057
 31
0.0
  0
LINE
  5
29A
  8
SL816952-W
  6
CONTINUOUS
 62
     7
 10
295.9800655654583
 20
941.0514981279057
 30
0.0
 11
296.4353279524884
 21
930.1919221543563
 31
0.0
  0
LINE
  5
29B
  8
SL816952-W
  6
CONTINUOUS
 62
     7
 10
296.4353279524884
 20
930.1919221543563
 30
0.0
 11
298.3858144644843
 21
908.552226102993
 31
0.0
  0
LINE
  5
29C
  8
SL816952-W
  6
CONTINUOUS
 62
     7
 10
298.3858144644843
 20
908.552226102993
 30
0.0
 11
301.9142483806019
 21
887.1124453228543
 31
0.0
  0
LINE
  5
29D
  8
SL816952-W
  6
CONTINUOUS
 62
     7
 10
301.9142483806019
 20
887.1124453228543
 30
0.0
 11
306.9915202729908
 21
865.9861268107758
 31
0.0
  0
LINE
  5
29E
  8
SL816952-W
  6
CONTINUOUS
 62
     7
 10
306.9915202729908
 20
865.9861268107758
 30
0.0
 11
313.3273430701726
 21
845.1985422760885
 31
0.0
  0
LINE
  5
29F
  8
SL816952-W
  6
CONTINUOUS
 62
     7
 10
313.3273430701726
 20
845.1985422760885
 30
0.0
 11
314.5679372782926
 21
842.3422736502758
 31
0.0
  0
LINE
  5
2A0
  8
SL816952-W
  6
CONTINUOUS
 62
     7
 10
314.5679372777645
 20
842.3422736509584
 30
0.0
 11
877.8110118764866
 21
842.3422736509584
 31
0.0
  0
LINE
  5
2A1
  8
SL816952-W
  6
CONTINUOUS
 62
     7
 10
734.135155967819
 20
842.3422736513634
 30
0.0
 11
724.737391109033
 21
839.4472653235628
 31
0.0
  0
LINE
  5
2A2
  8
SL816952-W
  6
CONTINUOUS
 62
     7
 10
724.737391109033
 20
839.4472653235628
 30
0.0
 11
705.1901066984677
 21
834.8473670184168
 31
0.0
  0
LINE
  5
2A3
  8
SL816952-W
  6
CONTINUOUS
 62
     7
 10
705.1901066984677
 20
834.8473670184168
 30
0.0
 11
685.445505454183
 21
831.0379462239039
 31
0.0
  0
LINE
  5
2A4
  8
SL816952-W
  6
CONTINUOUS
 62
     7
 10
685.445505454183
 20
831.0379462239039
 30
0.0
 11
675.5405812425143
 21
829.8234699555833
 31
0.0
  0
LINE
  5
2A5
  8
SL816952-W
  6
CONTINUOUS
 62
     7
 10
675.5405812425143
 20
829.8234699555833
 30
0.0
 11
665.6288339719116
 21
829.2821481869349
 31
0.0
  0
LINE
  5
2A6
  8
SL816952-W
  6
CONTINUOUS
 62
     7
 10
665.6288339719116
 20
829.2821481869349
 30
0.0
 11
645.6862962690451
 21
828.1780257312125
 31
0.0
  0
LINE
  5
2A7
  8
SL816952-W
  6
CONTINUOUS
 62
     7
 10
645.6862962690451
 20
828.1780257312125
 30
0.0
 11
635.6655269491733
 21
826.0313945235315
 31
0.0
  0
LINE
  5
2A8
  8
SL816952-W
  6
CONTINUOUS
 62
     7
 10
635.6655269491733
 20
826.0313945235315
 30
0.0
 11
633.6957990932684
 21
824.5673919767473
 31
0.0
  0
LINE
  5
2A9
  8
SL816952-W
  6
CONTINUOUS
 62
     7
 10
633.6957990932684
 20
824.5673919767473
 30
0.0
 11
632.5753046699834
 21
822.2682547273243
 31
0.0
  0
LINE
  5
2AA
  8
SL816952-W
  6
CONTINUOUS
 62
     7
 10
632.5753046699834
 20
822.2682547273243
 30
0.0
 11
632.3275253551648
 21
817.2469361556931
 31
0.0
  0
LINE
  5
2AB
  8
SL816952-W
  6
CONTINUOUS
 62
     7
 10
632.3275253551648
 20
817.2469361556931
 30
0.0
 11
632.3233164039569
 21
814.746009755908
 31
0.0
  0
LINE
  5
2AC
  8
SL816952-W
  6
CONTINUOUS
 62
     7
 10
632.3233164039569
 20
814.746009755908
 30
0.0
 11
632.0897049130607
 21
813.4977026909064
 31
0.0
  0
LINE
  5
2AD
  8
SL816952-W
  6
CONTINUOUS
 62
     7
 10
632.0897049130607
 20
813.4977026909064
 30
0.0
 11
631.2475904971465
 21
812.607754376298
 31
0.0
  0
LINE
  5
2AE
  8
SL816952-W
  6
CONTINUOUS
 62
     7
 10
631.2475904971465
 20
812.607754376298
 30
0.0
 11
626.2592077013134
 21
812.3888949560553
 31
0.0
  0
LINE
  5
2AF
  8
SL816952-W
  6
CONTINUOUS
 62
     7
 10
626.2592077013134
 20
812.3888949560553
 30
0.0
 11
616.2353158708614
 21
812.3387229413238
 31
0.0
  0
LINE
  5
2B0
  8
SL816952-W
  6
CONTINUOUS
 62
     7
 10
616.2353158708614
 20
812.3387229413238
 30
0.0
 11
596.2022890003567
 21
812.342274933406
 31
0.0
  0
LINE
  5
2B1
  8
SL816952-W
  6
CONTINUOUS
 62
     7
 10
596.2022890003567
 20
812.342274933406
 30
0.0
 11
576.169251592762
 21
812.3388072715118
 31
0.0
  0
LINE
  5
2B2
  8
SL816952-W
  6
CONTINUOUS
 62
     7
 10
576.169251592762
 20
812.3388072715118
 30
0.0
 11
566.1453761588949
 21
812.3888642397658
 31
0.0
  0
LINE
  5
2B3
  8
SL816952-W
  6
CONTINUOUS
 62
     7
 10
566.1453761588949
 20
812.3888642397658
 30
0.0
 11
561.1556006402446
 21
812.601263634941
 31
0.0
  0
LINE
  5
2B4
  8
SL816952-W
  6
CONTINUOUS
 62
     7
 10
561.1556006402446
 20
812.601263634941
 30
0.0
 11
560.3062935142462
 21
813.4838131914111
 31
0.0
  0
LINE
  5
2B5
  8
SL816952-W
  6
CONTINUOUS
 62
     7
 10
560.3062935142462
 20
813.4838131914111
 30
0.0
 11
560.0664572716008
 21
814.7312105987208
 31
0.0
  0
LINE
  5
2B6
  8
SL816952-W
  6
CONTINUOUS
 62
     7
 10
560.0664572716008
 20
814.7312105987208
 30
0.0
 11
560.0626965102862
 21
817.2320908763444
 31
0.0
  0
LINE
  5
2B7
  8
SL816952-W
  6
CONTINUOUS
 62
     7
 10
560.0626965102862
 20
817.2320908763444
 30
0.0
 11
559.8184122379931
 21
822.2534098628759
 31
0.0
  0
LINE
  5
2B8
  8
SL816952-W
  6
CONTINUOUS
 62
     7
 10
559.8184122379931
 20
822.2534098628759
 30
0.0
 11
558.7041160760981
 21
824.5560393530478
 31
0.0
  0
LINE
  5
2B9
  8
SL816952-W
  6
CONTINUOUS
 62
     7
 10
558.7041160760981
 20
824.5560393530478
 30
0.0
 11
556.7388742673958
 21
826.0261539847586
 31
0.0
  0
LINE
  5
2BA
  8
SL816952-W
  6
CONTINUOUS
 62
     7
 10
556.7388742673958
 20
826.0261539847586
 30
0.0
 11
546.7218069410187
 21
828.1823849216761
 31
0.0
  0
LINE
  5
2BB
  8
SL816952-W
  6
CONTINUOUS
 62
     7
 10
546.7218069410187
 20
828.1823849216761
 30
0.0
 11
526.7782789112632
 21
829.2845659696852
 31
0.0
  0
LINE
  5
2BC
  8
SL816952-W
  6
CONTINUOUS
 62
     7
 10
526.7782789112632
 20
829.2845659696852
 30
0.0
 11
516.8653574226043
 21
829.8225958787001
 31
0.0
  0
LINE
  5
2BD
  8
SL816952-W
  6
CONTINUOUS
 62
     7
 10
516.8653574226043
 20
829.8225958787001
 30
0.0
 11
506.9600558579506
 21
831.0358898204904
 31
0.0
  0
LINE
  5
2BE
  8
SL816952-W
  6
CONTINUOUS
 62
     7
 10
506.9600558579506
 20
831.0358898204904
 30
0.0
 11
487.2159834465296
 21
834.8466182540465
 31
0.0
  0
LINE
  5
2BF
  8
SL816952-W
  6
CONTINUOUS
 62
     7
 10
487.2159834465296
 20
834.8466182540465
 30
0.0
 11
467.6689616928675
 21
839.4473492962262
 31
0.0
  0
LINE
  5
2C0
  8
SL816952-W
  6
CONTINUOUS
 62
     7
 10
467.6689616928675
 20
839.4473492962262
 30
0.0
 11
458.2713079411273
 21
842.3422736510411
 31
0.0
  0
DIMENSION
  5
2C1
  8
SL816952-W
 62
     7
  2
_D345211072
 10
992.1658127619937
 20
1748.228335683856
 30
0.0
 11
975.3658127619938
 21
1648.124885183856
 31
0.0
 70
   160
  3
DS345211072
 13
928.674545924772
 23
1548.021434683856
 33
0.0
 14
596.4853919831316
 24
1748.228335683856
 34
0.0
 50
270.0
1001
ACAD
1000
DSTYLE
1002
{
1070
    41
1040
15.75692404819533
1070
    44
1040
12.0
1070
    42
1040
8.0
1070
    77
1070
     1
1070
   146
1040
0.6
1070
   145
1040
1.0
1070
   140
1040
24.0
1002
}
  0
DIMENSION
  5
2C2
  8
SL816952-W
 62
     7
  2
_D345213520
 10
1057.182114578482
 20
1748.228335683856
 30
0.0
 11
1040.382114578482
 21
1548.012477394274
 31
0.0
 70
   160
  3
DS345211072
 13
596.4853919831316
 23
1347.796619104693
 33
0.0
 14
596.4853919831178
 24
1748.228335683856
 34
0.0
 50
270.0
1001
ACAD
1000
DSTYLE
1002
{
1070
    41
1040
15.75692404819533
1070
    44
1040
12.0
1070
    42
1040
8.0
1070
    77
1070
     1
1070
   146
1040
0.6
1070
   145
1040
1.0
1070
   140
1040
24.0
1002
}
  0
DIMENSION
  5
2C3
  8
SL816952-W
 62
     7
  2
_D345214744
 10
896.68550048934
 20
1264.082906380997
 30
0.0
 11
596.4771237535474
 21
1280.882906380997
 31
0.0
 70
   160
  3
DS345211072
 13
296.2687470177548
 23
1548.021434683857
 33
0.0
 14
896.68550048934
 24
1548.021434683855
 34
0.0
1001
ACAD
1000
DSTYLE
1002
{
1070
    41
1040
15.75692404819533
1070
    44
1040
12.0
1070
    42
1040
8.0
1070
    77
1070
     1
1070
   146
1040
0.6
1070
   145
1040
1.0
1070
   140
1040
24.0
1002
}
  0
DIMENSION
  5
2C4
  8
SL816952-W
 62
     7
  2
_D345215968
 10
992.1658127619937
 20
842.3422736509584
 30
0.0
 11
975.3658127619938
 21
899.8701868626475
 31
0.0
 70
   160
  3
DS345211072
 13
887.0332641253485
 23
957.3981000743365
 33
0.0
 14
877.8110118771095
 24
842.3422736509584
 34
0.0
 50
90.0
1001
ACAD
1000
DSTYLE
1002
{
1070
    41
1040
15.75692404819533
1070
    44
1040
12.0
1070
    42
1040
8.0
1070
    77
1070
     1
1070
   146
1040
0.6
1070
   145
1040
1.0
1070
   140
1040
24.0
1002
}
  0
DIMENSION
  5
2C5
  8
SL816952-W
 62
     7
  2
_D345217192
 10
1057.165812761994
 20
812.3888949560553
 30
0.0
 11
1040.365812761994
 21
884.8934975151959
 31
0.0
 70
   160
  3
DS345211072
 13
887.0332641253485
 23
957.3981000743365
 33
0.0
 14
626.2592077013123
 24
812.3888949560553
 34
0.0
 50
90.0
1001
ACAD
1000
DSTYLE
1002
{
1070
    41
1040
15.75692404819533
1070
    44
1040
12.0
1070
    42
1040
8.0
1070
    77
1070
     1
1070
   146
1040
0.6
1070
   145
1040
1.0
1070
   140
1040
24.0
1002
}
  0
DIMENSION
  5
2C6
  8
SL816952-W
 62
     7
  2
_D347378376
 10
612.748847949718
 20
1564.284890651844
 30
0.0
 11
536.3297577706337
 21
1511.624588318584
 31
0.0
 70
   163
  3
DS347378376
 15
580.221936015704
 25
1531.757978716696
 35
0.0
 40
0.0
1001
ACAD
1000
DSTYLE
1002
{
1070
    41
1040
15.75692404819533
1070
    44
1040
12.0
1070
    42
1040
8.0
1070
    77
1070
     1
1070
   146
1040
0.6
1070
   145
1040
1.0
1070
   140
1040
24.0
1002
}
  0
DIMENSION
  5
2C7
  8
SL816952-W
 62
     7
  2
_D347380568
 10
623.0018962777925
 20
1521.504930389533
 30
0.0
 11
550.900645694433
 21
1617.36496882048
 31
0.0
 70
   163
  3
DS347378376
 15
569.9688876887133
 25
1574.537938978436
 35
0.0
 40
0.0
1001
ACAD
1000
DSTYLE
1002
{
1070
    41
1040
15.75692404819533
1070
    44
1040
12.0
1070
    42
1040
8.0
1070
    77
1070
     1
1070
   146
1040
0.6
1070
   145
1040
1.0
1070
   140
1040
24.0
1002
}
  0
ENDSEC
  0
EOF
