  0
SECTION
  2
HEADER
  9
$ACADVER
  1
AC1015
  9
$ACADMAINTVER
 70
     6
  9
$DWGCODEPAGE
  3
ANSI_932
  9
$INSBASE
 10
0.0
 20
0.0
 30
0.0
  9
$EXTMIN
 10
0.0
 20
0.0
 30
0.0
  9
$EXTMAX
 10
1680.0
 20
2376.0
 30
0.0
  9
$LIMMIN
 10
0.0
 20
0.0
  9
$LIMMAX
 10
12.0
 20
9.0
  9
$ORTHOMODE
 70
     0
  9
$REGENMODE
 70
     1
  9
$FILLMODE
 70
     1
  9
$QTEXTMODE
 70
     0
  9
$MIRRTEXT
 70
     1
  9
$LTSCALE
 40
1.0
  9
$ATTMODE
 70
     1
  9
$TEXTSIZE
 40
0.2
  9
$TRACEWID
 40
0.05
  9
$TEXTSTYLE
  7
Standard
  9
$CLAYER
  8
0
  9
$CELTYPE
  6
ByLayer
  9
$CECOLOR
 62
   256
  9
$CELTSCALE
 40
1.0
  9
$DISPSILH
 70
     0
  9
$DIMSCALE
 40
1.0
  9
$DIMASZ
 40
0.18
  9
$DIMEXO
 40
0.0625
  9
$DIMDLI
 40
0.38
  9
$DIMRND
 40
0.0
  9
$DIMDLE
 40
0.0
  9
$DIMEXE
 40
0.18
  9
$DIMTP
 40
0.0
  9
$DIMTM
 40
0.0
  9
$DIMTXT
 40
0.18
  9
$DIMCEN
 40
0.09
  9
$DIMTSZ
 40
0.0
  9
$DIMTOL
 70
     0
  9
$DIMLIM
 70
     0
  9
$DIMTIH
 70
     1
  9
$DIMTOH
 70
     1
  9
$DIMSE1
 70
     0
  9
$DIMSE2
 70
     0
  9
$DIMTAD
 70
     0
  9
$DIMZIN
 70
     0
  9
$DIMBLK
  1

  9
$DIMASO
 70
     1
  9
$DIMSHO
 70
     1
  9
$DIMPOST
  1

  9
$DIMAPOST
  1

  9
$DIMALT
 70
     0
  9
$DIMALTD
 70
     2
  9
$DIMALTF
 40
25.4
  9
$DIMLFAC
 40
1.0
  9
$DIMTOFL
 70
     0
  9
$DIMTVP
 40
0.0
  9
$DIMTIX
 70
     0
  9
$DIMSOXD
 70
     0
  9
$DIMSAH
 70
     0
  9
$DIMBLK1
  1

  9
$DIMBLK2
  1

  9
$DIMSTYLE
  2
Standard
  9
$DIMCLRD
 70
     0
  9
$DIMCLRE
 70
     0
  9
$DIMCLRT
 70
     0
  9
$DIMTFAC
 40
1.0
  9
$DIMGAP
 40
0.09
  9
$DIMJUST
 70
     0
  9
$DIMSD1
 70
     0
  9
$DIMSD2
 70
     0
  9
$DIMTOLJ
 70
     1
  9
$DIMTZIN
 70
     0
  9
$DIMALTZ
 70
     0
  9
$DIMALTTZ
 70
     0
  9
$DIMUPT
 70
     0
  9
$DIMDEC
 70
     4
  9
$DIMTDEC
 70
     4
  9
$DIMALTU
 70
     2
  9
$DIMALTTD
 70
     2
  9
$DIMTXSTY
  7
Standard
  9
$DIMAUNIT
 70
     0
  9
$DIMADEC
 70
     0
  9
$DIMALTRND
 40
0.0
  9
$DIMAZIN
 70
     0
  9
$DIMDSEP
 70
    46
  9
$DIMATFIT
 70
     3
  9
$DIMFRAC
 70
     0
  9
$DIMLDRBLK
  1

  9
$DIMLUNIT
 70
     2
  9
$DIMLWD
 70
    -2
  9
$DIMLWE
 70
    -2
  9
$DIMTMOVE
 70
     0
  9
$LUNITS
 70
     2
  9
$LUPREC
 70
     4
  9
$SKETCHINC
 40
0.1
  9
$FILLETRAD
 40
0.5
  9
$AUNITS
 70
     0
  9
$AUPREC
 70
     0
  9
$MENU
  1
.
  9
$ELEVATION
 40
0.0
  9
$PELEVATION
 40
0.0
  9
$THICKNESS
 40
0.0
  9
$LIMCHECK
 70
     0
  9
$CHAMFERA
 40
0.5
  9
$CHAMFERB
 40
0.5
  9
$CHAMFERC
 40
1.0
  9
$CHAMFERD
 40
0.0
  9
$SKPOLY
 70
     0
  9
$TDCREATE
 40
2457900.702998993
  9
$TDUCREATE
 40
2457900.327998993
  9
$TDUPDATE
 40
2457900.702999896
  9
$TDUUPDATE
 40
2457900.327999896
  9
$TDINDWG
 40
0.0000000116
  9
$TDUSRTIMER
 40
0.0000000116
  9
$USRTIMER
 70
     1
  9
$ANGBASE
 50
0.0
  9
$ANGDIR
 70
     0
  9
$PDMODE
 70
     0
  9
$PDSIZE
 40
0.0
  9
$PLINEWID
 40
0.0
  9
$SPLFRAME
 70
     0
  9
$SPLINETYPE
 70
     6
  9
$SPLINESEGS
 70
     8
  9
$HANDSEED
  5
278
  9
$SURFTAB1
 70
     6
  9
$SURFTAB2
 70
     6
  9
$SURFTYPE
 70
     6
  9
$SURFU
 70
     6
  9
$SURFV
 70
     6
  9
$UCSBASE
  2

  9
$UCSNAME
  2

  9
$UCSORG
 10
0.0
 20
0.0
 30
0.0
  9
$UCSXDIR
 10
1.0
 20
0.0
 30
0.0
  9
$UCSYDIR
 10
0.0
 20
1.0
 30
0.0
  9
$UCSORTHOREF
  2

  9
$UCSORTHOVIEW
 70
     0
  9
$UCSORGTOP
 10
0.0
 20
0.0
 30
0.0
  9
$UCSORGBOTTOM
 10
0.0
 20
0.0
 30
0.0
  9
$UCSORGLEFT
 10
0.0
 20
0.0
 30
0.0
  9
$UCSORGRIGHT
 10
0.0
 20
0.0
 30
0.0
  9
$UCSORGFRONT
 10
0.0
 20
0.0
 30
0.0
  9
$UCSORGBACK
 10
0.0
 20
0.0
 30
0.0
  9
$PUCSBASE
  2

  9
$PUCSNAME
  2

  9
$PUCSORG
 10
0.0
 20
0.0
 30
0.0
  9
$PUCSXDIR
 10
1.0
 20
0.0
 30
0.0
  9
$PUCSYDIR
 10
0.0
 20
1.0
 30
0.0
  9
$PUCSORTHOREF
  2

  9
$PUCSORTHOVIEW
 70
     0
  9
$PUCSORGTOP
 10
0.0
 20
0.0
 30
0.0
  9
$PUCSORGBOTTOM
 10
0.0
 20
0.0
 30
0.0
  9
$PUCSORGLEFT
 10
0.0
 20
0.0
 30
0.0
  9
$PUCSORGRIGHT
 10
0.0
 20
0.0
 30
0.0
  9
$PUCSORGFRONT
 10
0.0
 20
0.0
 30
0.0
  9
$PUCSORGBACK
 10
0.0
 20
0.0
 30
0.0
  9
$USERI1
 70
     0
  9
$USERI2
 70
     0
  9
$USERI3
 70
     0
  9
$USERI4
 70
     0
  9
$USERI5
 70
     0
  9
$USERR1
 40
18.1
  9
$USERR2
 40
0.0
  9
$USERR3
 40
0.0
  9
$USERR4
 40
0.0
  9
$USERR5
 40
0.0
  9
$WORLDVIEW
 70
     1
  9
$SHADEDGE
 70
     3
  9
$SHADEDIF
 70
    70
  9
$TILEMODE
 70
     1
  9
$MAXACTVP
 70
    64
  9
$PINSBASE
 10
0.0
 20
0.0
 30
0.0
  9
$PLIMCHECK
 70
     0
  9
$PEXTMIN
 10
1.00000000000000E+20
 20
1.00000000000000E+20
 30
1.00000000000000E+20
  9
$PEXTMAX
 10
-1.00000000000000E+20
 20
-1.00000000000000E+20
 30
-1.00000000000000E+20
  9
$PLIMMIN
 10
0.0
 20
0.0
  9
$PLIMMAX
 10
12.0
 20
9.0
  9
$UNITMODE
 70
     0
  9
$VISRETAIN
 70
     1
  9
$PLINEGEN
 70
     0
  9
$PSLTSCALE
 70
     1
  9
$TREEDEPTH
 70
  3020
  9
$CMLSTYLE
  2
Standard
  9
$CMLJUST
 70
     0
  9
$CMLSCALE
 40
1.0
  9
$PROXYGRAPHICS
 70
     1
  9
$MEASUREMENT
 70
     1
  9
$CELWEIGHT
370
    -1
  9
$ENDCAPS
280
     0
  9
$JOINSTYLE
280
     0
  9
$LWDISPLAY
290
     0
  9
$INSUNITS
 70
     4
  9
$HYPERLINKBASE
  1

  9
$STYLESHEET
  1

  9
$XEDIT
290
     1
  9
$CEPSNTYPE
380
     0
  9
$PSTYLEMODE
290
     1
  9
$FINGERPRINTGUID
  2
{5501A518-A584-430F-878F-321F9ADD4942}
  9
$VERSIONGUID
  2
{FAEB1C32-E019-11D5-929B-00C0DF256EC4}
  9
$EXTNAMES
290
     1
  9
$PSVPSCALE
 40
0.0
  9
$OLESTARTUP
290
     0
  0
ENDSEC
  0
SECTION
  2
CLASSES
  0
CLASS
  1
ACDBDICTIONARYWDFLT
  2
AcDbDictionaryWithDefault
  3
ObjectDBX Classes
 90
        0
280
     0
281
     0
  0
CLASS
  1
VISUALSTYLE
  2
AcDbVisualStyle
  3
ObjectDBX Classes
 90
     4095
280
     0
281
     0
  0
CLASS
  1
MATERIAL
  2
AcDbMaterial
  3
ObjectDBX Classes
 90
     1153
280
     0
281
     0
  0
CLASS
  1
DICTIONARYVAR
  2
AcDbDictionaryVar
  3
ObjectDBX Classes
 90
        0
280
     0
281
     0
  0
CLASS
  1
ACDBPLACEHOLDER
  2
AcDbPlaceHolder
  3
ObjectDBX Classes
 90
        0
280
     0
281
     0
  0
CLASS
  1
LAYOUT
  2
AcDbLayout
  3
ObjectDBX Classes
 90
        0
280
     0
281
     0
  0
ENDSEC
  0
SECTION
  2
TABLES
  0
TABLE
  2
VPORT
  5
8
330
0
100
AcDbSymbolTable
 70
     1
  0
VPORT
  5
29
330
8
100
AcDbSymbolTableRecord
100
AcDbViewportTableRecord
  2
*Active
 70
     0
 10
0.0
 20
0.0
 11
1.0
 21
1.0
 12
840.0
 22
1188.0
 13
0.0
 23
0.0
 14
0.5
 24
0.5
 15
0.5
 25
0.5
 16
0.0
 26
0.0
 36
1.0
 17
0.0
 27
0.0
 37
0.0
 40
2613.6
 41
1.60267857142857
 42
50.0
 43
0.0
 44
0.0
 50
0.0
 51
0.0
 71
     0
 72
   100
 73
     1
 74
     3
 75
     0
 76
     0
 77
     0
 78
     0
281
     0
 65
     1
110
0.0
120
0.0
130
0.0
111
1.0
121
0.0
131
0.0
112
0.0
122
1.0
132
0.0
 79
     0
146
0.0
  0
ENDTAB
  0
TABLE
  2
LTYPE
  5
5
330
0
100
AcDbSymbolTable
 70
     8
  0
LTYPE
  5
14
330
5
100
AcDbSymbolTableRecord
100
AcDbLinetypeTableRecord
  2
ByBlock
 70
     0
  3

 72
    65
 73
     0
 40
0.0
  0
LTYPE
  5
15
330
5
100
AcDbSymbolTableRecord
100
AcDbLinetypeTableRecord
  2
ByLayer
 70
     0
  3

 72
    65
 73
     0
 40
0.0
  0
LTYPE
  5
16
330
5
100
AcDbSymbolTableRecord
100
AcDbLinetypeTableRecord
  2
Continuous
 70
     0
  3
Solid line
 72
    65
 73
     0
 40
0.0
  0
LTYPE
  5
3F
330
5
100
AcDbSymbolTableRecord
100
AcDbLinetypeTableRecord
  2
DASHED
 70
     0
  3
Dashed
 72
    65
 73
     2
 40
15.0
 49
7.0
 74
     0
 49
-8.0
 74
     0
  0
LTYPE
  5
40
330
5
100
AcDbSymbolTableRecord
100
AcDbLinetypeTableRecord
  2
DOTTED
 70
     0
  3
Dotted
 72
    65
 73
     2
 40
1.0
 49
0.0
 74
     0
 49
-1.0
 74
     0
  0
LTYPE
  5
41
330
5
100
AcDbSymbolTableRecord
100
AcDbLinetypeTableRecord
  2
DOT_CENTER
 70
     0
  3
Dot_Center
 72
    65
 73
     4
 40
14.0
 49
12.0
 74
     0
 49
-1.0
 74
     0
 49
0.0
 74
     0
 49
-1.0
 74
     0
  0
LTYPE
  5
42
330
5
100
AcDbSymbolTableRecord
100
AcDbLinetypeTableRecord
  2
LONG_DASHED
 70
     0
  3
Long_Dashed
 72
    65
 73
     2
 40
15.0
 49
10.0
 74
     0
 49
-5.0
 74
     0
  0
LTYPE
  5
43
330
5
100
AcDbSymbolTableRecord
100
AcDbLinetypeTableRecord
  2
DASH_CENTER
 70
     0
  3
Dash_Center
 72
    65
 73
     4
 40
14.0
 49
11.0
 74
     0
 49
-1.0
 74
     0
 49
1.0
 74
     0
 49
-1.0
 74
     0
  0
LTYPE
  5
44
330
5
100
AcDbSymbolTableRecord
100
AcDbLinetypeTableRecord
  2
PHANTOM
 70
     0
  3
Phantom
 72
    65
 73
     6
 40
13.0
 49
10.0
 74
     0
 49
-1.0
 74
     0
 49
0.0
 74
     0
 49
-1.0
 74
     0
 49
0.0
 74
     0
 49
-1.0
 74
     0
  0
LTYPE
  5
45
330
5
100
AcDbSymbolTableRecord
100
AcDbLinetypeTableRecord
  2
CENTER_DASH_DASH
 70
     0
  3
Center_Dash_Dash
 72
    65
 73
     6
 40
14.0
 49
9.0
 74
     0
 49
-1.0
 74
     0
 49
1.0
 74
     0
 49
-1.0
 74
     0
 49
1.0
 74
     0
 49
-1.0
 74
     0
  0
ENDTAB
  0
TABLE
  2
LAYER
  5
2
330
0
100
AcDbSymbolTable
 70
     3
  0
LAYER
  5
10
330
2
100
AcDbSymbolTableRecord
100
AcDbLayerTableRecord
  2
0
 70
     0
 62
     7
  6
Continuous
370
    -3
390
F
  0
LAYER
  5
46
330
2
100
AcDbSymbolTableRecord
100
AcDbLayerTableRecord
  2
1
 70
     0
 62
     7
  6
Continuous
370
    -3
390
F
  0
LAYER
  5
47
330
2
100
AcDbSymbolTableRecord
100
AcDbLayerTableRecord
  2
SL817433-W-104
 70
     0
 62
     7
  6
Continuous
370
    -3
390
F
  0
ENDTAB
  0
TABLE
  2
STYLE
  5
3
330
0
100
AcDbSymbolTable
 70
     3
  0
STYLE
  5
11
330
3
100
AcDbSymbolTableRecord
100
AcDbTextStyleTableRecord
  2
Standard
 70
     0
 40
0.0
 41
1.0
 50
0.0
 71
     0
 42
0.2
  3
txt
  4

  0
STYLE
  5
9B
330
3
100
AcDbSymbolTableRecord
100
AcDbTextStyleTableRecord
  2
CONVERTER_11
 70
     0
 40
0.0
 41
0.89
 50
0.0
 71
     0
 42
0.2
  3
MS Mincho.ttf
  4

1001
ACAD
1000
MS Mincho
1071
    32785
  0
STYLE
  5
1D3
330
3
100
AcDbSymbolTableRecord
100
AcDbTextStyleTableRecord
  2
CONVERTER_12
 70
     0
 40
0.0
 41
0.9
 50
0.0
 71
     0
 42
0.2
  3
txt.shx
  4

  0
ENDTAB
  0
TABLE
  2
VIEW
  5
6
330
0
100
AcDbSymbolTable
 70
     0
  0
ENDTAB
  0
TABLE
  2
UCS
  5
7
330
0
100
AcDbSymbolTable
 70
     0
  0
ENDTAB
  0
TABLE
  2
APPID
  5
9
330
0
100
AcDbSymbolTable
 70
     1
  0
APPID
  5
12
330
9
100
AcDbSymbolTableRecord
100
AcDbRegAppTableRecord
  2
ACAD
 70
     0
  0
ENDTAB
  0
TABLE
  2
DIMSTYLE
  5
A
330
0
100
AcDbSymbolTable
 70
     9
100
AcDbDimStyleTable
  0
DIMSTYLE
105
27
330
A
100
AcDbSymbolTableRecord
100
AcDbDimStyleTableRecord
  2
Standard
 70
     0
178
     0
340
11
  0
DIMSTYLE
105
1F4
102
{ACAD_REACTORS
330
1F5
102
}
330
A
100
AcDbSymbolTableRecord
100
AcDbDimStyleTableRecord
  2
ME10_DIM_10
 70
     0
 41
28.0
 42
0.0
 44
8.0
 73
     0
 74
     0
 77
     1
 78
     8
140
28.0
147
8.0
172
     1
173
     1
174
     1
175
     1
176
     2
177
     2
271
     2
178
     7
271
     2
340
1D3
  0
DIMSTYLE
105
1FF
102
{ACAD_REACTORS
330
200
102
}
330
A
100
AcDbSymbolTableRecord
100
AcDbDimStyleTableRecord
  2
ME10_DIM_11
 70
     0
 41
28.0
 42
0.0
 44
8.0
 73
     0
 74
     0
 77
     1
 78
     8
140
28.0
147
8.0
172
     1
173
     1
174
     1
175
     1
176
     2
177
     2
271
     2
178
     7
271
     2
340
1D3
  0
DIMSTYLE
105
20C
102
{ACAD_REACTORS
330
20D
102
}
330
A
100
AcDbSymbolTableRecord
100
AcDbDimStyleTableRecord
  2
ME10_DIM_12
 70
     0
 41
28.0
 42
0.0
 44
8.0
 73
     0
 74
     0
 77
     1
 78
     8
140
28.0
147
8.0
172
     1
173
     1
174
     1
175
     1
176
     2
177
     2
271
     2
178
     7
271
     2
340
1D3
  0
DIMSTYLE
105
217
102
{ACAD_REACTORS
330
218
102
}
330
A
100
AcDbSymbolTableRecord
100
AcDbDimStyleTableRecord
  2
ME10_DIM_13
 70
     0
 41
28.0
 42
0.0
 44
8.0
 73
     0
 74
     0
 77
     1
 78
     8
140
28.0
147
8.0
172
     1
173
     1
174
     1
175
     1
176
     2
177
     2
271
     2
178
     7
271
     2
340
1D3
  0
DIMSTYLE
105
222
102
{ACAD_REACTORS
330
223
102
}
330
A
100
AcDbSymbolTableRecord
100
AcDbDimStyleTableRecord
  2
ME10_DIM_14
 70
     0
 41
28.0
 42
0.0
 44
8.0
 73
     0
 74
     0
 77
     1
 78
     8
140
28.0
147
8.0
172
     1
173
     1
174
     1
175
     1
176
     2
177
     2
271
     2
178
     7
271
     2
340
1D3
  0
DIMSTYLE
105
22D
102
{ACAD_REACTORS
330
22E
102
}
330
A
100
AcDbSymbolTableRecord
100
AcDbDimStyleTableRecord
  2
ME10_DIM_15
 70
     0
 41
28.0
 42
0.0
 44
8.0
 73
     0
 74
     0
 77
     1
 78
     8
140
28.0
147
8.0
172
     1
173
     1
174
     1
175
     1
176
     2
177
     2
271
     2
178
     7
271
     2
340
1D3
  0
DIMSTYLE
105
238
102
{ACAD_REACTORS
330
239
102
}
330
A
100
AcDbSymbolTableRecord
100
AcDbDimStyleTableRecord
  2
ME10_DIM_16
 70
     0
 41
28.0
 42
0.0
 44
8.0
 73
     0
 74
     0
 77
     1
 78
     8
140
28.0
147
8.0
172
     1
173
     1
174
     1
175
     1
176
     2
177
     2
271
     2
178
     7
271
     2
340
1D3
  0
DIMSTYLE
105
243
102
{ACAD_REACTORS
330
244
102
}
330
A
100
AcDbSymbolTableRecord
100
AcDbDimStyleTableRecord
  2
ME10_DIM_17
 70
     0
 41
28.0
 42
0.0
 44
8.0
 73
     0
 74
     0
 77
     1
 78
     8
140
28.0
147
8.0
172
     1
173
     1
174
     1
175
     1
176
     2
177
     2
271
     2
178
     7
271
     2
340
1D3
  0
ENDTAB
  0
TABLE
  2
BLOCK_RECORD
  5
1
330
0
100
AcDbSymbolTable
 70
    12
  0
BLOCK_RECORD
  5
1F
330
1
100
AcDbSymbolTableRecord
100
AcDbBlockTableRecord
  2
*Model_Space
340
22
  0
BLOCK_RECORD
  5
1B
330
1
100
AcDbSymbolTableRecord
100
AcDbBlockTableRecord
  2
*Paper_Space
340
1E
  0
BLOCK_RECORD
  5
23
330
1
100
AcDbSymbolTableRecord
100
AcDbBlockTableRecord
  2
*Paper_Space0
340
26
  0
BLOCK_RECORD
  5
48
330
1
100
AcDbSymbolTableRecord
100
AcDbBlockTableRecord
  2
開示A4
340
0
102
{BLKREFS
331
4E
102
}
  0
BLOCK_RECORD
  5
4B
330
1
100
AcDbSymbolTableRecord
100
AcDbBlockTableRecord
  2
SL817433-W-104
340
0
102
{BLKREFS
331
4F
102
}
  0
BLOCK_RECORD
  5
1EB
330
1
100
AcDbSymbolTableRecord
100
AcDbBlockTableRecord
  2
*D3
340
0
  0
BLOCK_RECORD
  5
1F6
330
1
100
AcDbSymbolTableRecord
100
AcDbBlockTableRecord
  2
*D4
340
0
  0
BLOCK_RECORD
  5
201
330
1
100
AcDbSymbolTableRecord
100
AcDbBlockTableRecord
  2
*D5
340
0
  0
BLOCK_RECORD
  5
20E
330
1
100
AcDbSymbolTableRecord
100
AcDbBlockTableRecord
  2
*D6
340
0
  0
BLOCK_RECORD
  5
219
330
1
100
AcDbSymbolTableRecord
100
AcDbBlockTableRecord
  2
*D7
340
0
  0
BLOCK_RECORD
  5
224
330
1
100
AcDbSymbolTableRecord
100
AcDbBlockTableRecord
  2
*D8
340
0
  0
BLOCK_RECORD
  5
22F
330
1
100
AcDbSymbolTableRecord
100
AcDbBlockTableRecord
  2
*D9
340
0
  0
BLOCK_RECORD
  5
23A
330
1
100
AcDbSymbolTableRecord
100
AcDbBlockTableRecord
  2
*D10
340
0
  0
BLOCK_RECORD
  5
245
330
1
100
AcDbSymbolTableRecord
100
AcDbBlockTableRecord
  2
*D11
340
0
102
{BLKREFS
331
24C
102
}
  0
ENDTAB
  0
ENDSEC
  0
SECTION
  2
BLOCKS
  0
BLOCK
  5
20
330
1F
100
AcDbEntity
  8
0
100
AcDbBlockBegin
  2
*Model_Space
 70
     0
 10
0.0
 20
0.0
 30
0.0
  3
*Model_Space
  1

  0
ENDBLK
  5
21
330
1F
100
AcDbEntity
  8
0
100
AcDbBlockEnd
  0
BLOCK
  5
1C
330
1B
100
AcDbEntity
 67
     1
  8
0
100
AcDbBlockBegin
  2
*Paper_Space
 70
     0
 10
0.0
 20
0.0
 30
0.0
  3
*Paper_Space
  1

  0
ENDBLK
  5
1D
330
1B
100
AcDbEntity
 67
     1
  8
0
100
AcDbBlockEnd
  0
BLOCK
  5
24
330
23
100
AcDbEntity
  8
0
100
AcDbBlockBegin
  2
*Paper_Space0
 70
     0
 10
0.0
 20
0.0
 30
0.0
  3
*Paper_Space0
  1

  0
ENDBLK
  5
25
330
23
100
AcDbEntity
  8
0
100
AcDbBlockEnd
  0
BLOCK
  5
49
330
48
100
AcDbEntity
  8
0
100
AcDbBlockBegin
  2
開示A4
 70
     0
 10
0.0
 20
0.0
 30
0.0
  3
開示A4
  1

  0
POINT
  5
50
330
48
100
AcDbEntity
  8
1
 62
     4
100
AcDbPoint
 10
93.75
 20
17.0
 30
0.0
  0
POINT
  5
51
330
48
100
AcDbEntity
  8
1
 62
     4
100
AcDbPoint
 10
85.25
 20
17.0
 30
0.0
  0
POINT
  5
52
330
48
100
AcDbEntity
  8
1
 62
     4
100
AcDbPoint
 10
106.5
 20
19.00000000000001
 30
0.0
  0
POINT
  5
53
330
48
100
AcDbEntity
  8
1
 62
     4
100
AcDbPoint
 10
106.5
 20
12.5
 30
0.0
  0
POINT
  5
54
330
48
100
AcDbEntity
  8
1
 62
     4
100
AcDbPoint
 10
112.25
 20
12.5
 30
0.0
  0
POINT
  5
55
330
48
100
AcDbEntity
  8
1
 62
     4
100
AcDbPoint
 10
100.75
 20
12.5
 30
0.0
  0
POINT
  5
56
330
48
100
AcDbEntity
  8
1
 62
     4
100
AcDbPoint
 10
123.5
 20
19.00000000000001
 30
0.0
  0
POINT
  5
57
330
48
100
AcDbEntity
  8
1
 62
     4
100
AcDbPoint
 10
123.5
 20
12.5
 30
0.0
  0
POINT
  5
58
330
48
100
AcDbEntity
  8
1
 62
     4
100
AcDbPoint
 10
129.25
 20
12.5
 30
0.0
  0
POINT
  5
59
330
48
100
AcDbEntity
  8
1
 62
     4
100
AcDbPoint
 10
117.75
 20
12.5
 30
0.0
  0
POINT
  5
5A
330
48
100
AcDbEntity
  8
1
 62
     4
100
AcDbPoint
 10
140.5
 20
19.00000000000001
 30
0.0
  0
POINT
  5
5B
330
48
100
AcDbEntity
  8
1
 62
     4
100
AcDbPoint
 10
140.5
 20
12.5
 30
0.0
  0
POINT
  5
5C
330
48
100
AcDbEntity
  8
1
 62
     4
100
AcDbPoint
 10
146.25
 20
12.5
 30
0.0
  0
POINT
  5
5D
330
48
100
AcDbEntity
  8
1
 62
     4
100
AcDbPoint
 10
134.75
 20
12.5
 30
0.0
  0
POINT
  5
5E
330
48
100
AcDbEntity
  8
1
 62
     4
100
AcDbPoint
 10
151.75
 20
12.5
 30
0.0
  0
POINT
  5
5F
330
48
100
AcDbEntity
  8
1
 62
     4
100
AcDbPoint
 10
163.25
 20
12.5
 30
0.0
  0
POINT
  5
60
330
48
100
AcDbEntity
  8
1
 62
     4
100
AcDbPoint
 10
157.5
 20
12.5
 30
0.0
  0
POINT
  5
61
330
48
100
AcDbEntity
  8
1
 62
     4
100
AcDbPoint
 10
57.0
 20
14.25
 30
0.0
  0
POINT
  5
62
330
48
100
AcDbEntity
  8
1
 62
     4
100
AcDbPoint
 10
57.0
 20
22.75000000000001
 30
0.0
  0
POINT
  5
63
330
48
100
AcDbEntity
  8
1
 62
     4
100
AcDbPoint
 10
47.5
 20
282.0000000000003
 30
0.0
  0
POINT
  5
64
330
48
100
AcDbEntity
  8
1
 62
     4
100
AcDbPoint
 10
157.5
 20
19.00000000000001
 30
0.0
  0
POINT
  5
65
330
48
100
AcDbEntity
  8
1
 62
     4
100
AcDbPoint
 10
57.0
 20
16.25
 30
0.0
  0
POINT
  5
66
330
48
100
AcDbEntity
  8
1
 62
     4
100
AcDbPoint
 10
57.0
 20
24.75000000000001
 30
0.0
  0
POINT
  5
67
330
48
100
AcDbEntity
  8
1
 62
     4
100
AcDbPoint
 10
57.0
 20
20.75000000000001
 30
0.0
  0
POINT
  5
68
330
48
100
AcDbEntity
  8
1
 62
     4
100
AcDbPoint
 10
57.0
 20
12.25
 30
0.0
  0
POINT
  5
69
330
48
100
AcDbEntity
  8
1
 62
     4
100
AcDbPoint
 10
34.0
 20
34.00000000000001
 30
0.0
  0
LINE
  5
6A
330
48
100
AcDbEntity
  8
1
  6
Continuous
 62
     7
100
AcDbLine
 10
105.0
 20
10.0
 30
0.0
 11
200.0
 21
10.0
 31
0.0
  0
LINE
  5
6B
330
48
100
AcDbEntity
  8
1
  6
Continuous
 62
     2
100
AcDbLine
 10
105.0
 20
10.0
 30
0.0
 11
105.0
 21
5.0
 31
0.0
  0
LINE
  5
6C
330
48
100
AcDbEntity
  8
1
  6
Continuous
 62
     7
100
AcDbLine
 10
200.0
 20
148.5
 30
0.0
 11
200.0
 21
287.0000000000003
 31
0.0
  0
LINE
  5
6D
330
48
100
AcDbEntity
  8
1
  6
Continuous
 62
     2
100
AcDbLine
 10
200.0
 20
148.5
 30
0.0
 11
205.0
 21
148.5
 31
0.0
  0
LINE
  5
6E
330
48
100
AcDbEntity
  8
1
  6
Continuous
 62
     7
100
AcDbLine
 10
25.0
 20
148.5
 30
0.0
 11
25.0
 21
287.0000000000003
 31
0.0
  0
LINE
  5
6F
330
48
100
AcDbEntity
  8
1
  6
Continuous
 62
     2
100
AcDbLine
 10
25.0
 20
148.5
 30
0.0
 11
20.0
 21
148.5
 31
0.0
  0
LINE
  5
70
330
48
100
AcDbEntity
  8
1
  6
Continuous
 62
     7
100
AcDbLine
 10
105.0
 20
287.0000000000003
 30
0.0
 11
25.0
 21
287.0000000000003
 31
0.0
  0
LINE
  5
71
330
48
100
AcDbEntity
  8
1
  6
Continuous
 62
     2
100
AcDbLine
 10
105.0
 20
287.0000000000003
 30
0.0
 11
105.0
 21
292.0000000000003
 31
0.0
  0
LINE
  5
72
330
48
100
AcDbEntity
  8
1
  6
Continuous
 62
     2
100
AcDbLine
 10
166.0
 20
20.00000000000001
 30
0.0
 11
200.0
 21
20.00000000000001
 31
0.0
  0
LINE
  5
73
330
48
100
AcDbEntity
  8
1
  6
Continuous
 62
     2
100
AcDbLine
 10
98.0
 20
27.00000000000001
 30
0.0
 11
98.0
 21
9.99999999999999
 31
0.0
  0
LINE
  5
74
330
48
100
AcDbEntity
  8
1
  6
Continuous
 62
     2
100
AcDbLine
 10
115.0
 20
27.00000000000001
 30
0.0
 11
115.0
 21
9.99999999999999
 31
0.0
  0
LINE
  5
75
330
48
100
AcDbEntity
  8
1
  6
Continuous
 62
     2
100
AcDbLine
 10
149.0
 20
27.00000000000001
 30
0.0
 11
149.0
 21
10.0
 31
0.0
  0
LINE
  5
76
330
48
100
AcDbEntity
  8
1
  6
Continuous
 62
     2
100
AcDbLine
 10
132.0
 20
27.00000000000001
 30
0.0
 11
132.0
 21
9.99999999999999
 31
0.0
  0
LINE
  5
77
330
48
100
AcDbEntity
  8
1
  6
Continuous
 62
     2
100
AcDbLine
 10
166.0
 20
27.00000000000001
 30
0.0
 11
166.0
 21
10.0
 31
0.0
  0
LINE
  5
78
330
48
100
AcDbEntity
  8
1
  6
Continuous
 62
     2
100
AcDbLine
 10
55.0
 20
277.0000000000003
 30
0.0
 11
25.0
 21
277.0000000000003
 31
0.0
  0
LINE
  5
79
330
48
100
AcDbEntity
  8
1
  6
Continuous
 62
     7
100
AcDbLine
 10
25.0
 20
10.0
 30
0.0
 11
25.0
 21
148.5
 31
0.0
  0
LINE
  5
7A
330
48
100
AcDbEntity
  8
1
  6
Continuous
 62
     2
100
AcDbLine
 10
40.0
 20
287.0000000000003
 30
0.0
 11
40.0
 21
277.0000000000003
 31
0.0
  0
LINE
  5
7B
330
48
100
AcDbEntity
  8
1
  6
Continuous
 62
     2
100
AcDbLine
 10
55.0
 20
287.0000000000003
 30
0.0
 11
55.0
 21
277.0000000000003
 31
0.0
  0
LINE
  5
7C
330
48
100
AcDbEntity
  8
1
  6
Continuous
 62
     2
100
AcDbLine
 10
33.0
 20
41.00000000000001
 30
0.0
 11
33.0
 21
27.0
 31
0.0
  0
LINE
  5
7D
330
48
100
AcDbEntity
  8
1
  6
Continuous
 62
     7
100
AcDbLine
 10
200.0
 20
27.00000000000001
 30
0.0
 11
25.0
 21
27.00000000000001
 31
0.0
  0
LINE
  5
7E
330
48
100
AcDbEntity
  8
1
  6
Continuous
 62
     7
100
AcDbLine
 10
25.0
 20
41.0
 30
0.0
 11
200.0
 21
41.0
 31
0.0
  0
LINE
  5
7F
330
48
100
AcDbEntity
  8
1
  6
PHANTOM
 62
     4
100
AcDbLine
 10
0.0
 20
0.0
 30
0.0
 11
210.0
 21
0.0
 31
0.0
  0
LINE
  5
80
330
48
100
AcDbEntity
  8
1
  6
PHANTOM
 62
     4
100
AcDbLine
 10
210.0
 20
0.0
 30
0.0
 11
210.0
 21
297.0
 31
0.0
  0
LINE
  5
81
330
48
100
AcDbEntity
  8
1
  6
PHANTOM
 62
     4
100
AcDbLine
 10
210.0
 20
297.0
 30
0.0
 11
0.0
 21
297.0
 31
0.0
  0
LINE
  5
82
330
48
100
AcDbEntity
  8
1
  6
PHANTOM
 62
     4
100
AcDbLine
 10
0.0
 20
297.0
 30
0.0
 11
0.0
 21
0.0
 31
0.0
  0
LINE
  5
83
330
48
100
AcDbEntity
  8
1
  6
Continuous
 62
     7
100
AcDbLine
 10
25.0
 20
10.0
 30
0.0
 11
105.0
 21
10.0
 31
0.0
  0
LINE
  5
84
330
48
100
AcDbEntity
  8
1
  6
Continuous
 62
     7
100
AcDbLine
 10
200.0
 20
10.0
 30
0.0
 11
200.0
 21
148.5
 31
0.0
  0
LINE
  5
85
330
48
100
AcDbEntity
  8
1
  6
Continuous
 62
     7
100
AcDbLine
 10
200.0
 20
287.0000000000003
 30
0.0
 11
105.0
 21
287.0000000000003
 31
0.0
  0
LINE
  5
86
330
48
100
AcDbEntity
  8
1
  6
Continuous
 62
     2
100
AcDbLine
 10
25.0
 20
18.50000000000001
 30
0.0
 11
81.0
 21
18.50000000000001
 31
0.0
  0
LINE
  5
87
330
48
100
AcDbEntity
  8
1
  6
Continuous
 62
     2
100
AcDbLine
 10
33.0
 20
27.0
 30
0.0
 11
33.0
 21
10.0
 31
0.0
  0
LINE
  5
88
330
48
100
AcDbEntity
  8
1
  6
Continuous
 62
     7
100
AcDbLine
 10
191.0
 20
24.70000000000001
 30
0.0
 11
191.0
 21
22.30000000000001
 31
0.0
  0
LINE
  5
89
330
48
100
AcDbEntity
  8
1
  6
Continuous
 62
     7
100
AcDbLine
 10
191.0
 20
24.70000000000001
 30
0.0
 11
196.0
 21
25.50000000000001
 31
0.0
  0
LINE
  5
8A
330
48
100
AcDbEntity
  8
1
  6
Continuous
 62
     7
100
AcDbLine
 10
196.0
 20
25.50000000000001
 30
0.0
 11
196.0
 21
21.50000000000001
 31
0.0
  0
LINE
  5
8B
330
48
100
AcDbEntity
  8
1
  6
Continuous
 62
     7
100
AcDbLine
 10
196.0
 20
21.50000000000001
 30
0.0
 11
191.0
 21
22.30000000000001
 31
0.0
  0
LINE
  5
8C
330
48
100
AcDbEntity
  8
1
  6
DOT_CENTER
 62
     2
100
AcDbLine
 10
184.0
 20
23.50000000000001
 30
0.0
 11
197.0
 21
23.50000000000001
 31
0.0
  0
LINE
  5
8D
330
48
100
AcDbEntity
  8
1
  6
DOT_CENTER
 62
     2
100
AcDbLine
 10
187.0
 20
26.50000000000001
 30
0.0
 11
187.0
 21
20.50000000000001
 31
0.0
  0
LINE
  5
8E
330
48
100
AcDbEntity
  8
1
  6
Continuous
 62
     2
100
AcDbLine
 10
81.0
 20
27.00000000000001
 30
0.0
 11
81.0
 21
10.0
 31
0.0
  0
CIRCLE
  5
8F
330
48
100
AcDbEntity
  8
1
  6
Continuous
 62
     7
100
AcDbCircle
 10
103.5
 20
12.5
 30
0.0
 40
0.2999999999999972
  0
CIRCLE
  5
90
330
48
100
AcDbEntity
  8
1
  6
Continuous
 62
     7
100
AcDbCircle
 10
109.5
 20
12.5
 30
0.0
 40
0.2999999999999972
  0
CIRCLE
  5
91
330
48
100
AcDbEntity
  8
1
  6
Continuous
 62
     7
100
AcDbCircle
 10
120.5
 20
12.5
 30
0.0
 40
0.2999999999999972
  0
CIRCLE
  5
92
330
48
100
AcDbEntity
  8
1
  6
Continuous
 62
     7
100
AcDbCircle
 10
126.5
 20
12.5
 30
0.0
 40
0.2999999999999972
  0
CIRCLE
  5
93
330
48
100
AcDbEntity
  8
1
  6
Continuous
 62
     7
100
AcDbCircle
 10
137.5
 20
12.5
 30
0.0
 40
0.3000000000000114
  0
CIRCLE
  5
94
330
48
100
AcDbEntity
  8
1
  6
Continuous
 62
     7
100
AcDbCircle
 10
143.5
 20
12.5
 30
0.0
 40
0.3000000000000114
  0
CIRCLE
  5
95
330
48
100
AcDbEntity
  8
1
  6
Continuous
 62
     7
100
AcDbCircle
 10
160.5
 20
12.5
 30
0.0
 40
0.3000000000000114
  0
CIRCLE
  5
96
330
48
100
AcDbEntity
  8
1
  6
Continuous
 62
     7
100
AcDbCircle
 10
154.5
 20
12.5
 30
0.0
 40
0.3000000000000114
  0
CIRCLE
  5
97
330
48
100
AcDbEntity
  8
1
  6
Continuous
 62
     7
100
AcDbCircle
 10
187.0
 20
23.50000000000001
 30
0.0
 40
1.200000000000102
  0
CIRCLE
  5
98
330
48
100
AcDbEntity
  8
1
  6
Continuous
 62
     7
100
AcDbCircle
 10
187.0
 20
23.50000000000001
 30
0.0
 40
2.0
  0
CIRCLE
  5
99
330
48
100
AcDbEntity
  8
1
  6
DOT_CENTER
 62
     7
100
AcDbCircle
 10
89.5
 20
16.0
 30
0.0
 40
0.1000000000000227
  0
CIRCLE
  5
9A
330
48
100
AcDbEntity
  8
1
  6
DOT_CENTER
 62
     7
100
AcDbCircle
 10
89.5
 20
18.0
 30
0.0
 40
0.1000000000000227
  0
MTEXT
  5
9C
330
48
100
AcDbEntity
  8
1
 62
     7
100
AcDbMText
 10
188.5
 20
15.0
 30
0.0
 40
3.0
 41
0.0
 71
     5
 72
     1
  1
三栄水栓製作所
  7
CONVERTER_11
 73
     1
 44
1.0
  0
MTEXT
  5
9D
330
48
100
AcDbEntity
  8
1
 62
     7
100
AcDbMText
 10
171.5
 20
15.0
 30
0.0
 40
2.5
 41
0.0
 71
     5
 72
     1
  1
株式会社
  7
CONVERTER_11
 73
     1
 44
1.0
  0
MTEXT
  5
9E
330
48
100
AcDbEntity
  8
1
 62
     2
100
AcDbMText
 10
32.5
 20
282.0000000000003
 30
0.0
 40
5.0
 41
0.0
 71
     5
 72
     1
  1
図番
  7
CONVERTER_11
 73
     1
 44
0.45454545454545
  0
MTEXT
  5
9F
330
48
100
AcDbEntity
  8
1
 62
     2
100
AcDbMText
 10
29.0
 20
34.00000000000001
 30
0.0
 40
3.5
 41
0.0
 71
     5
 72
     1
  1
備考
  7
CONVERTER_11
 73
     1
 44
0.45454545454545
  0
MTEXT
  5
A0
330
48
100
AcDbEntity
  8
1
 62
     2
100
AcDbMText
 10
29.0
 20
22.75
 30
0.0
 40
3.5
 41
0.0
 71
     5
 72
     1
  1
品名
  7
CONVERTER_11
 73
     1
 44
0.72727272727273
  0
MTEXT
  5
A1
330
48
100
AcDbEntity
  8
1
 62
     2
100
AcDbMText
 10
29.0
 20
14.25
 30
0.0
 40
3.5
 41
0.0
 71
     5
 72
     1
  1
品番
  7
CONVERTER_11
 73
     1
 44
0.72727272727273
  0
MTEXT
  5
A2
330
48
100
AcDbEntity
  8
1
 62
     2
100
AcDbMText
 10
101.5
 20
25.00000000000001
 30
0.0
 40
3.0
 41
0.0
 71
     5
 72
     1
  1
承認
  7
CONVERTER_11
 73
     1
 44
0.59090909090909
  0
MTEXT
  5
A3
330
48
100
AcDbEntity
  8
1
 62
     2
100
AcDbMText
 10
175.0
 20
23.50000000000001
 30
0.0
 40
3.5
 41
0.0
 71
     5
 72
     1
  1
第三角法
  7
CONVERTER_11
 73
     1
 44
0.54545454545455
  0
MTEXT
  5
A4
330
48
100
AcDbEntity
  8
1
 62
     2
100
AcDbMText
 10
118.5
 20
25.00000000000001
 30
0.0
 40
3.0
 41
0.0
 71
     5
 72
     1
  1
検図
  7
CONVERTER_11
 73
     1
 44
0.59090909090909
  0
MTEXT
  5
A5
330
48
100
AcDbEntity
  8
1
 62
     2
100
AcDbMText
 10
152.5
 20
25.00000000000001
 30
0.0
 40
3.0
 41
0.0
 71
     5
 72
     1
  1
設計
  7
CONVERTER_11
 73
     1
 44
0.59090909090909
  0
MTEXT
  5
A6
330
48
100
AcDbEntity
  8
1
 62
     2
100
AcDbMText
 10
135.5
 20
25.00000000000001
 30
0.0
 40
3.0
 41
0.0
 71
     5
 72
     1
  1
製図
  7
CONVERTER_11
 73
     1
 44
0.59090909090909
  0
MTEXT
  5
A7
330
48
100
AcDbEntity
  8
1
 62
     2
100
AcDbMText
 10
89.5
 20
24.00000000000001
 30
0.0
 40
3.5
 41
0.0
 71
     5
 72
     1
  1
尺度
  7
CONVERTER_11
 73
     1
 44
0.54545454545455
  0
MTEXT
  5
A8
330
48
100
AcDbEntity
  8
1
 62
   250
100
AcDbMText
 10
25.0
 20
5.0
 30
0.0
 40
3.5
 41
0.0
 71
     4
 72
     1
  1
備考欄の文字列 原点位置=4
  7
CONVERTER_11
 73
     1
 44
0.54545454545455
  0
ENDBLK
  5
4A
330
48
100
AcDbEntity
  8
0
100
AcDbBlockEnd
  0
BLOCK
  5
4C
330
4B
100
AcDbEntity
  8
0
100
AcDbBlockBegin
  2
SL817433-W-104
 70
     0
 10
1630.0
 20
0.0
 30
0.0
  3
SL817433-W-104
  1

  0
LINE
  5
A9
330
4B
100
AcDbEntity
  8
SL817433-W-104
  6
Continuous
 62
     7
100
AcDbLine
 10
265.3883687995416
 20
755.360848487348
 30
0.0
 11
852.8967796563061
 21
755.360848487348
 31
0.0
  0
LINE
  5
AA
330
4B
100
AcDbEntity
  8
SL817433-W-104
  6
Continuous
 62
     7
100
AcDbLine
 10
523.6968224581528
 20
755.360848487348
 30
0.0
 11
524.332203678232
 21
743.20739116493
 31
0.0
  0
LINE
  5
AB
330
4B
100
AcDbEntity
  8
SL817433-W-104
  6
Continuous
 62
     7
100
AcDbLine
 10
527.3281122853609
 20
740.364016890127
 30
0.0
 11
590.9565944247588
 21
740.364016890127
 31
0.0
  0
LINE
  5
AC
330
4B
100
AcDbEntity
  8
SL817433-W-104
  6
Continuous
 62
     7
100
AcDbLine
 10
593.9525642018289
 20
743.208565628089
 30
0.0
 11
594.583107180375
 21
755.360848487348
 31
0.0
  0
LINE
  5
AD
330
4B
100
AcDbEntity
  8
SL817433-W-104
  6
Continuous
 62
     7
100
AcDbLine
 10
1036.49772008531
 20
755.360848487349
 30
0.0
 11
1485.26699280092
 21
755.360848487349
 31
0.0
  0
LINE
  5
AE
330
4B
100
AcDbEntity
  8
SL817433-W-104
  6
Continuous
 62
     7
100
AcDbLine
 10
1491.49789369642
 20
888.302949181793
 30
0.0
 11
1490.99999127129
 21
891.012258399458
 31
0.0
  0
LINE
  5
AF
330
4B
100
AcDbEntity
  8
SL817433-W-104
  6
Continuous
 62
     7
100
AcDbLine
 10
1490.99999127129
 20
891.012258399458
 30
0.0
 11
1489.55279278496
 21
893.242527089779
 31
0.0
  0
LINE
  5
B0
330
4B
100
AcDbEntity
  8
SL817433-W-104
  6
Continuous
 62
     7
100
AcDbLine
 10
1489.55279278496
 20
893.242527089779
 30
0.0
 11
1487.37488954603
 21
894.766895714996
 31
0.0
  0
LINE
  5
B1
330
4B
100
AcDbEntity
  8
SL817433-W-104
  6
Continuous
 62
     7
100
AcDbLine
 10
1487.37488954603
 20
894.766895714996
 30
0.0
 11
1484.68487286309
 21
895.358504737349
 31
0.0
  0
LINE
  5
B2
330
4B
100
AcDbEntity
  8
SL817433-W-104
  6
Continuous
 62
     7
100
AcDbLine
 10
1484.68487286309
 20
895.358504737349
 30
0.0
 11
1031.49772008531
 21
895.358504737349
 31
0.0
  0
LINE
  5
B3
330
4B
100
AcDbEntity
  8
SL817433-W-104
  6
Continuous
 62
     7
100
AcDbLine
 10
1031.49772008531
 20
895.358504737349
 30
0.0
 11
1031.49772008531
 21
760.360848487349
 31
0.0
  0
LINE
  5
B4
330
4B
100
AcDbEntity
  8
SL817433-W-104
  6
Continuous
 62
     7
100
AcDbLine
 10
1141.63053258531
 20
755.360848487349
 30
0.0
 11
1143.96065668319
 21
754.255826268327
 31
0.0
  0
LINE
  5
B5
330
4B
100
AcDbEntity
  8
SL817433-W-104
  6
Continuous
 62
     7
100
AcDbLine
 10
1223.56662411896
 20
740.358504737349
 30
0.0
 11
1285.30472990871
 21
740.358504737349
 31
0.0
  0
LINE
  5
B6
330
4B
100
AcDbEntity
  8
SL817433-W-104
  6
Continuous
 62
     7
100
AcDbLine
 10
1289.29927471817
 20
744.149670437149
 30
0.0
 11
1289.88539369642
 21
755.360848487349
 31
0.0
  0
LINE
  5
B7
330
4B
100
AcDbEntity
  8
SL817433-W-104
  6
Continuous
 62
     7
100
AcDbLine
 10
856.8961933414539
 20
759.292363634682
 30
0.0
 11
859.0868170537642
 21
887.221535032033
 31
0.0
  0
LINE
  5
B8
330
4B
100
AcDbEntity
  8
SL817433-W-104
  6
Continuous
 62
     7
100
AcDbLine
 10
851.0879896834567
 20
895.358504737349
 30
0.0
 11
267.1591493234041
 21
895.358504737349
 31
0.0
  0
LINE
  5
B9
330
4B
100
AcDbEntity
  8
SL817433-W-104
  6
Continuous
 62
     7
100
AcDbLine
 10
1489.26639456753
 20
759.291671112398
 30
0.0
 11
1491.49789369642
 21
888.302949181793
 31
0.0
  0
LINE
  5
BA
330
4B
100
AcDbEntity
  8
SL817433-W-104
  6
Continuous
 62
     7
100
AcDbLine
 10
1219.93496929819
 20
742.681876196856
 30
0.0
 11
1219.91788359263
 21
742.718884624693
 31
0.0
  0
LINE
  5
BB
330
4B
100
AcDbEntity
  8
SL817433-W-104
  6
Continuous
 62
     7
100
AcDbLine
 10
261.3834971574229
 20
759.291343090114
 30
0.0
 11
259.1603570343921
 21
887.219501438089
 31
0.0
  0
LINE
  5
BC
330
4B
100
AcDbEntity
  8
SL817433-W-104
  6
Continuous
 62
     7
100
AcDbLine
 10
1221.34705129979
 20
746.777446997432
 30
0.0
 11
1154.7231504853
 21
751.435248875609
 31
0.0
  0
LINE
  5
BD
330
4B
100
AcDbEntity
  8
SL817433-W-104
  6
Continuous
 62
     7
100
AcDbLine
 10
852.8781313716331
 20
1858.21799016028
 30
0.0
 11
265.2747727730471
 21
1858.21799016028
 31
0.0
  0
LINE
  5
BE
330
4B
100
AcDbEntity
  8
SL817433-W-104
  6
Continuous
 62
     7
100
AcDbLine
 10
823.6272153811501
 20
1738.69246932695
 30
0.0
 11
294.6306656425941
 21
1738.69246932695
 31
0.0
  0
LINE
  5
BF
330
4B
100
AcDbEntity
  8
SL817433-W-104
  6
Continuous
 62
     7
100
AcDbLine
 10
831.632044015425
 20
1457.86164856702
 30
0.0
 11
831.6272153798973
 21
1730.69261091203
 31
0.0
  0
LINE
  5
C0
330
4B
100
AcDbEntity
  8
SL817433-W-104
  6
Continuous
 62
     7
100
AcDbLine
 10
286.6258370083181
 20
1457.86164855957
 30
0.0
 11
286.6306656438469
 21
1730.69261091575
 31
0.0
  0
LINE
  5
C1
330
4B
100
AcDbEntity
  8
SL817433-W-104
  6
Continuous
 62
     7
100
AcDbLine
 10
294.625837007065
 20
1449.86150697824
 30
0.0
 11
294.628940511757
 21
1449.86150697824
 31
0.0
  0
LINE
  5
C2
330
4B
100
AcDbEntity
  8
SL817433-W-104
  6
Continuous
 62
     7
100
AcDbLine
 10
823.6320440166783
 20
1449.86150697824
 30
0.0
 11
823.6289405118719
 21
1449.86150697824
 31
0.0
  0
LINE
  5
C3
330
4B
100
AcDbEntity
  8
SL817433-W-104
  6
Continuous
 62
     7
100
AcDbLine
 10
858.8781313716331
 20
1852.21799016028
 30
0.0
 11
858.8781313716331
 21
1406.31816827974
 31
0.0
  0
LINE
  5
C4
330
4B
100
AcDbEntity
  8
SL817433-W-104
  6
Continuous
 62
     7
100
AcDbLine
 10
259.2747727736589
 20
1406.31816827852
 30
0.0
 11
259.2747727730471
 21
1852.21799016028
 31
0.0
  0
LINE
  5
C5
330
4B
100
AcDbEntity
  8
1
  6
DASH_CENTER
 62
     2
100
AcDbLine
 10
521.1289405137081
 20
1798.21799016028
 30
0.0
 11
597.1289405137081
 21
1798.21799016028
 31
0.0
  0
LINE
  5
C6
330
4B
100
AcDbEntity
  8
SL817433-W-104
  6
DASHED
 62
     7
100
AcDbLine
 10
424.2300255831528
 20
855.356812029015
 30
0.0
 11
424.1436785669571
 21
855.356812029015
 31
0.0
  0
LINE
  5
C7
330
4B
100
AcDbEntity
  8
SL817433-W-104
  6
DASHED
 62
     7
100
AcDbLine
 10
424.1436785669571
 20
855.356812029015
 30
0.0
 11
423.8977062559579
 21
855.356812029015
 31
0.0
  0
LINE
  5
C8
330
4B
100
AcDbEntity
  8
SL817433-W-104
  6
DASHED
 62
     7
100
AcDbLine
 10
423.8977062559579
 20
855.356812029015
 30
0.0
 11
423.5117117565319
 21
855.356812029015
 31
0.0
  0
LINE
  5
C9
330
4B
100
AcDbEntity
  8
SL817433-W-104
  6
DASHED
 62
     7
100
AcDbLine
 10
423.5117117565319
 20
855.356812029015
 30
0.0
 11
423.0052981750619
 21
855.356812029015
 31
0.0
  0
LINE
  5
CA
330
4B
100
AcDbEntity
  8
SL817433-W-104
  6
DASHED
 62
     7
100
AcDbLine
 10
423.0052981750619
 20
855.356812029015
 30
0.0
 11
422.3980686179248
 21
855.356812029015
 31
0.0
  0
LINE
  5
CB
330
4B
100
AcDbEntity
  8
SL817433-W-104
  6
DASHED
 62
     7
100
AcDbLine
 10
422.3980686179248
 20
855.356812029015
 30
0.0
 11
421.7096261915021
 21
855.356812029015
 31
0.0
  0
LINE
  5
CC
330
4B
100
AcDbEntity
  8
SL817433-W-104
  6
DASHED
 62
     7
100
AcDbLine
 10
421.7096261915021
 20
855.356812029015
 30
0.0
 11
420.167515156314
 21
855.356812029015
 31
0.0
  0
LINE
  5
CD
330
4B
100
AcDbEntity
  8
SL817433-W-104
  6
DASHED
 62
     7
100
AcDbLine
 10
420.167515156314
 20
855.356812029015
 30
0.0
 11
418.5357899205342
 21
855.356812029015
 31
0.0
  0
LINE
  5
CE
330
4B
100
AcDbEntity
  8
SL817433-W-104
  6
DASHED
 62
     7
100
AcDbLine
 10
418.5357899205342
 20
855.356812029015
 30
0.0
 11
416.9712753351969
 21
855.356812029015
 31
0.0
  0
LINE
  5
CF
330
4B
100
AcDbEntity
  8
SL817433-W-104
  6
DASHED
 62
     7
100
AcDbLine
 10
416.9712753351969
 20
855.356812029015
 30
0.0
 11
416.263229802395
 21
855.356812029015
 31
0.0
  0
LINE
  5
D0
330
4B
100
AcDbEntity
  8
SL817433-W-104
  6
DASHED
 62
     7
100
AcDbLine
 10
416.263229802395
 20
855.356812029015
 30
0.0
 11
415.630796251342
 21
855.356812029015
 31
0.0
  0
LINE
  5
D1
330
4B
100
AcDbEntity
  8
SL817433-W-104
  6
DASHED
 62
     7
100
AcDbLine
 10
415.630796251342
 20
855.356812029015
 30
0.0
 11
415.0935777884179
 21
855.356812029015
 31
0.0
  0
LINE
  5
D2
330
4B
100
AcDbEntity
  8
SL817433-W-104
  6
DASHED
 62
     7
100
AcDbLine
 10
415.0935777884179
 20
855.356812029015
 30
0.0
 11
414.671177520002
 21
855.356812029015
 31
0.0
  0
LINE
  5
D3
330
4B
100
AcDbEntity
  8
SL817433-W-104
  6
DASHED
 62
     7
100
AcDbLine
 10
414.671177520002
 20
855.356812029015
 30
0.0
 11
414.3831985524739
 21
855.356812029015
 31
0.0
  0
LINE
  5
D4
330
4B
100
AcDbEntity
  8
SL817433-W-104
  6
DASHED
 62
     7
100
AcDbLine
 10
414.3831985524739
 20
855.356812029015
 30
0.0
 11
414.2492439922139
 21
855.356812029015
 31
0.0
  0
LINE
  5
D5
330
4B
100
AcDbEntity
  8
SL817433-W-104
  6
DASHED
 62
     7
100
AcDbLine
 10
414.2492439922139
 20
855.356812029015
 30
0.0
 11
414.2421189048141
 21
855.356812029015
 31
0.0
  0
LINE
  5
D6
330
4B
100
AcDbEntity
  8
SL817433-W-104
  6
DASHED
 62
     7
100
AcDbLine
 10
414.2421189048141
 20
855.356812029015
 30
0.0
 11
414.0482698043702
 21
855.354975799061
 31
0.0
  0
LINE
  5
D7
330
4B
100
AcDbEntity
  8
SL817433-W-104
  6
DASHED
 62
     7
100
AcDbLine
 10
414.0482698043702
 20
855.354975799061
 30
0.0
 11
413.5997805692041
 21
855.336552064632
 31
0.0
  0
LINE
  5
D8
330
4B
100
AcDbEntity
  8
SL817433-W-104
  6
DASHED
 62
     7
100
AcDbLine
 10
413.5997805692041
 20
855.336552064632
 30
0.0
 11
412.7191870904421
 21
855.241757278573
 31
0.0
  0
LINE
  5
D9
330
4B
100
AcDbEntity
  8
SL817433-W-104
  6
DASHED
 62
     7
100
AcDbLine
 10
412.7191870904421
 20
855.241757278573
 30
0.0
 11
411.8632350440439
 21
855.072494179853
 31
0.0
  0
LINE
  5
DA
330
4B
100
AcDbEntity
  8
SL817433-W-104
  6
DASHED
 62
     7
100
AcDbLine
 10
411.8632350440439
 20
855.072494179853
 30
0.0
 11
411.0352781623392
 21
854.832116500799
 31
0.0
  0
LINE
  5
DB
330
4B
100
AcDbEntity
  8
SL817433-W-104
  6
DASHED
 62
     7
100
AcDbLine
 10
411.0352781623392
 20
854.832116500799
 30
0.0
 11
410.2386701776532
 21
854.523977973741
 31
0.0
  0
LINE
  5
DC
330
4B
100
AcDbEntity
  8
SL817433-W-104
  6
DASHED
 62
     7
100
AcDbLine
 10
410.2386701776532
 20
854.523977973741
 30
0.0
 11
409.476764822316
 21
854.151432331004
 31
0.0
  0
LINE
  5
DD
330
4B
100
AcDbEntity
  8
SL817433-W-104
  6
DASHED
 62
     7
100
AcDbLine
 10
409.476764822316
 20
854.151432331004
 30
0.0
 11
408.7529158286538
 21
853.717833304916
 31
0.0
  0
LINE
  5
DE
330
4B
100
AcDbEntity
  8
SL817433-W-104
  6
DASHED
 62
     7
100
AcDbLine
 10
408.7529158286538
 20
853.717833304916
 30
0.0
 11
408.0704769289941
 21
853.226534627806
 31
0.0
  0
LINE
  5
DF
330
4B
100
AcDbEntity
  8
SL817433-W-104
  6
DASHED
 62
     7
100
AcDbLine
 10
408.0704769289941
 20
853.226534627806
 30
0.0
 11
407.4328018556648
 21
852.680890032001
 31
0.0
  0
LINE
  5
E0
330
4B
100
AcDbEntity
  8
SL817433-W-104
  6
DASHED
 62
     7
100
AcDbLine
 10
407.4328018556648
 20
852.680890032001
 30
0.0
 11
406.8432443409938
 21
852.084253249829
 31
0.0
  0
LINE
  5
E1
330
4B
100
AcDbEntity
  8
SL817433-W-104
  6
DASHED
 62
     7
100
AcDbLine
 10
406.8432443409938
 20
852.084253249829
 30
0.0
 11
406.305158117309
 21
851.439978013616
 31
0.0
  0
LINE
  5
E2
330
4B
100
AcDbEntity
  8
SL817433-W-104
  6
DASHED
 62
     7
100
AcDbLine
 10
406.305158117309
 20
851.439978013616
 30
0.0
 11
405.8218969169379
 21
850.751418055691
 31
0.0
  0
LINE
  5
E3
330
4B
100
AcDbEntity
  8
SL817433-W-104
  6
DASHED
 62
     7
100
AcDbLine
 10
405.8218969169379
 20
850.751418055691
 30
0.0
 11
405.3968144722071
 21
850.021927108382
 31
0.0
  0
LINE
  5
E4
330
4B
100
AcDbEntity
  8
SL817433-W-104
  6
DASHED
 62
     7
100
AcDbLine
 10
405.3968144722071
 20
850.021927108382
 30
0.0
 11
405.0332645154449
 21
849.254858904015
 31
0.0
  0
LINE
  5
E5
330
4B
100
AcDbEntity
  8
SL817433-W-104
  6
DASHED
 62
     7
100
AcDbLine
 10
405.0332645154449
 20
849.254858904015
 30
0.0
 11
404.7346007789788
 21
848.45356717492
 31
0.0
  0
LINE
  5
E6
330
4B
100
AcDbEntity
  8
SL817433-W-104
  6
DASHED
 62
     7
100
AcDbLine
 10
404.7346007789788
 20
848.45356717492
 30
0.0
 11
404.5041769951372
 21
847.621405653422
 31
0.0
  0
LINE
  5
E7
330
4B
100
AcDbEntity
  8
SL817433-W-104
  6
DASHED
 62
     7
100
AcDbLine
 10
404.5041769951372
 20
847.621405653422
 30
0.0
 11
404.3453468962462
 21
846.76172807185
 31
0.0
  0
LINE
  5
E8
330
4B
100
AcDbEntity
  8
SL817433-W-104
  6
DASHED
 62
     7
100
AcDbLine
 10
404.3453468962462
 20
846.76172807185
 30
0.0
 11
404.261464214635
 21
845.877888162531
 31
0.0
  0
LINE
  5
E9
330
4B
100
AcDbEntity
  8
SL817433-W-104
  6
DASHED
 62
     7
100
AcDbLine
 10
404.261464214635
 20
845.877888162531
 30
0.0
 11
404.2557946838219
 21
844.976691765849
 31
0.0
  0
LINE
  5
EA
330
4B
100
AcDbEntity
  8
SL817433-W-104
  6
DASHED
 62
     7
100
AcDbLine
 10
404.2557946838219
 20
844.976691765849
 30
0.0
 11
404.3286968174689
 21
844.089500405654
 31
0.0
  0
LINE
  5
EB
330
4B
100
AcDbEntity
  8
SL817433-W-104
  6
DASHED
 62
     7
100
AcDbLine
 10
404.3286968174689
 20
844.089500405654
 30
0.0
 11
404.4770254730138
 21
843.22582535472
 31
0.0
  0
LINE
  5
EC
330
4B
100
AcDbEntity
  8
SL817433-W-104
  6
DASHED
 62
     7
100
AcDbLine
 10
404.4770254730138
 20
843.22582535472
 30
0.0
 11
404.6974269181278
 21
842.389041982357
 31
0.0
  0
LINE
  5
ED
330
4B
100
AcDbEntity
  8
SL817433-W-104
  6
DASHED
 62
     7
100
AcDbLine
 10
404.6974269181278
 20
842.389041982357
 30
0.0
 11
404.9865474204839
 21
841.582525657877
 31
0.0
  0
LINE
  5
EE
330
4B
100
AcDbEntity
  8
SL817433-W-104
  6
DASHED
 62
     7
100
AcDbLine
 10
404.9865474204839
 20
841.582525657877
 30
0.0
 11
405.3410332477542
 21
840.809651750589
 31
0.0
  0
LINE
  5
EF
330
4B
100
AcDbEntity
  8
SL817433-W-104
  6
DASHED
 62
     7
100
AcDbLine
 10
405.3410332477542
 20
840.809651750589
 30
0.0
 11
405.7575306676108
 21
840.073795629804
 31
0.0
  0
LINE
  5
F0
330
4B
100
AcDbEntity
  8
SL817433-W-104
  6
DASHED
 62
     7
100
AcDbLine
 10
405.7575306676108
 20
840.073795629804
 30
0.0
 11
406.232685947728
 21
839.378332664832
 31
0.0
  0
LINE
  5
F1
330
4B
100
AcDbEntity
  8
SL817433-W-104
  6
DASHED
 62
     7
100
AcDbLine
 10
406.232685947728
 20
839.378332664832
 30
0.0
 11
406.763145355776
 21
838.726638224984
 31
0.0
  0
LINE
  5
F2
330
4B
100
AcDbEntity
  8
SL817433-W-104
  6
DASHED
 62
     7
100
AcDbLine
 10
406.763145355776
 20
838.726638224984
 30
0.0
 11
407.3455551594279
 21
838.12208767957
 31
0.0
  0
LINE
  5
F3
330
4B
100
AcDbEntity
  8
SL817433-W-104
  6
DASHED
 62
     7
100
AcDbLine
 10
407.3455551594279
 20
838.12208767957
 30
0.0
 11
407.9765616263571
 21
837.5680563979
 31
0.0
  0
LINE
  5
F4
330
4B
100
AcDbEntity
  8
SL817433-W-104
  6
DASHED
 62
     7
100
AcDbLine
 10
407.9765616263571
 20
837.5680563979
 30
0.0
 11
408.6528110242339
 21
837.067919749284
 31
0.0
  0
LINE
  5
F5
330
4B
100
AcDbEntity
  8
SL817433-W-104
  6
DASHED
 62
     7
100
AcDbLine
 10
408.6528110242339
 20
837.067919749284
 30
0.0
 11
409.3709496207321
 21
836.625053103034
 31
0.0
  0
LINE
  5
F6
330
4B
100
AcDbEntity
  8
SL817433-W-104
  6
DASHED
 62
     7
100
AcDbLine
 10
409.3709496207321
 20
836.625053103034
 30
0.0
 11
410.1276236835238
 21
836.24283182846
 31
0.0
  0
LINE
  5
F7
330
4B
100
AcDbEntity
  8
SL817433-W-104
  6
DASHED
 62
     7
100
AcDbLine
 10
410.1276236835238
 20
836.24283182846
 30
0.0
 11
410.9194794802811
 21
835.924631294871
 31
0.0
  0
LINE
  5
F8
330
4B
100
AcDbEntity
  8
SL817433-W-104
  6
DASHED
 62
     7
100
AcDbLine
 10
410.9194794802811
 20
835.924631294871
 30
0.0
 11
411.743163278677
 21
835.673826871579
 31
0.0
  0
LINE
  5
F9
330
4B
100
AcDbEntity
  8
SL817433-W-104
  6
DASHED
 62
     7
100
AcDbLine
 10
411.743163278677
 20
835.673826871579
 30
0.0
 11
412.595321346384
 21
835.493793927893
 31
0.0
  0
LINE
  5
FA
330
4B
100
AcDbEntity
  8
SL817433-W-104
  6
DASHED
 62
     7
100
AcDbLine
 10
412.595321346384
 20
835.493793927893
 30
0.0
 11
413.4725999510729
 21
835.387907833124
 31
0.0
  0
LINE
  5
FB
330
4B
100
AcDbEntity
  8
SL817433-W-104
  6
DASHED
 62
     7
100
AcDbLine
 10
413.4725999510729
 20
835.387907833124
 30
0.0
 11
413.9196114134352
 21
835.363824656993
 31
0.0
  0
LINE
  5
FC
330
4B
100
AcDbEntity
  8
SL817433-W-104
  6
DASHED
 62
     7
100
AcDbLine
 10
413.9196114134352
 20
835.363824656993
 30
0.0
 11
414.1450267773821
 21
835.35918262725
 31
0.0
  0
LINE
  5
FD
330
4B
100
AcDbEntity
  8
SL817433-W-104
  6
DASHED
 62
     7
100
AcDbLine
 10
414.1450267773821
 20
835.35918262725
 30
0.0
 11
414.2420333071718
 21
835.358721751237
 31
0.0
  0
LINE
  5
FE
330
4B
100
AcDbEntity
  8
SL817433-W-104
  6
DASHED
 62
     7
100
AcDbLine
 10
414.2420333071718
 20
835.358721751237
 30
0.0
 11
414.2438240857368
 21
835.358721751237
 31
0.0
  0
LINE
  5
FF
330
4B
100
AcDbEntity
  8
SL817433-W-104
  6
DASHED
 62
     7
100
AcDbLine
 10
414.2438240857368
 20
835.358721751237
 30
0.0
 11
414.3541749056631
 21
835.358721751237
 31
0.0
  0
LINE
  5
100
330
4B
100
AcDbEntity
  8
SL817433-W-104
  6
DASHED
 62
     7
100
AcDbLine
 10
414.3541749056631
 20
835.358721751237
 30
0.0
 11
414.6213505766241
 21
835.358721751237
 31
0.0
  0
LINE
  5
101
330
4B
100
AcDbEntity
  8
SL817433-W-104
  6
DASHED
 62
     7
100
AcDbLine
 10
414.6213505766241
 20
835.358721751237
 30
0.0
 11
415.025747992242
 21
835.358721751237
 31
0.0
  0
LINE
  5
102
330
4B
100
AcDbEntity
  8
SL817433-W-104
  6
DASHED
 62
     7
100
AcDbLine
 10
415.025747992242
 20
835.358721751237
 30
0.0
 11
415.5477640461368
 21
835.358721751237
 31
0.0
  0
LINE
  5
103
330
4B
100
AcDbEntity
  8
SL817433-W-104
  6
DASHED
 62
     7
100
AcDbLine
 10
415.5477640461368
 20
835.358721751237
 30
0.0
 11
416.16779563193
 21
835.358721751237
 31
0.0
  0
LINE
  5
104
330
4B
100
AcDbEntity
  8
SL817433-W-104
  6
DASHED
 62
     7
100
AcDbLine
 10
416.16779563193
 20
835.358721751237
 30
0.0
 11
417.6234929736902
 21
835.358721751237
 31
0.0
  0
LINE
  5
105
330
4B
100
AcDbEntity
  8
SL817433-W-104
  6
DASHED
 62
     7
100
AcDbLine
 10
417.6234929736902
 20
835.358721751237
 30
0.0
 11
419.2360151664861
 21
835.358721751237
 31
0.0
  0
LINE
  5
106
330
4B
100
AcDbEntity
  8
SL817433-W-104
  6
DASHED
 62
     7
100
AcDbLine
 10
419.2360151664861
 20
835.358721751237
 30
0.0
 11
420.8485373592821
 21
835.358721751237
 31
0.0
  0
LINE
  5
107
330
4B
100
AcDbEntity
  8
SL817433-W-104
  6
DASHED
 62
     7
100
AcDbLine
 10
420.8485373592821
 20
835.358721751237
 30
0.0
 11
422.3042347010419
 21
835.358721751237
 31
0.0
  0
LINE
  5
108
330
4B
100
AcDbEntity
  8
SL817433-W-104
  6
DASHED
 62
     7
100
AcDbLine
 10
422.3042347010419
 20
835.358721751237
 30
0.0
 11
422.9242662868351
 21
835.358721751237
 31
0.0
  0
LINE
  5
109
330
4B
100
AcDbEntity
  8
SL817433-W-104
  6
DASHED
 62
     7
100
AcDbLine
 10
422.9242662868351
 20
835.358721751237
 30
0.0
 11
423.4462823407303
 21
835.358721751237
 31
0.0
  0
LINE
  5
10A
330
4B
100
AcDbEntity
  8
SL817433-W-104
  6
DASHED
 62
     7
100
AcDbLine
 10
423.4462823407303
 20
835.358721751237
 30
0.0
 11
423.8506797563477
 21
835.358721751237
 31
0.0
  0
LINE
  5
10B
330
4B
100
AcDbEntity
  8
SL817433-W-104
  6
DASHED
 62
     7
100
AcDbLine
 10
423.8506797563477
 20
835.358721751237
 30
0.0
 11
424.1178554273101
 21
835.358721751237
 31
0.0
  0
LINE
  5
10C
330
4B
100
AcDbEntity
  8
SL817433-W-104
  6
DASHED
 62
     7
100
AcDbLine
 10
424.1178554273101
 20
835.358721751237
 30
0.0
 11
424.228206247235
 21
835.358721751237
 31
0.0
  0
LINE
  5
10D
330
4B
100
AcDbEntity
  8
SL817433-W-104
  6
DASHED
 62
     7
100
AcDbLine
 10
424.228206247235
 20
835.358721751237
 30
0.0
 11
424.2299970258
 21
835.358721751237
 31
0.0
  0
LINE
  5
10E
330
4B
100
AcDbEntity
  8
SL817433-W-104
  6
DASHED
 62
     7
100
AcDbLine
 10
424.2299970258
 20
835.358721751237
 30
0.0
 11
424.326907794421
 21
835.35918262725
 31
0.0
  0
LINE
  5
10F
330
4B
100
AcDbEntity
  8
SL817433-W-104
  6
DASHED
 62
     7
100
AcDbLine
 10
424.326907794421
 20
835.35918262725
 30
0.0
 11
424.5521084349462
 21
835.363824656993
 31
0.0
  0
LINE
  5
110
330
4B
100
AcDbEntity
  8
SL817433-W-104
  6
DASHED
 62
     7
100
AcDbLine
 10
424.5521084349462
 20
835.363824656993
 30
0.0
 11
424.998726202195
 21
835.387907833124
 31
0.0
  0
LINE
  5
111
330
4B
100
AcDbEntity
  8
SL817433-W-104
  6
DASHED
 62
     7
100
AcDbLine
 10
424.998726202195
 20
835.387907833124
 30
0.0
 11
425.8753533239569
 21
835.493793927893
 31
0.0
  0
LINE
  5
112
330
4B
100
AcDbEntity
  8
SL817433-W-104
  6
DASHED
 62
     7
100
AcDbLine
 10
425.8753533239569
 20
835.493793927893
 30
0.0
 11
426.7270275953529
 21
835.673826871579
 31
0.0
  0
LINE
  5
113
330
4B
100
AcDbEntity
  8
SL817433-W-104
  6
DASHED
 62
     7
100
AcDbLine
 10
426.7270275953529
 20
835.673826871579
 30
0.0
 11
427.5503790563171
 21
835.924631294871
 31
0.0
  0
LINE
  5
114
330
4B
100
AcDbEntity
  8
SL817433-W-104
  6
DASHED
 62
     7
100
AcDbLine
 10
427.5503790563171
 20
835.924631294871
 30
0.0
 11
428.3420377467851
 21
836.24283182846
 31
0.0
  0
LINE
  5
115
330
4B
100
AcDbEntity
  8
SL817433-W-104
  6
DASHED
 62
     7
100
AcDbLine
 10
428.3420377467851
 20
836.24283182846
 30
0.0
 11
429.0986337066929
 21
836.625053103034
 31
0.0
  0
LINE
  5
116
330
4B
100
AcDbEntity
  8
SL817433-W-104
  6
DASHED
 62
     7
100
AcDbLine
 10
429.0986337066929
 20
836.625053103034
 30
0.0
 11
429.8167969759752
 21
837.067919749284
 31
0.0
  0
LINE
  5
117
330
4B
100
AcDbEntity
  8
SL817433-W-104
  6
DASHED
 62
     7
100
AcDbLine
 10
429.8167969759752
 20
837.067919749284
 30
0.0
 11
430.493157594567
 21
837.5680563979
 31
0.0
  0
LINE
  5
118
330
4B
100
AcDbEntity
  8
SL817433-W-104
  6
DASHED
 62
     7
100
AcDbLine
 10
430.493157594567
 20
837.5680563979
 30
0.0
 11
431.1243456024049
 21
838.12208767957
 31
0.0
  0
LINE
  5
119
330
4B
100
AcDbEntity
  8
SL817433-W-104
  6
DASHED
 62
     7
100
AcDbLine
 10
431.1243456024049
 20
838.12208767957
 30
0.0
 11
431.706991039423
 21
838.726638224984
 31
0.0
  0
LINE
  5
11A
330
4B
100
AcDbEntity
  8
SL817433-W-104
  6
DASHED
 62
     7
100
AcDbLine
 10
431.706991039423
 20
838.726638224984
 30
0.0
 11
432.2377239455568
 21
839.378332664832
 31
0.0
  0
LINE
  5
11B
330
4B
100
AcDbEntity
  8
SL817433-W-104
  6
DASHED
 62
     7
100
AcDbLine
 10
432.2377239455568
 20
839.378332664832
 30
0.0
 11
432.7131743607411
 21
840.073795629804
 31
0.0
  0
LINE
  5
11C
330
4B
100
AcDbEntity
  8
SL817433-W-104
  6
DASHED
 62
     7
100
AcDbLine
 10
432.7131743607411
 20
840.073795629804
 30
0.0
 11
433.1299723249131
 21
840.809651750589
 31
0.0
  0
LINE
  5
11D
330
4B
100
AcDbEntity
  8
SL817433-W-104
  6
DASHED
 62
     7
100
AcDbLine
 10
433.1299723249131
 20
840.809651750589
 30
0.0
 11
433.4847478780062
 21
841.582525657877
 31
0.0
  0
LINE
  5
11E
330
4B
100
AcDbEntity
  8
SL817433-W-104
  6
DASHED
 62
     7
100
AcDbLine
 10
433.4847478780062
 20
841.582525657877
 30
0.0
 11
433.7741310599558
 21
842.389041982357
 31
0.0
  0
LINE
  5
11F
330
4B
100
AcDbEntity
  8
SL817433-W-104
  6
DASHED
 62
     7
100
AcDbLine
 10
433.7741310599558
 20
842.389041982357
 30
0.0
 11
433.9947519106991
 21
843.22582535472
 31
0.0
  0
LINE
  5
120
330
4B
100
AcDbEntity
  8
SL817433-W-104
  6
DASHED
 62
     7
100
AcDbLine
 10
433.9947519106991
 20
843.22582535472
 30
0.0
 11
434.1432404701691
 21
844.089500405654
 31
0.0
  0
LINE
  5
121
330
4B
100
AcDbEntity
  8
SL817433-W-104
  6
DASHED
 62
     7
100
AcDbLine
 10
434.1432404701691
 20
844.089500405654
 30
0.0
 11
434.2162267783028
 21
844.976691765849
 31
0.0
  0
LINE
  5
122
330
4B
100
AcDbEntity
  8
SL817433-W-104
  6
DASHED
 62
     7
100
AcDbLine
 10
434.2162267783028
 20
844.976691765849
 30
0.0
 11
434.2105504741048
 21
845.877888162531
 31
0.0
  0
LINE
  5
123
330
4B
100
AcDbEntity
  8
SL817433-W-104
  6
DASHED
 62
     7
100
AcDbLine
 10
434.2105504741048
 20
845.877888162531
 30
0.0
 11
434.1265718059808
 21
846.76172807185
 31
0.0
  0
LINE
  5
124
330
4B
100
AcDbEntity
  8
SL817433-W-104
  6
DASHED
 62
     7
100
AcDbLine
 10
434.1265718059808
 20
846.76172807185
 30
0.0
 11
433.967572309386
 21
847.621405653422
 31
0.0
  0
LINE
  5
125
330
4B
100
AcDbEntity
  8
SL817433-W-104
  6
DASHED
 62
     7
100
AcDbLine
 10
433.967572309386
 20
847.621405653422
 30
0.0
 11
433.7369219443849
 21
848.45356717492
 31
0.0
  0
LINE
  5
126
330
4B
100
AcDbEntity
  8
SL817433-W-104
  6
DASHED
 62
     7
100
AcDbLine
 10
433.7369219443849
 20
848.45356717492
 30
0.0
 11
433.4379906710442
 21
849.254858904015
 31
0.0
  0
LINE
  5
127
330
4B
100
AcDbEntity
  8
SL817433-W-104
  6
DASHED
 62
     7
100
AcDbLine
 10
433.4379906710442
 20
849.254858904015
 30
0.0
 11
433.0741484494251
 21
850.021927108382
 31
0.0
  0
LINE
  5
128
330
4B
100
AcDbEntity
  8
SL817433-W-104
  6
DASHED
 62
     7
100
AcDbLine
 10
433.0741484494251
 20
850.021927108382
 30
0.0
 11
432.6487652395949
 21
850.751418055691
 31
0.0
  0
LINE
  5
129
330
4B
100
AcDbEntity
  8
SL817433-W-104
  6
DASHED
 62
     7
100
AcDbLine
 10
432.6487652395949
 20
850.751418055691
 30
0.0
 11
432.1652110016171
 21
851.439978013616
 31
0.0
  0
LINE
  5
12A
330
4B
100
AcDbEntity
  8
SL817433-W-104
  6
DASHED
 62
     7
100
AcDbLine
 10
432.1652110016171
 20
851.439978013616
 30
0.0
 11
431.626855695557
 21
852.084253249829
 31
0.0
  0
LINE
  5
12B
330
4B
100
AcDbEntity
  8
SL817433-W-104
  6
DASHED
 62
     7
100
AcDbLine
 10
431.626855695557
 20
852.084253249829
 30
0.0
 11
431.037069281479
 21
852.680890032001
 31
0.0
  0
LINE
  5
12C
330
4B
100
AcDbEntity
  8
SL817433-W-104
  6
DASHED
 62
     7
100
AcDbLine
 10
431.037069281479
 20
852.680890032001
 30
0.0
 11
430.3992217194491
 21
853.226534627806
 31
0.0
  0
LINE
  5
12D
330
4B
100
AcDbEntity
  8
SL817433-W-104
  6
DASHED
 62
     7
100
AcDbLine
 10
430.3992217194491
 20
853.226534627806
 30
0.0
 11
429.7166829695289
 21
853.717833304916
 31
0.0
  0
LINE
  5
12E
330
4B
100
AcDbEntity
  8
SL817433-W-104
  6
DASHED
 62
     7
100
AcDbLine
 10
429.7166829695289
 20
853.717833304916
 30
0.0
 11
428.9928229917869
 21
854.151432331004
 31
0.0
  0
LINE
  5
12F
330
4B
100
AcDbEntity
  8
SL817433-W-104
  6
DASHED
 62
     7
100
AcDbLine
 10
428.9928229917869
 20
854.151432331004
 30
0.0
 11
428.2310117462848
 21
854.523977973741
 31
0.0
  0
LINE
  5
130
330
4B
100
AcDbEntity
  8
SL817433-W-104
  6
DASHED
 62
     7
100
AcDbLine
 10
428.2310117462848
 20
854.523977973741
 30
0.0
 11
427.434619193089
 21
854.832116500799
 31
0.0
  0
LINE
  5
131
330
4B
100
AcDbEntity
  8
SL817433-W-104
  6
DASHED
 62
     7
100
AcDbLine
 10
427.434619193089
 20
854.832116500799
 30
0.0
 11
426.607015292263
 21
855.072494179853
 31
0.0
  0
LINE
  5
132
330
4B
100
AcDbEntity
  8
SL817433-W-104
  6
DASHED
 62
     7
100
AcDbLine
 10
426.607015292263
 20
855.072494179853
 30
0.0
 11
425.7515700038721
 21
855.241757278573
 31
0.0
  0
LINE
  5
133
330
4B
100
AcDbEntity
  8
SL817433-W-104
  6
DASHED
 62
     7
100
AcDbLine
 10
425.7515700038721
 20
855.241757278573
 30
0.0
 11
424.8716532879812
 21
855.336552064632
 31
0.0
  0
LINE
  5
134
330
4B
100
AcDbEntity
  8
SL817433-W-104
  6
DASHED
 62
     7
100
AcDbLine
 10
424.8716532879812
 20
855.336552064632
 30
0.0
 11
424.4235712572431
 21
855.354975799061
 31
0.0
  0
LINE
  5
135
330
4B
100
AcDbEntity
  8
SL817433-W-104
  6
DASHED
 62
     7
100
AcDbLine
 10
424.4235712572431
 20
855.354975799061
 30
0.0
 11
424.2300255831528
 21
855.356812029015
 31
0.0
  0
LINE
  5
136
330
4B
100
AcDbEntity
  8
SL817433-W-104
  6
DASHED
 62
     7
100
AcDbLine
 10
424.2300255831528
 20
855.356812029015
 30
0.0
 11
424.2300255831528
 21
855.356812029015
 31
0.0
  0
LINE
  5
137
330
4B
100
AcDbEntity
  8
SL817433-W-104
  6
DASHED
 62
     7
100
AcDbLine
 10
424.2300255831528
 20
855.356812029015
 30
0.0
 11
424.2300255831528
 21
855.356812029015
 31
0.0
  0
LINE
  5
138
330
4B
100
AcDbEntity
  8
SL817433-W-104
  6
DASHED
 62
     7
100
AcDbLine
 10
424.2300255831528
 20
855.356812029015
 30
0.0
 11
424.2300255831528
 21
855.356812029015
 31
0.0
  0
LINE
  5
139
330
4B
100
AcDbEntity
  8
SL817433-W-104
  6
DASHED
 62
     7
100
AcDbLine
 10
694.0223432914859
 20
855.356812029015
 30
0.0
 11
694.1085950019242
 21
855.356812029015
 31
0.0
  0
LINE
  5
13A
330
4B
100
AcDbEntity
  8
SL817433-W-104
  6
DASHED
 62
     7
100
AcDbLine
 10
694.1085950019242
 20
855.356812029015
 30
0.0
 11
694.354295820307
 21
855.356812029015
 31
0.0
  0
LINE
  5
13B
330
4B
100
AcDbEntity
  8
SL817433-W-104
  6
DASHED
 62
     7
100
AcDbLine
 10
694.354295820307
 20
855.356812029015
 30
0.0
 11
694.7398642772391
 21
855.356812029015
 31
0.0
  0
LINE
  5
13C
330
4B
100
AcDbEntity
  8
SL817433-W-104
  6
DASHED
 62
     7
100
AcDbLine
 10
694.7398642772391
 20
855.356812029015
 30
0.0
 11
695.2457189033212
 21
855.356812029015
 31
0.0
  0
LINE
  5
13D
330
4B
100
AcDbEntity
  8
SL817433-W-104
  6
DASHED
 62
     7
100
AcDbLine
 10
695.2457189033212
 20
855.356812029015
 30
0.0
 11
695.8522782291589
 21
855.356812029015
 31
0.0
  0
LINE
  5
13E
330
4B
100
AcDbEntity
  8
SL817433-W-104
  6
DASHED
 62
     7
100
AcDbLine
 10
695.8522782291589
 20
855.356812029015
 30
0.0
 11
696.5399607853542
 21
855.356812029015
 31
0.0
  0
LINE
  5
13F
330
4B
100
AcDbEntity
  8
SL817433-W-104
  6
DASHED
 62
     7
100
AcDbLine
 10
696.5399607853542
 20
855.356812029015
 30
0.0
 11
698.0803697112319
 21
855.356812029015
 31
0.0
  0
LINE
  5
140
330
4B
100
AcDbEntity
  8
SL817433-W-104
  6
DASHED
 62
     7
100
AcDbLine
 10
698.0803697112319
 20
855.356812029015
 30
0.0
 11
699.7102939257802
 21
855.356812029015
 31
0.0
  0
LINE
  5
141
330
4B
100
AcDbEntity
  8
SL817433-W-104
  6
DASHED
 62
     7
100
AcDbLine
 10
699.7102939257802
 20
855.356812029015
 30
0.0
 11
701.2730816738258
 21
855.356812029015
 31
0.0
  0
LINE
  5
142
330
4B
100
AcDbEntity
  8
SL817433-W-104
  6
DASHED
 62
     7
100
AcDbLine
 10
701.2730816738258
 20
855.356812029015
 30
0.0
 11
701.9803456994177
 21
855.356812029015
 31
0.0
  0
LINE
  5
143
330
4B
100
AcDbEntity
  8
SL817433-W-104
  6
DASHED
 62
     7
100
AcDbLine
 10
701.9803456994177
 20
855.356812029015
 30
0.0
 11
702.6120812001941
 21
855.356812029015
 31
0.0
  0
LINE
  5
144
330
4B
100
AcDbEntity
  8
SL817433-W-104
  6
DASHED
 62
     7
100
AcDbLine
 10
702.6120812001941
 20
855.356812029015
 30
0.0
 11
703.1487067067569
 21
855.356812029015
 31
0.0
  0
LINE
  5
145
330
4B
100
AcDbEntity
  8
SL817433-W-104
  6
DASHED
 62
     7
100
AcDbLine
 10
703.1487067067569
 20
855.356812029015
 30
0.0
 11
703.570640749711
 21
855.356812029015
 31
0.0
  0
LINE
  5
146
330
4B
100
AcDbEntity
  8
SL817433-W-104
  6
DASHED
 62
     7
100
AcDbLine
 10
703.570640749711
 20
855.356812029015
 30
0.0
 11
703.8583018596592
 21
855.356812029015
 31
0.0
  0
LINE
  5
147
330
4B
100
AcDbEntity
  8
SL817433-W-104
  6
DASHED
 62
     7
100
AcDbLine
 10
703.8583018596592
 20
855.356812029015
 30
0.0
 11
703.9921085672031
 21
855.356812029015
 31
0.0
  0
LINE
  5
148
330
4B
100
AcDbEntity
  8
SL817433-W-104
  6
DASHED
 62
     7
100
AcDbLine
 10
703.9921085672031
 20
855.356812029015
 30
0.0
 11
703.9992257902691
 21
855.356812029015
 31
0.0
  0
LINE
  5
149
330
4B
100
AcDbEntity
  8
SL817433-W-104
  6
DASHED
 62
     7
100
AcDbLine
 10
703.9992257902691
 20
855.356812029015
 30
0.0
 11
704.193268542464
 21
855.354975799061
 31
0.0
  0
LINE
  5
14A
330
4B
100
AcDbEntity
  8
SL817433-W-104
  6
DASHED
 62
     7
100
AcDbLine
 10
704.193268542464
 20
855.354975799061
 30
0.0
 11
704.6422096267329
 21
855.336552064632
 31
0.0
  0
LINE
  5
14B
330
4B
100
AcDbEntity
  8
SL817433-W-104
  6
DASHED
 62
     7
100
AcDbLine
 10
704.6422096267329
 20
855.336552064632
 30
0.0
 11
705.5237032297368
 21
855.241757278573
 31
0.0
  0
LINE
  5
14C
330
4B
100
AcDbEntity
  8
SL817433-W-104
  6
DASHED
 62
     7
100
AcDbLine
 10
705.5237032297368
 20
855.241757278573
 30
0.0
 11
706.3805461273832
 21
855.072494179853
 31
0.0
  0
LINE
  5
14D
330
4B
100
AcDbEntity
  8
SL817433-W-104
  6
DASHED
 62
     7
100
AcDbLine
 10
706.3805461273832
 20
855.072494179853
 30
0.0
 11
707.209379178099
 21
854.832116500799
 31
0.0
  0
LINE
  5
14E
330
4B
100
AcDbEntity
  8
SL817433-W-104
  6
DASHED
 62
     7
100
AcDbLine
 10
707.209379178099
 20
854.832116500799
 30
0.0
 11
708.00684324031
 21
854.523977973741
 31
0.0
  0
LINE
  5
14F
330
4B
100
AcDbEntity
  8
SL817433-W-104
  6
DASHED
 62
     7
100
AcDbLine
 10
708.00684324031
 20
854.523977973741
 30
0.0
 11
708.7695791724441
 21
854.151432331004
 31
0.0
  0
LINE
  5
150
330
4B
100
AcDbEntity
  8
SL817433-W-104
  6
DASHED
 62
     7
100
AcDbLine
 10
708.7695791724441
 20
854.151432331004
 30
0.0
 11
709.4942278329272
 21
853.717833304916
 31
0.0
  0
LINE
  5
151
330
4B
100
AcDbEntity
  8
SL817433-W-104
  6
DASHED
 62
     7
100
AcDbLine
 10
709.4942278329272
 20
853.717833304916
 30
0.0
 11
710.1774300801872
 21
853.226534627806
 31
0.0
  0
LINE
  5
152
330
4B
100
AcDbEntity
  8
SL817433-W-104
  6
DASHED
 62
     7
100
AcDbLine
 10
710.1774300801872
 20
853.226534627806
 30
0.0
 11
710.815826772649
 21
852.680890032001
 31
0.0
  0
LINE
  5
153
330
4B
100
AcDbEntity
  8
SL817433-W-104
  6
DASHED
 62
     7
100
AcDbLine
 10
710.815826772649
 20
852.680890032001
 30
0.0
 11
711.4060587687409
 21
852.084253249829
 31
0.0
  0
LINE
  5
154
330
4B
100
AcDbEntity
  8
SL817433-W-104
  6
DASHED
 62
     7
100
AcDbLine
 10
711.4060587687409
 20
852.084253249829
 30
0.0
 11
711.9447669268889
 21
851.439978013616
 31
0.0
  0
LINE
  5
155
330
4B
100
AcDbEntity
  8
SL817433-W-104
  6
DASHED
 62
     7
100
AcDbLine
 10
711.9447669268889
 20
851.439978013616
 30
0.0
 11
712.4285921055189
 21
850.751418055691
 31
0.0
  0
LINE
  5
156
330
4B
100
AcDbEntity
  8
SL817433-W-104
  6
DASHED
 62
     7
100
AcDbLine
 10
712.4285921055189
 20
850.751418055691
 30
0.0
 11
712.8541751630601
 21
850.021927108382
 31
0.0
  0
LINE
  5
157
330
4B
100
AcDbEntity
  8
SL817433-W-104
  6
DASHED
 62
     7
100
AcDbLine
 10
712.8541751630601
 20
850.021927108382
 30
0.0
 11
713.2181569579361
 21
849.254858904015
 31
0.0
  0
LINE
  5
158
330
4B
100
AcDbEntity
  8
SL817433-W-104
  6
DASHED
 62
     7
100
AcDbLine
 10
713.2181569579361
 20
849.254858904015
 30
0.0
 11
713.5171783485748
 21
848.45356717492
 31
0.0
  0
LINE
  5
159
330
4B
100
AcDbEntity
  8
SL817433-W-104
  6
DASHED
 62
     7
100
AcDbLine
 10
713.5171783485748
 20
848.45356717492
 30
0.0
 11
713.747880193404
 21
847.621405653422
 31
0.0
  0
LINE
  5
15A
330
4B
100
AcDbEntity
  8
SL817433-W-104
  6
DASHED
 62
     7
100
AcDbLine
 10
713.747880193404
 20
847.621405653422
 30
0.0
 11
713.906903350849
 21
846.76172807185
 31
0.0
  0
LINE
  5
15B
330
4B
100
AcDbEntity
  8
SL817433-W-104
  6
DASHED
 62
     7
100
AcDbLine
 10
713.906903350849
 20
846.76172807185
 30
0.0
 11
713.9908886793369
 21
845.877888162532
 31
0.0
  0
LINE
  5
15C
330
4B
100
AcDbEntity
  8
SL817433-W-104
  6
DASHED
 62
     7
100
AcDbLine
 10
713.9908886793369
 20
845.877888162532
 30
0.0
 11
713.9965651780358
 21
844.976691765849
 31
0.0
  0
LINE
  5
15D
330
4B
100
AcDbEntity
  8
SL817433-W-104
  6
DASHED
 62
     7
100
AcDbLine
 10
713.9965651780358
 20
844.976691765849
 30
0.0
 11
713.9235737550371
 21
844.089500405654
 31
0.0
  0
LINE
  5
15E
330
4B
100
AcDbEntity
  8
SL817433-W-104
  6
DASHED
 62
     7
100
AcDbLine
 10
713.9235737550371
 20
844.089500405654
 30
0.0
 11
713.775064625715
 21
843.22582535472
 31
0.0
  0
LINE
  5
15F
330
4B
100
AcDbEntity
  8
SL817433-W-104
  6
DASHED
 62
     7
100
AcDbLine
 10
713.775064625715
 20
843.22582535472
 30
0.0
 11
713.55439693164
 21
842.389041982357
 31
0.0
  0
LINE
  5
160
330
4B
100
AcDbEntity
  8
SL817433-W-104
  6
DASHED
 62
     7
100
AcDbLine
 10
713.55439693164
 20
842.389041982357
 30
0.0
 11
713.2649298143879
 21
841.582525657877
 31
0.0
  0
LINE
  5
161
330
4B
100
AcDbEntity
  8
SL817433-W-104
  6
DASHED
 62
     7
100
AcDbLine
 10
713.2649298143879
 20
841.582525657877
 30
0.0
 11
712.91002241553
 21
840.809651750589
 31
0.0
  0
LINE
  5
162
330
4B
100
AcDbEntity
  8
SL817433-W-104
  6
DASHED
 62
     7
100
AcDbLine
 10
712.91002241553
 20
840.809651750589
 30
0.0
 11
712.4930338766421
 21
840.073795629804
 31
0.0
  0
LINE
  5
163
330
4B
100
AcDbEntity
  8
SL817433-W-104
  6
DASHED
 62
     7
100
AcDbLine
 10
712.4930338766421
 20
840.073795629804
 30
0.0
 11
712.0173233392952
 21
839.378332664832
 31
0.0
  0
LINE
  5
164
330
4B
100
AcDbEntity
  8
SL817433-W-104
  6
DASHED
 62
     7
100
AcDbLine
 10
712.0173233392952
 20
839.378332664832
 30
0.0
 11
711.4862499450628
 21
838.726638224984
 31
0.0
  0
LINE
  5
165
330
4B
100
AcDbEntity
  8
SL817433-W-104
  6
DASHED
 62
     7
100
AcDbLine
 10
711.4862499450628
 20
838.726638224984
 30
0.0
 11
710.9031728355199
 21
838.12208767957
 31
0.0
  0
LINE
  5
166
330
4B
100
AcDbEntity
  8
SL817433-W-104
  6
DASHED
 62
     7
100
AcDbLine
 10
710.9031728355199
 20
838.12208767957
 30
0.0
 11
710.271451152239
 21
837.5680563979
 31
0.0
  0
LINE
  5
167
330
4B
100
AcDbEntity
  8
SL817433-W-104
  6
DASHED
 62
     7
100
AcDbLine
 10
710.271451152239
 20
837.5680563979
 30
0.0
 11
709.594444036793
 21
837.067919749284
 31
0.0
  0
LINE
  5
168
330
4B
100
AcDbEntity
  8
SL817433-W-104
  6
DASHED
 62
     7
100
AcDbLine
 10
709.594444036793
 20
837.067919749284
 30
0.0
 11
708.8755106307563
 21
836.625053103034
 31
0.0
  0
LINE
  5
169
330
4B
100
AcDbEntity
  8
SL817433-W-104
  6
DASHED
 62
     7
100
AcDbLine
 10
708.8755106307563
 20
836.625053103034
 30
0.0
 11
708.1180100757001
 21
836.24283182846
 31
0.0
  0
LINE
  5
16A
330
4B
100
AcDbEntity
  8
SL817433-W-104
  6
DASHED
 62
     7
100
AcDbLine
 10
708.1180100757001
 20
836.24283182846
 30
0.0
 11
707.3253015131991
 21
835.924631294871
 31
0.0
  0
LINE
  5
16B
330
4B
100
AcDbEntity
  8
SL817433-W-104
  6
DASHED
 62
     7
100
AcDbLine
 10
707.3253015131991
 20
835.924631294871
 30
0.0
 11
706.5007440848271
 21
835.673826871579
 31
0.0
  0
LINE
  5
16C
330
4B
100
AcDbEntity
  8
SL817433-W-104
  6
DASHED
 62
     7
100
AcDbLine
 10
706.5007440848271
 20
835.673826871579
 30
0.0
 11
705.6476969321561
 21
835.493793927893
 31
0.0
  0
LINE
  5
16D
330
4B
100
AcDbEntity
  8
SL817433-W-104
  6
DASHED
 62
     7
100
AcDbLine
 10
705.6476969321561
 20
835.493793927893
 30
0.0
 11
704.76951919676
 21
835.387907833124
 31
0.0
  0
LINE
  5
16E
330
4B
100
AcDbEntity
  8
SL817433-W-104
  6
DASHED
 62
     7
100
AcDbLine
 10
704.76951919676
 20
835.387907833124
 30
0.0
 11
704.3220560922819
 21
835.363824656993
 31
0.0
  0
LINE
  5
16F
330
4B
100
AcDbEntity
  8
SL817433-W-104
  6
DASHED
 62
     7
100
AcDbLine
 10
704.3220560922819
 20
835.363824656993
 30
0.0
 11
704.0964146839033
 21
835.35918262725
 31
0.0
  0
LINE
  5
170
330
4B
100
AcDbEntity
  8
SL817433-W-104
  6
DASHED
 62
     7
100
AcDbLine
 10
704.0964146839033
 20
835.35918262725
 30
0.0
 11
703.9993112934321
 21
835.358721751237
 31
0.0
  0
LINE
  5
171
330
4B
100
AcDbEntity
  8
SL817433-W-104
  6
DASHED
 62
     7
100
AcDbLine
 10
703.9993112934321
 20
835.358721751237
 30
0.0
 11
703.9975224914429
 21
835.358721751237
 31
0.0
  0
LINE
  5
172
330
4B
100
AcDbEntity
  8
SL817433-W-104
  6
DASHED
 62
     7
100
AcDbLine
 10
703.9975224914429
 20
835.358721751237
 30
0.0
 11
703.88729347154
 21
835.358721751237
 31
0.0
  0
LINE
  5
173
330
4B
100
AcDbEntity
  8
SL817433-W-104
  6
DASHED
 62
     7
100
AcDbLine
 10
703.88729347154
 20
835.358721751237
 30
0.0
 11
703.6204126964622
 21
835.358721751237
 31
0.0
  0
LINE
  5
174
330
4B
100
AcDbEntity
  8
SL817433-W-104
  6
DASHED
 62
     7
100
AcDbLine
 10
703.6204126964622
 20
835.358721751237
 30
0.0
 11
703.2164616356081
 21
835.358721751237
 31
0.0
  0
LINE
  5
175
330
4B
100
AcDbEntity
  8
SL817433-W-104
  6
DASHED
 62
     7
100
AcDbLine
 10
703.2164616356081
 20
835.358721751237
 30
0.0
 11
702.6950217583721
 21
835.358721751237
 31
0.0
  0
LINE
  5
176
330
4B
100
AcDbEntity
  8
SL817433-W-104
  6
DASHED
 62
     7
100
AcDbLine
 10
702.6950217583721
 20
835.358721751237
 30
0.0
 11
702.0756745341541
 21
835.358721751237
 31
0.0
  0
LINE
  5
177
330
4B
100
AcDbEntity
  8
SL817433-W-104
  6
DASHED
 62
     7
100
AcDbLine
 10
702.0756745341541
 20
835.358721751237
 30
0.0
 11
700.621583922351
 21
835.358721751237
 31
0.0
  0
LINE
  5
178
330
4B
100
AcDbEntity
  8
SL817433-W-104
  6
DASHED
 62
     7
100
AcDbLine
 10
700.621583922351
 20
835.358721751237
 30
0.0
 11
699.010841555375
 21
835.358721751237
 31
0.0
  0
LINE
  5
179
330
4B
100
AcDbEntity
  8
SL817433-W-104
  6
DASHED
 62
     7
100
AcDbLine
 10
699.010841555375
 20
835.358721751237
 30
0.0
 11
697.400099188399
 21
835.358721751237
 31
0.0
  0
LINE
  5
17A
330
4B
100
AcDbEntity
  8
SL817433-W-104
  6
DASHED
 62
     7
100
AcDbLine
 10
697.400099188399
 20
835.358721751237
 30
0.0
 11
695.9460085765968
 21
835.358721751237
 31
0.0
  0
LINE
  5
17B
330
4B
100
AcDbEntity
  8
SL817433-W-104
  6
DASHED
 62
     7
100
AcDbLine
 10
695.9460085765968
 20
835.358721751237
 30
0.0
 11
695.3266613523779
 21
835.358721751237
 31
0.0
  0
LINE
  5
17C
330
4B
100
AcDbEntity
  8
SL817433-W-104
  6
DASHED
 62
     7
100
AcDbLine
 10
695.3266613523779
 20
835.358721751237
 30
0.0
 11
694.8052214751428
 21
835.358721751238
 31
0.0
  0
LINE
  5
17D
330
4B
100
AcDbEntity
  8
SL817433-W-104
  6
DASHED
 62
     7
100
AcDbLine
 10
694.8052214751428
 20
835.358721751238
 30
0.0
 11
694.4012704142879
 21
835.358721751237
 31
0.0
  0
LINE
  5
17E
330
4B
100
AcDbEntity
  8
SL817433-W-104
  6
DASHED
 62
     7
100
AcDbLine
 10
694.4012704142879
 20
835.358721751237
 30
0.0
 11
694.13438963921
 21
835.358721751237
 31
0.0
  0
LINE
  5
17F
330
4B
100
AcDbEntity
  8
SL817433-W-104
  6
DASHED
 62
     7
100
AcDbLine
 10
694.13438963921
 20
835.358721751237
 30
0.0
 11
694.0241606193072
 21
835.358721751237
 31
0.0
  0
LINE
  5
180
330
4B
100
AcDbEntity
  8
SL817433-W-104
  6
DASHED
 62
     7
100
AcDbLine
 10
694.0241606193072
 20
835.358721751237
 30
0.0
 11
694.0223718173193
 21
835.358721751237
 31
0.0
  0
LINE
  5
181
330
4B
100
AcDbEntity
  8
SL817433-W-104
  6
DASHED
 62
     7
100
AcDbLine
 10
694.0223718173193
 20
835.358721751237
 30
0.0
 11
693.9253641880159
 21
835.35918262725
 31
0.0
  0
LINE
  5
182
330
4B
100
AcDbEntity
  8
SL817433-W-104
  6
DASHED
 62
     7
100
AcDbLine
 10
693.9253641880159
 20
835.35918262725
 30
0.0
 11
693.69993750306
 21
835.363824656993
 31
0.0
  0
LINE
  5
183
330
4B
100
AcDbEntity
  8
SL817433-W-104
  6
DASHED
 62
     7
100
AcDbLine
 10
693.69993750306
 20
835.363824656993
 30
0.0
 11
693.2528680936939
 21
835.387907833124
 31
0.0
  0
LINE
  5
184
330
4B
100
AcDbEntity
  8
SL817433-W-104
  6
DASHED
 62
     7
100
AcDbLine
 10
693.2528680936939
 20
835.387907833124
 30
0.0
 11
692.3753418412261
 21
835.493793927893
 31
0.0
  0
LINE
  5
185
330
4B
100
AcDbEntity
  8
SL817433-W-104
  6
DASHED
 62
     7
100
AcDbLine
 10
692.3753418412261
 20
835.493793927893
 30
0.0
 11
691.5227784848657
 21
835.673826871579
 31
0.0
  0
LINE
  5
186
330
4B
100
AcDbEntity
  8
SL817433-W-104
  6
DASHED
 62
     7
100
AcDbLine
 10
691.5227784848657
 20
835.673826871579
 30
0.0
 11
690.6985533939251
 21
835.924631294871
 31
0.0
  0
LINE
  5
187
330
4B
100
AcDbEntity
  8
SL817433-W-104
  6
DASHED
 62
     7
100
AcDbLine
 10
690.6985533939251
 20
835.924631294871
 30
0.0
 11
689.9060419377138
 21
836.24283182846
 31
0.0
  0
LINE
  5
188
330
4B
100
AcDbEntity
  8
SL817433-W-104
  6
DASHED
 62
     7
100
AcDbLine
 10
689.9060419377138
 20
836.24283182846
 30
0.0
 11
689.148619485542
 21
836.625053103034
 31
0.0
  0
LINE
  5
189
330
4B
100
AcDbEntity
  8
SL817433-W-104
  6
DASHED
 62
     7
100
AcDbLine
 10
689.148619485542
 20
836.625053103034
 30
0.0
 11
688.4296614067212
 21
837.067919749284
 31
0.0
  0
LINE
  5
18A
330
4B
100
AcDbEntity
  8
SL817433-W-104
  6
DASHED
 62
     7
100
AcDbLine
 10
688.4296614067212
 20
837.067919749284
 30
0.0
 11
687.7525430705591
 21
837.5680563979
 31
0.0
  0
LINE
  5
18B
330
4B
100
AcDbEntity
  8
SL817433-W-104
  6
DASHED
 62
     7
100
AcDbLine
 10
687.7525430705591
 20
837.5680563979
 30
0.0
 11
687.1206398463701
 21
838.12208767957
 31
0.0
  0
LINE
  5
18C
330
4B
100
AcDbEntity
  8
SL817433-W-104
  6
DASHED
 62
     7
100
AcDbLine
 10
687.1206398463701
 20
838.12208767957
 30
0.0
 11
686.5373271034609
 21
838.726638224984
 31
0.0
  0
LINE
  5
18D
330
4B
100
AcDbEntity
  8
SL817433-W-104
  6
DASHED
 62
     7
100
AcDbLine
 10
686.5373271034609
 20
838.726638224984
 30
0.0
 11
686.0059802111441
 21
839.378332664832
 31
0.0
  0
LINE
  5
18E
330
4B
100
AcDbEntity
  8
SL817433-W-104
  6
DASHED
 62
     7
100
AcDbLine
 10
686.0059802111441
 20
839.378332664832
 30
0.0
 11
685.5299745387279
 21
840.073795629804
 31
0.0
  0
LINE
  5
18F
330
4B
100
AcDbEntity
  8
SL817433-W-104
  6
DASHED
 62
     7
100
AcDbLine
 10
685.5299745387279
 20
840.073795629804
 30
0.0
 11
685.1126854555259
 21
840.809651750589
 31
0.0
  0
LINE
  5
190
330
4B
100
AcDbEntity
  8
SL817433-W-104
  6
DASHED
 62
     7
100
AcDbLine
 10
685.1126854555259
 20
840.809651750589
 30
0.0
 11
684.7574883308462
 21
841.582525657877
 31
0.0
  0
LINE
  5
191
330
4B
100
AcDbEntity
  8
SL817433-W-104
  6
DASHED
 62
     7
100
AcDbLine
 10
684.7574883308462
 20
841.582525657877
 30
0.0
 11
684.4677585339991
 21
842.389041982357
 31
0.0
  0
LINE
  5
192
330
4B
100
AcDbEntity
  8
SL817433-W-104
  6
DASHED
 62
     7
100
AcDbLine
 10
684.4677585339991
 20
842.389041982357
 30
0.0
 11
684.2468714342958
 21
843.22582535472
 31
0.0
  0
LINE
  5
193
330
4B
100
AcDbEntity
  8
SL817433-W-104
  6
DASHED
 62
     7
100
AcDbLine
 10
684.2468714342958
 20
843.22582535472
 30
0.0
 11
684.0982024010473
 21
844.089500405654
 31
0.0
  0
LINE
  5
194
330
4B
100
AcDbEntity
  8
SL817433-W-104
  6
DASHED
 62
     7
100
AcDbLine
 10
684.0982024010473
 20
844.089500405654
 30
0.0
 11
684.0251268035618
 21
844.976691765849
 31
0.0
  0
LINE
  5
195
330
4B
100
AcDbEntity
  8
SL817433-W-104
  6
DASHED
 62
     7
100
AcDbLine
 10
684.0251268035618
 20
844.976691765849
 30
0.0
 11
684.0308100756451
 21
845.877888162531
 31
0.0
  0
LINE
  5
196
330
4B
100
AcDbEntity
  8
SL817433-W-104
  6
DASHED
 62
     7
100
AcDbLine
 10
684.0308100756451
 20
845.877888162531
 30
0.0
 11
684.1148913906459
 21
846.76172807185
 31
0.0
  0
LINE
  5
197
330
4B
100
AcDbEntity
  8
SL817433-W-104
  6
DASHED
 62
     7
100
AcDbLine
 10
684.1148913906459
 20
846.76172807185
 30
0.0
 11
684.2740839457961
 21
847.621405653422
 31
0.0
  0
LINE
  5
198
330
4B
100
AcDbEntity
  8
SL817433-W-104
  6
DASHED
 62
     7
100
AcDbLine
 10
684.2740839457961
 20
847.621405653422
 30
0.0
 11
684.5050123717829
 21
848.45356717492
 31
0.0
  0
LINE
  5
199
330
4B
100
AcDbEntity
  8
SL817433-W-104
  6
DASHED
 62
     7
100
AcDbLine
 10
684.5050123717829
 20
848.45356717492
 30
0.0
 11
684.8043012992989
 21
849.254858904015
 31
0.0
  0
LINE
  5
19A
330
4B
100
AcDbEntity
  8
SL817433-W-104
  6
DASHED
 62
     7
100
AcDbLine
 10
684.8043012992989
 20
849.254858904015
 30
0.0
 11
685.1685753590309
 21
850.021927108382
 31
0.0
  0
LINE
  5
19B
330
4B
100
AcDbEntity
  8
SL817433-W-104
  6
DASHED
 62
     7
100
AcDbLine
 10
685.1685753590309
 20
850.021927108382
 30
0.0
 11
685.594459181671
 21
850.751418055691
 31
0.0
  0
LINE
  5
19C
330
4B
100
AcDbEntity
  8
SL817433-W-104
  6
DASHED
 62
     7
100
AcDbLine
 10
685.594459181671
 20
850.751418055691
 30
0.0
 11
686.0785773979078
 21
851.439978013616
 31
0.0
  0
LINE
  5
19D
330
4B
100
AcDbEntity
  8
SL817433-W-104
  6
DASHED
 62
     7
100
AcDbLine
 10
686.0785773979078
 20
851.439978013616
 30
0.0
 11
686.6175546384302
 21
852.084253249829
 31
0.0
  0
LINE
  5
19E
330
4B
100
AcDbEntity
  8
SL817433-W-104
  6
DASHED
 62
     7
100
AcDbLine
 10
686.6175546384302
 20
852.084253249829
 30
0.0
 11
687.208015533929
 21
852.680890032001
 31
0.0
  0
LINE
  5
19F
330
4B
100
AcDbEntity
  8
SL817433-W-104
  6
DASHED
 62
     7
100
AcDbLine
 10
687.208015533929
 20
852.680890032001
 30
0.0
 11
687.8465847150928
 21
853.226534627806
 31
0.0
  0
LINE
  5
1A0
330
4B
100
AcDbEntity
  8
SL817433-W-104
  6
DASHED
 62
     7
100
AcDbLine
 10
687.8465847150928
 20
853.226534627806
 30
0.0
 11
688.5298868126129
 21
853.717833304916
 31
0.0
  0
LINE
  5
1A1
330
4B
100
AcDbEntity
  8
SL817433-W-104
  6
DASHED
 62
     7
100
AcDbLine
 10
688.5298868126129
 20
853.717833304916
 30
0.0
 11
689.2545464571758
 21
854.151432331004
 31
0.0
  0
LINE
  5
1A2
330
4B
100
AcDbEntity
  8
SL817433-W-104
  6
DASHED
 62
     7
100
AcDbLine
 10
689.2545464571758
 20
854.151432331004
 30
0.0
 11
690.0171882794748
 21
854.523977973741
 31
0.0
  0
LINE
  5
1A3
330
4B
100
AcDbEntity
  8
SL817433-W-104
  6
DASHED
 62
     7
100
AcDbLine
 10
690.0171882794748
 20
854.523977973741
 30
0.0
 11
690.814436910197
 21
854.832116500799
 31
0.0
  0
LINE
  5
1A4
330
4B
100
AcDbEntity
  8
SL817433-W-104
  6
DASHED
 62
     7
100
AcDbLine
 10
690.814436910197
 20
854.832116500799
 30
0.0
 11
691.6429169800331
 21
855.072494179853
 31
0.0
  0
LINE
  5
1A5
330
4B
100
AcDbEntity
  8
SL817433-W-104
  6
DASHED
 62
     7
100
AcDbLine
 10
691.6429169800331
 20
855.072494179853
 30
0.0
 11
692.4992531196722
 21
855.241757278573
 31
0.0
  0
LINE
  5
1A6
330
4B
100
AcDbEntity
  8
SL817433-W-104
  6
DASHED
 62
     7
100
AcDbLine
 10
692.4992531196722
 20
855.241757278573
 30
0.0
 11
693.3800699598041
 21
855.336552064632
 31
0.0
  0
LINE
  5
1A7
330
4B
100
AcDbEntity
  8
SL817433-W-104
  6
DASHED
 62
     7
100
AcDbLine
 10
693.3800699598041
 20
855.336552064632
 30
0.0
 11
693.8286038396459
 21
855.354975799061
 31
0.0
  0
LINE
  5
1A8
330
4B
100
AcDbEntity
  8
SL817433-W-104
  6
DASHED
 62
     7
100
AcDbLine
 10
693.8286038396459
 20
855.354975799061
 30
0.0
 11
694.0223432914859
 21
855.356812029015
 31
0.0
  0
LINE
  5
1A9
330
4B
100
AcDbEntity
  8
SL817433-W-104
  6
DASHED
 62
     7
100
AcDbLine
 10
694.0223432914859
 20
855.356812029015
 30
0.0
 11
694.0223432914859
 21
855.356812029015
 31
0.0
  0
LINE
  5
1AA
330
4B
100
AcDbEntity
  8
SL817433-W-104
  6
DASHED
 62
     7
100
AcDbLine
 10
694.0223432914859
 20
855.356812029015
 30
0.0
 11
694.0223432914859
 21
855.356812029015
 31
0.0
  0
LINE
  5
1AB
330
4B
100
AcDbEntity
  8
SL817433-W-104
  6
DASHED
 62
     7
100
AcDbLine
 10
694.0223432914859
 20
855.356812029015
 30
0.0
 11
694.0223432914859
 21
855.356812029015
 31
0.0
  0
ARC
  5
1AC
330
4B
100
AcDbEntity
  8
SL817433-W-104
  6
Continuous
 62
     7
100
AcDbCircle
 10
265.2747727730471
 20
1406.31816827852
 30
0.0
 40
5.999999999388194
100
AcDbArc
 50
180.0
 51
263.6628416718611
  0
ARC
  5
1AD
330
4B
100
AcDbEntity
  8
SL817433-W-104
  6
Continuous
 62
     7
100
AcDbCircle
 10
1485.26699280092
 20
759.360848487349
 30
0.0
 40
4.0
100
AcDbArc
 50
270.0
 51
359.0090576926541
  0
ARC
  5
1AE
330
4B
100
AcDbEntity
  8
SL817433-W-104
  6
Continuous
 62
     7
100
AcDbCircle
 10
1036.49772008531
 20
760.360848487349
 30
0.0
 40
5.0
100
AcDbArc
 50
180.0
 51
270.0
  0
ARC
  5
1AF
330
4B
100
AcDbEntity
  8
SL817433-W-104
  6
Continuous
 62
     7
100
AcDbCircle
 10
1285.30472990871
 20
744.358504737349
 30
0.0
 40
4.0
100
AcDbArc
 50
270.0
 51
357.0073083962474
  0
ARC
  5
1B0
330
4B
100
AcDbEntity
  8
SL817433-W-104
  6
Continuous
 62
     7
100
AcDbCircle
 10
1223.56662411896
 20
744.358504737349
 30
0.0
 40
4.000000000002088
100
AcDbArc
 50
204.7813853404167
 51
270.0
  0
ARC
  5
1B1
330
4B
100
AcDbEntity
  8
SL817433-W-104
  6
Continuous
 62
     7
100
AcDbCircle
 10
1212.6545739511
 20
739.365627543709
 30
0.0
 40
7.99999999999449
100
AcDbArc
 50
24.78138534043348
 51
86.0008516154967
  0
ARC
  5
1B2
330
4B
100
AcDbEntity
  8
SL817433-W-104
  6
Continuous
 62
     7
100
AcDbCircle
 10
265.382893301932
 20
759.360844739712
 30
0.0
 40
4.000000000001378
100
AcDbArc
 50
180.995587897563
 51
270.0784307504352
  0
ARC
  5
1B3
330
4B
100
AcDbEntity
  8
SL817433-W-104
  6
Continuous
 62
     7
100
AcDbCircle
 10
267.1591493234041
 20
887.358504737349
 30
0.0
 40
8.0
100
AcDbArc
 50
90.0
 51
180.9955878980221
  0
ARC
  5
1B4
330
4B
100
AcDbEntity
  8
SL817433-W-104
  6
Continuous
 62
     7
100
AcDbCircle
 10
851.0879896834567
 20
887.358504737349
 30
0.0
 40
8.000000000009653
100
AcDbArc
 50
359.0189788127888
 51
90.0
  0
ARC
  5
1B5
330
4B
100
AcDbEntity
  8
SL817433-W-104
  6
Continuous
 62
     7
100
AcDbCircle
 10
852.8967796563061
 20
759.360848487348
 30
0.0
 40
4.0
100
AcDbArc
 50
270.0
 51
359.0189788126734
  0
ARC
  5
1B6
330
4B
100
AcDbEntity
  8
SL817433-W-104
  6
Continuous
 62
     7
100
AcDbCircle
 10
1156.81539987875
 20
781.362201484795
 30
0.0
 40
29.99999999999572
100
AcDbArc
 50
244.6281388375732
 51
266.0008516155148
  0
ARC
  5
1B7
330
4B
100
AcDbEntity
  8
SL817433-W-104
  6
Continuous
 62
     7
100
AcDbCircle
 10
527.3281122853609
 20
743.364016890127
 30
0.0
 40
3.000000000010488
100
AcDbArc
 50
182.9926916046158
 51
270.0
  0
ARC
  5
1B8
330
4B
100
AcDbEntity
  8
SL817433-W-104
  6
Continuous
 62
     7
100
AcDbCircle
 10
590.9565944247588
 20
743.364016890127
 30
0.0
 40
3.0
100
AcDbArc
 50
270.0
 51
357.0297693924177
  0
ARC
  5
1B9
330
4B
100
AcDbEntity
  8
SL817433-W-104
  6
Continuous
 62
     7
100
AcDbCircle
 10
294.625837007065
 20
1457.86150697824
 30
0.0
 40
7.999999999999716
100
AcDbArc
 50
179.9989859984157
 51
270.0
  0
ARC
  5
1BA
330
4B
100
AcDbEntity
  8
SL817433-W-104
  6
Continuous
 62
     7
100
AcDbCircle
 10
559.1289405118719
 20
18938.9240069483
 30
0.0
 40
17491.06249997006
100
AcDbArc
 50
269.1335396962964
 51
270.8664603037032
  0
ARC
  5
1BB
330
4B
100
AcDbEntity
  8
SL817433-W-104
  6
Continuous
 62
     7
100
AcDbCircle
 10
823.6320440166783
 20
1457.86150697824
 30
0.0
 40
8.0
100
AcDbArc
 50
270.0
 51
0.00101405494028
  0
ARC
  5
1BC
330
4B
100
AcDbEntity
  8
SL817433-W-104
  6
Continuous
 62
     7
100
AcDbCircle
 10
559.0764520729517
 20
22686.3724899907
 30
0.0
 40
21288.05432177566
100
AcDbArc
 50
270.0
 51
270.7894394437809
  0
ARC
  5
1BD
330
4B
100
AcDbEntity
  8
SL817433-W-104
  6
Continuous
 62
     7
100
AcDbCircle
 10
265.2747727730471
 20
1852.21799016028
 30
0.0
 40
6.0
100
AcDbArc
 50
90.0
 51
180.0
  0
ARC
  5
1BE
330
4B
100
AcDbEntity
  8
SL817433-W-104
  6
Continuous
 62
     7
100
AcDbCircle
 10
852.8781313716331
 20
1852.21799016028
 30
0.0
 40
6.0
100
AcDbArc
 50
0.0
 51
90.0
  0
ARC
  5
1BF
330
4B
100
AcDbEntity
  8
SL817433-W-104
  6
Continuous
 62
     7
100
AcDbCircle
 10
852.8781313716331
 20
1406.31816827974
 30
0.0
 40
5.99999999999938
100
AcDbArc
 50
265.2448421513524
 51
0.0
  0
ARC
  5
1C0
330
4B
100
AcDbEntity
  8
SL817433-W-104
  6
Continuous
 62
     7
100
AcDbCircle
 10
294.6306656425941
 20
1730.69246932695
 30
0.0
 40
8.0
100
AcDbArc
 50
90.0
 51
179.9989859449164
  0
ARC
  5
1C1
330
4B
100
AcDbEntity
  8
SL817433-W-104
  6
Continuous
 62
     7
100
AcDbCircle
 10
823.6272153811501
 20
1730.69246932695
 30
0.0
 40
8.000000000000066
100
AcDbArc
 50
0.00101402844061
 51
90.0
  0
ARC
  5
1C2
330
4B
100
AcDbEntity
  8
SL817433-W-104
  6
Continuous
 62
     7
100
AcDbCircle
 10
559.0764520729517
 20
22686.3724899907
 30
0.0
 40
21288.05432177566
100
AcDbArc
 50
269.2074390867836
 51
270.0
  0
CIRCLE
  5
1C3
330
4B
100
AcDbEntity
  8
SL817433-W-104
  6
Continuous
 62
     7
100
AcDbCircle
 10
559.1316965900969
 20
1633.21799016151
 30
0.0
 40
37.45783420138923
  0
CIRCLE
  5
1C4
330
4B
100
AcDbEntity
  8
SL817433-W-104
  6
Continuous
 62
     7
100
AcDbCircle
 10
559.1316965900969
 20
1633.21799016151
 30
0.0
 40
23.00496961805584
  0
CIRCLE
  5
1C5
330
4B
100
AcDbEntity
  8
SL817433-W-104
  6
Continuous
 62
     7
100
AcDbCircle
 10
559.1289405137081
 20
1798.21799016028
 30
0.0
 40
19.0
  0
ENDBLK
  5
4D
330
4B
100
AcDbEntity
  8
0
100
AcDbBlockEnd
  0
BLOCK
  5
1F2
330
1EB
100
AcDbEntity
  8
0
100
AcDbBlockBegin
  2
*D3
 70
     1
 10
0.0
 20
0.0
 30
0.0
  3
*D3
  1

  0
LINE
  5
1EC
330
1EB
100
AcDbEntity
  8
1
  6
Continuous
 62
     2
100
AcDbLine
 10
938.8781313716331
 20
1633.21799016028
 30
0.0
 11
938.8781313716331
 21
1798.21799016028
 31
0.0
  0
LINE
  5
1ED
330
1EB
100
AcDbEntity
  8
1
  6
Continuous
 62
     2
100
AcDbLine
 10
882.8781313716331
 20
1633.21799016028
 30
0.0
 11
946.8781313716331
 21
1633.21799016028
 31
0.0
  0
LINE
  5
1EE
330
1EB
100
AcDbEntity
  8
1
  6
Continuous
 62
     2
100
AcDbLine
 10
597.1289405137081
 20
1798.21799016028
 30
0.0
 11
946.8781313716331
 21
1798.21799016028
 31
0.0
  0
SOLID
  5
1EF
330
1EB
100
AcDbEntity
  8
1
 62
     2
100
AcDbTrace
 10
935.191861439186
 20
1661.21799016028
 30
0.0
 11
942.5644013040802
 21
1661.21799016028
 31
0.0
 12
938.8781313716331
 22
1633.21799016028
 32
0.0
 13
938.8781313716331
 23
1633.21799016028
 33
0.0
  0
SOLID
  5
1F0
330
1EB
100
AcDbEntity
  8
1
 62
     2
100
AcDbTrace
 10
942.5644013040802
 20
1770.21799016028
 30
0.0
 11
935.191861439186
 21
1770.21799016028
 31
0.0
 12
938.8781313716331
 22
1798.21799016028
 32
0.0
 13
938.8781313716331
 23
1798.21799016028
 33
0.0
  0
MTEXT
  5
1F1
330
1EB
100
AcDbEntity
  8
1
 62
     7
100
AcDbMText
 10
930.8781313716331
 20
1691.02956079902
 30
0.0
 40
28.0
 41
0.0
 71
     7
 72
     1
  1
165
  7
CONVERTER_12
 11
0.0
 21
1.0
 31
0.0
 73
     1
 44
0.60024009603842
  0
ENDBLK
  5
1F3
330
1EB
100
AcDbEntity
  8
0
100
AcDbBlockEnd
  0
BLOCK
  5
1FD
330
1F6
100
AcDbEntity
  8
0
100
AcDbBlockBegin
  2
*D4
 70
     1
 10
0.0
 20
0.0
 30
0.0
  3
*D4
  1

  0
LINE
  5
1F7
330
1F6
100
AcDbEntity
  8
1
  6
Continuous
 62
     2
100
AcDbLine
 10
1002.878131371633
 20
1633.21799016028
 30
0.0
 11
1002.878131371633
 21
1858.21799016028
 31
0.0
  0
LINE
  5
1F8
330
1F6
100
AcDbEntity
  8
1
  6
Continuous
 62
     2
100
AcDbLine
 10
882.8781313716331
 20
1633.21799016028
 30
0.0
 11
1010.878131371633
 21
1633.21799016028
 31
0.0
  0
LINE
  5
1F9
330
1F6
100
AcDbEntity
  8
1
  6
Continuous
 62
     2
100
AcDbLine
 10
852.8781313716331
 20
1858.21799016028
 30
0.0
 11
1010.878131371633
 21
1858.21799016028
 31
0.0
  0
SOLID
  5
1FA
330
1F6
100
AcDbEntity
  8
1
 62
     2
100
AcDbTrace
 10
999.191861439186
 20
1661.21799016028
 30
0.0
 11
1006.56440130408
 21
1661.21799016028
 31
0.0
 12
1002.878131371633
 22
1633.21799016028
 32
0.0
 13
1002.878131371633
 23
1633.21799016028
 33
0.0
  0
SOLID
  5
1FB
330
1F6
100
AcDbEntity
  8
1
 62
     2
100
AcDbTrace
 10
1006.56440130408
 20
1830.21799016028
 30
0.0
 11
999.191861439186
 21
1830.21799016028
 31
0.0
 12
1002.878131371633
 22
1858.21799016028
 32
0.0
 13
1002.878131371633
 23
1858.21799016028
 33
0.0
  0
MTEXT
  5
1FC
330
1F6
100
AcDbEntity
  8
1
 62
     7
100
AcDbMText
 10
994.8781313716331
 20
1708.92435756595
 30
0.0
 40
28.0
 41
0.0
 71
     7
 72
     1
  1
225
  7
CONVERTER_12
 11
0.0
 21
1.0
 31
0.0
 73
     1
 44
0.60024009603842
  0
ENDBLK
  5
1FE
330
1F6
100
AcDbEntity
  8
0
100
AcDbBlockEnd
  0
BLOCK
  5
20A
330
201
100
AcDbEntity
  8
0
100
AcDbBlockBegin
  2
*D5
 70
     1
 10
0.0
 20
0.0
 30
0.0
  3
*D5
  1

  0
LINE
  5
202
330
201
100
AcDbEntity
  8
1
  6
Continuous
 62
     2
100
AcDbLine
 10
938.8781313716331
 20
789.363279042904
 30
0.0
 11
938.8781313716331
 21
845.363279042904
 31
0.0
  0
LINE
  5
203
330
201
100
AcDbEntity
  8
1
  6
Continuous
 62
     2
100
AcDbLine
 10
938.8781313716331
 20
845.363279042904
 30
0.0
 11
938.8781313716331
 21
895.358504737349
 31
0.0
  0
LINE
  5
204
330
201
100
AcDbEntity
  8
1
  6
Continuous
 62
     2
100
AcDbLine
 10
938.8781313716331
 20
895.358504737349
 30
0.0
 11
938.8781313716331
 21
996.358504737349
 31
0.0
  0
LINE
  5
205
330
201
100
AcDbEntity
  8
1
  6
Continuous
 62
     2
100
AcDbLine
 10
728.9774128038475
 20
845.363279042904
 30
0.0
 11
946.8781313716331
 21
845.363279042904
 31
0.0
  0
LINE
  5
206
330
201
100
AcDbEntity
  8
1
  6
Continuous
 62
     2
100
AcDbLine
 10
851.0879896834567
 20
895.358504737349
 30
0.0
 11
946.8781313716331
 21
895.358504737349
 31
0.0
  0
SOLID
  5
207
330
201
100
AcDbEntity
  8
1
 62
     2
100
AcDbTrace
 10
942.5644013040802
 20
817.363279042904
 30
0.0
 11
935.191861439186
 21
817.363279042904
 31
0.0
 12
938.8781313716331
 22
845.363279042904
 32
0.0
 13
938.8781313716331
 23
845.363279042904
 33
0.0
  0
SOLID
  5
208
330
201
100
AcDbEntity
  8
1
 62
     2
100
AcDbTrace
 10
935.191861439186
 20
923.358504737349
 30
0.0
 11
942.5644013040802
 21
923.358504737349
 31
0.0
 12
938.8781313716331
 22
895.358504737349
 32
0.0
 13
938.8781313716331
 23
895.358504737349
 33
0.0
  0
MTEXT
  5
209
330
201
100
AcDbEntity
  8
1
 62
     7
100
AcDbMText
 10
930.8781313716331
 20
954.358504737349
 30
0.0
 40
28.0
 41
0.0
 71
     7
 72
     1
  1
50
  7
CONVERTER_12
 11
0.0
 21
1.0
 31
0.0
 73
     1
 44
0.60024009603842
  0
ENDBLK
  5
20B
330
201
100
AcDbEntity
  8
0
100
AcDbBlockEnd
  0
BLOCK
  5
215
330
20E
100
AcDbEntity
  8
0
100
AcDbBlockBegin
  2
*D6
 70
     1
 10
0.0
 20
0.0
 30
0.0
  3
*D6
  1

  0
LINE
  5
20F
330
20E
100
AcDbEntity
  8
1
  6
Continuous
 62
     2
100
AcDbLine
 10
1066.878131371633
 20
1398.318168215043
 30
0.0
 11
1066.878131371633
 21
1858.21799016028
 31
0.0
  0
LINE
  5
210
330
20E
100
AcDbEntity
  8
1
  6
Continuous
 62
     2
100
AcDbLine
 10
852.8781313716329
 20
1858.21799016028
 30
0.0
 11
1074.878131371633
 21
1858.21799016028
 31
0.0
  0
LINE
  5
211
330
20E
100
AcDbEntity
  8
1
  6
Continuous
 62
     2
100
AcDbLine
 10
559.0764520729515
 20
1398.318168215043
 30
0.0
 11
1074.878131371633
 21
1398.318168215043
 31
0.0
  0
SOLID
  5
212
330
20E
100
AcDbEntity
  8
1
 62
     2
100
AcDbTrace
 10
1063.191861439186
 20
1426.318168215043
 30
0.0
 11
1070.56440130408
 21
1426.318168215043
 31
0.0
 12
1066.878131371633
 22
1398.318168215043
 32
0.0
 13
1066.878131371633
 23
1398.318168215043
 33
0.0
  0
SOLID
  5
213
330
20E
100
AcDbEntity
  8
1
 62
     2
100
AcDbTrace
 10
1070.56440130408
 20
1830.21799016028
 30
0.0
 11
1063.191861439186
 21
1830.21799016028
 31
0.0
 12
1066.878131371633
 22
1858.21799016028
 32
0.0
 13
1066.878131371633
 23
1858.21799016028
 33
0.0
  0
MTEXT
  5
214
330
20E
100
AcDbEntity
  8
1
 62
     7
100
AcDbMText
 10
1058.878131371633
 20
1584.85680056737
 30
0.0
 40
28.0
 41
0.0
 71
     7
 72
     1
  1
460
  7
CONVERTER_12
 11
0.0
 21
1.0
 31
0.0
 73
     1
 44
0.60024009603842
  0
ENDBLK
  5
216
330
20E
100
AcDbEntity
  8
0
100
AcDbBlockEnd
  0
BLOCK
  5
220
330
219
100
AcDbEntity
  8
0
100
AcDbBlockBegin
  2
*D7
 70
     1
 10
0.0
 20
0.0
 30
0.0
  3
*D7
  1

  0
LINE
  5
21A
330
219
100
AcDbEntity
  8
1
  6
Continuous
 62
     2
100
AcDbLine
 10
259.2747727736589
 20
1318.318168215043
 30
0.0
 11
858.8781313716331
 21
1318.318168215043
 31
0.0
  0
LINE
  5
21B
330
219
100
AcDbEntity
  8
1
  6
Continuous
 62
     2
100
AcDbLine
 10
259.2747727736589
 20
1406.31816827852
 30
0.0
 11
259.2747727736589
 21
1310.318168215043
 31
0.0
  0
LINE
  5
21C
330
219
100
AcDbEntity
  8
1
  6
Continuous
 62
     2
100
AcDbLine
 10
858.8781313716331
 20
1406.31816827974
 30
0.0
 11
858.8781313716331
 21
1310.318168215043
 31
0.0
  0
SOLID
  5
21D
330
219
100
AcDbEntity
  8
1
 62
     2
100
AcDbTrace
 10
287.2747727736589
 20
1322.00443814749
 30
0.0
 11
287.2747727736589
 21
1314.631898282596
 31
0.0
 12
259.2747727736589
 22
1318.318168215043
 32
0.0
 13
259.2747727736589
 23
1318.318168215043
 33
0.0
  0
SOLID
  5
21E
330
219
100
AcDbEntity
  8
1
 62
     2
100
AcDbTrace
 10
830.8781313716331
 20
1314.631898282596
 30
0.0
 11
830.8781313716331
 21
1322.00443814749
 31
0.0
 12
858.8781313716331
 22
1318.318168215043
 32
0.0
 13
858.8781313716331
 23
1318.318168215043
 33
0.0
  0
MTEXT
  5
21F
330
219
100
AcDbEntity
  8
1
 62
     7
100
AcDbMText
 10
529.796186094743
 20
1326.318168215043
 30
0.0
 40
28.0
 41
0.0
 71
     7
 72
     1
  1
600
  7
CONVERTER_12
 11
0.9999999999970619
 21
2.424068405545306E-6
 31
0.0
 73
     1
 44
0.60024009603842
  0
ENDBLK
  5
221
330
219
100
AcDbEntity
  8
0
100
AcDbBlockEnd
  0
BLOCK
  5
22B
330
224
100
AcDbEntity
  8
0
100
AcDbBlockBegin
  2
*D8
 70
     1
 10
0.0
 20
0.0
 30
0.0
  3
*D8
  1

  0
LINE
  5
225
330
224
100
AcDbEntity
  8
1
  6
Continuous
 62
     2
100
AcDbLine
 10
1002.878131371633
 20
755.360848487348
 30
0.0
 11
1002.878131371633
 21
895.358504737349
 31
0.0
  0
LINE
  5
226
330
224
100
AcDbEntity
  8
1
  6
Continuous
 62
     2
100
AcDbLine
 10
851.0879896834567
 20
895.358504737349
 30
0.0
 11
1010.878131371633
 21
895.358504737349
 31
0.0
  0
LINE
  5
227
330
224
100
AcDbEntity
  8
1
  6
Continuous
 62
     2
100
AcDbLine
 10
852.8967796563061
 20
755.360848487348
 30
0.0
 11
1010.878131371633
 21
755.360848487348
 31
0.0
  0
SOLID
  5
228
330
224
100
AcDbEntity
  8
1
 62
     2
100
AcDbTrace
 10
999.191861439186
 20
783.360848487348
 30
0.0
 11
1006.56440130408
 21
783.360848487348
 31
0.0
 12
1002.878131371633
 22
755.360848487348
 32
0.0
 13
1002.878131371633
 23
755.360848487348
 33
0.0
  0
SOLID
  5
229
330
224
100
AcDbEntity
  8
1
 62
     2
100
AcDbTrace
 10
1006.56440130408
 20
867.358504737349
 30
0.0
 11
999.191861439186
 21
867.358504737349
 31
0.0
 12
1002.878131371633
 22
895.358504737349
 32
0.0
 13
1002.878131371633
 23
895.358504737349
 33
0.0
  0
MTEXT
  5
22A
330
224
100
AcDbEntity
  8
1
 62
     7
100
AcDbMText
 10
994.8781313716331
 20
808.749863357895
 30
0.0
 40
28.0
 41
0.0
 71
     7
 72
     1
  1
140
  7
CONVERTER_12
 11
0.0
 21
1.0
 31
0.0
 73
     1
 44
0.60024009603842
  0
ENDBLK
  5
22C
330
224
100
AcDbEntity
  8
0
100
AcDbBlockEnd
  0
BLOCK
  5
236
330
22F
100
AcDbEntity
  8
0
100
AcDbBlockBegin
  2
*D9
 70
     1
 10
0.0
 20
0.0
 30
0.0
  3
*D9
  1

  0
LINE
  5
230
330
22F
100
AcDbEntity
  8
1
  6
Continuous
 62
     2
100
AcDbLine
 10
1570.99999127129
 20
740.358504737349
 30
0.0
 11
1570.99999127129
 21
895.358504737349
 31
0.0
  0
LINE
  5
231
330
22F
100
AcDbEntity
  8
1
  6
Continuous
 62
     2
100
AcDbLine
 10
1285.30472990871
 20
740.358504737349
 30
0.0
 11
1578.99999127129
 21
740.358504737349
 31
0.0
  0
LINE
  5
232
330
22F
100
AcDbEntity
  8
1
  6
Continuous
 62
     2
100
AcDbLine
 10
1484.68487286309
 20
895.358504737349
 30
0.0
 11
1578.99999127129
 21
895.358504737349
 31
0.0
  0
SOLID
  5
233
330
22F
100
AcDbEntity
  8
1
 62
     2
100
AcDbTrace
 10
1567.313721338843
 20
768.358504737349
 30
0.0
 11
1574.686261203737
 21
768.358504737349
 31
0.0
 12
1570.99999127129
 22
740.358504737349
 32
0.0
 13
1570.99999127129
 23
740.358504737349
 33
0.0
  0
SOLID
  5
234
330
22F
100
AcDbEntity
  8
1
 62
     2
100
AcDbTrace
 10
1574.686261203737
 20
867.358504737349
 30
0.0
 11
1567.313721338843
 21
867.358504737349
 31
0.0
 12
1570.99999127129
 22
895.358504737349
 32
0.0
 13
1570.99999127129
 23
895.358504737349
 33
0.0
  0
MTEXT
  5
235
330
22F
100
AcDbEntity
  8
1
 62
     7
100
AcDbMText
 10
1562.99999127129
 20
787.839168961466
 30
0.0
 40
28.0
 41
0.0
 71
     7
 72
     1
  1
155
  7
CONVERTER_12
 11
0.0
 21
1.0
 31
0.0
 73
     1
 44
0.60024009603842
  0
ENDBLK
  5
237
330
22F
100
AcDbEntity
  8
0
100
AcDbBlockEnd
  0
BLOCK
  5
241
330
23A
100
AcDbEntity
  8
0
100
AcDbBlockBegin
  2
*D10
 70
     1
 10
0.0
 20
0.0
 30
0.0
  3
*D10
  1

  0
LINE
  5
23B
330
23A
100
AcDbEntity
  8
1
  6
Continuous
 62
     2
100
AcDbLine
 10
419.2470394720422
 20
975.358504737349
 30
0.0
 11
699.010841555375
 21
975.358504737349
 31
0.0
  0
LINE
  5
23C
330
23A
100
AcDbEntity
  8
1
  6
Continuous
 62
     2
100
AcDbLine
 10
419.2470394720422
 20
865.3558571679041
 30
0.0
 11
419.2470394720422
 21
983.358504737349
 31
0.0
  0
LINE
  5
23D
330
23A
100
AcDbEntity
  8
1
  6
Continuous
 62
     2
100
AcDbLine
 10
699.010841555375
 20
865.3558571679041
 30
0.0
 11
699.010841555375
 21
983.358504737349
 31
0.0
  0
SOLID
  5
23E
330
23A
100
AcDbEntity
  8
1
 62
     2
100
AcDbTrace
 10
447.2470394720422
 20
979.0447746697961
 30
0.0
 11
447.2470394720422
 21
971.6722348049019
 31
0.0
 12
419.2470394720422
 22
975.358504737349
 32
0.0
 13
419.2470394720422
 23
975.358504737349
 33
0.0
  0
SOLID
  5
23F
330
23A
100
AcDbEntity
  8
1
 62
     2
100
AcDbTrace
 10
671.010841555375
 20
971.6722348049019
 30
0.0
 11
671.010841555375
 21
979.0447746697961
 31
0.0
 12
699.010841555375
 22
975.358504737349
 32
0.0
 13
699.010841555375
 23
975.358504737349
 33
0.0
  0
MTEXT
  5
240
330
23A
100
AcDbEntity
  8
1
 62
     7
100
AcDbMText
 10
532.012533657054
 20
983.358504737349
 30
0.0
 40
28.0
 41
0.0
 71
     7
 72
     1
  1
280
  7
CONVERTER_12
 11
0.9999999999970619
 21
2.424068405545306E-6
 31
0.0
 73
     1
 44
0.60024009603842
  0
ENDBLK
  5
242
330
23A
100
AcDbEntity
  8
0
100
AcDbBlockEnd
  0
BLOCK
  5
24A
330
245
100
AcDbEntity
  8
0
100
AcDbBlockBegin
  2
*D11
 70
     1
 10
0.0
 20
0.0
 30
0.0
  3
*D11
  1

  0
LINE
  5
246
330
245
100
AcDbEntity
  8
1
  6
Continuous
 62
     2
100
AcDbLine
 10
513.1670319967712
 20
1679.184235210104
 30
0.0
 11
666.0154176620275
 21
1526.3305939852
 31
0.0
  0
SOLID
  5
247
330
245
100
AcDbEntity
  8
1
 62
     2
100
AcDbTrace
 10
597.8036677161103
 20
1599.757951892218
 30
0.0
 11
592.5904051601638
 21
1594.544868583636
 31
0.0
 12
575.3983869475658
 22
1616.950740487951
 32
0.0
 13
575.3983869475658
 23
1616.950740487951
 33
0.0
  0
SOLID
  5
248
330
245
100
AcDbEntity
  8
1
 62
     2
100
AcDbTrace
 10
520.4597254640835
 20
1666.678028430801
 30
0.0
 11
525.6729880200301
 21
1671.891111739383
 31
0.0
 12
542.865006232628
 22
1649.485239835069
 32
0.0
 13
542.865006232628
 23
1649.485239835069
 33
0.0
  0
MTEXT
  5
249
330
245
100
AcDbEntity
  8
1
 62
     7
100
AcDbMText
 10
625.7395023439092
 20
1577.921797162561
 30
0.0
 40
28.0
 41
0.0
 71
     7
 72
     1
  1
\C7;{\Fgdt;n}\C7;46
  7
CONVERTER_12
 11
0.7070946246632575
 21
-0.7071189375008474
 31
0.0
 73
     1
 44
0.60024009603842
  0
ENDBLK
  5
24B
330
245
100
AcDbEntity
  8
0
100
AcDbBlockEnd
  0
ENDSEC
  0
SECTION
  2
ENTITIES
  0
INSERT
  5
4E
330
1F
100
AcDbEntity
  8
1
100
AcDbBlockReference
  2
開示A4
 10
0.0
 20
0.0
 30
0.0
 41
8.0
 42
8.0
 43
8.0
  0
INSERT
  5
4F
330
1F
100
AcDbEntity
  8
0
100
AcDbBlockReference
  2
SL817433-W-104
 10
1630.0
 20
0.0
 30
0.0
  0
LINE
  5
1C6
330
1F
100
AcDbEntity
  8
1
  6
DASH_CENTER
 62
     2
100
AcDbLine
 10
235.2747727733476
 20
1633.21799016028
 30
0.0
 11
882.8781313716331
 21
1633.21799016028
 31
0.0
  0
LINE
  5
1C7
330
1F
100
AcDbEntity
  8
1
  6
DASH_CENTER
 62
     2
100
AcDbLine
 10
559.128940512209
 20
1882.21799016028
 30
0.0
 11
559.128940512209
 21
1374.318168279751
 31
0.0
  0
LINE
  5
1C8
330
1F
100
AcDbEntity
  8
1
  6
DASH_CENTER
 62
     2
100
AcDbLine
 10
559.128940512209
 20
919.358504737349
 30
0.0
 11
559.128940512209
 21
731.360848487348
 31
0.0
  0
LINE
  5
1C9
330
1F
100
AcDbEntity
  8
1
  6
DASH_CENTER
 62
     2
100
AcDbLine
 10
389.2804442199624
 20
845.363279042904
 30
0.0
 11
449.1915743365755
 21
845.363279042904
 31
0.0
  0
LINE
  5
1CA
330
1F
100
AcDbEntity
  8
1
  6
DASH_CENTER
 62
     2
100
AcDbLine
 10
419.2470394720422
 20
865.3558571679041
 30
0.0
 11
419.2470394720422
 21
825.359676612348
 31
0.0
  0
LINE
  5
1CB
330
1F
100
AcDbEntity
  8
1
  6
DASH_CENTER
 62
     2
100
AcDbLine
 10
699.010841555375
 20
865.3558571679041
 30
0.0
 11
699.010841555375
 21
825.359676612348
 31
0.0
  0
LINE
  5
1CC
330
1F
100
AcDbEntity
  8
1
  6
DASH_CENTER
 62
     2
100
AcDbLine
 10
669.0442820833366
 20
845.363279042904
 30
0.0
 11
728.9774128038475
 21
845.363279042904
 31
0.0
  0
LINE
  5
1CD
330
1F
100
AcDbEntity
  8
1
  6
DASH_CENTER
 62
     2
100
AcDbLine
 10
1254.425714876624
 20
716.358504737349
 30
0.0
 11
1254.425714876624
 21
919.358504737349
 31
0.0
  0
LINE
  5
1CE
330
1F
100
AcDbEntity
  8
1
  6
DASH_CENTER
 62
     2
100
AcDbLine
 10
597.1289405137081
 20
1798.21799016028
 30
0.0
 11
521.1289405137081
 21
1798.21799016028
 31
0.0
  0
LINE
  5
1CF
330
1F
100
AcDbEntity
  8
1
  6
DASH_CENTER
 62
     2
100
AcDbLine
 10
696.824650412276
 20
1795.81254280939
 30
0.0
 11
621.4361820058045
 21
1795.81254280939
 31
0.0
  0
LINE
  5
1D0
330
1F
100
AcDbEntity
  8
1
  6
DASH_CENTER
 62
     2
100
AcDbLine
 10
659.1304162075412
 20
1833.506777014125
 30
0.0
 11
659.1304162075412
 21
1758.118308607653
 31
0.0
  0
LINE
  5
1D1
330
1F
100
AcDbEntity
  8
1
  6
DASH_CENTER
 62
     2
100
AcDbLine
 10
459.1274648186518
 20
1833.506777014125
 30
0.0
 11
459.1274648186518
 21
1758.118308607653
 31
0.0
  0
LINE
  5
1D2
330
1F
100
AcDbEntity
  8
1
  6
DASH_CENTER
 62
     2
100
AcDbLine
 10
496.8216990233866
 20
1795.81254280939
 30
0.0
 11
421.4332306169151
 21
1795.81254280939
 31
0.0
  0
MTEXT
  5
1D4
330
1F
100
AcDbEntity
  8
1
 62
     7
100
AcDbMText
 10
1175.83877051339
 20
246.468452412484
 30
0.0
 40
28.0
 41
0.0
 71
     5
 72
     1
  1
kg
  7
CONVERTER_12
 73
     1
 44
0.7202881152461
  0
MTEXT
  5
1D5
330
1F
100
AcDbEntity
  8
1
 62
     7
100
AcDbMText
 10
852.0
 20
152.0000000000001
 30
0.0
 40
40.0
 41
0.0
 71
     5
 72
     1
  1
牧
  7
CONVERTER_11
 73
     1
 44
0.54545454545455
  0
MTEXT
  5
1D6
330
1F
100
AcDbEntity
  8
1
 62
     7
100
AcDbMText
 10
988.0
 20
152.0000000000001
 30
0.0
 40
40.0
 41
0.0
 71
     5
 72
     1
  1
上村
  7
CONVERTER_11
 73
     1
 44
0.54545454545455
  0
MTEXT
  5
1D7
330
1F
100
AcDbEntity
  8
1
 62
     7
100
AcDbMText
 10
852.0
 20
100.0
 30
0.0
 40
20.0
 41
0.0
 71
     5
 72
     1
  1
5
  7
CONVERTER_12
 73
     1
 44
0.7202881152461
  0
MTEXT
  5
1D8
330
1F
100
AcDbEntity
  8
1
 62
     7
100
AcDbMText
 10
898.0
 20
100.0
 30
0.0
 40
20.0
 41
0.0
 71
     5
 72
     1
  1
11
  7
CONVERTER_12
 73
     1
 44
0.7202881152461
  0
MTEXT
  5
1D9
330
1F
100
AcDbEntity
  8
1
 62
     7
100
AcDbMText
 10
806.0
 20
100.0
 30
0.0
 40
20.0
 41
0.0
 71
     5
 72
     1
  1
17
  7
CONVERTER_12
 73
     1
 44
0.7202881152461
  0
MTEXT
  5
1DA
330
1F
100
AcDbEntity
  8
1
 62
     7
100
AcDbMText
 10
942.0
 20
100.0
 30
0.0
 40
20.0
 41
0.0
 71
     5
 72
     1
  1
17
  7
CONVERTER_12
 73
     1
 44
0.7202881152461
  0
MTEXT
  5
1DB
330
1F
100
AcDbEntity
  8
1
 62
     7
100
AcDbMText
 10
1034.0
 20
100.0
 30
0.0
 40
20.0
 41
0.0
 71
     5
 72
     1
  1
26
  7
CONVERTER_12
 73
     1
 44
0.7202881152461
  0
MTEXT
  5
1DC
330
1F
100
AcDbEntity
  8
1
 62
     7
100
AcDbMText
 10
988.0
 20
100.0
 30
0.0
 40
20.0
 41
0.0
 71
     5
 72
     1
  1
4
  7
CONVERTER_12
 73
     1
 44
0.7202881152461
  0
MTEXT
  5
1DD
330
1F
100
AcDbEntity
  8
1
 62
     7
100
AcDbMText
 10
272.0
 20
248.3333333333334
 30
0.0
 40
28.0
 41
0.0
 71
     4
 72
     1
  1
容量：9,6L・オーバーフロー付・水栓取付穴径{\Fgdt;n}38・重量：18,6
  7
CONVERTER_11
 73
     1
 44
0.54545454545455
  0
MTEXT
  5
1DE
330
1F
100
AcDbEntity
  8
1
 62
     7
100
AcDbMText
 10
272.0
 20
295.6666666666667
 30
0.0
 40
28.0
 41
0.0
 71
     4
 72
     1
  1
シリーズ名：livingcity(LAUFEN)
  7
CONVERTER_11
 73
     1
 44
0.54545454545455
  0
MTEXT
  5
1DF
330
1F
100
AcDbEntity
  8
1
 62
     7
100
AcDbMText
 10
456.0
 20
114.0
 30
0.0
 40
28.0
 41
0.0
 71
     5
 72
     1
  1
SL817433-W-104
  7
CONVERTER_12
 73
     1
 44
0.7202881152461
  0
MTEXT
  5
1E0
330
1F
100
AcDbEntity
  8
1
 62
     7
100
AcDbMText
 10
456.0
 20
182.0000000000001
 30
0.0
 40
28.0
 41
0.0
 71
     5
 72
     1
  1
洗面器
  7
CONVERTER_11
 73
     1
 44
0.54545454545455
  0
MTEXT
  5
1E1
330
1F
100
AcDbEntity
  8
1
 62
     7
100
AcDbMText
 10
750.0
 20
136.0
 30
0.0
 40
28.0
 41
0.0
 71
     5
 72
     1
  1
8
  7
CONVERTER_12
 73
     1
 44
0.7202881152461
  0
MTEXT
  5
1E2
330
1F
100
AcDbEntity
  8
1
 62
     7
100
AcDbMText
 10
682.0
 20
136.0
 30
0.0
 40
28.0
 41
0.0
 71
     5
 72
     1
  1
1
  7
CONVERTER_12
 73
     1
 44
0.7202881152461
  0
MTEXT
  5
1E3
330
1F
100
AcDbEntity
  8
1
 62
     7
100
AcDbMText
 10
1260.0
 20
100.0
 30
0.0
 40
20.0
 41
0.0
 71
     5
 72
     1
  1
4
  7
CONVERTER_12
 73
     1
 44
0.7202881152461
  0
MTEXT
  5
1E4
330
1F
100
AcDbEntity
  8
1
 62
     7
100
AcDbMText
 10
1306.0
 20
100.0
 30
0.0
 40
20.0
 41
0.0
 71
     5
 72
     1
  1
21
  7
CONVERTER_12
 73
     1
 44
0.7202881152461
  0
MTEXT
  5
1E5
330
1F
100
AcDbEntity
  8
1
 62
     7
100
AcDbMText
 10
1214.0
 20
100.0
 30
0.0
 40
20.0
 41
0.0
 71
     5
 72
     1
  1
17
  7
CONVERTER_12
 73
     1
 44
0.7202881152461
  0
MTEXT
  5
1E6
330
1F
100
AcDbEntity
  8
1
 62
     7
100
AcDbMText
 10
1078.0
 20
100.0
 30
0.0
 40
20.0
 41
0.0
 71
     5
 72
     1
  1
17
  7
CONVERTER_12
 73
     1
 44
0.7202881152461
  0
MTEXT
  5
1E7
330
1F
100
AcDbEntity
  8
1
 62
     7
100
AcDbMText
 10
1170.0
 20
100.0
 30
0.0
 40
20.0
 41
0.0
 71
     5
 72
     1
  1
21
  7
CONVERTER_12
 73
     1
 44
0.7202881152461
  0
MTEXT
  5
1E8
330
1F
100
AcDbEntity
  8
1
 62
     7
100
AcDbMText
 10
1124.0
 20
100.0
 30
0.0
 40
20.0
 41
0.0
 71
     5
 72
     1
  1
4
  7
CONVERTER_12
 73
     1
 44
0.7202881152461
  0
MTEXT
  5
1E9
330
1F
100
AcDbEntity
  8
1
 62
     7
100
AcDbMText
 10
1260.0
 20
152.0000000000001
 30
0.0
 40
40.0
 41
0.0
 71
     5
 72
     1
  1
福永
  7
CONVERTER_11
 73
     1
 44
0.54545454545455
  0
MTEXT
  5
1EA
330
1F
100
AcDbEntity
  8
1
 62
     7
100
AcDbMText
 10
1124.0
 20
152.0000000000001
 30
0.0
 40
40.0
 41
0.0
 71
     5
 72
     1
  1
川村
  7
CONVERTER_11
 73
     1
 44
0.54545454545455
  0
DIMENSION
  5
1F5
330
1F
100
AcDbEntity
  8
1
100
AcDbDimension
  2
*D3
 10
938.8781313716331
 20
1633.21799016028
 30
0.0
 11
916.8781313716331
 21
1720.42956079902
 31
0.0
 70
    32
  1
<>
 71
     5
 42
-1.0
 53
90.0
  3
ME10_DIM_10
100
AcDbAlignedDimension
 13
597.1289405137081
 23
1798.21799016028
 33
0.0
 14
882.8781313716331
 24
1633.21799016028
 34
0.0
 50
90.0
100
AcDbRotatedDimension
  0
DIMENSION
  5
200
330
1F
100
AcDbEntity
  8
1
100
AcDbDimension
  2
*D4
 10
1002.878131371633
 20
1633.21799016028
 30
0.0
 11
980.8781313716331
 21
1742.52435756595
 31
0.0
 70
    32
  1
<>
 71
     5
 42
-1.0
 53
90.0
  3
ME10_DIM_11
100
AcDbAlignedDimension
 13
852.8781313716331
 23
1858.21799016028
 33
0.0
 14
882.8781313716331
 24
1633.21799016028
 34
0.0
 50
90.0
100
AcDbRotatedDimension
  0
DIMENSION
  5
20D
330
1F
100
AcDbEntity
  8
1
100
AcDbDimension
  2
*D5
 10
938.8781313716331
 20
845.363279042904
 30
0.0
 11
916.8781313716331
 21
975.358504737349
 31
0.0
 70
    32
  1
<>
 71
     5
 42
-1.0
 53
90.0
  3
ME10_DIM_12
100
AcDbAlignedDimension
 13
851.0879896834567
 23
895.358504737349
 33
0.0
 14
728.9774128038475
 24
845.363279042904
 34
0.0
 50
90.0
100
AcDbRotatedDimension
  0
DIMENSION
  5
218
330
1F
100
AcDbEntity
  8
1
100
AcDbDimension
  2
*D6
 10
1066.878131371633
 20
1398.318168215043
 30
0.0
 11
1044.878131371633
 21
1618.45680056737
 31
0.0
 70
    32
  1
460
 71
     5
 42
-1.0
 53
90.0
  3
ME10_DIM_13
100
AcDbAlignedDimension
 13
852.8781313716331
 23
1858.21799016028
 33
0.0
 14
559.0764520729517
 24
1398.318168215043
 34
0.0
 50
90.0
100
AcDbRotatedDimension
  0
DIMENSION
  5
223
330
1F
100
AcDbEntity
  8
1
100
AcDbDimension
  2
*D7
 10
259.2747727736589
 20
1318.318168215043
 30
0.0
 11
563.396186094743
 21
1340.318168215043
 31
0.0
 70
    32
  1
600
 71
     5
 42
-1.0
 53
0.00013888888889
  3
ME10_DIM_14
100
AcDbAlignedDimension
 13
858.8781313716331
 23
1406.31816827974
 33
0.0
 14
259.2747727736589
 24
1406.31816827852
 34
0.0
100
AcDbRotatedDimension
  0
DIMENSION
  5
22E
330
1F
100
AcDbEntity
  8
1
100
AcDbDimension
  2
*D8
 10
1002.878131371633
 20
755.360848487348
 30
0.0
 11
980.8781313716331
 21
838.149863357895
 31
0.0
 70
    32
  1
<>
 71
     5
 42
-1.0
 53
90.0
  3
ME10_DIM_15
100
AcDbAlignedDimension
 13
851.0879896834567
 23
895.358504737349
 33
0.0
 14
852.8967796563061
 24
755.360848487348
 34
0.0
 50
90.0
100
AcDbRotatedDimension
  0
DIMENSION
  5
239
330
1F
100
AcDbEntity
  8
1
100
AcDbDimension
  2
*D9
 10
1570.99999127129
 20
740.358504737349
 30
0.0
 11
1548.99999127129
 21
817.239168961466
 31
0.0
 70
    32
  1
<>
 71
     5
 42
-1.0
 53
90.0
  3
ME10_DIM_16
100
AcDbAlignedDimension
 13
1484.68487286309
 23
895.358504737349
 33
0.0
 14
1285.30472990871
 24
740.358504737349
 34
0.0
 50
90.0
100
AcDbRotatedDimension
  0
DIMENSION
  5
244
330
1F
100
AcDbEntity
  8
1
100
AcDbDimension
  2
*D10
 10
419.2470394720422
 20
975.358504737349
 30
0.0
 11
565.612533657054
 21
997.358504737349
 31
0.0
 70
    32
  1
280
 71
     5
 42
-1.0
 53
0.00013888888889
  3
ME10_DIM_17
100
AcDbAlignedDimension
 13
699.010841555375
 23
865.3558571679041
 33
0.0
 14
419.2470394720422
 24
865.3558571679041
 34
0.0
100
AcDbRotatedDimension
  0
INSERT
  5
24C
330
1F
100
AcDbEntity
  8
1
100
AcDbBlockReference
  2
*D11
 10
0.0
 20
0.0
 30
0.0
  0
ENDSEC
  0
SECTION
  2
OBJECTS
  0
DICTIONARY
  5
C
330
0
100
AcDbDictionary
281
     1
  3
ACAD_GROUP
350
D
  3
ACAD_LAYOUT
350
1A
  3
ACAD_MATERIAL
350
3B
  3
ACAD_MLEADERSTYLE
350
24F
  3
ACAD_MLINESTYLE
350
17
  3
ACAD_PLOTSETTINGS
350
19
  3
ACAD_PLOTSTYLENAME
350
E
  3
ACAD_VISUALSTYLE
350
2A
  3
AcDbVariableDictionary
350
24D
  0
DICTIONARY
  5
D
102
{ACAD_REACTORS
330
C
102
}
330
C
100
AcDbDictionary
281
     1
  0
DICTIONARY
  5
1A
102
{ACAD_REACTORS
330
C
102
}
330
C
100
AcDbDictionary
281
     1
  3
Layout1
350
1E
  3
Layout2
350
26
  3
Model
350
22
  0
DICTIONARY
  5
3B
102
{ACAD_REACTORS
330
C
102
}
330
C
100
AcDbDictionary
281
     1
  3
ByBlock
350
3D
  3
ByLayer
350
3C
  3
Global
350
3E
  0
DICTIONARY
  5
24F
102
{ACAD_REACTORS
330
C
102
}
330
C
100
AcDbDictionary
281
     1
  0
DICTIONARY
  5
17
102
{ACAD_REACTORS
330
C
102
}
330
C
100
AcDbDictionary
281
     1
  3
Standard
350
18
  0
DICTIONARY
  5
19
102
{ACAD_REACTORS
330
C
102
}
330
C
100
AcDbDictionary
281
     1
  0
ACDBDICTIONARYWDFLT
  5
E
102
{ACAD_REACTORS
330
C
102
}
330
C
100
AcDbDictionary
281
     1
  3
Normal
350
F
100
AcDbDictionaryWithDefault
340
F
  0
DICTIONARY
  5
2A
102
{ACAD_REACTORS
330
C
102
}
330
C
100
AcDbDictionary
281
     1
  3
2dWireframe
350
2F
  3
3D Hidden
350
31
  3
3dWireframe
350
30
  3
Basic
350
32
  3
Brighten
350
36
  3
ColorChange
350
3A
  3
Conceptual
350
34
  3
Dim
350
35
  3
Facepattern
350
39
  3
Flat
350
2B
  3
FlatWithEdges
350
2C
  3
Gouraud
350
2D
  3
GouraudWithEdges
350
2E
  3
Linepattern
350
38
  3
Realistic
350
33
  3
Thicken
350
37
  0
DICTIONARY
  5
24D
102
{ACAD_REACTORS
330
C
102
}
330
C
100
AcDbDictionary
281
     1
  3
DIMASSOC
350
250
  3
HIDETEXT
350
251
  0
LAYOUT
  5
1E
102
{ACAD_REACTORS
330
1A
102
}
330
1A
100
AcDbPlotSettings
  1

  2
none_device
  4

  6

 40
0.0
 41
0.0
 42
0.0
 43
0.0
 44
0.0
 45
0.0
 46
0.0
 47
0.0
 48
0.0
 49
0.0
140
0.0
141
0.0
142
1.0
143
1.0
 70
   688
 72
     0
 73
     0
 74
     5
  7

 75
    16
147
1.0
148
0.0
149
0.0
100
AcDbLayout
  1
Layout1
 70
     1
 71
     1
 10
0.0
 20
0.0
 11
12.0
 21
9.0
 12
0.0
 22
0.0
 32
0.0
 14
1.00000000000000E+20
 24
1.00000000000000E+20
 34
1.00000000000000E+20
 15
-1.00000000000000E+20
 25
-1.00000000000000E+20
 35
-1.00000000000000E+20
146
0.0
 13
0.0
 23
0.0
 33
0.0
 16
1.0
 26
0.0
 36
0.0
 17
0.0
 27
1.0
 37
0.0
 76
     0
330
1B
  0
LAYOUT
  5
26
102
{ACAD_REACTORS
330
1A
102
}
330
1A
100
AcDbPlotSettings
  1

  2
none_device
  4

  6

 40
0.0
 41
0.0
 42
0.0
 43
0.0
 44
0.0
 45
0.0
 46
0.0
 47
0.0
 48
0.0
 49
0.0
140
0.0
141
0.0
142
1.0
143
1.0
 70
   688
 72
     0
 73
     0
 74
     5
  7

 75
    16
147
1.0
148
0.0
149
0.0
100
AcDbLayout
  1
Layout2
 70
     1
 71
     2
 10
0.0
 20
0.0
 11
0.0
 21
0.0
 12
0.0
 22
0.0
 32
0.0
 14
0.0
 24
0.0
 34
0.0
 15
0.0
 25
0.0
 35
0.0
146
0.0
 13
0.0
 23
0.0
 33
0.0
 16
1.0
 26
0.0
 36
0.0
 17
0.0
 27
1.0
 37
0.0
 76
     0
330
23
  0
LAYOUT
  5
22
102
{ACAD_REACTORS
330
1A
102
}
330
1A
100
AcDbPlotSettings
  1

  2
none_device
  4

  6

 40
0.0
 41
0.0
 42
0.0
 43
0.0
 44
0.0
 45
0.0
 46
0.0
 47
0.0
 48
0.0
 49
0.0
140
0.0
141
0.0
142
1.0
143
1.0
 70
  1712
 72
     0
 73
     0
 74
     0
  7

 75
     0
147
1.0
148
0.0
149
0.0
100
AcDbLayout
  1
Model
 70
     1
 71
     0
 10
0.0
 20
0.0
 11
12.0
 21
9.0
 12
0.0
 22
0.0
 32
0.0
 14
0.0
 24
0.0
 34
0.0
 15
1680.0
 25
2376.0
 35
0.0
146
0.0
 13
0.0
 23
0.0
 33
0.0
 16
1.0
 26
0.0
 36
0.0
 17
0.0
 27
1.0
 37
0.0
 76
     0
330
1F
331
29
  0
MATERIAL
  5
3D
102
{ACAD_REACTORS
330
3B
102
}
102
{ACAD_XDICTIONARY
360
274
102
}
330
3B
100
AcDbMaterial
  1
ByBlock
  0
MATERIAL
  5
3C
102
{ACAD_REACTORS
330
3B
102
}
102
{ACAD_XDICTIONARY
360
272
102
}
330
3B
100
AcDbMaterial
  1
ByLayer
  0
MATERIAL
  5
3E
102
{ACAD_REACTORS
330
3B
102
}
102
{ACAD_XDICTIONARY
360
276
102
}
330
3B
100
AcDbMaterial
  1
Global
  0
MLINESTYLE
  5
18
102
{ACAD_REACTORS
330
17
102
}
330
17
100
AcDbMlineStyle
  2
Standard
 70
     0
  3

 62
   256
 51
90.0
 52
90.0
 71
     2
 49
0.5
 62
   256
  6
BYLAYER
 49
-0.5
 62
   256
  6
BYLAYER
  0
ACDBPLACEHOLDER
  5
F
102
{ACAD_REACTORS
330
E
102
}
330
E
  0
VISUALSTYLE
  5
2F
102
{ACAD_REACTORS
330
2A
102
}
102
{ACAD_XDICTIONARY
360
25A
102
}
330
2A
100
AcDbVisualStyle
  2
2dWireframe
 70
     4
 71
     0
 72
     2
 73
     0
 90
        0
 40
-0.6
 41
-30.0
 62
     5
 63
     7
 74
     1
 91
        4
 64
     7
 65
   257
 75
     1
175
     1
 42
1.0
 92
        0
 66
   257
 43
1.0
 76
     1
 77
     6
 78
     2
 67
     7
 79
     5
170
     0
171
     0
290
     0
174
     0
 93
        1
 44
0.0
173
     0
291
     0
 45
0.0
1001
ACAD
1000
AcDbSavedByObjectVersion
1070
     0
  0
VISUALSTYLE
  5
31
102
{ACAD_REACTORS
330
2A
102
}
102
{ACAD_XDICTIONARY
360
25E
102
}
330
2A
100
AcDbVisualStyle
  2
3D Hidden
 70
     6
 71
     1
 72
     2
 73
     2
 90
        0
 40
-0.6
 41
-30.0
 62
     5
 63
     7
 74
     2
 91
        2
 64
     7
 65
   257
 75
     2
175
     1
 42
40.0
 92
        0
 66
   257
 43
1.0
 76
     1
 77
     6
 78
     2
 67
     7
 79
     3
170
     0
171
     0
290
     0
174
     0
 93
        1
 44
0.0
173
     0
291
     0
 45
0.0
1001
ACAD
1000
AcDbSavedByObjectVersion
1070
     0
  0
VISUALSTYLE
  5
30
102
{ACAD_REACTORS
330
2A
102
}
102
{ACAD_XDICTIONARY
360
25C
102
}
330
2A
100
AcDbVisualStyle
  2
3dWireframe
 70
     5
 71
     0
 72
     2
 73
     0
 90
        0
 40
-0.6
 41
-30.0
 62
     5
 63
     7
 74
     1
 91
        4
 64
     7
 65
   257
 75
     1
175
     1
 42
1.0
 92
        0
 66
   257
 43
1.0
 76
     1
 77
     6
 78
     2
 67
     7
 79
     5
170
     0
171
     0
290
     0
174
     0
 93
        1
 44
0.0
173
     0
291
     0
 45
0.0
1001
ACAD
1000
AcDbSavedByObjectVersion
1070
     0
  0
VISUALSTYLE
  5
32
102
{ACAD_REACTORS
330
2A
102
}
102
{ACAD_XDICTIONARY
360
260
102
}
330
2A
100
AcDbVisualStyle
  2
Basic
 70
     7
 71
     1
 72
     0
 73
     1
 90
        0
 40
-0.6
 41
-30.0
 62
     5
 63
     7
 74
     0
 91
        4
 64
     7
 65
   257
 75
     1
175
     1
 42
1.0
 92
        8
 66
     7
 43
1.0
 76
     1
 77
     6
 78
     2
 67
     7
 79
     5
170
     0
171
     0
290
     0
174
     0
 93
        1
 44
0.0
173
     0
291
     1
 45
0.0
1001
ACAD
1000
AcDbSavedByObjectVersion
1070
     0
  0
VISUALSTYLE
  5
36
102
{ACAD_REACTORS
330
2A
102
}
102
{ACAD_XDICTIONARY
360
268
102
}
330
2A
100
AcDbVisualStyle
  2
Brighten
 70
    12
 71
     2
 72
     2
 73
     0
 90
        0
 40
-0.6
 41
-30.0
 62
     5
 63
     7
 74
     1
 91
        4
 64
     7
 65
   257
 75
     1
175
     1
 42
1.0
 92
        8
 66
     7
 43
1.0
 76
     1
 77
     6
 78
     2
 67
     7
 79
     5
170
     0
171
     0
290
     0
174
     0
 93
        1
 44
50.0
173
     0
291
     1
 45
0.0
1001
ACAD
1000
AcDbSavedByObjectVersion
1070
     0
  0
VISUALSTYLE
  5
3A
102
{ACAD_REACTORS
330
2A
102
}
102
{ACAD_XDICTIONARY
360
270
102
}
330
2A
100
AcDbVisualStyle
  2
ColorChange
 70
    16
 71
     2
 72
     2
 73
     3
 90
        0
 40
-0.6
 41
-30.0
 62
     5
 63
     8
 74
     1
 91
        4
 64
     7
 65
   257
 75
     1
175
     1
 42
1.0
 92
        8
 66
     8
 43
1.0
 76
     1
 77
     6
 78
     2
 67
     7
 79
     5
170
     0
171
     0
290
     0
174
     0
 93
        1
 44
0.0
173
     0
291
     1
 45
0.0
1001
ACAD
1000
AcDbSavedByObjectVersion
1070
     0
  0
VISUALSTYLE
  5
34
102
{ACAD_REACTORS
330
2A
102
}
102
{ACAD_XDICTIONARY
360
264
102
}
330
2A
100
AcDbVisualStyle
  2
Conceptual
 70
     9
 71
     3
 72
     2
 73
     0
 90
        0
 40
-0.6
 41
-30.0
 62
     5
 63
     7
 74
     2
 91
        2
 64
     7
 65
   257
 75
     1
175
     1
 42
40.0
 92
        8
 66
     7
 43
1.0
 76
     1
 77
     6
 78
     2
 67
     7
 79
     3
170
     0
171
     0
290
     0
174
     0
 93
        1
 44
0.0
173
     0
291
     0
 45
0.0
1001
ACAD
1000
AcDbSavedByObjectVersion
1070
     0
  0
VISUALSTYLE
  5
35
102
{ACAD_REACTORS
330
2A
102
}
102
{ACAD_XDICTIONARY
360
266
102
}
330
2A
100
AcDbVisualStyle
  2
Dim
 70
    11
 71
     2
 72
     2
 73
     0
 90
        0
 40
-0.6
 41
-30.0
 62
     5
 63
     7
 74
     1
 91
        4
 64
     7
 65
   257
 75
     1
175
     1
 42
1.0
 92
        8
 66
     7
 43
1.0
 76
     1
 77
     6
 78
     2
 67
     7
 79
     5
170
     0
171
     0
290
     0
174
     0
 93
        1
 44
-50.0
173
     0
291
     1
 45
0.0
1001
ACAD
1000
AcDbSavedByObjectVersion
1070
     0
  0
VISUALSTYLE
  5
39
102
{ACAD_REACTORS
330
2A
102
}
102
{ACAD_XDICTIONARY
360
26E
102
}
330
2A
100
AcDbVisualStyle
  2
Facepattern
 70
    15
 71
     2
 72
     2
 73
     0
 90
        0
 40
-0.6
 41
-30.0
 62
     5
 63
     7
 74
     1
 91
        4
 64
     7
 65
   257
 75
     1
175
     1
 42
1.0
 92
        8
 66
     7
 43
1.0
 76
     1
 77
     6
 78
     2
 67
     7
 79
     5
170
     0
171
     0
290
     0
174
     0
 93
        1
 44
0.0
173
     0
291
     1
 45
0.0
1001
ACAD
1000
AcDbSavedByObjectVersion
1070
     0
  0
VISUALSTYLE
  5
2B
102
{ACAD_REACTORS
330
2A
102
}
102
{ACAD_XDICTIONARY
360
252
102
}
330
2A
100
AcDbVisualStyle
  2
Flat
 70
     0
 71
     2
 72
     1
 73
     1
 90
        2
 40
-0.6
 41
30.0
 62
     5
 63
     7
 74
     0
 91
        4
 64
     7
 65
   257
 75
     1
175
     1
 42
1.0
 92
        8
 66
     7
 43
1.0
 76
     1
 77
     6
 78
     2
 67
     7
 79
     5
170
     0
171
     0
290
     0
174
     0
 93
       13
 44
0.0
173
     0
291
     1
 45
0.0
1001
ACAD
1000
AcDbSavedByObjectVersion
1070
     0
  0
VISUALSTYLE
  5
2C
102
{ACAD_REACTORS
330
2A
102
}
102
{ACAD_XDICTIONARY
360
254
102
}
330
2A
100
AcDbVisualStyle
  2
FlatWithEdges
 70
     1
 71
     2
 72
     1
 73
     1
 90
        2
 40
-0.6
 41
30.0
 62
     5
 63
     7
 74
     1
 91
        4
 64
     7
 65
   257
 75
     1
175
     1
 42
1.0
 92
        0
 66
   257
 43
1.0
 76
     1
 77
     6
 78
     2
 67
     7
 79
     5
170
     0
171
     0
290
     0
174
     0
 93
       13
 44
0.0
173
     0
291
     1
 45
0.0
1001
ACAD
1000
AcDbSavedByObjectVersion
1070
     0
  0
VISUALSTYLE
  5
2D
102
{ACAD_REACTORS
330
2A
102
}
102
{ACAD_XDICTIONARY
360
256
102
}
330
2A
100
AcDbVisualStyle
  2
Gouraud
 70
     2
 71
     2
 72
     2
 73
     1
 90
        2
 40
-0.6
 41
30.0
 62
     5
 63
     7
 74
     0
 91
        4
 64
     7
 65
   257
 75
     1
175
     1
 42
1.0
 92
        0
 66
     7
 43
1.0
 76
     1
 77
     6
 78
     2
 67
     7
 79
     5
170
     0
171
     0
290
     0
174
     0
 93
       13
 44
0.0
173
     0
291
     1
 45
0.0
1001
ACAD
1000
AcDbSavedByObjectVersion
1070
     0
  0
VISUALSTYLE
  5
2E
102
{ACAD_REACTORS
330
2A
102
}
102
{ACAD_XDICTIONARY
360
258
102
}
330
2A
100
AcDbVisualStyle
  2
GouraudWithEdges
 70
     3
 71
     2
 72
     2
 73
     1
 90
        2
 40
-0.6
 41
30.0
 62
     5
 63
     7
 74
     1
 91
        4
 64
     7
 65
   257
 75
     1
175
     1
 42
1.0
 92
        0
 66
   257
 43
1.0
 76
     1
 77
     6
 78
     2
 67
     7
 79
     5
170
     0
171
     0
290
     0
174
     0
 93
       13
 44
0.0
173
     0
291
     1
 45
0.0
1001
ACAD
1000
AcDbSavedByObjectVersion
1070
     0
  0
VISUALSTYLE
  5
38
102
{ACAD_REACTORS
330
2A
102
}
102
{ACAD_XDICTIONARY
360
26C
102
}
330
2A
100
AcDbVisualStyle
  2
Linepattern
 70
    14
 71
     2
 72
     2
 73
     0
 90
        0
 40
-0.6
 41
-30.0
 62
     5
 63
     7
 74
     1
 91
        4
 64
     7
 65
   257
 75
     7
175
     7
 42
1.0
 92
        8
 66
     7
 43
1.0
 76
     1
 77
     6
 78
     2
 67
     7
 79
     5
170
     0
171
     0
290
     0
174
     0
 93
        1
 44
0.0
173
     0
291
     1
 45
0.0
1001
ACAD
1000
AcDbSavedByObjectVersion
1070
     0
  0
VISUALSTYLE
  5
33
102
{ACAD_REACTORS
330
2A
102
}
102
{ACAD_XDICTIONARY
360
262
102
}
330
2A
100
AcDbVisualStyle
  2
Realistic
 70
     8
 71
     2
 72
     2
 73
     0
 90
        0
 40
-0.6
 41
-30.0
 62
     5
 63
     7
 74
     1
 91
        0
 64
     7
 65
   257
 75
     1
175
     1
 42
1.0
 92
        8
 66
     8
 43
1.0
 76
     1
 77
     6
 78
     2
 67
     7
 79
     5
170
     0
171
     0
290
     0
174
     0
 93
       13
 44
0.0
173
     0
291
     0
 45
0.0
1001
ACAD
1000
AcDbSavedByObjectVersion
1070
     0
  0
VISUALSTYLE
  5
37
102
{ACAD_REACTORS
330
2A
102
}
102
{ACAD_XDICTIONARY
360
26A
102
}
330
2A
100
AcDbVisualStyle
  2
Thicken
 70
    13
 71
     2
 72
     2
 73
     0
 90
        0
 40
-0.6
 41
-30.0
 62
     5
 63
     7
 74
     1
 91
        4
 64
     7
 65
   257
 75
     1
175
     1
 42
1.0
 92
       12
 66
     7
 43
1.0
 76
     1
 77
     6
 78
     2
 67
     7
 79
     5
170
     0
171
     0
290
     0
174
     0
 93
        1
 44
0.0
173
     0
291
     1
 45
0.0
1001
ACAD
1000
AcDbSavedByObjectVersion
1070
     0
  0
DICTIONARYVAR
  5
250
102
{ACAD_REACTORS
330
24D
102
}
330
24D
100
DictionaryVariables
280
     0
  1
2
  0
DICTIONARYVAR
  5
251
102
{ACAD_REACTORS
330
24D
102
}
330
24D
100
DictionaryVariables
280
     0
  1
1
  0
DICTIONARY
  5
274
330
3D
100
AcDbDictionary
280
     1
281
     1
  3
ACAD_XREC_ROUNDTRIP
360
275
  0
DICTIONARY
  5
272
330
3C
100
AcDbDictionary
280
     1
281
     1
  3
ACAD_XREC_ROUNDTRIP
360
273
  0
DICTIONARY
  5
276
330
3E
100
AcDbDictionary
280
     1
281
     1
  3
ACAD_XREC_ROUNDTRIP
360
277
  0
DICTIONARY
  5
25A
330
2F
100
AcDbDictionary
280
     1
281
     1
  3
ACAD_XREC_ROUNDTRIP
360
25B
  0
DICTIONARY
  5
25E
330
31
100
AcDbDictionary
280
     1
281
     1
  3
ACAD_XREC_ROUNDTRIP
360
25F
  0
DICTIONARY
  5
25C
330
30
100
AcDbDictionary
280
     1
281
     1
  3
ACAD_XREC_ROUNDTRIP
360
25D
  0
DICTIONARY
  5
260
330
32
100
AcDbDictionary
280
     1
281
     1
  3
ACAD_XREC_ROUNDTRIP
360
261
  0
DICTIONARY
  5
268
330
36
100
AcDbDictionary
280
     1
281
     1
  3
ACAD_XREC_ROUNDTRIP
360
269
  0
DICTIONARY
  5
270
330
3A
100
AcDbDictionary
280
     1
281
     1
  3
ACAD_XREC_ROUNDTRIP
360
271
  0
DICTIONARY
  5
264
330
34
100
AcDbDictionary
280
     1
281
     1
  3
ACAD_XREC_ROUNDTRIP
360
265
  0
DICTIONARY
  5
266
330
35
100
AcDbDictionary
280
     1
281
     1
  3
ACAD_XREC_ROUNDTRIP
360
267
  0
DICTIONARY
  5
26E
330
39
100
AcDbDictionary
280
     1
281
     1
  3
ACAD_XREC_ROUNDTRIP
360
26F
  0
DICTIONARY
  5
252
330
2B
100
AcDbDictionary
280
     1
281
     1
  3
ACAD_XREC_ROUNDTRIP
360
253
  0
DICTIONARY
  5
254
330
2C
100
AcDbDictionary
280
     1
281
     1
  3
ACAD_XREC_ROUNDTRIP
360
255
  0
DICTIONARY
  5
256
330
2D
100
AcDbDictionary
280
     1
281
     1
  3
ACAD_XREC_ROUNDTRIP
360
257
  0
DICTIONARY
  5
258
330
2E
100
AcDbDictionary
280
     1
281
     1
  3
ACAD_XREC_ROUNDTRIP
360
259
  0
DICTIONARY
  5
26C
330
38
100
AcDbDictionary
280
     1
281
     1
  3
ACAD_XREC_ROUNDTRIP
360
26D
  0
DICTIONARY
  5
262
330
33
100
AcDbDictionary
280
     1
281
     1
  3
ACAD_XREC_ROUNDTRIP
360
263
  0
DICTIONARY
  5
26A
330
37
100
AcDbDictionary
280
     1
281
     1
  3
ACAD_XREC_ROUNDTRIP
360
26B
  0
XRECORD
  5
275
102
{ACAD_REACTORS
330
274
102
}
330
274
100
AcDbXrecord
280
     1
102
MATERIAL
148
0.0
149
0.0
149
0.0
 93
        0
 94
      127
282
     0
 72
     1
 77
     1
171
     1
175
     1
179
     1
273
     0
  0
XRECORD
  5
273
102
{ACAD_REACTORS
330
272
102
}
330
272
100
AcDbXrecord
280
     1
102
MATERIAL
148
0.0
149
0.0
149
0.0
 93
        0
 94
      127
282
     0
 72
     1
 77
     1
171
     1
175
     1
179
     1
273
     0
  0
XRECORD
  5
277
102
{ACAD_REACTORS
330
276
102
}
330
276
100
AcDbXrecord
280
     1
102
MATERIAL
148
0.0
149
0.0
149
0.0
 93
        0
 94
      127
282
     0
 72
     1
 77
     1
171
     1
175
     1
179
     1
273
     0
  0
XRECORD
  5
25B
102
{ACAD_REACTORS
330
25A
102
}
330
25A
100
AcDbXrecord
280
     1
102
RTVSPropertyOp0
 70
     1
102
RTVSPropertyOp1
 70
     1
102
RTVSPropertyOp2
 70
     1
102
RTVSPropertyOp3
 70
     1
102
RTVSPropertyOp4
 70
     1
102
RTVSPropertyOp5
 70
     1
102
RTVSPropertyOp6
 70
     1
102
RTVSPropertyOp7
 70
     1
102
RTVSPropertyOp8
 70
     1
102
RTVSPropertyOp9
 70
     1
102
RTVSPropertyOp10
 70
     1
102
RTVSPropertyOp11
 70
     1
102
RTVSPropertyOp12
 70
     1
102
RTVSPropertyOp13
 70
     1
102
RTVSPropertyOp14
 70
     1
102
RTVSPropertyOp15
 70
     1
102
RTVSPropertyOp16
 70
     1
102
RTVSPropertyOp17
 70
     1
102
RTVSPropertyOp18
 70
     1
102
RTVSPropertyOp19
 70
     1
102
RTVSPropertyOp20
 70
     1
102
RTVSPropertyOp21
 70
     1
102
RTVSPropertyOp22
 70
     1
102
RTVSPropertyOp23
 70
     1
102
RTVSPropertyOp24
 70
     1
102
RTVSPropertyOp25
 70
     1
102
RTVSPropertyOp26
 70
     1
102
RTVSPropertyOp27
 70
     1
102
RTVSPropertyOp28
 70
     1
102
RTVSPropertyOp29
 70
     1
102
RTVSPropertyOp30
 70
     1
102
RTVSPropertyOp31
 70
     1
102
RTVSPropertyOp32
 70
     1
  0
XRECORD
  5
25F
102
{ACAD_REACTORS
330
25E
102
}
330
25E
100
AcDbXrecord
280
     1
102
RTVSPropertyOp0
 70
     1
102
RTVSPropertyOp1
 70
     1
102
RTVSPropertyOp2
 70
     1
102
RTVSPropertyOp3
 70
     1
102
RTVSPropertyOp4
 70
     1
102
RTVSPropertyOp5
 70
     1
102
RTVSPropertyOp6
 70
     1
102
RTVSPropertyOp7
 70
     1
102
RTVSPropertyOp8
 70
     1
102
RTVSPropertyOp9
 70
     1
102
RTVSPropertyOp10
 70
     1
102
RTVSPropertyOp11
 70
     1
102
RTVSPropertyOp12
 70
     1
102
RTVSPropertyOp13
 70
     1
102
RTVSPropertyOp14
 70
     1
102
RTVSPropertyOp15
 70
     1
102
RTVSPropertyOp16
 70
     1
102
RTVSPropertyOp17
 70
     1
102
RTVSPropertyOp18
 70
     1
102
RTVSPropertyOp19
 70
     1
102
RTVSPropertyOp20
 70
     1
102
RTVSPropertyOp21
 70
     1
102
RTVSPropertyOp22
 70
     1
102
RTVSPropertyOp23
 70
     1
102
RTVSPropertyOp24
 70
     1
102
RTVSPropertyOp25
 70
     1
102
RTVSPropertyOp26
 70
     1
102
RTVSPropertyOp27
 70
     1
102
RTVSPropertyOp28
 70
     1
102
RTVSPropertyOp29
 70
     1
102
RTVSPropertyOp30
 70
     1
102
RTVSPropertyOp31
 70
     1
102
RTVSPropertyOp32
 70
     1
  0
XRECORD
  5
25D
102
{ACAD_REACTORS
330
25C
102
}
330
25C
100
AcDbXrecord
280
     1
102
RTVSPropertyOp0
 70
     1
102
RTVSPropertyOp1
 70
     1
102
RTVSPropertyOp2
 70
     1
102
RTVSPropertyOp3
 70
     1
102
RTVSPropertyOp4
 70
     1
102
RTVSPropertyOp5
 70
     1
102
RTVSPropertyOp6
 70
     1
102
RTVSPropertyOp7
 70
     1
102
RTVSPropertyOp8
 70
     1
102
RTVSPropertyOp9
 70
     1
102
RTVSPropertyOp10
 70
     1
102
RTVSPropertyOp11
 70
     1
102
RTVSPropertyOp12
 70
     1
102
RTVSPropertyOp13
 70
     1
102
RTVSPropertyOp14
 70
     1
102
RTVSPropertyOp15
 70
     1
102
RTVSPropertyOp16
 70
     1
102
RTVSPropertyOp17
 70
     1
102
RTVSPropertyOp18
 70
     1
102
RTVSPropertyOp19
 70
     1
102
RTVSPropertyOp20
 70
     1
102
RTVSPropertyOp21
 70
     1
102
RTVSPropertyOp22
 70
     1
102
RTVSPropertyOp23
 70
     1
102
RTVSPropertyOp24
 70
     1
102
RTVSPropertyOp25
 70
     1
102
RTVSPropertyOp26
 70
     1
102
RTVSPropertyOp27
 70
     1
102
RTVSPropertyOp28
 70
     1
102
RTVSPropertyOp29
 70
     1
102
RTVSPropertyOp30
 70
     1
102
RTVSPropertyOp31
 70
     1
102
RTVSPropertyOp32
 70
     1
  0
XRECORD
  5
261
102
{ACAD_REACTORS
330
260
102
}
330
260
100
AcDbXrecord
280
     1
102
RTVSPropertyOp0
 70
     1
102
RTVSPropertyOp1
 70
     1
102
RTVSPropertyOp2
 70
     1
102
RTVSPropertyOp3
 70
     1
102
RTVSPropertyOp4
 70
     1
102
RTVSPropertyOp5
 70
     1
102
RTVSPropertyOp6
 70
     1
102
RTVSPropertyOp7
 70
     1
102
RTVSPropertyOp8
 70
     1
102
RTVSPropertyOp9
 70
     1
102
RTVSPropertyOp10
 70
     1
102
RTVSPropertyOp11
 70
     1
102
RTVSPropertyOp12
 70
     1
102
RTVSPropertyOp13
 70
     1
102
RTVSPropertyOp14
 70
     1
102
RTVSPropertyOp15
 70
     1
102
RTVSPropertyOp16
 70
     1
102
RTVSPropertyOp17
 70
     1
102
RTVSPropertyOp18
 70
     1
102
RTVSPropertyOp19
 70
     1
102
RTVSPropertyOp20
 70
     1
102
RTVSPropertyOp21
 70
     1
102
RTVSPropertyOp22
 70
     1
102
RTVSPropertyOp23
 70
     1
102
RTVSPropertyOp24
 70
     1
102
RTVSPropertyOp25
 70
     1
102
RTVSPropertyOp26
 70
     1
102
RTVSPropertyOp27
 70
     1
102
RTVSPropertyOp28
 70
     1
102
RTVSPropertyOp29
 70
     1
102
RTVSPropertyOp30
 70
     1
102
RTVSPropertyOp31
 70
     1
102
RTVSPropertyOp32
 70
     1
  0
XRECORD
  5
269
102
{ACAD_REACTORS
330
268
102
}
330
268
100
AcDbXrecord
280
     1
102
RTVSPropertyOp0
 70
     1
102
RTVSPropertyOp1
 70
     1
102
RTVSPropertyOp2
 70
     1
102
RTVSPropertyOp3
 70
     1
102
RTVSPropertyOp4
 70
     1
102
RTVSPropertyOp5
 70
     1
102
RTVSPropertyOp6
 70
     1
102
RTVSPropertyOp7
 70
     1
102
RTVSPropertyOp8
 70
     1
102
RTVSPropertyOp9
 70
     1
102
RTVSPropertyOp10
 70
     1
102
RTVSPropertyOp11
 70
     1
102
RTVSPropertyOp12
 70
     1
102
RTVSPropertyOp13
 70
     1
102
RTVSPropertyOp14
 70
     1
102
RTVSPropertyOp15
 70
     1
102
RTVSPropertyOp16
 70
     1
102
RTVSPropertyOp17
 70
     1
102
RTVSPropertyOp18
 70
     1
102
RTVSPropertyOp19
 70
     1
102
RTVSPropertyOp20
 70
     1
102
RTVSPropertyOp21
 70
     1
102
RTVSPropertyOp22
 70
     1
102
RTVSPropertyOp23
 70
     1
102
RTVSPropertyOp24
 70
     1
102
RTVSPropertyOp25
 70
     1
102
RTVSPropertyOp26
 70
     1
102
RTVSPropertyOp27
 70
     1
102
RTVSPropertyOp28
 70
     1
102
RTVSPropertyOp29
 70
     1
102
RTVSPropertyOp30
 70
     1
102
RTVSPropertyOp31
 70
     1
102
RTVSPropertyOp32
 70
     1
  0
XRECORD
  5
271
102
{ACAD_REACTORS
330
270
102
}
330
270
100
AcDbXrecord
280
     1
102
RTVSPropertyOp0
 70
     1
102
RTVSPropertyOp1
 70
     1
102
RTVSPropertyOp2
 70
     1
102
RTVSPropertyOp3
 70
     1
102
RTVSPropertyOp4
 70
     1
102
RTVSPropertyOp5
 70
     1
102
RTVSPropertyOp6
 70
     1
102
RTVSPropertyOp7
 70
     1
102
RTVSPropertyOp8
 70
     1
102
RTVSPropertyOp9
 70
     1
102
RTVSPropertyOp10
 70
     1
102
RTVSPropertyOp11
 70
     1
102
RTVSPropertyOp12
 70
     1
102
RTVSPropertyOp13
 70
     1
102
RTVSPropertyOp14
 70
     1
102
RTVSPropertyOp15
 70
     1
102
RTVSPropertyOp16
 70
     1
102
RTVSPropertyOp17
 70
     1
102
RTVSPropertyOp18
 70
     1
102
RTVSPropertyOp19
 70
     1
102
RTVSPropertyOp20
 70
     1
102
RTVSPropertyOp21
 70
     1
102
RTVSPropertyOp22
 70
     1
102
RTVSPropertyOp23
 70
     1
102
RTVSPropertyOp24
 70
     1
102
RTVSPropertyOp25
 70
     1
102
RTVSPropertyOp26
 70
     1
102
RTVSPropertyOp27
 70
     1
102
RTVSPropertyOp28
 70
     1
102
RTVSPropertyOp29
 70
     1
102
RTVSPropertyOp30
 70
     1
102
RTVSPropertyOp31
 70
     1
102
RTVSPropertyOp32
 70
     1
  0
XRECORD
  5
265
102
{ACAD_REACTORS
330
264
102
}
330
264
100
AcDbXrecord
280
     1
102
RTVSPropertyOp0
 70
     1
102
RTVSPropertyOp1
 70
     1
102
RTVSPropertyOp2
 70
     1
102
RTVSPropertyOp3
 70
     1
102
RTVSPropertyOp4
 70
     1
102
RTVSPropertyOp5
 70
     1
102
RTVSPropertyOp6
 70
     1
102
RTVSPropertyOp7
 70
     1
102
RTVSPropertyOp8
 70
     1
102
RTVSPropertyOp9
 70
     1
102
RTVSPropertyOp10
 70
     1
102
RTVSPropertyOp11
 70
     1
102
RTVSPropertyOp12
 70
     1
102
RTVSPropertyOp13
 70
     1
102
RTVSPropertyOp14
 70
     1
102
RTVSPropertyOp15
 70
     1
102
RTVSPropertyOp16
 70
     1
102
RTVSPropertyOp17
 70
     1
102
RTVSPropertyOp18
 70
     1
102
RTVSPropertyOp19
 70
     1
102
RTVSPropertyOp20
 70
     1
102
RTVSPropertyOp21
 70
     1
102
RTVSPropertyOp22
 70
     1
102
RTVSPropertyOp23
 70
     1
102
RTVSPropertyOp24
 70
     1
102
RTVSPropertyOp25
 70
     1
102
RTVSPropertyOp26
 70
     1
102
RTVSPropertyOp27
 70
     1
102
RTVSPropertyOp28
 70
     1
102
RTVSPropertyOp29
 70
     1
102
RTVSPropertyOp30
 70
     1
102
RTVSPropertyOp31
 70
     1
102
RTVSPropertyOp32
 70
     1
  0
XRECORD
  5
267
102
{ACAD_REACTORS
330
266
102
}
330
266
100
AcDbXrecord
280
     1
102
RTVSPropertyOp0
 70
     1
102
RTVSPropertyOp1
 70
     1
102
RTVSPropertyOp2
 70
     1
102
RTVSPropertyOp3
 70
     1
102
RTVSPropertyOp4
 70
     1
102
RTVSPropertyOp5
 70
     1
102
RTVSPropertyOp6
 70
     1
102
RTVSPropertyOp7
 70
     1
102
RTVSPropertyOp8
 70
     1
102
RTVSPropertyOp9
 70
     1
102
RTVSPropertyOp10
 70
     1
102
RTVSPropertyOp11
 70
     1
102
RTVSPropertyOp12
 70
     1
102
RTVSPropertyOp13
 70
     1
102
RTVSPropertyOp14
 70
     1
102
RTVSPropertyOp15
 70
     1
102
RTVSPropertyOp16
 70
     1
102
RTVSPropertyOp17
 70
     1
102
RTVSPropertyOp18
 70
     1
102
RTVSPropertyOp19
 70
     1
102
RTVSPropertyOp20
 70
     1
102
RTVSPropertyOp21
 70
     1
102
RTVSPropertyOp22
 70
     1
102
RTVSPropertyOp23
 70
     1
102
RTVSPropertyOp24
 70
     1
102
RTVSPropertyOp25
 70
     1
102
RTVSPropertyOp26
 70
     1
102
RTVSPropertyOp27
 70
     1
102
RTVSPropertyOp28
 70
     1
102
RTVSPropertyOp29
 70
     1
102
RTVSPropertyOp30
 70
     1
102
RTVSPropertyOp31
 70
     1
102
RTVSPropertyOp32
 70
     1
  0
XRECORD
  5
26F
102
{ACAD_REACTORS
330
26E
102
}
330
26E
100
AcDbXrecord
280
     1
102
RTVSPropertyOp0
 70
     1
102
RTVSPropertyOp1
 70
     1
102
RTVSPropertyOp2
 70
     1
102
RTVSPropertyOp3
 70
     1
102
RTVSPropertyOp4
 70
     1
102
RTVSPropertyOp5
 70
     1
102
RTVSPropertyOp6
 70
     1
102
RTVSPropertyOp7
 70
     1
102
RTVSPropertyOp8
 70
     1
102
RTVSPropertyOp9
 70
     1
102
RTVSPropertyOp10
 70
     1
102
RTVSPropertyOp11
 70
     1
102
RTVSPropertyOp12
 70
     1
102
RTVSPropertyOp13
 70
     1
102
RTVSPropertyOp14
 70
     1
102
RTVSPropertyOp15
 70
     1
102
RTVSPropertyOp16
 70
     1
102
RTVSPropertyOp17
 70
     1
102
RTVSPropertyOp18
 70
     1
102
RTVSPropertyOp19
 70
     1
102
RTVSPropertyOp20
 70
     1
102
RTVSPropertyOp21
 70
     1
102
RTVSPropertyOp22
 70
     1
102
RTVSPropertyOp23
 70
     1
102
RTVSPropertyOp24
 70
     1
102
RTVSPropertyOp25
 70
     1
102
RTVSPropertyOp26
 70
     1
102
RTVSPropertyOp27
 70
     1
102
RTVSPropertyOp28
 70
     1
102
RTVSPropertyOp29
 70
     1
102
RTVSPropertyOp30
 70
     1
102
RTVSPropertyOp31
 70
     1
102
RTVSPropertyOp32
 70
     1
  0
XRECORD
  5
253
102
{ACAD_REACTORS
330
252
102
}
330
252
100
AcDbXrecord
280
     1
102
RTVSPropertyOp0
 70
     1
102
RTVSPropertyOp1
 70
     1
102
RTVSPropertyOp2
 70
     1
102
RTVSPropertyOp3
 70
     1
102
RTVSPropertyOp4
 70
     1
102
RTVSPropertyOp5
 70
     1
102
RTVSPropertyOp6
 70
     1
102
RTVSPropertyOp7
 70
     1
102
RTVSPropertyOp8
 70
     1
102
RTVSPropertyOp9
 70
     1
102
RTVSPropertyOp10
 70
     1
102
RTVSPropertyOp11
 70
     1
102
RTVSPropertyOp12
 70
     1
102
RTVSPropertyOp13
 70
     1
102
RTVSPropertyOp14
 70
     1
102
RTVSPropertyOp15
 70
     1
102
RTVSPropertyOp16
 70
     1
102
RTVSPropertyOp17
 70
     1
102
RTVSPropertyOp18
 70
     1
102
RTVSPropertyOp19
 70
     1
102
RTVSPropertyOp20
 70
     1
102
RTVSPropertyOp21
 70
     1
102
RTVSPropertyOp22
 70
     1
102
RTVSPropertyOp23
 70
     1
102
RTVSPropertyOp24
 70
     1
102
RTVSPropertyOp25
 70
     1
102
RTVSPropertyOp26
 70
     1
102
RTVSPropertyOp27
 70
     1
102
RTVSPropertyOp28
 70
     1
102
RTVSPropertyOp29
 70
     1
102
RTVSPropertyOp30
 70
     1
102
RTVSPropertyOp31
 70
     1
102
RTVSPropertyOp32
 70
     1
  0
XRECORD
  5
255
102
{ACAD_REACTORS
330
254
102
}
330
254
100
AcDbXrecord
280
     1
102
RTVSPropertyOp0
 70
     1
102
RTVSPropertyOp1
 70
     1
102
RTVSPropertyOp2
 70
     1
102
RTVSPropertyOp3
 70
     1
102
RTVSPropertyOp4
 70
     1
102
RTVSPropertyOp5
 70
     1
102
RTVSPropertyOp6
 70
     1
102
RTVSPropertyOp7
 70
     1
102
RTVSPropertyOp8
 70
     1
102
RTVSPropertyOp9
 70
     1
102
RTVSPropertyOp10
 70
     1
102
RTVSPropertyOp11
 70
     1
102
RTVSPropertyOp12
 70
     1
102
RTVSPropertyOp13
 70
     1
102
RTVSPropertyOp14
 70
     1
102
RTVSPropertyOp15
 70
     1
102
RTVSPropertyOp16
 70
     1
102
RTVSPropertyOp17
 70
     1
102
RTVSPropertyOp18
 70
     1
102
RTVSPropertyOp19
 70
     1
102
RTVSPropertyOp20
 70
     1
102
RTVSPropertyOp21
 70
     1
102
RTVSPropertyOp22
 70
     1
102
RTVSPropertyOp23
 70
     1
102
RTVSPropertyOp24
 70
     1
102
RTVSPropertyOp25
 70
     1
102
RTVSPropertyOp26
 70
     1
102
RTVSPropertyOp27
 70
     1
102
RTVSPropertyOp28
 70
     1
102
RTVSPropertyOp29
 70
     1
102
RTVSPropertyOp30
 70
     1
102
RTVSPropertyOp31
 70
     1
102
RTVSPropertyOp32
 70
     1
  0
XRECORD
  5
257
102
{ACAD_REACTORS
330
256
102
}
330
256
100
AcDbXrecord
280
     1
102
RTVSPropertyOp0
 70
     1
102
RTVSPropertyOp1
 70
     1
102
RTVSPropertyOp2
 70
     1
102
RTVSPropertyOp3
 70
     1
102
RTVSPropertyOp4
 70
     1
102
RTVSPropertyOp5
 70
     1
102
RTVSPropertyOp6
 70
     1
102
RTVSPropertyOp7
 70
     1
102
RTVSPropertyOp8
 70
     1
102
RTVSPropertyOp9
 70
     1
102
RTVSPropertyOp10
 70
     1
102
RTVSPropertyOp11
 70
     1
102
RTVSPropertyOp12
 70
     1
102
RTVSPropertyOp13
 70
     1
102
RTVSPropertyOp14
 70
     1
102
RTVSPropertyOp15
 70
     1
102
RTVSPropertyOp16
 70
     1
102
RTVSPropertyOp17
 70
     1
102
RTVSPropertyOp18
 70
     1
102
RTVSPropertyOp19
 70
     1
102
RTVSPropertyOp20
 70
     1
102
RTVSPropertyOp21
 70
     1
102
RTVSPropertyOp22
 70
     1
102
RTVSPropertyOp23
 70
     1
102
RTVSPropertyOp24
 70
     1
102
RTVSPropertyOp25
 70
     1
102
RTVSPropertyOp26
 70
     1
102
RTVSPropertyOp27
 70
     1
102
RTVSPropertyOp28
 70
     1
102
RTVSPropertyOp29
 70
     1
102
RTVSPropertyOp30
 70
     1
102
RTVSPropertyOp31
 70
     1
102
RTVSPropertyOp32
 70
     1
  0
XRECORD
  5
259
102
{ACAD_REACTORS
330
258
102
}
330
258
100
AcDbXrecord
280
     1
102
RTVSPropertyOp0
 70
     1
102
RTVSPropertyOp1
 70
     1
102
RTVSPropertyOp2
 70
     1
102
RTVSPropertyOp3
 70
     1
102
RTVSPropertyOp4
 70
     1
102
RTVSPropertyOp5
 70
     1
102
RTVSPropertyOp6
 70
     1
102
RTVSPropertyOp7
 70
     1
102
RTVSPropertyOp8
 70
     1
102
RTVSPropertyOp9
 70
     1
102
RTVSPropertyOp10
 70
     1
102
RTVSPropertyOp11
 70
     1
102
RTVSPropertyOp12
 70
     1
102
RTVSPropertyOp13
 70
     1
102
RTVSPropertyOp14
 70
     1
102
RTVSPropertyOp15
 70
     1
102
RTVSPropertyOp16
 70
     1
102
RTVSPropertyOp17
 70
     1
102
RTVSPropertyOp18
 70
     1
102
RTVSPropertyOp19
 70
     1
102
RTVSPropertyOp20
 70
     1
102
RTVSPropertyOp21
 70
     1
102
RTVSPropertyOp22
 70
     1
102
RTVSPropertyOp23
 70
     1
102
RTVSPropertyOp24
 70
     1
102
RTVSPropertyOp25
 70
     1
102
RTVSPropertyOp26
 70
     1
102
RTVSPropertyOp27
 70
     1
102
RTVSPropertyOp28
 70
     1
102
RTVSPropertyOp29
 70
     1
102
RTVSPropertyOp30
 70
     1
102
RTVSPropertyOp31
 70
     1
102
RTVSPropertyOp32
 70
     1
  0
XRECORD
  5
26D
102
{ACAD_REACTORS
330
26C
102
}
330
26C
100
AcDbXrecord
280
     1
102
RTVSPropertyOp0
 70
     1
102
RTVSPropertyOp1
 70
     1
102
RTVSPropertyOp2
 70
     1
102
RTVSPropertyOp3
 70
     1
102
RTVSPropertyOp4
 70
     1
102
RTVSPropertyOp5
 70
     1
102
RTVSPropertyOp6
 70
     1
102
RTVSPropertyOp7
 70
     1
102
RTVSPropertyOp8
 70
     1
102
RTVSPropertyOp9
 70
     1
102
RTVSPropertyOp10
 70
     1
102
RTVSPropertyOp11
 70
     1
102
RTVSPropertyOp12
 70
     1
102
RTVSPropertyOp13
 70
     1
102
RTVSPropertyOp14
 70
     1
102
RTVSPropertyOp15
 70
     1
102
RTVSPropertyOp16
 70
     1
102
RTVSPropertyOp17
 70
     1
102
RTVSPropertyOp18
 70
     1
102
RTVSPropertyOp19
 70
     1
102
RTVSPropertyOp20
 70
     1
102
RTVSPropertyOp21
 70
     1
102
RTVSPropertyOp22
 70
     1
102
RTVSPropertyOp23
 70
     1
102
RTVSPropertyOp24
 70
     1
102
RTVSPropertyOp25
 70
     1
102
RTVSPropertyOp26
 70
     1
102
RTVSPropertyOp27
 70
     1
102
RTVSPropertyOp28
 70
     1
102
RTVSPropertyOp29
 70
     1
102
RTVSPropertyOp30
 70
     1
102
RTVSPropertyOp31
 70
     1
102
RTVSPropertyOp32
 70
     1
  0
XRECORD
  5
263
102
{ACAD_REACTORS
330
262
102
}
330
262
100
AcDbXrecord
280
     1
102
RTVSPropertyOp0
 70
     1
102
RTVSPropertyOp1
 70
     1
102
RTVSPropertyOp2
 70
     1
102
RTVSPropertyOp3
 70
     1
102
RTVSPropertyOp4
 70
     1
102
RTVSPropertyOp5
 70
     1
102
RTVSPropertyOp6
 70
     1
102
RTVSPropertyOp7
 70
     1
102
RTVSPropertyOp8
 70
     1
102
RTVSPropertyOp9
 70
     1
102
RTVSPropertyOp10
 70
     1
102
RTVSPropertyOp11
 70
     1
102
RTVSPropertyOp12
 70
     1
102
RTVSPropertyOp13
 70
     1
102
RTVSPropertyOp14
 70
     1
102
RTVSPropertyOp15
 70
     1
102
RTVSPropertyOp16
 70
     1
102
RTVSPropertyOp17
 70
     1
102
RTVSPropertyOp18
 70
     1
102
RTVSPropertyOp19
 70
     1
102
RTVSPropertyOp20
 70
     1
102
RTVSPropertyOp21
 70
     1
102
RTVSPropertyOp22
 70
     1
102
RTVSPropertyOp23
 70
     1
102
RTVSPropertyOp24
 70
     1
102
RTVSPropertyOp25
 70
     1
102
RTVSPropertyOp26
 70
     1
102
RTVSPropertyOp27
 70
     1
102
RTVSPropertyOp28
 70
     1
102
RTVSPropertyOp29
 70
     1
102
RTVSPropertyOp30
 70
     1
102
RTVSPropertyOp31
 70
     1
102
RTVSPropertyOp32
 70
     1
  0
XRECORD
  5
26B
102
{ACAD_REACTORS
330
26A
102
}
330
26A
100
AcDbXrecord
280
     1
102
RTVSPropertyOp0
 70
     1
102
RTVSPropertyOp1
 70
     1
102
RTVSPropertyOp2
 70
     1
102
RTVSPropertyOp3
 70
     1
102
RTVSPropertyOp4
 70
     1
102
RTVSPropertyOp5
 70
     1
102
RTVSPropertyOp6
 70
     1
102
RTVSPropertyOp7
 70
     1
102
RTVSPropertyOp8
 70
     1
102
RTVSPropertyOp9
 70
     1
102
RTVSPropertyOp10
 70
     1
102
RTVSPropertyOp11
 70
     1
102
RTVSPropertyOp12
 70
     1
102
RTVSPropertyOp13
 70
     1
102
RTVSPropertyOp14
 70
     1
102
RTVSPropertyOp15
 70
     1
102
RTVSPropertyOp16
 70
     1
102
RTVSPropertyOp17
 70
     1
102
RTVSPropertyOp18
 70
     1
102
RTVSPropertyOp19
 70
     1
102
RTVSPropertyOp20
 70
     1
102
RTVSPropertyOp21
 70
     1
102
RTVSPropertyOp22
 70
     1
102
RTVSPropertyOp23
 70
     1
102
RTVSPropertyOp24
 70
     1
102
RTVSPropertyOp25
 70
     1
102
RTVSPropertyOp26
 70
     1
102
RTVSPropertyOp27
 70
     1
102
RTVSPropertyOp28
 70
     1
102
RTVSPropertyOp29
 70
     1
102
RTVSPropertyOp30
 70
     1
102
RTVSPropertyOp31
 70
     1
102
RTVSPropertyOp32
 70
     1
  0
ENDSEC
  0
EOF
