  0
SECTION
  2
HEADER
  9
$ACADVER
  1
AC1015
  9
$ACADMAINTVER
 70
     6
  9
$DWGCODEPAGE
  3
ANSI_932
  9
$INSBASE
 10
0.0
 20
0.0
 30
0.0
  9
$EXTMIN
 10
0.0
 20
0.0
 30
0.0
  9
$EXTMAX
 10
2520.0
 20
3564.0
 30
0.0
  9
$LIMMIN
 10
0.0
 20
0.0
  9
$LIMMAX
 10
12.0
 20
9.0
  9
$ORTHOMODE
 70
     0
  9
$REGENMODE
 70
     1
  9
$FILLMODE
 70
     1
  9
$QTEXTMODE
 70
     0
  9
$MIRRTEXT
 70
     1
  9
$LTSCALE
 40
1.0
  9
$ATTMODE
 70
     1
  9
$TEXTSIZE
 40
0.2
  9
$TRACEWID
 40
0.05
  9
$TEXTSTYLE
  7
Standard
  9
$CLAYER
  8
0
  9
$CELTYPE
  6
ByLayer
  9
$CECOLOR
 62
   256
  9
$CELTSCALE
 40
1.0
  9
$DISPSILH
 70
     0
  9
$DIMSCALE
 40
1.0
  9
$DIMASZ
 40
0.18
  9
$DIMEXO
 40
0.0625
  9
$DIMDLI
 40
0.38
  9
$DIMRND
 40
0.0
  9
$DIMDLE
 40
0.0
  9
$DIMEXE
 40
0.18
  9
$DIMTP
 40
0.0
  9
$DIMTM
 40
0.0
  9
$DIMTXT
 40
0.18
  9
$DIMCEN
 40
0.09
  9
$DIMTSZ
 40
0.0
  9
$DIMTOL
 70
     0
  9
$DIMLIM
 70
     0
  9
$DIMTIH
 70
     1
  9
$DIMTOH
 70
     1
  9
$DIMSE1
 70
     0
  9
$DIMSE2
 70
     0
  9
$DIMTAD
 70
     0
  9
$DIMZIN
 70
     0
  9
$DIMBLK
  1

  9
$DIMASO
 70
     1
  9
$DIMSHO
 70
     1
  9
$DIMPOST
  1

  9
$DIMAPOST
  1

  9
$DIMALT
 70
     0
  9
$DIMALTD
 70
     2
  9
$DIMALTF
 40
25.4
  9
$DIMLFAC
 40
1.0
  9
$DIMTOFL
 70
     0
  9
$DIMTVP
 40
0.0
  9
$DIMTIX
 70
     0
  9
$DIMSOXD
 70
     0
  9
$DIMSAH
 70
     0
  9
$DIMBLK1
  1

  9
$DIMBLK2
  1

  9
$DIMSTYLE
  2
Standard
  9
$DIMCLRD
 70
     0
  9
$DIMCLRE
 70
     0
  9
$DIMCLRT
 70
     0
  9
$DIMTFAC
 40
1.0
  9
$DIMGAP
 40
0.09
  9
$DIMJUST
 70
     0
  9
$DIMSD1
 70
     0
  9
$DIMSD2
 70
     0
  9
$DIMTOLJ
 70
     1
  9
$DIMTZIN
 70
     0
  9
$DIMALTZ
 70
     0
  9
$DIMALTTZ
 70
     0
  9
$DIMUPT
 70
     0
  9
$DIMDEC
 70
     4
  9
$DIMTDEC
 70
     4
  9
$DIMALTU
 70
     2
  9
$DIMALTTD
 70
     2
  9
$DIMTXSTY
  7
Standard
  9
$DIMAUNIT
 70
     0
  9
$DIMADEC
 70
     0
  9
$DIMALTRND
 40
0.0
  9
$DIMAZIN
 70
     0
  9
$DIMDSEP
 70
    46
  9
$DIMATFIT
 70
     3
  9
$DIMFRAC
 70
     0
  9
$DIMLDRBLK
  1

  9
$DIMLUNIT
 70
     2
  9
$DIMLWD
 70
    -2
  9
$DIMLWE
 70
    -2
  9
$DIMTMOVE
 70
     0
  9
$LUNITS
 70
     2
  9
$LUPREC
 70
     4
  9
$SKETCHINC
 40
0.1
  9
$FILLETRAD
 40
0.5
  9
$AUNITS
 70
     0
  9
$AUPREC
 70
     0
  9
$MENU
  1
.
  9
$ELEVATION
 40
0.0
  9
$PELEVATION
 40
0.0
  9
$THICKNESS
 40
0.0
  9
$LIMCHECK
 70
     0
  9
$CHAMFERA
 40
0.5
  9
$CHAMFERB
 40
0.5
  9
$CHAMFERC
 40
1.0
  9
$CHAMFERD
 40
0.0
  9
$SKPOLY
 70
     0
  9
$TDCREATE
 40
2456374.485286979
  9
$TDUCREATE
 40
2456374.110286979
  9
$TDUPDATE
 40
2456374.485287708
  9
$TDUUPDATE
 40
2456374.110287708
  9
$TDINDWG
 40
0.0000000116
  9
$TDUSRTIMER
 40
0.0000000116
  9
$USRTIMER
 70
     1
  9
$ANGBASE
 50
0.0
  9
$ANGDIR
 70
     0
  9
$PDMODE
 70
     0
  9
$PDSIZE
 40
0.0
  9
$PLINEWID
 40
0.0
  9
$SPLFRAME
 70
     0
  9
$SPLINETYPE
 70
     6
  9
$SPLINESEGS
 70
     8
  9
$HANDSEED
  5
1D4
  9
$SURFTAB1
 70
     6
  9
$SURFTAB2
 70
     6
  9
$SURFTYPE
 70
     6
  9
$SURFU
 70
     6
  9
$SURFV
 70
     6
  9
$UCSBASE
  2

  9
$UCSNAME
  2

  9
$UCSORG
 10
0.0
 20
0.0
 30
0.0
  9
$UCSXDIR
 10
1.0
 20
0.0
 30
0.0
  9
$UCSYDIR
 10
0.0
 20
1.0
 30
0.0
  9
$UCSORTHOREF
  2

  9
$UCSORTHOVIEW
 70
     0
  9
$UCSORGTOP
 10
0.0
 20
0.0
 30
0.0
  9
$UCSORGBOTTOM
 10
0.0
 20
0.0
 30
0.0
  9
$UCSORGLEFT
 10
0.0
 20
0.0
 30
0.0
  9
$UCSORGRIGHT
 10
0.0
 20
0.0
 30
0.0
  9
$UCSORGFRONT
 10
0.0
 20
0.0
 30
0.0
  9
$UCSORGBACK
 10
0.0
 20
0.0
 30
0.0
  9
$PUCSBASE
  2

  9
$PUCSNAME
  2

  9
$PUCSORG
 10
0.0
 20
0.0
 30
0.0
  9
$PUCSXDIR
 10
1.0
 20
0.0
 30
0.0
  9
$PUCSYDIR
 10
0.0
 20
1.0
 30
0.0
  9
$PUCSORTHOREF
  2

  9
$PUCSORTHOVIEW
 70
     0
  9
$PUCSORGTOP
 10
0.0
 20
0.0
 30
0.0
  9
$PUCSORGBOTTOM
 10
0.0
 20
0.0
 30
0.0
  9
$PUCSORGLEFT
 10
0.0
 20
0.0
 30
0.0
  9
$PUCSORGRIGHT
 10
0.0
 20
0.0
 30
0.0
  9
$PUCSORGFRONT
 10
0.0
 20
0.0
 30
0.0
  9
$PUCSORGBACK
 10
0.0
 20
0.0
 30
0.0
  9
$USERI1
 70
     0
  9
$USERI2
 70
     0
  9
$USERI3
 70
     0
  9
$USERI4
 70
     0
  9
$USERI5
 70
     0
  9
$USERR1
 40
18.1
  9
$USERR2
 40
0.0
  9
$USERR3
 40
0.0
  9
$USERR4
 40
0.0
  9
$USERR5
 40
0.0
  9
$WORLDVIEW
 70
     1
  9
$SHADEDGE
 70
     3
  9
$SHADEDIF
 70
    70
  9
$TILEMODE
 70
     1
  9
$MAXACTVP
 70
    64
  9
$PINSBASE
 10
0.0
 20
0.0
 30
0.0
  9
$PLIMCHECK
 70
     0
  9
$PEXTMIN
 10
1.00000000000000E+20
 20
1.00000000000000E+20
 30
1.00000000000000E+20
  9
$PEXTMAX
 10
-1.00000000000000E+20
 20
-1.00000000000000E+20
 30
-1.00000000000000E+20
  9
$PLIMMIN
 10
0.0
 20
0.0
  9
$PLIMMAX
 10
12.0
 20
9.0
  9
$UNITMODE
 70
     0
  9
$VISRETAIN
 70
     1
  9
$PLINEGEN
 70
     0
  9
$PSLTSCALE
 70
     1
  9
$TREEDEPTH
 70
  3020
  9
$CMLSTYLE
  2
Standard
  9
$CMLJUST
 70
     0
  9
$CMLSCALE
 40
1.0
  9
$PROXYGRAPHICS
 70
     1
  9
$MEASUREMENT
 70
     1
  9
$CELWEIGHT
370
    -1
  9
$ENDCAPS
280
     0
  9
$JOINSTYLE
280
     0
  9
$LWDISPLAY
290
     0
  9
$INSUNITS
 70
     4
  9
$HYPERLINKBASE
  1

  9
$STYLESHEET
  1

  9
$XEDIT
290
     1
  9
$CEPSNTYPE
380
     0
  9
$PSTYLEMODE
290
     1
  9
$FINGERPRINTGUID
  2
{9AB1BEB8-488B-4CB3-A749-AD7ABC94C021}
  9
$VERSIONGUID
  2
{FAEB1C32-E019-11D5-929B-00C0DF256EC4}
  9
$EXTNAMES
290
     1
  9
$PSVPSCALE
 40
0.0
  9
$OLESTARTUP
290
     0
  0
ENDSEC
  0
SECTION
  2
CLASSES
  0
CLASS
  1
ACDBDICTIONARYWDFLT
  2
AcDbDictionaryWithDefault
  3
ObjectDBX Classes
 90
        0
280
     0
281
     0
  0
CLASS
  1
VISUALSTYLE
  2
AcDbVisualStyle
  3
ObjectDBX Classes
 90
     4095
280
     0
281
     0
  0
CLASS
  1
MATERIAL
  2
AcDbMaterial
  3
ObjectDBX Classes
 90
     1153
280
     0
281
     0
  0
CLASS
  1
DICTIONARYVAR
  2
AcDbDictionaryVar
  3
ObjectDBX Classes
 90
        0
280
     0
281
     0
  0
CLASS
  1
ACDBPLACEHOLDER
  2
AcDbPlaceHolder
  3
ObjectDBX Classes
 90
        0
280
     0
281
     0
  0
CLASS
  1
LAYOUT
  2
AcDbLayout
  3
ObjectDBX Classes
 90
        0
280
     0
281
     0
  0
ENDSEC
  0
SECTION
  2
TABLES
  0
TABLE
  2
VPORT
  5
8
330
0
100
AcDbSymbolTable
 70
     1
  0
VPORT
  5
29
330
8
100
AcDbSymbolTableRecord
100
AcDbViewportTableRecord
  2
*Active
 70
     0
 10
0.0
 20
0.0
 11
1.0
 21
1.0
 12
1260.0
 22
1782.0
 13
0.0
 23
0.0
 14
0.5
 24
0.5
 15
0.5
 25
0.5
 16
0.0
 26
0.0
 36
1.0
 17
0.0
 27
0.0
 37
0.0
 40
3920.4
 41
1.60267857142857
 42
50.0
 43
0.0
 44
0.0
 50
0.0
 51
0.0
 71
     0
 72
   100
 73
     1
 74
     3
 75
     0
 76
     0
 77
     0
 78
     0
281
     0
 65
     1
110
0.0
120
0.0
130
0.0
111
1.0
121
0.0
131
0.0
112
0.0
122
1.0
132
0.0
 79
     0
146
0.0
  0
ENDTAB
  0
TABLE
  2
LTYPE
  5
5
330
0
100
AcDbSymbolTable
 70
     8
  0
LTYPE
  5
14
330
5
100
AcDbSymbolTableRecord
100
AcDbLinetypeTableRecord
  2
ByBlock
 70
     0
  3

 72
    65
 73
     0
 40
0.0
  0
LTYPE
  5
15
330
5
100
AcDbSymbolTableRecord
100
AcDbLinetypeTableRecord
  2
ByLayer
 70
     0
  3

 72
    65
 73
     0
 40
0.0
  0
LTYPE
  5
16
330
5
100
AcDbSymbolTableRecord
100
AcDbLinetypeTableRecord
  2
Continuous
 70
     0
  3
Solid line
 72
    65
 73
     0
 40
0.0
  0
LTYPE
  5
3F
330
5
100
AcDbSymbolTableRecord
100
AcDbLinetypeTableRecord
  2
DASHED
 70
     0
  3
Dashed
 72
    65
 73
     2
 40
15.0
 49
7.0
 74
     0
 49
-8.0
 74
     0
  0
LTYPE
  5
40
330
5
100
AcDbSymbolTableRecord
100
AcDbLinetypeTableRecord
  2
DOTTED
 70
     0
  3
Dotted
 72
    65
 73
     2
 40
1.0
 49
0.0
 74
     0
 49
-1.0
 74
     0
  0
LTYPE
  5
41
330
5
100
AcDbSymbolTableRecord
100
AcDbLinetypeTableRecord
  2
DOT_CENTER
 70
     0
  3
Dot_Center
 72
    65
 73
     4
 40
14.0
 49
12.0
 74
     0
 49
-1.0
 74
     0
 49
0.0
 74
     0
 49
-1.0
 74
     0
  0
LTYPE
  5
42
330
5
100
AcDbSymbolTableRecord
100
AcDbLinetypeTableRecord
  2
LONG_DASHED
 70
     0
  3
Long_Dashed
 72
    65
 73
     2
 40
15.0
 49
10.0
 74
     0
 49
-5.0
 74
     0
  0
LTYPE
  5
43
330
5
100
AcDbSymbolTableRecord
100
AcDbLinetypeTableRecord
  2
DASH_CENTER
 70
     0
  3
Dash_Center
 72
    65
 73
     4
 40
14.0
 49
11.0
 74
     0
 49
-1.0
 74
     0
 49
1.0
 74
     0
 49
-1.0
 74
     0
  0
LTYPE
  5
44
330
5
100
AcDbSymbolTableRecord
100
AcDbLinetypeTableRecord
  2
PHANTOM
 70
     0
  3
Phantom
 72
    65
 73
     6
 40
13.0
 49
10.0
 74
     0
 49
-1.0
 74
     0
 49
0.0
 74
     0
 49
-1.0
 74
     0
 49
0.0
 74
     0
 49
-1.0
 74
     0
  0
LTYPE
  5
45
330
5
100
AcDbSymbolTableRecord
100
AcDbLinetypeTableRecord
  2
CENTER_DASH_DASH
 70
     0
  3
Center_Dash_Dash
 72
    65
 73
     6
 40
14.0
 49
9.0
 74
     0
 49
-1.0
 74
     0
 49
1.0
 74
     0
 49
-1.0
 74
     0
 49
1.0
 74
     0
 49
-1.0
 74
     0
  0
ENDTAB
  0
TABLE
  2
LAYER
  5
2
330
0
100
AcDbSymbolTable
 70
     2
  0
LAYER
  5
10
330
2
100
AcDbSymbolTableRecord
100
AcDbLayerTableRecord
  2
0
 70
     0
 62
     7
  6
Continuous
370
    -3
390
F
  0
LAYER
  5
46
330
2
100
AcDbSymbolTableRecord
100
AcDbLayerTableRecord
  2
1
 70
     0
 62
     7
  6
Continuous
370
    -3
390
F
  0
ENDTAB
  0
TABLE
  2
STYLE
  5
3
330
0
100
AcDbSymbolTable
 70
     3
  0
STYLE
  5
11
330
3
100
AcDbSymbolTableRecord
100
AcDbTextStyleTableRecord
  2
Standard
 70
     0
 40
0.0
 41
1.0
 50
0.0
 71
     0
 42
0.2
  3
txt
  4

  0
STYLE
  5
9A
330
3
100
AcDbSymbolTableRecord
100
AcDbTextStyleTableRecord
  2
CONVERTER_11
 70
     0
 40
0.0
 41
0.89
 50
0.0
 71
     0
 42
0.2
  3
MS Mincho.ttf
  4

1001
ACAD
1000
MS Mincho
1071
    32785
  0
STYLE
  5
E6
330
3
100
AcDbSymbolTableRecord
100
AcDbTextStyleTableRecord
  2
CONVERTER_12
 70
     0
 40
0.0
 41
0.9
 50
0.0
 71
     0
 42
0.2
  3
txt.shx
  4

  0
ENDTAB
  0
TABLE
  2
VIEW
  5
6
330
0
100
AcDbSymbolTable
 70
     0
  0
ENDTAB
  0
TABLE
  2
UCS
  5
7
330
0
100
AcDbSymbolTable
 70
     0
  0
ENDTAB
  0
TABLE
  2
APPID
  5
9
330
0
100
AcDbSymbolTable
 70
     1
  0
APPID
  5
12
330
9
100
AcDbSymbolTableRecord
100
AcDbRegAppTableRecord
  2
ACAD
 70
     0
  0
ENDTAB
  0
TABLE
  2
DIMSTYLE
  5
A
330
0
100
AcDbSymbolTable
 70
    14
100
AcDbDimStyleTable
  0
DIMSTYLE
105
27
330
A
100
AcDbSymbolTableRecord
100
AcDbDimStyleTableRecord
  2
Standard
 70
     0
178
     0
340
11
  0
DIMSTYLE
105
107
102
{ACAD_REACTORS
330
108
102
}
330
A
100
AcDbSymbolTableRecord
100
AcDbDimStyleTableRecord
  2
ME10_DIM_10
 70
     0
 41
42.0
 42
0.0
 44
12.0
 73
     0
 74
     0
 77
     1
 78
     8
140
42.0
147
12.0
172
     1
173
     1
174
     1
175
     1
176
     2
177
     2
271
     2
178
     7
271
     2
340
E6
  0
DIMSTYLE
105
112
102
{ACAD_REACTORS
330
113
102
}
330
A
100
AcDbSymbolTableRecord
100
AcDbDimStyleTableRecord
  2
ME10_DIM_11
 70
     0
 41
42.0
 42
0.0
 44
12.0
 73
     0
 74
     0
 77
     1
 78
     8
140
42.0
147
12.0
172
     1
173
     1
174
     1
175
     1
176
     2
177
     2
271
     2
178
     7
271
     2
340
E6
  0
DIMSTYLE
105
11D
102
{ACAD_REACTORS
330
11E
102
}
330
A
100
AcDbSymbolTableRecord
100
AcDbDimStyleTableRecord
  2
ME10_DIM_12
 70
     0
 41
42.0
 42
0.0
 44
12.0
 73
     0
 74
     0
 77
     1
 78
     8
140
42.0
147
12.0
172
     1
173
     1
174
     1
175
     1
176
     2
177
     2
271
     2
178
     7
271
     2
340
E6
  0
DIMSTYLE
105
128
102
{ACAD_REACTORS
330
129
102
}
330
A
100
AcDbSymbolTableRecord
100
AcDbDimStyleTableRecord
  2
ME10_DIM_13
 70
     0
 41
42.0
 42
0.0
 44
12.0
 73
     0
 74
     0
 77
     1
 78
     8
140
42.0
147
12.0
172
     1
173
     1
174
     1
175
     1
176
     2
177
     2
271
     2
178
     7
271
     2
340
E6
  0
DIMSTYLE
105
133
102
{ACAD_REACTORS
330
134
102
}
330
A
100
AcDbSymbolTableRecord
100
AcDbDimStyleTableRecord
  2
ME10_DIM_14
 70
     0
 41
42.0
 42
0.0
 44
12.0
 73
     0
 74
     0
 77
     1
 78
     8
140
42.0
147
12.0
172
     1
173
     1
174
     1
175
     1
176
     2
177
     2
271
     2
178
     7
271
     2
340
E6
  0
DIMSTYLE
105
13E
102
{ACAD_REACTORS
330
13F
102
}
330
A
100
AcDbSymbolTableRecord
100
AcDbDimStyleTableRecord
  2
ME10_DIM_15
 70
     0
 41
42.0
 42
0.0
 44
12.0
 73
     0
 74
     0
 77
     1
 78
     8
140
42.0
147
12.0
172
     1
173
     1
174
     1
175
     1
176
     2
177
     2
271
     2
178
     7
271
     2
340
E6
  0
DIMSTYLE
105
149
102
{ACAD_REACTORS
330
14A
102
}
330
A
100
AcDbSymbolTableRecord
100
AcDbDimStyleTableRecord
  2
ME10_DIM_16
 70
     0
 41
42.0
 42
0.0
 44
12.0
 73
     0
 74
     0
 77
     1
 78
     8
140
42.0
147
12.0
172
     1
173
     1
174
     1
175
     1
176
     2
177
     2
271
     2
178
     7
271
     2
340
E6
  0
DIMSTYLE
105
154
102
{ACAD_REACTORS
330
155
102
}
330
A
100
AcDbSymbolTableRecord
100
AcDbDimStyleTableRecord
  2
ME10_DIM_17
 70
     0
 41
42.0
 42
0.0
 44
12.0
 77
     1
 78
     8
140
42.0
147
12.0
172
     1
173
     1
174
     1
175
     1
176
     2
177
     2
271
     2
178
     7
271
     2
340
E6
  0
DIMSTYLE
105
15F
102
{ACAD_REACTORS
330
160
102
}
330
A
100
AcDbSymbolTableRecord
100
AcDbDimStyleTableRecord
  2
ME10_DIM_18
 70
     0
 41
42.0
 42
0.0
 44
12.0
 77
     1
 78
     8
140
42.0
147
12.0
172
     1
173
     1
174
     1
175
     1
176
     2
177
     2
271
     2
178
     7
271
     2
340
E6
  0
DIMSTYLE
105
16C
102
{ACAD_REACTORS
330
16D
102
}
330
A
100
AcDbSymbolTableRecord
100
AcDbDimStyleTableRecord
  2
ME10_DIM_19
 70
     0
 41
42.0
 42
0.0
 44
12.0
 73
     0
 74
     0
 77
     1
 78
     8
140
42.0
147
12.0
172
     1
173
     1
174
     1
175
     1
176
     2
177
     2
271
     2
178
     7
271
     2
340
E6
  0
DIMSTYLE
105
179
102
{ACAD_REACTORS
330
17A
102
}
330
A
100
AcDbSymbolTableRecord
100
AcDbDimStyleTableRecord
  2
ME10_DIM_20
 70
     0
 41
42.0
 42
0.0
 44
12.0
 73
     0
 74
     0
 77
     1
 78
     8
140
42.0
147
12.0
172
     1
173
     1
174
     1
175
     1
176
     2
177
     2
271
     2
178
     7
271
     2
340
E6
  0
DIMSTYLE
105
184
102
{ACAD_REACTORS
330
185
102
}
330
A
100
AcDbSymbolTableRecord
100
AcDbDimStyleTableRecord
  2
ME10_DIM_21
 70
     0
 41
42.0
 42
0.0
 44
12.0
 73
     0
 74
     0
 77
     1
 78
     8
140
42.0
147
12.0
172
     1
173
     1
174
     1
175
     1
176
     2
177
     2
271
     2
178
     7
271
     2
340
E6
  0
DIMSTYLE
105
18F
102
{ACAD_REACTORS
330
190
102
}
330
A
100
AcDbSymbolTableRecord
100
AcDbDimStyleTableRecord
  2
ME10_DIM_22
 70
     0
 41
42.0
 42
0.0
 44
12.0
 73
     0
 74
     0
 77
     1
 78
     8
140
42.0
147
12.0
172
     1
173
     1
174
     1
175
     1
176
     2
177
     2
271
     2
178
     7
271
     2
340
E6
  0
ENDTAB
  0
TABLE
  2
BLOCK_RECORD
  5
1
330
0
100
AcDbSymbolTable
 70
    19
  0
BLOCK_RECORD
  5
1F
330
1
100
AcDbSymbolTableRecord
100
AcDbBlockTableRecord
  2
*Model_Space
340
22
  0
BLOCK_RECORD
  5
1B
330
1
100
AcDbSymbolTableRecord
100
AcDbBlockTableRecord
  2
*Paper_Space
340
1E
  0
BLOCK_RECORD
  5
23
330
1
100
AcDbSymbolTableRecord
100
AcDbBlockTableRecord
  2
*Paper_Space0
340
26
  0
BLOCK_RECORD
  5
47
330
1
100
AcDbSymbolTableRecord
100
AcDbBlockTableRecord
  2
開示A4
340
0
102
{BLKREFS
331
4D
102
}
  0
BLOCK_RECORD
  5
4A
330
1
100
AcDbSymbolTableRecord
100
AcDbBlockTableRecord
  2
K475NJV-2T_V2261-X2-13_S
340
0
102
{BLKREFS
331
4E
102
}
  0
BLOCK_RECORD
  5
FE
330
1
100
AcDbSymbolTableRecord
100
AcDbBlockTableRecord
  2
*D3
340
0
  0
BLOCK_RECORD
  5
109
330
1
100
AcDbSymbolTableRecord
100
AcDbBlockTableRecord
  2
*D4
340
0
  0
BLOCK_RECORD
  5
114
330
1
100
AcDbSymbolTableRecord
100
AcDbBlockTableRecord
  2
*D5
340
0
  0
BLOCK_RECORD
  5
11F
330
1
100
AcDbSymbolTableRecord
100
AcDbBlockTableRecord
  2
*D6
340
0
  0
BLOCK_RECORD
  5
12A
330
1
100
AcDbSymbolTableRecord
100
AcDbBlockTableRecord
  2
*D7
340
0
  0
BLOCK_RECORD
  5
135
330
1
100
AcDbSymbolTableRecord
100
AcDbBlockTableRecord
  2
*D8
340
0
  0
BLOCK_RECORD
  5
140
330
1
100
AcDbSymbolTableRecord
100
AcDbBlockTableRecord
  2
*D9
340
0
  0
BLOCK_RECORD
  5
14B
330
1
100
AcDbSymbolTableRecord
100
AcDbBlockTableRecord
  2
*D10
340
0
  0
BLOCK_RECORD
  5
156
330
1
100
AcDbSymbolTableRecord
100
AcDbBlockTableRecord
  2
*D11
340
0
  0
BLOCK_RECORD
  5
161
330
1
100
AcDbSymbolTableRecord
100
AcDbBlockTableRecord
  2
*D12
340
0
  0
BLOCK_RECORD
  5
16E
330
1
100
AcDbSymbolTableRecord
100
AcDbBlockTableRecord
  2
*D13
340
0
  0
BLOCK_RECORD
  5
17B
330
1
100
AcDbSymbolTableRecord
100
AcDbBlockTableRecord
  2
*D14
340
0
  0
BLOCK_RECORD
  5
186
330
1
100
AcDbSymbolTableRecord
100
AcDbBlockTableRecord
  2
*D15
340
0
  0
BLOCK_RECORD
  5
191
330
1
100
AcDbSymbolTableRecord
100
AcDbBlockTableRecord
  2
*D16
340
0
102
{BLKREFS
331
198
102
}
  0
BLOCK_RECORD
  5
199
330
1
100
AcDbSymbolTableRecord
100
AcDbBlockTableRecord
  2
*D17
340
0
102
{BLKREFS
331
1A0
102
}
  0
BLOCK_RECORD
  5
1A1
330
1
100
AcDbSymbolTableRecord
100
AcDbBlockTableRecord
  2
*D18
340
0
102
{BLKREFS
331
1A8
102
}
  0
ENDTAB
  0
ENDSEC
  0
SECTION
  2
BLOCKS
  0
BLOCK
  5
20
330
1F
100
AcDbEntity
  8
0
100
AcDbBlockBegin
  2
*Model_Space
 70
     0
 10
0.0
 20
0.0
 30
0.0
  3
*Model_Space
  1

  0
ENDBLK
  5
21
330
1F
100
AcDbEntity
  8
0
100
AcDbBlockEnd
  0
BLOCK
  5
1C
330
1B
100
AcDbEntity
 67
     1
  8
0
100
AcDbBlockBegin
  2
*Paper_Space
 70
     0
 10
0.0
 20
0.0
 30
0.0
  3
*Paper_Space
  1

  0
ENDBLK
  5
1D
330
1B
100
AcDbEntity
 67
     1
  8
0
100
AcDbBlockEnd
  0
BLOCK
  5
24
330
23
100
AcDbEntity
  8
0
100
AcDbBlockBegin
  2
*Paper_Space0
 70
     0
 10
0.0
 20
0.0
 30
0.0
  3
*Paper_Space0
  1

  0
ENDBLK
  5
25
330
23
100
AcDbEntity
  8
0
100
AcDbBlockEnd
  0
BLOCK
  5
48
330
47
100
AcDbEntity
  8
0
100
AcDbBlockBegin
  2
開示A4
 70
     0
 10
0.0
 20
0.0
 30
0.0
  3
開示A4
  1

  0
POINT
  5
4F
330
47
100
AcDbEntity
  8
1
 62
     4
100
AcDbPoint
 10
34.0
 20
34.0
 30
0.0
  0
POINT
  5
50
330
47
100
AcDbEntity
  8
1
 62
     4
100
AcDbPoint
 10
57.00000000000001
 20
12.25
 30
0.0
  0
POINT
  5
51
330
47
100
AcDbEntity
  8
1
 62
     4
100
AcDbPoint
 10
57.00000000000001
 20
20.75000000000001
 30
0.0
  0
POINT
  5
52
330
47
100
AcDbEntity
  8
1
 62
     4
100
AcDbPoint
 10
57.0
 20
24.75000000000001
 30
0.0
  0
POINT
  5
53
330
47
100
AcDbEntity
  8
1
 62
     4
100
AcDbPoint
 10
57.00000000000001
 20
16.25
 30
0.0
  0
POINT
  5
54
330
47
100
AcDbEntity
  8
1
 62
     4
100
AcDbPoint
 10
157.5
 20
19.00000000000001
 30
0.0
  0
POINT
  5
55
330
47
100
AcDbEntity
  8
1
 62
     4
100
AcDbPoint
 10
47.5
 20
282.0000000000003
 30
0.0
  0
POINT
  5
56
330
47
100
AcDbEntity
  8
1
 62
     4
100
AcDbPoint
 10
57.00000000000001
 20
22.75000000000001
 30
0.0
  0
POINT
  5
57
330
47
100
AcDbEntity
  8
1
 62
     4
100
AcDbPoint
 10
57.00000000000001
 20
14.25
 30
0.0
  0
POINT
  5
58
330
47
100
AcDbEntity
  8
1
 62
     4
100
AcDbPoint
 10
157.5
 20
12.5
 30
0.0
  0
POINT
  5
59
330
47
100
AcDbEntity
  8
1
 62
     4
100
AcDbPoint
 10
163.25
 20
12.5
 30
0.0
  0
POINT
  5
5A
330
47
100
AcDbEntity
  8
1
 62
     4
100
AcDbPoint
 10
151.75
 20
12.5
 30
0.0
  0
POINT
  5
5B
330
47
100
AcDbEntity
  8
1
 62
     4
100
AcDbPoint
 10
134.75
 20
12.5
 30
0.0
  0
POINT
  5
5C
330
47
100
AcDbEntity
  8
1
 62
     4
100
AcDbPoint
 10
146.25
 20
12.5
 30
0.0
  0
POINT
  5
5D
330
47
100
AcDbEntity
  8
1
 62
     4
100
AcDbPoint
 10
140.5
 20
12.5
 30
0.0
  0
POINT
  5
5E
330
47
100
AcDbEntity
  8
1
 62
     4
100
AcDbPoint
 10
140.5
 20
19.00000000000001
 30
0.0
  0
POINT
  5
5F
330
47
100
AcDbEntity
  8
1
 62
     4
100
AcDbPoint
 10
117.75
 20
12.5
 30
0.0
  0
POINT
  5
60
330
47
100
AcDbEntity
  8
1
 62
     4
100
AcDbPoint
 10
129.25
 20
12.5
 30
0.0
  0
POINT
  5
61
330
47
100
AcDbEntity
  8
1
 62
     4
100
AcDbPoint
 10
123.5
 20
12.5
 30
0.0
  0
POINT
  5
62
330
47
100
AcDbEntity
  8
1
 62
     4
100
AcDbPoint
 10
123.5
 20
19.00000000000001
 30
0.0
  0
POINT
  5
63
330
47
100
AcDbEntity
  8
1
 62
     4
100
AcDbPoint
 10
100.75
 20
12.5
 30
0.0
  0
POINT
  5
64
330
47
100
AcDbEntity
  8
1
 62
     4
100
AcDbPoint
 10
112.25
 20
12.5
 30
0.0
  0
POINT
  5
65
330
47
100
AcDbEntity
  8
1
 62
     4
100
AcDbPoint
 10
106.5
 20
12.5
 30
0.0
  0
POINT
  5
66
330
47
100
AcDbEntity
  8
1
 62
     4
100
AcDbPoint
 10
106.5
 20
19.00000000000001
 30
0.0
  0
POINT
  5
67
330
47
100
AcDbEntity
  8
1
 62
     4
100
AcDbPoint
 10
85.25
 20
17.0
 30
0.0
  0
POINT
  5
68
330
47
100
AcDbEntity
  8
1
 62
     4
100
AcDbPoint
 10
93.75
 20
17.0
 30
0.0
  0
LINE
  5
69
330
47
100
AcDbEntity
  8
1
  6
Continuous
 62
     2
100
AcDbLine
 10
81.0
 20
27.00000000000001
 30
0.0
 11
81.0
 21
10.0
 31
0.0
  0
LINE
  5
6A
330
47
100
AcDbEntity
  8
1
  6
DOT_CENTER
 62
     2
100
AcDbLine
 10
187.0
 20
26.50000000000001
 30
0.0
 11
187.0
 21
20.50000000000001
 31
0.0
  0
LINE
  5
6B
330
47
100
AcDbEntity
  8
1
  6
DOT_CENTER
 62
     2
100
AcDbLine
 10
184.0
 20
23.50000000000001
 30
0.0
 11
197.0
 21
23.50000000000001
 31
0.0
  0
LINE
  5
6C
330
47
100
AcDbEntity
  8
1
  6
Continuous
 62
     7
100
AcDbLine
 10
196.0
 20
21.50000000000001
 30
0.0
 11
191.0
 21
22.30000000000001
 31
0.0
  0
LINE
  5
6D
330
47
100
AcDbEntity
  8
1
  6
Continuous
 62
     7
100
AcDbLine
 10
196.0
 20
25.50000000000001
 30
0.0
 11
196.0
 21
21.50000000000001
 31
0.0
  0
LINE
  5
6E
330
47
100
AcDbEntity
  8
1
  6
Continuous
 62
     7
100
AcDbLine
 10
191.0
 20
24.70000000000001
 30
0.0
 11
196.0
 21
25.50000000000001
 31
0.0
  0
LINE
  5
6F
330
47
100
AcDbEntity
  8
1
  6
Continuous
 62
     7
100
AcDbLine
 10
191.0
 20
24.70000000000001
 30
0.0
 11
191.0
 21
22.30000000000001
 31
0.0
  0
LINE
  5
70
330
47
100
AcDbEntity
  8
1
  6
Continuous
 62
     2
100
AcDbLine
 10
33.0
 20
27.0
 30
0.0
 11
33.0
 21
10.0
 31
0.0
  0
LINE
  5
71
330
47
100
AcDbEntity
  8
1
  6
Continuous
 62
     2
100
AcDbLine
 10
25.0
 20
18.50000000000001
 30
0.0
 11
81.0
 21
18.50000000000001
 31
0.0
  0
LINE
  5
72
330
47
100
AcDbEntity
  8
1
  6
Continuous
 62
     7
100
AcDbLine
 10
200.0
 20
287.0000000000003
 30
0.0
 11
105.0
 21
287.0000000000003
 31
0.0
  0
LINE
  5
73
330
47
100
AcDbEntity
  8
1
  6
Continuous
 62
     7
100
AcDbLine
 10
200.0
 20
10.0
 30
0.0
 11
200.0
 21
148.5
 31
0.0
  0
LINE
  5
74
330
47
100
AcDbEntity
  8
1
  6
Continuous
 62
     7
100
AcDbLine
 10
25.0
 20
10.0
 30
0.0
 11
105.0
 21
10.0
 31
0.0
  0
LINE
  5
75
330
47
100
AcDbEntity
  8
1
  6
PHANTOM
 62
     4
100
AcDbLine
 10
0.0
 20
297.0
 30
0.0
 11
0.0
 21
0.0
 31
0.0
  0
LINE
  5
76
330
47
100
AcDbEntity
  8
1
  6
PHANTOM
 62
     4
100
AcDbLine
 10
210.0
 20
297.0
 30
0.0
 11
0.0
 21
297.0
 31
0.0
  0
LINE
  5
77
330
47
100
AcDbEntity
  8
1
  6
PHANTOM
 62
     4
100
AcDbLine
 10
210.0
 20
0.0
 30
0.0
 11
210.0
 21
297.0
 31
0.0
  0
LINE
  5
78
330
47
100
AcDbEntity
  8
1
  6
PHANTOM
 62
     4
100
AcDbLine
 10
0.0
 20
0.0
 30
0.0
 11
210.0
 21
0.0
 31
0.0
  0
LINE
  5
79
330
47
100
AcDbEntity
  8
1
  6
Continuous
 62
     7
100
AcDbLine
 10
25.0
 20
41.0
 30
0.0
 11
200.0
 21
41.0
 31
0.0
  0
LINE
  5
7A
330
47
100
AcDbEntity
  8
1
  6
Continuous
 62
     7
100
AcDbLine
 10
200.0
 20
27.00000000000001
 30
0.0
 11
25.0
 21
27.00000000000001
 31
0.0
  0
LINE
  5
7B
330
47
100
AcDbEntity
  8
1
  6
Continuous
 62
     2
100
AcDbLine
 10
33.0
 20
41.0
 30
0.0
 11
33.0
 21
27.0
 31
0.0
  0
LINE
  5
7C
330
47
100
AcDbEntity
  8
1
  6
Continuous
 62
     2
100
AcDbLine
 10
55.0
 20
287.0000000000003
 30
0.0
 11
55.00000000000001
 21
277.0000000000003
 31
0.0
  0
LINE
  5
7D
330
47
100
AcDbEntity
  8
1
  6
Continuous
 62
     2
100
AcDbLine
 10
40.0
 20
287.0000000000003
 30
0.0
 11
40.0
 21
277.0000000000003
 31
0.0
  0
LINE
  5
7E
330
47
100
AcDbEntity
  8
1
  6
Continuous
 62
     7
100
AcDbLine
 10
25.0
 20
10.0
 30
0.0
 11
25.0
 21
148.5
 31
0.0
  0
LINE
  5
7F
330
47
100
AcDbEntity
  8
1
  6
Continuous
 62
     2
100
AcDbLine
 10
55.00000000000001
 20
277.0000000000003
 30
0.0
 11
25.0
 21
277.0000000000003
 31
0.0
  0
LINE
  5
80
330
47
100
AcDbEntity
  8
1
  6
Continuous
 62
     2
100
AcDbLine
 10
166.0
 20
27.00000000000001
 30
0.0
 11
166.0
 21
10.0
 31
0.0
  0
LINE
  5
81
330
47
100
AcDbEntity
  8
1
  6
Continuous
 62
     2
100
AcDbLine
 10
132.0
 20
27.00000000000001
 30
0.0
 11
132.0
 21
9.99999999999999
 31
0.0
  0
LINE
  5
82
330
47
100
AcDbEntity
  8
1
  6
Continuous
 62
     2
100
AcDbLine
 10
149.0
 20
27.00000000000001
 30
0.0
 11
149.0
 21
10.0
 31
0.0
  0
LINE
  5
83
330
47
100
AcDbEntity
  8
1
  6
Continuous
 62
     2
100
AcDbLine
 10
115.0
 20
27.00000000000001
 30
0.0
 11
115.0
 21
9.99999999999999
 31
0.0
  0
LINE
  5
84
330
47
100
AcDbEntity
  8
1
  6
Continuous
 62
     2
100
AcDbLine
 10
98.0
 20
27.00000000000001
 30
0.0
 11
98.0
 21
9.99999999999999
 31
0.0
  0
LINE
  5
85
330
47
100
AcDbEntity
  8
1
  6
Continuous
 62
     2
100
AcDbLine
 10
166.0
 20
20.00000000000001
 30
0.0
 11
200.0
 21
20.00000000000001
 31
0.0
  0
LINE
  5
86
330
47
100
AcDbEntity
  8
1
  6
Continuous
 62
     2
100
AcDbLine
 10
105.0
 20
287.0000000000003
 30
0.0
 11
105.0
 21
292.0000000000003
 31
0.0
  0
LINE
  5
87
330
47
100
AcDbEntity
  8
1
  6
Continuous
 62
     7
100
AcDbLine
 10
105.0
 20
287.0000000000003
 30
0.0
 11
25.0
 21
287.0000000000003
 31
0.0
  0
LINE
  5
88
330
47
100
AcDbEntity
  8
1
  6
Continuous
 62
     2
100
AcDbLine
 10
25.0
 20
148.5
 30
0.0
 11
20.0
 21
148.5
 31
0.0
  0
LINE
  5
89
330
47
100
AcDbEntity
  8
1
  6
Continuous
 62
     7
100
AcDbLine
 10
25.0
 20
148.5
 30
0.0
 11
25.0
 21
287.0000000000003
 31
0.0
  0
LINE
  5
8A
330
47
100
AcDbEntity
  8
1
  6
Continuous
 62
     2
100
AcDbLine
 10
200.0
 20
148.5
 30
0.0
 11
205.0
 21
148.5
 31
0.0
  0
LINE
  5
8B
330
47
100
AcDbEntity
  8
1
  6
Continuous
 62
     7
100
AcDbLine
 10
200.0
 20
148.5
 30
0.0
 11
200.0
 21
287.0000000000003
 31
0.0
  0
LINE
  5
8C
330
47
100
AcDbEntity
  8
1
  6
Continuous
 62
     2
100
AcDbLine
 10
105.0
 20
10.0
 30
0.0
 11
105.0
 21
5.0
 31
0.0
  0
LINE
  5
8D
330
47
100
AcDbEntity
  8
1
  6
Continuous
 62
     7
100
AcDbLine
 10
105.0
 20
10.0
 30
0.0
 11
200.0
 21
10.0
 31
0.0
  0
CIRCLE
  5
8E
330
47
100
AcDbEntity
  8
1
  6
DOT_CENTER
 62
     7
100
AcDbCircle
 10
89.5
 20
18.0
 30
0.0
 40
0.1000000000000227
  0
CIRCLE
  5
8F
330
47
100
AcDbEntity
  8
1
  6
DOT_CENTER
 62
     7
100
AcDbCircle
 10
89.5
 20
16.0
 30
0.0
 40
0.1000000000000227
  0
CIRCLE
  5
90
330
47
100
AcDbEntity
  8
1
  6
Continuous
 62
     7
100
AcDbCircle
 10
187.0
 20
23.50000000000001
 30
0.0
 40
2.0
  0
CIRCLE
  5
91
330
47
100
AcDbEntity
  8
1
  6
Continuous
 62
     7
100
AcDbCircle
 10
187.0
 20
23.50000000000001
 30
0.0
 40
1.200000000000102
  0
CIRCLE
  5
92
330
47
100
AcDbEntity
  8
1
  6
Continuous
 62
     7
100
AcDbCircle
 10
154.5
 20
12.5
 30
0.0
 40
0.3000000000000114
  0
CIRCLE
  5
93
330
47
100
AcDbEntity
  8
1
  6
Continuous
 62
     7
100
AcDbCircle
 10
160.5
 20
12.5
 30
0.0
 40
0.3000000000000114
  0
CIRCLE
  5
94
330
47
100
AcDbEntity
  8
1
  6
Continuous
 62
     7
100
AcDbCircle
 10
143.5
 20
12.5
 30
0.0
 40
0.3000000000000114
  0
CIRCLE
  5
95
330
47
100
AcDbEntity
  8
1
  6
Continuous
 62
     7
100
AcDbCircle
 10
137.5
 20
12.5
 30
0.0
 40
0.3000000000000114
  0
CIRCLE
  5
96
330
47
100
AcDbEntity
  8
1
  6
Continuous
 62
     7
100
AcDbCircle
 10
126.5
 20
12.5
 30
0.0
 40
0.2999999999999972
  0
CIRCLE
  5
97
330
47
100
AcDbEntity
  8
1
  6
Continuous
 62
     7
100
AcDbCircle
 10
120.5
 20
12.5
 30
0.0
 40
0.2999999999999972
  0
CIRCLE
  5
98
330
47
100
AcDbEntity
  8
1
  6
Continuous
 62
     7
100
AcDbCircle
 10
109.5
 20
12.5
 30
0.0
 40
0.2999999999999972
  0
CIRCLE
  5
99
330
47
100
AcDbEntity
  8
1
  6
Continuous
 62
     7
100
AcDbCircle
 10
103.5
 20
12.5
 30
0.0
 40
0.2999999999999972
  0
MTEXT
  5
9B
330
47
100
AcDbEntity
  8
1
 62
   250
100
AcDbMText
 10
25.0
 20
5.0
 30
0.0
 40
3.5
 41
0.0
 71
     4
 72
     1
  1
備考欄の文字列 原点位置=4
  7
CONVERTER_11
 73
     1
 44
0.54545454545455
  0
MTEXT
  5
9C
330
47
100
AcDbEntity
  8
1
 62
     2
100
AcDbMText
 10
89.5
 20
24.00000000000001
 30
0.0
 40
3.5
 41
0.0
 71
     5
 72
     1
  1
尺度
  7
CONVERTER_11
 73
     1
 44
0.54545454545455
  0
MTEXT
  5
9D
330
47
100
AcDbEntity
  8
1
 62
     2
100
AcDbMText
 10
135.5
 20
25.00000000000001
 30
0.0
 40
3.0
 41
0.0
 71
     5
 72
     1
  1
製図
  7
CONVERTER_11
 73
     1
 44
0.59090909090909
  0
MTEXT
  5
9E
330
47
100
AcDbEntity
  8
1
 62
     2
100
AcDbMText
 10
152.5
 20
25.00000000000001
 30
0.0
 40
3.0
 41
0.0
 71
     5
 72
     1
  1
担当
  7
CONVERTER_11
 73
     1
 44
0.59090909090909
  0
MTEXT
  5
9F
330
47
100
AcDbEntity
  8
1
 62
     2
100
AcDbMText
 10
118.5
 20
25.00000000000001
 30
0.0
 40
3.0
 41
0.0
 71
     5
 72
     1
  1
検図
  7
CONVERTER_11
 73
     1
 44
0.59090909090909
  0
MTEXT
  5
A0
330
47
100
AcDbEntity
  8
1
 62
     2
100
AcDbMText
 10
175.0
 20
23.50000000000001
 30
0.0
 40
3.5
 41
0.0
 71
     5
 72
     1
  1
第三角法
  7
CONVERTER_11
 73
     1
 44
0.54545454545455
  0
MTEXT
  5
A1
330
47
100
AcDbEntity
  8
1
 62
     2
100
AcDbMText
 10
101.5
 20
25.00000000000001
 30
0.0
 40
3.0
 41
0.0
 71
     5
 72
     1
  1
承認
  7
CONVERTER_11
 73
     1
 44
0.59090909090909
  0
MTEXT
  5
A2
330
47
100
AcDbEntity
  8
1
 62
     2
100
AcDbMText
 10
29.0
 20
14.25
 30
0.0
 40
3.5
 41
0.0
 71
     5
 72
     1
  1
品番
  7
CONVERTER_11
 73
     1
 44
0.72727272727273
  0
MTEXT
  5
A3
330
47
100
AcDbEntity
  8
1
 62
     2
100
AcDbMText
 10
29.0
 20
22.75
 30
0.0
 40
3.5
 41
0.0
 71
     5
 72
     1
  1
品名
  7
CONVERTER_11
 73
     1
 44
0.72727272727273
  0
MTEXT
  5
A4
330
47
100
AcDbEntity
  8
1
 62
     2
100
AcDbMText
 10
29.0
 20
34.0
 30
0.0
 40
3.5
 41
0.0
 71
     5
 72
     1
  1
備考
  7
CONVERTER_11
 73
     1
 44
0.45454545454545
  0
MTEXT
  5
A5
330
47
100
AcDbEntity
  8
1
 62
     2
100
AcDbMText
 10
32.5
 20
282.0000000000003
 30
0.0
 40
5.0
 41
0.0
 71
     5
 72
     1
  1
図番
  7
CONVERTER_11
 73
     1
 44
0.45454545454545
  0
MTEXT
  5
A6
330
47
100
AcDbEntity
  8
1
 62
     7
100
AcDbMText
 10
171.5
 20
15.0
 30
0.0
 40
2.5
 41
0.0
 71
     5
 72
     1
  1
株式会社
  7
CONVERTER_11
 73
     1
 44
1.0
  0
MTEXT
  5
A7
330
47
100
AcDbEntity
  8
1
 62
     7
100
AcDbMText
 10
188.5
 20
15.0
 30
0.0
 40
3.0
 41
0.0
 71
     5
 72
     1
  1
三栄水栓製作所
  7
CONVERTER_11
 73
     1
 44
1.0
  0
ENDBLK
  5
49
330
47
100
AcDbEntity
  8
0
100
AcDbBlockEnd
  0
BLOCK
  5
4B
330
4A
100
AcDbEntity
  8
0
100
AcDbBlockBegin
  2
K475NJV-2T_V2261-X2-13_S
 70
     0
 10
14478.1296917358
 20
2624.950014707826
 30
0.0
  3
K475NJV-2T_V2261-X2-13_S
  1

  0
LINE
  5
A8
330
4A
100
AcDbEntity
  8
1
  6
CENTER_DASH_DASH
 62
     2
100
AcDbLine
 10
435.0856246583679
 20
1226.10218225573
 30
0.0
 11
435.0856246583679
 21
1668.095020797397
 31
0.0
  0
LINE
  5
A9
330
4A
100
AcDbEntity
  8
1
  6
PHANTOM
 62
     4
100
AcDbLine
 10
423.0856246583668
 20
1668.095020797397
 30
0.0
 11
423.0856246583668
 21
1226.10218225573
 31
0.0
  0
LINE
  5
AA
330
4A
100
AcDbEntity
  8
1
  6
PHANTOM
 62
     4
100
AcDbLine
 10
423.0856246583668
 20
1226.10218225573
 30
0.0
 11
435.0856246583679
 21
1226.10218225573
 31
0.0
  0
LINE
  5
AB
330
4A
100
AcDbEntity
  8
1
  6
PHANTOM
 62
     4
100
AcDbLine
 10
435.0856246583679
 20
1668.095020797397
 30
0.0
 11
423.0856246583668
 21
1668.095020797397
 31
0.0
  0
LINE
  5
AC
330
4A
100
AcDbEntity
  8
1
  6
PHANTOM
 62
     4
100
AcDbLine
 10
891.9441295849391
 20
2888.806941599452
 30
0.0
 11
891.9441295849382
 21
2876.80694159945
 31
0.0
  0
LINE
  5
AD
330
4A
100
AcDbEntity
  8
1
  6
PHANTOM
 62
     4
100
AcDbLine
 10
2132.0
 20
2876.80694159945
 30
0.0
 11
2132.0
 21
2888.806941599452
 31
0.0
  0
LINE
  5
AE
330
4A
100
AcDbEntity
  8
1
  6
PHANTOM
 62
     4
100
AcDbLine
 10
2132.0
 20
2888.806941599452
 30
0.0
 11
891.9441295849391
 21
2888.806941599452
 31
0.0
  0
LINE
  5
AF
330
4A
100
AcDbEntity
  8
1
  6
CENTER_DASH_DASH
 62
     2
100
AcDbLine
 10
891.9441295849382
 20
2876.80694159945
 30
0.0
 11
2132.0
 21
2876.80694159945
 31
0.0
  0
LWPOLYLINE
  5
B1
330
4A
100
AcDbEntity
  8
1
  6
Continuous
 62
     4
 60
     1
100
AcDbPolyline
 90
        2
 70
     0
 43
0.0
 10
435.0856246583679
 20
1668.095020797397
 10
435.0856246583679
 20
1226.10218225573
  0
LWPOLYLINE
  5
B4
330
4A
100
AcDbEntity
  8
1
  6
Continuous
 62
     4
 60
     1
100
AcDbPolyline
 90
        2
 70
     0
 43
0.0
 10
891.9441295849382
 20
2876.80694159945
 10
2132.0
 20
2876.80694159945
  0
HATCH
  5
B6
330
4A
100
AcDbEntity
  8
0
  6
Continuous
 62
     4
100
AcDbHatch
 10
0.0
 20
0.0
 30
0.0
210
0.0
220
0.0
230
1.0
  2
CUSTOM0
 70
     0
 71
     0
 91
        1
 92
        1
 93
        4
 72
     1
 10
435.0856246583679
 20
1226.10218225573
 11
423.0856246583668
 21
1226.10218225573
 72
     1
 10
423.0856246583668
 20
1226.10218225573
 11
423.0856246583668
 21
1668.095020797397
 72
     1
 10
423.0856246583668
 20
1668.095020797397
 11
435.0856246583679
 21
1668.095020797397
 72
     1
 10
435.0856246583679
 20
1668.095020797397
 11
435.0856246583679
 21
1226.10218225573
 97
        0
 75
     1
 76
     2
 52
45.0
 41
15.0
 77
     0
 78
     2
 53
45.0
 43
0.0
 44
0.0
 45
-21.21320343559642
 46
0.0000000000000017
 79
     0
 53
45.0
 43
3.535533905932737
 44
-3.535533905932737
 45
-21.21320343559642
 46
0.0000000000000017
 79
     0
 98
        1
 10
0.0
 20
0.0
  0
HATCH
  5
B7
330
4A
100
AcDbEntity
  8
0
  6
Continuous
 62
     4
100
AcDbHatch
 10
0.0
 20
0.0
 30
0.0
210
0.0
220
0.0
230
1.0
  2
CUSTOM1
 70
     0
 71
     0
 91
        1
 92
        1
 93
        4
 72
     1
 10
2132.0
 20
2876.80694159945
 11
2132.0
 21
2888.806941599452
 72
     1
 10
2132.0
 20
2888.806941599452
 11
891.9441295849392
 21
2888.806941599452
 72
     1
 10
891.9441295849391
 20
2888.806941599452
 11
891.9441295849382
 21
2876.80694159945
 72
     1
 10
891.9441295849382
 20
2876.80694159945
 11
2132.0
 21
2876.80694159945
 97
        0
 75
     1
 76
     2
 52
45.0
 41
15.0
 77
     0
 78
     2
 53
45.0
 43
0.0
 44
0.0
 45
-21.21320343559642
 46
0.0000000000000017
 79
     0
 53
45.0
 43
3.535533905932737
 44
-3.535533905932737
 45
-21.21320343559642
 46
0.0000000000000017
 79
     0
 98
        1
 10
0.0
 20
0.0
  0
ENDBLK
  5
4C
330
4A
100
AcDbEntity
  8
0
100
AcDbBlockEnd
  0
BLOCK
  5
105
330
FE
100
AcDbEntity
  8
0
100
AcDbBlockBegin
  2
*D3
 70
     1
 10
0.0
 20
0.0
 30
0.0
  3
*D3
  1

  0
LINE
  5
FF
330
FE
100
AcDbEntity
  8
1
  6
Continuous
 62
     2
100
AcDbLine
 10
771.9441295849382
 20
2876.806941599449
 30
0.0
 11
771.9441295849382
 21
2416.882389749501
 31
0.0
  0
LINE
  5
100
330
FE
100
AcDbEntity
  8
1
  6
Continuous
 62
     2
100
AcDbLine
 10
891.9441295849382
 20
2876.806941599449
 30
0.0
 11
759.9441295849382
 21
2876.806941599449
 31
0.0
  0
LINE
  5
101
330
FE
100
AcDbEntity
  8
1
  6
Continuous
 62
     2
100
AcDbLine
 10
1012.348084299433
 20
2416.882389749501
 30
0.0
 11
759.9441295849382
 21
2416.882389749501
 31
0.0
  0
SOLID
  5
102
330
FE
100
AcDbEntity
  8
1
 62
     2
100
AcDbTrace
 10
777.4735344836088
 20
2834.806941599449
 30
0.0
 11
766.4147246862676
 21
2834.806941599449
 31
0.0
 12
771.9441295849382
 22
2876.806941599449
 32
0.0
 13
771.9441295849382
 23
2876.806941599449
 33
0.0
  0
SOLID
  5
103
330
FE
100
AcDbEntity
  8
1
 62
     2
100
AcDbTrace
 10
766.4147246862676
 20
2458.882389749501
 30
0.0
 11
777.4735344836088
 21
2458.882389749501
 31
0.0
 12
771.9441295849382
 22
2416.882389749501
 32
0.0
 13
771.9441295849382
 23
2416.882389749501
 33
0.0
  0
MTEXT
  5
104
330
FE
100
AcDbEntity
  8
1
 62
     7
100
AcDbMText
 10
759.9441295849382
 20
2596.444665674475
 30
0.0
 40
42.0
 41
0.0
 71
     7
 72
     1
  1
460
  7
CONVERTER_12
 11
0.0
 21
1.0
 31
0.0
 73
     1
 44
0.60024009603842
  0
ENDBLK
  5
106
330
FE
100
AcDbEntity
  8
0
100
AcDbBlockEnd
  0
BLOCK
  5
110
330
109
100
AcDbEntity
  8
0
100
AcDbBlockBegin
  2
*D4
 70
     1
 10
0.0
 20
0.0
 30
0.0
  3
*D4
  1

  0
LINE
  5
10A
330
109
100
AcDbEntity
  8
1
  6
Continuous
 62
     2
100
AcDbLine
 10
1012.398084299433
 20
2199.042879099406
 30
0.0
 11
2011.536800301185
 21
2199.042879099406
 31
0.0
  0
LINE
  5
10B
330
109
100
AcDbEntity
  8
1
  6
Continuous
 62
     2
100
AcDbLine
 10
1012.398084299433
 20
2416.832389749503
 30
0.0
 11
1012.398084299433
 21
2187.042879099406
 31
0.0
  0
LINE
  5
10C
330
109
100
AcDbEntity
  8
1
  6
Continuous
 62
     2
100
AcDbLine
 10
2011.536800301185
 20
2416.833852691891
 30
0.0
 11
2011.536800301185
 21
2187.042879099406
 31
0.0
  0
SOLID
  5
10D
330
109
100
AcDbEntity
  8
1
 62
     2
100
AcDbTrace
 10
1054.398084299433
 20
2204.572283998077
 30
0.0
 11
1054.398084299433
 21
2193.513474200735
 31
0.0
 12
1012.398084299433
 22
2199.042879099406
 32
0.0
 13
1012.398084299433
 23
2199.042879099406
 33
0.0
  0
SOLID
  5
10E
330
109
100
AcDbEntity
  8
1
 62
     2
100
AcDbTrace
 10
1969.536800301185
 20
2193.513474200735
 30
0.0
 11
1969.536800301185
 21
2204.572283998077
 31
0.0
 12
2011.536800301185
 22
2199.042879099406
 32
0.0
 13
2011.536800301185
 23
2199.042879099406
 33
0.0
  0
MTEXT
  5
10F
330
109
100
AcDbEntity
  8
1
 62
     7
100
AcDbMText
 10
1448.967442300309
 20
2211.042879099406
 30
0.0
 40
42.0
 41
0.0
 71
     7
 72
     1
  1
1000
  7
CONVERTER_12
 11
0.9999999999970619
 21
2.424068405545306E-6
 31
0.0
 73
     1
 44
0.60024009603842
  0
ENDBLK
  5
111
330
109
100
AcDbEntity
  8
0
100
AcDbBlockEnd
  0
BLOCK
  5
11B
330
114
100
AcDbEntity
  8
0
100
AcDbBlockBegin
  2
*D5
 70
     1
 10
0.0
 20
0.0
 30
0.0
  3
*D5
  1

  0
LINE
  5
115
330
114
100
AcDbEntity
  8
1
  6
Continuous
 62
     2
100
AcDbLine
 10
1012.398084299433
 20
2295.042879099406
 30
0.0
 11
1405.460396544719
 21
2295.042879099406
 31
0.0
  0
LINE
  5
116
330
114
100
AcDbEntity
  8
1
  6
Continuous
 62
     2
100
AcDbLine
 10
1012.398084299433
 20
2416.832389749503
 30
0.0
 11
1012.398084299433
 21
2283.042879099406
 31
0.0
  0
LINE
  5
117
330
114
100
AcDbEntity
  8
1
  6
Continuous
 62
     2
100
AcDbLine
 10
1405.460396544719
 20
2414.992879099406
 30
0.0
 11
1405.460396544719
 21
2283.042879099406
 31
0.0
  0
SOLID
  5
118
330
114
100
AcDbEntity
  8
1
 62
     2
100
AcDbTrace
 10
1054.398084299433
 20
2300.572283998077
 30
0.0
 11
1054.398084299433
 21
2289.513474200735
 31
0.0
 12
1012.398084299433
 22
2295.042879099406
 32
0.0
 13
1012.398084299433
 23
2295.042879099406
 33
0.0
  0
SOLID
  5
119
330
114
100
AcDbEntity
  8
1
 62
     2
100
AcDbTrace
 10
1363.460396544719
 20
2289.513474200735
 30
0.0
 11
1363.460396544719
 21
2300.572283998077
 31
0.0
 12
1405.460396544719
 22
2295.042879099406
 32
0.0
 13
1405.460396544719
 23
2295.042879099406
 33
0.0
  0
MTEXT
  5
11A
330
114
100
AcDbEntity
  8
1
 62
     7
100
AcDbMText
 10
1158.529240422076
 20
2307.042879099406
 30
0.0
 40
42.0
 41
0.0
 71
     7
 72
     1
  1
400
  7
CONVERTER_12
 11
0.9999999999970619
 21
2.424068405545306E-6
 31
0.0
 73
     1
 44
0.60024009603842
  0
ENDBLK
  5
11C
330
114
100
AcDbEntity
  8
0
100
AcDbBlockEnd
  0
BLOCK
  5
126
330
11F
100
AcDbEntity
  8
0
100
AcDbBlockBegin
  2
*D6
 70
     1
 10
0.0
 20
0.0
 30
0.0
  3
*D6
  1

  0
LINE
  5
120
330
11F
100
AcDbEntity
  8
1
  6
Continuous
 62
     2
100
AcDbLine
 10
1405.460396544719
 20
2295.042879099406
 30
0.0
 11
2011.536800301185
 21
2295.042879099406
 31
0.0
  0
LINE
  5
121
330
11F
100
AcDbEntity
  8
1
  6
Continuous
 62
     2
100
AcDbLine
 10
1405.460396544719
 20
2414.992879099406
 30
0.0
 11
1405.460396544719
 21
2283.042879099406
 31
0.0
  0
LINE
  5
122
330
11F
100
AcDbEntity
  8
1
  6
Continuous
 62
     2
100
AcDbLine
 10
2011.536800301185
 20
2416.833852691891
 30
0.0
 11
2011.536800301185
 21
2283.042879099406
 31
0.0
  0
SOLID
  5
123
330
11F
100
AcDbEntity
  8
1
 62
     2
100
AcDbTrace
 10
1447.460396544719
 20
2300.572283998077
 30
0.0
 11
1447.460396544719
 21
2289.513474200735
 31
0.0
 12
1405.460396544719
 22
2295.042879099406
 32
0.0
 13
1405.460396544719
 23
2295.042879099406
 33
0.0
  0
SOLID
  5
124
330
11F
100
AcDbEntity
  8
1
 62
     2
100
AcDbTrace
 10
1969.536800301185
 20
2289.513474200735
 30
0.0
 11
1969.536800301185
 21
2300.572283998077
 31
0.0
 12
2011.536800301185
 22
2295.042879099406
 32
0.0
 13
2011.536800301185
 23
2295.042879099406
 33
0.0
  0
MTEXT
  5
125
330
11F
100
AcDbEntity
  8
1
 62
     7
100
AcDbMText
 10
1658.098598422952
 20
2307.042879099406
 30
0.0
 40
42.0
 41
0.0
 71
     7
 72
     1
  1
600
  7
CONVERTER_12
 11
0.9999999999970619
 21
2.424068405545306E-6
 31
0.0
 73
     1
 44
0.60024009603842
  0
ENDBLK
  5
127
330
11F
100
AcDbEntity
  8
0
100
AcDbBlockEnd
  0
BLOCK
  5
131
330
12A
100
AcDbEntity
  8
0
100
AcDbBlockBegin
  2
*D7
 70
     1
 10
0.0
 20
0.0
 30
0.0
  3
*D7
  1

  0
LINE
  5
12B
330
12A
100
AcDbEntity
  8
1
  6
Continuous
 62
     2
100
AcDbLine
 10
2011.503682067726
 20
3008.806941599452
 30
0.0
 11
1707.287978954752
 21
3008.806941599452
 31
0.0
  0
LINE
  5
12C
330
12A
100
AcDbEntity
  8
1
  6
Continuous
 62
     2
100
AcDbLine
 10
2011.503682067726
 20
2876.85694159945
 30
0.0
 11
2011.503682067726
 21
3020.806941599452
 31
0.0
  0
LINE
  5
12D
330
12A
100
AcDbEntity
  8
1
  6
Continuous
 62
     2
100
AcDbLine
 10
1707.287978954752
 20
2912.997795177059
 30
0.0
 11
1707.287978954752
 21
3020.806941599452
 31
0.0
  0
SOLID
  5
12E
330
12A
100
AcDbEntity
  8
1
 62
     2
100
AcDbTrace
 10
1969.503682067726
 20
3003.277536700781
 30
0.0
 11
1969.503682067726
 21
3014.336346498123
 31
0.0
 12
2011.503682067726
 22
3008.806941599452
 32
0.0
 13
2011.503682067726
 23
3008.806941599452
 33
0.0
  0
SOLID
  5
12F
330
12A
100
AcDbEntity
  8
1
 62
     2
100
AcDbTrace
 10
1749.287978954752
 20
3014.336346498123
 30
0.0
 11
1749.287978954752
 21
3003.277536700781
 31
0.0
 12
1707.287978954752
 22
3008.806941599452
 32
0.0
 13
1707.287978954752
 23
3008.806941599452
 33
0.0
  0
MTEXT
  5
130
330
12A
100
AcDbEntity
  8
1
 62
     7
100
AcDbMText
 10
1808.995830511549
 20
3020.806941599452
 30
0.0
 40
42.0
 41
0.0
 71
     7
 72
     1
  1
300
  7
CONVERTER_12
 11
0.9999999999970619
 21
2.424068405545306E-6
 31
0.0
 73
     1
 44
0.60024009603842
  0
ENDBLK
  5
132
330
12A
100
AcDbEntity
  8
0
100
AcDbBlockEnd
  0
BLOCK
  5
13C
330
135
100
AcDbEntity
  8
0
100
AcDbBlockBegin
  2
*D8
 70
     1
 10
0.0
 20
0.0
 30
0.0
  3
*D8
  1

  0
LINE
  5
136
330
135
100
AcDbEntity
  8
1
  6
Continuous
 62
     2
100
AcDbLine
 10
2252.0
 20
2816.940839168895
 30
0.0
 11
2252.0
 21
2652.021351321655
 31
0.0
  0
LINE
  5
137
330
135
100
AcDbEntity
  8
1
  6
Continuous
 62
     2
100
AcDbLine
 10
2047.997243931001
 20
2652.021351321655
 30
0.0
 11
2264.0
 21
2652.021351321655
 31
0.0
  0
LINE
  5
138
330
135
100
AcDbEntity
  8
1
  6
Continuous
 62
     2
100
AcDbLine
 10
1759.28962826069
 20
2816.940839168895
 30
0.0
 11
2264.0
 21
2816.940839168895
 31
0.0
  0
SOLID
  5
139
330
135
100
AcDbEntity
  8
1
 62
     2
100
AcDbTrace
 10
2257.529404898671
 20
2774.940839168895
 30
0.0
 11
2246.470595101329
 21
2774.940839168895
 31
0.0
 12
2252.0
 22
2816.940839168895
 32
0.0
 13
2252.0
 23
2816.940839168895
 33
0.0
  0
SOLID
  5
13A
330
135
100
AcDbEntity
  8
1
 62
     2
100
AcDbTrace
 10
2246.470595101329
 20
2694.021351321655
 30
0.0
 11
2257.529404898671
 21
2694.021351321655
 31
0.0
 12
2252.0
 22
2652.021351321655
 32
0.0
 13
2252.0
 23
2652.021351321655
 33
0.0
  0
MTEXT
  5
13B
330
135
100
AcDbEntity
  8
1
 62
     7
100
AcDbMText
 10
2240.0
 20
2690.381095245273
 30
0.0
 40
42.0
 41
0.0
 71
     7
 72
     1
  1
165
  7
CONVERTER_12
 11
0.0
 21
1.0
 31
0.0
 73
     1
 44
0.60024009603842
  0
ENDBLK
  5
13D
330
135
100
AcDbEntity
  8
0
100
AcDbBlockEnd
  0
BLOCK
  5
147
330
140
100
AcDbEntity
  8
0
100
AcDbBlockBegin
  2
*D9
 70
     1
 10
0.0
 20
0.0
 30
0.0
  3
*D9
  1

  0
LINE
  5
141
330
140
100
AcDbEntity
  8
1
  6
Continuous
 62
     2
100
AcDbLine
 10
2348.0
 20
2876.80694159945
 30
0.0
 11
2348.0
 21
2652.021351321655
 31
0.0
  0
LINE
  5
142
330
140
100
AcDbEntity
  8
1
  6
Continuous
 62
     2
100
AcDbLine
 10
2047.997243931001
 20
2652.021351321655
 30
0.0
 11
2360.0
 21
2652.021351321655
 31
0.0
  0
LINE
  5
143
330
140
100
AcDbEntity
  8
1
  6
Continuous
 62
     2
100
AcDbLine
 10
2132.0
 20
2876.80694159945
 30
0.0
 11
2360.0
 21
2876.80694159945
 31
0.0
  0
SOLID
  5
144
330
140
100
AcDbEntity
  8
1
 62
     2
100
AcDbTrace
 10
2353.529404898671
 20
2834.80694159945
 30
0.0
 11
2342.470595101329
 21
2834.80694159945
 31
0.0
 12
2348.0
 22
2876.80694159945
 32
0.0
 13
2348.0
 23
2876.80694159945
 33
0.0
  0
SOLID
  5
145
330
140
100
AcDbEntity
  8
1
 62
     2
100
AcDbTrace
 10
2342.470595101329
 20
2694.021351321655
 30
0.0
 11
2353.529404898671
 21
2694.021351321655
 31
0.0
 12
2348.0
 22
2652.021351321655
 32
0.0
 13
2348.0
 23
2652.021351321655
 33
0.0
  0
MTEXT
  5
146
330
140
100
AcDbEntity
  8
1
 62
     7
100
AcDbMText
 10
2336.0
 20
2714.01414646055
 30
0.0
 40
42.0
 41
0.0
 71
     7
 72
     1
  1
225
  7
CONVERTER_12
 11
0.0
 21
1.0
 31
0.0
 73
     1
 44
0.60024009603842
  0
ENDBLK
  5
148
330
140
100
AcDbEntity
  8
0
100
AcDbBlockEnd
  0
BLOCK
  5
152
330
14B
100
AcDbEntity
  8
0
100
AcDbBlockBegin
  2
*D10
 70
     1
 10
0.0
 20
0.0
 30
0.0
  3
*D10
  1

  0
LINE
  5
14C
330
14B
100
AcDbEntity
  8
1
  6
Continuous
 62
     2
100
AcDbLine
 10
1847.15885569092
 20
1668.094441625405
 30
0.0
 11
2010.056180913744
 21
1668.094441625405
 31
0.0
  0
LINE
  5
14D
330
14B
100
AcDbEntity
  8
1
  6
Continuous
 62
     2
100
AcDbLine
 10
2010.056180913744
 20
1548.144441625405
 30
0.0
 11
2010.056180913744
 21
1680.094441625405
 31
0.0
  0
LINE
  5
14E
330
14B
100
AcDbEntity
  8
1
  6
Continuous
 62
     2
100
AcDbLine
 10
1847.15885569092
 20
1514.895324616843
 30
0.0
 11
1847.15885569092
 21
1680.094441625405
 31
0.0
  0
SOLID
  5
14F
330
14B
100
AcDbEntity
  8
1
 62
     2
100
AcDbTrace
 10
1889.15885569092
 20
1673.623846524076
 30
0.0
 11
1889.15885569092
 21
1662.565036726734
 31
0.0
 12
1847.15885569092
 22
1668.094441625405
 32
0.0
 13
1847.15885569092
 23
1668.094441625405
 33
0.0
  0
SOLID
  5
150
330
14B
100
AcDbEntity
  8
1
 62
     2
100
AcDbTrace
 10
1968.056180913744
 20
1662.565036726734
 30
0.0
 11
1968.056180913744
 21
1673.623846524076
 31
0.0
 12
2010.056180913744
 22
1668.094441625405
 32
0.0
 13
2010.056180913744
 23
1668.094441625405
 33
0.0
  0
MTEXT
  5
151
330
14B
100
AcDbEntity
  8
1
 62
     7
100
AcDbMText
 10
1884.507518302332
 20
1680.094441625405
 30
0.0
 40
42.0
 41
0.0
 71
     7
 72
     1
  1
160
  7
CONVERTER_12
 11
0.9999999999970619
 21
2.424068405545306E-6
 31
0.0
 73
     1
 44
0.60024009603842
  0
ENDBLK
  5
153
330
14B
100
AcDbEntity
  8
0
100
AcDbBlockEnd
  0
BLOCK
  5
15D
330
156
100
AcDbEntity
  8
0
100
AcDbBlockBegin
  2
*D11
 70
     1
 10
0.0
 20
0.0
 30
0.0
  3
*D11
  1

  0
LINE
  5
157
330
156
100
AcDbEntity
  8
1
  6
Continuous
 62
     2
100
AcDbLine
 10
1847.15885569092
 20
1668.094441625405
 30
0.0
 11
1567.36198069092
 21
1668.094441625405
 31
0.0
  0
LINE
  5
158
330
156
100
AcDbEntity
  8
1
  6
Continuous
 62
     2
100
AcDbLine
 10
1567.36198069092
 20
1514.895324616843
 30
0.0
 11
1567.36198069092
 21
1680.094441625405
 31
0.0
  0
LINE
  5
159
330
156
100
AcDbEntity
  8
1
  6
Continuous
 62
     2
100
AcDbLine
 10
1847.15885569092
 20
1514.895324616843
 30
0.0
 11
1847.15885569092
 21
1680.094441625405
 31
0.0
  0
SOLID
  5
15A
330
156
100
AcDbEntity
  8
1
 62
     2
100
AcDbTrace
 10
1805.15885569092
 20
1662.565036726734
 30
0.0
 11
1805.15885569092
 21
1673.623846524076
 31
0.0
 12
1847.15885569092
 22
1668.094441625405
 32
0.0
 13
1847.15885569092
 23
1668.094441625405
 33
0.0
  0
SOLID
  5
15B
330
156
100
AcDbEntity
  8
1
 62
     2
100
AcDbTrace
 10
1609.36198069092
 20
1673.623846524076
 30
0.0
 11
1609.36198069092
 21
1662.565036726734
 31
0.0
 12
1567.36198069092
 22
1668.094441625405
 32
0.0
 13
1567.36198069092
 23
1668.094441625405
 33
0.0
  0
MTEXT
  5
15C
330
156
100
AcDbEntity
  8
1
 62
     7
100
AcDbMText
 10
1656.86041819092
 20
1680.094441625405
 30
0.0
 40
42.0
 41
0.0
 71
     7
 72
     1
  1
280
  7
CONVERTER_12
 11
0.9999999999970619
 21
2.424068405545306E-6
 31
0.0
 73
     1
 44
0.60024009603842
  0
ENDBLK
  5
15E
330
156
100
AcDbEntity
  8
0
100
AcDbBlockEnd
  0
BLOCK
  5
16A
330
161
100
AcDbEntity
  8
0
100
AcDbBlockBegin
  2
*D12
 70
     1
 10
0.0
 20
0.0
 30
0.0
  3
*D12
  1

  0
LINE
  5
162
330
161
100
AcDbEntity
  8
1
  6
Continuous
 62
     2
100
AcDbLine
 10
1180.549290926946
 20
1543.141180419979
 30
0.0
 11
1180.549290926946
 21
1458.096685518567
 31
0.0
  0
LINE
  5
163
330
161
100
AcDbEntity
  8
1
  6
Continuous
 62
     2
100
AcDbLine
 10
1180.549290926946
 20
1458.096685518567
 30
0.0
 11
1180.549290926946
 21
1408.097364547399
 31
0.0
  0
LINE
  5
164
330
161
100
AcDbEntity
  8
1
  6
Continuous
 62
     2
100
AcDbLine
 10
1180.549290926946
 20
1408.097364547399
 30
0.0
 11
1180.549290926946
 21
1324.097364547399
 31
0.0
  0
LINE
  5
165
330
161
100
AcDbEntity
  8
1
  6
Continuous
 62
     2
100
AcDbLine
 10
1011.501197120562
 20
1408.097364547399
 30
0.0
 11
1192.549290926946
 21
1408.097364547399
 31
0.0
  0
LINE
  5
166
330
161
100
AcDbEntity
  8
1
  6
Continuous
 62
     2
100
AcDbLine
 10
1012.197158897538
 20
1458.096685518567
 30
0.0
 11
1192.549290926946
 21
1458.096685518567
 31
0.0
  0
SOLID
  5
167
330
161
100
AcDbEntity
  8
1
 62
     2
100
AcDbTrace
 10
1175.019886028275
 20
1500.096685518567
 30
0.0
 11
1186.078695825617
 21
1500.096685518567
 31
0.0
 12
1180.549290926946
 22
1458.096685518567
 32
0.0
 13
1180.549290926946
 23
1458.096685518567
 33
0.0
  0
SOLID
  5
168
330
161
100
AcDbEntity
  8
1
 62
     2
100
AcDbTrace
 10
1186.078695825617
 20
1366.097364547399
 30
0.0
 11
1175.019886028275
 21
1366.097364547399
 31
0.0
 12
1180.549290926946
 22
1408.097364547399
 32
0.0
 13
1180.549290926946
 23
1408.097364547399
 33
0.0
  0
MTEXT
  5
169
330
161
100
AcDbEntity
  8
1
 62
     7
100
AcDbMText
 10
1168.549290926946
 20
1480.141180419979
 30
0.0
 40
42.0
 41
0.0
 71
     7
 72
     1
  1
50
  7
CONVERTER_12
 11
0.0
 21
1.0
 31
0.0
 73
     1
 44
0.60024009603842
  0
ENDBLK
  5
16B
330
161
100
AcDbEntity
  8
0
100
AcDbBlockEnd
  0
BLOCK
  5
177
330
16E
100
AcDbEntity
  8
0
100
AcDbBlockBegin
  2
*D13
 70
     1
 10
0.0
 20
0.0
 30
0.0
  3
*D13
  1

  0
LINE
  5
16F
330
16E
100
AcDbEntity
  8
1
  6
Continuous
 62
     2
100
AcDbLine
 10
2132.277344105866
 20
1668.41094514261
 30
0.0
 11
2132.277344105866
 21
1548.094441625405
 31
0.0
  0
LINE
  5
170
330
16E
100
AcDbEntity
  8
1
  6
Continuous
 62
     2
100
AcDbLine
 10
2132.277344105866
 20
1548.094441625405
 30
0.0
 11
2132.277344105866
 21
1498.127355866843
 31
0.0
  0
LINE
  5
171
330
16E
100
AcDbEntity
  8
1
  6
Continuous
 62
     2
100
AcDbLine
 10
2132.277344105866
 20
1498.127355866843
 30
0.0
 11
2132.277344105866
 21
1414.127355866843
 31
0.0
  0
LINE
  5
172
330
16E
100
AcDbEntity
  8
1
  6
Continuous
 62
     2
100
AcDbLine
 10
1875.160591802031
 20
1498.127355866843
 30
0.0
 11
2144.277344105866
 21
1498.127355866843
 31
0.0
  0
LINE
  5
173
330
16E
100
AcDbEntity
  8
1
  6
Continuous
 62
     2
100
AcDbLine
 10
2010.106180913745
 20
1548.094441625405
 30
0.0
 11
2144.277344105866
 21
1548.094441625405
 31
0.0
  0
SOLID
  5
174
330
16E
100
AcDbEntity
  8
1
 62
     2
100
AcDbTrace
 10
2126.747939207195
 20
1590.094441625405
 30
0.0
 11
2137.806749004537
 21
1590.094441625405
 31
0.0
 12
2132.277344105866
 22
1548.094441625405
 32
0.0
 13
2132.277344105866
 23
1548.094441625405
 33
0.0
  0
SOLID
  5
175
330
16E
100
AcDbEntity
  8
1
 62
     2
100
AcDbTrace
 10
2137.806749004537
 20
1456.127355866843
 30
0.0
 11
2126.747939207195
 21
1456.127355866843
 31
0.0
 12
2132.277344105866
 22
1498.127355866843
 32
0.0
 13
2132.277344105866
 23
1498.127355866843
 33
0.0
  0
MTEXT
  5
176
330
16E
100
AcDbEntity
  8
1
 62
     7
100
AcDbMText
 10
2120.277344105866
 20
1605.41094514261
 30
0.0
 40
42.0
 41
0.0
 71
     7
 72
     1
  1
50
  7
CONVERTER_12
 11
0.0
 21
1.0
 31
0.0
 73
     1
 44
0.60024009603842
  0
ENDBLK
  5
178
330
16E
100
AcDbEntity
  8
0
100
AcDbBlockEnd
  0
BLOCK
  5
182
330
17B
100
AcDbEntity
  8
0
100
AcDbBlockBegin
  2
*D14
 70
     1
 10
0.0
 20
0.0
 30
0.0
  3
*D14
  1

  0
LINE
  5
17C
330
17B
100
AcDbEntity
  8
1
  6
Continuous
 62
     2
100
AcDbLine
 10
2228.277344105866
 20
1408.097364547398
 30
0.0
 11
2228.277344105866
 21
1548.094441625404
 31
0.0
  0
LINE
  5
17D
330
17B
100
AcDbEntity
  8
1
  6
Continuous
 62
     2
100
AcDbLine
 10
2010.106180913745
 20
1548.094441625404
 30
0.0
 11
2240.277344105866
 21
1548.094441625404
 31
0.0
  0
LINE
  5
17E
330
17B
100
AcDbEntity
  8
1
  6
Continuous
 62
     2
100
AcDbLine
 10
2012.327344105866
 20
1408.097364547398
 30
0.0
 11
2240.277344105866
 21
1408.097364547398
 31
0.0
  0
SOLID
  5
17F
330
17B
100
AcDbEntity
  8
1
 62
     2
100
AcDbTrace
 10
2222.747939207195
 20
1450.097364547398
 30
0.0
 11
2233.806749004537
 21
1450.097364547398
 31
0.0
 12
2228.277344105866
 22
1408.097364547398
 32
0.0
 13
2228.277344105866
 23
1408.097364547398
 33
0.0
  0
SOLID
  5
180
330
17B
100
AcDbEntity
  8
1
 62
     2
100
AcDbTrace
 10
2233.806749004537
 20
1506.094441625404
 30
0.0
 11
2222.747939207195
 21
1506.094441625404
 31
0.0
 12
2228.277344105866
 22
1548.094441625404
 32
0.0
 13
2228.277344105866
 23
1548.094441625404
 33
0.0
  0
MTEXT
  5
181
330
17B
100
AcDbEntity
  8
1
 62
     7
100
AcDbMText
 10
2216.277344105866
 20
1433.995903086401
 30
0.0
 40
42.0
 41
0.0
 71
     7
 72
     1
  1
140
  7
CONVERTER_12
 11
0.0
 21
1.0
 31
0.0
 73
     1
 44
0.60024009603842
  0
ENDBLK
  5
183
330
17B
100
AcDbEntity
  8
0
100
AcDbBlockEnd
  0
BLOCK
  5
18D
330
186
100
AcDbEntity
  8
0
100
AcDbBlockBegin
  2
*D15
 70
     1
 10
0.0
 20
0.0
 30
0.0
  3
*D15
  1

  0
LINE
  5
187
330
186
100
AcDbEntity
  8
1
  6
Continuous
 62
     2
100
AcDbLine
 10
2324.277344105866
 20
1393.231088505732
 30
0.0
 11
2324.277344105866
 21
1548.094441625405
 31
0.0
  0
LINE
  5
188
330
186
100
AcDbEntity
  8
1
  6
Continuous
 62
     2
100
AcDbLine
 10
2010.106180913745
 20
1548.094441625405
 30
0.0
 11
2336.277344105866
 21
1548.094441625405
 31
0.0
  0
LINE
  5
189
330
186
100
AcDbEntity
  8
1
  6
Continuous
 62
     2
100
AcDbLine
 10
1707.287978954799
 20
1393.231088505732
 30
0.0
 11
2336.277344105866
 21
1393.231088505732
 31
0.0
  0
SOLID
  5
18A
330
186
100
AcDbEntity
  8
1
 62
     2
100
AcDbTrace
 10
2318.747939207195
 20
1435.231088505732
 30
0.0
 11
2329.806749004537
 21
1435.231088505732
 31
0.0
 12
2324.277344105866
 22
1393.231088505732
 32
0.0
 13
2324.277344105866
 23
1393.231088505732
 33
0.0
  0
SOLID
  5
18B
330
186
100
AcDbEntity
  8
1
 62
     2
100
AcDbTrace
 10
2329.806749004537
 20
1506.094441625405
 30
0.0
 11
2318.747939207195
 21
1506.094441625405
 31
0.0
 12
2324.277344105866
 22
1548.094441625405
 32
0.0
 13
2324.277344105866
 23
1548.094441625405
 33
0.0
  0
MTEXT
  5
18C
330
186
100
AcDbEntity
  8
1
 62
     7
100
AcDbMText
 10
2312.277344105866
 20
1426.562765065569
 30
0.0
 40
42.0
 41
0.0
 71
     7
 72
     1
  1
155
  7
CONVERTER_12
 11
0.0
 21
1.0
 31
0.0
 73
     1
 44
0.60024009603842
  0
ENDBLK
  5
18E
330
186
100
AcDbEntity
  8
0
100
AcDbBlockEnd
  0
BLOCK
  5
196
330
191
100
AcDbEntity
  8
0
100
AcDbBlockBegin
  2
*D16
 70
     1
 10
0.0
 20
0.0
 30
0.0
  3
*D16
  1

  0
LINE
  5
192
330
191
100
AcDbEntity
  8
1
  6
Continuous
 62
     2
100
AcDbLine
 10
1750.289085725925
 20
2726.501453029946
 30
0.0
 11
1604.489345874889
 21
2473.968895877627
 31
0.0
  0
SOLID
  5
193
330
191
100
AcDbEntity
  8
1
 62
     2
100
AcDbTrace
 10
1679.575477294881
 20
2592.963080643502
 30
0.0
 11
1669.998267074763
 21
2598.492485542172
 31
0.0
 12
1695.786872184821
 22
2632.100850051785
 32
0.0
 13
1695.786872184821
 23
2632.100850051785
 33
0.0
  0
SOLID
  5
194
330
191
100
AcDbEntity
  8
1
 62
     2
100
AcDbTrace
 10
1735.000480615864
 20
2711.079621999809
 30
0.0
 11
1744.577690835982
 21
2705.550217101139
 31
0.0
 12
1718.789085725925
 22
2671.941852591526
 32
0.0
 13
1718.789085725925
 23
2671.941852591526
 33
0.0
  0
MTEXT
  5
195
330
191
100
AcDbEntity
  8
1
 62
     7
100
AcDbMText
 10
1602.077041029476
 20
2493.790661322027
 30
0.0
 40
42.0
 41
0.0
 71
     7
 72
     1
  1
\C7;{\Fgdt;n}\C7;46
  7
CONVERTER_12
 11
0.5000000000000004
 21
0.8660254037844384
 31
0.0
 73
     1
 44
0.60024009603842
  0
ENDBLK
  5
197
330
191
100
AcDbEntity
  8
0
100
AcDbBlockEnd
  0
BLOCK
  5
19E
330
199
100
AcDbEntity
  8
0
100
AcDbBlockBegin
  2
*D17
 70
     1
 10
0.0
 20
0.0
 30
0.0
  3
*D17
  1

  0
LINE
  5
19A
330
199
100
AcDbEntity
  8
1
  6
Continuous
 62
     2
100
AcDbLine
 10
1794.323532035708
 20
2702.271351321655
 30
0.0
 11
1504.278850165148
 21
2534.813976166668
 31
0.0
  0
SOLID
  5
19B
330
199
100
AcDbEntity
  8
1
 62
     2
100
AcDbTrace
 10
1641.203661803843
 20
2607.482746211598
 30
0.0
 11
1635.674256905173
 21
2617.059956431716
 31
0.0
 12
1674.812026313456
 22
2633.271351321655
 32
0.0
 13
1674.812026313456
 23
2633.271351321655
 33
0.0
  0
SOLID
  5
19C
330
199
100
AcDbEntity
  8
1
 62
     2
100
AcDbTrace
 10
1773.372296106901
 20
2696.559956431713
 30
0.0
 11
1778.901701005571
 21
2686.982746211595
 31
0.0
 12
1739.763931597288
 22
2670.771351321655
 32
0.0
 13
1739.763931597288
 23
2670.771351321655
 33
0.0
  0
MTEXT
  5
19D
330
199
100
AcDbEntity
  8
1
 62
     7
100
AcDbMText
 10
1512.100615609548
 20
2553.186281012082
 30
0.0
 40
42.0
 41
0.0
 71
     7
 72
     1
  1
\C7;{\Fgdt;n}\C7;75
  7
CONVERTER_12
 11
0.8660254037844388
 21
0.4999999999999997
 31
0.0
 73
     1
 44
0.60024009603842
  0
ENDBLK
  5
19F
330
199
100
AcDbEntity
  8
0
100
AcDbBlockEnd
  0
BLOCK
  5
1A6
330
1A1
100
AcDbEntity
  8
0
100
AcDbBlockBegin
  2
*D18
 70
     1
 10
0.0
 20
0.0
 30
0.0
  3
*D18
  1

  0
LINE
  5
1A2
330
1A1
100
AcDbEntity
  8
1
  6
Continuous
 62
     2
100
AcDbLine
 10
1765.270735012278
 20
2758.958083111598
 30
0.0
 11
1547.874827819536
 21
2976.353990304341
 31
0.0
  0
SOLID
  5
1A3
330
1A1
100
AcDbEntity
  8
1
 62
     2
100
AcDbTrace
 10
1660.244585602829
 20
2856.164473121504
 30
0.0
 11
1668.064345002383
 21
2863.984232521055
 31
0.0
 12
1693.852950112436
 22
2830.37586801144
 32
0.0
 13
1693.852950112436
 23
2830.37586801144
 33
0.0
  0
SOLID
  5
1A4
330
1A1
100
AcDbEntity
  8
1
 62
     2
100
AcDbTrace
 10
1754.331372307132
 20
2777.717205216286
 30
0.0
 11
1746.511612907578
 21
2769.897445816736
 31
0.0
 12
1720.723007797525
 22
2803.505810326351
 32
0.0
 13
1720.723007797525
 23
2803.505810326351
 33
0.0
  0
MTEXT
  5
1A5
330
1A1
100
AcDbEntity
  8
1
 62
     7
100
AcDbMText
 10
1567.645533421512
 20
2973.553847450842
 30
0.0
 40
42.0
 41
0.0
 71
     7
 72
     1
  1
\C7;{\Fgdt;n}\C7;38
  7
CONVERTER_12
 11
0.7071067811865465
 21
-0.7071067811865486
 31
0.0
 73
     1
 44
0.60024009603842
  0
ENDBLK
  5
1A7
330
1A1
100
AcDbEntity
  8
0
100
AcDbBlockEnd
  0
ENDSEC
  0
SECTION
  2
ENTITIES
  0
INSERT
  5
4D
330
1F
100
AcDbEntity
  8
1
100
AcDbBlockReference
  2
開示A4
 10
0.0
 20
0.0
 30
0.0
 41
12.0
 42
12.0
 43
12.0
  0
INSERT
  5
4E
330
1F
100
AcDbEntity
  8
0
100
AcDbBlockReference
  2
K475NJV-2T_V2261-X2-13_S
 10
14478.1296917358
 20
2624.950014707826
 30
0.0
  0
LINE
  5
B8
330
1F
100
AcDbEntity
  8
1
  6
DASH_CENTER
 62
     2
100
AcDbLine
 10
1726.28797895498
 20
2816.940839168895
 30
0.0
 11
1759.289628260689
 21
2816.940839168895
 31
0.0
  0
LINE
  5
B9
330
1F
100
AcDbEntity
  8
1
  6
DASH_CENTER
 62
     2
100
AcDbLine
 10
1744.787978955372
 20
2652.021351321655
 30
0.0
 11
2047.997243931
 21
2652.021351321655
 31
0.0
  0
LINE
  5
BA
330
1F
100
AcDbEntity
  8
1
  6
DASH_CENTER
 62
     2
100
AcDbLine
 10
1744.748569232588
 20
2652.021351321655
 30
0.0
 11
1744.787978955372
 21
2652.021351321655
 31
0.0
  0
LINE
  5
BB
330
1F
100
AcDbEntity
  8
1
  6
DASH_CENTER
 62
     2
100
AcDbLine
 10
1730.290192496477
 20
2652.021351321655
 30
0.0
 11
1744.748569232588
 21
2652.021351321655
 31
0.0
  0
LINE
  5
BC
330
1F
100
AcDbEntity
  8
1
  6
PHANTOM
 62
     4
100
AcDbLine
 10
1405.410396544719
 20
2415.042879099406
 30
0.0
 11
1405.510396544719
 21
2415.042879099406
 31
0.0
  0
LINE
  5
BD
330
1F
100
AcDbEntity
  8
1
  6
PHANTOM
 62
     4
100
AcDbLine
 10
1405.460396544719
 20
2414.992879099406
 30
0.0
 11
1405.460396544719
 21
2415.092879099407
 31
0.0
  0
LINE
  5
BE
330
1F
100
AcDbEntity
  8
1
  6
PHANTOM
 62
     4
100
AcDbLine
 10
2011.536800301185
 20
2416.833852691891
 30
0.0
 11
2011.536800301185
 21
2416.933852691893
 31
0.0
  0
LINE
  5
BF
330
1F
100
AcDbEntity
  8
1
  6
PHANTOM
 62
     4
100
AcDbLine
 10
2011.486800301185
 20
2416.883852691892
 30
0.0
 11
2011.586800301185
 21
2416.883852691892
 31
0.0
  0
LINE
  5
C0
330
1F
100
AcDbEntity
  8
1
  6
PHANTOM
 62
     4
100
AcDbLine
 10
1012.348084299433
 20
2416.882389749502
 30
0.0
 11
1012.448084299433
 21
2416.882389749502
 31
0.0
  0
LINE
  5
C1
330
1F
100
AcDbEntity
  8
1
  6
PHANTOM
 62
     4
100
AcDbLine
 10
1012.398084299433
 20
2416.832389749503
 30
0.0
 11
1012.398084299433
 21
2416.932389749504
 31
0.0
  0
LINE
  5
C2
330
1F
100
AcDbEntity
  8
1
  6
DASH_CENTER
 62
     2
100
AcDbLine
 10
1707.287978954752
 20
2912.997795177059
 30
0.0
 11
1707.287978955935
 21
2415.260294942529
 31
0.0
  0
LINE
  5
C3
330
1F
100
AcDbEntity
  8
1
  6
DASH_CENTER
 62
     2
100
AcDbLine
 10
1707.287978954801
 20
1357.231088505732
 30
0.0
 11
1707.287978954798
 21
1393.231088505732
 31
0.0
  0
LINE
  5
C4
330
1F
100
AcDbEntity
  8
1
  6
DASH_CENTER
 62
     2
100
AcDbLine
 10
658.9837583389233
 20
1357.853961769622
 30
0.0
 11
658.9837583389233
 21
1584.095020797399
 31
0.0
  0
LINE
  5
C5
330
1F
100
AcDbEntity
  8
0
  6
PHANTOM
 62
     5
100
AcDbLine
 10
1539.387805343698
 20
1498.127355866843
 30
0.0
 11
1595.352692496476
 21
1498.127355866843
 31
0.0
  0
LINE
  5
C6
330
1F
100
AcDbEntity
  8
0
  6
PHANTOM
 62
     5
100
AcDbLine
 10
1875.16059180203
 20
1498.127355866843
 30
0.0
 11
1819.184680343698
 21
1498.127355866843
 31
0.0
  0
LINE
  5
C7
330
1F
100
AcDbEntity
  8
0
  6
PHANTOM
 62
     5
100
AcDbLine
 10
1847.15885569092
 20
1514.895324616843
 30
0.0
 11
1847.15885569092
 21
1481.353874964066
 31
0.0
  0
LINE
  5
C8
330
1F
100
AcDbEntity
  8
0
  6
PHANTOM
 62
     5
100
AcDbLine
 10
1567.36198069092
 20
1514.895324616843
 30
0.0
 11
1567.36198069092
 21
1481.353874964066
 31
0.0
  0
LINE
  5
C9
330
1F
100
AcDbEntity
  8
1
  6
DASH_CENTER
 62
     2
100
AcDbLine
 10
975.9441295846141
 20
2652.021351321655
 30
0.0
 11
1730.290192496477
 21
2652.021351321655
 31
0.0
  0
LINE
  5
CA
330
1F
100
AcDbEntity
  8
1
  6
DASH_CENTER
 62
     2
100
AcDbLine
 10
1655.286329649578
 20
2816.940839168895
 30
0.0
 11
1726.28797895498
 21
2816.940839168895
 31
0.0
  0
LINE
  5
CB
330
1F
100
AcDbEntity
  8
1
  6
PHANTOM
 62
     4
100
AcDbLine
 10
2010.006180913745
 20
1548.094441625405
 30
0.0
 11
2010.106180913744
 21
1548.094441625405
 31
0.0
  0
LINE
  5
CC
330
1F
100
AcDbEntity
  8
1
  6
PHANTOM
 62
     4
100
AcDbLine
 10
2010.056180913745
 20
1548.044441625405
 30
0.0
 11
2010.056180913745
 21
1548.144441625405
 31
0.0
  0
LINE
  5
CD
330
1F
100
AcDbEntity
  8
1
  6
PHANTOM
 62
     4
100
AcDbLine
 10
1404.773718239478
 20
1548.044441625405
 30
0.0
 11
1404.773718239478
 21
1548.144441625405
 31
0.0
  0
LINE
  5
CE
330
1F
100
AcDbEntity
  8
1
  6
PHANTOM
 62
     4
100
AcDbLine
 10
1404.723718239478
 20
1548.094441625405
 30
0.0
 11
1404.823718239479
 21
1548.094441625405
 31
0.0
  0
LINE
  5
CF
330
1F
100
AcDbEntity
  8
1
  6
PHANTOM
 62
     4
100
AcDbLine
 10
1012.247158897536
 20
1458.046685518568
 30
0.0
 11
1012.247158897536
 21
1458.146685518568
 31
0.0
  0
LINE
  5
D0
330
1F
100
AcDbEntity
  8
1
  6
PHANTOM
 62
     4
100
AcDbLine
 10
1012.197158897537
 20
1458.096685518568
 30
0.0
 11
1012.297158897537
 21
1458.096685518568
 31
0.0
  0
LINE
  5
D1
330
1F
100
AcDbEntity
  8
1
  6
PHANTOM
 62
     4
100
AcDbLine
 10
2011.503682067726
 20
2876.756941599449
 30
0.0
 11
2011.503682067726
 21
2876.85694159945
 31
0.0
  0
LINE
  5
D2
330
1F
100
AcDbEntity
  8
1
  6
PHANTOM
 62
     4
100
AcDbLine
 10
2011.453682067726
 20
2876.806941599449
 30
0.0
 11
2011.553682067726
 21
2876.806941599449
 31
0.0
  0
LINE
  5
D3
330
1F
100
AcDbEntity
  8
1
  6
DASH_CENTER
 62
     2
100
AcDbLine
 10
1707.287978955935
 20
2415.260294942529
 30
0.0
 11
1707.287978955533
 21
2379.260294942527
 31
0.0
  0
LINE
  5
D4
330
1F
100
AcDbEntity
  8
1
  6
PHANTOM
 62
     4
100
AcDbLine
 10
1011.501197120562
 20
1408.097364547399
 30
0.0
 11
1011.601197120562
 21
1408.097364547399
 31
0.0
  0
LINE
  5
D5
330
1F
100
AcDbEntity
  8
1
  6
PHANTOM
 62
     4
100
AcDbLine
 10
1011.551197120561
 20
1408.047364547399
 30
0.0
 11
1011.551197120561
 21
1408.147364547398
 31
0.0
  0
LINE
  5
D6
330
1F
100
AcDbEntity
  8
1
  6
PHANTOM
 62
     4
100
AcDbLine
 10
2012.277344105866
 20
1408.047364547399
 30
0.0
 11
2012.277344105866
 21
1408.147364547398
 31
0.0
  0
LINE
  5
D7
330
1F
100
AcDbEntity
  8
1
  6
PHANTOM
 62
     4
100
AcDbLine
 10
2012.227344105866
 20
1408.097364547399
 30
0.0
 11
2012.327344105866
 21
1408.097364547399
 31
0.0
  0
LINE
  5
D8
330
1F
100
AcDbEntity
  8
1
  6
DASH_CENTER
 62
     2
100
AcDbLine
 10
1707.287978954798
 20
1393.231088505732
 30
0.0
 11
1707.287978954804
 21
1584.095020797399
 31
0.0
  0
CIRCLE
  5
D9
330
1F
100
AcDbEntity
  8
1
  6
Continuous
 62
     7
100
AcDbCircle
 10
1707.28797895498
 20
2816.940839168895
 30
0.0
 40
19.0
  0
CIRCLE
  5
DA
330
1F
100
AcDbEntity
  8
1
  6
Continuous
 62
     7
100
AcDbCircle
 10
1707.287978955372
 20
2652.021351321655
 30
0.0
 40
37.5
  0
CIRCLE
  5
DB
330
1F
100
AcDbEntity
  8
1
  6
Continuous
 62
     7
100
AcDbCircle
 10
1707.287978955372
 20
2652.021351321655
 30
0.0
 40
23.00221354110499
  0
SPLINE
  5
DC
330
1F
100
AcDbEntity
  8
0
  6
Continuous
 62
     7
100
AcDbSpline
210
0.0
220
0.0
230
1.0
 70
     8
 71
     3
 72
    27
 73
    23
 74
    21
 42
0.000000001
 43
0.0000000001
 44
0.00000001
 40
0.0
 40
0.0
 40
0.0
 40
0.0
 40
1.886208258671936
 40
6.035866436020791
 40
10.18552461342751
 40
12.07173287588702
 40
14.27380190648267
 40
16.48129715807531
 40
19.24107702503725
 40
26.51686029992911
 40
36.80331252920642
 40
48.59509923250548
 40
60.38688593580773
 40
70.67333816510322
 40
77.94912144003851
 40
80.70890130690995
 40
82.95231891988281
 40
85.15670649418638
 40
87.04291475664567
 40
91.1925729340524
 40
95.34223111140076
 40
97.2284393700734
 40
97.2284393700734
 40
97.2284393700734
 40
97.2284393700734
 10
1743.006728954808
 20
1408.097364547399
 30
0.0
 10
1742.973088632947
 20
1407.469417733872
 30
0.0
 10
1742.865439583907
 20
1405.459987928827
 30
0.0
 10
1742.716172710176
 20
1402.073127071633
 30
0.0
 10
1742.437342413928
 20
1398.670058445767
 30
0.0
 10
1742.490472202697
 20
1395.952552689065
 30
0.0
 10
1741.694738122801
 20
1393.771099955453
 30
0.0
 10
1739.181100838964
 20
1393.050231380324
 30
0.0
 10
1735.157289159551
 20
1393.383249095172
 30
0.0
 10
1728.343478995098
 20
1393.150843763221
 30
0.0
 10
1718.577009074962
 20
1393.261305582644
 30
0.0
 10
1707.282562035238
 20
1393.215244423564
 30
0.0
 10
1695.987567911111
 20
1393.260202402466
 30
0.0
 10
1686.222399353415
 20
1393.15415486855
 30
0.0
 10
1679.405853312736
 20
1393.376920798742
 30
0.0
 10
1675.374166914067
 20
1393.056818964452
 30
0.0
 10
1672.837368821785
 20
1393.757764007285
 30
0.0
 10
1672.029050579833
 20
1395.951627266658
 30
0.0
 10
1672.084275463679
 20
1398.67015508403
 30
0.0
 10
1671.804385525546
 20
1402.073092676619
 30
0.0
 10
1671.655424454507
 20
1405.459991348785
 30
0.0
 10
1671.547754333791
 20
1407.469418548148
 30
0.0
 10
1671.514107427031
 20
1408.097364547399
 30
0.0
 11
1743.006728954808
 21
1408.097364547399
 31
0.0
 11
1742.907682459582
 21
1406.213758590368
 31
0.0
 11
1742.689780170086
 21
1402.069825484899
 31
0.0
 11
1742.47187788059
 21
1397.92589237943
 31
0.0
 11
1742.372831385364
 21
1396.042286422399
 31
0.0
 11
1741.448856775989
 21
1394.043442021357
 31
0.0
 11
1739.396268885364
 21
1393.231088505732
 31
0.0
 11
1736.636489018828
 21
1393.231088505732
 31
0.0
 11
1729.360705734322
 21
1393.231088505732
 31
0.0
 11
1719.074253504504
 21
1393.231088505732
 31
0.0
 11
1707.282466802031
 21
1393.231088505732
 31
0.0
 11
1695.490680099556
 21
1393.231088505732
 31
0.0
 11
1685.204227869739
 21
1393.231088505732
 31
0.0
 11
1677.928444585234
 21
1393.231088505732
 31
0.0
 11
1675.168664718697
 21
1393.231088505732
 31
0.0
 11
1673.077491758628
 21
1394.043442021357
 31
0.0
 11
1672.148004996475
 21
1396.042286422399
 31
0.0
 11
1672.048958501249
 21
1397.92589237943
 31
0.0
 11
1671.831056211753
 21
1402.069825484899
 31
0.0
 11
1671.613153922257
 21
1406.213758590368
 31
0.0
 11
1671.514107427031
 21
1408.097364547399
 31
0.0
  0
SPLINE
  5
DD
330
1F
100
AcDbEntity
  8
0
  6
PHANTOM
 62
     5
100
AcDbSpline
210
0.0
220
0.0
230
1.0
 70
    11
 71
     3
 72
    19
 73
    15
 74
    13
 42
0.000000001
 43
0.0000000001
 44
0.00000001
 40
0.0
 40
0.0
 40
0.0
 40
0.0
 40
4.996766483166084
 40
9.993532976171537
 40
17.64128854927735
 40
25.28783576495665
 40
32.94138719585824
 40
40.59046224937544
 40
45.58722874146617
 40
50.58399523322198
 40
58.2317974556892
 40
65.88798283489518
 40
73.53716641141654
 40
81.18364892601294
 40
81.18364892601294
 40
81.18364892601294
 40
81.18364892601294
 10
1842.17035742703
 20
1508.120888852955
 30
0.0
 10
1843.838231623444
 20
1508.097626252238
 30
0.0
 10
1847.173980019586
 20
1508.051101048668
 30
0.0
 10
1853.014066597354
 20
1508.461748868756
 30
0.0
 10
1860.013170500848
 20
1506.065485545972
 30
0.0
 10
1863.221153324069
 20
1498.122260981435
 30
0.0
 10
1860.01414283654
 20
1490.194616298592
 30
0.0
 10
1853.017604013342
 20
1487.747242484726
 30
0.0
 10
1847.167284451732
 20
1488.271627436559
 30
0.0
 10
1841.316253404808
 20
1487.745079072214
 30
0.0
 10
1834.32456961394
 20
1490.209007097069
 30
0.0
 10
1831.098393196289
 20
1498.075182439942
 30
0.0
 10
1834.341225005343
 20
1506.239195140108
 30
0.0
 10
1839.560953870572
 20
1507.493731460162
 30
0.0
 10
1842.17035742703
 20
1508.120888852955
 30
0.0
 11
1842.17035742703
 21
1508.120888852955
 31
0.0
 11
1847.167123920086
 21
1508.120888852955
 31
0.0
 11
1852.163890413142
 21
1508.120888852955
 31
0.0
 11
1859.229092236059
 21
1505.193246708857
 31
0.0
 11
1862.151911246475
 21
1498.127355866843
 31
0.0
 11
1859.229092236058
 21
1491.05388581476
 31
0.0
 11
1852.163890413142
 21
1488.122798575177
 31
0.0
 11
1847.167123920086
 21
1488.122798575177
 31
0.0
 11
1842.17035742703
 21
1488.122798575177
 31
0.0
 11
1835.106533642308
 21
1491.05388581476
 31
0.0
 11
1832.176824440919
 21
1498.127355866843
 31
0.0
 11
1835.106533642308
 21
1505.193246708857
 31
0.0
 11
1842.17035742703
 21
1508.120888852955
 31
0.0
  0
SPLINE
  5
DE
330
1F
100
AcDbEntity
  8
0
  6
PHANTOM
 62
     5
100
AcDbSpline
210
0.0
220
0.0
230
1.0
 70
    11
 71
     3
 72
    19
 73
    15
 74
    13
 42
0.000000001
 43
0.0000000001
 44
0.00000001
 40
0.0
 40
0.0
 40
0.0
 40
0.0
 40
4.988498253998614
 40
9.976996517837279
 40
17.63430112804874
 40
25.28322082839077
 40
32.93914257342119
 40
40.59776501886511
 40
45.58626328178996
 40
50.57476154438148
 40
58.23338398960005
 40
65.88930573582607
 40
73.53822543803648
 40
81.19553004020543
 40
81.19553004020543
 40
81.19553004020543
 40
81.19553004020543
 10
1572.350478954808
 20
1508.120888852955
 30
0.0
 10
1570.685368725895
 20
1508.097759696204
 30
0.0
 10
1567.355148264754
 20
1508.051501380574
 30
0.0
 10
1561.517302213412
 20
1508.46030829531
 30
0.0
 10
1554.516867363415
 20
1506.068386444117
 30
0.0
 10
1551.295582051275
 20
1498.122275544442
 30
0.0
 10
1554.515907754952
 20
1490.191671024562
 30
0.0
 10
1561.513717729898
 20
1487.748804988591
 30
0.0
 10
1567.361935665298
 20
1488.270695169233
 30
0.0
 10
1573.210471983055
 20
1487.746880738328
 30
0.0
 10
1580.206789959089
 20
1490.204380523819
 30
0.0
 10
1583.433005970618
 20
1498.07532229211
 30
0.0
 10
1580.189859538717
 20
1506.243404758924
 30
0.0
 10
1574.964559972812
 20
1507.494832305469
 30
0.0
 10
1572.350478954808
 20
1508.120888852955
 30
0.0
 11
1572.350478954808
 21
1508.120888852955
 31
0.0
 11
1567.361980690919
 21
1508.120888852955
 31
0.0
 11
1562.37348242703
 21
1508.120888852955
 31
0.0
 11
1555.297945317656
 21
1505.193246708857
 31
0.0
 11
1552.368925135365
 21
1498.127355866843
 31
0.0
 11
1555.297945317656
 21
1491.05388581476
 31
0.0
 11
1562.37348242703
 21
1488.122798575177
 31
0.0
 11
1567.361980690919
 21
1488.122798575177
 31
0.0
 11
1572.350478954808
 21
1488.122798575177
 31
0.0
 11
1579.426016064183
 21
1491.05388581476
 31
0.0
 11
1582.355036246475
 21
1498.127355866843
 31
0.0
 11
1579.426016064183
 21
1505.193246708857
 31
0.0
 11
1572.350478954808
 21
1508.120888852955
 31
0.0
  0
SPLINE
  5
DF
330
1F
100
AcDbEntity
  8
0
  6
Continuous
 62
     7
100
AcDbSpline
210
0.0
220
0.0
230
1.0
 70
    11
 71
     3
 72
    96
 73
    92
 74
    90
 42
0.000000001
 43
0.0000000001
 44
0.00000001
 40
0.0
 40
0.0
 40
0.0
 40
0.0
 40
5.485612772922423
 40
19.19964473022651
 40
37.0278862747225
 40
54.85612781921873
 40
68.57015977652327
 40
74.05577255944513
 40
80.10016717058338
 40
86.1427443255724
 40
91.71906754435011
 40
105.6598755960187
 40
123.7829260629981
 40
141.905976529679
 40
155.8467845808889
 40
161.4231078013616
 40
166.7154002899265
 40
172.0372346438382
 40
178.6777450119522
 40
197.444404747832
 40
226.6049067986695
 40
264.426944111635
 40
309.1782096343837
 40
359.1263963153266
 40
412.5391971025025
 40
467.684304943093
 40
522.8294127841217
 40
576.2422135727539
 40
626.1904002562704
 40
670.9416657820074
 40
708.763703097327
 40
737.924205149605
 40
756.6908648862224
 40
763.3313752545647
 40
768.6360072741214
 40
773.9291117587112
 40
779.5196226495256
 40
794.2582422707649
 40
815.0956010456257
 40
838.9823293973056
 40
862.8690577489996
 40
883.7064165238946
 40
898.4450361451701
 40
904.0355470360007
 40
907.8148433525329
 40
911.5941396690648
 40
918.7490145714082
 40
939.2267599815627
 40
971.5470569542167
 40
1014.229586544056
 40
1065.794029805771
 40
1124.760067794046
 40
1189.647381563568
 40
1258.975652169025
 40
1331.264560665101
 40
1405.033788106482
 40
1478.803015547848
 40
1551.091924043865
 40
1620.420194649183
 40
1685.307508418342
 40
1744.273546405423
 40
1795.837989662312
 40
1838.520519244041
 40
1870.840816213709
 40
1891.31856162306
 40
1898.47343652522
 40
1902.265368977907
 40
1906.05730143061
 40
1912.322301228812
 40
1926.10530078478
 40
1939.888300340697
 40
1946.153300138842
 40
1951.467305328837
 40
1956.753686606986
 40
1962.55487462782
 40
1978.300956398653
 40
2001.505708481986
 40
2029.68290744032
 40
2060.346329836153
 40
2091.009752231986
 40
2119.18695119032
 40
2142.391703273654
 40
2158.137785044487
 40
2163.93897306532
 40
2169.200250574836
 40
2182.768808362534
 40
2201.321734317143
 40
2221.536116327387
 40
2240.089042281995
 40
2253.657600069693
 40
2258.918877569209
 40
2258.918877569209
 40
2258.918877569209
 40
2258.918877569209
 10
1321.404211593698
 20
1458.098102394621
 30
0.0
 10
1323.232771060529
 20
1458.098228863687
 30
0.0
 10
1329.632729202774
 20
1458.098671505636
 30
0.0
 10
1341.973955171649
 20
1458.090561676494
 30
0.0
 10
1358.438432569865
 20
1458.13472467447
 30
0.0
 10
1374.867825467772
 20
1457.976056584127
 30
0.0
 10
1387.275846930953
 20
1458.354105942392
 30
0.0
 10
1395.583543317969
 20
1457.735611775603
 30
0.0
 10
1401.772829799018
 20
1459.653578285428
 30
0.0
 10
1403.802580869125
 20
1465.838094855528
 30
0.0
 10
1403.322937781855
 20
1474.25904148481
 30
0.0
 10
1403.925084166814
 20
1486.862284850472
 30
0.0
 10
1404.108236432915
 20
1503.571395639673
 30
0.0
 10
1404.277871343927
 20
1520.276137059345
 30
0.0
 10
1404.905752690445
 20
1532.887699032452
 30
0.0
 10
1404.400301680682
 20
1541.048562274054
 30
0.0
 10
1406.226556546122
 20
1546.729880067001
 30
0.0
 10
1412.29481809652
 20
1548.551019002921
 30
0.0
 10
1422.386741788793
 20
1547.682310710249
 30
0.0
 10
1440.689910412118
 20
1548.337500327237
 30
0.0
 10
1469.213211482701
 20
1547.99384515935
 30
0.0
 10
1506.481669882265
 20
1548.131025363186
 30
0.0
 10
1550.647216334459
 20
1548.083385559291
 30
0.0
 10
1600.020596535471
 20
1548.098546262167
 30
0.0
 10
1652.855192400894
 20
1548.093948176864
 30
0.0
 10
1707.423027672283
 20
1548.095567762082
 30
0.0
 10
1761.990857107349
 20
1548.093939895537
 30
0.0
 10
1814.825469573727
 20
1548.098577330856
 30
0.0
 10
1864.198795037091
 20
1548.083282091093
 30
0.0
 10
1908.364513504594
 20
1548.131345776836
 30
0.0
 10
1945.632476590508
 20
1547.992944762079
 30
0.0
 10
1974.15701849676
 20
1548.33965827048
 30
0.0
 10
1992.457821430689
 20
1547.678637822354
 30
0.0
 10
2002.547230471553
 20
1548.554586508857
 30
0.0
 10
2008.602593477052
 20
1546.722332435903
 30
0.0
 10
2010.431077704349
 20
1541.044572133859
 30
0.0
 10
2009.906260595678
 20
1532.614859661377
 30
0.0
 10
2010.601731369226
 20
1518.818743546773
 30
0.0
 10
2010.714439406366
 20
1499.048333080857
 30
0.0
 10
2011.271401723574
 20
1476.111593159395
 30
0.0
 10
2011.326187971305
 20
1453.461133018176
 30
0.0
 10
2012.633433978061
 20
1433.009742138778
 30
0.0
 10
2010.817607444281
 20
1420.645262625285
 30
0.0
 10
2013.821595619765
 20
1410.719573358567
 30
0.0
 10
2008.627228550276
 20
1409.816252131235
 30
0.0
 10
2004.546260049229
 20
1407.181557699926
 30
0.0
 10
1993.493551260255
 20
1409.043777313256
 30
0.0
 10
1973.982151577098
 20
1407.53080618046
 30
0.0
 10
1941.902526694447
 20
1408.339486885844
 30
0.0
 10
1899.816826001123
 20
1408.008713045916
 30
0.0
 10
1848.708854450976
 20
1408.126984901851
 30
0.0
 10
1790.248420634076
 20
1408.088066313817
 30
0.0
 10
1725.850770160084
 20
1408.10015042574
 30
0.0
 10
1657.01705910388
 20
1408.096557641984
 30
0.0
 10
1585.221275360174
 20
1408.097604228815
 30
0.0
 10
1511.945553250888
 20
1408.097243951925
 30
0.0
 10
1438.66982803515
 20
1408.097602417127
 30
0.0
 10
1366.874053300501
 20
1408.096564601317
 30
0.0
 10
1298.040311322664
 20
1408.100126178233
 30
0.0
 10
1233.642764851736
 20
1408.088147304071
 30
0.0
 10
1175.18199608251
 20
1408.126726900739
 30
0.0
 10
1124.075042448682
 20
1408.009485247935
 30
0.0
 10
1081.986494941965
 20
1408.337377904413
 30
0.0
 10
1049.913830007117
 20
1407.535741153448
 30
0.0
 10
1030.389408876877
 20
1409.035533654371
 30
0.0
 10
1019.34828760954
 20
1407.188792182364
 30
0.0
 10
1015.238828989699
 20
1409.809047740341
 30
0.0
 10
1009.835580686181
 20
1410.800339204613
 30
0.0
 10
1013.024991648909
 20
1420.755683017866
 30
0.0
 10
1011.325909444833
 20
1430.836854820593
 30
0.0
 10
1012.443073348763
 20
1442.518945123371
 30
0.0
 10
1011.805548530164
 20
1450.818684621783
 30
0.0
 10
1013.709915022188
 20
1456.726041148596
 30
0.0
 10
1019.477819266854
 20
1458.49292509308
 30
0.0
 10
1028.299441368277
 20
1457.770641247109
 30
0.0
 10
1043.303257540127
 20
1458.278741605879
 30
0.0
 10
1065.636758935516
 20
1458.028970261438
 30
0.0
 10
1093.000723897356
 20
1458.120084899395
 30
0.0
 10
1122.830622306655
 20
1458.091982584181
 30
0.0
 10
1152.666601139231
 20
1458.099606729918
 30
0.0
 10
1180.014748783766
 20
1458.0977842904
 30
0.0
 10
1202.390822808894
 20
1458.098154971444
 30
0.0
 10
1217.308153832399
 20
1458.098098556388
 30
0.0
 10
1226.244337007352
 20
1458.098102911576
 30
0.0
 10
1234.454677961168
 20
1458.098102017302
 30
0.0
 10
1246.915598475108
 20
1458.098102585272
 30
0.0
 10
1264.360887016025
 20
1458.098102331061
 30
0.0
 10
1283.467631669429
 20
1458.098102410871
 30
0.0
 10
1300.912920250328
 20
1458.098102391572
 30
0.0
 10
1313.373840664825
 20
1458.098102394838
 30
0.0
 10
1319.650452427201
 20
1458.098102394669
 30
0.0
 10
1321.404211593698
 20
1458.098102394621
 30
0.0
 11
1321.404211593698
 21
1458.098102394621
 31
0.0
 11
1326.88982437662
 21
1458.098102394621
 31
0.0
 11
1340.603856333924
 21
1458.098102394621
 31
0.0
 11
1358.43209787842
 21
1458.098102394621
 31
0.0
 11
1376.260339422917
 21
1458.098102394621
 31
0.0
 11
1389.974371380221
 21
1458.098102394621
 31
0.0
 11
1395.459984163143
 21
1458.098102394621
 31
0.0
 11
1401.056197270781
 21
1460.382200701913
 31
0.0
 11
1403.436069232587
 21
1465.936383644621
 31
0.0
 11
1403.535287982587
 21
1471.51182410244
 31
0.0
 11
1403.783334857587
 21
1485.450425246987
 31
0.0
 11
1404.105795795087
 21
1503.570606734899
 31
0.0
 11
1404.428256732587
 21
1521.690788222811
 31
0.0
 11
1404.676303607587
 21
1535.629389367358
 31
0.0
 11
1404.775522357587
 21
1541.204829825177
 31
0.0
 11
1406.853603954809
 21
1546.072060727955
 31
0.0
 11
1411.775956385365
 21
1548.095020797399
 31
0.0
 11
1418.416466753712
 21
1548.095020797399
 31
0.0
 11
1437.183126490345
 21
1548.095020797399
 31
0.0
 11
1466.343628542653
 21
1548.095020797399
 31
0.0
 11
1504.165665858021
 21
1548.095020797399
 31
0.0
 11
1548.916931383839
 21
1548.095020797399
 31
0.0
 11
1598.865118067494
 21
1548.095020797399
 31
0.0
 11
1652.277918856373
 21
1548.095020797399
 31
0.0
 11
1707.423026697865
 21
1548.095020797399
 31
0.0
 11
1762.568134539357
 21
1548.095020797399
 31
0.0
 11
1815.980935328236
 21
1548.095020797399
 31
0.0
 11
1865.929122011891
 21
1548.095020797399
 31
0.0
 11
1910.680387537709
 21
1548.095020797399
 31
0.0
 11
1948.502424853078
 21
1548.095020797399
 31
0.0
 11
1977.662926905385
 21
1548.095020797399
 31
0.0
 11
1996.429586642018
 21
1548.095020797399
 31
0.0
 11
2003.070097010365
 21
1548.095020797399
 31
0.0
 11
2007.973845925295
 21
1546.072060727955
 31
0.0
 11
2010.053994579809
 21
1541.204829825177
 31
0.0
 11
2010.151103208824
 21
1535.615162398962
 31
0.0
 11
2010.407116867135
 21
1520.878766457121
 31
0.0
 11
2010.769067211645
 21
1500.044551504864
 31
0.0
 11
2011.183985899253
 21
1476.161427047399
 31
0.0
 11
2011.598904586861
 21
1452.278302589934
 31
0.0
 11
2011.960854931371
 21
1431.444087637677
 31
0.0
 11
2012.216868589682
 21
1416.707691695836
 31
0.0
 11
2012.313977218697
 21
1411.118024269621
 31
0.0
 11
2008.849589197864
 21
1409.60769440851
 31
0.0
 11
2005.385201177031
 21
1408.097364547399
 31
0.0
 11
1998.230326274687
 21
1408.097364547399
 31
0.0
 11
1977.752580864531
 21
1408.097364547399
 31
0.0
 11
1945.432283891874
 21
1408.097364547399
 31
0.0
 11
1902.749754302032
 21
1408.097364547399
 31
0.0
 11
1851.185311040312
 21
1408.097364547399
 31
0.0
 11
1792.21927305203
 21
1408.097364547399
 31
0.0
 11
1727.3319592825
 21
1408.097364547399
 31
0.0
 11
1658.003688677031
 21
1408.097364547399
 31
0.0
 11
1585.714780180938
 21
1408.097364547399
 31
0.0
 11
1511.945552739531
 21
1408.097364547399
 31
0.0
 11
1438.176325298124
 21
1408.097364547399
 31
0.0
 11
1365.887416802032
 21
1408.097364547399
 31
0.0
 11
1296.559146196562
 21
1408.097364547399
 31
0.0
 11
1231.671832427032
 21
1408.097364547399
 31
0.0
 11
1172.70579443875
 21
1408.097364547399
 31
0.0
 11
1121.14135117703
 21
1408.097364547399
 31
0.0
 11
1078.458821587188
 21
1408.097364547399
 31
0.0
 11
1046.138524614531
 21
1408.097364547399
 31
0.0
 11
1025.660779204375
 21
1408.097364547399
 31
0.0
 11
1018.505904302031
 21
1408.097364547399
 31
0.0
 11
1015.027735899254
 21
1409.60769440851
 31
0.0
 11
1011.549567496476
 21
1411.118024269621
 31
0.0
 11
1011.65894927816
 21
1417.382069137243
 31
0.0
 11
1011.899589197865
 21
1431.162967846009
 31
0.0
 11
1012.140229117569
 21
1444.943866554777
 31
0.0
 11
1012.249610899253
 21
1451.207911422398
 31
0.0
 11
1014.349052088489
 21
1456.089611726218
 31
0.0
 11
1019.239020621476
 21
1458.098102394621
 31
0.0
 11
1025.040208642309
 21
1458.098102394621
 31
0.0
 11
1040.786290413143
 21
1458.098102394621
 31
0.0
 11
1063.991042496476
 21
1458.098102394621
 31
0.0
 11
1092.16824145481
 21
1458.098102394621
 31
0.0
 11
1122.831663850643
 21
1458.098102394621
 31
0.0
 11
1153.495086246476
 21
1458.098102394621
 31
0.0
 11
1181.672285204809
 21
1458.098102394621
 31
0.0
 11
1204.877037288143
 21
1458.098102394621
 31
0.0
 11
1220.623119058976
 21
1458.098102394621
 31
0.0
 11
1226.424307079809
 21
1458.098102394621
 31
0.0
 11
1231.685584589325
 21
1458.098102394621
 31
0.0
 11
1245.254142377023
 21
1458.098102394621
 31
0.0
 11
1263.807068331631
 21
1458.098102394621
 31
0.0
 11
1284.021450341876
 21
1458.098102394621
 31
0.0
 11
1302.574376296483
 21
1458.098102394621
 31
0.0
 11
1316.142934084182
 21
1458.098102394621
 31
0.0
 11
1321.404211593698
 21
1458.098102394621
 31
0.0
  0
SPLINE
  5
E0
330
1F
100
AcDbEntity
  8
0
  6
Continuous
 62
     7
100
AcDbSpline
210
0.0
220
0.0
230
1.0
 70
     8
 71
     3
 72
    28
 73
    24
 74
    22
 42
0.000000001
 43
0.0000000001
 44
0.00000001
 40
0.0
 40
0.0
 40
0.0
 40
0.0
 40
1.893044107688459
 40
6.057741161746172
 40
10.22243821587995
 40
12.11548233139955
 40
14.32895658206964
 40
16.53938138956105
 40
19.2889766853592
 40
26.53790975320815
 40
36.78640133730129
 40
48.53467217719491
 40
60.28294301737331
 40
70.53143460205216
 40
77.78036767452828
 40
80.52996297792275
 40
82.74230802325366
 40
84.95491571110789
 40
86.13828523406625
 40
88.33597149108428
 40
89.51934101418614
 40
95.41741548096383
 40
101.3219463768103
 40
101.3219463768103
 40
101.3219463768103
 40
101.3219463768103
 10
694.5812409778121
 20
1408.780871491844
 30
0.0
 10
694.547883980347
 20
1408.150629379007
 30
0.0
 10
694.4411415754057
 20
1406.133854612881
 30
0.0
 10
694.2935999282107
 20
1402.734525018836
 30
0.0
 10
694.0157137464876
 20
1399.319284114033
 30
0.0
 10
694.0713100464584
 20
1396.590166003995
 30
0.0
 10
693.2719072795983
 20
1394.403100030043
 30
0.0
 10
690.761238899802
 20
1393.671378537662
 30
0.0
 10
686.7464445101486
 20
1394.007319060803
 30
0.0
 10
679.9592940168735
 20
1393.773074103759
 30
0.0
 10
670.2282295589619
 20
1393.884485742531
 30
0.0
 10
658.9753603272992
 20
1393.837695915913
 30
0.0
 10
647.7232367108752
 20
1393.884348222007
 30
0.0
 10
637.9903986382515
 20
1393.773486878053
 30
0.0
 10
631.2069768369294
 20
1394.006530169336
 30
0.0
 10
627.1862027112116
 20
1393.672265489342
 30
0.0
 10
624.6867616395496
 20
1394.400686483876
 30
0.0
 10
623.9397049809746
 20
1396.348492728378
 30
0.0
 10
623.9532519923832
 20
1398.197083999693
 30
0.0
 10
623.8244350709866
 20
1399.723931198708
 30
0.0
 10
623.7628000044797
 20
1402.796518273084
 30
0.0
 10
621.8705081122737
 20
1407.418501453456
 30
0.0
 10
617.828950079546
 20
1408.326582557577
 30
0.0
 10
615.8070656305911
 20
1408.780871491844
 30
0.0
 11
694.5812409778121
 21
1408.780871491844
 31
0.0
 11
694.483055756458
 21
1406.89037534384
 31
0.0
 11
694.2670482694791
 21
1402.731283818232
 31
0.0
 11
694.0510407825002
 21
1398.572192292625
 31
0.0
 11
693.9528555611462
 21
1396.681696144621
 31
0.0
 11
693.0240578180913
 21
1394.672516457122
 31
0.0
 11
690.97078090837
 21
1393.853961769622
 31
0.0
 11
688.2211856053643
 21
1393.853961769622
 31
0.0
 11
680.9722525338038
 21
1393.853961769622
 31
0.0
 11
670.7237609498736
 21
1393.853961769622
 31
0.0
 11
658.9754901097585
 21
1393.853961769622
 31
0.0
 11
647.2272192696433
 21
1393.853961769622
 31
0.0
 11
636.9787276857132
 21
1393.853961769622
 31
0.0
 11
629.7297946141528
 21
1393.853961769622
 31
0.0
 11
626.9801993111471
 21
1393.853961769622
 31
0.0
 11
624.9248553441332
 21
1394.672516457122
 31
0.0
 11
623.9981246583691
 21
1396.681696144621
 31
0.0
 11
623.938103439233
 21
1397.863542530938
 31
0.0
 11
623.8266354608373
 21
1400.058400105526
 31
0.0
 11
623.7666142417013
 21
1401.240246491843
 31
0.0
 11
621.2916576444793
 21
1406.59392487726
 31
0.0
 11
615.8070656305911
 21
1408.780871491844
 31
0.0
  0
SPLINE
  5
E1
330
1F
100
AcDbEntity
  8
0
  6
Continuous
 62
     7
100
AcDbSpline
210
0.0
220
0.0
230
1.0
 70
     8
 71
     3
 72
    32
 73
    28
 74
    26
 42
0.000000001
 43
0.0000000001
 44
0.00000001
 40
0.0
 40
0.0
 40
0.0
 40
0.0
 40
5.273836342124701
 40
10.54913943293596
 40
13.50894167976791
 40
22.00017763271436
 40
35.44059111199446
 40
53.24792593818987
 40
74.8399259317811
 40
99.63433491320714
 40
127.048896702889
 40
156.5013551212345
 40
187.4094539886367
 40
219.1909371254741
 40
251.2635483521163
 40
283.0450314889301
 40
313.9531303562895
 40
343.4055887745798
 40
370.8201505642008
 40
395.6145595455635
 40
417.2065595390886
 40
435.0138943652069
 40
448.4543078443793
 40
456.9455437972111
 40
459.9053460442983
 40
462.1879665878991
 40
464.4705871344439
 40
464.4705871344439
 40
464.4705871344439
 40
464.4705871344439
 10
894.3912670194793
 20
1451.2575207974
 30
0.0
 10
893.9387605031739
 20
1453.071458636239
 30
0.0
 10
893.0336216333305
 20
1456.699838808323
 30
0.0
 10
888.1507968829715
 20
1458.285744615778
 30
0.0
 10
882.6497480877912
 20
1457.975120677885
 30
0.0
 10
874.3054476193739
 20
1458.171978536774
 30
0.0
 10
861.0844083462165
 20
1458.066393994181
 30
0.0
 10
843.4607695898333
 20
1458.109770958207
 30
0.0
 10
822.066588986692
 20
1458.094180973356
 30
0.0
 10
797.4650293493809
 20
1458.09934162978
 30
0.0
 10
770.2449393760872
 20
1458.097728394279
 30
0.0
 10
740.9864506226171
 20
1458.098211004164
 30
0.0
 10
710.2724708380108
 20
1458.098072638989
 30
0.0
 10
678.6850626651535
 20
1458.098107280805
 30
0.0
 10
646.8065434103987
 20
1458.098113404481
 30
0.0
 10
615.2191301991463
 20
1458.098054656745
 30
0.0
 10
584.5051696964558
 20
1458.098273689544
 30
0.0
 10
555.2466138771726
 20
1458.097513202641
 30
0.0
 10
528.0267480422623
 20
1458.100054472362
 30
0.0
 10
503.4244714087363
 20
1458.091925276136
 30
0.0
 10
482.0324567995353
 20
1458.116482972267
 30
0.0
 10
464.4027914672095
 20
1458.04815460829
 30
0.0
 10
451.1964215766048
 20
1458.21447374061
 30
0.0
 10
442.8247706728073
 20
1457.904378840475
 30
0.0
 10
438.343406298212
 20
1458.306134576645
 30
0.0
 10
435.6414476182877
 20
1457.500262418216
 30
0.0
 10
435.2708989827199
 20
1455.910772632498
 30
0.0
 10
435.085624658368
 20
1455.116027741843
 30
0.0
 11
894.3912670194793
 21
1451.2575207974
 31
0.0
 11
892.3069842503827
 21
1456.102014069969
 31
0.0
 11
887.42390590837
 21
1458.098102394622
 31
0.0
 11
884.4641036621299
 21
1458.098102394622
 31
0.0
 11
875.9728677098013
 21
1458.098102394622
 31
0.0
 11
862.5324542309727
 21
1458.098102394622
 31
0.0
 11
844.7251194052325
 21
1458.098102394622
 31
0.0
 11
823.1331194121685
 21
1458.098102394622
 31
0.0
 11
798.3387104313693
 21
1458.098102394622
 31
0.0
 11
770.9241486424231
 21
1458.098102394622
 31
0.0
 11
741.471690224918
 21
1458.098102394622
 31
0.0
 11
710.5635913584422
 21
1458.098102394622
 31
0.0
 11
678.782108222584
 21
1458.098102394622
 31
0.0
 11
646.7094969969319
 21
1458.098102394622
 31
0.0
 11
614.9280138610739
 21
1458.098102394622
 31
0.0
 11
584.019914994598
 21
1458.098102394622
 31
0.0
 11
554.567456577093
 21
1458.098102394622
 31
0.0
 11
527.1528947881467
 21
1458.098102394622
 31
0.0
 11
502.3584858073475
 21
1458.098102394622
 31
0.0
 11
480.7664858142836
 21
1458.098102394622
 31
0.0
 11
462.9591509885432
 21
1458.098102394622
 31
0.0
 11
449.5187375097148
 21
1458.098102394622
 31
0.0
 11
441.0275015573862
 21
1458.098102394622
 31
0.0
 11
438.067699311146
 21
1458.098102394622
 31
0.0
 11
435.9586118545485
 21
1457.225115198441
 31
0.0
 11
435.085624658368
 21
1455.116027741843
 31
0.0
  0
SPLINE
  5
E2
330
1F
100
AcDbEntity
  8
0
  6
Continuous
 62
     7
100
AcDbSpline
210
0.0
220
0.0
230
1.0
 70
    11
 71
     3
 72
    81
 73
    77
 74
    75
 42
0.000000001
 43
0.0000000001
 44
0.00000001
 40
0.0
 40
0.0
 40
0.0
 40
0.0
 40
1.951721637233794
 40
5.576347522172524
 40
7.528069153833423
 40
10.54435522202213
 40
18.81481701337162
 40
31.17185992491343
 40
46.44788935096146
 40
63.47531068571998
 40
81.08652932338204
 40
98.11395065813923
 40
113.3899800841809
 40
125.7470229956947
 40
134.0174847868666
 40
137.0337708518827
 40
142.3093228155716
 40
147.5875824255648
 40
150.5370371091645
 40
158.9985874310248
 40
172.3920127977747
 40
190.1370926160212
 40
211.6536062923026
 40
236.3613332330988
 40
263.6800528448629
 40
293.029544534041
 40
323.8295877070851
 40
355.4999617704516
 40
387.4604461306022
 40
419.1308201940021
 40
449.9308633671189
 40
479.2803550564204
 40
506.599074668377
 40
531.3068016094584
 40
552.8233152861352
 40
570.5683951048786
 40
583.9618204721593
 40
592.4233707944488
 40
595.3728254782181
 40
597.6565015014274
 40
599.9416688371673
 40
602.565345102633
 40
609.8190383071553
 40
620.7767450629171
 40
634.5124619821033
 40
650.1001856768985
 40
666.6139127594895
 40
683.1276398420675
 40
698.7153635368254
 40
712.4510804559604
 40
723.4087872116697
 40
730.6624804161515
 40
733.2861566816018
 40
735.5658139288022
 40
737.8466803934855
 40
740.8114204239221
 40
749.3168221505842
 40
762.7796580265015
 40
780.6167005047018
 40
802.2447220382146
 40
827.0804950800685
 40
854.5407920832926
 40
884.0423855009163
 40
915.0020477859672
 40
946.836551391475
 40
978.9626687704683
 40
1010.797172375976
 40
1041.756834661027
 40
1071.258428078651
 40
1098.718725081876
 40
1123.55449812373
 40
1145.182519657243
 40
1163.019562135444
 40
1176.482398011361
 40
1184.987799738024
 40
1187.952539758547
 40
1187.952539758547
 40
1187.952539758547
 40
1187.952539758547
 10
888.16804653337
 20
1408.780871491844
 30
0.0
 10
888.7736876685144
 20
1409.033234447271
 30
0.0
 10
890.5040909147878
 20
1409.754271444554
 30
0.0
 10
892.5661537387867
 20
1410.904456405011
 30
0.0
 10
895.8820522705687
 20
1411.59641633621
 30
0.0
 10
894.2407424454702
 20
1417.017924616508
 30
0.0
 10
895.2836368562001
 20
1424.136320353594
 30
0.0
 10
894.4846066488924
 20
1436.483172676858
 30
0.0
 10
894.4452969890558
 20
1451.22537862804
 30
0.0
 10
894.0853443459183
 20
1467.906396355374
 30
0.0
 10
893.8016826059488
 20
1485.113279619728
 30
0.0
 10
893.5173357458077
 20
1501.750800229576
 30
0.0
 10
893.223750494664
 20
1516.639294663234
 30
0.0
 10
893.1082426011694
 20
1528.592906559577
 30
0.0
 10
892.7835916803432
 20
1536.498071211463
 30
0.0
 10
892.9975270953937
 20
1541.976346121339
 30
0.0
 10
891.3418907896294
 20
1546.710683304085
 30
0.0
 10
886.6009435207588
 20
1548.279958835259
 30
0.0
 10
881.0846096375251
 20
1547.974068453043
 30
0.0
 10
872.7868736305911
 20
1548.167677855216
 30
0.0
 10
859.6027270667904
 20
1548.063835620047
 30
0.0
 10
842.0445334945355
 20
1548.106496798061
 30
0.0
 10
820.7237702398477
 20
1548.091164072353
 30
0.0
 10
796.2086743855879
 20
1548.096239570296
 30
0.0
 10
769.0836041695105
 20
1548.094652956249
 30
0.0
 10
739.9274467040447
 20
1548.095127601096
 30
0.0
 10
709.3208315663991
 20
1548.094991524977
 30
0.0
 10
677.8438577194485
 20
1548.095025573316
 30
0.0
 10
646.0767847392863
 20
1548.095031679125
 30
0.0
 10
614.5998064133761
 20
1548.094973596355
 30
0.0
 10
583.9932084163646
 20
1548.095190102615
 30
0.0
 10
554.8369913322639
 20
1548.094438400756
 30
0.0
 10
527.7121203647642
 20
1548.096950312565
 30
0.0
 10
503.1963871331236
 20
1548.088915030427
 30
0.0
 10
481.877549348107
 20
1548.113189020069
 30
0.0
 10
464.3139984233202
 20
1548.045650030796
 30
0.0
 10
451.142892273015
 20
1548.210047734638
 30
0.0
 10
442.8208429722914
 20
1547.903535256237
 30
0.0
 10
438.3258352569286
 20
1548.300911829191
 30
0.0
 10
435.6789710795416
 20
1547.500512939117
 30
0.0
 10
434.9055435233997
 20
1544.961695547041
 30
0.0
 10
435.2404055442286
 20
1540.968698293815
 30
0.0
 10
434.9976940706202
 20
1533.97932843092
 30
0.0
 10
435.1207118849297
 20
1523.352760925099
 30
0.0
 10
435.0737726928266
 20
1509.917160474382
 30
0.0
 10
435.0894191030825
 20
1494.640852431622
 30
0.0
 10
435.0836727153237
 20
1478.435190582895
 30
0.0
 10
435.0894191351389
 20
1462.229525701089
 30
0.0
 10
435.0737725790248
 20
1446.953225916957
 30
0.0
 10
435.1207122251241
 20
1433.517600690522
 30
0.0
 10
434.9976932178638
 20
1422.891098116851
 30
0.0
 10
435.2404070456369
 20
1415.901600144367
 30
0.0
 10
434.9056934834123
 20
1411.910588538807
 30
0.0
 10
435.6771447140734
 20
1409.374499629901
 30
0.0
 10
438.3266441252571
 20
1408.573689545439
 30
0.0
 10
442.8397992048081
 20
1408.973954074202
 30
0.0
 10
451.2052402013127
 20
1408.664885197629
 30
0.0
 10
464.4444635144616
 20
1408.830654023512
 30
0.0
 10
482.099094342935
 20
1408.7625517401
 30
0.0
 10
503.5283946958364
 20
1408.787028183678
 30
0.0
 10
528.1711859335317
 20
1408.778925875024
 30
0.0
 10
555.4366275342435
 20
1408.781458780328
 30
0.0
 10
584.7439453325708
 20
1408.780700628859
 30
0.0
 10
615.50915984844
 20
1408.780919661674
 30
0.0
 10
647.1492650822786
 20
1408.780858296552
 30
0.0
 10
679.0809703344518
 20
1408.780875010582
 30
0.0
 10
710.7210655379549
 20
1408.780870581226
 30
0.0
 10
741.486318439622
 20
1408.780871722531
 30
0.0
 10
770.7935027251725
 20
1408.780871437308
 30
0.0
 10
798.0593905339465
 20
1408.780871506133
 30
0.0
 10
822.7007543962811
 20
1408.780871490303
 30
0.0
 10
844.1343667468575
 20
1408.780871493562
 30
0.0
 10
861.7770000428584
 20
1408.780871493501
 30
0.0
 10
875.0454267364297
 20
1408.780871492086
 30
0.0
 10
883.3564192774672
 20
1408.780871494952
 30
0.0
 10
887.1797998598624
 20
1408.780871491844
 30
0.0
 10
888.16804653337
 20
1408.780871491844
 30
0.0
 11
888.16804653337
 21
1408.780871491844
 31
0.0
 11
889.960108647567
 21
1409.554001957379
 31
0.0
 11
893.2882240025048
 21
1410.989815679086
 31
0.0
 11
895.0802861167019
 21
1411.762946144621
 31
0.0
 11
895.0276494061042
 21
1414.778772897428
 31
0.0
 11
894.8833229415619
 21
1423.047975284157
 31
0.0
 11
894.667682223952
 21
1435.403136497269
 31
0.0
 11
894.4011027541504
 21
1450.676839729227
 31
0.0
 11
894.1039600330344
 21
1467.701668172493
 31
0.0
 11
893.7966295614797
 21
1485.310205019527
 31
0.0
 11
893.4994868403634
 21
1502.335033462792
 31
0.0
 11
893.2329073705619
 21
1517.60873669475
 31
0.0
 11
893.0172666529518
 21
1529.963897907862
 31
0.0
 11
892.8729401884095
 21
1538.233100294591
 31
0.0
 11
892.8203034778119
 21
1541.248927047398
 31
0.0
 11
890.7380877660082
 21
1546.096176396357
 31
0.0
 11
885.852942366703
 21
1548.095020797399
 31
0.0
 11
882.9034876829335
 21
1548.095020797399
 31
0.0
 11
874.4419373606441
 21
1548.095020797399
 31
0.0
 11
861.0485119933631
 21
1548.095020797399
 31
0.0
 11
843.3034321746189
 21
1548.095020797399
 31
0.0
 11
821.7869184979401
 21
1548.095020797399
 31
0.0
 11
797.0791915568551
 21
1548.095020797399
 31
0.0
 11
769.7604719448918
 21
1548.095020797399
 31
0.0
 11
740.4109802555795
 21
1548.095020797399
 31
0.0
 11
709.6109370824458
 21
1548.095020797399
 31
0.0
 11
677.9405630190196
 21
1548.095020797399
 31
0.0
 11
645.9800786588294
 21
1548.095020797399
 31
0.0
 11
614.3097045954033
 21
1548.095020797399
 31
0.0
 11
583.5096614222695
 21
1548.095020797399
 31
0.0
 11
554.1601697329571
 21
1548.095020797399
 31
0.0
 11
526.841450120994
 21
1548.095020797399
 31
0.0
 11
502.1337231799089
 21
1548.095020797399
 31
0.0
 11
480.6172095032301
 21
1548.095020797399
 31
0.0
 11
462.8721296844859
 21
1548.095020797399
 31
0.0
 11
449.4787043172049
 21
1548.095020797399
 31
0.0
 11
441.0171539949154
 21
1548.095020797399
 31
0.0
 11
438.067699311146
 21
1548.095020797399
 31
0.0
 11
435.9586118545485
 21
1547.21927752483
 31
0.0
 11
435.085624658368
 21
1545.107433991843
 31
0.0
 11
435.085624658368
 21
1542.483757726331
 31
0.0
 11
435.0856246583679
 21
1535.230064521678
 31
0.0
 11
435.085624658368
 21
1524.272357765715
 31
0.0
 11
435.0856246583679
 21
1510.536640846267
 31
0.0
 11
435.085624658368
 21
1494.948917151163
 31
0.0
 11
435.085624658368
 21
1478.435190068232
 31
0.0
 11
435.085624658368
 21
1461.9214629853
 31
0.0
 11
435.085624658368
 21
1446.333739290197
 31
0.0
 11
435.0856246583679
 21
1432.59802237075
 31
0.0
 11
435.085624658368
 21
1421.640315614786
 31
0.0
 11
435.085624658368
 21
1414.386622410133
 31
0.0
 11
435.085624658368
 21
1411.762946144621
 31
0.0
 11
435.9558557781598
 21
1409.655925745316
 31
0.0
 11
438.062187158368
 21
1408.780871491844
 31
0.0
 11
441.0269271888047
 21
1408.780871491844
 31
0.0
 11
449.5323289154675
 21
1408.780871491844
 31
0.0
 11
462.9951647913857
 21
1408.780871491844
 31
0.0
 11
480.8322072695873
 21
1408.780871491844
 31
0.0
 11
502.4602288031016
 21
1408.780871491844
 31
0.0
 11
527.2960018449572
 21
1408.780871491844
 31
0.0
 11
554.7562988481831
 21
1408.780871491844
 31
0.0
 11
584.2578922658088
 21
1408.780871491844
 31
0.0
 11
615.2175545508616
 21
1408.780871491844
 31
0.0
 11
647.0520581563713
 21
1408.780871491844
 31
0.0
 11
679.1781755353666
 21
1408.780871491844
 31
0.0
 11
711.0126791408763
 21
1408.780871491844
 31
0.0
 11
741.9723414259292
 21
1408.780871491844
 31
0.0
 11
771.4739348435548
 21
1408.780871491844
 31
0.0
 11
798.9342318467808
 21
1408.780871491844
 31
0.0
 11
823.7700048886363
 21
1408.780871491844
 31
0.0
 11
845.3980264221506
 21
1408.780871491844
 31
0.0
 11
863.2350689003522
 21
1408.780871491844
 31
0.0
 11
876.6979047762704
 21
1408.780871491844
 31
0.0
 11
885.2033065029332
 21
1408.780871491844
 31
0.0
 11
888.16804653337
 21
1408.780871491844
 31
0.0
  0
SPLINE
  5
E3
330
1F
100
AcDbEntity
  8
0
  6
Continuous
 62
     7
100
AcDbSpline
210
0.0
220
0.0
230
1.0
 70
     8
 71
     3
 72
   133
 73
   129
 74
   127
 42
0.000000001
 43
0.0000000001
 44
0.00000001
 40
0.0
 40
0.0
 40
0.0
 40
0.0
 40
0.4440753476451068
 40
0.9293918562807313
 40
2.166458980390211
 40
3.394147195312163
 40
4.632625327538495
 40
5.14743322142572
 40
6.620848917417754
 40
8.946360437220424
 40
12.01745580283587
 40
15.72762303632365
 40
19.97035015972454
 40
24.63912519506696
 40
29.6274361643702
 40
34.82877108964945
 40
40.13661799291625
 40
45.44446489618121
 40
50.6457998214545
 40
55.63411079074447
 40
60.30288582606036
 40
64.54561294940915
 40
68.25578018279919
 40
71.3268755482379
 40
73.6523870677327
 40
75.12580276329014
 40
75.640610656919
 40
76.16175569271452
 40
77.6629645271696
 40
80.05089775088948
 40
83.23221595447801
 40
87.11357972853953
 40
91.60164966367974
 40
96.60308635050158
 40
102.0245503796108
 40
107.7727023416121
 40
113.7542028271089
 40
119.8757124267043
 40
126.0438917310039
 40
132.1654013306101
 40
138.1469018161256
 40
143.8950537781533
 40
149.3165178072956
 40
154.3179544941547
 40
158.8060244293322
 40
162.6873882034309
 40
165.8687064070526
 40
168.2566396307984
 40
169.7578484652712
 40
170.2789935010722
 40
170.800167657498
 40
172.3014603767531
 40
174.689527033808
 40
177.8710230036314
 40
181.7526036611915
 40
186.2409243814592
 40
191.2426405394019
 40
196.6644075099901
 40
202.4128806681915
 40
208.3947153889749
 40
214.5165670473088
 40
220.6850910181598
 40
226.8069426764978
 40
232.7887773972889
 40
238.5372505555017
 40
243.9590175261021
 40
248.9607336840612
 40
253.4490544043439
 40
257.3306350619194
 40
260.5121310317555
 40
262.9001976888208
 40
264.4014904080836
 40
264.9226645645109
 40
265.4438089214277
 40
266.9450158003048
 40
269.3329459133382
 40
272.5142599727201
 40
276.3956186906472
 40
280.8836827793104
 40
285.885112950903
 40
291.3065699176209
 40
297.0547143916564
 40
303.0362070852033
 40
309.1577087104559
 40
315.3258799796063
 40
321.4473816048508
 40
327.4288742983836
 40
333.177018772399
 40
338.5984757390911
 40
343.5999059106578
 40
348.0879699992915
 40
351.9693287171904
 40
355.1506427765483
 40
357.5385728895622
 40
359.0397797684279
 40
359.5609241253393
 40
360.08228323187
 40
361.5841087178453
 40
363.9730228328422
 40
367.1556478264357
 40
371.0386059482037
 40
375.5285194477208
 40
380.5320105745616
 40
385.9557015783053
 40
391.7062147085265
 40
397.6901722148029
 40
403.8141963467111
 40
409.9849093538293
 40
416.1089334857375
 40
422.0928909920135
 40
427.8434041222379
 40
433.2670951259927
 40
438.2705862528614
 40
442.7604997524284
 40
446.64345787428
 40
449.8260828679997
 40
452.2149969831569
 40
453.7168224692856
 40
454.2381815758838
 40
454.5861362200433
 40
455.3516364372119
 40
456.1171366544138
 40
456.4650912986101
 40
458.6903857286353
 40
460.8419867958979
 40
462.9722813326047
 40
465.1199256459803
 40
467.3419971820836
 40
467.3419971820836
 40
467.3419971820836
 40
467.3419971820836
 10
1408.479689024254
 20
2876.806941599406
 30
0.0
 10
1408.331343207236
 20
2876.801863078782
 30
0.0
 10
1408.020874735086
 20
2876.791234411542
 30
0.0
 10
1407.317558983769
 20
2876.612474920865
 30
0.0
 10
1406.425986230465
 20
2876.134386783181
 30
0.0
 10
1405.675098191293
 20
2875.099291829537
 30
0.0
 10
1405.481835645128
 20
2874.098540035707
 30
0.0
 10
1405.503887317515
 20
2873.023944823378
 30
0.0
 10
1405.484176879564
 20
2871.585492459378
 30
0.0
 10
1405.484027806967
 20
2869.295792575918
 30
0.0
 10
1405.47021274573
 20
2866.260099603909
 30
0.0
 10
1405.458524468316
 20
2862.585501733689
 30
0.0
 10
1405.443449883088
 20
2858.378290139457
 30
0.0
 10
1405.427382121868
 20
2853.745051753779
 30
0.0
 10
1405.410046022134
 20
2848.792273692942
 30
0.0
 10
1405.392010583193
 20
2843.626474651645
 30
0.0
 10
1405.37359032882
 20
2838.354163806063
 30
0.0
 10
1405.355173635323
 20
2833.081853091399
 30
0.0
 10
1405.337127869615
 20
2827.91605367045
 30
0.0
 10
1405.319827214828
 20
2822.963276912743
 30
0.0
 10
1405.303640238137
 20
2818.330034144197
 30
0.0
 10
1405.288949603043
 20
2814.122836665753
 30
0.0
 10
1405.276094518651
 20
2810.448195898571
 30
0.0
 10
1405.265542695975
 20
2807.412622898058
 30
0.0
 10
1405.257415610942
 20
2805.122629707316
 30
0.0
 10
1405.25263134015
 20
2803.684726096584
 30
0.0
 10
1405.2493832431
 20
2802.848275922393
 30
0.0
 10
1405.247845053507
 20
2802.002556453933
 30
0.0
 10
1405.244344153181
 20
2800.532465061885
 30
0.0
 10
1405.239261185462
 20
2798.175650366758
 30
0.0
 10
1405.232233687941
 20
2795.025453172977
 30
0.0
 10
1405.2237319914
 20
2791.175211908786
 30
0.0
 10
1405.213860781761
 20
2786.718266045714
 30
0.0
 10
1405.202862149384
 20
2781.747954663236
 30
0.0
 10
1405.1909311199
 20
2776.35761697512
 30
0.0
 10
1405.178277865963
 20
2770.640592151907
 30
0.0
 10
1405.165107903762
 20
2764.690219377433
 30
0.0
 10
1405.151628127998
 20
2758.599837831595
 30
0.0
 10
1405.138045047053
 20
2752.462786695406
 30
0.0
 10
1405.12456523806
 20
2746.372405149624
 30
0.0
 10
1405.111395404008
 20
2740.422032374881
 30
0.0
 10
1405.098741698459
 20
2734.705007552524
 30
0.0
 10
1405.086812209441
 20
2729.314669861366
 30
0.0
 10
1405.075808496983
 20
2724.344358488774
 30
0.0
 10
1405.065953354482
 20
2719.887412594289
 30
0.0
 10
1405.057403599531
 20
2716.037171423912
 30
0.0
 10
1405.05050866454
 20
2712.886973971226
 30
0.0
 10
1405.045105417572
 20
2710.530159901522
 30
0.0
 10
1405.042198143894
 20
2709.06006735021
 30
0.0
 10
1405.039852763714
 20
2708.212227365719
 30
0.0
 10
1405.039976000725
 20
2707.364356184527
 30
0.0
 10
1405.039030119899
 20
2705.894178916555
 30
0.0
 10
1405.038256170389
 20
2703.537227085387
 30
0.0
 10
1405.036894420052
 20
2700.386846353788
 30
0.0
 10
1405.035352684417
 20
2696.536380854468
 30
0.0
 10
1405.033526157381
 20
2692.079175391916
 30
0.0
 10
1405.031502669186
 20
2687.108574518179
 30
0.0
 10
1405.029304066906
 20
2681.717922871766
 30
0.0
 10
1405.026973433293
 20
2676.00056506337
 30
0.0
 10
1405.024547322639
 20
2670.049845712228
 30
0.0
 10
1405.022064222868
 20
2663.959109435046
 30
0.0
 10
1405.019562076434
 20
2657.821700849263
 30
0.0
 10
1405.017078936627
 20
2651.73096457209
 30
0.0
 10
1405.014652980414
 20
2645.780245220887
 30
0.0
 10
1405.012321802596
 20
2640.062887412669
 30
0.0
 10
1405.010125056706
 20
2634.672235765598
 30
0.0
 10
1405.008095446682
 20
2629.701634893982
 30
0.0
 10
1405.00628828169
 20
2625.24442942465
 30
0.0
 10
1405.00468863235
 20
2621.393963945553
 30
0.0
 10
1405.003486629104
 20
2618.243583158116
 30
0.0
 10
1405.002326720835
 20
2615.886631461818
 30
0.0
 10
1405.002096201427
 20
2614.416453943844
 30
0.0
 10
1405.001251391152
 20
2613.568583327244
 30
0.0
 10
1405.003034423551
 20
2612.720742778171
 30
0.0
 10
1405.004891856243
 20
2611.250650476816
 30
0.0
 10
1405.008659900195
 20
2608.893836272238
 30
0.0
 10
1405.013348065229
 20
2605.743638875355
 30
0.0
 10
1405.019208564048
 20
2601.893397684721
 30
0.0
 10
1405.0259479902
 20
2597.436451796974
 30
0.0
 10
1405.033477973599
 20
2592.466140422212
 30
0.0
 10
1405.041639913652
 20
2587.075802731668
 30
0.0
 10
1405.050297812402
 20
2581.358777909083
 30
0.0
 10
1405.059308723094
 20
2575.408405134353
 30
0.0
 10
1405.068531757478
 20
2569.318023588511
 30
0.0
 10
1405.077825445183
 20
2563.180972452283
 30
0.0
 10
1405.08704843955
 20
2557.090590906389
 30
0.0
 10
1405.096059504593
 20
2551.140218131899
 30
0.0
 10
1405.104716859442
 20
2545.423193308541
 30
0.0
 10
1405.112880654814
 20
2540.032855620722
 30
0.0
 10
1405.120404519882
 20
2535.062544237083
 30
0.0
 10
1405.127163296989
 20
2530.605598377527
 30
0.0
 10
1405.132965915235
 20
2526.755357102682
 30
0.0
 10
1405.137813735947
 20
2523.605159938179
 30
0.0
 10
1405.141196041975
 20
2521.248345172232
 30
0.0
 10
1405.143768426763
 20
2519.778253911402
 30
0.0
 10
1405.144584002438
 20
2518.930350304205
 30
0.0
 10
1405.147867268749
 20
2518.082246457217
 30
0.0
 10
1405.152401456621
 20
2516.611554149265
 30
0.0
 10
1405.160412838773
 20
2514.253779385783
 30
0.0
 10
1405.170793935747
 20
2511.102297475646
 30
0.0
 10
1405.183604540096
 20
2507.250486548398
 30
0.0
 10
1405.198391943766
 20
2502.791723495143
 30
0.0
 10
1405.214896029594
 20
2497.819385672376
 30
0.0
 10
1405.232790712694
 20
2492.426850277185
 30
0.0
 10
1405.251771139441
 20
2486.707494557955
 30
0.0
 10
1405.271525926845
 20
2480.7546957473
 30
0.0
 10
1405.291745634695
 20
2474.661831082527
 30
0.0
 10
1405.312120240728
 20
2468.522277799524
 30
0.0
 10
1405.332339970622
 20
2462.429413134827
 30
0.0
 10
1405.352094673081
 20
2456.476614323878
 30
0.0
 10
1405.371075399303
 20
2450.757258605676
 30
0.0
 10
1405.388969061063
 20
2445.364723206949
 30
0.0
 10
1405.405476515267
 20
2440.392385395763
 30
0.0
 10
1405.420253265861
 20
2435.933622305734
 30
0.0
 10
1405.433095735043
 20
2432.081811488239
 30
0.0
 10
1405.44338893777
 20
2428.930329275
 30
0.0
 10
1405.451612678458
 20
2426.572555243391
 30
0.0
 10
1405.455753267606
 20
2425.101861578543
 30
0.0
 10
1405.459309383283
 20
2424.311488951657
 30
0.0
 10
1405.458937055649
 20
2423.766547497947
 30
0.0
 10
1405.458459778849
 20
2423.140251056301
 30
0.0
 10
1405.460778312747
 20
2422.513858719457
 30
0.0
 10
1405.450533691904
 20
2421.401260518766
 30
0.0
 10
1405.71070484672
 20
2419.818240116571
 30
0.0
 10
1406.729132839684
 20
2417.862333246876
 30
0.0
 10
1408.261999967186
 20
2416.328638056636
 30
0.0
 10
1410.210038780985
 20
2415.264698215774
 30
0.0
 10
1411.671956954921
 20
2415.117653655596
 30
0.0
 10
1412.415366107587
 20
2415.042879099406
 30
0.0
 11
1408.479689024254
 21
2876.806941599406
 31
0.0
 11
1408.036649744739
 21
2876.776624759128
 31
0.0
 11
1407.564671663142
 21
2876.663625627183
 31
0.0
 11
1406.484902180119
 21
2876.059942821114
 31
0.0
 11
1405.761585243391
 21
2875.06795947492
 31
0.0
 11
1405.497614371478
 21
2873.857939863294
 31
0.0
 11
1405.495816031634
 21
2873.34313511069
 31
0.0
 11
1405.490669058978
 21
2871.86972840496
 31
0.0
 11
1405.482545523822
 21
2869.544231074231
 31
0.0
 11
1405.471817496478
 21
2866.473154446628
 31
0.0
 11
1405.458857047259
 21
2862.763009850273
 31
0.0
 11
1405.444036246478
 21
2858.520308613294
 31
0.0
 11
1405.427727164447
 21
2853.851562063815
 31
0.0
 11
1405.410301871478
 21
2848.863281529961
 31
0.0
 11
1405.392132437884
 21
2843.661978339857
 31
0.0
 11
1405.373590933978
 21
2838.354163821627
 31
0.0
 11
1405.355049430072
 21
2833.046349303399
 31
0.0
 11
1405.336879996478
 21
2827.845046113294
 31
0.0
 11
1405.319454703509
 21
2822.85676557944
 31
0.0
 11
1405.303145621478
 21
2818.188019029961
 31
0.0
 11
1405.288324820697
 21
2813.945317792982
 31
0.0
 11
1405.275364371478
 21
2810.235173196627
 31
0.0
 11
1405.264636344134
 21
2807.164096569023
 31
0.0
 11
1405.256512808978
 21
2804.838599238294
 31
0.0
 11
1405.251365836322
 21
2803.365192532565
 31
0.0
 11
1405.249567496478
 21
2802.850387779961
 31
0.0
 11
1405.248414053479
 21
2802.329244020629
 31
0.0
 11
1405.245091449018
 21
2800.828038863151
 31
0.0
 11
1405.239806269902
 21
2798.440111488301
 31
0.0
 11
1405.232765102936
 21
2795.258801076857
 31
0.0
 11
1405.224174534927
 21
2791.377446809594
 31
0.0
 11
1405.214241152679
 21
2786.889387867287
 31
0.0
 11
1405.203171542999
 21
2781.887963430714
 31
0.0
 11
1405.191172292693
 21
2776.466512680649
 31
0.0
 11
1405.178449988567
 21
2770.718374797868
 31
0.0
 11
1405.165211217426
 21
2764.736888963148
 31
0.0
 11
1405.151662566076
 21
2758.615394357264
 31
0.0
 11
1405.138010621323
 21
2752.447230160992
 31
0.0
 11
1405.124461969973
 21
2746.325735555108
 31
0.0
 11
1405.111223198832
 21
2740.344249720387
 31
0.0
 11
1405.098500894706
 21
2734.596111837607
 31
0.0
 11
1405.0865016444
 21
2729.174661087542
 31
0.0
 11
1405.07543203472
 21
2724.173236650968
 31
0.0
 11
1405.065498652472
 21
2719.685177708662
 31
0.0
 11
1405.056908084463
 21
2715.803823441399
 31
0.0
 11
1405.049866917497
 21
2712.622513029954
 31
0.0
 11
1405.044581738381
 21
2710.234585655106
 31
0.0
 11
1405.04125913392
 21
2708.733380497627
 31
0.0
 11
1405.040105690921
 21
2708.212236738295
 31
0.0
 11
1405.039893214579
 21
2707.6910626252
 31
0.0
 11
1405.039281155863
 21
2706.189770030762
 31
0.0
 11
1405.038307570236
 21
2703.801703572251
 31
0.0
 11
1405.037010513163
 21
2700.620207866939
 31
0.0
 11
1405.035428040109
 21
2696.738627532097
 31
0.0
 11
1405.033598206537
 21
2692.250307184994
 31
0.0
 11
1405.031559067912
 21
2687.248591442903
 31
0.0
 11
1405.029348679698
 21
2681.826824923093
 31
0.0
 11
1405.027005097359
 21
2676.078352242836
 31
0.0
 11
1405.024566376359
 21
2670.096518019401
 31
0.0
 11
1405.022070572164
 21
2663.97466687006
 31
0.0
 11
1405.019555740236
 21
2657.806143412085
 31
0.0
 11
1405.01705993604
 21
2651.684292262743
 31
0.0
 11
1405.01462121504
 21
2645.702458039309
 31
0.0
 11
1405.012277632701
 21
2639.953985359051
 31
0.0
 11
1405.010067244487
 21
2634.532218839242
 31
0.0
 11
1405.008028105862
 21
2629.53050309715
 31
0.0
 11
1405.00619827229
 21
2625.042182750048
 31
0.0
 11
1405.004615799236
 21
2621.160602415205
 31
0.0
 11
1405.003318742163
 21
2617.979106709894
 31
0.0
 11
1405.002345156536
 21
2615.591040251383
 31
0.0
 11
1405.00173309782
 21
2614.089747656945
 31
0.0
 11
1405.001520621478
 21
2613.56857354385
 31
0.0
 11
1405.00230981932
 21
2613.047429784518
 31
0.0
 11
1405.004583180266
 21
2611.546224627039
 31
0.0
 11
1405.008199355451
 21
2609.15829725219
 31
0.0
 11
1405.013016996007
 21
2605.976986840747
 31
0.0
 11
1405.018894753066
 21
2602.095632573482
 31
0.0
 11
1405.025691277761
 21
2597.607573631176
 31
0.0
 11
1405.033265221226
 21
2592.606149194603
 31
0.0
 11
1405.041475234593
 21
2587.184698444538
 31
0.0
 11
1405.050179968996
 21
2581.436560561757
 31
0.0
 11
1405.059238075565
 21
2575.455074727037
 31
0.0
 11
1405.068508205436
 21
2569.333580121152
 31
0.0
 11
1405.077849009741
 21
2563.165415924881
 31
0.0
 11
1405.087119139612
 21
2557.043921318997
 31
0.0
 11
1405.096177246181
 21
2551.062435484277
 31
0.0
 11
1405.104881980584
 21
2545.314297601496
 31
0.0
 11
1405.113091993951
 21
2539.892846851431
 31
0.0
 11
1405.120665937416
 21
2534.891422414857
 31
0.0
 11
1405.127462462111
 21
2530.403363472551
 31
0.0
 11
1405.13334021917
 21
2526.522009205288
 31
0.0
 11
1405.138157859726
 21
2523.340698793844
 31
0.0
 11
1405.141774034911
 21
2520.952771418994
 31
0.0
 11
1405.144047395857
 21
2519.451566261515
 31
0.0
 11
1405.144836593699
 21
2518.930422502184
 31
0.0
 11
1405.146566758198
 21
2518.40906626651
 31
0.0
 11
1405.151550664889
 21
2516.907249050315
 31
0.0
 11
1405.159478433563
 21
2514.518348089839
 31
0.0
 11
1405.170040184011
 21
2511.335740621323
 31
0.0
 11
1405.182926036026
 21
2507.452803881004
 31
0.0
 11
1405.197826109397
 21
2502.962915105126
 31
0.0
 11
1405.214430523916
 21
2497.959451529928
 31
0.0
 11
1405.232429399375
 21
2492.535790391648
 31
0.0
 11
1405.251512855565
 21
2486.785308926528
 31
0.0
 11
1405.271371012276
 21
2480.801384370808
 31
0.0
 11
1405.291693989301
 21
2474.677393960728
 31
0.0
 11
1405.31217190643
 21
2468.506714932529
 31
0.0
 11
1405.332494883455
 21
2462.382724522448
 31
0.0
 11
1405.352353040166
 21
2456.398799966728
 31
0.0
 11
1405.371436496355
 21
2450.648318501609
 31
0.0
 11
1405.389435371814
 21
2445.22465736333
 31
0.0
 11
1405.406039786334
 21
2440.221193788131
 31
0.0
 11
1405.420939859705
 21
2435.731305012253
 31
0.0
 11
1405.433825711719
 21
2431.848368271935
 31
0.0
 11
1405.444387462168
 21
2428.665760803418
 31
0.0
 11
1405.452315230842
 21
2426.276859842942
 31
0.0
 11
1405.457299137533
 21
2424.775042626747
 31
0.0
 11
1405.459029302032
 21
2424.253686391073
 31
0.0
 11
1405.459029302032
 21
2423.905731746976
 31
0.0
 11
1405.459029302032
 21
2423.140231529962
 31
0.0
 11
1405.459029302032
 21
2422.374731312948
 31
0.0
 11
1405.459029302032
 21
2422.026776668851
 31
0.0
 11
1405.829534163144
 21
2419.832542988295
 31
0.0
 11
1406.821016107588
 21
2417.923000974406
 31
0.0
 11
1408.322879302033
 21
2416.412186043851
 31
0.0
 11
1410.224527913143
 21
2415.414133613295
 31
0.0
 11
1412.415366107587
 21
2415.042879099406
 31
0.0
  0
SPLINE
  5
E4
330
1F
100
AcDbEntity
  8
0
  6
Continuous
 62
     7
100
AcDbSpline
210
0.0
220
0.0
230
1.0
 70
    11
 71
     3
 72
    77
 73
    73
 74
    71
 42
0.000000001
 43
0.0000000001
 44
0.00000001
 40
0.0
 40
0.0
 40
0.0
 40
0.0
 40
6.653257601442325
 40
13.33539777248788
 40
148.864092637521
 40
284.4013208708467
 40
291.3222589296049
 40
298.2674210467239
 40
304.414316172857
 40
319.0722968582833
 40
336.5673060635231
 40
351.2252867490331
 40
357.372181875224
 40
363.5183237951866
 40
378.1745083735776
 40
395.6673738381394
 40
410.3235584165791
 40
416.4697003365754
 40
422.6203384711124
 40
437.2872447919418
 40
454.7929071748857
 40
469.4598134957436
 40
475.6104516302998
 40
481.7604420198767
 40
496.4258037181052
 40
513.9296225192273
 40
528.5949842174726
 40
534.7449746070613
 40
540.8955228709242
 40
555.5622148847553
 40
573.067621481915
 40
587.7343134957564
 40
593.8848617596268
 40
600.031412574502
 40
614.6885722099776
 40
632.1826014523226
 40
646.8397610878047
 40
652.986311902685
 40
659.1363767817556
 40
673.8019161087722
 40
691.3059469184399
 40
705.971486245461
 40
712.1215511245347
 40
718.2688395388313
 40
732.9277580652326
 40
750.4238866290037
 40
765.082805155408
 40
771.2300935697067
 40
777.3804280781544
 40
792.0466103675305
 40
809.551408583884
 40
824.2175908732626
 40
830.3679253817116
 40
837.2906002397818
 40
844.214415603048
 40
979.7516151116921
 40
1115.280320425016
 40
1121.946782442141
 40
1128.591905843022
 40
1137.567175860848
 40
1162.552386991557
 40
1200.636640850985
 40
1248.909039054976
 40
1304.458683219366
 40
1364.374674959996
 40
1425.746115892706
 40
1485.662107633336
 40
1541.211751797726
 40
1589.484150001717
 40
1627.568403861145
 40
1652.553614991854
 40
1661.528884999703
 40
1661.528884999703
 40
1661.528884999703
 40
1661.528884999703
 10
1973.756468538142
 20
2756.917618682739
 30
0.0
 10
1976.14759377129
 20
2756.460722451763
 30
0.0
 10
1980.940224396914
 20
2755.54494656264
 30
0.0
 10
1992.076928639397
 20
2701.91786662267
 30
0.0
 10
1974.154852298045
 20
2612.857078651721
 30
0.0
 10
1990.289516429213
 20
2523.546302575125
 30
0.0
 10
1980.921779969345
 20
2469.818081615086
 30
0.0
 10
1973.449742035042
 20
2468.057822573437
 30
0.0
 10
1964.44725021056
 20
2468.477937071093
 30
0.0
 10
1951.540040760392
 20
2468.042571667995
 30
0.0
 10
1935.99043899169
 20
2467.983673164994
 30
0.0
 10
1923.213119068333
 20
2467.826868538651
 30
0.0
 10
1914.231191304658
 20
2467.723080347573
 30
0.0
 10
1905.24802449855
 20
2467.66276935086
 30
0.0
 10
1892.483541562612
 20
2467.560476565961
 30
0.0
 10
1876.882183401358
 20
2467.441608007706
 30
0.0
 10
1864.117485223117
 20
2467.347320172863
 30
0.0
 10
1855.133466281251
 20
2467.272290255474
 30
0.0
 10
1846.145661125051
 20
2467.23002332251
 30
0.0
 10
1833.371468137405
 20
2467.15764493702
 30
0.0
 10
1817.758536423596
 20
2467.07265997284
 30
0.0
 10
1804.984302489581
 20
2467.008601461013
 30
0.0
 10
1795.995289755033
 20
2466.951042139925
 30
0.0
 10
1787.00661452281
 20
2466.939897268391
 30
0.0
 10
1774.233609423018
 20
2466.906324890316
 30
0.0
 10
1758.622128391675
 20
2466.87198591947
 30
0.0
 10
1745.849100830094
 20
2466.846723643156
 30
0.0
 10
1736.860496826351
 20
2466.820309724884
 30
0.0
 10
1727.871412833324
 20
2466.826625292546
 30
0.0
 10
1715.097201710248
 20
2466.82318818229
 30
0.0
 10
1699.484268368021
 20
2466.823187000571
 30
0.0
 10
1686.710057250329
 20
2466.82662750748
 30
0.0
 10
1677.722119773204
 20
2466.820307385253
 30
0.0
 10
1668.737396333745
 20
2466.846722955604
 30
0.0
 10
1655.971512519669
 20
2466.871985831534
 30
0.0
 10
1640.368762744788
 20
2466.906326458095
 30
0.0
 10
1627.602901378726
 20
2466.939893475993
 30
0.0
 10
1618.618297816211
 20
2466.951048765497
 30
0.0
 10
1609.631078355756
 20
2467.008601129954
 30
0.0
 10
1596.858035041966
 20
2467.072659825255
 30
0.0
 10
1581.246558546793
 20
2467.157646133031
 30
0.0
 10
1568.473556158878
 20
2467.23002047162
 30
0.0
 10
1559.48601564806
 20
2467.272297033815
 30
0.0
 10
1550.500894241522
 20
2467.34731886174
 30
0.0
 10
1537.733814582669
 20
2467.441607634443
 30
0.0
 10
1522.129547143317
 20
2467.560480424482
 30
0.0
 10
1509.36267991417
 20
2467.662760105259
 30
0.0
 10
1500.377078277185
 20
2467.723098734568
 30
0.0
 10
1491.390867284901
 20
2467.826831091961
 30
0.0
 10
1478.606606675897
 20
2467.984045440543
 30
0.0
 10
1463.047326639086
 20
2468.041049432561
 30
0.0
 10
1450.135492759398
 20
2468.481451249247
 30
0.0
 10
1441.131982352926
 20
2468.052943002917
 30
0.0
 10
1433.682630744851
 20
2469.835097701715
 30
0.0
 10
1424.140005634572
 20
2523.477106250929
 30
0.0
 10
1440.331215084703
 20
2612.655352433026
 30
0.0
 10
1422.916737616421
 20
2702.40454829219
 30
0.0
 10
1433.614355647385
 20
2755.456732531755
 30
0.0
 10
1441.797562028486
 20
2757.449651891057
 30
0.0
 10
1454.947434484876
 20
2756.431521176381
 30
0.0
 10
1479.251954305592
 20
2757.196734560728
 30
0.0
 10
1516.217514185776
 20
2756.804641069282
 30
0.0
 10
1563.57702295206
 20
2756.956331960241
 30
0.0
 10
1618.137199873046
 20
2756.905686136632
 30
0.0
 10
1677.088691754455
 20
2756.921010060273
 30
0.0
 10
1737.488210450739
 20
2756.916722303956
 30
0.0
 10
1796.434325143603
 20
2756.917838420834
 30
0.0
 10
1851.01356806417
 20
2756.917569487594
 30
0.0
 10
1898.315689087921
 20
2756.917628359383
 30
0.0
 10
1935.429639254515
 20
2756.917617179603
 30
0.0
 10
1959.444551524089
 20
2756.917618773001
 30
0.0
 10
1970.764711876123
 20
2756.917618701933
 30
0.0
 10
1973.756468538142
 20
2756.917618682739
 30
0.0
 11
1973.756468538142
 21
2756.917618682739
 31
0.0
 11
1979.98520117703
 21
2754.579087866767
 31
0.0
 11
1982.394011940919
 21
2748.346221113295
 31
0.0
 11
1982.46084679335
 21
2612.817542727878
 31
0.0
 11
1982.184550135365
 21
2477.280596113295
 31
0.0
 11
1979.850153433975
 21
2470.765231529962
 31
0.0
 11
1973.332032774253
 21
2468.367445071628
 31
0.0
 11
1967.185497357586
 21
2468.300946460517
 31
0.0
 11
1952.52837444092
 21
2468.142372849406
 31
0.0
 11
1935.034389024253
 21
2467.953107571629
 31
0.0
 11
1920.377266107587
 21
2467.794533960517
 31
0.0
 11
1914.23073069092
 21
2467.728035349406
 31
0.0
 11
1908.084768538142
 21
2467.681027710517
 31
0.0
 11
1893.429012635364
 21
2467.568932571628
 31
0.0
 11
1875.93665881592
 21
2467.435141599406
 31
0.0
 11
1861.280902913142
 21
2467.323046460517
 31
0.0
 11
1855.134940760364
 21
2467.276038821628
 31
0.0
 11
1848.984392496475
 21
2467.242789516072
 31
0.0
 11
1834.317700482586
 21
2467.163502710517
 31
0.0
 11
1816.812293885364
 21
2467.068870071628
 31
0.0
 11
1802.145601871475
 21
2466.989583266072
 31
0.0
 11
1795.995053607586
 21
2466.956333960517
 31
0.0
 11
1789.845078607586
 21
2466.942575627184
 31
0.0
 11
1775.179753607586
 21
2466.90976729385
 31
0.0
 11
1757.675978607586
 21
2466.870608960517
 31
0.0
 11
1743.010653607586
 21
2466.837800627184
 31
0.0
 11
1736.860678607586
 21
2466.82404229385
 31
0.0
 11
1730.710130343697
 21
2466.824042293851
 31
0.0
 11
1716.043438329808
 21
2466.82404229385
 31
0.0
 11
1698.538031732586
 21
2466.82404229385
 31
0.0
 11
1683.871339718697
 21
2466.824042293851
 31
0.0
 11
1677.720791454808
 21
2466.82404229385
 31
0.0
 11
1671.574256038142
 21
2466.837800627183
 31
0.0
 11
1656.917133121475
 21
2466.870608960517
 31
0.0
 11
1639.423147704809
 21
2466.90976729385
 31
0.0
 11
1624.766024788143
 21
2466.942575627184
 31
0.0
 11
1618.619489371476
 21
2466.956333960517
 31
0.0
 11
1612.469514371476
 21
2466.989583266072
 31
0.0
 11
1597.804189371476
 21
2467.068870071628
 31
0.0
 11
1580.300414371476
 21
2467.163502710517
 31
0.0
 11
1565.635089371476
 21
2467.242789516073
 31
0.0
 11
1559.485114371476
 21
2467.276038821628
 31
0.0
 11
1553.338005690921
 21
2467.323046460517
 31
0.0
 11
1538.679515760365
 21
2467.435141599406
 31
0.0
 11
1521.183898746477
 21
2467.568932571628
 31
0.0
 11
1506.525408815922
 21
2467.681027710517
 31
0.0
 11
1500.378300135366
 21
2467.728035349406
 31
0.0
 11
1494.228325135366
 21
2467.794533960517
 31
0.0
 11
1479.563000135366
 21
2467.953107571629
 31
0.0
 11
1462.059225135366
 21
2468.142372849406
 31
0.0
 11
1447.393900135366
 21
2468.300946460517
 31
0.0
 11
1441.243925135366
 21
2468.367445071628
 31
0.0
 11
1434.751298182241
 21
2470.769365644545
 31
0.0
 11
1432.396919927032
 21
2477.280596113295
 31
0.0
 11
1432.135092670088
 21
2612.817542727878
 31
0.0
 11
1432.220531038143
 21
2748.346221113295
 31
0.0
 11
1434.601781038143
 21
2754.572886694892
 31
0.0
 11
1440.819489371477
 21
2756.917618682739
 31
0.0
 11
1449.794759389304
 21
2756.917618682739
 31
0.0
 11
1474.779970520013
 21
2756.917618682739
 31
0.0
 11
1512.864224379442
 21
2756.917618682739
 31
0.0
 11
1561.136622583433
 21
2756.917618682739
 31
0.0
 11
1616.686266747823
 21
2756.917618682739
 31
0.0
 11
1676.602258488454
 21
2756.917618682739
 31
0.0
 11
1737.973699421165
 21
2756.917618682739
 31
0.0
 11
1797.889691161796
 21
2756.917618682739
 31
0.0
 11
1853.439335326186
 21
2756.917618682739
 31
0.0
 11
1901.711733530177
 21
2756.917618682739
 31
0.0
 11
1939.795987389606
 21
2756.917618682739
 31
0.0
 11
1964.781198520315
 21
2756.917618682739
 31
0.0
 11
1973.756468538142
 21
2756.917618682739
 31
0.0
  0
SPLINE
  5
E5
330
1F
100
AcDbEntity
  8
0
  6
Continuous
 62
     7
100
AcDbSpline
210
0.0
220
0.0
230
1.0
 70
    11
 71
     3
 72
   108
 73
   104
 74
   102
 42
0.000000001
 43
0.0000000001
 44
0.00000001
 40
0.0
 40
0.0
 40
0.0
 40
0.0
 40
0.4440753476766595
 40
0.9293918562976992
 40
2.16859789582114
 40
3.395564822231615
 40
4.633782451092435
 40
229.6417792211654
 40
454.6249011700902
 40
456.8476618017615
 40
458.9982766014697
 40
461.1285436964878
 40
463.2764067856954
 40
465.498523317612
 40
711.8101213529725
 40
958.1195026825105
 40
1204.429917539186
 40
1450.744616109343
 40
1452.964645838904
 40
1455.11227471613
 40
1457.243101176417
 40
1459.394203293929
 40
1461.617051551563
 40
1686.600160879857
 40
1911.608144116877
 40
1912.84692763032
 40
1914.076181371144
 40
1915.314496054805
 40
1915.799812563207
 40
1916.243887910413
 40
1916.797856621979
 40
1918.439339947035
 40
1921.137703671116
 40
1924.862313579757
 40
1929.582535458494
 40
1935.267735092863
 40
1941.887278268399
 40
1949.410530770637
 40
1957.806858385113
 40
1967.045626897362
 40
1977.096202092921
 40
1987.927949757325
 40
1999.510235676108
 40
2011.812425634807
 40
2024.803885418956
 40
2038.453980814095
 40
2052.732077605753
 40
2067.607541579468
 40
2083.049738520777
 40
2099.028034215215
 40
2115.511794448318
 40
2132.470385005619
 40
2149.873171672656
 40
2167.689520234963
 40
2185.888796478076
 40
2204.440366187533
 40
2223.313595148865
 40
2242.47784914761
 40
2261.902493969303
 40
2281.556895399482
 40
2301.410419223677
 40
2321.432431227428
 40
2341.592297196268
 40
2361.859382915734
 40
2382.203054171365
 40
2402.592676748689
 40
2422.997616433246
 40
2443.38723901057
 40
2463.730910266197
 40
2483.997995985666
 40
2504.157861954507
 40
2524.179873958257
 40
2544.033397782453
 40
2563.687799212632
 40
2583.112444034325
 40
2602.276698033069
 40
2621.149926994401
 40
2639.701496703856
 40
2657.900772946971
 40
2675.717121509279
 40
2693.119908176315
 40
2710.078498733616
 40
2726.56225896672
 40
2742.540554661158
 40
2757.982751602467
 40
2772.858215576183
 40
2787.136312367842
 40
2800.786407762979
 40
2813.777867547129
 40
2826.080057505828
 40
2837.66234342461
 40
2848.494091089015
 40
2858.544666284573
 40
2867.783434796823
 40
2876.179762411299
 40
2883.703014913537
 40
2890.322558089073
 40
2896.007757723442
 40
2900.727979602178
 40
2904.45258951082
 40
2907.150953234901
 40
2908.792436559957
 40
2909.346405261524
 40
2909.346405261524
 40
2909.346405261524
 40
2909.346405261524
 10
2008.521616107587
 20
2876.806941599406
 30
0.0
 10
2008.669947649099
 20
2876.801872114233
 30
0.0
 10
2008.980386244457
 20
2876.791262357012
 30
0.0
 10
2009.684764357879
 20
2876.612093467616
 30
0.0
 10
2010.572950579598
 20
2876.135846641315
 30
0.0
 10
2011.343960160099
 20
2875.098300480151
 30
0.0
 10
2021.188976444409
 20
2798.910883596763
 30
0.0
 10
2003.94475798354
 20
2648.914567014322
 30
0.0
 10
2019.034106828709
 20
2498.36664258386
 30
0.0
 10
2011.316261035407
 20
2421.66189262186
 30
0.0
 10
2010.26332871239
 20
2419.705347307765
 30
0.0
 10
2008.740933697794
 20
2418.171281081693
 30
0.0
 10
2006.790864307859
 20
2417.106422225218
 30
0.0
 10
1922.941361133451
 20
2408.604276957106
 30
0.0
 10
1758.40088266404
 20
2419.07429691926
 30
0.0
 10
1511.969111485459
 20
2412.89732719292
 30
0.0
 10
1265.537579813371
 20
2419.081093140388
 30
0.0
 10
1100.993864069264
 20
2408.588325468038
 30
0.0
 10
1017.145858657414
 20
2417.106698342863
 30
0.0
 10
1015.196528800995
 20
2418.171571882008
 30
0.0
 10
1013.673570978631
 20
2419.705309790208
 30
0.0
 10
1012.619369476809
 20
2421.661669054038
 30
0.0
 10
1004.887178949789
 20
2498.366675715469
 30
0.0
 10
1020.081893115192
 20
2648.91486847721
 30
0.0
 10
1002.600844041801
 20
2798.910401299741
 30
0.0
 10
1012.593790628
 20
2875.099456607716
 30
0.0
 10
1013.36880349789
 20
2876.134058021641
 30
0.0
 10
1014.256173525917
 20
2876.613142999253
 30
0.0
 10
1014.960280664625
 20
2876.79016856132
 30
0.0
 10
1015.456049075914
 20
2876.812318689567
 30
0.0
 10
1016.33526852481
 20
2876.801823655244
 30
0.0
 10
1017.967035277365
 20
2876.810159416073
 30
0.0
 10
1020.654909962509
 20
2876.80548249526
 30
0.0
 10
1024.369428969603
 20
2876.807512448502
 30
0.0
 10
1029.079393376684
 20
2876.806736423759
 30
0.0
 10
1034.754397928333
 20
2876.807011379823
 30
0.0
 10
1041.36372420168
 20
2876.806918773214
 30
0.0
 10
1048.876767084698
 20
2876.806948852776
 30
0.0
 10
1057.262882729976
 20
2876.80693934551
 30
0.0
 10
1066.491440012028
 20
2876.806942287169
 30
0.0
 10
1076.531803749652
 20
2876.806941392428
 30
0.0
 10
1087.353340025163
 20
2876.806941660769
 30
0.0
 10
1098.925414534404
 20
2876.806941581237
 30
0.0
 10
1111.217393089666
 20
2876.806941604572
 30
0.0
 10
1124.198641468592
 20
2876.806941597782
 30
0.0
 10
1137.838525459024
 20
2876.806941599744
 30
0.0
 10
1152.106410845828
 20
2876.80694159918
 30
0.0
 10
1166.971663414732
 20
2876.806941599342
 30
0.0
 10
1182.403648951217
 20
2876.806941599294
 30
0.0
 10
1198.371733240834
 20
2876.80694159931
 30
0.0
 10
1214.845282069115
 20
2876.806941599304
 30
0.0
 10
1231.793661221595
 20
2876.806941599305
 30
0.0
 10
1249.18623648381
 20
2876.806941599303
 30
0.0
 10
1266.992373641295
 20
2876.806941599304
 30
0.0
 10
1285.181438479588
 20
2876.806941599303
 30
0.0
 10
1303.722796784222
 20
2876.806941599303
 30
0.0
 10
1322.585814340733
 20
2876.806941599303
 30
0.0
 10
1341.739856934657
 20
2876.806941599303
 30
0.0
 10
1361.154290351529
 20
2876.806941599302
 30
0.0
 10
1380.798480376884
 20
2876.8069415993
 30
0.0
 10
1400.64179279626
 20
2876.806941599301
 30
0.0
 10
1420.653593395188
 20
2876.806941599301
 30
0.0
 10
1440.803247959208
 20
2876.8069415993
 30
0.0
 10
1461.060122273854
 20
2876.8069415993
 30
0.0
 10
1481.39358212466
 20
2876.8069415993
 30
0.0
 10
1501.772993297164
 20
2876.806941599299
 30
0.0
 10
1522.167721576899
 20
2876.806941599299
 30
0.0
 10
1542.547132749402
 20
2876.8069415993
 30
0.0
 10
1562.880592600209
 20
2876.806941599297
 30
0.0
 10
1583.137466914854
 20
2876.806941599299
 30
0.0
 10
1603.287121478874
 20
2876.806941599297
 30
0.0
 10
1623.298922077804
 20
2876.806941599297
 30
0.0
 10
1643.142234497178
 20
2876.806941599298
 30
0.0
 10
1662.786424522534
 20
2876.806941599297
 30
0.0
 10
1682.200857939406
 20
2876.806941599295
 30
0.0
 10
1701.35490053333
 20
2876.806941599298
 30
0.0
 10
1720.21791808984
 20
2876.806941599295
 30
0.0
 10
1738.759276394475
 20
2876.806941599295
 30
0.0
 10
1756.948341232766
 20
2876.806941599296
 30
0.0
 10
1774.754478390253
 20
2876.806941599295
 30
0.0
 10
1792.147053652468
 20
2876.806941599295
 30
0.0
 10
1809.095432804948
 20
2876.806941599295
 30
0.0
 10
1825.568981633229
 20
2876.806941599294
 30
0.0
 10
1841.537065922846
 20
2876.806941599294
 30
0.0
 10
1856.969051459334
 20
2876.806941599295
 30
0.0
 10
1871.834304028227
 20
2876.806941599293
 30
0.0
 10
1886.102189415065
 20
2876.806941599294
 30
0.0
 10
1899.74207340538
 20
2876.806941599292
 30
0.0
 10
1912.723321784709
 20
2876.806941599294
 30
0.0
 10
1925.015300338585
 20
2876.806941599293
 30
0.0
 10
1936.587374852548
 20
2876.806941599292
 30
0.0
 10
1947.408911112131
 20
2876.806941599293
 30
0.0
 10
1957.449274902867
 20
2876.806941599293
 30
0.0
 10
1966.677832010296
 20
2876.806941599292
 30
0.0
 10
1975.06394821995
 20
2876.806941599293
 30
0.0
 10
1982.576989317367
 20
2876.806941599291
 30
0.0
 10
1989.186321088082
 20
2876.806941599296
 30
0.0
 10
1994.861309317628
 20
2876.806941599285
 30
0.0
 10
1999.571319791544
 20
2876.80694159931
 30
0.0
 10
2003.285718295364
 20
2876.806941599245
 30
0.0
 10
2005.973870614623
 20
2876.806941599394
 30
0.0
 10
2007.605142531524
 20
2876.806941599129
 30
0.0
 10
2008.336959873732
 20
2876.806941599406
 30
0.0
 10
2008.521616107587
 20
2876.806941599406
 30
0.0
 11
2008.521616107587
 21
2876.806941599406
 31
0.0
 11
2008.9646553871
 21
2876.776624759128
 31
0.0
 11
2009.436633468698
 21
2876.663625627183
 31
0.0
 11
2010.518852797402
 21
2876.059942821114
 31
0.0
 11
2011.24094481129
 21
2875.06795947492
 31
0.0
 11
2011.503690760364
 21
2873.857939863294
 31
0.0
 11
2011.997717453073
 21
2648.850485436211
 31
0.0
 11
2011.536763677031
 21
2423.867835696628
 31
0.0
 11
2011.168948746475
 21
2421.675718682739
 31
0.0
 11
2010.179098399253
 21
2419.766441252184
 31
0.0
 11
2008.678073052031
 21
2418.254832571628
 31
0.0
 11
2006.776733121475
 21
2417.255721807739
 31
0.0
 11
2004.585939024253
 21
2416.883938127184
 31
0.0
 11
1758.278578862578
 21
2415.439065080309
 31
0.0
 11
1511.969668407934
 21
2414.95744073135
 31
0.0
 11
1265.659724424645
 21
2415.439065080309
 31
0.0
 11
1019.349263677032
 21
2416.883938127184
 31
0.0
 11
1017.160586246476
 21
2417.25572180774
 31
0.0
 11
1015.259510899254
 21
2418.254832571628
 31
0.0
 11
1013.757691802031
 21
2419.766441252184
 31
0.0
 11
1012.766783121476
 21
2421.67571868274
 31
0.0
 11
1012.398439024253
 21
2423.867835696628
 31
0.0
 11
1011.943686420087
 21
2648.850485436212
 31
0.0
 11
1012.43151194092
 21
2873.857939863294
 31
0.0
 11
1012.69691188948
 21
2875.06795947492
 31
0.0
 11
1013.422882825695
 21
2876.059942821114
 31
0.0
 11
1014.504081385367
 21
2876.663625627183
 31
0.0
 11
1014.976059466964
 21
2876.776624759128
 31
0.0
 11
1015.419098746477
 21
2876.806941599406
 31
0.0
 11
1015.973067458043
 21
2876.806941599406
 31
0.0
 11
1017.614550783099
 21
2876.806941599406
 31
0.0
 11
1020.31291450718
 21
2876.806941599406
 31
0.0
 11
1024.037524415821
 21
2876.806941599406
 31
0.0
 11
1028.757746294558
 21
2876.806941599406
 31
0.0
 11
1034.442945928927
 21
2876.806941599406
 31
0.0
 11
1041.062489104462
 21
2876.806941599406
 31
0.0
 11
1048.585741606701
 21
2876.806941599406
 31
0.0
 11
1056.982069221177
 21
2876.806941599405
 31
0.0
 11
1066.220837733426
 21
2876.806941599406
 31
0.0
 11
1076.271412928984
 21
2876.806941599405
 31
0.0
 11
1087.103160593389
 21
2876.806941599405
 31
0.0
 11
1098.685446512172
 21
2876.806941599406
 31
0.0
 11
1110.98763647087
 21
2876.806941599405
 31
0.0
 11
1123.97909625502
 21
2876.806941599405
 31
0.0
 11
1137.629191650158
 21
2876.806941599406
 31
0.0
 11
1151.907288441816
 21
2876.806941599406
 31
0.0
 11
1166.782752415533
 21
2876.806941599406
 31
0.0
 11
1182.224949356842
 21
2876.806941599406
 31
0.0
 11
1198.203245051279
 21
2876.806941599406
 31
0.0
 11
1214.687005284383
 21
2876.806941599406
 31
0.0
 11
1231.645595841684
 21
2876.806941599406
 31
0.0
 11
1249.048382508721
 21
2876.806941599405
 31
0.0
 11
1266.864731071028
 21
2876.806941599406
 31
0.0
 11
1285.064007314141
 21
2876.806941599406
 31
0.0
 11
1303.615577023598
 21
2876.806941599406
 31
0.0
 11
1322.48880598493
 21
2876.806941599406
 31
0.0
 11
1341.653059983674
 21
2876.806941599406
 31
0.0
 11
1361.077704805367
 21
2876.806941599406
 31
0.0
 11
1380.732106235546
 21
2876.806941599406
 31
0.0
 11
1400.585630059742
 21
2876.806941599406
 31
0.0
 11
1420.607642063493
 21
2876.806941599406
 31
0.0
 11
1440.767508032333
 21
2876.806941599406
 31
0.0
 11
1461.034593751799
 21
2876.806941599406
 31
0.0
 11
1481.378265007429
 21
2876.806941599406
 31
0.0
 11
1501.767887584754
 21
2876.806941599405
 31
0.0
 11
1522.17282726931
 21
2876.806941599406
 31
0.0
 11
1542.562449846635
 21
2876.806941599406
 31
0.0
 11
1562.906121102262
 21
2876.806941599405
 31
0.0
 11
1583.173206821731
 21
2876.806941599406
 31
0.0
 11
1603.333072790572
 21
2876.806941599406
 31
0.0
 11
1623.355084794322
 21
2876.806941599405
 31
0.0
 11
1643.208608618518
 21
2876.806941599406
 31
0.0
 11
1662.863010048697
 21
2876.806941599406
 31
0.0
 11
1682.28765487039
 21
2876.806941599405
 31
0.0
 11
1701.451908869134
 21
2876.806941599406
 31
0.0
 11
1720.325137830466
 21
2876.806941599406
 31
0.0
 11
1738.876707539921
 21
2876.806941599406
 31
0.0
 11
1757.075983783036
 21
2876.806941599406
 31
0.0
 11
1774.892332345344
 21
2876.806941599406
 31
0.0
 11
1792.29511901238
 21
2876.806941599406
 31
0.0
 11
1809.253709569681
 21
2876.806941599406
 31
0.0
 11
1825.737469802785
 21
2876.806941599406
 31
0.0
 11
1841.715765497222
 21
2876.806941599406
 31
0.0
 11
1857.157962438532
 21
2876.806941599406
 31
0.0
 11
1872.033426412248
 21
2876.806941599406
 31
0.0
 11
1886.311523203906
 21
2876.806941599406
 31
0.0
 11
1899.961618599044
 21
2876.806941599406
 31
0.0
 11
1912.953078383193
 21
2876.806941599406
 31
0.0
 11
1925.255268341892
 21
2876.806941599406
 31
0.0
 11
1936.837554260675
 21
2876.806941599406
 31
0.0
 11
1947.669301925079
 21
2876.806941599406
 31
0.0
 11
1957.719877120638
 21
2876.806941599406
 31
0.0
 11
1966.958645632888
 21
2876.806941599406
 31
0.0
 11
1975.354973247363
 21
2876.806941599406
 31
0.0
 11
1982.878225749601
 21
2876.806941599406
 31
0.0
 11
1989.497768925138
 21
2876.806941599406
 31
0.0
 11
1995.182968559506
 21
2876.806941599406
 31
0.0
 11
1999.903190438243
 21
2876.806941599406
 31
0.0
 11
2003.627800346884
 21
2876.806941599406
 31
0.0
 11
2006.326164070965
 21
2876.806941599406
 31
0.0
 11
2007.967647396021
 21
2876.806941599406
 31
0.0
 11
2008.521616107587
 21
2876.806941599406
 31
0.0
  0
MTEXT
  5
E7
330
1F
100
AcDbEntity
  8
1
 62
     7
100
AcDbMText
 10
1617.0
 20
150.0
 30
0.0
 40
30.0
 41
0.0
 71
     5
 72
     1
  1
12
  7
CONVERTER_12
 73
     1
 44
0.7202881152461
  0
MTEXT
  5
E8
330
1F
100
AcDbEntity
  8
1
 62
     7
100
AcDbMText
 10
1755.0
 20
150.0
 30
0.0
 40
30.0
 41
0.0
 71
     5
 72
     1
  1
26
  7
CONVERTER_12
 73
     1
 44
0.7202881152461
  0
MTEXT
  5
E9
330
1F
100
AcDbEntity
  8
1
 62
     7
100
AcDbMText
 10
1686.0
 20
150.0
 30
0.0
 40
30.0
 41
0.0
 71
     5
 72
     1
  1
4
  7
CONVERTER_12
 73
     1
 44
0.7202881152461
  0
MTEXT
  5
EA
330
1F
100
AcDbEntity
  8
1
 62
     7
100
AcDbMText
 10
684.0
 20
273.0000000000002
 30
0.0
 40
42.00000000000001
 41
0.0
 71
     5
 72
     1
  1
洗面器
  7
CONVERTER_11
 73
     1
 44
0.54545454545455
  0
MTEXT
  5
EB
330
1F
100
AcDbEntity
  8
1
 62
     7
100
AcDbMText
 10
684.0
 20
171.0
 30
0.0
 40
42.00000000000001
 41
0.0
 71
     5
 72
     1
  1
SL818431-W-104
  7
CONVERTER_12
 73
     1
 44
0.7202881152461
  0
MTEXT
  5
EC
330
1F
100
AcDbEntity
  8
1
 62
     7
100
AcDbMText
 10
1125.0
 20
204.0
 30
0.0
 40
42.00000000000001
 41
0.0
 71
     5
 72
     1
  1
12
  7
CONVERTER_12
 73
     1
 44
0.7202881152461
  0
MTEXT
  5
ED
330
1F
100
AcDbEntity
  8
1
 62
     7
100
AcDbMText
 10
1023.0
 20
204.0
 30
0.0
 40
42.00000000000001
 41
0.0
 71
     5
 72
     1
  1
1
  7
CONVERTER_12
 73
     1
 44
0.7202881152461
  0
MTEXT
  5
EE
330
1F
100
AcDbEntity
  8
1
 62
     7
100
AcDbMText
 10
1890.0
 20
150.0
 30
0.0
 40
30.0
 41
0.0
 71
     5
 72
     1
  1
1
  7
CONVERTER_12
 73
     1
 44
0.7202881152461
  0
MTEXT
  5
EF
330
1F
100
AcDbEntity
  8
1
 62
     7
100
AcDbMText
 10
1959.0
 20
150.0
 30
0.0
 40
30.0
 41
0.0
 71
     5
 72
     1
  1
20
  7
CONVERTER_12
 73
     1
 44
0.7202881152461
  0
MTEXT
  5
F0
330
1F
100
AcDbEntity
  8
1
 62
     7
100
AcDbMText
 10
1821.0
 20
150.0
 30
0.0
 40
30.0
 41
0.0
 71
     5
 72
     1
  1
11
  7
CONVERTER_12
 73
     1
 44
0.7202881152461
  0
MTEXT
  5
F1
330
1F
100
AcDbEntity
  8
1
 62
     7
100
AcDbMText
 10
1890.0
 20
228.0000000000001
 30
0.0
 40
60.0
 41
0.0
 71
     5
 72
     1
  1
板津
  7
CONVERTER_11
 73
     1
 44
0.54545454545455
  0
MTEXT
  5
F2
330
1F
100
AcDbEntity
  8
1
 62
     7
100
AcDbMText
 10
1686.0
 20
228.0000000000001
 30
0.0
 40
60.0
 41
0.0
 71
     5
 72
     1
  1
酒光
  7
CONVERTER_11
 73
     1
 44
0.54545454545455
  0
MTEXT
  5
F3
330
1F
100
AcDbEntity
  8
1
 62
     7
100
AcDbMText
 10
408.0
 20
460.0
 30
0.0
 40
42.00000000000001
 41
0.0
 71
     4
 72
     1
  1
シリーズ名：living city(LAUFEN)
  7
CONVERTER_11
 73
     1
 44
0.54545454545455
  0
MTEXT
  5
F4
330
1F
100
AcDbEntity
  8
1
 62
     7
100
AcDbMText
 10
408.0
 20
408.0
 30
0.0
 40
42.00000000000001
 41
0.0
 71
     4
 72
     1
  1
容量：10L・オーバーフロー付・コーキング剤付属
  7
CONVERTER_11
 73
     1
 44
0.54545454545455
  0
MTEXT
  5
F5
330
1F
100
AcDbEntity
  8
1
 62
     7
100
AcDbMText
 10
408.0
 20
356.0000000000001
 30
0.0
 40
42.00000000000001
 41
0.0
 71
     4
 72
     1
  1
{\Fgdt;n}38水栓取付位置の肉厚は最大18です。
  7
CONVERTER_11
 73
     1
 44
0.54545454545455
  0
MTEXT
  5
F6
330
1F
100
AcDbEntity
  8
1
 62
     7
100
AcDbMText
 10
1482.0
 20
228.0000000000001
 30
0.0
 40
60.0
 41
0.0
 71
     5
 72
     1
  1
片岡
  7
CONVERTER_11
 73
     1
 44
0.54545454545455
  0
MTEXT
  5
F7
330
1F
100
AcDbEntity
  8
1
 62
     7
100
AcDbMText
 10
1278.0
 20
228.0000000000001
 30
0.0
 40
60.0
 41
0.0
 71
     5
 72
     1
  1
牧
  7
CONVERTER_11
 73
     1
 44
0.54545454545455
  0
MTEXT
  5
F8
330
1F
100
AcDbEntity
  8
1
 62
     7
100
AcDbMText
 10
1482.0
 20
150.0
 30
0.0
 40
30.0
 41
0.0
 71
     5
 72
     1
  1
4
  7
CONVERTER_12
 73
     1
 44
0.7202881152461
  0
MTEXT
  5
F9
330
1F
100
AcDbEntity
  8
1
 62
     7
100
AcDbMText
 10
1551.0
 20
150.0
 30
0.0
 40
30.0
 41
0.0
 71
     5
 72
     1
  1
26
  7
CONVERTER_12
 73
     1
 44
0.7202881152461
  0
MTEXT
  5
FA
330
1F
100
AcDbEntity
  8
1
 62
     7
100
AcDbMText
 10
1413.0
 20
150.0
 30
0.0
 40
30.0
 41
0.0
 71
     5
 72
     1
  1
12
  7
CONVERTER_12
 73
     1
 44
0.7202881152461
  0
MTEXT
  5
FB
330
1F
100
AcDbEntity
  8
1
 62
     7
100
AcDbMText
 10
1209.0
 20
150.0
 30
0.0
 40
30.0
 41
0.0
 71
     5
 72
     1
  1
12
  7
CONVERTER_12
 73
     1
 44
0.7202881152461
  0
MTEXT
  5
FC
330
1F
100
AcDbEntity
  8
1
 62
     7
100
AcDbMText
 10
1347.0
 20
150.0
 30
0.0
 40
30.0
 41
0.0
 71
     5
 72
     1
  1
2
  7
CONVERTER_12
 73
     1
 44
0.7202881152461
  0
MTEXT
  5
FD
330
1F
100
AcDbEntity
  8
1
 62
     7
100
AcDbMText
 10
1278.0
 20
150.0
 30
0.0
 40
30.0
 41
0.0
 71
     5
 72
     1
  1
5
  7
CONVERTER_12
 73
     1
 44
0.7202881152461
  0
DIMENSION
  5
108
330
1F
100
AcDbEntity
  8
1
100
AcDbDimension
  2
*D3
 10
771.9441295849382
 20
2876.806941599449
 30
0.0
 11
738.9441295849382
 21
2646.844665674475
 31
0.0
 70
    32
  1
460
 71
     5
 42
-1.0
 53
90.0
  3
ME10_DIM_10
100
AcDbAlignedDimension
 13
1012.348084299433
 23
2416.882389749502
 33
0.0
 14
891.9441295849382
 24
2876.80694159945
 34
0.0
 50
90.0
100
AcDbRotatedDimension
  0
DIMENSION
  5
113
330
1F
100
AcDbEntity
  8
1
100
AcDbDimension
  2
*D4
 10
1012.398084299433
 20
2199.042879099406
 30
0.0
 11
1511.967442300309
 21
2232.042879099406
 31
0.0
 70
    32
  1
1000
 71
     5
 42
-1.0
 53
0.00013888888889
  3
ME10_DIM_11
100
AcDbAlignedDimension
 13
2011.536800301185
 23
2416.833852691891
 33
0.0
 14
1012.398084299433
 24
2416.832389749503
 34
0.0
100
AcDbRotatedDimension
  0
DIMENSION
  5
11E
330
1F
100
AcDbEntity
  8
1
100
AcDbDimension
  2
*D5
 10
1012.398084299433
 20
2295.042879099406
 30
0.0
 11
1208.929240422076
 21
2328.042879099406
 31
0.0
 70
    32
  1
400
 71
     5
 42
-1.0
 53
0.00013888888889
  3
ME10_DIM_12
100
AcDbAlignedDimension
 13
1405.460396544719
 23
2414.992879099406
 33
0.0
 14
1012.398084299433
 24
2416.832389749503
 34
0.0
100
AcDbRotatedDimension
  0
DIMENSION
  5
129
330
1F
100
AcDbEntity
  8
1
100
AcDbDimension
  2
*D6
 10
1405.460396544719
 20
2295.042879099406
 30
0.0
 11
1708.498598422952
 21
2328.042879099406
 31
0.0
 70
    32
  1
600
 71
     5
 42
-1.0
 53
0.00013888888889
  3
ME10_DIM_13
100
AcDbAlignedDimension
 13
2011.536800301185
 23
2416.833852691891
 33
0.0
 14
1405.460396544719
 24
2414.992879099406
 34
0.0
100
AcDbRotatedDimension
  0
DIMENSION
  5
134
330
1F
100
AcDbEntity
  8
1
100
AcDbDimension
  2
*D7
 10
2011.503682067726
 20
3008.806941599452
 30
0.0
 11
1859.395830511549
 21
3041.806941599452
 31
0.0
 70
    32
  1
300
 71
     5
 42
-1.0
 53
0.00013888888889
  3
ME10_DIM_14
100
AcDbAlignedDimension
 13
1707.287978954752
 23
2912.997795177059
 33
0.0
 14
2011.503682067726
 24
2876.85694159945
 34
0.0
100
AcDbRotatedDimension
  0
DIMENSION
  5
13F
330
1F
100
AcDbEntity
  8
1
100
AcDbDimension
  2
*D8
 10
2252.0
 20
2816.940839168895
 30
0.0
 11
2219.0
 21
2734.481095245273
 31
0.0
 70
    32
  1
165
 71
     5
 42
-1.0
 53
90.0
  3
ME10_DIM_15
100
AcDbAlignedDimension
 13
2047.997243931
 23
2652.021351321655
 33
0.0
 14
1759.289628260689
 24
2816.940839168895
 34
0.0
 50
90.0
100
AcDbRotatedDimension
  0
DIMENSION
  5
14A
330
1F
100
AcDbEntity
  8
1
100
AcDbDimension
  2
*D9
 10
2348.0
 20
2876.80694159945
 30
0.0
 11
2315.0
 21
2764.41414646055
 31
0.0
 70
    32
  1
225
 71
     5
 42
-1.0
 53
90.0
  3
ME10_DIM_16
100
AcDbAlignedDimension
 13
2047.997243931
 23
2652.021351321655
 33
0.0
 14
2132.0
 24
2876.80694159945
 34
0.0
 50
90.0
100
AcDbRotatedDimension
  0
DIMENSION
  5
155
330
1F
100
AcDbEntity
  8
1
100
AcDbDimension
  2
*D10
 10
1847.15885569092
 20
1668.094441625405
 30
0.0
 11
1928.607518302332
 21
1701.094441625405
 31
0.0
 70
    32
  1
160
 71
     5
 42
-1.0
 53
0.00013888888889
  3
ME10_DIM_17
100
AcDbAlignedDimension
 13
2010.056180913745
 23
1548.144441625405
 33
0.0
 14
1847.15885569092
 24
1514.895324616843
 34
0.0
100
AcDbRotatedDimension
  0
DIMENSION
  5
160
330
1F
100
AcDbEntity
  8
1
100
AcDbDimension
  2
*D11
 10
1847.15885569092
 20
1668.094441625405
 30
0.0
 11
1707.26041819092
 21
1701.094441625405
 31
0.0
 70
    32
  1
280
 71
     5
 42
-1.0
 53
0.00013888888889
  3
ME10_DIM_18
100
AcDbAlignedDimension
 13
1567.36198069092
 23
1514.895324616843
 33
0.0
 14
1847.15885569092
 24
1514.895324616843
 34
0.0
100
AcDbRotatedDimension
  0
DIMENSION
  5
16D
330
1F
100
AcDbEntity
  8
1
100
AcDbDimension
  2
*D12
 10
1180.549290926946
 20
1458.096685518567
 30
0.0
 11
1147.549290926946
 21
1511.641180419979
 31
0.0
 70
    32
  1
<>
 71
     5
 42
-1.0
 53
90.0
  3
ME10_DIM_19
100
AcDbAlignedDimension
 13
1011.501197120562
 23
1408.097364547399
 33
0.0
 14
1012.197158897537
 24
1458.096685518568
 34
0.0
 50
90.0
100
AcDbRotatedDimension
  0
DIMENSION
  5
17A
330
1F
100
AcDbEntity
  8
1
100
AcDbDimension
  2
*D13
 10
2132.277344105866
 20
1548.094441625405
 30
0.0
 11
2099.277344105866
 21
1636.91094514261
 31
0.0
 70
    32
  1
50
 71
     5
 42
-1.0
 53
90.0
  3
ME10_DIM_20
100
AcDbAlignedDimension
 13
1875.16059180203
 23
1498.127355866843
 33
0.0
 14
2010.106180913744
 24
1548.094441625405
 34
0.0
 50
90.0
100
AcDbRotatedDimension
  0
DIMENSION
  5
185
330
1F
100
AcDbEntity
  8
1
100
AcDbDimension
  2
*D14
 10
2228.277344105866
 20
1408.097364547398
 30
0.0
 11
2195.277344105866
 21
1478.095903086401
 31
0.0
 70
    32
  1
<>
 71
     5
 42
-1.0
 53
90.0
  3
ME10_DIM_21
100
AcDbAlignedDimension
 13
2010.106180913744
 23
1548.094441625405
 33
0.0
 14
2012.327344105866
 24
1408.097364547399
 34
0.0
 50
90.0
100
AcDbRotatedDimension
  0
DIMENSION
  5
190
330
1F
100
AcDbEntity
  8
1
100
AcDbDimension
  2
*D15
 10
2324.277344105866
 20
1393.231088505732
 30
0.0
 11
2291.277344105866
 21
1470.662765065569
 31
0.0
 70
    32
  1
155
 71
     5
 42
-1.0
 53
90.0
  3
ME10_DIM_22
100
AcDbAlignedDimension
 13
2010.106180913744
 23
1548.094441625405
 33
0.0
 14
1707.287978954798
 24
1393.231088505732
 34
0.0
 50
90.0
100
AcDbRotatedDimension
  0
INSERT
  5
198
330
1F
100
AcDbEntity
  8
1
100
AcDbBlockReference
  2
*D16
 10
0.0
 20
0.0
 30
0.0
  0
INSERT
  5
1A0
330
1F
100
AcDbEntity
  8
1
100
AcDbBlockReference
  2
*D17
 10
0.0
 20
0.0
 30
0.0
  0
INSERT
  5
1A8
330
1F
100
AcDbEntity
  8
1
100
AcDbBlockReference
  2
*D18
 10
0.0
 20
0.0
 30
0.0
  0
ENDSEC
  0
SECTION
  2
OBJECTS
  0
DICTIONARY
  5
C
330
0
100
AcDbDictionary
281
     1
  3
ACAD_GROUP
350
D
  3
ACAD_LAYOUT
350
1A
  3
ACAD_MATERIAL
350
3B
  3
ACAD_MLEADERSTYLE
350
1AB
  3
ACAD_MLINESTYLE
350
17
  3
ACAD_PLOTSETTINGS
350
19
  3
ACAD_PLOTSTYLENAME
350
E
  3
ACAD_VISUALSTYLE
350
2A
  3
AcDbVariableDictionary
350
1A9
  0
DICTIONARY
  5
D
102
{ACAD_REACTORS
330
C
102
}
330
C
100
AcDbDictionary
281
     1
  0
DICTIONARY
  5
1A
102
{ACAD_REACTORS
330
C
102
}
330
C
100
AcDbDictionary
281
     1
  3
Layout1
350
1E
  3
Layout2
350
26
  3
Model
350
22
  0
DICTIONARY
  5
3B
102
{ACAD_REACTORS
330
C
102
}
330
C
100
AcDbDictionary
281
     1
  3
ByBlock
350
3D
  3
ByLayer
350
3C
  3
Global
350
3E
  0
DICTIONARY
  5
1AB
102
{ACAD_REACTORS
330
C
102
}
330
C
100
AcDbDictionary
281
     1
  0
DICTIONARY
  5
17
102
{ACAD_REACTORS
330
C
102
}
330
C
100
AcDbDictionary
281
     1
  3
Standard
350
18
  0
DICTIONARY
  5
19
102
{ACAD_REACTORS
330
C
102
}
330
C
100
AcDbDictionary
281
     1
  0
ACDBDICTIONARYWDFLT
  5
E
102
{ACAD_REACTORS
330
C
102
}
330
C
100
AcDbDictionary
281
     1
  3
Normal
350
F
100
AcDbDictionaryWithDefault
340
F
  0
DICTIONARY
  5
2A
102
{ACAD_REACTORS
330
C
102
}
330
C
100
AcDbDictionary
281
     1
  3
2dWireframe
350
2F
  3
3D Hidden
350
31
  3
3dWireframe
350
30
  3
Basic
350
32
  3
Brighten
350
36
  3
ColorChange
350
3A
  3
Conceptual
350
34
  3
Dim
350
35
  3
Facepattern
350
39
  3
Flat
350
2B
  3
FlatWithEdges
350
2C
  3
Gouraud
350
2D
  3
GouraudWithEdges
350
2E
  3
Linepattern
350
38
  3
Realistic
350
33
  3
Thicken
350
37
  0
DICTIONARY
  5
1A9
102
{ACAD_REACTORS
330
C
102
}
330
C
100
AcDbDictionary
281
     1
  3
DIMASSOC
350
1AC
  3
HIDETEXT
350
1AD
  0
LAYOUT
  5
1E
102
{ACAD_REACTORS
330
1A
102
}
330
1A
100
AcDbPlotSettings
  1

  2
none_device
  4

  6

 40
0.0
 41
0.0
 42
0.0
 43
0.0
 44
0.0
 45
0.0
 46
0.0
 47
0.0
 48
0.0
 49
0.0
140
0.0
141
0.0
142
1.0
143
1.0
 70
   688
 72
     0
 73
     0
 74
     5
  7

 75
    16
147
1.0
148
0.0
149
0.0
100
AcDbLayout
  1
Layout1
 70
     1
 71
     1
 10
0.0
 20
0.0
 11
12.0
 21
9.0
 12
0.0
 22
0.0
 32
0.0
 14
1.00000000000000E+20
 24
1.00000000000000E+20
 34
1.00000000000000E+20
 15
-1.00000000000000E+20
 25
-1.00000000000000E+20
 35
-1.00000000000000E+20
146
0.0
 13
0.0
 23
0.0
 33
0.0
 16
1.0
 26
0.0
 36
0.0
 17
0.0
 27
1.0
 37
0.0
 76
     0
330
1B
  0
LAYOUT
  5
26
102
{ACAD_REACTORS
330
1A
102
}
330
1A
100
AcDbPlotSettings
  1

  2
none_device
  4

  6

 40
0.0
 41
0.0
 42
0.0
 43
0.0
 44
0.0
 45
0.0
 46
0.0
 47
0.0
 48
0.0
 49
0.0
140
0.0
141
0.0
142
1.0
143
1.0
 70
   688
 72
     0
 73
     0
 74
     5
  7

 75
    16
147
1.0
148
0.0
149
0.0
100
AcDbLayout
  1
Layout2
 70
     1
 71
     2
 10
0.0
 20
0.0
 11
0.0
 21
0.0
 12
0.0
 22
0.0
 32
0.0
 14
0.0
 24
0.0
 34
0.0
 15
0.0
 25
0.0
 35
0.0
146
0.0
 13
0.0
 23
0.0
 33
0.0
 16
1.0
 26
0.0
 36
0.0
 17
0.0
 27
1.0
 37
0.0
 76
     0
330
23
  0
LAYOUT
  5
22
102
{ACAD_REACTORS
330
1A
102
}
330
1A
100
AcDbPlotSettings
  1

  2
none_device
  4

  6

 40
0.0
 41
0.0
 42
0.0
 43
0.0
 44
0.0
 45
0.0
 46
0.0
 47
0.0
 48
0.0
 49
0.0
140
0.0
141
0.0
142
1.0
143
1.0
 70
  1712
 72
     0
 73
     0
 74
     0
  7

 75
     0
147
1.0
148
0.0
149
0.0
100
AcDbLayout
  1
Model
 70
     1
 71
     0
 10
0.0
 20
0.0
 11
12.0
 21
9.0
 12
0.0
 22
0.0
 32
0.0
 14
0.0
 24
0.0
 34
0.0
 15
2520.0
 25
3564.0
 35
0.0
146
0.0
 13
0.0
 23
0.0
 33
0.0
 16
1.0
 26
0.0
 36
0.0
 17
0.0
 27
1.0
 37
0.0
 76
     0
330
1F
331
29
  0
MATERIAL
  5
3D
102
{ACAD_REACTORS
330
3B
102
}
102
{ACAD_XDICTIONARY
360
1D0
102
}
330
3B
100
AcDbMaterial
  1
ByBlock
  0
MATERIAL
  5
3C
102
{ACAD_REACTORS
330
3B
102
}
102
{ACAD_XDICTIONARY
360
1CE
102
}
330
3B
100
AcDbMaterial
  1
ByLayer
  0
MATERIAL
  5
3E
102
{ACAD_REACTORS
330
3B
102
}
102
{ACAD_XDICTIONARY
360
1D2
102
}
330
3B
100
AcDbMaterial
  1
Global
  0
MLINESTYLE
  5
18
102
{ACAD_REACTORS
330
17
102
}
330
17
100
AcDbMlineStyle
  2
Standard
 70
     0
  3

 62
   256
 51
90.0
 52
90.0
 71
     2
 49
0.5
 62
   256
  6
BYLAYER
 49
-0.5
 62
   256
  6
BYLAYER
  0
ACDBPLACEHOLDER
  5
F
102
{ACAD_REACTORS
330
E
102
}
330
E
  0
VISUALSTYLE
  5
2F
102
{ACAD_REACTORS
330
2A
102
}
102
{ACAD_XDICTIONARY
360
1B6
102
}
330
2A
100
AcDbVisualStyle
  2
2dWireframe
 70
     4
 71
     0
 72
     2
 73
     0
 90
        0
 40
-0.6
 41
-30.0
 62
     5
 63
     7
 74
     1
 91
        4
 64
     7
 65
   257
 75
     1
175
     1
 42
1.0
 92
        0
 66
   257
 43
1.0
 76
     1
 77
     6
 78
     2
 67
     7
 79
     5
170
     0
171
     0
290
     0
174
     0
 93
        1
 44
0.0
173
     0
291
     0
 45
0.0
1001
ACAD
1000
AcDbSavedByObjectVersion
1070
     0
  0
VISUALSTYLE
  5
31
102
{ACAD_REACTORS
330
2A
102
}
102
{ACAD_XDICTIONARY
360
1BA
102
}
330
2A
100
AcDbVisualStyle
  2
3D Hidden
 70
     6
 71
     1
 72
     2
 73
     2
 90
        0
 40
-0.6
 41
-30.0
 62
     5
 63
     7
 74
     2
 91
        2
 64
     7
 65
   257
 75
     2
175
     1
 42
40.0
 92
        0
 66
   257
 43
1.0
 76
     1
 77
     6
 78
     2
 67
     7
 79
     3
170
     0
171
     0
290
     0
174
     0
 93
        1
 44
0.0
173
     0
291
     0
 45
0.0
1001
ACAD
1000
AcDbSavedByObjectVersion
1070
     0
  0
VISUALSTYLE
  5
30
102
{ACAD_REACTORS
330
2A
102
}
102
{ACAD_XDICTIONARY
360
1B8
102
}
330
2A
100
AcDbVisualStyle
  2
3dWireframe
 70
     5
 71
     0
 72
     2
 73
     0
 90
        0
 40
-0.6
 41
-30.0
 62
     5
 63
     7
 74
     1
 91
        4
 64
     7
 65
   257
 75
     1
175
     1
 42
1.0
 92
        0
 66
   257
 43
1.0
 76
     1
 77
     6
 78
     2
 67
     7
 79
     5
170
     0
171
     0
290
     0
174
     0
 93
        1
 44
0.0
173
     0
291
     0
 45
0.0
1001
ACAD
1000
AcDbSavedByObjectVersion
1070
     0
  0
VISUALSTYLE
  5
32
102
{ACAD_REACTORS
330
2A
102
}
102
{ACAD_XDICTIONARY
360
1BC
102
}
330
2A
100
AcDbVisualStyle
  2
Basic
 70
     7
 71
     1
 72
     0
 73
     1
 90
        0
 40
-0.6
 41
-30.0
 62
     5
 63
     7
 74
     0
 91
        4
 64
     7
 65
   257
 75
     1
175
     1
 42
1.0
 92
        8
 66
     7
 43
1.0
 76
     1
 77
     6
 78
     2
 67
     7
 79
     5
170
     0
171
     0
290
     0
174
     0
 93
        1
 44
0.0
173
     0
291
     1
 45
0.0
1001
ACAD
1000
AcDbSavedByObjectVersion
1070
     0
  0
VISUALSTYLE
  5
36
102
{ACAD_REACTORS
330
2A
102
}
102
{ACAD_XDICTIONARY
360
1C4
102
}
330
2A
100
AcDbVisualStyle
  2
Brighten
 70
    12
 71
     2
 72
     2
 73
     0
 90
        0
 40
-0.6
 41
-30.0
 62
     5
 63
     7
 74
     1
 91
        4
 64
     7
 65
   257
 75
     1
175
     1
 42
1.0
 92
        8
 66
     7
 43
1.0
 76
     1
 77
     6
 78
     2
 67
     7
 79
     5
170
     0
171
     0
290
     0
174
     0
 93
        1
 44
50.0
173
     0
291
     1
 45
0.0
1001
ACAD
1000
AcDbSavedByObjectVersion
1070
     0
  0
VISUALSTYLE
  5
3A
102
{ACAD_REACTORS
330
2A
102
}
102
{ACAD_XDICTIONARY
360
1CC
102
}
330
2A
100
AcDbVisualStyle
  2
ColorChange
 70
    16
 71
     2
 72
     2
 73
     3
 90
        0
 40
-0.6
 41
-30.0
 62
     5
 63
     8
 74
     1
 91
        4
 64
     7
 65
   257
 75
     1
175
     1
 42
1.0
 92
        8
 66
     8
 43
1.0
 76
     1
 77
     6
 78
     2
 67
     7
 79
     5
170
     0
171
     0
290
     0
174
     0
 93
        1
 44
0.0
173
     0
291
     1
 45
0.0
1001
ACAD
1000
AcDbSavedByObjectVersion
1070
     0
  0
VISUALSTYLE
  5
34
102
{ACAD_REACTORS
330
2A
102
}
102
{ACAD_XDICTIONARY
360
1C0
102
}
330
2A
100
AcDbVisualStyle
  2
Conceptual
 70
     9
 71
     3
 72
     2
 73
     0
 90
        0
 40
-0.6
 41
-30.0
 62
     5
 63
     7
 74
     2
 91
        2
 64
     7
 65
   257
 75
     1
175
     1
 42
40.0
 92
        8
 66
     7
 43
1.0
 76
     1
 77
     6
 78
     2
 67
     7
 79
     3
170
     0
171
     0
290
     0
174
     0
 93
        1
 44
0.0
173
     0
291
     0
 45
0.0
1001
ACAD
1000
AcDbSavedByObjectVersion
1070
     0
  0
VISUALSTYLE
  5
35
102
{ACAD_REACTORS
330
2A
102
}
102
{ACAD_XDICTIONARY
360
1C2
102
}
330
2A
100
AcDbVisualStyle
  2
Dim
 70
    11
 71
     2
 72
     2
 73
     0
 90
        0
 40
-0.6
 41
-30.0
 62
     5
 63
     7
 74
     1
 91
        4
 64
     7
 65
   257
 75
     1
175
     1
 42
1.0
 92
        8
 66
     7
 43
1.0
 76
     1
 77
     6
 78
     2
 67
     7
 79
     5
170
     0
171
     0
290
     0
174
     0
 93
        1
 44
-50.0
173
     0
291
     1
 45
0.0
1001
ACAD
1000
AcDbSavedByObjectVersion
1070
     0
  0
VISUALSTYLE
  5
39
102
{ACAD_REACTORS
330
2A
102
}
102
{ACAD_XDICTIONARY
360
1CA
102
}
330
2A
100
AcDbVisualStyle
  2
Facepattern
 70
    15
 71
     2
 72
     2
 73
     0
 90
        0
 40
-0.6
 41
-30.0
 62
     5
 63
     7
 74
     1
 91
        4
 64
     7
 65
   257
 75
     1
175
     1
 42
1.0
 92
        8
 66
     7
 43
1.0
 76
     1
 77
     6
 78
     2
 67
     7
 79
     5
170
     0
171
     0
290
     0
174
     0
 93
        1
 44
0.0
173
     0
291
     1
 45
0.0
1001
ACAD
1000
AcDbSavedByObjectVersion
1070
     0
  0
VISUALSTYLE
  5
2B
102
{ACAD_REACTORS
330
2A
102
}
102
{ACAD_XDICTIONARY
360
1AE
102
}
330
2A
100
AcDbVisualStyle
  2
Flat
 70
     0
 71
     2
 72
     1
 73
     1
 90
        2
 40
-0.6
 41
30.0
 62
     5
 63
     7
 74
     0
 91
        4
 64
     7
 65
   257
 75
     1
175
     1
 42
1.0
 92
        8
 66
     7
 43
1.0
 76
     1
 77
     6
 78
     2
 67
     7
 79
     5
170
     0
171
     0
290
     0
174
     0
 93
       13
 44
0.0
173
     0
291
     1
 45
0.0
1001
ACAD
1000
AcDbSavedByObjectVersion
1070
     0
  0
VISUALSTYLE
  5
2C
102
{ACAD_REACTORS
330
2A
102
}
102
{ACAD_XDICTIONARY
360
1B0
102
}
330
2A
100
AcDbVisualStyle
  2
FlatWithEdges
 70
     1
 71
     2
 72
     1
 73
     1
 90
        2
 40
-0.6
 41
30.0
 62
     5
 63
     7
 74
     1
 91
        4
 64
     7
 65
   257
 75
     1
175
     1
 42
1.0
 92
        0
 66
   257
 43
1.0
 76
     1
 77
     6
 78
     2
 67
     7
 79
     5
170
     0
171
     0
290
     0
174
     0
 93
       13
 44
0.0
173
     0
291
     1
 45
0.0
1001
ACAD
1000
AcDbSavedByObjectVersion
1070
     0
  0
VISUALSTYLE
  5
2D
102
{ACAD_REACTORS
330
2A
102
}
102
{ACAD_XDICTIONARY
360
1B2
102
}
330
2A
100
AcDbVisualStyle
  2
Gouraud
 70
     2
 71
     2
 72
     2
 73
     1
 90
        2
 40
-0.6
 41
30.0
 62
     5
 63
     7
 74
     0
 91
        4
 64
     7
 65
   257
 75
     1
175
     1
 42
1.0
 92
        0
 66
     7
 43
1.0
 76
     1
 77
     6
 78
     2
 67
     7
 79
     5
170
     0
171
     0
290
     0
174
     0
 93
       13
 44
0.0
173
     0
291
     1
 45
0.0
1001
ACAD
1000
AcDbSavedByObjectVersion
1070
     0
  0
VISUALSTYLE
  5
2E
102
{ACAD_REACTORS
330
2A
102
}
102
{ACAD_XDICTIONARY
360
1B4
102
}
330
2A
100
AcDbVisualStyle
  2
GouraudWithEdges
 70
     3
 71
     2
 72
     2
 73
     1
 90
        2
 40
-0.6
 41
30.0
 62
     5
 63
     7
 74
     1
 91
        4
 64
     7
 65
   257
 75
     1
175
     1
 42
1.0
 92
        0
 66
   257
 43
1.0
 76
     1
 77
     6
 78
     2
 67
     7
 79
     5
170
     0
171
     0
290
     0
174
     0
 93
       13
 44
0.0
173
     0
291
     1
 45
0.0
1001
ACAD
1000
AcDbSavedByObjectVersion
1070
     0
  0
VISUALSTYLE
  5
38
102
{ACAD_REACTORS
330
2A
102
}
102
{ACAD_XDICTIONARY
360
1C8
102
}
330
2A
100
AcDbVisualStyle
  2
Linepattern
 70
    14
 71
     2
 72
     2
 73
     0
 90
        0
 40
-0.6
 41
-30.0
 62
     5
 63
     7
 74
     1
 91
        4
 64
     7
 65
   257
 75
     7
175
     7
 42
1.0
 92
        8
 66
     7
 43
1.0
 76
     1
 77
     6
 78
     2
 67
     7
 79
     5
170
     0
171
     0
290
     0
174
     0
 93
        1
 44
0.0
173
     0
291
     1
 45
0.0
1001
ACAD
1000
AcDbSavedByObjectVersion
1070
     0
  0
VISUALSTYLE
  5
33
102
{ACAD_REACTORS
330
2A
102
}
102
{ACAD_XDICTIONARY
360
1BE
102
}
330
2A
100
AcDbVisualStyle
  2
Realistic
 70
     8
 71
     2
 72
     2
 73
     0
 90
        0
 40
-0.6
 41
-30.0
 62
     5
 63
     7
 74
     1
 91
        0
 64
     7
 65
   257
 75
     1
175
     1
 42
1.0
 92
        8
 66
     8
 43
1.0
 76
     1
 77
     6
 78
     2
 67
     7
 79
     5
170
     0
171
     0
290
     0
174
     0
 93
       13
 44
0.0
173
     0
291
     0
 45
0.0
1001
ACAD
1000
AcDbSavedByObjectVersion
1070
     0
  0
VISUALSTYLE
  5
37
102
{ACAD_REACTORS
330
2A
102
}
102
{ACAD_XDICTIONARY
360
1C6
102
}
330
2A
100
AcDbVisualStyle
  2
Thicken
 70
    13
 71
     2
 72
     2
 73
     0
 90
        0
 40
-0.6
 41
-30.0
 62
     5
 63
     7
 74
     1
 91
        4
 64
     7
 65
   257
 75
     1
175
     1
 42
1.0
 92
       12
 66
     7
 43
1.0
 76
     1
 77
     6
 78
     2
 67
     7
 79
     5
170
     0
171
     0
290
     0
174
     0
 93
        1
 44
0.0
173
     0
291
     1
 45
0.0
1001
ACAD
1000
AcDbSavedByObjectVersion
1070
     0
  0
DICTIONARYVAR
  5
1AC
102
{ACAD_REACTORS
330
1A9
102
}
330
1A9
100
DictionaryVariables
280
     0
  1
2
  0
DICTIONARYVAR
  5
1AD
102
{ACAD_REACTORS
330
1A9
102
}
330
1A9
100
DictionaryVariables
280
     0
  1
1
  0
DICTIONARY
  5
1D0
330
3D
100
AcDbDictionary
280
     1
281
     1
  3
ACAD_XREC_ROUNDTRIP
360
1D1
  0
DICTIONARY
  5
1CE
330
3C
100
AcDbDictionary
280
     1
281
     1
  3
ACAD_XREC_ROUNDTRIP
360
1CF
  0
DICTIONARY
  5
1D2
330
3E
100
AcDbDictionary
280
     1
281
     1
  3
ACAD_XREC_ROUNDTRIP
360
1D3
  0
DICTIONARY
  5
1B6
330
2F
100
AcDbDictionary
280
     1
281
     1
  3
ACAD_XREC_ROUNDTRIP
360
1B7
  0
DICTIONARY
  5
1BA
330
31
100
AcDbDictionary
280
     1
281
     1
  3
ACAD_XREC_ROUNDTRIP
360
1BB
  0
DICTIONARY
  5
1B8
330
30
100
AcDbDictionary
280
     1
281
     1
  3
ACAD_XREC_ROUNDTRIP
360
1B9
  0
DICTIONARY
  5
1BC
330
32
100
AcDbDictionary
280
     1
281
     1
  3
ACAD_XREC_ROUNDTRIP
360
1BD
  0
DICTIONARY
  5
1C4
330
36
100
AcDbDictionary
280
     1
281
     1
  3
ACAD_XREC_ROUNDTRIP
360
1C5
  0
DICTIONARY
  5
1CC
330
3A
100
AcDbDictionary
280
     1
281
     1
  3
ACAD_XREC_ROUNDTRIP
360
1CD
  0
DICTIONARY
  5
1C0
330
34
100
AcDbDictionary
280
     1
281
     1
  3
ACAD_XREC_ROUNDTRIP
360
1C1
  0
DICTIONARY
  5
1C2
330
35
100
AcDbDictionary
280
     1
281
     1
  3
ACAD_XREC_ROUNDTRIP
360
1C3
  0
DICTIONARY
  5
1CA
330
39
100
AcDbDictionary
280
     1
281
     1
  3
ACAD_XREC_ROUNDTRIP
360
1CB
  0
DICTIONARY
  5
1AE
330
2B
100
AcDbDictionary
280
     1
281
     1
  3
ACAD_XREC_ROUNDTRIP
360
1AF
  0
DICTIONARY
  5
1B0
330
2C
100
AcDbDictionary
280
     1
281
     1
  3
ACAD_XREC_ROUNDTRIP
360
1B1
  0
DICTIONARY
  5
1B2
330
2D
100
AcDbDictionary
280
     1
281
     1
  3
ACAD_XREC_ROUNDTRIP
360
1B3
  0
DICTIONARY
  5
1B4
330
2E
100
AcDbDictionary
280
     1
281
     1
  3
ACAD_XREC_ROUNDTRIP
360
1B5
  0
DICTIONARY
  5
1C8
330
38
100
AcDbDictionary
280
     1
281
     1
  3
ACAD_XREC_ROUNDTRIP
360
1C9
  0
DICTIONARY
  5
1BE
330
33
100
AcDbDictionary
280
     1
281
     1
  3
ACAD_XREC_ROUNDTRIP
360
1BF
  0
DICTIONARY
  5
1C6
330
37
100
AcDbDictionary
280
     1
281
     1
  3
ACAD_XREC_ROUNDTRIP
360
1C7
  0
XRECORD
  5
1D1
102
{ACAD_REACTORS
330
1D0
102
}
330
1D0
100
AcDbXrecord
280
     1
102
MATERIAL
148
0.0
149
0.0
149
0.0
 93
        0
 94
      127
282
     0
 72
     1
 77
     1
171
     1
175
     1
179
     1
273
     0
  0
XRECORD
  5
1CF
102
{ACAD_REACTORS
330
1CE
102
}
330
1CE
100
AcDbXrecord
280
     1
102
MATERIAL
148
0.0
149
0.0
149
0.0
 93
        0
 94
      127
282
     0
 72
     1
 77
     1
171
     1
175
     1
179
     1
273
     0
  0
XRECORD
  5
1D3
102
{ACAD_REACTORS
330
1D2
102
}
330
1D2
100
AcDbXrecord
280
     1
102
MATERIAL
148
0.0
149
0.0
149
0.0
 93
        0
 94
      127
282
     0
 72
     1
 77
     1
171
     1
175
     1
179
     1
273
     0
  0
XRECORD
  5
1B7
102
{ACAD_REACTORS
330
1B6
102
}
330
1B6
100
AcDbXrecord
280
     1
102
RTVSPropertyOp0
 70
     1
102
RTVSPropertyOp1
 70
     1
102
RTVSPropertyOp2
 70
     1
102
RTVSPropertyOp3
 70
     1
102
RTVSPropertyOp4
 70
     1
102
RTVSPropertyOp5
 70
     1
102
RTVSPropertyOp6
 70
     1
102
RTVSPropertyOp7
 70
     1
102
RTVSPropertyOp8
 70
     1
102
RTVSPropertyOp9
 70
     1
102
RTVSPropertyOp10
 70
     1
102
RTVSPropertyOp11
 70
     1
102
RTVSPropertyOp12
 70
     1
102
RTVSPropertyOp13
 70
     1
102
RTVSPropertyOp14
 70
     1
102
RTVSPropertyOp15
 70
     1
102
RTVSPropertyOp16
 70
     1
102
RTVSPropertyOp17
 70
     1
102
RTVSPropertyOp18
 70
     1
102
RTVSPropertyOp19
 70
     1
102
RTVSPropertyOp20
 70
     1
102
RTVSPropertyOp21
 70
     1
102
RTVSPropertyOp22
 70
     1
102
RTVSPropertyOp23
 70
     1
102
RTVSPropertyOp24
 70
     1
102
RTVSPropertyOp25
 70
     1
102
RTVSPropertyOp26
 70
     1
102
RTVSPropertyOp27
 70
     1
102
RTVSPropertyOp28
 70
     1
102
RTVSPropertyOp29
 70
     1
102
RTVSPropertyOp30
 70
     1
102
RTVSPropertyOp31
 70
     1
102
RTVSPropertyOp32
 70
     1
  0
XRECORD
  5
1BB
102
{ACAD_REACTORS
330
1BA
102
}
330
1BA
100
AcDbXrecord
280
     1
102
RTVSPropertyOp0
 70
     1
102
RTVSPropertyOp1
 70
     1
102
RTVSPropertyOp2
 70
     1
102
RTVSPropertyOp3
 70
     1
102
RTVSPropertyOp4
 70
     1
102
RTVSPropertyOp5
 70
     1
102
RTVSPropertyOp6
 70
     1
102
RTVSPropertyOp7
 70
     1
102
RTVSPropertyOp8
 70
     1
102
RTVSPropertyOp9
 70
     1
102
RTVSPropertyOp10
 70
     1
102
RTVSPropertyOp11
 70
     1
102
RTVSPropertyOp12
 70
     1
102
RTVSPropertyOp13
 70
     1
102
RTVSPropertyOp14
 70
     1
102
RTVSPropertyOp15
 70
     1
102
RTVSPropertyOp16
 70
     1
102
RTVSPropertyOp17
 70
     1
102
RTVSPropertyOp18
 70
     1
102
RTVSPropertyOp19
 70
     1
102
RTVSPropertyOp20
 70
     1
102
RTVSPropertyOp21
 70
     1
102
RTVSPropertyOp22
 70
     1
102
RTVSPropertyOp23
 70
     1
102
RTVSPropertyOp24
 70
     1
102
RTVSPropertyOp25
 70
     1
102
RTVSPropertyOp26
 70
     1
102
RTVSPropertyOp27
 70
     1
102
RTVSPropertyOp28
 70
     1
102
RTVSPropertyOp29
 70
     1
102
RTVSPropertyOp30
 70
     1
102
RTVSPropertyOp31
 70
     1
102
RTVSPropertyOp32
 70
     1
  0
XRECORD
  5
1B9
102
{ACAD_REACTORS
330
1B8
102
}
330
1B8
100
AcDbXrecord
280
     1
102
RTVSPropertyOp0
 70
     1
102
RTVSPropertyOp1
 70
     1
102
RTVSPropertyOp2
 70
     1
102
RTVSPropertyOp3
 70
     1
102
RTVSPropertyOp4
 70
     1
102
RTVSPropertyOp5
 70
     1
102
RTVSPropertyOp6
 70
     1
102
RTVSPropertyOp7
 70
     1
102
RTVSPropertyOp8
 70
     1
102
RTVSPropertyOp9
 70
     1
102
RTVSPropertyOp10
 70
     1
102
RTVSPropertyOp11
 70
     1
102
RTVSPropertyOp12
 70
     1
102
RTVSPropertyOp13
 70
     1
102
RTVSPropertyOp14
 70
     1
102
RTVSPropertyOp15
 70
     1
102
RTVSPropertyOp16
 70
     1
102
RTVSPropertyOp17
 70
     1
102
RTVSPropertyOp18
 70
     1
102
RTVSPropertyOp19
 70
     1
102
RTVSPropertyOp20
 70
     1
102
RTVSPropertyOp21
 70
     1
102
RTVSPropertyOp22
 70
     1
102
RTVSPropertyOp23
 70
     1
102
RTVSPropertyOp24
 70
     1
102
RTVSPropertyOp25
 70
     1
102
RTVSPropertyOp26
 70
     1
102
RTVSPropertyOp27
 70
     1
102
RTVSPropertyOp28
 70
     1
102
RTVSPropertyOp29
 70
     1
102
RTVSPropertyOp30
 70
     1
102
RTVSPropertyOp31
 70
     1
102
RTVSPropertyOp32
 70
     1
  0
XRECORD
  5
1BD
102
{ACAD_REACTORS
330
1BC
102
}
330
1BC
100
AcDbXrecord
280
     1
102
RTVSPropertyOp0
 70
     1
102
RTVSPropertyOp1
 70
     1
102
RTVSPropertyOp2
 70
     1
102
RTVSPropertyOp3
 70
     1
102
RTVSPropertyOp4
 70
     1
102
RTVSPropertyOp5
 70
     1
102
RTVSPropertyOp6
 70
     1
102
RTVSPropertyOp7
 70
     1
102
RTVSPropertyOp8
 70
     1
102
RTVSPropertyOp9
 70
     1
102
RTVSPropertyOp10
 70
     1
102
RTVSPropertyOp11
 70
     1
102
RTVSPropertyOp12
 70
     1
102
RTVSPropertyOp13
 70
     1
102
RTVSPropertyOp14
 70
     1
102
RTVSPropertyOp15
 70
     1
102
RTVSPropertyOp16
 70
     1
102
RTVSPropertyOp17
 70
     1
102
RTVSPropertyOp18
 70
     1
102
RTVSPropertyOp19
 70
     1
102
RTVSPropertyOp20
 70
     1
102
RTVSPropertyOp21
 70
     1
102
RTVSPropertyOp22
 70
     1
102
RTVSPropertyOp23
 70
     1
102
RTVSPropertyOp24
 70
     1
102
RTVSPropertyOp25
 70
     1
102
RTVSPropertyOp26
 70
     1
102
RTVSPropertyOp27
 70
     1
102
RTVSPropertyOp28
 70
     1
102
RTVSPropertyOp29
 70
     1
102
RTVSPropertyOp30
 70
     1
102
RTVSPropertyOp31
 70
     1
102
RTVSPropertyOp32
 70
     1
  0
XRECORD
  5
1C5
102
{ACAD_REACTORS
330
1C4
102
}
330
1C4
100
AcDbXrecord
280
     1
102
RTVSPropertyOp0
 70
     1
102
RTVSPropertyOp1
 70
     1
102
RTVSPropertyOp2
 70
     1
102
RTVSPropertyOp3
 70
     1
102
RTVSPropertyOp4
 70
     1
102
RTVSPropertyOp5
 70
     1
102
RTVSPropertyOp6
 70
     1
102
RTVSPropertyOp7
 70
     1
102
RTVSPropertyOp8
 70
     1
102
RTVSPropertyOp9
 70
     1
102
RTVSPropertyOp10
 70
     1
102
RTVSPropertyOp11
 70
     1
102
RTVSPropertyOp12
 70
     1
102
RTVSPropertyOp13
 70
     1
102
RTVSPropertyOp14
 70
     1
102
RTVSPropertyOp15
 70
     1
102
RTVSPropertyOp16
 70
     1
102
RTVSPropertyOp17
 70
     1
102
RTVSPropertyOp18
 70
     1
102
RTVSPropertyOp19
 70
     1
102
RTVSPropertyOp20
 70
     1
102
RTVSPropertyOp21
 70
     1
102
RTVSPropertyOp22
 70
     1
102
RTVSPropertyOp23
 70
     1
102
RTVSPropertyOp24
 70
     1
102
RTVSPropertyOp25
 70
     1
102
RTVSPropertyOp26
 70
     1
102
RTVSPropertyOp27
 70
     1
102
RTVSPropertyOp28
 70
     1
102
RTVSPropertyOp29
 70
     1
102
RTVSPropertyOp30
 70
     1
102
RTVSPropertyOp31
 70
     1
102
RTVSPropertyOp32
 70
     1
  0
XRECORD
  5
1CD
102
{ACAD_REACTORS
330
1CC
102
}
330
1CC
100
AcDbXrecord
280
     1
102
RTVSPropertyOp0
 70
     1
102
RTVSPropertyOp1
 70
     1
102
RTVSPropertyOp2
 70
     1
102
RTVSPropertyOp3
 70
     1
102
RTVSPropertyOp4
 70
     1
102
RTVSPropertyOp5
 70
     1
102
RTVSPropertyOp6
 70
     1
102
RTVSPropertyOp7
 70
     1
102
RTVSPropertyOp8
 70
     1
102
RTVSPropertyOp9
 70
     1
102
RTVSPropertyOp10
 70
     1
102
RTVSPropertyOp11
 70
     1
102
RTVSPropertyOp12
 70
     1
102
RTVSPropertyOp13
 70
     1
102
RTVSPropertyOp14
 70
     1
102
RTVSPropertyOp15
 70
     1
102
RTVSPropertyOp16
 70
     1
102
RTVSPropertyOp17
 70
     1
102
RTVSPropertyOp18
 70
     1
102
RTVSPropertyOp19
 70
     1
102
RTVSPropertyOp20
 70
     1
102
RTVSPropertyOp21
 70
     1
102
RTVSPropertyOp22
 70
     1
102
RTVSPropertyOp23
 70
     1
102
RTVSPropertyOp24
 70
     1
102
RTVSPropertyOp25
 70
     1
102
RTVSPropertyOp26
 70
     1
102
RTVSPropertyOp27
 70
     1
102
RTVSPropertyOp28
 70
     1
102
RTVSPropertyOp29
 70
     1
102
RTVSPropertyOp30
 70
     1
102
RTVSPropertyOp31
 70
     1
102
RTVSPropertyOp32
 70
     1
  0
XRECORD
  5
1C1
102
{ACAD_REACTORS
330
1C0
102
}
330
1C0
100
AcDbXrecord
280
     1
102
RTVSPropertyOp0
 70
     1
102
RTVSPropertyOp1
 70
     1
102
RTVSPropertyOp2
 70
     1
102
RTVSPropertyOp3
 70
     1
102
RTVSPropertyOp4
 70
     1
102
RTVSPropertyOp5
 70
     1
102
RTVSPropertyOp6
 70
     1
102
RTVSPropertyOp7
 70
     1
102
RTVSPropertyOp8
 70
     1
102
RTVSPropertyOp9
 70
     1
102
RTVSPropertyOp10
 70
     1
102
RTVSPropertyOp11
 70
     1
102
RTVSPropertyOp12
 70
     1
102
RTVSPropertyOp13
 70
     1
102
RTVSPropertyOp14
 70
     1
102
RTVSPropertyOp15
 70
     1
102
RTVSPropertyOp16
 70
     1
102
RTVSPropertyOp17
 70
     1
102
RTVSPropertyOp18
 70
     1
102
RTVSPropertyOp19
 70
     1
102
RTVSPropertyOp20
 70
     1
102
RTVSPropertyOp21
 70
     1
102
RTVSPropertyOp22
 70
     1
102
RTVSPropertyOp23
 70
     1
102
RTVSPropertyOp24
 70
     1
102
RTVSPropertyOp25
 70
     1
102
RTVSPropertyOp26
 70
     1
102
RTVSPropertyOp27
 70
     1
102
RTVSPropertyOp28
 70
     1
102
RTVSPropertyOp29
 70
     1
102
RTVSPropertyOp30
 70
     1
102
RTVSPropertyOp31
 70
     1
102
RTVSPropertyOp32
 70
     1
  0
XRECORD
  5
1C3
102
{ACAD_REACTORS
330
1C2
102
}
330
1C2
100
AcDbXrecord
280
     1
102
RTVSPropertyOp0
 70
     1
102
RTVSPropertyOp1
 70
     1
102
RTVSPropertyOp2
 70
     1
102
RTVSPropertyOp3
 70
     1
102
RTVSPropertyOp4
 70
     1
102
RTVSPropertyOp5
 70
     1
102
RTVSPropertyOp6
 70
     1
102
RTVSPropertyOp7
 70
     1
102
RTVSPropertyOp8
 70
     1
102
RTVSPropertyOp9
 70
     1
102
RTVSPropertyOp10
 70
     1
102
RTVSPropertyOp11
 70
     1
102
RTVSPropertyOp12
 70
     1
102
RTVSPropertyOp13
 70
     1
102
RTVSPropertyOp14
 70
     1
102
RTVSPropertyOp15
 70
     1
102
RTVSPropertyOp16
 70
     1
102
RTVSPropertyOp17
 70
     1
102
RTVSPropertyOp18
 70
     1
102
RTVSPropertyOp19
 70
     1
102
RTVSPropertyOp20
 70
     1
102
RTVSPropertyOp21
 70
     1
102
RTVSPropertyOp22
 70
     1
102
RTVSPropertyOp23
 70
     1
102
RTVSPropertyOp24
 70
     1
102
RTVSPropertyOp25
 70
     1
102
RTVSPropertyOp26
 70
     1
102
RTVSPropertyOp27
 70
     1
102
RTVSPropertyOp28
 70
     1
102
RTVSPropertyOp29
 70
     1
102
RTVSPropertyOp30
 70
     1
102
RTVSPropertyOp31
 70
     1
102
RTVSPropertyOp32
 70
     1
  0
XRECORD
  5
1CB
102
{ACAD_REACTORS
330
1CA
102
}
330
1CA
100
AcDbXrecord
280
     1
102
RTVSPropertyOp0
 70
     1
102
RTVSPropertyOp1
 70
     1
102
RTVSPropertyOp2
 70
     1
102
RTVSPropertyOp3
 70
     1
102
RTVSPropertyOp4
 70
     1
102
RTVSPropertyOp5
 70
     1
102
RTVSPropertyOp6
 70
     1
102
RTVSPropertyOp7
 70
     1
102
RTVSPropertyOp8
 70
     1
102
RTVSPropertyOp9
 70
     1
102
RTVSPropertyOp10
 70
     1
102
RTVSPropertyOp11
 70
     1
102
RTVSPropertyOp12
 70
     1
102
RTVSPropertyOp13
 70
     1
102
RTVSPropertyOp14
 70
     1
102
RTVSPropertyOp15
 70
     1
102
RTVSPropertyOp16
 70
     1
102
RTVSPropertyOp17
 70
     1
102
RTVSPropertyOp18
 70
     1
102
RTVSPropertyOp19
 70
     1
102
RTVSPropertyOp20
 70
     1
102
RTVSPropertyOp21
 70
     1
102
RTVSPropertyOp22
 70
     1
102
RTVSPropertyOp23
 70
     1
102
RTVSPropertyOp24
 70
     1
102
RTVSPropertyOp25
 70
     1
102
RTVSPropertyOp26
 70
     1
102
RTVSPropertyOp27
 70
     1
102
RTVSPropertyOp28
 70
     1
102
RTVSPropertyOp29
 70
     1
102
RTVSPropertyOp30
 70
     1
102
RTVSPropertyOp31
 70
     1
102
RTVSPropertyOp32
 70
     1
  0
XRECORD
  5
1AF
102
{ACAD_REACTORS
330
1AE
102
}
330
1AE
100
AcDbXrecord
280
     1
102
RTVSPropertyOp0
 70
     1
102
RTVSPropertyOp1
 70
     1
102
RTVSPropertyOp2
 70
     1
102
RTVSPropertyOp3
 70
     1
102
RTVSPropertyOp4
 70
     1
102
RTVSPropertyOp5
 70
     1
102
RTVSPropertyOp6
 70
     1
102
RTVSPropertyOp7
 70
     1
102
RTVSPropertyOp8
 70
     1
102
RTVSPropertyOp9
 70
     1
102
RTVSPropertyOp10
 70
     1
102
RTVSPropertyOp11
 70
     1
102
RTVSPropertyOp12
 70
     1
102
RTVSPropertyOp13
 70
     1
102
RTVSPropertyOp14
 70
     1
102
RTVSPropertyOp15
 70
     1
102
RTVSPropertyOp16
 70
     1
102
RTVSPropertyOp17
 70
     1
102
RTVSPropertyOp18
 70
     1
102
RTVSPropertyOp19
 70
     1
102
RTVSPropertyOp20
 70
     1
102
RTVSPropertyOp21
 70
     1
102
RTVSPropertyOp22
 70
     1
102
RTVSPropertyOp23
 70
     1
102
RTVSPropertyOp24
 70
     1
102
RTVSPropertyOp25
 70
     1
102
RTVSPropertyOp26
 70
     1
102
RTVSPropertyOp27
 70
     1
102
RTVSPropertyOp28
 70
     1
102
RTVSPropertyOp29
 70
     1
102
RTVSPropertyOp30
 70
     1
102
RTVSPropertyOp31
 70
     1
102
RTVSPropertyOp32
 70
     1
  0
XRECORD
  5
1B1
102
{ACAD_REACTORS
330
1B0
102
}
330
1B0
100
AcDbXrecord
280
     1
102
RTVSPropertyOp0
 70
     1
102
RTVSPropertyOp1
 70
     1
102
RTVSPropertyOp2
 70
     1
102
RTVSPropertyOp3
 70
     1
102
RTVSPropertyOp4
 70
     1
102
RTVSPropertyOp5
 70
     1
102
RTVSPropertyOp6
 70
     1
102
RTVSPropertyOp7
 70
     1
102
RTVSPropertyOp8
 70
     1
102
RTVSPropertyOp9
 70
     1
102
RTVSPropertyOp10
 70
     1
102
RTVSPropertyOp11
 70
     1
102
RTVSPropertyOp12
 70
     1
102
RTVSPropertyOp13
 70
     1
102
RTVSPropertyOp14
 70
     1
102
RTVSPropertyOp15
 70
     1
102
RTVSPropertyOp16
 70
     1
102
RTVSPropertyOp17
 70
     1
102
RTVSPropertyOp18
 70
     1
102
RTVSPropertyOp19
 70
     1
102
RTVSPropertyOp20
 70
     1
102
RTVSPropertyOp21
 70
     1
102
RTVSPropertyOp22
 70
     1
102
RTVSPropertyOp23
 70
     1
102
RTVSPropertyOp24
 70
     1
102
RTVSPropertyOp25
 70
     1
102
RTVSPropertyOp26
 70
     1
102
RTVSPropertyOp27
 70
     1
102
RTVSPropertyOp28
 70
     1
102
RTVSPropertyOp29
 70
     1
102
RTVSPropertyOp30
 70
     1
102
RTVSPropertyOp31
 70
     1
102
RTVSPropertyOp32
 70
     1
  0
XRECORD
  5
1B3
102
{ACAD_REACTORS
330
1B2
102
}
330
1B2
100
AcDbXrecord
280
     1
102
RTVSPropertyOp0
 70
     1
102
RTVSPropertyOp1
 70
     1
102
RTVSPropertyOp2
 70
     1
102
RTVSPropertyOp3
 70
     1
102
RTVSPropertyOp4
 70
     1
102
RTVSPropertyOp5
 70
     1
102
RTVSPropertyOp6
 70
     1
102
RTVSPropertyOp7
 70
     1
102
RTVSPropertyOp8
 70
     1
102
RTVSPropertyOp9
 70
     1
102
RTVSPropertyOp10
 70
     1
102
RTVSPropertyOp11
 70
     1
102
RTVSPropertyOp12
 70
     1
102
RTVSPropertyOp13
 70
     1
102
RTVSPropertyOp14
 70
     1
102
RTVSPropertyOp15
 70
     1
102
RTVSPropertyOp16
 70
     1
102
RTVSPropertyOp17
 70
     1
102
RTVSPropertyOp18
 70
     1
102
RTVSPropertyOp19
 70
     1
102
RTVSPropertyOp20
 70
     1
102
RTVSPropertyOp21
 70
     1
102
RTVSPropertyOp22
 70
     1
102
RTVSPropertyOp23
 70
     1
102
RTVSPropertyOp24
 70
     1
102
RTVSPropertyOp25
 70
     1
102
RTVSPropertyOp26
 70
     1
102
RTVSPropertyOp27
 70
     1
102
RTVSPropertyOp28
 70
     1
102
RTVSPropertyOp29
 70
     1
102
RTVSPropertyOp30
 70
     1
102
RTVSPropertyOp31
 70
     1
102
RTVSPropertyOp32
 70
     1
  0
XRECORD
  5
1B5
102
{ACAD_REACTORS
330
1B4
102
}
330
1B4
100
AcDbXrecord
280
     1
102
RTVSPropertyOp0
 70
     1
102
RTVSPropertyOp1
 70
     1
102
RTVSPropertyOp2
 70
     1
102
RTVSPropertyOp3
 70
     1
102
RTVSPropertyOp4
 70
     1
102
RTVSPropertyOp5
 70
     1
102
RTVSPropertyOp6
 70
     1
102
RTVSPropertyOp7
 70
     1
102
RTVSPropertyOp8
 70
     1
102
RTVSPropertyOp9
 70
     1
102
RTVSPropertyOp10
 70
     1
102
RTVSPropertyOp11
 70
     1
102
RTVSPropertyOp12
 70
     1
102
RTVSPropertyOp13
 70
     1
102
RTVSPropertyOp14
 70
     1
102
RTVSPropertyOp15
 70
     1
102
RTVSPropertyOp16
 70
     1
102
RTVSPropertyOp17
 70
     1
102
RTVSPropertyOp18
 70
     1
102
RTVSPropertyOp19
 70
     1
102
RTVSPropertyOp20
 70
     1
102
RTVSPropertyOp21
 70
     1
102
RTVSPropertyOp22
 70
     1
102
RTVSPropertyOp23
 70
     1
102
RTVSPropertyOp24
 70
     1
102
RTVSPropertyOp25
 70
     1
102
RTVSPropertyOp26
 70
     1
102
RTVSPropertyOp27
 70
     1
102
RTVSPropertyOp28
 70
     1
102
RTVSPropertyOp29
 70
     1
102
RTVSPropertyOp30
 70
     1
102
RTVSPropertyOp31
 70
     1
102
RTVSPropertyOp32
 70
     1
  0
XRECORD
  5
1C9
102
{ACAD_REACTORS
330
1C8
102
}
330
1C8
100
AcDbXrecord
280
     1
102
RTVSPropertyOp0
 70
     1
102
RTVSPropertyOp1
 70
     1
102
RTVSPropertyOp2
 70
     1
102
RTVSPropertyOp3
 70
     1
102
RTVSPropertyOp4
 70
     1
102
RTVSPropertyOp5
 70
     1
102
RTVSPropertyOp6
 70
     1
102
RTVSPropertyOp7
 70
     1
102
RTVSPropertyOp8
 70
     1
102
RTVSPropertyOp9
 70
     1
102
RTVSPropertyOp10
 70
     1
102
RTVSPropertyOp11
 70
     1
102
RTVSPropertyOp12
 70
     1
102
RTVSPropertyOp13
 70
     1
102
RTVSPropertyOp14
 70
     1
102
RTVSPropertyOp15
 70
     1
102
RTVSPropertyOp16
 70
     1
102
RTVSPropertyOp17
 70
     1
102
RTVSPropertyOp18
 70
     1
102
RTVSPropertyOp19
 70
     1
102
RTVSPropertyOp20
 70
     1
102
RTVSPropertyOp21
 70
     1
102
RTVSPropertyOp22
 70
     1
102
RTVSPropertyOp23
 70
     1
102
RTVSPropertyOp24
 70
     1
102
RTVSPropertyOp25
 70
     1
102
RTVSPropertyOp26
 70
     1
102
RTVSPropertyOp27
 70
     1
102
RTVSPropertyOp28
 70
     1
102
RTVSPropertyOp29
 70
     1
102
RTVSPropertyOp30
 70
     1
102
RTVSPropertyOp31
 70
     1
102
RTVSPropertyOp32
 70
     1
  0
XRECORD
  5
1BF
102
{ACAD_REACTORS
330
1BE
102
}
330
1BE
100
AcDbXrecord
280
     1
102
RTVSPropertyOp0
 70
     1
102
RTVSPropertyOp1
 70
     1
102
RTVSPropertyOp2
 70
     1
102
RTVSPropertyOp3
 70
     1
102
RTVSPropertyOp4
 70
     1
102
RTVSPropertyOp5
 70
     1
102
RTVSPropertyOp6
 70
     1
102
RTVSPropertyOp7
 70
     1
102
RTVSPropertyOp8
 70
     1
102
RTVSPropertyOp9
 70
     1
102
RTVSPropertyOp10
 70
     1
102
RTVSPropertyOp11
 70
     1
102
RTVSPropertyOp12
 70
     1
102
RTVSPropertyOp13
 70
     1
102
RTVSPropertyOp14
 70
     1
102
RTVSPropertyOp15
 70
     1
102
RTVSPropertyOp16
 70
     1
102
RTVSPropertyOp17
 70
     1
102
RTVSPropertyOp18
 70
     1
102
RTVSPropertyOp19
 70
     1
102
RTVSPropertyOp20
 70
     1
102
RTVSPropertyOp21
 70
     1
102
RTVSPropertyOp22
 70
     1
102
RTVSPropertyOp23
 70
     1
102
RTVSPropertyOp24
 70
     1
102
RTVSPropertyOp25
 70
     1
102
RTVSPropertyOp26
 70
     1
102
RTVSPropertyOp27
 70
     1
102
RTVSPropertyOp28
 70
     1
102
RTVSPropertyOp29
 70
     1
102
RTVSPropertyOp30
 70
     1
102
RTVSPropertyOp31
 70
     1
102
RTVSPropertyOp32
 70
     1
  0
XRECORD
  5
1C7
102
{ACAD_REACTORS
330
1C6
102
}
330
1C6
100
AcDbXrecord
280
     1
102
RTVSPropertyOp0
 70
     1
102
RTVSPropertyOp1
 70
     1
102
RTVSPropertyOp2
 70
     1
102
RTVSPropertyOp3
 70
     1
102
RTVSPropertyOp4
 70
     1
102
RTVSPropertyOp5
 70
     1
102
RTVSPropertyOp6
 70
     1
102
RTVSPropertyOp7
 70
     1
102
RTVSPropertyOp8
 70
     1
102
RTVSPropertyOp9
 70
     1
102
RTVSPropertyOp10
 70
     1
102
RTVSPropertyOp11
 70
     1
102
RTVSPropertyOp12
 70
     1
102
RTVSPropertyOp13
 70
     1
102
RTVSPropertyOp14
 70
     1
102
RTVSPropertyOp15
 70
     1
102
RTVSPropertyOp16
 70
     1
102
RTVSPropertyOp17
 70
     1
102
RTVSPropertyOp18
 70
     1
102
RTVSPropertyOp19
 70
     1
102
RTVSPropertyOp20
 70
     1
102
RTVSPropertyOp21
 70
     1
102
RTVSPropertyOp22
 70
     1
102
RTVSPropertyOp23
 70
     1
102
RTVSPropertyOp24
 70
     1
102
RTVSPropertyOp25
 70
     1
102
RTVSPropertyOp26
 70
     1
102
RTVSPropertyOp27
 70
     1
102
RTVSPropertyOp28
 70
     1
102
RTVSPropertyOp29
 70
     1
102
RTVSPropertyOp30
 70
     1
102
RTVSPropertyOp31
 70
     1
102
RTVSPropertyOp32
 70
     1
  0
ENDSEC
  0
EOF
