  0
SECTION
  2
HEADER
  9
$ACADVER
  1
AC1015
  9
$ACADMAINTVER
 70
     6
  9
$DWGCODEPAGE
  3
DOS932
  9
$INSBASE
 10
0.0
 20
0.0
 30
0.0
  9
$EXTMIN
 10
0.0
 20
0.0
 30
0.0
  9
$EXTMAX
 10
2520.0
 20
3564.0
 30
0.0
  9
$LIMMIN
 10
0.0
 20
0.0
  9
$LIMMAX
 10
12.0
 20
9.0
  9
$ORTHOMODE
 70
     0
  9
$REGENMODE
 70
     1
  9
$FILLMODE
 70
     1
  9
$QTEXTMODE
 70
     0
  9
$MIRRTEXT
 70
     1
  9
$LTSCALE
 40
1.0
  9
$ATTMODE
 70
     1
  9
$TEXTSIZE
 40
0.2
  9
$TRACEWID
 40
0.05
  9
$TEXTSTYLE
  7
Standard
  9
$CLAYER
  8
0
  9
$CELTYPE
  6
ByLayer
  9
$CECOLOR
 62
   256
  9
$CELTSCALE
 40
1.0
  9
$DISPSILH
 70
     0
  9
$DIMSCALE
 40
1.0
  9
$DIMASZ
 40
0.18
  9
$DIMEXO
 40
0.0625
  9
$DIMDLI
 40
0.38
  9
$DIMRND
 40
0.0
  9
$DIMDLE
 40
0.0
  9
$DIMEXE
 40
0.18
  9
$DIMTP
 40
0.0
  9
$DIMTM
 40
0.0
  9
$DIMTXT
 40
0.18
  9
$DIMCEN
 40
0.09
  9
$DIMTSZ
 40
0.0
  9
$DIMTOL
 70
     0
  9
$DIMLIM
 70
     0
  9
$DIMTIH
 70
     1
  9
$DIMTOH
 70
     1
  9
$DIMSE1
 70
     0
  9
$DIMSE2
 70
     0
  9
$DIMTAD
 70
     0
  9
$DIMZIN
 70
     0
  9
$DIMBLK
  1

  9
$DIMASO
 70
     1
  9
$DIMSHO
 70
     1
  9
$DIMPOST
  1

  9
$DIMAPOST
  1

  9
$DIMALT
 70
     0
  9
$DIMALTD
 70
     2
  9
$DIMALTF
 40
25.4
  9
$DIMLFAC
 40
1.0
  9
$DIMTOFL
 70
     0
  9
$DIMTVP
 40
0.0
  9
$DIMTIX
 70
     0
  9
$DIMSOXD
 70
     0
  9
$DIMSAH
 70
     0
  9
$DIMBLK1
  1

  9
$DIMBLK2
  1

  9
$DIMSTYLE
  2
Standard
  9
$DIMCLRD
 70
     0
  9
$DIMCLRE
 70
     0
  9
$DIMCLRT
 70
     0
  9
$DIMTFAC
 40
1.0
  9
$DIMGAP
 40
0.09
  9
$DIMJUST
 70
     0
  9
$DIMSD1
 70
     0
  9
$DIMSD2
 70
     0
  9
$DIMTOLJ
 70
     1
  9
$DIMTZIN
 70
     0
  9
$DIMALTZ
 70
     0
  9
$DIMALTTZ
 70
     0
  9
$DIMUPT
 70
     0
  9
$DIMDEC
 70
     4
  9
$DIMTDEC
 70
     4
  9
$DIMALTU
 70
     2
  9
$DIMALTTD
 70
     2
  9
$DIMTXSTY
  7
Standard
  9
$DIMAUNIT
 70
     0
  9
$DIMADEC
 70
     0
  9
$DIMALTRND
 40
0.0
  9
$DIMAZIN
 70
     0
  9
$DIMDSEP
 70
    46
  9
$DIMATFIT
 70
     3
  9
$DIMFRAC
 70
     0
  9
$DIMLDRBLK
  1

  9
$DIMLUNIT
 70
     2
  9
$DIMLWD
 70
    -2
  9
$DIMLWE
 70
    -2
  9
$DIMTMOVE
 70
     0
  9
$LUNITS
 70
     2
  9
$LUPREC
 70
     4
  9
$SKETCHINC
 40
0.1
  9
$FILLETRAD
 40
0.5
  9
$AUNITS
 70
     0
  9
$AUPREC
 70
     0
  9
$MENU
  1
.
  9
$ELEVATION
 40
0.0
  9
$PELEVATION
 40
0.0
  9
$THICKNESS
 40
0.0
  9
$LIMCHECK
 70
     0
  9
$CHAMFERA
 40
0.5
  9
$CHAMFERB
 40
0.5
  9
$CHAMFERC
 40
1.0
  9
$CHAMFERD
 40
0.0
  9
$SKPOLY
 70
     0
  9
$TDCREATE
 40
2456118.426784028
  9
$TDUCREATE
 40
2456118.051784028
  9
$TDUPDATE
 40
2456118.42678404
  9
$TDUUPDATE
 40
2456118.05178404
  9
$TDINDWG
 40
0.0000000116
  9
$TDUSRTIMER
 40
0.0000000116
  9
$USRTIMER
 70
     1
  9
$ANGBASE
 50
0.0
  9
$ANGDIR
 70
     0
  9
$PDMODE
 70
     0
  9
$PDSIZE
 40
0.0
  9
$PLINEWID
 40
0.0
  9
$SPLFRAME
 70
     0
  9
$SPLINETYPE
 70
     6
  9
$SPLINESEGS
 70
     8
  9
$HANDSEED
  5
195
  9
$SURFTAB1
 70
     6
  9
$SURFTAB2
 70
     6
  9
$SURFTYPE
 70
     6
  9
$SURFU
 70
     6
  9
$SURFV
 70
     6
  9
$UCSBASE
  2

  9
$UCSNAME
  2

  9
$UCSORG
 10
0.0
 20
0.0
 30
0.0
  9
$UCSXDIR
 10
1.0
 20
0.0
 30
0.0
  9
$UCSYDIR
 10
0.0
 20
1.0
 30
0.0
  9
$UCSORTHOREF
  2

  9
$UCSORTHOVIEW
 70
     0
  9
$UCSORGTOP
 10
0.0
 20
0.0
 30
0.0
  9
$UCSORGBOTTOM
 10
0.0
 20
0.0
 30
0.0
  9
$UCSORGLEFT
 10
0.0
 20
0.0
 30
0.0
  9
$UCSORGRIGHT
 10
0.0
 20
0.0
 30
0.0
  9
$UCSORGFRONT
 10
0.0
 20
0.0
 30
0.0
  9
$UCSORGBACK
 10
0.0
 20
0.0
 30
0.0
  9
$PUCSBASE
  2

  9
$PUCSNAME
  2

  9
$PUCSORG
 10
0.0
 20
0.0
 30
0.0
  9
$PUCSXDIR
 10
1.0
 20
0.0
 30
0.0
  9
$PUCSYDIR
 10
0.0
 20
1.0
 30
0.0
  9
$PUCSORTHOREF
  2

  9
$PUCSORTHOVIEW
 70
     0
  9
$PUCSORGTOP
 10
0.0
 20
0.0
 30
0.0
  9
$PUCSORGBOTTOM
 10
0.0
 20
0.0
 30
0.0
  9
$PUCSORGLEFT
 10
0.0
 20
0.0
 30
0.0
  9
$PUCSORGRIGHT
 10
0.0
 20
0.0
 30
0.0
  9
$PUCSORGFRONT
 10
0.0
 20
0.0
 30
0.0
  9
$PUCSORGBACK
 10
0.0
 20
0.0
 30
0.0
  9
$USERI1
 70
     0
  9
$USERI2
 70
     0
  9
$USERI3
 70
     0
  9
$USERI4
 70
     0
  9
$USERI5
 70
     0
  9
$USERR1
 40
13.2
  9
$USERR2
 40
0.0
  9
$USERR3
 40
0.0
  9
$USERR4
 40
0.0
  9
$USERR5
 40
0.0
  9
$WORLDVIEW
 70
     1
  9
$SHADEDGE
 70
     3
  9
$SHADEDIF
 70
    70
  9
$TILEMODE
 70
     1
  9
$MAXACTVP
 70
    64
  9
$PINSBASE
 10
0.0
 20
0.0
 30
0.0
  9
$PLIMCHECK
 70
     0
  9
$PEXTMIN
 10
1.00000000000000E+20
 20
1.00000000000000E+20
 30
1.00000000000000E+20
  9
$PEXTMAX
 10
-1.00000000000000E+20
 20
-1.00000000000000E+20
 30
-1.00000000000000E+20
  9
$PLIMMIN
 10
0.0
 20
0.0
  9
$PLIMMAX
 10
12.0
 20
9.0
  9
$UNITMODE
 70
     0
  9
$VISRETAIN
 70
     1
  9
$PLINEGEN
 70
     0
  9
$PSLTSCALE
 70
     1
  9
$TREEDEPTH
 70
  3020
  9
$CMLSTYLE
  2
Standard
  9
$CMLJUST
 70
     0
  9
$CMLSCALE
 40
1.0
  9
$PROXYGRAPHICS
 70
     1
  9
$MEASUREMENT
 70
     1
  9
$CELWEIGHT
370
    -1
  9
$ENDCAPS
280
     0
  9
$JOINSTYLE
280
     0
  9
$LWDISPLAY
290
     0
  9
$INSUNITS
 70
     1
  9
$HYPERLINKBASE
  1

  9
$STYLESHEET
  1

  9
$XEDIT
290
     1
  9
$CEPSNTYPE
380
     0
  9
$PSTYLEMODE
290
     0
  9
$FINGERPRINTGUID
  2
{FAEB1C30-E019-11D5-929B-00C0DF256EC4}
  9
$VERSIONGUID
  2
{FAEB1C32-E019-11D5-929B-00C0DF256EC4}
  9
$EXTNAMES
290
     1
  9
$PSVPSCALE
 40
0.0
  9
$OLESTARTUP
290
     0
  0
ENDSEC
  0
SECTION
  2
CLASSES
  0
CLASS
  1
ACDBDICTIONARYWDFLT
  2
AcDbDictionaryWithDefault
  3
ObjectDBX Classes
 90
        0
280
     0
281
     0
  0
CLASS
  1
TABLESTYLE
  2
AcDbTableStyle
  3
ObjectDBX Classes
 90
     2047
280
     0
281
     0
  0
CLASS
  1
DICTIONARYVAR
  2
AcDbDictionaryVar
  3
ObjectDBX Classes
 90
        0
280
     0
281
     0
  0
CLASS
  1

  2
exOdDbPolyline
  3

 90
        0
280
     0
281
     1
  0
CLASS
  1

  2
exOdDbCircle
  3

 90
        0
280
     0
281
     1
  0
CLASS
  1

  2
exOdDbSpline
  3

 90
        0
280
     0
281
     1
  0
CLASS
  1
ACDBPLACEHOLDER
  2
AcDbPlaceHolder
  3
ObjectDBX Classes
 90
        0
280
     0
281
     0
  0
CLASS
  1
LAYOUT
  2
AcDbLayout
  3
ObjectDBX Classes
 90
        0
280
     0
281
     0
  0
ENDSEC
  0
SECTION
  2
TABLES
  0
TABLE
  2
VPORT
  5
8
330
0
100
AcDbSymbolTable
 70
     2
  0
VPORT
  5
29
330
8
100
AcDbSymbolTableRecord
100
AcDbViewportTableRecord
  2
*Active
 70
     0
 10
0.0
 20
0.0
 11
1.0
 21
1.0
 12
1260.0
 22
1782.0
 13
0.0
 23
0.0
 14
0.5
 24
0.5
 15
0.5
 25
0.5
 16
0.0
 26
0.0
 36
1.0
 17
0.0
 27
0.0
 37
0.0
 40
3920.4
 41
1.60267857142857
 42
50.0
 43
0.0
 44
0.0
 50
0.0
 51
0.0
 71
     0
 72
   100
 73
     1
 74
     3
 75
     0
 76
     0
 77
     0
 78
     0
281
     0
 65
     1
110
0.0
120
0.0
130
0.0
111
1.0
121
0.0
131
0.0
112
0.0
122
1.0
132
0.0
 79
     0
146
0.0
  0
ENDTAB
  0
TABLE
  2
LTYPE
  5
5
330
0
100
AcDbSymbolTable
 70
     8
  0
LTYPE
  5
14
330
5
100
AcDbSymbolTableRecord
100
AcDbLinetypeTableRecord
  2
ByBlock
 70
     0
  3

 72
    65
 73
     0
 40
0.0
  0
LTYPE
  5
15
330
5
100
AcDbSymbolTableRecord
100
AcDbLinetypeTableRecord
  2
ByLayer
 70
     0
  3

 72
    65
 73
     0
 40
0.0
  0
LTYPE
  5
16
330
5
100
AcDbSymbolTableRecord
100
AcDbLinetypeTableRecord
  2
Continuous
 70
     0
  3
Solid line
 72
    65
 73
     0
 40
0.0
  0
LTYPE
  5
2E
330
5
100
AcDbSymbolTableRecord
100
AcDbLinetypeTableRecord
  2
DASHED
 70
     0
  3
Dashed
 72
    65
 73
     2
 40
15.0
 49
7.0
 74
     0
 49
-8.0
 74
     0
  0
LTYPE
  5
2F
330
5
100
AcDbSymbolTableRecord
100
AcDbLinetypeTableRecord
  2
DOTTED
 70
     0
  3
Dotted
 72
    65
 73
     2
 40
1.0
 49
0.0
 74
     0
 49
-1.0
 74
     0
  0
LTYPE
  5
30
330
5
100
AcDbSymbolTableRecord
100
AcDbLinetypeTableRecord
  2
DOT_CENTER
 70
     0
  3
Dot_Center
 72
    65
 73
     4
 40
14.0
 49
12.0
 74
     0
 49
-1.0
 74
     0
 49
0.0
 74
     0
 49
-1.0
 74
     0
  0
LTYPE
  5
31
330
5
100
AcDbSymbolTableRecord
100
AcDbLinetypeTableRecord
  2
LONG_DASHED
 70
     0
  3
Long_Dashed
 72
    65
 73
     2
 40
15.0
 49
10.0
 74
     0
 49
-5.0
 74
     0
  0
LTYPE
  5
32
330
5
100
AcDbSymbolTableRecord
100
AcDbLinetypeTableRecord
  2
DASH_CENTER
 70
     0
  3
Dash_Center
 72
    65
 73
     4
 40
14.0
 49
11.0
 74
     0
 49
-1.0
 74
     0
 49
1.0
 74
     0
 49
-1.0
 74
     0
  0
LTYPE
  5
33
330
5
100
AcDbSymbolTableRecord
100
AcDbLinetypeTableRecord
  2
PHANTOM
 70
     0
  3
Phantom
 72
    65
 73
     6
 40
13.0
 49
10.0
 74
     0
 49
-1.0
 74
     0
 49
0.0
 74
     0
 49
-1.0
 74
     0
 49
0.0
 74
     0
 49
-1.0
 74
     0
  0
LTYPE
  5
34
330
5
100
AcDbSymbolTableRecord
100
AcDbLinetypeTableRecord
  2
CENTER_DASH_DASH
 70
     0
  3
Center_Dash_Dash
 72
    65
 73
     6
 40
14.0
 49
9.0
 74
     0
 49
-1.0
 74
     0
 49
1.0
 74
     0
 49
-1.0
 74
     0
 49
1.0
 74
     0
 49
-1.0
 74
     0
  0
ENDTAB
  0
TABLE
  2
LAYER
  5
2
330
0
100
AcDbSymbolTable
 70
     2
  0
LAYER
  5
10
330
2
100
AcDbSymbolTableRecord
100
AcDbLayerTableRecord
  2
0
 70
     0
 62
     7
  6
Continuous
370
    -3
390
F
  0
LAYER
  5
35
330
2
100
AcDbSymbolTableRecord
100
AcDbLayerTableRecord
  2
1
 70
     0
 62
     7
  6
Continuous
370
    -3
390
F
  0
ENDTAB
  0
TABLE
  2
STYLE
  5
3
330
0
100
AcDbSymbolTable
 70
     3
  0
STYLE
  5
11
330
3
100
AcDbSymbolTableRecord
100
AcDbTextStyleTableRecord
  2
Standard
 70
     0
 40
0.0
 41
1.0
 50
0.0
 71
     0
 42
0.2
  3
txt
  4

  0
STYLE
  5
99
330
3
100
AcDbSymbolTableRecord
100
AcDbTextStyleTableRecord
  2
CONVERTER_1
 70
     0
 40
0.0
 41
0.89
 50
0.0
 71
     0
 42
0.2
  3
msmincho.ttc
  4

1001
ACAD
1000
MS Mincho
1071
    32785
  0
STYLE
  5
D2
330
3
100
AcDbSymbolTableRecord
100
AcDbTextStyleTableRecord
  2
CONVERTER_2
 70
     0
 40
0.0
 41
0.9
 50
0.0
 71
     0
 42
0.2
  3
txt.shx
  4

  0
ENDTAB
  0
TABLE
  2
VIEW
  5
6
330
0
100
AcDbSymbolTable
 70
     0
  0
ENDTAB
  0
TABLE
  2
UCS
  5
7
330
0
100
AcDbSymbolTable
 70
     0
  0
ENDTAB
  0
TABLE
  2
APPID
  5
9
330
0
100
AcDbSymbolTable
 70
     1
  0
APPID
  5
12
330
9
100
AcDbSymbolTableRecord
100
AcDbRegAppTableRecord
  2
ACAD
 70
     0
  0
ENDTAB
  0
TABLE
  2
DIMSTYLE
  5
A
330
0
100
AcDbSymbolTable
 70
    14
100
AcDbDimStyleTable
  0
DIMSTYLE
105
27
330
A
100
AcDbSymbolTableRecord
100
AcDbDimStyleTableRecord
  2
Standard
 70
     0
340
11
  0
DIMSTYLE
105
F3
102
{ACAD_REACTORS
330
F4
102
}
330
A
100
AcDbSymbolTableRecord
100
AcDbDimStyleTableRecord
  2
ME10_DIM_0
 70
     0
 41
42.0
 42
0.0
 44
12.0
 73
     0
 74
     0
 77
     1
 78
     8
140
42.0
147
0.625
172
     1
173
     1
176
     2
177
     2
178
     7
271
     2
340
D2
  0
DIMSTYLE
105
FE
102
{ACAD_REACTORS
330
FF
102
}
330
A
100
AcDbSymbolTableRecord
100
AcDbDimStyleTableRecord
  2
ME10_DIM_1
 70
     0
 41
42.00000000000001
 42
0.0
 44
12.0
 73
     0
 74
     0
 77
     1
 78
     8
140
42.00000000000001
147
0.625
172
     1
173
     1
176
     2
177
     2
178
     7
271
     2
340
D2
  0
DIMSTYLE
105
109
102
{ACAD_REACTORS
330
10A
102
}
330
A
100
AcDbSymbolTableRecord
100
AcDbDimStyleTableRecord
  2
ME10_DIM_2
 70
     0
 41
42.00000000000001
 42
0.0
 44
12.0
 73
     0
 74
     0
 77
     1
 78
     8
140
42.00000000000001
147
0.625
172
     1
173
     1
176
     2
177
     2
178
     7
271
     2
340
D2
  0
DIMSTYLE
105
116
102
{ACAD_REACTORS
330
117
102
}
330
A
100
AcDbSymbolTableRecord
100
AcDbDimStyleTableRecord
  2
ME10_DIM_3
 70
     0
 41
42.00000000000001
 42
0.0
 44
12.0
 73
     0
 74
     0
 77
     1
 78
     8
140
42.00000000000001
147
0.625
172
     1
173
     1
176
     2
177
     2
178
     7
271
     2
340
D2
  0
DIMSTYLE
105
123
102
{ACAD_REACTORS
330
124
102
}
330
A
100
AcDbSymbolTableRecord
100
AcDbDimStyleTableRecord
  2
ME10_DIM_4
 70
     0
 41
42.00000000000001
 42
0.0
 44
12.0
 73
     0
 74
     0
 77
     1
 78
     8
140
42.00000000000001
147
0.625
172
     1
173
     1
176
     2
177
     2
178
     7
271
     2
340
D2
  0
DIMSTYLE
105
12E
102
{ACAD_REACTORS
330
12F
102
}
330
A
100
AcDbSymbolTableRecord
100
AcDbDimStyleTableRecord
  2
ME10_DIM_5
 70
     0
 41
42.00000000000001
 42
0.0
 44
12.0
 73
     0
 74
     0
 77
     1
 78
     8
140
42.00000000000001
147
0.625
172
     1
173
     1
176
     2
177
     2
178
     7
271
     2
340
D2
  0
DIMSTYLE
105
139
102
{ACAD_REACTORS
330
13A
102
}
330
A
100
AcDbSymbolTableRecord
100
AcDbDimStyleTableRecord
  2
ME10_DIM_6
 70
     0
 41
42.00000000000001
 42
0.0
 44
12.0
 73
     0
 74
     0
 77
     1
 78
     8
140
42.00000000000001
147
0.625
172
     1
173
     1
176
     2
177
     2
178
     7
271
     2
340
D2
  0
DIMSTYLE
105
144
102
{ACAD_REACTORS
330
145
102
}
330
A
100
AcDbSymbolTableRecord
100
AcDbDimStyleTableRecord
  2
ME10_DIM_7
 70
     0
 41
42.00000000000001
 42
0.0
 44
12.0
 73
     0
 74
     0
 77
     1
 78
     8
140
42.00000000000001
147
0.625
172
     1
173
     1
176
     2
177
     2
178
     7
271
     2
340
D2
  0
DIMSTYLE
105
14F
102
{ACAD_REACTORS
330
150
102
}
330
A
100
AcDbSymbolTableRecord
100
AcDbDimStyleTableRecord
  2
ME10_DIM_8
 70
     0
 41
42.00000000000001
 42
0.0
 44
12.0
 73
     0
 74
     0
 77
     1
 78
     8
140
42.00000000000001
147
0.625
172
     1
173
     1
176
     2
177
     2
178
     7
271
     2
340
D2
  0
DIMSTYLE
105
15A
102
{ACAD_REACTORS
330
15B
102
}
330
A
100
AcDbSymbolTableRecord
100
AcDbDimStyleTableRecord
  2
ME10_DIM_9
 70
     0
 41
42.00000000000001
 42
0.0
 44
12.0
 73
     0
 74
     0
 77
     1
 78
     8
140
42.00000000000001
147
0.625
172
     1
173
     1
176
     2
177
     2
178
     7
271
     2
340
D2
  0
DIMSTYLE
105
165
102
{ACAD_REACTORS
330
166
102
}
330
A
100
AcDbSymbolTableRecord
100
AcDbDimStyleTableRecord
  2
ME10_DIM_10
 70
     0
 41
42.00000000000001
 42
0.0
 44
12.0
 73
     0
 74
     0
 77
     1
 78
     8
140
42.00000000000001
147
0.625
172
     1
173
     1
176
     2
177
     2
178
     7
271
     2
340
D2
  0
DIMSTYLE
105
170
102
{ACAD_REACTORS
330
171
102
}
330
A
100
AcDbSymbolTableRecord
100
AcDbDimStyleTableRecord
  2
ME10_DIM_11
 70
     0
 41
42.00000000000001
 42
0.0
 44
12.0
 73
     0
 74
     0
 77
     1
 78
     8
140
42.00000000000001
147
0.625
172
     1
173
     1
176
     2
177
     2
178
     7
271
     2
340
D2
  0
DIMSTYLE
105
17B
102
{ACAD_REACTORS
330
17C
102
}
330
A
100
AcDbSymbolTableRecord
100
AcDbDimStyleTableRecord
  2
ME10_DIM_12
 70
     0
 41
42.00000000000001
 42
0.0
 44
12.0
 73
     0
 74
     0
 77
     1
 78
     8
140
42.00000000000001
147
0.625
172
     1
173
     1
176
     2
177
     2
178
     7
271
     2
340
D2
  0
ENDTAB
  0
TABLE
  2
BLOCK_RECORD
  5
1
330
0
100
AcDbSymbolTable
 70
    19
  0
BLOCK_RECORD
  5
1F
330
1
100
AcDbSymbolTableRecord
100
AcDbBlockTableRecord
  2
*Model_Space
340
22
  0
BLOCK_RECORD
  5
1B
330
1
100
AcDbSymbolTableRecord
100
AcDbBlockTableRecord
  2
*Paper_Space
340
1E
  0
BLOCK_RECORD
  5
23
330
1
100
AcDbSymbolTableRecord
100
AcDbBlockTableRecord
  2
*Paper_Space0
340
26
  0
BLOCK_RECORD
  5
36
330
1
100
AcDbSymbolTableRecord
100
AcDbBlockTableRecord
  2
K475NJV-2T_V2261-X2-13_S
340
0
102
{BLKREFS
331
3C
102
}
  0
BLOCK_RECORD
  5
39
330
1
100
AcDbSymbolTableRecord
100
AcDbBlockTableRecord
  2
_J__A4
340
0
102
{BLKREFS
331
3D
102
}
  0
BLOCK_RECORD
  5
EA
330
1
100
AcDbSymbolTableRecord
100
AcDbBlockTableRecord
  2
*D03
340
0
  0
BLOCK_RECORD
  5
F5
330
1
100
AcDbSymbolTableRecord
100
AcDbBlockTableRecord
  2
*D14
340
0
  0
BLOCK_RECORD
  5
100
330
1
100
AcDbSymbolTableRecord
100
AcDbBlockTableRecord
  2
*D25
340
0
  0
BLOCK_RECORD
  5
10B
330
1
100
AcDbSymbolTableRecord
100
AcDbBlockTableRecord
  2
*D36
340
0
  0
BLOCK_RECORD
  5
118
330
1
100
AcDbSymbolTableRecord
100
AcDbBlockTableRecord
  2
*D47
340
0
  0
BLOCK_RECORD
  5
125
330
1
100
AcDbSymbolTableRecord
100
AcDbBlockTableRecord
  2
*D58
340
0
  0
BLOCK_RECORD
  5
130
330
1
100
AcDbSymbolTableRecord
100
AcDbBlockTableRecord
  2
*D69
340
0
  0
BLOCK_RECORD
  5
13B
330
1
100
AcDbSymbolTableRecord
100
AcDbBlockTableRecord
  2
*D710
340
0
  0
BLOCK_RECORD
  5
146
330
1
100
AcDbSymbolTableRecord
100
AcDbBlockTableRecord
  2
*D811
340
0
  0
BLOCK_RECORD
  5
151
330
1
100
AcDbSymbolTableRecord
100
AcDbBlockTableRecord
  2
*D912
340
0
  0
BLOCK_RECORD
  5
15C
330
1
100
AcDbSymbolTableRecord
100
AcDbBlockTableRecord
  2
*D1013
340
0
  0
BLOCK_RECORD
  5
167
330
1
100
AcDbSymbolTableRecord
100
AcDbBlockTableRecord
  2
*D1114
340
0
  0
BLOCK_RECORD
  5
172
330
1
100
AcDbSymbolTableRecord
100
AcDbBlockTableRecord
  2
*D1215
340
0
  0
BLOCK_RECORD
  5
17D
330
1
100
AcDbSymbolTableRecord
100
AcDbBlockTableRecord
  2
*D1316
340
0
102
{BLKREFS
331
184
102
}
  0
BLOCK_RECORD
  5
185
330
1
100
AcDbSymbolTableRecord
100
AcDbBlockTableRecord
  2
*D1417
340
0
102
{BLKREFS
331
18C
102
}
  0
BLOCK_RECORD
  5
18D
330
1
100
AcDbSymbolTableRecord
100
AcDbBlockTableRecord
  2
*D1518
340
0
102
{BLKREFS
331
194
102
}
  0
ENDTAB
  0
ENDSEC
  0
SECTION
  2
BLOCKS
  0
BLOCK
  5
20
330
1F
100
AcDbEntity
  8
0
100
AcDbBlockBegin
  2
*Model_Space
 70
     0
 71
     0
 10
0.0
 20
0.0
 30
0.0
  3
*Model_Space
  1

  0
ENDBLK
  5
21
330
1F
100
AcDbEntity
  8
0
100
AcDbBlockEnd
  0
BLOCK
  5
1C
330
1B
100
AcDbEntity
 67
     1
  8
0
100
AcDbBlockBegin
  2
*Paper_Space
 70
     0
 71
     0
 10
0.0
 20
0.0
 30
0.0
  3
*Paper_Space
  1

  0
ENDBLK
  5
1D
330
1B
100
AcDbEntity
 67
     1
  8
0
100
AcDbBlockEnd
  0
BLOCK
  5
24
330
23
100
AcDbEntity
  8
0
100
AcDbBlockBegin
  2
*Paper_Space0
 70
     0
 71
     0
 10
0.0
 20
0.0
 30
0.0
  3
*Paper_Space0
  1

  0
ENDBLK
  5
25
330
23
100
AcDbEntity
  8
0
100
AcDbBlockEnd
  0
BLOCK
  5
37
330
36
100
AcDbEntity
  8
0
100
AcDbBlockBegin
  2
K475NJV-2T_V2261-X2-13_S
 70
     0
 71
     0
 10
11997.885329305
 20
2605.624836751416
 30
0.0
  3
K475NJV-2T_V2261-X2-13_S
  1

  0
LINE
  5
3E
330
36
100
AcDbEntity
  8
1
  6
CENTER_DASH_DASH
 62
     2
100
AcDbLine
 10
887.9441295849383
 20
2884.11876947892
 30
0.0
 11
2128.0
 21
2884.11876947892
 31
0.0
  0
LINE
  5
3F
330
36
100
AcDbEntity
  8
1
  6
PHANTOM
 62
     4
100
AcDbLine
 10
2127.999999999999
 20
2896.118769478921
 30
0.0
 11
887.9441295849383
 21
2896.118769478921
 31
0.0
  0
LINE
  5
40
330
36
100
AcDbEntity
  8
1
  6
PHANTOM
 62
     4
100
AcDbLine
 10
887.9441295849383
 20
2896.118769478921
 30
0.0
 11
887.9441295849383
 21
2884.11876947892
 31
0.0
  0
LINE
  5
41
330
36
100
AcDbEntity
  8
1
  6
PHANTOM
 62
     4
100
AcDbLine
 10
2128.0
 20
2884.11876947892
 30
0.0
 11
2127.999999999999
 21
2896.118769478921
 31
0.0
  0
LINE
  5
42
330
36
100
AcDbEntity
  8
1
  6
PHANTOM
 62
     4
100
AcDbLine
 10
389.2715500101108
 20
1691.998018549779
 30
0.0
 11
377.2715500101087
 21
1691.998018549778
 31
0.0
  0
LINE
  5
43
330
36
100
AcDbEntity
  8
1
  6
PHANTOM
 62
     4
100
AcDbLine
 10
377.2715500101087
 20
1250.005180008112
 30
0.0
 11
389.2715500101108
 21
1250.005180008112
 31
0.0
  0
LINE
  5
44
330
36
100
AcDbEntity
  8
1
  6
PHANTOM
 62
     4
100
AcDbLine
 10
377.2715500101087
 20
1691.998018549778
 30
0.0
 11
377.2715500101087
 21
1250.005180008112
 31
0.0
  0
LINE
  5
45
330
36
100
AcDbEntity
  8
1
  6
CENTER_DASH_DASH
 62
     2
100
AcDbLine
 10
389.2715500101108
 20
1250.005180008112
 30
0.0
 11
389.2715500101108
 21
1691.998018549779
 31
0.0
  0
LWPOLYLINE
  5
47
330
36
100
AcDbEntity
  8
1
  6
Continuous
 62
     4
 60
     1
100
AcDbPolyline
 90
        2
 70
     0
 43
0.0
 10
2128.0
 20
2884.11876947892
 10
887.9441295849383
 20
2884.11876947892
  0
LWPOLYLINE
  5
4A
330
36
100
AcDbEntity
  8
1
  6
Continuous
 62
     4
 60
     1
100
AcDbPolyline
 90
        2
 70
     0
 43
0.0
 10
389.2715500101108
 20
1691.998018549779
 10
389.2715500101108
 20
1250.005180008112
  0
HATCH
  5
4C
330
36
100
AcDbEntity
  8
0
  6
Continuous
 62
     4
100
AcDbHatch
 10
0.0
 20
0.0
 30
0.0
210
0.0
220
0.0
230
1.0
  2
CUSTOM0
 70
     0
 71
     0
 91
        1
 92
        1
 93
        4
 72
     1
 10
2128.0
 20
2884.11876947892
 11
887.9441295849383
 21
2884.11876947892
 72
     1
 10
887.9441295849383
 20
2884.11876947892
 11
887.9441295849383
 21
2896.118769478921
 72
     1
 10
887.9441295849383
 20
2896.118769478921
 11
2127.999999999999
 21
2896.118769478921
 72
     1
 10
2127.999999999999
 20
2896.118769478921
 11
2128.0
 21
2884.11876947892
 97
        0
 75
     1
 76
     2
 52
45.0
 41
15.0
 77
     0
 78
     2
 53
45.0
 43
0.0
 44
0.0
 45
-21.21320343559642
 46
0.0000000000000017
 79
     0
 53
45.0
 43
3.535533905932737
 44
-3.535533905932738
 45
-21.21320343559642
 46
0.0000000000000017
 79
     0
 98
        1
 10
0.0
 20
0.0
  0
HATCH
  5
4D
330
36
100
AcDbEntity
  8
0
  6
Continuous
 62
     4
100
AcDbHatch
 10
0.0
 20
0.0
 30
0.0
210
0.0
220
0.0
230
1.0
  2
CUSTOM1
 70
     0
 71
     0
 91
        1
 92
        1
 93
        4
 72
     1
 10
389.2715500101108
 20
1691.998018549779
 11
389.2715500101108
 21
1250.005180008112
 72
     1
 10
389.2715500101108
 20
1250.005180008112
 11
377.2715500101087
 21
1250.005180008112
 72
     1
 10
377.2715500101087
 20
1250.005180008112
 11
377.2715500101087
 21
1691.998018549778
 72
     1
 10
377.2715500101087
 20
1691.998018549778
 11
389.2715500101108
 21
1691.998018549779
 97
        0
 75
     1
 76
     2
 52
45.0
 41
15.0
 77
     0
 78
     2
 53
45.0
 43
0.0
 44
0.0
 45
-21.21320343559642
 46
0.0000000000000017
 79
     0
 53
45.0
 43
3.535533905932737
 44
-3.535533905932738
 45
-21.21320343559642
 46
0.0000000000000017
 79
     0
 98
        1
 10
0.0
 20
0.0
  0
ENDBLK
  5
38
330
36
100
AcDbEntity
  8
0
100
AcDbBlockEnd
  0
BLOCK
  5
3A
330
39
100
AcDbEntity
  8
0
100
AcDbBlockBegin
  2
_J__A4
 70
     0
 71
     0
 10
0.0
 20
0.0
 30
0.0
  3
_J__A4
  1

  0
POINT
  5
4E
330
39
100
AcDbEntity
  8
1
 62
     4
100
AcDbPoint
 10
34.0
 20
34.0
 30
0.0
  0
POINT
  5
4F
330
39
100
AcDbEntity
  8
1
 62
     4
100
AcDbPoint
 10
57.00000000000001
 20
12.25
 30
0.0
  0
POINT
  5
50
330
39
100
AcDbEntity
  8
1
 62
     4
100
AcDbPoint
 10
57.00000000000001
 20
20.75000000000001
 30
0.0
  0
POINT
  5
51
330
39
100
AcDbEntity
  8
1
 62
     4
100
AcDbPoint
 10
57.0
 20
24.75000000000001
 30
0.0
  0
POINT
  5
52
330
39
100
AcDbEntity
  8
1
 62
     4
100
AcDbPoint
 10
57.00000000000001
 20
16.25
 30
0.0
  0
POINT
  5
53
330
39
100
AcDbEntity
  8
1
 62
     4
100
AcDbPoint
 10
157.5
 20
19.00000000000001
 30
0.0
  0
POINT
  5
54
330
39
100
AcDbEntity
  8
1
 62
     4
100
AcDbPoint
 10
47.5
 20
282.0000000000003
 30
0.0
  0
POINT
  5
55
330
39
100
AcDbEntity
  8
1
 62
     4
100
AcDbPoint
 10
57.00000000000001
 20
22.75000000000001
 30
0.0
  0
POINT
  5
56
330
39
100
AcDbEntity
  8
1
 62
     4
100
AcDbPoint
 10
57.00000000000001
 20
14.25
 30
0.0
  0
POINT
  5
57
330
39
100
AcDbEntity
  8
1
 62
     4
100
AcDbPoint
 10
157.5
 20
12.5
 30
0.0
  0
POINT
  5
58
330
39
100
AcDbEntity
  8
1
 62
     4
100
AcDbPoint
 10
163.25
 20
12.5
 30
0.0
  0
POINT
  5
59
330
39
100
AcDbEntity
  8
1
 62
     4
100
AcDbPoint
 10
151.75
 20
12.5
 30
0.0
  0
POINT
  5
5A
330
39
100
AcDbEntity
  8
1
 62
     4
100
AcDbPoint
 10
134.75
 20
12.5
 30
0.0
  0
POINT
  5
5B
330
39
100
AcDbEntity
  8
1
 62
     4
100
AcDbPoint
 10
146.25
 20
12.5
 30
0.0
  0
POINT
  5
5C
330
39
100
AcDbEntity
  8
1
 62
     4
100
AcDbPoint
 10
140.5
 20
12.5
 30
0.0
  0
POINT
  5
5D
330
39
100
AcDbEntity
  8
1
 62
     4
100
AcDbPoint
 10
140.5
 20
19.00000000000001
 30
0.0
  0
POINT
  5
5E
330
39
100
AcDbEntity
  8
1
 62
     4
100
AcDbPoint
 10
117.75
 20
12.5
 30
0.0
  0
POINT
  5
5F
330
39
100
AcDbEntity
  8
1
 62
     4
100
AcDbPoint
 10
129.25
 20
12.5
 30
0.0
  0
POINT
  5
60
330
39
100
AcDbEntity
  8
1
 62
     4
100
AcDbPoint
 10
123.5
 20
12.5
 30
0.0
  0
POINT
  5
61
330
39
100
AcDbEntity
  8
1
 62
     4
100
AcDbPoint
 10
123.5
 20
19.00000000000001
 30
0.0
  0
POINT
  5
62
330
39
100
AcDbEntity
  8
1
 62
     4
100
AcDbPoint
 10
100.75
 20
12.5
 30
0.0
  0
POINT
  5
63
330
39
100
AcDbEntity
  8
1
 62
     4
100
AcDbPoint
 10
112.25
 20
12.5
 30
0.0
  0
POINT
  5
64
330
39
100
AcDbEntity
  8
1
 62
     4
100
AcDbPoint
 10
106.5
 20
12.5
 30
0.0
  0
POINT
  5
65
330
39
100
AcDbEntity
  8
1
 62
     4
100
AcDbPoint
 10
106.5
 20
19.00000000000001
 30
0.0
  0
POINT
  5
66
330
39
100
AcDbEntity
  8
1
 62
     4
100
AcDbPoint
 10
85.25
 20
17.0
 30
0.0
  0
POINT
  5
67
330
39
100
AcDbEntity
  8
1
 62
     4
100
AcDbPoint
 10
93.75
 20
17.0
 30
0.0
  0
LINE
  5
68
330
39
100
AcDbEntity
  8
1
  6
Continuous
 62
     2
100
AcDbLine
 10
81.0
 20
27.00000000000001
 30
0.0
 11
81.0
 21
10.0
 31
0.0
  0
LINE
  5
69
330
39
100
AcDbEntity
  8
1
  6
DOT_CENTER
 62
     2
100
AcDbLine
 10
187.0
 20
26.50000000000001
 30
0.0
 11
187.0
 21
20.50000000000001
 31
0.0
  0
LINE
  5
6A
330
39
100
AcDbEntity
  8
1
  6
DOT_CENTER
 62
     2
100
AcDbLine
 10
184.0
 20
23.50000000000001
 30
0.0
 11
197.0
 21
23.50000000000001
 31
0.0
  0
LINE
  5
6B
330
39
100
AcDbEntity
  8
1
  6
Continuous
 62
     7
100
AcDbLine
 10
196.0
 20
21.50000000000001
 30
0.0
 11
191.0
 21
22.30000000000001
 31
0.0
  0
LINE
  5
6C
330
39
100
AcDbEntity
  8
1
  6
Continuous
 62
     7
100
AcDbLine
 10
196.0
 20
25.50000000000001
 30
0.0
 11
196.0
 21
21.50000000000001
 31
0.0
  0
LINE
  5
6D
330
39
100
AcDbEntity
  8
1
  6
Continuous
 62
     7
100
AcDbLine
 10
191.0
 20
24.70000000000001
 30
0.0
 11
196.0
 21
25.50000000000001
 31
0.0
  0
LINE
  5
6E
330
39
100
AcDbEntity
  8
1
  6
Continuous
 62
     7
100
AcDbLine
 10
191.0
 20
24.70000000000001
 30
0.0
 11
191.0
 21
22.30000000000001
 31
0.0
  0
LINE
  5
6F
330
39
100
AcDbEntity
  8
1
  6
Continuous
 62
     2
100
AcDbLine
 10
33.0
 20
27.0
 30
0.0
 11
33.0
 21
10.0
 31
0.0
  0
LINE
  5
70
330
39
100
AcDbEntity
  8
1
  6
Continuous
 62
     2
100
AcDbLine
 10
25.0
 20
18.50000000000001
 30
0.0
 11
81.0
 21
18.50000000000001
 31
0.0
  0
LINE
  5
71
330
39
100
AcDbEntity
  8
1
  6
Continuous
 62
     7
100
AcDbLine
 10
200.0
 20
287.0000000000003
 30
0.0
 11
105.0
 21
287.0000000000003
 31
0.0
  0
LINE
  5
72
330
39
100
AcDbEntity
  8
1
  6
Continuous
 62
     7
100
AcDbLine
 10
200.0
 20
10.0
 30
0.0
 11
200.0
 21
148.5
 31
0.0
  0
LINE
  5
73
330
39
100
AcDbEntity
  8
1
  6
Continuous
 62
     7
100
AcDbLine
 10
25.0
 20
10.0
 30
0.0
 11
105.0
 21
10.0
 31
0.0
  0
LINE
  5
74
330
39
100
AcDbEntity
  8
1
  6
PHANTOM
 62
     4
100
AcDbLine
 10
0.0
 20
297.0
 30
0.0
 11
0.0
 21
0.0
 31
0.0
  0
LINE
  5
75
330
39
100
AcDbEntity
  8
1
  6
PHANTOM
 62
     4
100
AcDbLine
 10
210.0
 20
297.0
 30
0.0
 11
0.0
 21
297.0
 31
0.0
  0
LINE
  5
76
330
39
100
AcDbEntity
  8
1
  6
PHANTOM
 62
     4
100
AcDbLine
 10
210.0
 20
0.0
 30
0.0
 11
210.0
 21
297.0
 31
0.0
  0
LINE
  5
77
330
39
100
AcDbEntity
  8
1
  6
PHANTOM
 62
     4
100
AcDbLine
 10
0.0
 20
0.0
 30
0.0
 11
210.0
 21
0.0
 31
0.0
  0
LINE
  5
78
330
39
100
AcDbEntity
  8
1
  6
Continuous
 62
     7
100
AcDbLine
 10
25.0
 20
41.0
 30
0.0
 11
200.0
 21
41.0
 31
0.0
  0
LINE
  5
79
330
39
100
AcDbEntity
  8
1
  6
Continuous
 62
     7
100
AcDbLine
 10
200.0
 20
27.00000000000001
 30
0.0
 11
25.0
 21
27.00000000000001
 31
0.0
  0
LINE
  5
7A
330
39
100
AcDbEntity
  8
1
  6
Continuous
 62
     2
100
AcDbLine
 10
33.0
 20
41.0
 30
0.0
 11
33.0
 21
27.0
 31
0.0
  0
LINE
  5
7B
330
39
100
AcDbEntity
  8
1
  6
Continuous
 62
     2
100
AcDbLine
 10
55.0
 20
287.0000000000003
 30
0.0
 11
55.00000000000001
 21
277.0000000000003
 31
0.0
  0
LINE
  5
7C
330
39
100
AcDbEntity
  8
1
  6
Continuous
 62
     2
100
AcDbLine
 10
40.0
 20
287.0000000000003
 30
0.0
 11
40.0
 21
277.0000000000003
 31
0.0
  0
LINE
  5
7D
330
39
100
AcDbEntity
  8
1
  6
Continuous
 62
     7
100
AcDbLine
 10
25.0
 20
10.0
 30
0.0
 11
25.0
 21
148.5
 31
0.0
  0
LINE
  5
7E
330
39
100
AcDbEntity
  8
1
  6
Continuous
 62
     2
100
AcDbLine
 10
55.00000000000001
 20
277.0000000000003
 30
0.0
 11
25.0
 21
277.0000000000003
 31
0.0
  0
LINE
  5
7F
330
39
100
AcDbEntity
  8
1
  6
Continuous
 62
     2
100
AcDbLine
 10
166.0
 20
27.00000000000001
 30
0.0
 11
166.0
 21
10.0
 31
0.0
  0
LINE
  5
80
330
39
100
AcDbEntity
  8
1
  6
Continuous
 62
     2
100
AcDbLine
 10
132.0
 20
27.00000000000001
 30
0.0
 11
132.0
 21
9.99999999999999
 31
0.0
  0
LINE
  5
81
330
39
100
AcDbEntity
  8
1
  6
Continuous
 62
     2
100
AcDbLine
 10
149.0
 20
27.00000000000001
 30
0.0
 11
149.0
 21
10.0
 31
0.0
  0
LINE
  5
82
330
39
100
AcDbEntity
  8
1
  6
Continuous
 62
     2
100
AcDbLine
 10
115.0
 20
27.00000000000001
 30
0.0
 11
115.0
 21
9.99999999999999
 31
0.0
  0
LINE
  5
83
330
39
100
AcDbEntity
  8
1
  6
Continuous
 62
     2
100
AcDbLine
 10
98.0
 20
27.00000000000001
 30
0.0
 11
98.0
 21
9.99999999999999
 31
0.0
  0
LINE
  5
84
330
39
100
AcDbEntity
  8
1
  6
Continuous
 62
     2
100
AcDbLine
 10
166.0
 20
20.00000000000001
 30
0.0
 11
200.0
 21
20.00000000000001
 31
0.0
  0
LINE
  5
85
330
39
100
AcDbEntity
  8
1
  6
Continuous
 62
     2
100
AcDbLine
 10
105.0
 20
287.0000000000003
 30
0.0
 11
105.0
 21
292.0000000000003
 31
0.0
  0
LINE
  5
86
330
39
100
AcDbEntity
  8
1
  6
Continuous
 62
     7
100
AcDbLine
 10
105.0
 20
287.0000000000003
 30
0.0
 11
25.0
 21
287.0000000000003
 31
0.0
  0
LINE
  5
87
330
39
100
AcDbEntity
  8
1
  6
Continuous
 62
     2
100
AcDbLine
 10
25.0
 20
148.5
 30
0.0
 11
20.0
 21
148.5
 31
0.0
  0
LINE
  5
88
330
39
100
AcDbEntity
  8
1
  6
Continuous
 62
     7
100
AcDbLine
 10
25.0
 20
148.5
 30
0.0
 11
25.0
 21
287.0000000000003
 31
0.0
  0
LINE
  5
89
330
39
100
AcDbEntity
  8
1
  6
Continuous
 62
     2
100
AcDbLine
 10
200.0
 20
148.5
 30
0.0
 11
205.0
 21
148.5
 31
0.0
  0
LINE
  5
8A
330
39
100
AcDbEntity
  8
1
  6
Continuous
 62
     7
100
AcDbLine
 10
200.0
 20
148.5
 30
0.0
 11
200.0
 21
287.0000000000003
 31
0.0
  0
LINE
  5
8B
330
39
100
AcDbEntity
  8
1
  6
Continuous
 62
     2
100
AcDbLine
 10
105.0
 20
10.0
 30
0.0
 11
105.0
 21
5.0
 31
0.0
  0
LINE
  5
8C
330
39
100
AcDbEntity
  8
1
  6
Continuous
 62
     7
100
AcDbLine
 10
105.0
 20
10.0
 30
0.0
 11
200.0
 21
10.0
 31
0.0
  0
CIRCLE
  5
8D
330
39
100
AcDbEntity
  8
1
  6
DOT_CENTER
 62
     7
100
AcDbCircle
 10
89.5
 20
18.0
 30
0.0
 40
0.1000000000000227
  0
CIRCLE
  5
8E
330
39
100
AcDbEntity
  8
1
  6
DOT_CENTER
 62
     7
100
AcDbCircle
 10
89.5
 20
16.0
 30
0.0
 40
0.1000000000000227
  0
CIRCLE
  5
8F
330
39
100
AcDbEntity
  8
1
  6
Continuous
 62
     7
100
AcDbCircle
 10
187.0
 20
23.50000000000001
 30
0.0
 40
2.0
  0
CIRCLE
  5
90
330
39
100
AcDbEntity
  8
1
  6
Continuous
 62
     7
100
AcDbCircle
 10
187.0
 20
23.50000000000001
 30
0.0
 40
1.200000000000102
  0
CIRCLE
  5
91
330
39
100
AcDbEntity
  8
1
  6
Continuous
 62
     7
100
AcDbCircle
 10
154.5
 20
12.5
 30
0.0
 40
0.3000000000000114
  0
CIRCLE
  5
92
330
39
100
AcDbEntity
  8
1
  6
Continuous
 62
     7
100
AcDbCircle
 10
160.5
 20
12.5
 30
0.0
 40
0.3000000000000114
  0
CIRCLE
  5
93
330
39
100
AcDbEntity
  8
1
  6
Continuous
 62
     7
100
AcDbCircle
 10
143.5
 20
12.5
 30
0.0
 40
0.3000000000000114
  0
CIRCLE
  5
94
330
39
100
AcDbEntity
  8
1
  6
Continuous
 62
     7
100
AcDbCircle
 10
137.5
 20
12.5
 30
0.0
 40
0.3000000000000114
  0
CIRCLE
  5
95
330
39
100
AcDbEntity
  8
1
  6
Continuous
 62
     7
100
AcDbCircle
 10
126.5
 20
12.5
 30
0.0
 40
0.2999999999999972
  0
CIRCLE
  5
96
330
39
100
AcDbEntity
  8
1
  6
Continuous
 62
     7
100
AcDbCircle
 10
120.5
 20
12.5
 30
0.0
 40
0.2999999999999972
  0
CIRCLE
  5
97
330
39
100
AcDbEntity
  8
1
  6
Continuous
 62
     7
100
AcDbCircle
 10
109.5
 20
12.5
 30
0.0
 40
0.2999999999999972
  0
CIRCLE
  5
98
330
39
100
AcDbEntity
  8
1
  6
Continuous
 62
     7
100
AcDbCircle
 10
103.5
 20
12.5
 30
0.0
 40
0.2999999999999972
  0
MTEXT
  5
9A
330
39
100
AcDbEntity
  8
1
 62
   250
100
AcDbMText
 10
25.0
 20
5.0
 30
0.0
 40
3.5
 41
0.0
 71
     4
 72
     1
  1
備考欄の文字列 原点位置=4
  7
CONVERTER_1
 73
     1
 44
0.7202881152461
  0
MTEXT
  5
9B
330
39
100
AcDbEntity
  8
1
 62
     2
100
AcDbMText
 10
89.5
 20
24.00000000000001
 30
0.0
 40
3.5
 41
0.0
 71
     5
 72
     1
  1
尺度
  7
CONVERTER_1
 73
     1
 44
0.7202881152461
  0
MTEXT
  5
9C
330
39
100
AcDbEntity
  8
1
 62
     2
100
AcDbMText
 10
135.5
 20
25.00000000000001
 30
0.0
 40
3.0
 41
0.0
 71
     5
 72
     1
  1
製図
  7
CONVERTER_1
 73
     1
 44
0.78031212484994
  0
MTEXT
  5
9D
330
39
100
AcDbEntity
  8
1
 62
     2
100
AcDbMText
 10
152.5
 20
25.00000000000001
 30
0.0
 40
3.0
 41
0.0
 71
     5
 72
     1
  1
担当
  7
CONVERTER_1
 73
     1
 44
0.78031212484994
  0
MTEXT
  5
9E
330
39
100
AcDbEntity
  8
1
 62
     2
100
AcDbMText
 10
118.5
 20
25.00000000000001
 30
0.0
 40
3.0
 41
0.0
 71
     5
 72
     1
  1
検図
  7
CONVERTER_1
 73
     1
 44
0.78031212484994
  0
MTEXT
  5
9F
330
39
100
AcDbEntity
  8
1
 62
     2
100
AcDbMText
 10
175.0
 20
23.50000000000001
 30
0.0
 40
3.5
 41
0.0
 71
     5
 72
     1
  1
第三角法
  7
CONVERTER_1
 73
     1
 44
0.7202881152461
  0
MTEXT
  5
A0
330
39
100
AcDbEntity
  8
1
 62
     2
100
AcDbMText
 10
101.5
 20
25.00000000000001
 30
0.0
 40
3.0
 41
0.0
 71
     5
 72
     1
  1
承認
  7
CONVERTER_1
 73
     1
 44
0.78031212484994
  0
MTEXT
  5
A1
330
39
100
AcDbEntity
  8
1
 62
     2
100
AcDbMText
 10
29.0
 20
14.25
 30
0.0
 40
3.5
 41
0.0
 71
     5
 72
     1
  1
品番
  7
CONVERTER_1
 73
     1
 44
0.96038415366146
  0
MTEXT
  5
A2
330
39
100
AcDbEntity
  8
1
 62
     2
100
AcDbMText
 10
29.0
 20
22.75
 30
0.0
 40
3.5
 41
0.0
 71
     5
 72
     1
  1
品名
  7
CONVERTER_1
 73
     1
 44
0.96038415366146
  0
MTEXT
  5
A3
330
39
100
AcDbEntity
  8
1
 62
     2
100
AcDbMText
 10
29.0
 20
34.0
 30
0.0
 40
3.5
 41
0.0
 71
     5
 72
     1
  1
備考
  7
CONVERTER_1
 73
     1
 44
0.60024009603842
  0
MTEXT
  5
A4
330
39
100
AcDbEntity
  8
1
 62
     2
100
AcDbMText
 10
32.5
 20
282.0000000000003
 30
0.0
 40
5.0
 41
0.0
 71
     5
 72
     1
  1
図番
  7
CONVERTER_1
 73
     1
 44
0.60024009603842
  0
MTEXT
  5
A5
330
39
100
AcDbEntity
  8
1
 62
     7
100
AcDbMText
 10
171.5
 20
15.0
 30
0.0
 40
2.5
 41
0.0
 71
     5
 72
     1
  1
株式会社
  7
CONVERTER_1
 73
     1
 44
1.32052821128451
  0
MTEXT
  5
A6
330
39
100
AcDbEntity
  8
1
 62
     7
100
AcDbMText
 10
188.5
 20
15.0
 30
0.0
 40
3.0
 41
0.0
 71
     5
 72
     1
  1
三栄水栓製作所
  7
CONVERTER_1
 73
     1
 44
1.32052821128451
  0
ENDBLK
  5
3B
330
39
100
AcDbEntity
  8
0
100
AcDbBlockEnd
  0
BLOCK
  5
F1
330
EA
100
AcDbEntity
  8
0
100
AcDbBlockBegin
  2
*D03
 70
     1
 71
     0
 10
0.0
 20
0.0
 30
0.0
  3
*D03
  1

  0
LINE
  5
EB
330
EA
100
AcDbEntity
  8
1
  6
Continuous
 62
     2
100
AcDbLine
 10
767.9441295849384
 20
2424.191741028793
 30
0.0
 11
767.9441295849384
 21
2884.11876947892
 31
0.0
  0
LINE
  5
EC
330
EA
100
AcDbEntity
  8
1
  6
Continuous
 62
     2
100
AcDbLine
 10
1008.347873148041
 20
2424.191741028793
 30
0.0
 11
755.9441295849384
 21
2424.191741028793
 31
0.0
  0
LINE
  5
ED
330
EA
100
AcDbEntity
  8
1
  6
Continuous
 62
     2
100
AcDbLine
 10
887.9441295849383
 20
2884.11876947892
 30
0.0
 11
755.9441295849384
 21
2884.11876947892
 31
0.0
  0
SOLID
  5
EE
330
EA
100
AcDbEntity
  8
1
 62
     2
100
AcDbTrace
 10
762.4147246862679
 20
2466.191741028793
 30
0.0
 11
773.473534483609
 21
2466.191741028793
 31
0.0
 12
767.9441295849384
 22
2424.191741028793
 32
0.0
 13
767.9441295849384
 23
2424.191741028793
 33
0.0
  0
SOLID
  5
EF
330
EA
100
AcDbEntity
  8
1
 62
     2
100
AcDbTrace
 10
773.473534483609
 20
2842.11876947892
 30
0.0
 11
762.4147246862679
 21
2842.11876947892
 31
0.0
 12
767.9441295849384
 22
2884.11876947892
 32
0.0
 13
767.9441295849384
 23
2884.11876947892
 33
0.0
  0
MTEXT
  5
F0
330
EA
100
AcDbEntity
  8
1
 62
     7
100
AcDbMText
 10
755.9441295849384
 20
2603.755255253856
 30
0.0
 40
42.0
 41
0.0
 71
     7
 72
     1
  1
460
  7
CONVERTER_2
 11
0.0
 21
1.0
 31
0.0
 73
     1
 44
0.60024009603842
  0
ENDBLK
  5
F2
330
EA
100
AcDbEntity
  8
0
100
AcDbBlockEnd
  0
BLOCK
  5
FC
330
F5
100
AcDbEntity
  8
0
100
AcDbBlockBegin
  2
*D14
 70
     1
 71
     0
 10
0.0
 20
0.0
 30
0.0
  3
*D14
  1

  0
LINE
  5
F6
330
F5
100
AcDbEntity
  8
1
  6
Continuous
 62
     2
100
AcDbLine
 10
2224.38904993536
 20
1417.136711076572
 30
0.0
 11
2224.38904993536
 21
1571.99801854978
 31
0.0
  0
LINE
  5
F7
330
F5
100
AcDbEntity
  8
1
  6
Continuous
 62
     2
100
AcDbLine
 10
1347.844465512176
 20
1417.136711076572
 30
0.0
 11
2236.38904993536
 21
1417.136711076572
 31
0.0
  0
LINE
  5
F8
330
F5
100
AcDbEntity
  8
1
  6
Continuous
 62
     2
100
AcDbLine
 10
1615.209770070901
 20
1571.99801854978
 30
0.0
 11
2236.38904993536
 21
1571.99801854978
 31
0.0
  0
SOLID
  5
F9
330
F5
100
AcDbEntity
  8
1
 62
     2
100
AcDbTrace
 10
2218.85964503669
 20
1459.136711076572
 30
0.0
 11
2229.918454834031
 21
1459.136711076572
 31
0.0
 12
2224.38904993536
 22
1417.136711076572
 32
0.0
 13
2224.38904993536
 23
1417.136711076572
 33
0.0
  0
SOLID
  5
FA
330
F5
100
AcDbEntity
  8
1
 62
     2
100
AcDbTrace
 10
2229.918454834031
 20
1529.99801854978
 30
0.0
 11
2218.85964503669
 21
1529.99801854978
 31
0.0
 12
2224.38904993536
 22
1571.99801854978
 32
0.0
 13
2224.38904993536
 23
1571.99801854978
 33
0.0
  0
MTEXT
  5
FB
330
F5
100
AcDbEntity
  8
1
 62
     7
100
AcDbMText
 10
2212.38904993536
 20
1457.89919042478
 30
0.0
 40
42.00000000000001
 41
0.0
 71
     7
 72
     1
  1
155
  7
CONVERTER_2
 11
0.0
 21
1.0
 31
0.0
 73
     1
 44
0.60024009603842
  0
ENDBLK
  5
FD
330
F5
100
AcDbEntity
  8
0
100
AcDbBlockEnd
  0
BLOCK
  5
107
330
100
100
AcDbEntity
  8
0
100
AcDbBlockBegin
  2
*D25
 70
     1
 71
     0
 10
0.0
 20
0.0
 30
0.0
  3
*D25
  1

  0
LINE
  5
101
330
100
100
AcDbEntity
  8
1
  6
Continuous
 62
     2
100
AcDbLine
 10
2128.38904993536
 20
1432.00036229978
 30
0.0
 11
2128.38904993536
 21
1571.99801854978
 31
0.0
  0
LINE
  5
102
330
100
100
AcDbEntity
  8
1
  6
Continuous
 62
     2
100
AcDbLine
 10
2008.439049935361
 20
1432.00036229978
 30
0.0
 11
2140.38904993536
 21
1432.00036229978
 31
0.0
  0
LINE
  5
103
330
100
100
AcDbEntity
  8
1
  6
Continuous
 62
     2
100
AcDbLine
 10
1615.209770070901
 20
1571.99801854978
 30
0.0
 11
2140.38904993536
 21
1571.99801854978
 31
0.0
  0
SOLID
  5
104
330
100
100
AcDbEntity
  8
1
 62
     2
100
AcDbTrace
 10
2122.85964503669
 20
1474.00036229978
 30
0.0
 11
2133.918454834031
 21
1474.00036229978
 31
0.0
 12
2128.38904993536
 22
1432.00036229978
 32
0.0
 13
2128.38904993536
 23
1432.00036229978
 33
0.0
  0
SOLID
  5
105
330
100
100
AcDbEntity
  8
1
 62
     2
100
AcDbTrace
 10
2133.918454834031
 20
1529.99801854978
 30
0.0
 11
2122.85964503669
 21
1529.99801854978
 31
0.0
 12
2128.38904993536
 22
1571.99801854978
 32
0.0
 13
2128.38904993536
 23
1571.99801854978
 33
0.0
  0
MTEXT
  5
106
330
100
100
AcDbEntity
  8
1
 62
     7
100
AcDbMText
 10
2116.38904993536
 20
1457.89919042478
 30
0.0
 40
42.00000000000001
 41
0.0
 71
     7
 72
     1
  1
140
  7
CONVERTER_2
 11
0.0
 21
1.0
 31
0.0
 73
     1
 44
0.60024009603842
  0
ENDBLK
  5
108
330
100
100
AcDbEntity
  8
0
100
AcDbBlockEnd
  0
BLOCK
  5
114
330
10B
100
AcDbEntity
  8
0
100
AcDbBlockBegin
  2
*D36
 70
     1
 71
     0
 10
0.0
 20
0.0
 30
0.0
  3
*D36
  1

  0
LINE
  5
10C
330
10B
100
AcDbEntity
  8
1
  6
Continuous
 62
     2
100
AcDbLine
 10
1858.67739430142
 20
1482.000569121409
 30
0.0
 11
1858.67739430142
 21
1661.20188580085
 31
0.0
  0
LINE
  5
10D
330
10B
100
AcDbEntity
  8
1
  6
Continuous
 62
     2
100
AcDbLine
 10
1858.67739430142
 20
1432.00036229978
 30
0.0
 11
1858.67739430142
 21
1482.000569121409
 31
0.0
  0
LINE
  5
10E
330
10B
100
AcDbEntity
  8
1
  6
Continuous
 62
     2
100
AcDbLine
 10
1858.67739430142
 20
1348.00036229978
 30
0.0
 11
1858.67739430142
 21
1432.00036229978
 31
0.0
  0
LINE
  5
10F
330
10B
100
AcDbEntity
  8
1
  6
Continuous
 62
     2
100
AcDbLine
 10
2008.439049935361
 20
1432.00036229978
 30
0.0
 11
1846.67739430142
 21
1432.00036229978
 31
0.0
  0
LINE
  5
110
330
10B
100
AcDbEntity
  8
1
  6
Continuous
 62
     2
100
AcDbLine
 10
2007.737013975052
 20
1482.000569121409
 30
0.0
 11
1846.67739430142
 21
1482.000569121409
 31
0.0
  0
SOLID
  5
111
330
10B
100
AcDbEntity
  8
1
 62
     2
100
AcDbTrace
 10
1864.206799200091
 20
1390.00036229978
 30
0.0
 11
1853.147989402749
 21
1390.00036229978
 31
0.0
 12
1858.67739430142
 22
1432.00036229978
 32
0.0
 13
1858.67739430142
 23
1432.00036229978
 33
0.0
  0
SOLID
  5
112
330
10B
100
AcDbEntity
  8
1
 62
     2
100
AcDbTrace
 10
1853.147989402749
 20
1524.000569121409
 30
0.0
 11
1864.206799200091
 21
1524.000569121409
 31
0.0
 12
1858.67739430142
 22
1482.000569121409
 32
0.0
 13
1858.67739430142
 23
1482.000569121409
 33
0.0
  0
MTEXT
  5
113
330
10B
100
AcDbEntity
  8
1
 62
     7
100
AcDbMText
 10
1846.67739430142
 20
1598.20188580085
 30
0.0
 40
42.00000000000001
 41
0.0
 71
     7
 72
     1
  1
50
  7
CONVERTER_2
 11
0.0
 21
1.0
 31
0.0
 73
     1
 44
0.60024009603842
  0
ENDBLK
  5
115
330
10B
100
AcDbEntity
  8
0
100
AcDbBlockEnd
  0
BLOCK
  5
121
330
118
100
AcDbEntity
  8
0
100
AcDbBlockBegin
  2
*D47
 70
     1
 71
     0
 10
0.0
 20
0.0
 30
0.0
  3
*D47
  1

  0
LINE
  5
119
330
118
100
AcDbEntity
  8
1
  6
Continuous
 62
     2
100
AcDbLine
 10
1736.424092056733
 20
1522.030353619224
 30
0.0
 11
1736.424092056733
 21
1438.030353619224
 31
0.0
  0
LINE
  5
11A
330
118
100
AcDbEntity
  8
1
  6
Continuous
 62
     2
100
AcDbLine
 10
1736.424092056733
 20
1571.99801854978
 30
0.0
 11
1736.424092056733
 21
1522.030353619224
 31
0.0
  0
LINE
  5
11B
330
118
100
AcDbEntity
  8
1
  6
Continuous
 62
     2
100
AcDbLine
 10
1736.424092056733
 20
1728.27784529655
 30
0.0
 11
1736.424092056733
 21
1571.99801854978
 31
0.0
  0
LINE
  5
11C
330
118
100
AcDbEntity
  8
1
  6
Continuous
 62
     2
100
AcDbLine
 10
1615.209770070901
 20
1571.99801854978
 30
0.0
 11
1748.424092056733
 21
1571.99801854978
 31
0.0
  0
LINE
  5
11D
330
118
100
AcDbEntity
  8
1
  6
Continuous
 62
     2
100
AcDbLine
 10
1480.54529993536
 20
1522.030353619224
 30
0.0
 11
1748.424092056733
 21
1522.030353619224
 31
0.0
  0
SOLID
  5
11E
330
118
100
AcDbEntity
  8
1
 62
     2
100
AcDbTrace
 10
1730.894687158062
 20
1613.99801854978
 30
0.0
 11
1741.953496955404
 21
1613.99801854978
 31
0.0
 12
1736.424092056733
 22
1571.99801854978
 32
0.0
 13
1736.424092056733
 23
1571.99801854978
 33
0.0
  0
SOLID
  5
11F
330
118
100
AcDbEntity
  8
1
 62
     2
100
AcDbTrace
 10
1741.953496955404
 20
1480.030353619224
 30
0.0
 11
1730.894687158062
 21
1480.030353619224
 31
0.0
 12
1736.424092056733
 22
1522.030353619224
 32
0.0
 13
1736.424092056733
 23
1522.030353619224
 33
0.0
  0
MTEXT
  5
120
330
118
100
AcDbEntity
  8
1
 62
     7
100
AcDbMText
 10
1724.424092056733
 20
1665.27784529655
 30
0.0
 40
42.00000000000001
 41
0.0
 71
     7
 72
     1
  1
50
  7
CONVERTER_2
 11
0.0
 21
1.0
 31
0.0
 73
     1
 44
0.60024009603842
  0
ENDBLK
  5
122
330
118
100
AcDbEntity
  8
0
100
AcDbBlockEnd
  0
BLOCK
  5
12C
330
125
100
AcDbEntity
  8
0
100
AcDbBlockBegin
  2
*D58
 70
     1
 71
     0
 10
0.0
 20
0.0
 30
0.0
  3
*D58
  1

  0
LINE
  5
126
330
125
100
AcDbEntity
  8
1
  6
Continuous
 62
     2
100
AcDbLine
 10
1172.774249588138
 20
1691.998018549779
 30
0.0
 11
1452.56561243536
 21
1691.998018549779
 31
0.0
  0
LINE
  5
127
330
125
100
AcDbEntity
  8
1
  6
Continuous
 62
     2
100
AcDbLine
 10
1172.774249588138
 20
1538.798322369223
 30
0.0
 11
1172.774249588138
 21
1703.998018549779
 31
0.0
  0
LINE
  5
128
330
125
100
AcDbEntity
  8
1
  6
Continuous
 62
     2
100
AcDbLine
 10
1452.56561243536
 20
1538.798322369223
 30
0.0
 11
1452.56561243536
 21
1703.998018549779
 31
0.0
  0
SOLID
  5
129
330
125
100
AcDbEntity
  8
1
 62
     2
100
AcDbTrace
 10
1214.774249588138
 20
1697.52742344845
 30
0.0
 11
1214.774249588138
 21
1686.468613651108
 31
0.0
 12
1172.774249588138
 22
1691.998018549779
 32
0.0
 13
1172.774249588138
 23
1691.998018549779
 33
0.0
  0
SOLID
  5
12A
330
125
100
AcDbEntity
  8
1
 62
     2
100
AcDbTrace
 10
1410.56561243536
 20
1686.468613651108
 30
0.0
 11
1410.56561243536
 21
1697.52742344845
 31
0.0
 12
1452.56561243536
 22
1691.998018549779
 32
0.0
 13
1452.56561243536
 23
1691.998018549779
 33
0.0
  0
MTEXT
  5
12B
330
125
100
AcDbEntity
  8
1
 62
     7
100
AcDbMText
 10
1262.269931011749
 20
1703.998018549779
 30
0.0
 40
42.00000000000001
 41
0.0
 71
     7
 72
     1
  1
280
  7
CONVERTER_2
 11
0.9999999999970621
 21
2.424068405545307E-6
 31
0.0
 73
     1
 44
0.60024009603842
  0
ENDBLK
  5
12D
330
125
100
AcDbEntity
  8
0
100
AcDbBlockEnd
  0
BLOCK
  5
137
330
130
100
AcDbEntity
  8
0
100
AcDbBlockBegin
  2
*D69
 70
     1
 71
     0
 10
0.0
 20
0.0
 30
0.0
  3
*D69
  1

  0
LINE
  5
131
330
130
100
AcDbEntity
  8
1
  6
Continuous
 62
     2
100
AcDbLine
 10
1009.872663016448
 20
1691.998018549779
 30
0.0
 11
1172.774249588138
 21
1691.998018549779
 31
0.0
  0
LINE
  5
132
330
130
100
AcDbEntity
  8
1
  6
Continuous
 62
     2
100
AcDbLine
 10
1009.872663016448
 20
1572.048018549779
 30
0.0
 11
1009.872663016448
 21
1703.998018549779
 31
0.0
  0
LINE
  5
133
330
130
100
AcDbEntity
  8
1
  6
Continuous
 62
     2
100
AcDbLine
 10
1172.774249588138
 20
1538.798322369223
 30
0.0
 11
1172.774249588138
 21
1703.998018549779
 31
0.0
  0
SOLID
  5
134
330
130
100
AcDbEntity
  8
1
 62
     2
100
AcDbTrace
 10
1051.872663016448
 20
1697.52742344845
 30
0.0
 11
1051.872663016448
 21
1686.468613651108
 31
0.0
 12
1009.872663016448
 22
1691.998018549779
 32
0.0
 13
1009.872663016448
 23
1691.998018549779
 33
0.0
  0
SOLID
  5
135
330
130
100
AcDbEntity
  8
1
 62
     2
100
AcDbTrace
 10
1130.774249588138
 20
1686.468613651108
 30
0.0
 11
1130.774249588138
 21
1697.52742344845
 31
0.0
 12
1172.774249588138
 22
1691.998018549779
 32
0.0
 13
1172.774249588138
 23
1691.998018549779
 33
0.0
  0
MTEXT
  5
136
330
130
100
AcDbEntity
  8
1
 62
     7
100
AcDbMText
 10
1047.223456302293
 20
1703.998018549779
 30
0.0
 40
42.00000000000001
 41
0.0
 71
     7
 72
     1
  1
160
  7
CONVERTER_2
 11
0.9999999999970621
 21
2.424068405545307E-6
 31
0.0
 73
     1
 44
0.60024009603842
  0
ENDBLK
  5
138
330
130
100
AcDbEntity
  8
0
100
AcDbBlockEnd
  0
BLOCK
  5
142
330
13B
100
AcDbEntity
  8
0
100
AcDbBlockBegin
  2
*D710
 70
     1
 71
     0
 10
0.0
 20
0.0
 30
0.0
  3
*D710
  1

  0
LINE
  5
13C
330
13B
100
AcDbEntity
  8
1
  6
Continuous
 62
     2
100
AcDbLine
 10
2344.0
 20
2659.333179201124
 30
0.0
 11
2344.0
 21
2884.118769478918
 31
0.0
  0
LINE
  5
13D
330
13B
100
AcDbEntity
  8
1
  6
Continuous
 62
     2
100
AcDbLine
 10
2044.0
 20
2659.333179201124
 30
0.0
 11
2356.0
 21
2659.333179201124
 31
0.0
  0
LINE
  5
13E
330
13B
100
AcDbEntity
  8
1
  6
Continuous
 62
     2
100
AcDbLine
 10
2128.0
 20
2884.118769478918
 30
0.0
 11
2356.0
 21
2884.118769478918
 31
0.0
  0
SOLID
  5
13F
330
13B
100
AcDbEntity
  8
1
 62
     2
100
AcDbTrace
 10
2338.470595101329
 20
2701.333179201124
 30
0.0
 11
2349.529404898671
 21
2701.333179201124
 31
0.0
 12
2344.0
 22
2659.333179201124
 32
0.0
 13
2344.0
 23
2659.333179201124
 33
0.0
  0
SOLID
  5
140
330
13B
100
AcDbEntity
  8
1
 62
     2
100
AcDbTrace
 10
2349.529404898671
 20
2842.118769478918
 30
0.0
 11
2338.470595101329
 21
2842.118769478918
 31
0.0
 12
2344.0
 22
2884.118769478918
 32
0.0
 13
2344.0
 23
2884.118769478918
 33
0.0
  0
MTEXT
  5
141
330
13B
100
AcDbEntity
  8
1
 62
     7
100
AcDbMText
 10
2332.0
 20
2721.325974340021
 30
0.0
 40
42.00000000000001
 41
0.0
 71
     7
 72
     1
  1
225
  7
CONVERTER_2
 11
0.0
 21
1.0
 31
0.0
 73
     1
 44
0.60024009603842
  0
ENDBLK
  5
143
330
13B
100
AcDbEntity
  8
0
100
AcDbBlockEnd
  0
BLOCK
  5
14D
330
146
100
AcDbEntity
  8
0
100
AcDbBlockBegin
  2
*D811
 70
     1
 71
     0
 10
0.0
 20
0.0
 30
0.0
  3
*D811
  1

  0
LINE
  5
147
330
146
100
AcDbEntity
  8
1
  6
Continuous
 62
     2
100
AcDbLine
 10
1008.39787314804
 20
2206.572117002871
 30
0.0
 11
2007.548860257837
 21
2206.572117002871
 31
0.0
  0
LINE
  5
148
330
146
100
AcDbEntity
  8
1
  6
Continuous
 62
     2
100
AcDbLine
 10
1008.39787314804
 20
2424.141741028794
 30
0.0
 11
1008.39787314804
 21
2194.572117002871
 31
0.0
  0
LINE
  5
149
330
146
100
AcDbEntity
  8
1
  6
Continuous
 62
     2
100
AcDbLine
 10
2007.548860257837
 20
2424.140981861445
 30
0.0
 11
2007.548860257837
 21
2194.572117002871
 31
0.0
  0
SOLID
  5
14A
330
146
100
AcDbEntity
  8
1
 62
     2
100
AcDbTrace
 10
1050.39787314804
 20
2212.101521901542
 30
0.0
 11
1050.39787314804
 21
2201.0427121042
 31
0.0
 12
1008.39787314804
 22
2206.572117002871
 32
0.0
 13
1008.39787314804
 23
2206.572117002871
 33
0.0
  0
SOLID
  5
14B
330
146
100
AcDbEntity
  8
1
 62
     2
100
AcDbTrace
 10
1965.548860257837
 20
2201.0427121042
 30
0.0
 11
1965.548860257837
 21
2212.101521901542
 31
0.0
 12
2007.548860257837
 22
2206.572117002871
 32
0.0
 13
2007.548860257837
 23
2206.572117002871
 33
0.0
  0
MTEXT
  5
14C
330
146
100
AcDbEntity
  8
1
 62
     7
100
AcDbMText
 10
1444.972064792469
 20
2218.572117002871
 30
0.0
 40
42.00000000000001
 41
0.0
 71
     7
 72
     1
  1
1000
  7
CONVERTER_2
 11
0.9999999999970621
 21
2.424068405545307E-6
 31
0.0
 73
     1
 44
0.60024009603842
  0
ENDBLK
  5
14E
330
146
100
AcDbEntity
  8
0
100
AcDbBlockEnd
  0
BLOCK
  5
158
330
151
100
AcDbEntity
  8
0
100
AcDbBlockBegin
  2
*D912
 70
     1
 71
     0
 10
0.0
 20
0.0
 30
0.0
  3
*D912
  1

  0
LINE
  5
152
330
151
100
AcDbEntity
  8
1
  6
Continuous
 62
     2
100
AcDbLine
 10
1614.479322702998
 20
2302.572117002871
 30
0.0
 11
2007.548860257837
 21
2302.572117002871
 31
0.0
  0
LINE
  5
153
330
151
100
AcDbEntity
  8
1
  6
Continuous
 62
     2
100
AcDbLine
 10
1614.479322702998
 20
2422.30470697892
 30
0.0
 11
1614.479322702998
 21
2290.572117002871
 31
0.0
  0
LINE
  5
154
330
151
100
AcDbEntity
  8
1
  6
Continuous
 62
     2
100
AcDbLine
 10
2007.548860257837
 20
2424.140981861445
 30
0.0
 11
2007.548860257837
 21
2290.572117002871
 31
0.0
  0
SOLID
  5
155
330
151
100
AcDbEntity
  8
1
 62
     2
100
AcDbTrace
 10
1656.479322702998
 20
2308.101521901542
 30
0.0
 11
1656.479322702998
 21
2297.0427121042
 31
0.0
 12
1614.479322702998
 22
2302.572117002871
 32
0.0
 13
1614.479322702998
 23
2302.572117002871
 33
0.0
  0
SOLID
  5
156
330
151
100
AcDbEntity
  8
1
 62
     2
100
AcDbTrace
 10
1965.548860257837
 20
2297.0427121042
 30
0.0
 11
1965.548860257837
 21
2308.101521901542
 31
0.0
 12
2007.548860257837
 22
2302.572117002871
 32
0.0
 13
2007.548860257837
 23
2302.572117002871
 33
0.0
  0
MTEXT
  5
157
330
151
100
AcDbEntity
  8
1
 62
     7
100
AcDbMText
 10
1761.06346611685
 20
2314.572117002871
 30
0.0
 40
42.00000000000001
 41
0.0
 71
     7
 72
     1
  1
400
  7
CONVERTER_2
 11
0.9999999999970621
 21
2.424068405545307E-6
 31
0.0
 73
     1
 44
0.60024009603842
  0
ENDBLK
  5
159
330
151
100
AcDbEntity
  8
0
100
AcDbBlockEnd
  0
BLOCK
  5
163
330
15C
100
AcDbEntity
  8
0
100
AcDbBlockBegin
  2
*D1013
 70
     1
 71
     0
 10
0.0
 20
0.0
 30
0.0
  3
*D1013
  1

  0
LINE
  5
15D
330
15C
100
AcDbEntity
  8
1
  6
Continuous
 62
     2
100
AcDbLine
 10
1008.397873148041
 20
2302.572117002871
 30
0.0
 11
1614.479322702998
 21
2302.572117002871
 31
0.0
  0
LINE
  5
15E
330
15C
100
AcDbEntity
  8
1
  6
Continuous
 62
     2
100
AcDbLine
 10
1008.397873148041
 20
2424.141741028794
 30
0.0
 11
1008.397873148041
 21
2290.572117002871
 31
0.0
  0
LINE
  5
15F
330
15C
100
AcDbEntity
  8
1
  6
Continuous
 62
     2
100
AcDbLine
 10
1614.479322702998
 20
2422.30470697892
 30
0.0
 11
1614.479322702998
 21
2290.572117002871
 31
0.0
  0
SOLID
  5
160
330
15C
100
AcDbEntity
  8
1
 62
     2
100
AcDbTrace
 10
1050.397873148041
 20
2308.101521901542
 30
0.0
 11
1050.397873148041
 21
2297.0427121042
 31
0.0
 12
1008.397873148041
 22
2302.572117002871
 32
0.0
 13
1008.397873148041
 23
2302.572117002871
 33
0.0
  0
SOLID
  5
161
330
15C
100
AcDbEntity
  8
1
 62
     2
100
AcDbTrace
 10
1572.479322702998
 20
2297.0427121042
 30
0.0
 11
1572.479322702998
 21
2308.101521901542
 31
0.0
 12
1614.479322702998
 22
2302.572117002871
 32
0.0
 13
1614.479322702998
 23
2302.572117002871
 33
0.0
  0
MTEXT
  5
162
330
15C
100
AcDbEntity
  8
1
 62
     7
100
AcDbMText
 10
1261.035530909319
 20
2314.572117002871
 30
0.0
 40
42.00000000000001
 41
0.0
 71
     7
 72
     1
  1
600
  7
CONVERTER_2
 11
0.9999999999970621
 21
2.424068405545307E-6
 31
0.0
 73
     1
 44
0.60024009603842
  0
ENDBLK
  5
164
330
15C
100
AcDbEntity
  8
0
100
AcDbBlockEnd
  0
BLOCK
  5
16E
330
167
100
AcDbEntity
  8
0
100
AcDbBlockBegin
  2
*D1114
 70
     1
 71
     0
 10
0.0
 20
0.0
 30
0.0
  3
*D1114
  1

  0
LINE
  5
168
330
167
100
AcDbEntity
  8
1
  6
Continuous
 62
     2
100
AcDbLine
 10
1008.439897045278
 20
3016.118769478921
 30
0.0
 11
1312.656150629804
 21
3016.118769478921
 31
0.0
  0
LINE
  5
169
330
167
100
AcDbEntity
  8
1
  6
Continuous
 62
     2
100
AcDbLine
 10
1312.656150629804
 20
2920.360212817178
 30
0.0
 11
1312.656150629804
 21
3028.118769478921
 31
0.0
  0
LINE
  5
16A
330
167
100
AcDbEntity
  8
1
  6
Continuous
 62
     2
100
AcDbLine
 10
1008.439897045278
 20
2884.16876947892
 30
0.0
 11
1008.439897045278
 21
3028.118769478921
 31
0.0
  0
SOLID
  5
16B
330
167
100
AcDbEntity
  8
1
 62
     2
100
AcDbTrace
 10
1050.439897045279
 20
3021.648174377592
 30
0.0
 11
1050.439897045279
 21
3010.58936458025
 31
0.0
 12
1008.439897045278
 22
3016.118769478921
 32
0.0
 13
1008.439897045278
 23
3016.118769478921
 33
0.0
  0
SOLID
  5
16C
330
167
100
AcDbEntity
  8
1
 62
     2
100
AcDbTrace
 10
1270.656150629804
 20
3010.58936458025
 30
0.0
 11
1270.656150629804
 21
3021.648174377592
 31
0.0
 12
1312.656150629804
 22
3016.118769478921
 32
0.0
 13
1312.656150629804
 23
3016.118769478921
 33
0.0
  0
MTEXT
  5
16D
330
167
100
AcDbEntity
  8
1
 62
     7
100
AcDbMText
 10
1109.900140107371
 20
3028.118769478921
 30
0.0
 40
42.00000000000001
 41
0.0
 71
     7
 72
     1
  1
300
  7
CONVERTER_2
 11
0.9999999999970621
 21
2.424068405545307E-6
 31
0.0
 73
     1
 44
0.60024009603842
  0
ENDBLK
  5
16F
330
167
100
AcDbEntity
  8
0
100
AcDbBlockEnd
  0
BLOCK
  5
179
330
172
100
AcDbEntity
  8
0
100
AcDbBlockBegin
  2
*D1215
 70
     1
 71
     0
 10
0.0
 20
0.0
 30
0.0
  3
*D1215
  1

  0
LINE
  5
173
330
172
100
AcDbEntity
  8
1
  6
Continuous
 62
     2
100
AcDbLine
 10
2248.0
 20
2821.252667048364
 30
0.0
 11
2248.0
 21
2659.333179201125
 31
0.0
  0
LINE
  5
174
330
172
100
AcDbEntity
  8
1
  6
Continuous
 62
     2
100
AcDbLine
 10
2044.0
 20
2659.333179201125
 30
0.0
 11
2260.0
 21
2659.333179201125
 31
0.0
  0
LINE
  5
175
330
172
100
AcDbEntity
  8
1
  6
Continuous
 62
     2
100
AcDbLine
 10
1350.656150629804
 20
2821.252667048364
 30
0.0
 11
2260.0
 21
2821.252667048364
 31
0.0
  0
SOLID
  5
176
330
172
100
AcDbEntity
  8
1
 62
     2
100
AcDbTrace
 10
2253.529404898671
 20
2779.252667048364
 30
0.0
 11
2242.470595101329
 21
2779.252667048364
 31
0.0
 12
2248.0
 22
2821.252667048364
 32
0.0
 13
2248.0
 23
2821.252667048364
 33
0.0
  0
SOLID
  5
177
330
172
100
AcDbEntity
  8
1
 62
     2
100
AcDbTrace
 10
2242.470595101329
 20
2701.333179201125
 30
0.0
 11
2253.529404898671
 21
2701.333179201125
 31
0.0
 12
2248.0
 22
2659.333179201125
 32
0.0
 13
2248.0
 23
2659.333179201125
 33
0.0
  0
MTEXT
  5
178
330
172
100
AcDbEntity
  8
1
 62
     7
100
AcDbMText
 10
2236.0
 20
2696.192923124744
 30
0.0
 40
42.00000000000001
 41
0.0
 71
     7
 72
     1
  1
165
  7
CONVERTER_2
 11
0.0
 21
1.0
 31
0.0
 73
     1
 44
0.60024009603842
  0
ENDBLK
  5
17A
330
172
100
AcDbEntity
  8
0
100
AcDbBlockEnd
  0
BLOCK
  5
182
330
17D
100
AcDbEntity
  8
0
100
AcDbBlockBegin
  2
*D1316
 70
     1
 71
     0
 10
0.0
 20
0.0
 30
0.0
  3
*D1316
  1

  0
LINE
  5
17E
330
17D
100
AcDbEntity
  8
1
  6
Continuous
 62
     2
100
AcDbLine
 10
1254.673394572508
 20
2763.269910991066
 30
0.0
 11
1483.885716526893
 21
2992.482232945461
 31
0.0
  0
SOLID
  5
17F
330
17D
100
AcDbEntity
  8
1
 62
     2
100
AcDbTrace
 10
1351.879784582401
 20
2868.296060400525
 30
0.0
 11
1359.699543981955
 21
2860.476301000974
 31
0.0
 12
1326.091179472348
 22
2834.68769589091
 32
0.0
 13
1326.091179472348
 23
2834.68769589091
 33
0.0
  0
SOLID
  5
180
330
17D
100
AcDbEntity
  8
1
 62
     2
100
AcDbTrace
 10
1273.432516677206
 20
2774.209273696205
 30
0.0
 11
1265.612757277653
 21
2782.029033095756
 31
0.0
 12
1299.221121787259
 22
2807.81763820582
 32
0.0
 13
1299.221121787259
 23
2807.81763820582
 33
0.0
  0
MTEXT
  5
181
330
17D
100
AcDbEntity
  8
1
 62
     7
100
AcDbMText
 10
1382.147192849774
 20
2907.714272016816
 30
0.0
 40
42.0
 41
0.0
 71
     7
 72
     1
  1
\C7;{\Fgdt;n}\C7;38
  7
CONVERTER_2
 11
0.7071067811865323
 21
0.7071067811865628
 31
0.0
 73
     1
 44
0.60024009603842
  0
ENDBLK
  5
183
330
17D
100
AcDbEntity
  8
0
100
AcDbBlockEnd
  0
BLOCK
  5
18A
330
185
100
AcDbEntity
  8
0
100
AcDbBlockBegin
  2
*D1417
 70
     1
 71
     0
 10
0.0
 20
0.0
 30
0.0
  3
*D1417
  1

  0
LINE
  5
186
330
185
100
AcDbEntity
  8
1
  6
Continuous
 62
     2
100
AcDbLine
 10
1399.69170371014
 20
2709.583179201126
 30
0.0
 11
1119.978086547271
 21
2548.09044703614
 31
0.0
  0
SOLID
  5
187
330
185
100
AcDbEntity
  8
1
 62
     2
100
AcDbTrace
 10
1246.571833478276
 20
2614.794574091069
 30
0.0
 11
1241.042428579605
 21
2624.371784311187
 31
0.0
 12
1280.180197987888
 22
2640.583179201126
 32
0.0
 13
1280.180197987888
 23
2640.583179201126
 33
0.0
  0
SOLID
  5
188
330
185
100
AcDbEntity
  8
1
 62
     2
100
AcDbTrace
 10
1378.740467781333
 20
2703.871784311183
 30
0.0
 11
1384.269872680003
 21
2694.294574091065
 31
0.0
 12
1345.132103271721
 22
2678.083179201126
 32
0.0
 13
1345.132103271721
 23
2678.083179201126
 33
0.0
  0
MTEXT
  5
189
330
185
100
AcDbEntity
  8
1
 62
     7
100
AcDbMText
 10
1097.973937085335
 20
2549.242751881553
 30
0.0
 40
42.0
 41
0.0
 71
     7
 72
     1
  1
\C7;{\Fgdt;n}\C7;75
  7
CONVERTER_2
 11
0.866025403784439
 21
0.4999999999999994
 31
0.0
 73
     1
 44
0.60024009603842
  0
ENDBLK
  5
18B
330
185
100
AcDbEntity
  8
0
100
AcDbBlockEnd
  0
BLOCK
  5
192
330
18D
100
AcDbEntity
  8
0
100
AcDbBlockBegin
  2
*D1518
 70
     1
 71
     0
 10
0.0
 20
0.0
 30
0.0
  3
*D1518
  1

  0
LINE
  5
18E
330
18D
100
AcDbEntity
  8
1
  6
Continuous
 62
     2
100
AcDbLine
 10
1355.656150629804
 20
2733.811363926587
 30
0.0
 11
1209.142577703698
 21
2480.042411620124
 31
0.0
  0
SOLID
  5
18F
330
18D
100
AcDbEntity
  8
1
 62
     2
100
AcDbTrace
 10
1284.944755739865
 20
2600.276825505801
 30
0.0
 11
1275.367545519747
 21
2605.806230404471
 31
0.0
 12
1301.156150629804
 22
2639.414594914083
 32
0.0
 13
1301.156150629804
 23
2639.414594914083
 33
0.0
  0
SOLID
  5
190
330
18D
100
AcDbEntity
  8
1
 62
     2
100
AcDbTrace
 10
1340.367545519743
 20
2718.38953289645
 30
0.0
 11
1349.944755739861
 21
2712.86012799778
 31
0.0
 12
1324.156150629804
 22
2679.251763488167
 32
0.0
 13
1324.156150629804
 23
2679.251763488167
 33
0.0
  0
MTEXT
  5
191
330
18D
100
AcDbEntity
  8
1
 62
     7
100
AcDbMText
 10
1189.510272858285
 20
2470.038262158188
 30
0.0
 40
42.0
 41
0.0
 71
     7
 72
     1
  1
\C7;{\Fgdt;n}\C7;46
  7
CONVERTER_2
 11
0.5000000000000003
 21
0.8660254037844385
 31
0.0
 73
     1
 44
0.60024009603842
  0
ENDBLK
  5
193
330
18D
100
AcDbEntity
  8
0
100
AcDbBlockEnd
  0
ENDSEC
  0
SECTION
  2
ENTITIES
  0
INSERT
  5
3C
330
1F
100
AcDbEntity
  8
0
100
AcDbBlockReference
  2
K475NJV-2T_V2261-X2-13_S
 10
11997.885329305
 20
2605.624836751416
 30
0.0
  0
INSERT
  5
3D
330
1F
100
AcDbEntity
  8
1
100
AcDbBlockReference
  2
_J__A4
 10
0.0
 20
0.0
 30
0.0
 41
12.0
 42
12.0
 43
12.0
  0
LINE
  5
A7
330
1F
100
AcDbEntity
  8
1
  6
DASH_CENTER
 62
     2
100
AcDbLine
 10
613.1696836906644
 20
1381.756959522003
 30
0.0
 11
613.1696836906635
 21
1607.998018549779
 31
0.0
  0
LINE
  5
A8
330
1F
100
AcDbEntity
  8
1
  6
PHANTOM
 62
     4
100
AcDbLine
 10
1347.744465512176
 20
1417.136711076571
 30
0.0
 11
1347.844465512176
 21
1417.136711076571
 31
0.0
  0
LINE
  5
A9
330
1F
100
AcDbEntity
  8
1
  6
PHANTOM
 62
     4
100
AcDbLine
 10
1347.794465512176
 20
1417.086711076572
 30
0.0
 11
1347.794465512176
 21
1417.186711076572
 31
0.0
  0
LINE
  5
AA
330
1F
100
AcDbEntity
  8
1
  6
PHANTOM
 62
     4
100
AcDbLine
 10
2008.33904993536
 20
1432.00036229978
 30
0.0
 11
2008.439049935361
 21
1432.00036229978
 31
0.0
  0
LINE
  5
AB
330
1F
100
AcDbEntity
  8
1
  6
PHANTOM
 62
     4
100
AcDbLine
 10
2008.38904993536
 20
1431.95036229978
 30
0.0
 11
2008.38904993536
 21
1432.050362299779
 31
0.0
  0
LINE
  5
AC
330
1F
100
AcDbEntity
  8
1
  6
PHANTOM
 62
     4
100
AcDbLine
 10
2007.637013975052
 20
1482.000569121409
 30
0.0
 11
2007.737013975052
 21
1482.000569121409
 31
0.0
  0
LINE
  5
AD
330
1F
100
AcDbEntity
  8
1
  6
PHANTOM
 62
     4
100
AcDbLine
 10
2007.687013975052
 20
1481.950569121408
 30
0.0
 11
2007.687013975052
 21
1482.050569121408
 31
0.0
  0
LINE
  5
AE
330
1F
100
AcDbEntity
  8
1
  6
PHANTOM
 62
     4
100
AcDbLine
 10
1615.109770070901
 20
1571.998018549779
 30
0.0
 11
1615.2097700709
 21
1571.99801854978
 31
0.0
  0
LINE
  5
AF
330
1F
100
AcDbEntity
  8
1
  6
PHANTOM
 62
     4
100
AcDbLine
 10
1615.1597700709
 20
1571.94801854978
 30
0.0
 11
1615.1597700709
 21
1572.04801854978
 31
0.0
  0
LINE
  5
B0
330
1F
100
AcDbEntity
  8
1
  6
PHANTOM
 62
     4
100
AcDbLine
 10
1009.872663016449
 20
1571.94801854978
 30
0.0
 11
1009.872663016449
 21
1572.04801854978
 31
0.0
  0
LINE
  5
B1
330
1F
100
AcDbEntity
  8
1
  6
PHANTOM
 62
     4
100
AcDbLine
 10
1009.822663016449
 20
1571.998018549779
 30
0.0
 11
1009.922663016449
 21
1571.998018549779
 31
0.0
  0
LINE
  5
B2
330
1F
100
AcDbEntity
  8
1
  6
PHANTOM
 62
     4
100
AcDbLine
 10
2007.498860257837
 20
2424.190981861445
 30
0.0
 11
2007.598860257837
 21
2424.190981861445
 31
0.0
  0
LINE
  5
B3
330
1F
100
AcDbEntity
  8
1
  6
PHANTOM
 62
     4
100
AcDbLine
 10
2007.548860257837
 20
2424.140981861443
 30
0.0
 11
2007.548860257837
 21
2424.240981861445
 31
0.0
  0
LINE
  5
B4
330
1F
100
AcDbEntity
  8
1
  6
PHANTOM
 62
     4
100
AcDbLine
 10
1614.429322702998
 20
2422.354706978919
 30
0.0
 11
1614.529322702998
 21
2422.354706978919
 31
0.0
  0
LINE
  5
B5
330
1F
100
AcDbEntity
  8
1
  6
PHANTOM
 62
     4
100
AcDbLine
 10
1614.479322702998
 20
2422.30470697892
 30
0.0
 11
1614.479322702998
 21
2422.40470697892
 31
0.0
  0
LINE
  5
B6
330
1F
100
AcDbEntity
  8
1
  6
PHANTOM
 62
     4
100
AcDbLine
 10
1008.397873148041
 20
2424.141741028794
 30
0.0
 11
1008.397873148041
 21
2424.241741028794
 31
0.0
  0
LINE
  5
B7
330
1F
100
AcDbEntity
  8
1
  6
PHANTOM
 62
     4
100
AcDbLine
 10
1008.347873148041
 20
2424.191741028793
 30
0.0
 11
1008.447873148041
 21
2424.191741028793
 31
0.0
  0
LINE
  5
B8
330
1F
100
AcDbEntity
  8
1
  6
PHANTOM
 62
     4
100
AcDbLine
 10
1008.389897045279
 20
2884.118769478921
 30
0.0
 11
1008.489897045279
 21
2884.118769478921
 31
0.0
  0
LINE
  5
B9
330
1F
100
AcDbEntity
  8
1
  6
PHANTOM
 62
     4
100
AcDbLine
 10
1008.439897045279
 20
2884.06876947892
 30
0.0
 11
1008.439897045279
 21
2884.16876947892
 31
0.0
  0
LINE
  5
BA
330
1F
100
AcDbEntity
  8
1
  6
DASH_CENTER
 62
     2
100
AcDbLine
 10
1312.656150629803
 20
1334.005180008112
 30
0.0
 11
1312.656150629804
 21
1607.998018549779
 31
0.0
  0
LINE
  5
BB
330
1F
100
AcDbEntity
  8
1
  6
DASH_CENTER
 62
     2
100
AcDbLine
 10
1312.656150629804
 20
2920.360212817178
 30
0.0
 11
1312.656150629804
 21
2386.572117002871
 31
0.0
  0
LINE
  5
BC
330
1F
100
AcDbEntity
  8
1
  6
DASH_CENTER
 62
     2
100
AcDbLine
 10
971.9441295849383
 20
2659.333179201125
 30
0.0
 11
1335.656150629804
 21
2659.333179201125
 31
0.0
  0
LINE
  5
BD
330
1F
100
AcDbEntity
  8
0
  6
PHANTOM
 62
     5
100
AcDbLine
 10
1480.54529993536
 20
1522.030353619224
 30
0.0
 11
1424.580412782582
 21
1522.030353619224
 31
0.0
  0
LINE
  5
BE
330
1F
100
AcDbEntity
  8
0
  6
PHANTOM
 62
     5
100
AcDbLine
 10
1144.772513477027
 20
1522.030353619224
 30
0.0
 11
1200.74842493536
 21
1522.030353619224
 31
0.0
  0
LINE
  5
BF
330
1F
100
AcDbEntity
  8
0
  6
PHANTOM
 62
     5
100
AcDbLine
 10
1172.774249588138
 20
1538.798322369224
 30
0.0
 11
1172.774249588138
 21
1505.256872716447
 31
0.0
  0
LINE
  5
C0
330
1F
100
AcDbEntity
  8
0
  6
PHANTOM
 62
     5
100
AcDbLine
 10
1452.56561243536
 20
1538.798322369224
 30
0.0
 11
1452.56561243536
 21
1505.256872716447
 31
0.0
  0
LINE
  5
C1
330
1F
100
AcDbEntity
  8
0
  6
Continuous
 62
     7
100
AcDbLine
 10
2007.970126324248
 20
2884.11876947892
 30
0.0
 11
1407.96678431036
 21
2884.11876947892
 31
0.0
  0
LINE
  5
C2
330
1F
100
AcDbEntity
  8
1
  6
DASH_CENTER
 62
     2
100
AcDbLine
 10
1274.656150629803
 20
2821.252667048364
 30
0.0
 11
1350.656150629804
 21
2821.252667048364
 31
0.0
  0
LINE
  5
C3
330
1F
100
AcDbEntity
  8
1
  6
DASH_CENTER
 62
     2
100
AcDbLine
 10
1335.656150629804
 20
2659.333179201125
 30
0.0
 11
1350.156150629804
 21
2659.333179201125
 31
0.0
  0
LINE
  5
C4
330
1F
100
AcDbEntity
  8
1
  6
DASH_CENTER
 62
     2
100
AcDbLine
 10
1350.156150629804
 20
2659.333179201125
 30
0.0
 11
2044.0
 21
2659.333179201125
 31
0.0
  0
CIRCLE
  5
C5
330
1F
100
AcDbEntity
  8
1
  6
Continuous
 62
     7
100
AcDbCircle
 10
1312.656150629804
 20
2821.252667048364
 30
0.0
 40
19.0
  0
CIRCLE
  5
C6
330
1F
100
AcDbEntity
  8
1
  6
Continuous
 62
     7
100
AcDbCircle
 10
1312.656150629804
 20
2659.333179201125
 30
0.0
 40
23.0
  0
CIRCLE
  5
C7
330
1F
100
AcDbEntity
  8
1
  6
Continuous
 62
     7
100
AcDbCircle
 10
1312.656150629804
 20
2659.333179201125
 30
0.0
 40
23.0
  0
CIRCLE
  5
C8
330
1F
100
AcDbEntity
  8
1
  6
Continuous
 62
     7
100
AcDbCircle
 10
1312.656150629804
 20
2659.333179201125
 30
0.0
 40
37.5
  0
SPLINE
  5
C9
330
1F
100
AcDbEntity
  8
0
  6
Continuous
 62
     7
100
AcDbSpline
210
0.0
220
0.0
230
1.0
 70
     8
 71
     3
 72
    28
 73
    24
 74
    22
 42
0.0000000001
 43
0.0000000001
 44
0.00000001
 40
0.0
 40
0.0
 40
0.0
 40
0.0
 40
1.893044115521088
 40
6.0577411696678
 40
10.22243822381451
 40
12.1154823393356
 40
14.32895659131196
 40
16.5393814021628
 40
19.28897670516846
 40
26.53790977672895
 40
36.78640136065928
 40
48.53467220077448
 40
60.28294304088979
 40
70.53143462482001
 40
77.7803676963805
 40
80.52996299938616
 40
82.74230804461843
 40
84.95491573252765
 40
86.13828525537204
 40
88.33597151208295
 40
89.51934103492711
 40
95.41741550144769
 40
101.3219463933852
 40
101.3219463933852
 40
101.3219463933852
 40
101.3219463933852
 10
648.7671663295537
 20
1432.683869244226
 30
0.0
 10
648.7338093319506
 20
1432.053627128781
 30
0.0
 10
648.6270669396207
 20
1430.036852359358
 30
0.0
 10
648.4795252833067
 20
1426.637522763109
 30
0.0
 10
648.201639104022
 20
1423.222281858249
 30
0.0
 10
648.2572354040451
 20
1420.493163747569
 30
0.0
 10
647.4578326351282
 20
1418.30609777274
 30
0.0
 10
644.9471642512049
 20
1417.574376279345
 30
0.0
 10
640.9323698568911
 20
1417.910316806397
 30
0.0
 10
634.1452193600142
 20
1417.67607186175
 30
0.0
 10
624.4141549008411
 20
1417.787483496293
 30
0.0
 10
613.1612856691822
 20
1417.740693669781
 30
0.0
 10
601.9091620529549
 20
1417.787345973052
 30
0.0
 10
592.1763239809045
 20
1417.676484626541
 30
0.0
 10
585.3929021802735
 20
1417.909527916378
 30
0.0
 10
581.3721280550136
 20
1417.575263235443
 30
0.0
 10
578.8726869835045
 20
1418.303684230009
 30
0.0
 10
578.1256303248786
 20
1420.251490474439
 30
0.0
 10
578.1391773364402
 20
1422.100081745654
 30
0.0
 10
578.0103604151675
 20
1423.626928944403
 30
0.0
 10
577.9487253493933
 20
1426.699516018751
 30
0.0
 10
576.0564334558712
 20
1431.321499193495
 30
0.0
 10
572.0148754299482
 20
1432.22958031026
 30
0.0
 10
569.9929909823318
 20
1432.683869244226
 30
0.0
 11
648.7671663295537
 21
1432.683869244226
 31
0.0
 11
648.6689811081994
 21
1430.793373096222
 31
0.0
 11
648.4529736212201
 21
1426.634281570614
 31
0.0
 11
648.2369661342407
 21
1422.475190045006
 31
0.0
 11
648.1387809128864
 21
1420.584693897002
 31
0.0
 11
647.2099831698316
 21
1418.575514209503
 31
0.0
 11
645.1567062601098
 21
1417.756959522003
 31
0.0
 11
642.4071109571041
 21
1417.756959522003
 31
0.0
 11
635.1581778855436
 21
1417.756959522003
 31
0.0
 11
624.9096863016133
 21
1417.756959522003
 31
0.0
 11
613.1614154614981
 21
1417.756959522003
 31
0.0
 11
601.4131446213828
 21
1417.756959522003
 31
0.0
 11
591.1646530374526
 21
1417.756959522003
 31
0.0
 11
583.9157199658921
 21
1417.756959522003
 31
0.0
 11
581.1661246628864
 21
1417.756959522003
 31
0.0
 11
579.1107806958737
 21
1418.575514209503
 31
0.0
 11
578.1840500101098
 21
1420.584693897002
 31
0.0
 11
578.1240287909735
 21
1421.766540283319
 31
0.0
 11
578.0125608125778
 21
1423.961397857907
 31
0.0
 11
577.9525395934415
 21
1425.143244244224
 31
0.0
 11
575.4775829962198
 21
1430.496922629642
 31
0.0
 11
569.9929909823318
 21
1432.683869244226
 31
0.0
  0
SPLINE
  5
CA
330
1F
100
AcDbEntity
  8
0
  6
Continuous
 62
     7
100
AcDbSpline
210
0.0
220
0.0
230
1.0
 70
    11
 71
     3
 72
    81
 73
    77
 74
    75
 42
0.0000000001
 43
0.0000000001
 44
0.00000001
 40
0.0
 40
0.0
 40
0.0
 40
0.0
 40
1.951721634321657
 40
5.576347526633129
 40
7.528069160954682
 40
10.54435522601036
 40
18.81481701729206
 40
31.17185992897168
 40
46.44788935522134
 40
63.47531069021292
 40
81.08652932811856
 40
98.11395066311015
 40
113.3899800893598
 40
125.7470230010396
 40
134.0174847923213
 40
137.0337708573768
 40
142.3093228210546
 40
147.5875824311848
 40
150.5370371149543
 40
158.9985874372437
 40
172.3920128045248
 40
190.1370926232689
 40
211.6536062999476
 40
236.3613332410326
 40
263.6800528529958
 40
293.0295445423081
 40
323.8295877154416
 40
355.4999617788678
 40
387.4604461390582
 40
419.1308202024841
 40
449.9308633756178
 40
479.2803550649302
 40
506.5990746768933
 40
531.3068016179784
 40
552.8233152946571
 40
570.5683951134013
 40
583.9618204806823
 40
592.4233708029718
 40
595.3728254867413
 40
597.6565015099591
 40
599.941668845738
 40
602.5653451112504
 40
609.8190383159027
 40
620.7767450718667
 40
634.5124619913144
 40
650.1001856864183
 40
666.6139127693497
 40
683.1276398522811
 40
698.7153635473848
 40
712.4510804668324
 40
723.4087872227964
 40
730.6624804274485
 40
733.2861566929611
 40
735.5658139402104
 40
737.8466804049051
 40
740.8114204353417
 40
749.3168221620047
 40
762.7796580379227
 40
780.6167005161242
 40
802.2447220496383
 40
827.0804950914938
 40
854.5407920947196
 40
884.0423855123449
 40
915.0020477973977
 40
946.8365514029072
 40
978.9626687819024
 40
1010.797172387412
 40
1041.756834672465
 40
1071.25842809009
 40
1098.718725093316
 40
1123.554498135171
 40
1145.182519668685
 40
1163.019562146887
 40
1176.482398022805
 40
1184.987799749468
 40
1187.952539779905
 40
1187.952539779905
 40
1187.952539779905
 40
1187.952539779905
 10
842.3539718851098
 20
1432.683869244226
 30
0.0
 10
842.9596130193506
 20
1432.936232199276
 30
0.0
 10
844.690016260039
 20
1433.657269213705
 30
0.0
 10
846.7520790879562
 20
1434.807454167011
 30
0.0
 10
850.0679776275453
 20
1435.499414096158
 30
0.0
 10
848.4266677763644
 20
1440.920922375633
 30
0.0
 10
849.4695622070476
 20
1448.039318111953
 30
0.0
 10
848.6705319898114
 20
1460.386170435239
 30
0.0
 10
848.6312223338842
 20
1475.12837638664
 30
0.0
 10
848.2712696897377
 20
1491.809394114195
 30
0.0
 10
847.9876079503196
 20
1509.016277378792
 30
0.0
 10
847.7032610903084
 20
1525.653797988872
 30
0.0
 10
847.4096758393854
 20
1540.542292422736
 30
0.0
 10
847.2941679460673
 20
1552.495904319242
 30
0.0
 10
846.9695170253393
 20
1560.40106897124
 30
0.0
 10
847.1834524404999
 20
1565.879343881154
 30
0.0
 10
845.527816134678
 20
1570.613681064016
 30
0.0
 10
840.7868688655397
 20
1572.1829565949
 30
0.0
 10
835.2705349820953
 20
1571.877066212359
 30
0.0
 10
826.9727989747628
 20
1572.070675614088
 30
0.0
 10
813.7886524104879
 20
1571.966833378264
 30
0.0
 10
796.2304588377529
 20
1572.009494555545
 30
0.0
 10
774.9096955826719
 20
1571.994161829127
 30
0.0
 10
750.3945997281165
 20
1571.99923732645
 30
0.0
 10
723.2695295118321
 20
1571.997650711894
 30
0.0
 10
694.1133720462253
 20
1571.998125356338
 30
0.0
 10
663.5067569084853
 20
1571.99798927991
 30
0.0
 10
632.0297830614718
 20
1571.998023328018
 30
0.0
 10
600.2627100812676
 20
1571.99802943366
 30
0.0
 10
568.78573175533
 20
1571.997971350772
 30
0.0
 10
538.1791337583004
 20
1571.99818785695
 30
0.0
 10
509.0229166741884
 20
1571.997436155037
 30
0.0
 10
481.8980457066815
 20
1571.999948066813
 30
0.0
 10
457.382312475037
 20
1571.991912784655
 30
0.0
 10
436.0634746900183
 20
1572.016186774289
 30
0.0
 10
418.4999237652307
 20
1571.948647785009
 30
0.0
 10
405.328817614924
 20
1572.113045488855
 30
0.0
 10
397.0067683142031
 20
1571.806533010442
 30
0.0
 10
392.5117605988335
 20
1572.20390958341
 30
0.0
 10
389.8648964214381
 20
1571.403510693303
 30
0.0
 10
389.0914688653032
 20
1568.864693301193
 30
0.0
 10
389.4263308861143
 20
1564.871696047897
 30
0.0
 10
389.1836194124886
 20
1557.882326184874
 30
0.0
 10
389.3066372267666
 20
1547.255758678856
 30
0.0
 10
389.2596980346314
 20
1533.820158227881
 30
0.0
 10
389.275344444857
 20
1518.543850184818
 30
0.0
 10
389.2695980570765
 20
1502.338188335757
 30
0.0
 10
389.2753444768801
 20
1486.132523453603
 30
0.0
 10
389.2596979207679
 20
1470.856223669135
 30
0.0
 10
389.3066375668778
 20
1457.420598442395
 30
0.0
 10
389.1836185596351
 20
1446.794095868479
 30
0.0
 10
389.4263323874188
 20
1439.80459789583
 30
0.0
 10
389.091618825209
 20
1435.81358629018
 30
0.0
 10
389.8630700558578
 20
1433.277497381227
 30
0.0
 10
392.5125694670529
 20
1432.476687296724
 30
0.0
 10
397.0257245466131
 20
1432.876951825499
 30
0.0
 10
405.3911655431143
 20
1432.567882948909
 30
0.0
 10
418.630388856266
 20
1432.733651774789
 30
0.0
 10
436.2850196847397
 20
1432.665549491365
 30
0.0
 10
457.7143200376426
 20
1432.690025934929
 30
0.0
 10
482.3571112753397
 20
1432.681923626261
 30
0.0
 10
509.6225528760529
 20
1432.684456531549
 30
0.0
 10
538.929870674382
 20
1432.683698380064
 30
0.0
 10
569.6950851902531
 20
1432.683917412863
 30
0.0
 10
601.3351904240931
 20
1432.683856047725
 30
0.0
 10
633.2668956762683
 20
1432.683872761739
 30
0.0
 10
664.9069908797729
 20
1432.683868332368
 30
0.0
 10
695.6722437814412
 20
1432.683869473662
 30
0.0
 10
724.9794280669937
 20
1432.683869188419
 30
0.0
 10
752.2453158757687
 20
1432.683869257257
 30
0.0
 10
776.8866797381047
 20
1432.68386924134
 30
0.0
 10
798.320292088682
 20
1432.68386924482
 30
0.0
 10
815.9629253846831
 20
1432.683869244117
 30
0.0
 10
829.231352078256
 20
1432.683869244242
 30
0.0
 10
837.5423446225975
 20
1432.683869244225
 30
0.0
 10
841.3657252082976
 20
1432.683869244225
 30
0.0
 10
842.3539718851098
 20
1432.683869244226
 30
0.0
 11
842.3539718851098
 21
1432.683869244226
 31
0.0
 11
844.1460339993073
 21
1433.45699970976
 31
0.0
 11
847.4741493542452
 21
1434.892813431467
 31
0.0
 11
849.2662114684426
 21
1435.665943897001
 31
0.0
 11
849.2135747578448
 21
1438.681770649808
 31
0.0
 11
849.0692482933029
 21
1446.950973036537
 31
0.0
 11
848.8536075756928
 21
1459.306134249649
 31
0.0
 11
848.5870281058914
 21
1474.579837481608
 31
0.0
 11
848.2898853847753
 21
1491.604665924873
 31
0.0
 11
847.9825549132208
 21
1509.213202771907
 31
0.0
 11
847.6854121921047
 21
1526.238031215172
 31
0.0
 11
847.4188327223033
 21
1541.511734447131
 31
0.0
 11
847.2031920046934
 21
1553.866895660243
 31
0.0
 11
847.0588655401512
 21
1562.136098046972
 31
0.0
 11
847.0062288295535
 21
1565.151924799779
 31
0.0
 11
844.9240131177484
 21
1569.999174148737
 31
0.0
 11
840.0388677184428
 21
1571.998018549779
 31
0.0
 11
837.0894130346734
 21
1571.998018549779
 31
0.0
 11
828.6278627123839
 21
1571.998018549779
 31
0.0
 11
815.2344373451028
 21
1571.998018549779
 31
0.0
 11
797.4893575263587
 21
1571.998018549779
 31
0.0
 11
775.9728438496801
 21
1571.998018549779
 31
0.0
 11
751.265116908595
 21
1571.998018549779
 31
0.0
 11
723.9463972966319
 21
1571.998018549779
 31
0.0
 11
694.5969056073195
 21
1571.998018549779
 31
0.0
 11
663.7968624341861
 21
1571.998018549779
 31
0.0
 11
632.1264883707598
 21
1571.998018549779
 31
0.0
 11
600.1660040105695
 21
1571.998018549779
 31
0.0
 11
568.4956299471436
 21
1571.998018549779
 31
0.0
 11
537.6955867740098
 21
1571.998018549779
 31
0.0
 11
508.3460950846975
 21
1571.998018549779
 31
0.0
 11
481.0273754727344
 21
1571.998018549779
 31
0.0
 11
456.3196485316493
 21
1571.998018549779
 31
0.0
 11
434.8031348549706
 21
1571.998018549779
 31
0.0
 11
417.0580550362264
 21
1571.998018549779
 31
0.0
 11
403.6646296689455
 21
1571.998018549779
 31
0.0
 11
395.2030793466559
 21
1571.998018549779
 31
0.0
 11
392.2536246628865
 21
1571.998018549779
 31
0.0
 11
390.1445372062905
 21
1571.122275277211
 31
0.0
 11
389.2715500101106
 21
1569.010431744224
 31
0.0
 11
389.2715500101106
 21
1566.386755478712
 31
0.0
 11
389.2715500101106
 21
1559.133062274059
 31
0.0
 11
389.2715500101107
 21
1548.175355518095
 31
0.0
 11
389.2715500101106
 21
1534.439638598648
 31
0.0
 11
389.2715500101106
 21
1518.851914903544
 31
0.0
 11
389.2715500101106
 21
1502.338187820612
 31
0.0
 11
389.2715500101107
 21
1485.824460737681
 31
0.0
 11
389.2715500101107
 21
1470.236737042577
 31
0.0
 11
389.2715500101107
 21
1456.50102012313
 31
0.0
 11
389.2715500101106
 21
1445.543313367166
 31
0.0
 11
389.2715500101106
 21
1438.289620162514
 31
0.0
 11
389.2715500101106
 21
1435.665943897001
 31
0.0
 11
390.1417811299021
 21
1433.558923497697
 31
0.0
 11
392.2481125101106
 21
1432.683869244226
 31
0.0
 11
395.2128525405473
 21
1432.683869244226
 31
0.0
 11
403.7182542672102
 21
1432.683869244226
 31
0.0
 11
417.1810901431281
 21
1432.683869244226
 31
0.0
 11
435.0181326213296
 21
1432.683869244226
 31
0.0
 11
456.6461541548438
 21
1432.683869244226
 31
0.0
 11
481.4819271966994
 21
1432.683869244226
 31
0.0
 11
508.9422241999251
 21
1432.683869244226
 31
0.0
 11
538.4438176175504
 21
1432.683869244226
 31
0.0
 11
569.4034799026032
 21
1432.683869244226
 31
0.0
 11
601.2379835081126
 21
1432.683869244226
 31
0.0
 11
633.3641008871078
 21
1432.683869244226
 31
0.0
 11
665.1986044926173
 21
1432.683869244226
 31
0.0
 11
696.15826677767
 21
1432.683869244226
 31
0.0
 11
725.6598601952953
 21
1432.683869244226
 31
0.0
 11
753.1201571985212
 21
1432.683869244226
 31
0.0
 11
777.9559302403766
 21
1432.683869244226
 31
0.0
 11
799.5839517738907
 21
1432.683869244226
 31
0.0
 11
817.4209942520922
 21
1432.683869244226
 31
0.0
 11
830.8838301280101
 21
1432.683869244226
 31
0.0
 11
839.389231854673
 21
1432.683869244226
 31
0.0
 11
842.3539718851098
 21
1432.683869244226
 31
0.0
  0
SPLINE
  5
CB
330
1F
100
AcDbEntity
  8
0
  6
Continuous
 62
     7
100
AcDbSpline
210
0.0
220
0.0
230
1.0
 70
     8
 71
     3
 72
    27
 73
    23
 74
    21
 42
0.0000000001
 43
0.0000000001
 44
0.00000001
 40
0.0
 40
0.0
 40
0.0
 40
0.0
 40
1.886163232346552
 40
6.035722343509365
 40
10.18528145467196
 40
12.07144468701874
 40
14.2752515621922
 40
16.47890332845008
 40
19.23915689561612
 40
26.51618902723475
 40
36.80440686848918
 40
48.59821756456084
 40
60.39202826063318
 40
70.68024610188739
 40
77.95727823350624
 40
80.71753180067206
 40
82.95902275701519
 40
85.16428270951433
 40
87.05049097202962
 40
91.20014914956295
 40
95.34980732709629
 40
97.23601558961158
 40
97.23601558961158
 40
97.23601558961158
 40
97.23601558961158
 10
1276.926376324249
 20
1432.00036229978
 30
0.0
 10
1276.959735523077
 20
1431.372418106499
 30
0.0
 10
1277.066484959328
 20
1429.362996688002
 30
0.0
 10
1277.213924390745
 20
1425.976014086451
 30
0.0
 10
1277.492164791182
 20
1422.57336731624
 30
0.0
 10
1277.435884118795
 20
1419.854442852451
 30
0.0
 10
1278.237323084244
 20
1417.676514320459
 30
0.0
 10
1280.747133203406
 20
1416.9522148226
 30
0.0
 10
1284.771691215798
 20
1417.287197371855
 30
0.0
 10
1291.585665389064
 20
1417.05334116691
 30
0.0
 10
1301.354276888051
 20
1417.164486764193
 30
0.0
 10
1312.650524630653
 20
1417.118166131182
 30
0.0
 10
1323.94742638434
 20
1417.16330154649
 30
0.0
 10
1333.714482171853
 20
1417.056898501179
 30
0.0
 10
1340.531726943574
 20
1417.280398474344
 30
0.0
 10
1344.564026593826
 20
1416.959303751801
 30
0.0
 10
1347.09905265911
 20
1417.661965946426
 30
0.0
 10
1347.910041120079
 20
1419.854087442696
 30
0.0
 10
1347.854060145018
 20
1422.573303110372
 30
0.0
 10
1348.13433222013
 20
1425.976036938287
 30
0.0
 10
1348.283183022279
 20
1429.362994415801
 30
0.0
 10
1348.390860723251
 20
1431.3724175655
 30
0.0
 10
1348.424510004805
 20
1432.00036229978
 30
0.0
 11
1276.926376324249
 21
1432.00036229978
 31
0.0
 11
1277.024561545603
 21
1430.116756342749
 31
0.0
 11
1277.240569032583
 21
1425.97282323728
 31
0.0
 11
1277.456576519562
 21
1421.828890131811
 31
0.0
 11
1277.554761740916
 21
1419.945284174779
 31
0.0
 11
1278.482870464874
 21
1417.946439773737
 31
0.0
 11
1280.531324240916
 21
1417.134086258112
 31
0.0
 11
1283.291577808082
 21
1417.134086258112
 31
0.0
 11
1290.568609939701
 21
1417.134086258112
 31
0.0
 11
1300.856827780955
 21
1417.134086258112
 31
0.0
 11
1312.650638477027
 21
1417.134086258112
 31
0.0
 11
1324.444449173099
 21
1417.134086258112
 31
0.0
 11
1334.732667014353
 21
1417.134086258112
 31
0.0
 11
1342.009699145972
 21
1417.134086258112
 31
0.0
 11
1344.769952713138
 21
1417.134086258112
 31
0.0
 11
1346.859058615915
 21
1417.946439773738
 31
0.0
 11
1347.79061243536
 21
1419.945284174779
 31
0.0
 11
1347.889658930586
 21
1421.828890131811
 31
0.0
 11
1348.107561220082
 21
1425.97282323728
 31
0.0
 11
1348.325463509579
 21
1430.116756342748
 31
0.0
 11
1348.424510004805
 21
1432.00036229978
 31
0.0
  0
SPLINE
  5
CC
330
1F
100
AcDbEntity
  8
0
  6
PHANTOM
 62
     5
100
AcDbSpline
210
0.0
220
0.0
230
1.0
 70
    11
 71
     3
 72
    19
 73
    15
 74
    13
 42
0.0000000001
 43
0.0000000001
 44
0.00000001
 40
0.0
 40
0.0
 40
0.0
 40
0.0
 40
4.994010416666697
 40
9.988020833333849
 40
17.6402323705825
 40
25.28704298612005
 40
32.94085757600548
 40
40.5943878263509
 40
45.58839824301783
 40
50.58240865968475
 40
58.23021088435348
 40
65.8863962649733
 40
73.53557984206003
 40
81.18206236577632
 40
81.18206236577632
 40
81.18206236577632
 40
81.18206236577632
 10
1177.762747852027
 20
1532.023886605336
 30
0.0
 10
1176.095784713271
 20
1532.000681136373
 30
0.0
 10
1172.761858435759
 20
1531.954270198448
 30
0.0
 10
1166.922278542085
 20
1532.36411101837
 30
0.0
 10
1159.92138670225
 20
1529.97021678856
 30
0.0
 10
1156.711519310164
 20
1522.025259845251
 30
0.0
 10
1159.920413220164
 20
1514.095879756033
 30
0.0
 10
1166.918741530737
 20
1511.650868284374
 30
0.0
 10
1172.768546148648
 20
1512.174372793248
 30
0.0
 10
1178.61780241451
 20
1511.648342970881
 30
0.0
 10
1185.608535244676
 20
1514.112026320594
 30
0.0
 10
1188.834712196869
 20
1521.978174456757
 30
0.0
 10
1185.591880251871
 20
1530.142194317009
 30
0.0
 10
1180.372151402281
 20
1531.396729688467
 30
0.0
 10
1177.762747852027
 20
1532.023886605336
 30
0.0
 11
1177.762747852027
 21
1532.023886605336
 31
0.0
 11
1172.76873743536
 21
1532.023886605336
 31
0.0
 11
1167.774727018693
 21
1532.023886605336
 31
0.0
 11
1160.704702062096
 21
1529.096244461239
 31
0.0
 11
1157.781194032582
 21
1522.030353619224
 31
0.0
 11
1160.704702062096
 21
1514.956883567141
 31
0.0
 11
1167.774727018693
 21
1512.025796327558
 31
0.0
 11
1172.76873743536
 21
1512.025796327558
 31
0.0
 11
1177.762747852027
 21
1512.025796327558
 31
0.0
 11
1184.826571636749
 21
1514.956883567141
 31
0.0
 11
1187.756280838138
 21
1522.030353619224
 31
0.0
 11
1184.826571636749
 21
1529.096244461239
 31
0.0
 11
1177.762747852027
 21
1532.023886605336
 31
0.0
  0
SPLINE
  5
CD
330
1F
100
AcDbEntity
  8
0
  6
PHANTOM
 62
     5
100
AcDbSpline
210
0.0
220
0.0
230
1.0
 70
    11
 71
     3
 72
    19
 73
    15
 74
    13
 42
0.0000000001
 43
0.0000000001
 44
0.00000001
 40
0.0
 40
0.0
 40
0.0
 40
0.0
 40
4.988498263888914
 40
9.976996527777828
 40
17.62984466752113
 40
25.27850054895534
 40
32.93415871654909
 40
40.58832545971065
 40
45.57682372359956
 40
50.56532198748847
 40
58.22649075143575
 40
65.88346734854481
 40
73.5334428662987
 40
81.19329423218883
 40
81.19329423218883
 40
81.19329423218883
 40
81.19329423218883
 10
1447.582626324249
 20
1532.023886605336
 30
0.0
 10
1449.247726955062
 20
1532.00072101859
 30
0.0
 10
1452.577928216687
 20
1531.954389845098
 30
0.0
 10
1458.414468615788
 20
1532.363737182075
 30
0.0
 10
1465.412183662072
 20
1529.969615184165
 30
0.0
 10
1468.631575897603
 20
1522.025274614477
 30
0.0
 10
1465.413144438408
 20
1514.096428884426
 30
0.0
 10
1458.418044813233
 20
1511.651414848633
 30
0.0
 10
1452.57115685897
 20
1512.173753110554
 30
0.0
 10
1446.721718673803
 20
1511.650017525257
 30
0.0
 10
1439.724675290763
 20
1514.106773025944
 30
0.0
 10
1436.492764265828
 20
1521.978335609713
 30
0.0
 10
1439.741576238132
 20
1530.146968868907
 30
0.0
 10
1444.967819205069
 20
1531.397978365314
 30
0.0
 10
1447.582626324249
 20
1532.023886605336
 30
0.0
 11
1447.582626324249
 21
1532.023886605336
 31
0.0
 11
1452.571124588138
 21
1532.023886605336
 31
0.0
 11
1457.559622852027
 21
1532.023886605336
 31
0.0
 11
1464.630336827721
 21
1529.096244461239
 31
0.0
 11
1467.558667990915
 21
1522.030353619224
 31
0.0
 11
1464.630336827721
 21
1514.956883567141
 31
0.0
 11
1457.559622852027
 21
1512.025796327558
 31
0.0
 11
1452.571124588138
 21
1512.025796327558
 31
0.0
 11
1447.582626324249
 21
1512.025796327558
 31
0.0
 11
1440.504333138485
 21
1514.956883567141
 31
0.0
 11
1437.572556879804
 21
1522.030353619224
 31
0.0
 11
1440.504333138485
 21
1529.096244461239
 31
0.0
 11
1447.582626324249
 21
1532.023886605336
 31
0.0
  0
SPLINE
  5
CE
330
1F
100
AcDbEntity
  8
0
  6
Continuous
 62
     7
100
AcDbSpline
210
0.0
220
0.0
230
1.0
 70
    11
 71
     3
 72
    86
 73
    82
 74
    80
 42
0.0000000001
 43
0.0000000001
 44
0.00000001
 40
0.0
 40
0.0
 40
0.0
 40
0.0
 40
5.307816923974679
 40
10.60390456463036
 40
16.19440724731254
 40
30.93300522892914
 40
51.77033340983519
 40
75.65702669038642
 40
99.54371997093764
 40
120.3810481518437
 40
135.1196461334603
 40
140.7101488161425
 40
144.4869188658229
 40
148.2636889155031
 40
155.4185638178467
 40
175.8963092280032
 40
208.2166062006592
 40
250.899135790503
 40
302.4635790522217
 40
361.4296170405027
 40
426.3169308100345
 40
495.645201415503
 40
567.9341099115972
 40
641.7033373530031
 40
715.4725647944091
 40
787.7614732905032
 40
857.089743895972
 40
921.9770576655031
 40
980.9430956537843
 40
1032.507538915503
 40
1075.190068505347
 40
1107.510365478003
 40
1127.98811088816
 40
1135.142985790503
 40
1138.937446426618
 40
1142.731907062733
 40
1148.996921957757
 40
1162.779954726809
 40
1176.562987495862
 40
1182.828002390886
 40
1188.141191273814
 40
1193.429484664087
 40
1199.76538439162
 40
1217.403159308805
 40
1244.287923017524
 40
1278.364789119658
 40
1317.578871217089
 40
1359.875282911698
 40
1403.199137805366
 40
1445.495549499975
 40
1484.709631597406
 40
1518.78649769954
 40
1545.671261408259
 40
1563.309036325444
 40
1569.644936052976
 40
1575.689968599922
 40
1581.734446977706
 40
1587.310762948148
 40
1601.251552874254
 40
1619.374579778191
 40
1637.497606682128
 40
1651.438396608234
 40
1657.014712578676
 40
1662.307817063364
 40
1667.627739581308
 40
1674.268249949655
 40
1693.034909686289
 40
1722.195411738596
 40
1760.017449053964
 40
1804.768714579783
 40
1854.716901263437
 40
1908.129702052317
 40
1963.274809893808
 40
2018.4199177353
 40
2071.832718524179
 40
2121.780905207834
 40
2166.532170733652
 40
2204.354208049021
 40
2233.514710101328
 40
2252.281369837961
 40
2258.921880206308
 40
2258.921880206308
 40
2258.921880206308
 40
2258.921880206308
 10
1016.868520421471
 20
1571.998018549779
 30
0.0
 10
1015.027193579605
 20
1571.568280874878
 30
0.0
 10
1011.348608884032
 20
1570.709755165013
 30
0.0
 10
1009.490163958129
 20
1564.926156003065
 30
0.0
 10
1010.027057397612
 20
1556.5356120621
 30
0.0
 10
1009.325133505354
 20
1542.7124143896
 30
0.0
 10
1009.2176609936
 20
1522.954644074876
 30
0.0
 10
1008.661434756078
 20
1500.013654599139
 30
0.0
 10
1008.60892869741
 20
1477.364323722828
 30
0.0
 10
1007.303245207022
 20
1456.912778271597
 30
0.0
 10
1009.120340451004
 20
1444.548115762164
 30
0.0
 10
1006.117215026932
 20
1434.623775128437
 30
0.0
 10
1011.308365737637
 20
1433.719009879802
 30
0.0
 10
1015.387493169291
 20
1431.083998767662
 30
0.0
 10
1026.439803053908
 20
1432.947505244119
 30
0.0
 10
1045.950804604232
 20
1431.433366819061
 30
0.0
 10
1078.030642288263
 20
1432.242671440295
 30
0.0
 10
1120.116255939661
 20
1431.911642400675
 30
0.0
 10
1171.22425861262
 20
1432.03000550594
 30
0.0
 10
1229.684682188244
 20
1431.991056891689
 30
0.0
 10
1294.082335842126
 20
1432.003150324833
 30
0.0
 10
1362.916045952949
 20
1431.999554776767
 30
0.0
 10
1434.71182997195
 20
1432.000602140416
 30
0.0
 10
1507.987551986946
 20
1432.000241702478
 30
0.0
 10
1581.263277295249
 20
1432.000600008324
 30
0.0
 10
1653.059051763426
 20
1431.999562964012
 30
0.0
 10
1721.892794655842
 20
1432.003121793658
 30
0.0
 10
1786.290338052059
 20
1431.991152181022
 30
0.0
 10
1844.751116727769
 20
1432.029701939197
 30
0.0
 10
1895.858040267445
 20
1431.912550956188
 30
0.0
 10
1937.946671957711
 20
1432.240190020035
 30
0.0
 10
1970.019131096326
 20
1431.439173261574
 30
0.0
 10
1989.543937262172
 20
1432.937805817493
 30
0.0
 10
2000.585472672578
 20
1431.092344163958
 30
0.0
 10
2004.696767249761
 20
1433.712276277761
 30
0.0
 10
2010.103302919197
 20
1434.702077197695
 30
0.0
 10
2006.912406089641
 20
1444.658883182979
 30
0.0
 10
2008.609791963229
 20
1454.739374647339
 30
0.0
 10
2007.49171697273
 20
1466.423130780496
 30
0.0
 10
2008.126875119079
 20
1474.719677638468
 30
0.0
 10
2006.224720133143
 20
1480.63460819143
 30
0.0
 10
2000.270510975528
 20
1482.435327602681
 30
0.0
 10
1990.656237823901
 20
1481.619577613245
 30
0.0
 10
1973.600559526719
 20
1482.220170416692
 30
0.0
 10
1947.453467291815
 20
1481.912420550575
 30
0.0
 10
1914.04116458762
 20
1482.031520869025
 30
0.0
 10
1875.518886539686
 20
1481.991574308422
 30
0.0
 10
1833.905236951083
 20
1482.004416100106
 30
0.0
 10
1791.267458714678
 20
1481.997921612654
 30
0.0
 10
1749.653935888837
 20
1482.009980871625
 30
0.0
 10
1711.131208375764
 20
1481.972808952129
 30
0.0
 10
1677.72025854004
 20
1482.08355773418
 30
0.0
 10
1651.569668127106
 20
1481.797402843289
 30
0.0
 10
1634.520817087866
 20
1482.35584957389
 30
0.0
 10
1624.648397819103
 20
1481.577728760275
 30
0.0
 10
1618.167612268173
 20
1483.548853583966
 30
0.0
 10
1616.1287840049
 20
1489.741921005515
 30
0.0
 10
1616.611982522616
 20
1498.161002628515
 30
0.0
 10
1616.008994377516
 20
1510.765783292422
 30
0.0
 10
1615.827719489141
 20
1527.474212495274
 30
0.0
 10
1615.659438225984
 20
1544.179274269237
 30
0.0
 10
1615.031712217484
 20
1556.790465999683
 30
0.0
 10
1615.539050563222
 20
1564.952134594532
 30
0.0
 10
1613.709791700257
 20
1570.631686095491
 30
0.0
 10
1607.643569147591
 20
1572.454504874187
 30
0.0
 10
1597.551515670157
 20
1571.58481772494
 30
0.0
 10
1579.248918516073
 20
1572.240786393602
 30
0.0
 10
1550.725317730567
 20
1571.896722779943
 30
0.0
 10
1513.456978805477
 20
1572.034065067195
 30
0.0
 10
1469.291391635496
 20
1571.986373557841
 30
0.0
 10
1419.918020988813
 20
1572.001530649626
 30
0.0
 10
1367.08343617141
 20
1571.997015963197
 30
0.0
 10
1312.515543620207
 20
1571.998291146655
 30
0.0
 10
1257.947930791562
 20
1571.997947875363
 30
0.0
 10
1205.112550463007
 20
1571.998035959645
 30
0.0
 10
1155.741803170125
 20
1571.998014513701
 30
0.0
 10
1111.567972481719
 20
1571.99801941318
 30
0.0
 10
1074.323371028043
 20
1571.99801838625
 30
0.0
 10
1045.740304627426
 20
1571.998018574371
 30
0.0
 10
1027.551080579499
 20
1571.998018548319
 30
0.0
 10
1019.082023877639
 20
1571.998018549477
 30
0.0
 10
1016.868520421471
 20
1571.998018549779
 30
0.0
 11
1016.868520421471
 21
1571.998018549779
 31
0.0
 11
1011.961326411055
 21
1569.975058480335
 31
0.0
 11
1009.873598546471
 21
1565.107827577558
 31
0.0
 11
1009.776963618086
 21
1559.518160151343
 31
0.0
 11
1009.522198806888
 21
1544.781764209502
 31
0.0
 11
1009.162014073815
 21
1523.947549257246
 31
0.0
 11
1008.749119379805
 21
1500.06442479978
 31
0.0
 11
1008.336224685794
 21
1476.181300342314
 31
0.0
 11
1007.976039952721
 21
1455.347085390058
 31
0.0
 11
1007.721275141524
 21
1440.610689448217
 31
0.0
 11
1007.624640213138
 21
1435.021022022002
 31
0.0
 11
1011.086272157583
 21
1433.510692160891
 31
0.0
 11
1014.547904102027
 21
1432.00036229978
 31
0.0
 11
1021.702779004371
 21
1432.00036229978
 31
0.0
 11
1042.180524414527
 21
1432.00036229978
 31
0.0
 11
1074.500821387183
 21
1432.00036229978
 31
0.0
 11
1117.183350977027
 21
1432.00036229978
 31
0.0
 11
1168.747794238746
 21
1432.00036229978
 31
0.0
 11
1227.713832227027
 21
1432.00036229978
 31
0.0
 11
1292.601145996558
 21
1432.00036229978
 31
0.0
 11
1361.929416602027
 21
1432.00036229978
 31
0.0
 11
1434.218325098121
 21
1432.00036229978
 31
0.0
 11
1507.987552539527
 21
1432.00036229978
 31
0.0
 11
1581.756779980933
 21
1432.00036229978
 31
0.0
 11
1654.045688477027
 21
1432.00036229978
 31
0.0
 11
1723.373959082496
 21
1432.00036229978
 31
0.0
 11
1788.261272852027
 21
1432.00036229978
 31
0.0
 11
1847.227310840308
 21
1432.00036229978
 31
0.0
 11
1898.791754102027
 21
1432.00036229978
 31
0.0
 11
1941.474283691871
 21
1432.00036229978
 31
0.0
 11
1973.794580664527
 21
1432.00036229978
 31
0.0
 11
1994.272326074683
 21
1432.00036229978
 31
0.0
 11
2001.427200977027
 21
1432.00036229978
 31
0.0
 11
2004.908125456194
 21
1433.510692160891
 31
0.0
 11
2008.38904993536
 21
1435.021022022002
 31
0.0
 11
2008.278806879804
 21
1441.285066889623
 31
0.0
 11
2008.036272157582
 21
1455.06596559839
 31
0.0
 11
2007.79373743536
 21
1468.846864307158
 31
0.0
 11
2007.683494379804
 21
1475.110909174779
 31
0.0
 11
2005.58612024786
 21
1479.992609478599
 31
0.0
 11
2000.694084657582
 21
1482.001100147002
 31
0.0
 11
1994.358184930049
 21
1482.001100147002
 31
0.0
 11
1976.720410012864
 21
1482.001100147002
 31
0.0
 11
1949.835646304146
 21
1482.001100147002
 31
0.0
 11
1915.758780202011
 21
1482.001100147002
 31
0.0
 11
1876.54469810458
 21
1482.001100147002
 31
0.0
 11
1834.248286409972
 21
1482.001100147002
 31
0.0
 11
1790.924431516304
 21
1482.001100147002
 31
0.0
 11
1748.628019821695
 21
1482.001100147002
 31
0.0
 11
1709.413937724264
 21
1482.001100147002
 31
0.0
 11
1675.33707162213
 21
1482.001100147002
 31
0.0
 11
1648.45230791341
 21
1482.001100147002
 31
0.0
 11
1630.814532996225
 21
1482.001100147002
 31
0.0
 11
1624.478633268693
 21
1482.001100147002
 31
0.0
 11
1618.881731141958
 21
1484.285198454294
 31
0.0
 11
1616.497036046472
 21
1489.839381397002
 31
0.0
 11
1616.398225604085
 21
1495.414821854821
 31
0.0
 11
1616.151199498118
 21
1509.353422999368
 31
0.0
 11
1615.830065560361
 21
1527.47360448728
 31
0.0
 11
1615.508931622603
 21
1545.593785975192
 31
0.0
 11
1615.261905516636
 21
1559.532387119739
 31
0.0
 11
1615.163095074249
 21
1565.107827577558
 31
0.0
 11
1613.082946419735
 21
1569.975058480335
 31
0.0
 11
1608.162661046471
 21
1571.998018549779
 31
0.0
 11
1601.522150678124
 21
1571.998018549779
 31
0.0
 11
1582.75549094149
 21
1571.998018549779
 31
0.0
 11
1553.594988889184
 21
1571.998018549779
 31
0.0
 11
1515.772951573815
 21
1571.998018549779
 31
0.0
 11
1471.021686047997
 21
1571.998018549779
 31
0.0
 11
1421.073499364342
 21
1571.998018549779
 31
0.0
 11
1367.660698575462
 21
1571.998018549779
 31
0.0
 11
1312.515590733971
 21
1571.998018549779
 31
0.0
 11
1257.370482892479
 21
1571.998018549779
 31
0.0
 11
1203.9576821036
 21
1571.998018549779
 31
0.0
 11
1154.009495419945
 21
1571.998018549779
 31
0.0
 11
1109.258229894127
 21
1571.998018549779
 31
0.0
 11
1071.436192578758
 21
1571.998018549779
 31
0.0
 11
1042.275690526451
 21
1571.998018549779
 31
0.0
 11
1023.509030789818
 21
1571.998018549779
 31
0.0
 11
1016.868520421471
 21
1571.998018549779
 31
0.0
  0
SPLINE
  5
CF
330
1F
100
AcDbEntity
  8
0
  6
Continuous
 62
     7
100
AcDbSpline
210
0.0
220
0.0
230
1.0
 70
     8
 71
     3
 72
   133
 73
   129
 74
   127
 42
0.0000000001
 43
0.0000000001
 44
0.00000001
 40
0.0
 40
0.0
 40
0.0
 40
0.0
 40
0.4433879381486001
 40
0.924015183718816
 40
2.164469454040653
 40
3.393000179349343
 40
4.631521840335936
 40
5.146329595903906
 40
6.619744896320841
 40
8.945255792161502
 40
12.01635033399565
 40
15.72651657239668
 40
19.96924255793709
 40
24.63801634118799
 40
29.62632597272279
 40
34.82765950311261
 40
40.13550498293131
 40
45.4433504627491
 40
50.64468399313938
 40
55.63299362467373
 40
60.30176740792555
 40
64.5444933934655
 40
68.25465963186653
 40
71.32575417370067
 40
73.65126506954088
 40
75.12468036995827
 40
75.63948812552624
 40
76.16063322937499
 40
77.66184225986434
 40
80.04977579540915
 40
83.23109441442563
 40
87.11245869532772
 40
91.60052921653166
 40
96.60196655645228
 40
102.0234312935045
 40
107.7715840061035
 40
113.7530852726638
 40
119.8745956716016
 40
126.0427757813332
 40
132.1642861802714
 40
138.1457874468322
 40
143.8939401594312
 40
149.315404896483
 40
154.3168422364036
 40
158.8049127576075
 40
162.6862770385101
 40
165.8675956575256
 40
168.2555291930709
 40
169.7567382235602
 40
170.277883327409
 40
170.7990574838162
 40
172.300350203019
 40
174.6884168599884
 40
177.8699128296977
 40
181.7514934871176
 40
186.2398142072208
 40
191.2415303649779
 40
196.6632973353623
 40
202.4117704933454
 40
208.3936052138982
 40
214.5154568719934
 40
220.6839808426029
 40
226.8058325006981
 40
232.7876672212514
 40
238.536140379234
 40
243.957907349618
 40
248.9596235073761
 40
253.4479442274792
 40
257.3295248848992
 40
260.5110208546079
 40
262.8990875115778
 40
264.4003802307806
 40
264.9215543871873
 40
265.4426987440828
 40
266.9439056229003
 40
269.3318357358387
 40
272.5131497950956
 40
276.3945085128684
 40
280.8825726013552
 40
285.8840027727534
 40
291.3054597392617
 40
297.0536042130775
 40
303.0350969063987
 40
309.1565985314225
 40
315.3247698003482
 40
321.4462714253724
 40
327.4277641186936
 40
333.1759085925094
 40
338.5973655590167
 40
343.5987957304159
 40
348.0868598189027
 40
351.9682185366751
 40
355.1495325959315
 40
357.5374627088699
 40
359.0386695876883
 40
359.5598139445833
 40
360.081173152712
 40
361.5829989313519
 40
363.9719135118816
 40
367.1545391256819
 40
371.0374980041333
 40
375.5274123786155
 40
380.5309044805078
 40
385.9545965411904
 40
391.7051107920432
 40
397.6890694644462
 40
403.8130947897785
 40
409.9838089994219
 40
416.1078343247547
 40
422.0917929971581
 40
427.8423072480105
 40
433.2659993086926
 40
438.2694914105854
 40
442.759405785067
 40
446.6423646635185
 40
449.8249902773193
 40
452.2139048578493
 40
453.7157306364888
 40
454.2370898446175
 40
454.5850444887147
 40
455.3505447057287
 40
456.1160449227423
 40
456.4639995668395
 40
458.6888477117756
 40
460.8396974072921
 40
462.9694013415024
 40
465.1167723354541
 40
467.3388003934472
 40
467.3388003934472
 40
467.3388003934472
 40
467.3388003934472
 10
1611.464440560359
 20
2884.11876947892
 30
0.0
 10
1611.612587690338
 20
2884.113812717198
 30
0.0
 10
1611.92132454524
 20
2884.103482884788
 30
0.0
 10
1612.623254825915
 20
2883.922142866557
 30
0.0
 10
1613.516081076924
 20
2883.447616538857
 30
0.0
 10
1614.268911268314
 20
2882.411371852367
 30
0.0
 10
1614.462327686721
 20
2881.410388302761
 30
0.0
 10
1614.440169353843
 20
2880.3357694949
 30
0.0
 10
1614.459781182457
 20
2878.897322246545
 30
0.0
 10
1614.459745532738
 20
2876.607619629333
 30
0.0
 10
1614.473327794023
 20
2873.571927775917
 30
0.0
 10
1614.48472980017
 20
2869.897329506017
 30
0.0
 10
1614.499478124923
 20
2865.690118043517
 30
0.0
 10
1614.51518611416
 20
2861.056879617121
 30
0.0
 10
1614.532137771902
 20
2856.104101568534
 30
0.0
 10
1614.549772193131
 20
2850.938302523885
 30
0.0
 10
1614.56778317123
 20
2845.665991679378
 30
0.0
 10
1614.585790591398
 20
2840.393680964581
 30
0.0
 10
1614.603435330879
 20
2835.22788154376
 30
0.0
 10
1614.620351572965
 20
2830.275104786319
 30
0.0
 10
1614.636178679278
 20
2825.641862017285
 30
0.0
 10
1614.650543370988
 20
2821.434664540846
 30
0.0
 10
1614.663111220796
 20
2817.760023767934
 30
0.0
 10
1614.67343293814
 20
2814.724450783746
 30
0.0
 10
1614.681368713772
 20
2812.434457553314
 30
0.0
 10
1614.686066700169
 20
2810.996554016973
 30
0.0
 10
1614.68921524167
 20
2810.160103671914
 30
0.0
 10
1614.690838105772
 20
2809.314384375844
 30
0.0
 10
1614.694398394175
 20
2807.844292906832
 30
0.0
 10
1614.699632788831
 20
2805.487478253304
 30
0.0
 10
1614.7068379091
 20
2802.337281042404
 30
0.0
 10
1614.715565985048
 20
2798.487039784541
 30
0.0
 10
1614.725696077124
 20
2794.030093919497
 30
0.0
 10
1614.736984427305
 20
2789.059782537806
 30
0.0
 10
1614.7492293462
 20
2783.669444849629
 30
0.0
 10
1614.762215605335
 20
2777.95242002663
 30
0.0
 10
1614.775732138292
 20
2772.002047252304
 30
0.0
 10
1614.78956664689
 20
2765.911665706643
 30
0.0
 10
1614.803507176674
 20
2759.774614570632
 30
0.0
 10
1614.817341717663
 20
2753.684233025033
 30
0.0
 10
1614.830858125728
 20
2747.733860250468
 30
0.0
 10
1614.843844825028
 20
2742.01683542831
 30
0.0
 10
1614.856088242553
 20
2736.626497737262
 30
0.0
 10
1614.867381543947
 20
2731.656186365046
 30
0.0
 10
1614.877495976528
 20
2727.19924047003
 30
0.0
 10
1614.886270891652
 20
2723.348999301813
 30
0.0
 10
1614.893346812541
 20
2720.198801843639
 30
0.0
 10
1614.898893360912
 20
2717.84198778754
 30
0.0
 10
1614.901875083095
 20
2716.371895211215
 30
0.0
 10
1614.904284969665
 20
2715.524055283359
 30
0.0
 10
1614.90414660702
 20
2714.676184045592
 30
0.0
 10
1614.905103665263
 20
2713.206006802735
 30
0.0
 10
1614.905871584191
 20
2710.849054958128
 30
0.0
 10
1614.907235830526
 20
2707.698674232242
 30
0.0
 10
1614.908776661229
 20
2703.84820873103
 30
0.0
 10
1614.910603490753
 20
2699.39100326932
 30
0.0
 10
1614.912626883255
 20
2694.420402395552
 30
0.0
 10
1614.914825514499
 20
2689.029750749408
 30
0.0
 10
1614.917156139566
 20
2683.31239294121
 30
0.0
 10
1614.919582252609
 20
2677.361673590303
 30
0.0
 10
1614.922065351674
 20
2671.270937313355
 30
0.0
 10
1614.924567498264
 20
2665.133528727814
 30
0.0
 10
1614.927050638004
 20
2659.042792450883
 30
0.0
 10
1614.929476594214
 20
2653.092073099917
 30
0.0
 10
1614.931807772021
 20
2647.374715291927
 30
0.0
 10
1614.934004517909
 20
2641.98406364507
 30
0.0
 10
1614.936034127934
 20
2637.013462773655
 30
0.0
 10
1614.93784129293
 20
2632.5562573045
 30
0.0
 10
1614.939440942276
 20
2628.705791825558
 30
0.0
 10
1614.94064294553
 20
2625.555411038246
 30
0.0
 10
1614.941802853805
 20
2623.198459342043
 30
0.0
 10
1614.942033373217
 20
2621.728281824128
 30
0.0
 10
1614.942878183496
 20
2620.880411207561
 30
0.0
 10
1614.9410951511
 20
2620.032570658523
 30
0.0
 10
1614.939237718411
 20
2618.562478357228
 30
0.0
 10
1614.93546967447
 20
2616.205664152741
 30
0.0
 10
1614.930781509449
 20
2613.055466755985
 30
0.0
 10
1614.924921010648
 20
2609.2052255655
 30
0.0
 10
1614.918181584519
 20
2604.74827967793
 30
0.0
 10
1614.91065160115
 20
2599.77796830336
 30
0.0
 10
1614.902489661133
 20
2594.387630613025
 30
0.0
 10
1614.89383176243
 20
2588.670605790658
 30
0.0
 10
1614.884820851775
 20
2582.720233016154
 30
0.0
 10
1614.875597817496
 20
2576.629851470536
 30
0.0
 10
1614.866304129668
 20
2570.492800334534
 30
0.0
 10
1614.85708113604
 20
2564.402418788856
 30
0.0
 10
1614.848070068643
 20
2558.452046014585
 30
0.0
 10
1614.839412722361
 20
2552.735021191398
 30
0.0
 10
1614.831248898072
 20
2547.344683503858
 30
0.0
 10
1614.823725128655
 20
2542.374372120066
 30
0.0
 10
1614.816966049293
 20
2537.917426261668
 30
0.0
 10
1614.811164335354
 20
2534.067184983922
 30
0.0
 10
1614.806314020428
 20
2530.91698782787
 30
0.0
 10
1614.802937740718
 20
2528.560173041824
 30
0.0
 10
1614.800354186441
 20
2527.090081818431
 30
0.0
 10
1614.799553727096
 20
2526.242178126785
 30
0.0
 10
1614.796205957157
 20
2525.394074364319
 30
0.0
 10
1614.79159732337
 20
2523.923382018988
 30
0.0
 10
1614.783442638431
 20
2521.565607275771
 30
0.0
 10
1614.772880556147
 20
2518.414125357374
 30
0.0
 10
1614.759844791433
 20
2514.562314433269
 30
0.0
 10
1614.744798097769
 20
2510.103551379134
 30
0.0
 10
1614.728004423
 20
2505.131213556832
 30
0.0
 10
1614.709795811419
 20
2499.738678161697
 30
0.0
 10
1614.690482390944
 20
2494.019322442658
 30
0.0
 10
1614.670381029533
 20
2488.066523632157
 30
0.0
 10
1614.649806589764
 20
2481.973658967554
 30
0.0
 10
1614.629074534714
 20
2475.834105684716
 30
0.0
 10
1614.608500072759
 20
2469.741241020191
 30
0.0
 10
1614.588398796895
 20
2463.788442209387
 30
0.0
 10
1614.56908507492
 20
2458.069086491421
 30
0.0
 10
1614.55087749173
 20
2452.676551092621
 30
0.0
 10
1614.534080425538
 20
2447.704213282405
 30
0.0
 10
1614.519044458125
 20
2443.245450190046
 30
0.0
 10
1614.505976610082
 20
2439.393639380272
 30
0.0
 10
1614.495503025222
 20
2436.242157146512
 30
0.0
 10
1614.487134525014
 20
2433.884383165228
 30
0.0
 10
1614.482922190505
 20
2432.413689407681
 30
0.0
 10
1614.479302556782
 20
2431.623316920629
 30
0.0
 10
1614.479684057696
 20
2431.078375265683
 30
0.0
 10
1614.480148636734
 20
2430.452079957676
 30
0.0
 10
1614.477861636299
 20
2429.825683776681
 30
0.0
 10
1614.487973594512
 20
2428.713250837211
 30
0.0
 10
1614.231238776925
 20
2427.130213787844
 30
0.0
 10
1613.21378222525
 20
2425.174084573564
 30
0.0
 10
1611.681759821944
 20
2423.640360131179
 30
0.0
 10
1609.73396562901
 20
2422.576498899375
 30
0.0
 10
1608.272156519766
 20
2422.429474986221
 30
0.0
 10
1607.528763477026
 20
2422.354706978919
 30
0.0
 11
1611.464440560359
 21
2884.11876947892
 31
0.0
 11
1611.906790820776
 21
2884.088452638642
 31
0.0
 11
1612.373945768694
 21
2883.975453506697
 31
0.0
 11
1613.457594174043
 21
2883.371770700628
 31
0.0
 11
1614.182340187417
 21
2882.379787354434
 31
0.0
 11
1614.446515213137
 21
2881.169767742808
 31
0.0
 11
1614.448273589873
 21
2880.654962990203
 31
0.0
 11
1614.453306185359
 21
2879.181556284475
 31
0.0
 11
1614.461249197512
 21
2876.856058953745
 31
0.0
 11
1614.471738824248
 21
2873.784982326141
 31
0.0
 11
1614.484411263484
 21
2870.074837729787
 31
0.0
 11
1614.498902713137
 21
2865.832136492808
 31
0.0
 11
1614.514849371123
 21
2861.163389943329
 31
0.0
 11
1614.531887435359
 21
2856.175109409475
 31
0.0
 11
1614.549653103762
 21
2850.973806219371
 31
0.0
 11
1614.567782574248
 21
2845.665991701141
 31
0.0
 11
1614.585912044734
 21
2840.358177182912
 31
0.0
 11
1614.603677713137
 21
2835.156873992808
 31
0.0
 11
1614.620715777373
 21
2830.168593458954
 31
0.0
 11
1614.636662435359
 21
2825.499846909474
 31
0.0
 11
1614.651153885012
 21
2821.257145672495
 31
0.0
 11
1614.663826324248
 21
2817.547001076141
 31
0.0
 11
1614.674315950984
 21
2814.475924448538
 31
0.0
 11
1614.682258963137
 21
2812.150427117808
 31
0.0
 11
1614.687291558623
 21
2810.677020412079
 31
0.0
 11
1614.689049935359
 21
2810.162215659475
 31
0.0
 11
1614.690233732121
 21
2809.641071900143
 31
0.0
 11
1614.693643773542
 21
2808.139866742664
 31
0.0
 11
1614.699068036319
 21
2805.751939367815
 31
0.0
 11
1614.706294497152
 21
2802.570628956371
 31
0.0
 11
1614.715111132741
 21
2798.689274689108
 31
0.0
 11
1614.725305919784
 21
2794.201215746802
 31
0.0
 11
1614.736666834982
 21
2789.199791310228
 31
0.0
 11
1614.748981855033
 21
2783.778340560163
 31
0.0
 11
1614.762038956636
 21
2778.030202677382
 31
0.0
 11
1614.775626116491
 21
2772.048716842663
 31
0.0
 11
1614.789531311298
 21
2765.927222236779
 31
0.0
 11
1614.803542517754
 21
2759.759058040506
 31
0.0
 11
1614.817447712561
 21
2753.637563434622
 31
0.0
 11
1614.831034872416
 21
2747.656077599902
 31
0.0
 11
1614.844091974019
 21
2741.907939717122
 31
0.0
 11
1614.85640699407
 21
2736.486488967057
 31
0.0
 11
1614.867767909268
 21
2731.485064530483
 31
0.0
 11
1614.877962696311
 21
2726.997005588177
 31
0.0
 11
1614.8867793319
 21
2723.115651320914
 31
0.0
 11
1614.894005792733
 21
2719.93434090947
 31
0.0
 11
1614.89943005551
 21
2717.546413534621
 31
0.0
 11
1614.902840096931
 21
2716.045208377142
 31
0.0
 11
1614.904023893693
 21
2715.52406461781
 31
0.0
 11
1614.904236370035
 21
2715.002890504715
 31
0.0
 11
1614.904848428751
 21
2713.501597910276
 31
0.0
 11
1614.905822014378
 21
2711.113531451766
 31
0.0
 11
1614.907119071451
 21
2707.932035746454
 31
0.0
 11
1614.908701544505
 21
2704.050455411612
 31
0.0
 11
1614.910531378077
 21
2699.562135064509
 31
0.0
 11
1614.912570516702
 21
2694.560419322418
 31
0.0
 11
1614.914780904916
 21
2689.138652802608
 31
0.0
 11
1614.917124487256
 21
2683.39018012235
 31
0.0
 11
1614.919563208255
 21
2677.408345898915
 31
0.0
 11
1614.922059012451
 21
2671.286494749575
 31
0.0
 11
1614.924573844379
 21
2665.117971291598
 31
0.0
 11
1614.927069648575
 21
2658.996120142258
 31
0.0
 11
1614.929508369575
 21
2653.014285918823
 31
0.0
 11
1614.931851951914
 21
2647.265813238565
 31
0.0
 11
1614.934062340128
 21
2641.844046718755
 31
0.0
 11
1614.936101478753
 21
2636.842330976663
 31
0.0
 11
1614.937931312325
 21
2632.35401062956
 31
0.0
 11
1614.939513785379
 21
2628.472430294718
 31
0.0
 11
1614.940810842452
 21
2625.290934589406
 31
0.0
 11
1614.941784428079
 21
2622.902868130896
 31
0.0
 11
1614.942396486795
 21
2621.401575536458
 31
0.0
 11
1614.942608963137
 21
2620.880401423363
 31
0.0
 11
1614.941819765296
 21
2620.359257664031
 31
0.0
 11
1614.939546404348
 21
2618.858052506553
 31
0.0
 11
1614.935930229164
 21
2616.470125131703
 31
0.0
 11
1614.931112588609
 21
2613.288814720259
 31
0.0
 11
1614.92523483155
 21
2609.407460452996
 31
0.0
 11
1614.918438306853
 21
2604.919401510689
 31
0.0
 11
1614.910864363389
 21
2599.917977074116
 31
0.0
 11
1614.902654350021
 21
2594.496526324051
 31
0.0
 11
1614.893949615619
 21
2588.74838844127
 31
0.0
 11
1614.884891509049
 21
2582.76690260655
 31
0.0
 11
1614.875621379178
 21
2576.645408000666
 31
0.0
 11
1614.866280574874
 21
2570.477243804394
 31
0.0
 11
1614.857010445003
 21
2564.35574919851
 31
0.0
 11
1614.847952338433
 21
2558.374263363789
 31
0.0
 11
1614.83924760403
 21
2552.626125481009
 31
0.0
 11
1614.831037590664
 21
2547.204674730945
 31
0.0
 11
1614.823463647198
 21
2542.20325029437
 31
0.0
 11
1614.816667122503
 21
2537.715191352064
 31
0.0
 11
1614.810789365444
 21
2533.833837084801
 31
0.0
 11
1614.805971724888
 21
2530.652526673357
 31
0.0
 11
1614.802355549703
 21
2528.264599298508
 31
0.0
 11
1614.800082188757
 21
2526.763394141029
 31
0.0
 11
1614.799292990915
 21
2526.242250381697
 31
0.0
 11
1614.797532472653
 21
2525.720894146023
 31
0.0
 11
1614.792461129003
 21
2524.219076929828
 31
0.0
 11
1614.784394276668
 21
2521.830175969352
 31
0.0
 11
1614.773647232351
 21
2518.647568500836
 31
0.0
 11
1614.760535312758
 21
2514.764631760518
 31
0.0
 11
1614.74537383459
 21
2510.27474298464
 31
0.0
 11
1614.728478114554
 21
2505.271279409441
 31
0.0
 11
1614.71016346935
 21
2499.847618271161
 31
0.0
 11
1614.690745215683
 21
2494.097136806041
 31
0.0
 11
1614.670538670257
 21
2488.113212250321
 31
0.0
 11
1614.649859149776
 21
2481.989221840242
 31
0.0
 11
1614.629021970943
 21
2475.818542812041
 31
0.0
 11
1614.608342450462
 21
2469.694552401962
 31
0.0
 11
1614.588135905036
 21
2463.710627846241
 31
0.0
 11
1614.56871765137
 21
2457.960146381122
 31
0.0
 11
1614.550403006166
 21
2452.536485242843
 31
0.0
 11
1614.533507286128
 21
2447.533021667643
 31
0.0
 11
1614.518345807961
 21
2443.043132891765
 31
0.0
 11
1614.505233888368
 21
2439.160196151448
 31
0.0
 11
1614.494486844052
 21
2435.977588682931
 31
0.0
 11
1614.486419991716
 21
2433.588687722455
 31
0.0
 11
1614.481348648066
 21
2432.08687050626
 31
0.0
 11
1614.479588129804
 21
2431.565514270586
 31
0.0
 11
1614.479588129804
 21
2431.217559626489
 31
0.0
 11
1614.479588129804
 21
2430.452059409475
 31
0.0
 11
1614.479588129804
 21
2429.686559192461
 31
0.0
 11
1614.479588129804
 21
2429.338604548364
 31
0.0
 11
1614.111773199248
 21
2427.144370867808
 31
0.0
 11
1613.121922852027
 21
2425.234828853919
 31
0.0
 11
1611.620897504805
 21
2423.724013923364
 31
0.0
 11
1609.719557574249
 21
2422.725961492808
 31
0.0
 11
1607.528763477026
 21
2422.354706978919
 31
0.0
  0
SPLINE
  5
D0
330
1F
100
AcDbEntity
  8
0
  6
Continuous
 62
     7
100
AcDbSpline
210
0.0
220
0.0
230
1.0
 70
    11
 71
     3
 72
    77
 73
    73
 74
    71
 42
0.0000000001
 43
0.0000000001
 44
0.00000001
 40
0.0
 40
0.0
 40
0.0
 40
0.0
 40
6.653257597900213
 40
13.33539776874143
 40
148.8640936688003
 40
284.4013261326599
 40
291.3213350674744
 40
298.2639106380774
 40
304.4108057643682
 40
319.0687864501384
 40
336.563795655735
 40
351.2217763415053
 40
357.3686714677961
 40
363.515386634977
 40
378.1729381874852
 40
395.6674352017692
 40
410.3249867542772
 40
416.4717019214581
 40
422.622340056054
 40
437.2892463770139
 40
454.794908760095
 40
469.4618150810545
 40
475.6124532156507
 40
481.762443605266
 40
496.4278053035799
 40
513.9316241047932
 40
528.5969858031066
 40
534.7469761927222
 40
540.8975244566108
 40
555.5642164704999
 40
573.0696230677216
 40
587.7363150816103
 40
593.8868633454991
 40
600.0334141603931
 40
614.6905737959095
 40
632.1846030383
 40
646.8417626738161
 40
652.9883134887101
 40
659.1383783677943
 40
673.8039176948412
 40
691.3079485045425
 40
705.9734878315894
 40
712.1235527106736
 40
718.2702678778547
 40
732.9278194303631
 40
750.4223164446474
 40
765.0798679971558
 40
771.2265831643367
 40
777.3769176727927
 40
792.043099962188
 40
809.5478981785624
 40
824.2140804679574
 40
830.3644149764134
 40
837.2916135493671
 40
844.2156632374972
 40
979.7528587705525
 40
1115.281562799157
 40
1121.948270964043
 40
1128.597907491916
 40
1137.573084678768
 40
1162.558037388113
 40
1200.641897343133
 40
1248.913796267014
 40
1304.462865882935
 40
1364.378237914082
 40
1425.749044083638
 40
1485.664416114784
 40
1541.213485730706
 40
1589.485384654587
 40
1627.569244609607
 40
1652.554197318952
 40
1661.529374505804
 40
1661.529374505804
 40
1661.529374505804
 40
1661.529374505804
 10
1046.187661046471
 20
2764.229446562253
 30
0.0
 10
1043.796534503243
 20
2763.772550055349
 30
0.0
 10
1039.003901255522
 20
2762.856773600121
 30
0.0
 10
1027.867344014775
 20
2709.22972429228
 30
0.0
 10
1045.775684187551
 20
2620.166041707168
 30
0.0
 10
1029.674608538925
 20
2530.86441502231
 30
0.0
 10
1039.018950546856
 20
2477.130573163227
 30
0.0
 10
1046.489767266645
 20
2475.369384789136
 30
0.0
 10
1055.4913321578
 20
2475.789967572735
 30
0.0
 10
1068.398591865887
 20
2475.35431185056
 30
0.0
 10
1083.948174743364
 20
2475.29552214559
 30
0.0
 10
1096.72549871673
 20
2475.138695078617
 30
0.0
 10
1105.707617122912
 20
2475.034905379827
 30
0.0
 10
1114.691430854363
 20
2474.974598314474
 30
0.0
 10
1127.457104319401
 20
2474.872303918743
 30
0.0
 10
1143.059917727274
 20
2474.75343619758
 30
0.0
 10
1155.825806517244
 20
2474.659147568154
 30
0.0
 10
1164.810472240962
 20
2474.584120396295
 30
0.0
 10
1173.798468460134
 20
2474.541850239758
 30
0.0
 10
1186.57266145824
 20
2474.469473224457
 30
0.0
 10
1202.185593168282
 20
2474.384487745441
 30
0.0
 10
1214.959827103226
 20
2474.320429344155
 30
0.0
 10
1223.94883983775
 20
2474.262870012135
 30
0.0
 10
1232.937515070049
 20
2474.251725143325
 30
0.0
 10
1245.710520169901
 20
2474.218152763804
 30
0.0
 10
1261.322001201329
 20
2474.183813793664
 30
0.0
 10
1274.095028762972
 20
2474.158551517318
 30
0.0
 10
1283.083632766755
 20
2474.13213759912
 30
0.0
 10
1292.07271675982
 20
2474.138453166843
 30
0.0
 10
1304.846927882945
 20
2474.13501605667
 30
0.0
 10
1320.459861225227
 20
2474.135014875046
 30
0.0
 10
1333.234072342961
 20
2474.138455382026
 30
0.0
 10
1342.222009820114
 20
2474.132135259845
 30
0.0
 10
1351.206733259599
 20
2474.158550830255
 30
0.0
 10
1363.972617073712
 20
2474.183813706124
 30
0.0
 10
1379.575366848627
 20
2474.218154333345
 30
0.0
 10
1392.341228214732
 20
2474.251721349741
 30
0.0
 10
1401.325831777248
 20
2474.262876641926
 30
0.0
 10
1410.313051237803
 20
2474.320428995414
 30
0.0
 10
1423.086094550808
 20
2474.384487801103
 30
0.0
 10
1438.697571049795
 20
2474.469473594314
 30
0.0
 10
1451.470573427661
 20
2474.541849301997
 30
0.0
 10
1460.457922875134
 20
2474.584122641949
 30
0.0
 10
1469.442397501874
 20
2474.659147212232
 30
0.0
 10
1482.208286529694
 20
2474.753435219835
 30
0.0
 10
1497.811098813473
 20
2474.872308707623
 30
0.0
 10
1510.576775272087
 20
2474.974587147903
 30
0.0
 10
1519.561730393921
 20
2475.034929080799
 30
0.0
 10
1528.547749037859
 20
2475.13866253544
 30
0.0
 10
1541.332022699602
 20
2475.295828326025
 30
0.0
 10
1556.891241858732
 20
2475.353062935458
 30
0.0
 10
1569.803237690397
 20
2475.792850356083
 30
0.0
 10
1578.807933586373
 20
2475.365345233587
 30
0.0
 10
1586.26030506041
 20
2477.14517416845
 30
0.0
 10
1595.809781875215
 20
2530.788592903158
 30
0.0
 10
1579.60345622729
 20
2619.967065383084
 30
0.0
 10
1597.033152625741
 20
2709.716966287979
 30
0.0
 10
1586.328557473452
 20
2762.770268046241
 30
0.0
 10
1578.142256314832
 20
2764.76058299753
 30
0.0
 10
1564.991596745391
 20
2763.744273169097
 30
0.0
 10
1540.686906950516
 20
2764.508031817852
 30
0.0
 10
1503.72194530548
 20
2764.116683729423
 30
0.0
 10
1456.362842850629
 20
2764.268086243131
 30
0.0
 10
1401.803258131567
 20
2764.217536701542
 30
0.0
 10
1342.852367545919
 20
2764.232831493114
 30
0.0
 10
1282.453475921223
 20
2764.22855188819
 30
0.0
 10
1223.507970291854
 20
2764.229665883271
 30
0.0
 10
1168.929292031007
 20
2764.229397461211
 30
0.0
 10
1121.627660219397
 20
2764.229456221364
 30
0.0
 10
1084.514093927545
 20
2764.229445062127
 30
0.0
 10
1060.499430039354
 20
2764.229446653896
 30
0.0
 10
1049.179386768147
 20
2764.22944658141
 30
0.0
 10
1046.187661046471
 20
2764.229446562253
 30
0.0
 11
1046.187661046471
 21
2764.229446562253
 31
0.0
 11
1039.958928407582
 21
2761.89091574628
 31
0.0
 11
1037.550117643693
 21
2755.658048992808
 31
0.0
 11
1037.48121573397
 21
2620.129370607392
 31
0.0
 11
1037.759579449248
 21
2484.592423992809
 31
0.0
 11
1040.091220074248
 21
2478.077059409475
 31
0.0
 11
1046.606584657582
 21
2475.679272951141
 31
0.0
 11
1052.753120074249
 21
2475.61277434003
 31
0.0
 11
1067.410242990915
 21
2475.454200728918
 31
0.0
 11
1084.904228407582
 21
2475.264935451141
 31
0.0
 11
1099.561351324248
 21
2475.10636184003
 31
0.0
 11
1105.707886740915
 21
2475.039863228919
 31
0.0
 11
1111.854422157582
 21
2474.992855590031
 31
0.0
 11
1126.511545074248
 21
2474.880760451142
 31
0.0
 11
1144.005530490915
 21
2474.74696947892
 31
0.0
 11
1158.662653407581
 21
2474.63487434003
 31
0.0
 11
1164.809188824248
 21
2474.587866701142
 31
0.0
 11
1170.959737088137
 21
2474.554617395586
 31
0.0
 11
1185.626429102026
 21
2474.475330590031
 31
0.0
 11
1203.131835699248
 21
2474.380697951142
 31
0.0
 11
1217.798527713137
 21
2474.301411145587
 31
0.0
 11
1223.949075977026
 21
2474.268161840031
 31
0.0
 11
1230.099050977026
 21
2474.254403506698
 31
0.0
 11
1244.764375977027
 21
2474.221595173364
 31
0.0
 11
1262.268150977027
 21
2474.18243684003
 31
0.0
 11
1276.933475977027
 21
2474.149628506696
 31
0.0
 11
1283.083450977027
 21
2474.135870173363
 31
0.0
 11
1289.233999240916
 21
2474.135870173363
 31
0.0
 11
1303.900691254805
 21
2474.135870173363
 31
0.0
 11
1321.406097852027
 21
2474.135870173363
 31
0.0
 11
1336.072789865915
 21
2474.135870173363
 31
0.0
 11
1342.223338129804
 21
2474.135870173363
 31
0.0
 11
1348.369873546471
 21
2474.149628506696
 31
0.0
 11
1363.026996463137
 21
2474.18243684003
 31
0.0
 11
1380.520981879804
 21
2474.221595173364
 31
0.0
 11
1395.17810479647
 21
2474.254403506698
 31
0.0
 11
1401.324640213137
 21
2474.268161840031
 31
0.0
 11
1407.474615213137
 21
2474.301411145587
 31
0.0
 11
1422.139940213137
 21
2474.380697951142
 31
0.0
 11
1439.643715213137
 21
2474.475330590031
 31
0.0
 11
1454.309040213137
 21
2474.554617395587
 31
0.0
 11
1460.459015213137
 21
2474.587866701142
 31
0.0
 11
1466.605550629804
 21
2474.634874340031
 31
0.0
 11
1481.262673546471
 21
2474.74696947892
 31
0.0
 11
1498.756658963138
 21
2474.880760451142
 31
0.0
 11
1513.413781879804
 21
2474.99285559003
 31
0.0
 11
1519.560317296471
 21
2475.039863228919
 31
0.0
 11
1525.710292296471
 21
2475.10636184003
 31
0.0
 11
1540.375617296471
 21
2475.264935451141
 31
0.0
 11
1557.879392296471
 21
2475.454200728919
 31
0.0
 11
1572.544717296471
 21
2475.61277434003
 31
0.0
 11
1578.694692296471
 21
2475.679272951141
 31
0.0
 11
1585.192142383276
 21
2478.081193524059
 31
0.0
 11
1587.547209657583
 21
2484.592423992809
 31
0.0
 11
1587.806969857234
 21
2620.129370607392
 31
0.0
 11
1587.723598546472
 21
2755.658048992808
 31
0.0
 11
1585.341659527374
 21
2761.884714574406
 31
0.0
 11
1579.119128060359
 21
2764.229446562253
 31
0.0
 11
1570.143950873507
 21
2764.229446562253
 31
0.0
 11
1545.158998164162
 21
2764.229446562253
 31
0.0
 11
1507.075138209142
 21
2764.229446562253
 31
0.0
 11
1458.803239285261
 21
2764.229446562253
 31
0.0
 11
1403.25416966934
 21
2764.229446562253
 31
0.0
 11
1343.338797638193
 21
2764.229446562253
 31
0.0
 11
1281.967991468637
 21
2764.229446562253
 31
0.0
 11
1222.05261943749
 21
2764.229446562253
 31
0.0
 11
1166.503549821569
 21
2764.229446562253
 31
0.0
 11
1118.231650897688
 21
2764.229446562253
 31
0.0
 11
1080.147790942668
 21
2764.229446562253
 31
0.0
 11
1055.162838233323
 21
2764.229446562253
 31
0.0
 11
1046.187661046471
 21
2764.229446562253
 31
0.0
  0
SPLINE
  5
D1
330
1F
100
AcDbEntity
  8
0
  6
Continuous
 62
     7
100
AcDbSpline
210
0.0
220
0.0
230
1.0
 70
    11
 71
     3
 72
   108
 73
   104
 74
   102
 42
0.0000000001
 43
0.0000000001
 44
0.00000001
 40
0.0
 40
0.0
 40
0.0
 40
0.0
 40
0.4440753472063393
 40
0.9293918556094146
 40
2.168597894072204
 40
3.395564819318395
 40
4.633782447311853
 40
229.641785284711
 40
454.6249016045279
 40
456.8481015910704
 40
458.9993256021572
 40
461.1295926971798
 40
463.2762847970361
 40
465.4957928348426
 40
711.8105775311398
 40
958.1215952787734
 40
1204.432613026407
 40
1450.747397722704
 40
1452.967427452269
 40
1455.115056329505
 40
1457.245882789804
 40
1459.396984907331
 40
1461.619833164981
 40
1686.602942494939
 40
1911.610925734409
 40
1912.849709247867
 40
1914.0789629887
 40
1915.317277672365
 40
1915.803264289361
 40
1916.25215163821
 40
1916.806117275008
 40
1918.447591489115
 40
1921.145940236098
 40
1924.870529471527
 40
1929.590725150971
 40
1935.275893229998
 40
1941.895399664178
 40
1949.418610409078
 40
1957.814891420268
 40
1967.053608653317
 40
1977.104128063793
 40
1987.935815607266
 40
1999.518037239303
 40
2011.820158915474
 40
2024.811546591347
 40
2038.461566222492
 40
2052.739583764476
 40
2067.614965172869
 40
2083.05707640324
 40
2099.035283411157
 40
2115.518952152191
 40
2132.477448581906
 40
2149.880138655875
 40
2167.696388329665
 40
2185.895563558845
 40
2204.447030298987
 40
2223.320154505654
 40
2242.484302134418
 40
2261.908839140847
 40
2281.563131480513
 40
2301.416545108978
 40
2321.438445981816
 40
2341.598200054595
 40
2361.865173282882
 40
2382.208731622251
 40
2402.598241028263
 40
2423.003067456491
 40
2443.392576862504
 40
2463.73613520187
 40
2484.00310843016
 40
2504.162862502938
 40
2524.184763375776
 40
2544.038177004242
 40
2563.692469343907
 40
2583.117006350336
 40
2602.2811539791
 40
2621.154278185767
 40
2639.705744925906
 40
2657.904920155089
 40
2675.721169828879
 40
2693.123859902847
 40
2710.082356332563
 40
2726.566025073597
 40
2742.544232081515
 40
2757.986343311885
 40
2772.861724720278
 40
2787.139742262262
 40
2800.789761893408
 40
2813.781149569281
 40
2826.083271245451
 40
2837.665492877488
 40
2848.497180420962
 40
2858.547699831438
 40
2867.786417064486
 40
2876.182698075676
 40
2883.705908820576
 40
2890.325415254756
 40
2896.010583333783
 40
2900.730779013227
 40
2904.455368248656
 40
2907.15371699564
 40
2908.795191209746
 40
2909.349156846544
 40
2909.349156846544
 40
2909.349156846544
 40
2909.349156846544
 10
1011.422513477026
 20
2884.11876947892
 30
0.0
 10
1011.274181935457
 20
2884.113699993724
 30
0.0
 10
1010.9637433409
 20
2884.103090221568
 30
0.0
 10
1010.259365232963
 20
2883.92392134178
 30
0.0
 10
1009.371178956517
 20
2883.447674502858
 30
0.0
 10
1008.600169612063
 20
2882.410128375544
 30
0.0
 10
998.7550993681887
 20
2806.222702121924
 30
0.0
 10
1016.045264152401
 20
2656.232630430633
 30
0.0
 10
1000.806402707145
 20
2505.66576987681
 30
0.0
 10
1008.625294779108
 20
2428.973592454915
 30
0.0
 10
1009.679298097185
 20
2427.017450889648
 30
0.0
 10
1011.201401063006
 20
2425.483496343881
 30
0.0
 10
1013.149902624109
 20
2424.41843962642
 30
0.0
 10
1096.998714029497
 20
2415.900870711023
 30
0.0
 10
1261.540623391064
 20
2426.393162815482
 30
0.0
 10
1507.973925235774
 20
2420.207261667638
 30
0.0
 10
1754.406308606652
 20
2426.393465249603
 30
0.0
 10
1918.950236686316
 20
2415.900149414927
 30
0.0
 10
2002.798270936472
 20
2424.418526223652
 30
0.0
 10
2004.747600792774
 20
2425.483399756242
 30
0.0
 10
2006.27055861484
 20
2427.017137665124
 30
0.0
 10
2007.324760118026
 20
2428.973496932823
 30
0.0
 10
2015.056950460873
 20
2505.67850301603
 30
0.0
 10
1999.862323615639
 20
2656.226971360292
 30
0.0
 10
2017.34311029427
 20
2806.22167605345
 30
0.0
 10
2007.350341860427
 20
2882.41129362033
 30
0.0
 10
2006.575314599194
 20
2883.445849614421
 30
0.0
 10
2005.687787013521
 20
2883.925181599254
 30
0.0
 10
2004.981804645468
 20
2884.102353192202
 30
0.0
 10
2004.48416439886
 20
2884.1239891354
 30
0.0
 10
2003.603361454864
 20
2884.113819005321
 30
0.0
 10
2001.971591620881
 20
2884.121882001592
 30
0.0
 10
1999.283738665096
 20
2884.117358119986
 30
0.0
 10
1995.56923731921
 20
2884.119321648665
 30
0.0
 10
1990.859300184528
 20
2884.118571017168
 30
0.0
 10
1985.184326731245
 20
2884.118836976062
 30
0.0
 10
1978.575037277398
 20
2884.118747399747
 30
0.0
 10
1971.06203605125
 20
2884.11877649504
 30
0.0
 10
1962.67596696642
 20
2884.118767298871
 30
0.0
 10
1953.447460902609
 20
2884.118770144273
 30
0.0
 10
1943.407152894693
 20
2884.11876927881
 30
0.0
 10
1932.585676683043
 20
2884.118769538372
 30
0.0
 10
1921.013666403988
 20
2884.118769461441
 30
0.0
 10
1908.721756074541
 20
2884.118769484013
 30
0.0
 10
1895.740579747224
 20
2884.118769477447
 30
0.0
 10
1882.100771464104
 20
2884.118769479343
 30
0.0
 10
1867.832965270297
 20
2884.1187694788
 30
0.0
 10
1852.967795210038
 20
2884.118769478955
 30
0.0
 10
1837.535895327814
 20
2884.11876947891
 30
0.0
 10
1821.56789966804
 20
2884.118769478924
 30
0.0
 10
1805.094442275151
 20
2884.118769478919
 30
0.0
 10
1788.146157193578
 20
2884.118769478921
 30
0.0
 10
1770.753678467754
 20
2884.11876947892
 30
0.0
 10
1752.947640142107
 20
2884.118769478921
 30
0.0
 10
1734.758676261071
 20
2884.118769478919
 30
0.0
 10
1716.217420869074
 20
2884.118769478921
 30
0.0
 10
1697.35450801055
 20
2884.11876947892
 30
0.0
 10
1678.200571729929
 20
2884.118769478919
 30
0.0
 10
1658.786246071643
 20
2884.118769478921
 30
0.0
 10
1639.142165080124
 20
2884.118769478921
 30
0.0
 10
1619.298962799799
 20
2884.118769478919
 30
0.0
 10
1599.287273275106
 20
2884.118769478921
 30
0.0
 10
1579.137730550471
 20
2884.118769478919
 30
0.0
 10
1558.880968670327
 20
2884.118769478921
 30
0.0
 10
1538.547621679104
 20
2884.11876947892
 30
0.0
 10
1518.168323621234
 20
2884.118769478919
 30
0.0
 10
1497.773708541151
 20
2884.11876947892
 30
0.0
 10
1477.394410483282
 20
2884.118769478921
 30
0.0
 10
1457.061063492059
 20
2884.11876947892
 30
0.0
 10
1436.804301611914
 20
2884.11876947892
 30
0.0
 10
1416.654758887278
 20
2884.11876947892
 30
0.0
 10
1396.643069362585
 20
2884.11876947892
 30
0.0
 10
1376.799867082262
 20
2884.118769478921
 30
0.0
 10
1357.155786090742
 20
2884.11876947892
 30
0.0
 10
1337.741460432455
 20
2884.11876947892
 30
0.0
 10
1318.587524151835
 20
2884.11876947892
 30
0.0
 10
1299.724611293312
 20
2884.11876947892
 30
0.0
 10
1281.183355901316
 20
2884.11876947892
 30
0.0
 10
1262.994392020278
 20
2884.118769478921
 30
0.0
 10
1245.188353694631
 20
2884.11876947892
 30
0.0
 10
1227.795874968807
 20
2884.11876947892
 30
0.0
 10
1210.847589887234
 20
2884.118769478921
 30
0.0
 10
1194.374132494345
 20
2884.118769478921
 30
0.0
 10
1178.406136834572
 20
2884.11876947892
 30
0.0
 10
1162.974236952345
 20
2884.118769478921
 30
0.0
 10
1148.109066892095
 20
2884.118769478921
 30
0.0
 10
1133.841260698254
 20
2884.118769478918
 30
0.0
 10
1120.201452415253
 20
2884.118769478921
 30
0.0
 10
1107.220276087523
 20
2884.11876947892
 30
0.0
 10
1094.928365759497
 20
2884.11876947892
 30
0.0
 10
1083.356355475603
 20
2884.118769478919
 30
0.0
 10
1072.534879280275
 20
2884.11876947892
 30
0.0
 10
1062.494571217942
 20
2884.11876947892
 30
0.0
 10
1053.266065333037
 20
2884.118769478919
 30
0.0
 10
1044.879995669991
 20
2884.118769478921
 30
0.0
 10
1037.366996273233
 20
2884.118769478919
 30
0.0
 10
1030.757701187198
 20
2884.118769478921
 30
0.0
 10
1025.082744456314
 20
2884.118769478919
 30
0.0
 10
1020.372760125014
 20
2884.118769478921
 30
0.0
 10
1016.658382237729
 20
2884.118769478921
 30
0.0
 10
1013.970244838889
 20
2884.118769478919
 30
0.0
 10
1012.338981972927
 20
2884.118769478922
 30
0.0
 10
1011.607168689292
 20
2884.11876947892
 30
0.0
 10
1011.422513477026
 20
2884.11876947892
 30
0.0
 11
1011.422513477026
 21
2884.11876947892
 31
0.0
 11
1010.979474197512
 21
2884.088452638642
 31
0.0
 11
1010.507496115915
 21
2883.975453506697
 31
0.0
 11
1009.425276787212
 21
2883.371770700628
 31
0.0
 11
1008.703184773323
 21
2882.379787354434
 31
0.0
 11
1008.440438824249
 21
2881.169767742808
 31
0.0
 11
1007.943656055151
 21
2656.162313315726
 31
0.0
 11
1008.401853754804
 21
2431.179663576142
 31
0.0
 11
1008.772314518693
 21
2428.987546562253
 31
0.0
 11
1009.763487782582
 21
2427.078269131698
 31
0.0
 11
1011.264513129804
 21
2425.566660451142
 31
0.0
 11
1013.164530143693
 21
2424.567549687253
 31
0.0
 11
1015.352678407582
 21
2424.195766006697
 31
0.0
 11
1261.663225282582
 21
2422.750892959821
 31
0.0
 11
1507.973772157582
 21
2422.269268610863
 31
0.0
 11
1754.284319032582
 21
2422.750892959822
 31
0.0
 11
2000.594865907582
 21
2424.195766006697
 31
0.0
 11
2002.783543338138
 21
2424.567549687252
 31
0.0
 11
2004.68461868536
 21
2425.566660451142
 31
0.0
 11
2006.186437782582
 21
2427.078269131698
 31
0.0
 11
2007.177346463137
 21
2428.987546562253
 31
0.0
 11
2007.54569056036
 21
2431.179663576142
 31
0.0
 11
2008.000443164527
 21
2656.162313315726
 31
0.0
 11
2007.512617643693
 21
2881.169767742808
 31
0.0
 11
2007.247217695134
 21
2882.379787354434
 31
0.0
 11
2006.52124675892
 21
2883.371770700627
 31
0.0
 11
2005.440048199248
 21
2883.975453506697
 31
0.0
 11
2004.967381098554
 21
2884.088452638642
 31
0.0
 11
2004.519518685359
 21
2884.11876947892
 31
0.0
 11
2003.965553048561
 21
2884.11876947892
 31
0.0
 11
2002.324078834455
 21
2884.11876947892
 31
0.0
 11
1999.625730087472
 21
2884.11876947892
 31
0.0
 11
1995.901140852042
 21
2884.118769478921
 31
0.0
 11
1991.180945172598
 21
2884.11876947892
 31
0.0
 11
1985.495777093572
 21
2884.118769478921
 31
0.0
 11
1978.876270659391
 21
2884.11876947892
 31
0.0
 11
1971.353059914491
 21
2884.11876947892
 31
0.0
 11
1962.956778903301
 21
2884.11876947892
 31
0.0
 11
1953.718061670252
 21
2884.11876947892
 31
0.0
 11
1943.667542259776
 21
2884.11876947892
 31
0.0
 11
1932.835854716303
 21
2884.11876947892
 31
0.0
 11
1921.253633084266
 21
2884.11876947892
 31
0.0
 11
1908.951511408096
 21
2884.11876947892
 31
0.0
 11
1895.960123732222
 21
2884.11876947892
 31
0.0
 11
1882.310104101077
 21
2884.11876947892
 31
0.0
 11
1868.032086559093
 21
2884.118769478921
 31
0.0
 11
1853.1567051507
 21
2884.118769478921
 31
0.0
 11
1837.714593920329
 21
2884.11876947892
 31
0.0
 11
1821.736386912412
 21
2884.118769478921
 31
0.0
 11
1805.252718171378
 21
2884.118769478921
 31
0.0
 11
1788.294221741663
 21
2884.118769478921
 31
0.0
 11
1770.891531667694
 21
2884.11876947892
 31
0.0
 11
1753.075281993904
 21
2884.11876947892
 31
0.0
 11
1734.876106764724
 21
2884.11876947892
 31
0.0
 11
1716.324640024582
 21
2884.11876947892
 31
0.0
 11
1697.451515817915
 21
2884.11876947892
 31
0.0
 11
1678.287368189152
 21
2884.11876947892
 31
0.0
 11
1658.862831182722
 21
2884.11876947892
 31
0.0
 11
1639.208538843056
 21
2884.11876947892
 31
0.0
 11
1619.355125214591
 21
2884.11876947892
 31
0.0
 11
1599.333224341753
 21
2884.118769478921
 31
0.0
 11
1579.173470268975
 21
2884.11876947892
 31
0.0
 11
1558.906497040687
 21
2884.118769478921
 31
0.0
 11
1538.562938701319
 21
2884.11876947892
 31
0.0
 11
1518.173429295307
 21
2884.11876947892
 31
0.0
 11
1497.768602867079
 21
2884.11876947892
 31
0.0
 11
1477.379093461066
 21
2884.11876947892
 31
0.0
 11
1457.0355351217
 21
2884.11876947892
 31
0.0
 11
1436.76856189341
 21
2884.11876947892
 31
0.0
 11
1416.608807820632
 21
2884.11876947892
 31
0.0
 11
1396.586906947794
 21
2884.11876947892
 31
0.0
 11
1376.733493319328
 21
2884.11876947892
 31
0.0
 11
1357.079200979663
 21
2884.11876947892
 31
0.0
 11
1337.654663973234
 21
2884.11876947892
 31
0.0
 11
1318.49051634447
 21
2884.11876947892
 31
0.0
 11
1299.617392137803
 21
2884.11876947892
 31
0.0
 11
1281.065925397664
 21
2884.11876947892
 31
0.0
 11
1262.866750168481
 21
2884.11876947892
 31
0.0
 11
1245.050500494691
 21
2884.11876947892
 31
0.0
 11
1227.647810420723
 21
2884.11876947892
 31
0.0
 11
1210.689313991007
 21
2884.118769478921
 31
0.0
 11
1194.205645249973
 21
2884.118769478921
 31
0.0
 11
1178.227438242056
 21
2884.11876947892
 31
0.0
 11
1162.785327011685
 21
2884.11876947892
 31
0.0
 11
1147.909945603292
 21
2884.118769478921
 31
0.0
 11
1133.631928061308
 21
2884.11876947892
 31
0.0
 11
1119.981908430162
 21
2884.11876947892
 31
0.0
 11
1106.990520754289
 21
2884.11876947892
 31
0.0
 11
1094.688399078119
 21
2884.11876947892
 31
0.0
 11
1083.106177446082
 21
2884.11876947892
 31
0.0
 11
1072.274489902608
 21
2884.11876947892
 31
0.0
 11
1062.223970492133
 21
2884.11876947892
 31
0.0
 11
1052.985253259084
 21
2884.11876947892
 31
0.0
 11
1044.588972247894
 21
2884.11876947892
 31
0.0
 11
1037.065761502994
 21
2884.11876947892
 31
0.0
 11
1030.446255068814
 21
2884.118769478921
 31
0.0
 11
1024.761086989786
 21
2884.11876947892
 31
0.0
 11
1020.040891310343
 21
2884.118769478921
 31
0.0
 11
1016.316302074914
 21
2884.11876947892
 31
0.0
 11
1013.61795332793
 21
2884.11876947892
 31
0.0
 11
1011.976479113824
 21
2884.11876947892
 31
0.0
 11
1011.422513477026
 21
2884.11876947892
 31
0.0
  0
MTEXT
  5
D3
330
1F
100
AcDbEntity
  8
1
 62
     7
100
AcDbMText
 10
1617.0
 20
150.0
 30
0.0
 40
30.0
 41
0.0
 71
     5
 72
     1
  1
12
  7
CONVERTER_2
 73
     1
 44
0.7202881152461
  0
MTEXT
  5
D4
330
1F
100
AcDbEntity
  8
1
 62
     7
100
AcDbMText
 10
1755.0
 20
150.0
 30
0.0
 40
30.0
 41
0.0
 71
     5
 72
     1
  1
26
  7
CONVERTER_2
 73
     1
 44
0.7202881152461
  0
MTEXT
  5
D5
330
1F
100
AcDbEntity
  8
1
 62
     7
100
AcDbMText
 10
1686.0
 20
150.0
 30
0.0
 40
30.0
 41
0.0
 71
     5
 72
     1
  1
4
  7
CONVERTER_2
 73
     1
 44
0.7202881152461
  0
MTEXT
  5
D6
330
1F
100
AcDbEntity
  8
1
 62
     7
100
AcDbMText
 10
684.0
 20
273.0000000000002
 30
0.0
 40
42.00000000000001
 41
0.0
 71
     5
 72
     1
  1
洗面器
  7
CONVERTER_1
 73
     1
 44
0.7202881152461
  0
MTEXT
  5
D7
330
1F
100
AcDbEntity
  8
1
 62
     7
100
AcDbMText
 10
684.0
 20
171.0
 30
0.0
 40
42.00000000000001
 41
0.0
 71
     5
 72
     1
  1
SL818432-W-104
  7
CONVERTER_2
 73
     1
 44
0.7202881152461
  0
MTEXT
  5
D8
330
1F
100
AcDbEntity
  8
1
 62
     7
100
AcDbMText
 10
1125.0
 20
204.0
 30
0.0
 40
42.00000000000001
 41
0.0
 71
     5
 72
     1
  1
12
  7
CONVERTER_2
 73
     1
 44
0.7202881152461
  0
MTEXT
  5
D9
330
1F
100
AcDbEntity
  8
1
 62
     7
100
AcDbMText
 10
1023.0
 20
204.0
 30
0.0
 40
42.00000000000001
 41
0.0
 71
     5
 72
     1
  1
1
  7
CONVERTER_2
 73
     1
 44
0.7202881152461
  0
MTEXT
  5
DA
330
1F
100
AcDbEntity
  8
1
 62
     7
100
AcDbMText
 10
1890.0
 20
150.0
 30
0.0
 40
30.0
 41
0.0
 71
     5
 72
     1
  1
1
  7
CONVERTER_2
 73
     1
 44
0.7202881152461
  0
MTEXT
  5
DB
330
1F
100
AcDbEntity
  8
1
 62
     7
100
AcDbMText
 10
1959.0
 20
150.0
 30
0.0
 40
30.0
 41
0.0
 71
     5
 72
     1
  1
20
  7
CONVERTER_2
 73
     1
 44
0.7202881152461
  0
MTEXT
  5
DC
330
1F
100
AcDbEntity
  8
1
 62
     7
100
AcDbMText
 10
1821.0
 20
150.0
 30
0.0
 40
30.0
 41
0.0
 71
     5
 72
     1
  1
11
  7
CONVERTER_2
 73
     1
 44
0.7202881152461
  0
MTEXT
  5
DD
330
1F
100
AcDbEntity
  8
1
 62
     7
100
AcDbMText
 10
1890.0
 20
228.0000000000001
 30
0.0
 40
60.0
 41
0.0
 71
     5
 72
     1
  1
板津
  7
CONVERTER_1
 73
     1
 44
0.7202881152461
  0
MTEXT
  5
DE
330
1F
100
AcDbEntity
  8
1
 62
     7
100
AcDbMText
 10
1686.0
 20
228.0000000000001
 30
0.0
 40
60.0
 41
0.0
 71
     5
 72
     1
  1
酒光
  7
CONVERTER_1
 73
     1
 44
0.7202881152461
  0
MTEXT
  5
DF
330
1F
100
AcDbEntity
  8
1
 62
     7
100
AcDbMText
 10
408.0
 20
460.0000000000001
 30
0.0
 40
42.00000000000001
 41
0.0
 71
     4
 72
     1
  1
シリーズ名：living city(LAUFEN)
  7
CONVERTER_1
 73
     1
 44
0.7202881152461
  0
MTEXT
  5
E0
330
1F
100
AcDbEntity
  8
1
 62
     7
100
AcDbMText
 10
408.0
 20
356.0000000000001
 30
0.0
 40
42.00000000000001
 41
0.0
 71
     4
 72
     1
  1
{\Fgdt;n}38水栓取付位置の肉厚は最大18です。
  7
CONVERTER_1
 73
     1
 44
0.7202881152461
  0
MTEXT
  5
E1
330
1F
100
AcDbEntity
  8
1
 62
     7
100
AcDbMText
 10
408.0
 20
408.0000000000001
 30
0.0
 40
42.00000000000001
 41
0.0
 71
     4
 72
     1
  1
容量：10L・オーバーフロー付・コーキング剤付属
  7
CONVERTER_1
 73
     1
 44
0.7202881152461
  0
MTEXT
  5
E2
330
1F
100
AcDbEntity
  8
1
 62
     7
100
AcDbMText
 10
1482.0
 20
228.0000000000001
 30
0.0
 40
60.0
 41
0.0
 71
     5
 72
     1
  1
片岡
  7
CONVERTER_1
 73
     1
 44
0.7202881152461
  0
MTEXT
  5
E3
330
1F
100
AcDbEntity
  8
1
 62
     7
100
AcDbMText
 10
1278.0
 20
228.0000000000001
 30
0.0
 40
60.0
 41
0.0
 71
     5
 72
     1
  1
牧
  7
CONVERTER_1
 73
     1
 44
0.7202881152461
  0
MTEXT
  5
E4
330
1F
100
AcDbEntity
  8
1
 62
     7
100
AcDbMText
 10
1482.0
 20
150.0
 30
0.0
 40
30.0
 41
0.0
 71
     5
 72
     1
  1
4
  7
CONVERTER_2
 73
     1
 44
0.7202881152461
  0
MTEXT
  5
E5
330
1F
100
AcDbEntity
  8
1
 62
     7
100
AcDbMText
 10
1551.0
 20
150.0
 30
0.0
 40
30.0
 41
0.0
 71
     5
 72
     1
  1
26
  7
CONVERTER_2
 73
     1
 44
0.7202881152461
  0
MTEXT
  5
E6
330
1F
100
AcDbEntity
  8
1
 62
     7
100
AcDbMText
 10
1413.0
 20
150.0
 30
0.0
 40
30.0
 41
0.0
 71
     5
 72
     1
  1
12
  7
CONVERTER_2
 73
     1
 44
0.7202881152461
  0
MTEXT
  5
E7
330
1F
100
AcDbEntity
  8
1
 62
     7
100
AcDbMText
 10
1209.0
 20
150.0
 30
0.0
 40
30.0
 41
0.0
 71
     5
 72
     1
  1
12
  7
CONVERTER_2
 73
     1
 44
0.7202881152461
  0
MTEXT
  5
E8
330
1F
100
AcDbEntity
  8
1
 62
     7
100
AcDbMText
 10
1347.0
 20
150.0
 30
0.0
 40
30.0
 41
0.0
 71
     5
 72
     1
  1
2
  7
CONVERTER_2
 73
     1
 44
0.7202881152461
  0
MTEXT
  5
E9
330
1F
100
AcDbEntity
  8
1
 62
     7
100
AcDbMText
 10
1278.0
 20
150.0
 30
0.0
 40
30.0
 41
0.0
 71
     5
 72
     1
  1
5
  7
CONVERTER_2
 73
     1
 44
0.7202881152461
  0
DIMENSION
  5
F4
330
1F
100
AcDbEntity
  8
1
100
AcDbDimension
  2
*D03
 10
767.9441295849384
 20
2424.191741028793
 30
0.0
 11
734.9441295849384
 21
2654.155255253856
 31
0.0
  1
460
 71
     5
 42
0.0
 53
90.0
  3
ME10_DIM_0
100
AcDbAlignedDimension
 13
887.9441295849383
 23
2884.11876947892
 33
0.0
 14
1008.347873148041
 24
2424.191741028793
 34
0.0
 50
90.0
100
AcDbRotatedDimension
  0
DIMENSION
  5
FF
330
1F
100
AcDbEntity
  8
1
100
AcDbDimension
  2
*D14
 10
2224.38904993536
 20
1417.136711076572
 30
0.0
 11
2191.38904993536
 21
1501.99919042478
 31
0.0
  1
155
 71
     5
 42
0.0
 53
90.0
  3
ME10_DIM_1
100
AcDbAlignedDimension
 13
1615.2097700709
 23
1571.99801854978
 33
0.0
 14
1347.844465512176
 24
1417.136711076571
 34
0.0
 50
90.0
100
AcDbRotatedDimension
  0
DIMENSION
  5
10A
330
1F
100
AcDbEntity
  8
1
100
AcDbDimension
  2
*D25
 10
2128.38904993536
 20
1432.00036229978
 30
0.0
 11
2095.38904993536
 21
1501.99919042478
 31
0.0
  1
<>
 71
     5
 42
0.0
 53
90.0
  3
ME10_DIM_2
100
AcDbAlignedDimension
 13
1615.2097700709
 23
1571.99801854978
 33
0.0
 14
2008.439049935361
 24
1432.00036229978
 34
0.0
 50
90.0
100
AcDbRotatedDimension
  0
DIMENSION
  5
117
330
1F
100
AcDbEntity
  8
1
100
AcDbDimension
  2
*D36
 10
1858.67739430142
 20
1432.00036229978
 30
0.0
 11
1825.67739430142
 21
1629.70188580085
 31
0.0
  1
<>
 71
     5
 42
0.0
 53
90.0
  3
ME10_DIM_3
100
AcDbAlignedDimension
 13
2007.737013975052
 23
1482.000569121409
 33
0.0
 14
2008.439049935361
 24
1432.00036229978
 34
0.0
 50
90.0
100
AcDbRotatedDimension
  0
DIMENSION
  5
124
330
1F
100
AcDbEntity
  8
1
100
AcDbDimension
  2
*D47
 10
1736.424092056733
 20
1571.99801854978
 30
0.0
 11
1703.424092056733
 21
1696.77784529655
 31
0.0
  1
50
 71
     5
 42
0.0
 53
90.0
  3
ME10_DIM_4
100
AcDbAlignedDimension
 13
1480.54529993536
 23
1522.030353619224
 33
0.0
 14
1615.2097700709
 24
1571.99801854978
 34
0.0
 50
90.0
100
AcDbRotatedDimension
  0
DIMENSION
  5
12F
330
1F
100
AcDbEntity
  8
1
100
AcDbDimension
  2
*D58
 10
1172.774249588138
 20
1691.998018549779
 30
0.0
 11
1312.669931011749
 21
1724.998018549779
 31
0.0
  1
280
 71
     5
 42
0.0
 53
0.00013888888889
  3
ME10_DIM_5
100
AcDbAlignedDimension
 13
1452.56561243536
 23
1538.798322369224
 33
0.0
 14
1172.774249588138
 24
1538.798322369224
 34
0.0
100
AcDbRotatedDimension
  0
DIMENSION
  5
13A
330
1F
100
AcDbEntity
  8
1
100
AcDbDimension
  2
*D69
 10
1009.872663016448
 20
1691.998018549779
 30
0.0
 11
1091.323456302293
 21
1724.998018549779
 31
0.0
  1
160
 71
     5
 42
0.0
 53
0.00013888888889
  3
ME10_DIM_6
100
AcDbAlignedDimension
 13
1172.774249588138
 23
1538.798322369224
 33
0.0
 14
1009.872663016449
 24
1572.04801854978
 34
0.0
100
AcDbRotatedDimension
  0
DIMENSION
  5
145
330
1F
100
AcDbEntity
  8
1
100
AcDbDimension
  2
*D710
 10
2344.0
 20
2659.333179201124
 30
0.0
 11
2311.0
 21
2771.725974340021
 31
0.0
  1
225
 71
     5
 42
0.0
 53
90.0
  3
ME10_DIM_7
100
AcDbAlignedDimension
 13
2128.0
 23
2884.11876947892
 33
0.0
 14
2044.0
 24
2659.333179201125
 34
0.0
 50
90.0
100
AcDbRotatedDimension
  0
DIMENSION
  5
150
330
1F
100
AcDbEntity
  8
1
100
AcDbDimension
  2
*D811
 10
1008.39787314804
 20
2206.572117002871
 30
0.0
 11
1507.972064792469
 21
2239.572117002871
 31
0.0
  1
1000
 71
     5
 42
0.0
 53
0.00013888888889
  3
ME10_DIM_8
100
AcDbAlignedDimension
 13
2007.548860257837
 23
2424.140981861443
 33
0.0
 14
1008.397873148041
 24
2424.141741028794
 34
0.0
100
AcDbRotatedDimension
  0
DIMENSION
  5
15B
330
1F
100
AcDbEntity
  8
1
100
AcDbDimension
  2
*D912
 10
1614.479322702998
 20
2302.572117002871
 30
0.0
 11
1811.46346611685
 21
2335.572117002871
 31
0.0
  1
400
 71
     5
 42
0.0
 53
0.00013888888889
  3
ME10_DIM_9
100
AcDbAlignedDimension
 13
2007.548860257837
 23
2424.140981861443
 33
0.0
 14
1614.479322702998
 24
2422.30470697892
 34
0.0
100
AcDbRotatedDimension
  0
DIMENSION
  5
166
330
1F
100
AcDbEntity
  8
1
100
AcDbDimension
  2
*D1013
 10
1008.397873148041
 20
2302.572117002871
 30
0.0
 11
1311.435530909319
 21
2335.572117002871
 31
0.0
  1
600
 71
     5
 42
0.0
 53
0.00013888888889
  3
ME10_DIM_10
100
AcDbAlignedDimension
 13
1614.479322702998
 23
2422.30470697892
 33
0.0
 14
1008.397873148041
 24
2424.141741028794
 34
0.0
100
AcDbRotatedDimension
  0
DIMENSION
  5
171
330
1F
100
AcDbEntity
  8
1
100
AcDbDimension
  2
*D1114
 10
1008.439897045278
 20
3016.118769478921
 30
0.0
 11
1160.300140107371
 21
3049.118769478921
 31
0.0
  1
300
 71
     5
 42
0.0
 53
0.00013888888889
  3
ME10_DIM_11
100
AcDbAlignedDimension
 13
1312.656150629804
 23
2920.360212817178
 33
0.0
 14
1008.439897045279
 24
2884.16876947892
 34
0.0
100
AcDbRotatedDimension
  0
DIMENSION
  5
17C
330
1F
100
AcDbEntity
  8
1
100
AcDbDimension
  2
*D1215
 10
2248.0
 20
2821.252667048364
 30
0.0
 11
2215.0
 21
2740.292923124744
 31
0.0
  1
165
 71
     5
 42
0.0
 53
90.0
  3
ME10_DIM_12
100
AcDbAlignedDimension
 13
2044.0
 23
2659.333179201125
 33
0.0
 14
1350.656150629804
 24
2821.252667048364
 34
0.0
 50
90.0
100
AcDbRotatedDimension
  0
INSERT
  5
184
330
1F
100
AcDbEntity
  8
1
100
AcDbBlockReference
  2
*D1316
 10
0.0
 20
0.0
 30
0.0
  0
INSERT
  5
18C
330
1F
100
AcDbEntity
  8
1
100
AcDbBlockReference
  2
*D1417
 10
0.0
 20
0.0
 30
0.0
  0
INSERT
  5
194
330
1F
100
AcDbEntity
  8
1
100
AcDbBlockReference
  2
*D1518
 10
0.0
 20
0.0
 30
0.0
  0
ENDSEC
  0
SECTION
  2
OBJECTS
  0
DICTIONARY
  5
C
330
0
100
AcDbDictionary
281
     1
  3
ACAD_GROUP
350
D
  3
ACAD_LAYOUT
350
1A
  3
ACAD_MLINESTYLE
350
17
  3
ACAD_PLOTSETTINGS
350
19
  3
ACAD_PLOTSTYLENAME
350
E
  3
ACAD_TABLESTYLE
350
2A
  3
AcDbVariableDictionary
350
2C
  0
DICTIONARY
  5
D
102
{ACAD_REACTORS
330
C
102
}
330
C
100
AcDbDictionary
281
     1
  0
DICTIONARY
  5
1A
102
{ACAD_REACTORS
330
C
102
}
330
C
100
AcDbDictionary
281
     1
  3
Layout1
350
1E
  3
Layout2
350
26
  3
Model
350
22
  0
DICTIONARY
  5
17
102
{ACAD_REACTORS
330
C
102
}
330
C
100
AcDbDictionary
281
     1
  3
Standard
350
18
  0
DICTIONARY
  5
19
102
{ACAD_REACTORS
330
C
102
}
330
C
100
AcDbDictionary
281
     1
  0
ACDBDICTIONARYWDFLT
  5
E
102
{ACAD_REACTORS
330
C
102
}
330
C
100
AcDbDictionary
281
     1
  3
Normal
350
F
100
AcDbDictionaryWithDefault
340
F
  0
DICTIONARY
  5
2A
102
{ACAD_REACTORS
330
C
102
}
330
C
100
AcDbDictionary
281
     1
  3
Standard
350
2B
  0
DICTIONARY
  5
2C
102
{ACAD_REACTORS
330
C
102
}
330
C
100
AcDbDictionary
281
     1
  3
CTABLESTYLE
350
2D
  0
LAYOUT
  5
1E
102
{ACAD_REACTORS
330
1A
102
}
330
1A
100
AcDbPlotSettings
  1

  2

  4

  6

 40
0.0
 41
0.0
 42
0.0
 43
0.0
 44
0.0
 45
0.0
 46
0.0
 47
0.0
 48
0.0
 49
0.0
140
0.0
141
0.0
142
1.0
143
1.0
 70
   688
 72
     0
 73
     0
 74
     5
  7

 75
    16
147
1.0
148
0.0
149
0.0
100
AcDbLayout
  1
Layout1
 70
     1
 71
     1
 10
0.0
 20
0.0
 11
12.0
 21
9.0
 12
0.0
 22
0.0
 32
0.0
 14
1.00000000000000E+20
 24
1.00000000000000E+20
 34
1.00000000000000E+20
 15
-1.00000000000000E+20
 25
-1.00000000000000E+20
 35
-1.00000000000000E+20
146
0.0
 13
0.0
 23
0.0
 33
0.0
 16
1.0
 26
0.0
 36
0.0
 17
0.0
 27
1.0
 37
0.0
 76
     0
330
1B
  0
LAYOUT
  5
26
102
{ACAD_REACTORS
330
1A
102
}
330
1A
100
AcDbPlotSettings
  1

  2

  4

  6

 40
0.0
 41
0.0
 42
0.0
 43
0.0
 44
0.0
 45
0.0
 46
0.0
 47
0.0
 48
0.0
 49
0.0
140
0.0
141
0.0
142
1.0
143
1.0
 70
   688
 72
     0
 73
     0
 74
     5
  7

 75
    16
147
1.0
148
0.0
149
0.0
100
AcDbLayout
  1
Layout2
 70
     1
 71
     2
 10
0.0
 20
0.0
 11
0.0
 21
0.0
 12
0.0
 22
0.0
 32
0.0
 14
0.0
 24
0.0
 34
0.0
 15
0.0
 25
0.0
 35
0.0
146
0.0
 13
0.0
 23
0.0
 33
0.0
 16
1.0
 26
0.0
 36
0.0
 17
0.0
 27
1.0
 37
0.0
 76
     0
330
23
  0
LAYOUT
  5
22
102
{ACAD_REACTORS
330
1A
102
}
330
1A
100
AcDbPlotSettings
  1

  2

  4

  6

 40
0.0
 41
0.0
 42
0.0
 43
0.0
 44
0.0
 45
0.0
 46
0.0
 47
0.0
 48
0.0
 49
0.0
140
0.0
141
0.0
142
1.0
143
1.0
 70
  1712
 72
     0
 73
     0
 74
     0
  7

 75
     0
147
1.0
148
0.0
149
0.0
100
AcDbLayout
  1
Model
 70
     1
 71
     0
 10
0.0
 20
0.0
 11
0.0
 21
0.0
 12
0.0
 22
0.0
 32
0.0
 14
0.0
 24
0.0
 34
0.0
 15
2520.0
 25
3564.0
 35
0.0
146
0.0
 13
0.0
 23
0.0
 33
0.0
 16
1.0
 26
0.0
 36
0.0
 17
0.0
 27
1.0
 37
0.0
 76
     0
330
1F
  0
MLINESTYLE
  5
18
102
{ACAD_REACTORS
330
17
102
}
330
17
100
AcDbMlineStyle
  2
Standard
 70
     0
  3

 62
   256
 51
90.0
 52
90.0
 71
     2
 49
0.5
 62
   256
  6
BYLAYER
 49
-0.5
 62
   256
  6
BYLAYER
  0
ACDBPLACEHOLDER
  5
F
102
{ACAD_REACTORS
330
E
102
}
330
E
  0
TABLESTYLE
  5
2B
102
{ACAD_REACTORS
330
2A
102
}
330
2A
100
AcDbTableStyle
  3
Standard
 70
     0
 71
     0
 40
0.06
 41
0.06
280
     0
281
     0
  7
Standard
140
0.18
170
     2
 62
     0
 63
     7
283
     0
274
    -2
284
     1
 64
     0
275
    -2
285
     1
 65
     0
276
    -2
286
     1
 66
     0
277
    -2
287
     1
 67
     0
278
    -2
288
     1
 68
     0
279
    -2
289
     1
 69
     0
  7
Standard
140
0.25
170
     5
 62
     0
 63
     7
283
     0
274
    -2
284
     1
 64
     0
275
    -2
285
     1
 65
     0
276
    -2
286
     1
 66
     0
277
    -2
287
     1
 67
     0
278
    -2
288
     1
 68
     0
279
    -2
289
     1
 69
     0
  7
Standard
140
0.18
170
     5
 62
     0
 63
     7
283
     0
274
    -2
284
     1
 64
     0
275
    -2
285
     1
 65
     0
276
    -2
286
     1
 66
     0
277
    -2
287
     1
 67
     0
278
    -2
288
     1
 68
     0
279
    -2
289
     1
 69
     0
  0
DICTIONARYVAR
  5
2D
102
{ACAD_REACTORS
330
2C
102
}
330
2C
100
DictionaryVariables
280
     0
  1
Standard
  0
ENDSEC
  0
EOF
