  0
SECTION
  2
HEADER
  9
$ACADVER
  1
AC1015
  9
$ACADMAINTVER
 70
     6
  9
$DWGCODEPAGE
  3
DOS932
  9
$INSBASE
 10
0.0
 20
0.0
 30
0.0
  9
$EXTMIN
 10
0.0
 20
0.0
 30
0.0
  9
$EXTMAX
 10
1680.0
 20
2376.0
 30
0.0
  9
$LIMMIN
 10
0.0
 20
0.0
  9
$LIMMAX
 10
12.0
 20
9.0
  9
$ORTHOMODE
 70
     0
  9
$REGENMODE
 70
     1
  9
$FILLMODE
 70
     1
  9
$QTEXTMODE
 70
     0
  9
$MIRRTEXT
 70
     1
  9
$LTSCALE
 40
1.0
  9
$ATTMODE
 70
     1
  9
$TEXTSIZE
 40
0.2
  9
$TRACEWID
 40
0.05
  9
$TEXTSTYLE
  7
Standard
  9
$CLAYER
  8
0
  9
$CELTYPE
  6
ByLayer
  9
$CECOLOR
 62
   256
  9
$CELTSCALE
 40
1.0
  9
$DISPSILH
 70
     0
  9
$DIMSCALE
 40
1.0
  9
$DIMASZ
 40
0.18
  9
$DIMEXO
 40
0.0625
  9
$DIMDLI
 40
0.38
  9
$DIMRND
 40
0.0
  9
$DIMDLE
 40
0.0
  9
$DIMEXE
 40
0.18
  9
$DIMTP
 40
0.0
  9
$DIMTM
 40
0.0
  9
$DIMTXT
 40
0.18
  9
$DIMCEN
 40
0.09
  9
$DIMTSZ
 40
0.0
  9
$DIMTOL
 70
     0
  9
$DIMLIM
 70
     0
  9
$DIMTIH
 70
     1
  9
$DIMTOH
 70
     1
  9
$DIMSE1
 70
     0
  9
$DIMSE2
 70
     0
  9
$DIMTAD
 70
     0
  9
$DIMZIN
 70
     0
  9
$DIMBLK
  1

  9
$DIMASO
 70
     1
  9
$DIMSHO
 70
     1
  9
$DIMPOST
  1

  9
$DIMAPOST
  1

  9
$DIMALT
 70
     0
  9
$DIMALTD
 70
     2
  9
$DIMALTF
 40
25.4
  9
$DIMLFAC
 40
1.0
  9
$DIMTOFL
 70
     0
  9
$DIMTVP
 40
0.0
  9
$DIMTIX
 70
     0
  9
$DIMSOXD
 70
     0
  9
$DIMSAH
 70
     0
  9
$DIMBLK1
  1

  9
$DIMBLK2
  1

  9
$DIMSTYLE
  2
Standard
  9
$DIMCLRD
 70
     0
  9
$DIMCLRE
 70
     0
  9
$DIMCLRT
 70
     0
  9
$DIMTFAC
 40
1.0
  9
$DIMGAP
 40
0.09
  9
$DIMJUST
 70
     0
  9
$DIMSD1
 70
     0
  9
$DIMSD2
 70
     0
  9
$DIMTOLJ
 70
     1
  9
$DIMTZIN
 70
     0
  9
$DIMALTZ
 70
     0
  9
$DIMALTTZ
 70
     0
  9
$DIMUPT
 70
     0
  9
$DIMDEC
 70
     4
  9
$DIMTDEC
 70
     4
  9
$DIMALTU
 70
     2
  9
$DIMALTTD
 70
     2
  9
$DIMTXSTY
  7
Standard
  9
$DIMAUNIT
 70
     0
  9
$DIMADEC
 70
     0
  9
$DIMALTRND
 40
0.0
  9
$DIMAZIN
 70
     0
  9
$DIMDSEP
 70
    46
  9
$DIMATFIT
 70
     3
  9
$DIMFRAC
 70
     0
  9
$DIMLDRBLK
  1

  9
$DIMLUNIT
 70
     2
  9
$DIMLWD
 70
    -2
  9
$DIMLWE
 70
    -2
  9
$DIMTMOVE
 70
     0
  9
$LUNITS
 70
     2
  9
$LUPREC
 70
     4
  9
$SKETCHINC
 40
0.1
  9
$FILLETRAD
 40
0.5
  9
$AUNITS
 70
     0
  9
$AUPREC
 70
     0
  9
$MENU
  1
.
  9
$ELEVATION
 40
0.0
  9
$PELEVATION
 40
0.0
  9
$THICKNESS
 40
0.0
  9
$LIMCHECK
 70
     0
  9
$CHAMFERA
 40
0.5
  9
$CHAMFERB
 40
0.5
  9
$CHAMFERC
 40
1.0
  9
$CHAMFERD
 40
0.0
  9
$SKPOLY
 70
     0
  9
$TDCREATE
 40
2456043.643654143
  9
$TDUCREATE
 40
2456043.268654143
  9
$TDUPDATE
 40
2456043.643654155
  9
$TDUUPDATE
 40
2456043.268654155
  9
$TDINDWG
 40
0.0000000116
  9
$TDUSRTIMER
 40
0.0000000116
  9
$USRTIMER
 70
     1
  9
$ANGBASE
 50
0.0
  9
$ANGDIR
 70
     0
  9
$PDMODE
 70
     0
  9
$PDSIZE
 40
0.0
  9
$PLINEWID
 40
0.0
  9
$SPLFRAME
 70
     0
  9
$SPLINETYPE
 70
     6
  9
$SPLINESEGS
 70
     8
  9
$HANDSEED
  5
129
  9
$SURFTAB1
 70
     6
  9
$SURFTAB2
 70
     6
  9
$SURFTYPE
 70
     6
  9
$SURFU
 70
     6
  9
$SURFV
 70
     6
  9
$UCSBASE
  2

  9
$UCSNAME
  2

  9
$UCSORG
 10
0.0
 20
0.0
 30
0.0
  9
$UCSXDIR
 10
1.0
 20
0.0
 30
0.0
  9
$UCSYDIR
 10
0.0
 20
1.0
 30
0.0
  9
$UCSORTHOREF
  2

  9
$UCSORTHOVIEW
 70
     0
  9
$UCSORGTOP
 10
0.0
 20
0.0
 30
0.0
  9
$UCSORGBOTTOM
 10
0.0
 20
0.0
 30
0.0
  9
$UCSORGLEFT
 10
0.0
 20
0.0
 30
0.0
  9
$UCSORGRIGHT
 10
0.0
 20
0.0
 30
0.0
  9
$UCSORGFRONT
 10
0.0
 20
0.0
 30
0.0
  9
$UCSORGBACK
 10
0.0
 20
0.0
 30
0.0
  9
$PUCSBASE
  2

  9
$PUCSNAME
  2

  9
$PUCSORG
 10
0.0
 20
0.0
 30
0.0
  9
$PUCSXDIR
 10
1.0
 20
0.0
 30
0.0
  9
$PUCSYDIR
 10
0.0
 20
1.0
 30
0.0
  9
$PUCSORTHOREF
  2

  9
$PUCSORTHOVIEW
 70
     0
  9
$PUCSORGTOP
 10
0.0
 20
0.0
 30
0.0
  9
$PUCSORGBOTTOM
 10
0.0
 20
0.0
 30
0.0
  9
$PUCSORGLEFT
 10
0.0
 20
0.0
 30
0.0
  9
$PUCSORGRIGHT
 10
0.0
 20
0.0
 30
0.0
  9
$PUCSORGFRONT
 10
0.0
 20
0.0
 30
0.0
  9
$PUCSORGBACK
 10
0.0
 20
0.0
 30
0.0
  9
$USERI1
 70
     0
  9
$USERI2
 70
     0
  9
$USERI3
 70
     0
  9
$USERI4
 70
     0
  9
$USERI5
 70
     0
  9
$USERR1
 40
13.2
  9
$USERR2
 40
0.0
  9
$USERR3
 40
0.0
  9
$USERR4
 40
0.0
  9
$USERR5
 40
0.0
  9
$WORLDVIEW
 70
     1
  9
$SHADEDGE
 70
     3
  9
$SHADEDIF
 70
    70
  9
$TILEMODE
 70
     1
  9
$MAXACTVP
 70
    64
  9
$PINSBASE
 10
0.0
 20
0.0
 30
0.0
  9
$PLIMCHECK
 70
     0
  9
$PEXTMIN
 10
1.00000000000000E+20
 20
1.00000000000000E+20
 30
1.00000000000000E+20
  9
$PEXTMAX
 10
-1.00000000000000E+20
 20
-1.00000000000000E+20
 30
-1.00000000000000E+20
  9
$PLIMMIN
 10
0.0
 20
0.0
  9
$PLIMMAX
 10
12.0
 20
9.0
  9
$UNITMODE
 70
     0
  9
$VISRETAIN
 70
     1
  9
$PLINEGEN
 70
     0
  9
$PSLTSCALE
 70
     1
  9
$TREEDEPTH
 70
  3020
  9
$CMLSTYLE
  2
Standard
  9
$CMLJUST
 70
     0
  9
$CMLSCALE
 40
1.0
  9
$PROXYGRAPHICS
 70
     1
  9
$MEASUREMENT
 70
     1
  9
$CELWEIGHT
370
    -1
  9
$ENDCAPS
280
     0
  9
$JOINSTYLE
280
     0
  9
$LWDISPLAY
290
     0
  9
$INSUNITS
 70
     1
  9
$HYPERLINKBASE
  1

  9
$STYLESHEET
  1

  9
$XEDIT
290
     1
  9
$CEPSNTYPE
380
     0
  9
$PSTYLEMODE
290
     0
  9
$FINGERPRINTGUID
  2
{FAEB1C30-E019-11D5-929B-00C0DF256EC4}
  9
$VERSIONGUID
  2
{FAEB1C32-E019-11D5-929B-00C0DF256EC4}
  9
$EXTNAMES
290
     1
  9
$PSVPSCALE
 40
0.0
  9
$OLESTARTUP
290
     0
  0
ENDSEC
  0
SECTION
  2
CLASSES
  0
CLASS
  1
ACDBDICTIONARYWDFLT
  2
AcDbDictionaryWithDefault
  3
ObjectDBX Classes
 90
        0
280
     0
281
     0
  0
CLASS
  1
TABLESTYLE
  2
AcDbTableStyle
  3
ObjectDBX Classes
 90
     2047
280
     0
281
     0
  0
CLASS
  1
DICTIONARYVAR
  2
AcDbDictionaryVar
  3
ObjectDBX Classes
 90
        0
280
     0
281
     0
  0
CLASS
  1

  2
exOdDbCircle
  3

 90
        0
280
     0
281
     1
  0
CLASS
  1

  2
exOdDbSpline
  3

 90
        0
280
     0
281
     1
  0
CLASS
  1
ACDBPLACEHOLDER
  2
AcDbPlaceHolder
  3
ObjectDBX Classes
 90
        0
280
     0
281
     0
  0
CLASS
  1
LAYOUT
  2
AcDbLayout
  3
ObjectDBX Classes
 90
        0
280
     0
281
     0
  0
ENDSEC
  0
SECTION
  2
TABLES
  0
TABLE
  2
VPORT
  5
8
330
0
100
AcDbSymbolTable
 70
     2
  0
VPORT
  5
29
330
8
100
AcDbSymbolTableRecord
100
AcDbViewportTableRecord
  2
*Active
 70
     0
 10
0.0
 20
0.0
 11
1.0
 21
1.0
 12
840.0
 22
1188.0
 13
0.0
 23
0.0
 14
0.5
 24
0.5
 15
0.5
 25
0.5
 16
0.0
 26
0.0
 36
1.0
 17
0.0
 27
0.0
 37
0.0
 40
2613.6
 41
1.60267857142857
 42
50.0
 43
0.0
 44
0.0
 50
0.0
 51
0.0
 71
     0
 72
   100
 73
     1
 74
     3
 75
     0
 76
     0
 77
     0
 78
     0
281
     0
 65
     1
110
0.0
120
0.0
130
0.0
111
1.0
121
0.0
131
0.0
112
0.0
122
1.0
132
0.0
 79
     0
146
0.0
  0
ENDTAB
  0
TABLE
  2
LTYPE
  5
5
330
0
100
AcDbSymbolTable
 70
     8
  0
LTYPE
  5
14
330
5
100
AcDbSymbolTableRecord
100
AcDbLinetypeTableRecord
  2
ByBlock
 70
     0
  3

 72
    65
 73
     0
 40
0.0
  0
LTYPE
  5
15
330
5
100
AcDbSymbolTableRecord
100
AcDbLinetypeTableRecord
  2
ByLayer
 70
     0
  3

 72
    65
 73
     0
 40
0.0
  0
LTYPE
  5
16
330
5
100
AcDbSymbolTableRecord
100
AcDbLinetypeTableRecord
  2
Continuous
 70
     0
  3
Solid line
 72
    65
 73
     0
 40
0.0
  0
LTYPE
  5
2E
330
5
100
AcDbSymbolTableRecord
100
AcDbLinetypeTableRecord
  2
DASHED
 70
     0
  3
Dashed
 72
    65
 73
     2
 40
15.0
 49
7.0
 74
     0
 49
-8.0
 74
     0
  0
LTYPE
  5
2F
330
5
100
AcDbSymbolTableRecord
100
AcDbLinetypeTableRecord
  2
DOTTED
 70
     0
  3
Dotted
 72
    65
 73
     2
 40
1.0
 49
0.0
 74
     0
 49
-1.0
 74
     0
  0
LTYPE
  5
30
330
5
100
AcDbSymbolTableRecord
100
AcDbLinetypeTableRecord
  2
DOT_CENTER
 70
     0
  3
Dot_Center
 72
    65
 73
     4
 40
14.0
 49
12.0
 74
     0
 49
-1.0
 74
     0
 49
0.0
 74
     0
 49
-1.0
 74
     0
  0
LTYPE
  5
31
330
5
100
AcDbSymbolTableRecord
100
AcDbLinetypeTableRecord
  2
LONG_DASHED
 70
     0
  3
Long_Dashed
 72
    65
 73
     2
 40
15.0
 49
10.0
 74
     0
 49
-5.0
 74
     0
  0
LTYPE
  5
32
330
5
100
AcDbSymbolTableRecord
100
AcDbLinetypeTableRecord
  2
DASH_CENTER
 70
     0
  3
Dash_Center
 72
    65
 73
     4
 40
14.0
 49
11.0
 74
     0
 49
-1.0
 74
     0
 49
1.0
 74
     0
 49
-1.0
 74
     0
  0
LTYPE
  5
33
330
5
100
AcDbSymbolTableRecord
100
AcDbLinetypeTableRecord
  2
PHANTOM
 70
     0
  3
Phantom
 72
    65
 73
     6
 40
13.0
 49
10.0
 74
     0
 49
-1.0
 74
     0
 49
0.0
 74
     0
 49
-1.0
 74
     0
 49
0.0
 74
     0
 49
-1.0
 74
     0
  0
LTYPE
  5
34
330
5
100
AcDbSymbolTableRecord
100
AcDbLinetypeTableRecord
  2
CENTER_DASH_DASH
 70
     0
  3
Center_Dash_Dash
 72
    65
 73
     6
 40
14.0
 49
9.0
 74
     0
 49
-1.0
 74
     0
 49
1.0
 74
     0
 49
-1.0
 74
     0
 49
1.0
 74
     0
 49
-1.0
 74
     0
  0
ENDTAB
  0
TABLE
  2
LAYER
  5
2
330
0
100
AcDbSymbolTable
 70
     3
  0
LAYER
  5
10
330
2
100
AcDbSymbolTableRecord
100
AcDbLayerTableRecord
  2
0
 70
     0
 62
     7
  6
Continuous
370
    -3
390
F
  0
LAYER
  5
35
330
2
100
AcDbSymbolTableRecord
100
AcDbLayerTableRecord
  2
1
 70
     0
 62
     7
  6
Continuous
370
    -3
390
F
  0
LAYER
  5
36
330
2
100
AcDbSymbolTableRecord
100
AcDbLayerTableRecord
  2
___C_____1
 70
     0
 62
     7
  6
Continuous
370
    -3
390
F
  0
ENDTAB
  0
TABLE
  2
STYLE
  5
3
330
0
100
AcDbSymbolTable
 70
     3
  0
STYLE
  5
11
330
3
100
AcDbSymbolTableRecord
100
AcDbTextStyleTableRecord
  2
Standard
 70
     0
 40
0.0
 41
1.0
 50
0.0
 71
     0
 42
0.2
  3
txt
  4

  0
STYLE
  5
86
330
3
100
AcDbSymbolTableRecord
100
AcDbTextStyleTableRecord
  2
CONVERTER_1
 70
     0
 40
0.0
 41
0.89
 50
0.0
 71
     0
 42
0.2
  3
msmincho.ttc
  4

1001
ACAD
1000
MS Mincho
1071
    32785
  0
STYLE
  5
B8
330
3
100
AcDbSymbolTableRecord
100
AcDbTextStyleTableRecord
  2
CONVERTER_2
 70
     0
 40
0.0
 41
0.9
 50
0.0
 71
     0
 42
0.2
  3
txt.shx
  4

  0
ENDTAB
  0
TABLE
  2
VIEW
  5
6
330
0
100
AcDbSymbolTable
 70
     0
  0
ENDTAB
  0
TABLE
  2
UCS
  5
7
330
0
100
AcDbSymbolTable
 70
     0
  0
ENDTAB
  0
TABLE
  2
APPID
  5
9
330
0
100
AcDbSymbolTable
 70
     1
  0
APPID
  5
12
330
9
100
AcDbSymbolTableRecord
100
AcDbRegAppTableRecord
  2
ACAD
 70
     0
  0
ENDTAB
  0
TABLE
  2
DIMSTYLE
  5
A
330
0
100
AcDbSymbolTable
 70
     9
100
AcDbDimStyleTable
  0
DIMSTYLE
105
27
330
A
100
AcDbSymbolTableRecord
100
AcDbDimStyleTableRecord
  2
Standard
 70
     0
340
11
  0
DIMSTYLE
105
D8
102
{ACAD_REACTORS
330
D9
102
}
330
A
100
AcDbSymbolTableRecord
100
AcDbDimStyleTableRecord
  2
ME10_DIM_0
 70
     0
 41
28.0
 42
0.0
 44
8.0
 73
     0
 74
     0
 77
     1
 78
     8
140
28.0
147
0.625
172
     1
173
     1
176
     2
177
     2
178
     7
271
     2
340
B8
  0
DIMSTYLE
105
E3
102
{ACAD_REACTORS
330
E4
102
}
330
A
100
AcDbSymbolTableRecord
100
AcDbDimStyleTableRecord
  2
ME10_DIM_1
 70
     0
 41
28.0
 42
0.0
 44
8.0
 73
     0
 74
     0
 77
     1
 78
     8
140
28.0
147
0.625
172
     1
173
     1
176
     2
177
     2
178
     7
271
     2
340
B8
  0
DIMSTYLE
105
EE
102
{ACAD_REACTORS
330
EF
102
}
330
A
100
AcDbSymbolTableRecord
100
AcDbDimStyleTableRecord
  2
ME10_DIM_2
 70
     0
 41
28.0
 42
0.0
 44
8.0
 73
     0
 74
     0
 77
     1
 78
     8
140
28.0
147
0.625
172
     1
173
     1
176
     2
177
     2
178
     7
271
     2
340
B8
  0
DIMSTYLE
105
F9
102
{ACAD_REACTORS
330
FA
102
}
330
A
100
AcDbSymbolTableRecord
100
AcDbDimStyleTableRecord
  2
ME10_DIM_3
 70
     0
 41
28.0
 42
0.0
 44
8.0
 73
     0
 74
     0
 77
     1
 78
     8
140
28.0
147
0.625
172
     1
173
     1
176
     2
177
     2
178
     7
271
     2
340
B8
  0
DIMSTYLE
105
106
102
{ACAD_REACTORS
330
107
102
}
330
A
100
AcDbSymbolTableRecord
100
AcDbDimStyleTableRecord
  2
ME10_DIM_4
 70
     0
 41
28.0
 42
0.0
 44
8.0
 73
     0
 74
     0
 77
     1
 78
     8
140
28.0
147
0.625
172
     1
173
     1
176
     2
177
     2
178
     7
271
     2
340
B8
  0
DIMSTYLE
105
111
102
{ACAD_REACTORS
330
112
102
}
330
A
100
AcDbSymbolTableRecord
100
AcDbDimStyleTableRecord
  2
ME10_DIM_5
 70
     0
 41
28.0
 42
0.0
 44
8.0
 73
     0
 74
     0
 77
     1
 78
     8
140
28.0
147
0.625
172
     1
173
     1
176
     2
177
     2
178
     7
271
     2
340
B8
  0
DIMSTYLE
105
11C
102
{ACAD_REACTORS
330
11D
102
}
330
A
100
AcDbSymbolTableRecord
100
AcDbDimStyleTableRecord
  2
ME10_DIM_6
 70
     0
 41
28.0
 42
0.0
 44
8.0
 73
     0
 74
     0
 77
     1
 78
     8
140
28.0
147
0.625
172
     1
173
     1
176
     2
177
     2
178
     7
271
     2
340
B8
  0
DIMSTYLE
105
127
102
{ACAD_REACTORS
330
128
102
}
330
A
100
AcDbSymbolTableRecord
100
AcDbDimStyleTableRecord
  2
ME10_DIM_7
 70
     0
 41
28.0
 42
0.0
 44
8.0
 73
     0
 74
     0
 77
     1
 78
     8
140
28.0
147
0.625
172
     1
173
     1
176
     2
177
     2
178
     7
271
     2
340
B8
  0
ENDTAB
  0
TABLE
  2
BLOCK_RECORD
  5
1
330
0
100
AcDbSymbolTable
 70
    10
  0
BLOCK_RECORD
  5
1F
330
1
100
AcDbSymbolTableRecord
100
AcDbBlockTableRecord
  2
*Model_Space
340
22
  0
BLOCK_RECORD
  5
1B
330
1
100
AcDbSymbolTableRecord
100
AcDbBlockTableRecord
  2
*Paper_Space
340
1E
  0
BLOCK_RECORD
  5
23
330
1
100
AcDbSymbolTableRecord
100
AcDbBlockTableRecord
  2
*Paper_Space0
340
26
  0
BLOCK_RECORD
  5
37
330
1
100
AcDbSymbolTableRecord
100
AcDbBlockTableRecord
  2
_J__A4
340
0
102
{BLKREFS
331
3A
102
}
  0
BLOCK_RECORD
  5
CF
330
1
100
AcDbSymbolTableRecord
100
AcDbBlockTableRecord
  2
*D02
340
0
  0
BLOCK_RECORD
  5
DA
330
1
100
AcDbSymbolTableRecord
100
AcDbBlockTableRecord
  2
*D13
340
0
  0
BLOCK_RECORD
  5
E5
330
1
100
AcDbSymbolTableRecord
100
AcDbBlockTableRecord
  2
*D24
340
0
  0
BLOCK_RECORD
  5
F0
330
1
100
AcDbSymbolTableRecord
100
AcDbBlockTableRecord
  2
*D35
340
0
  0
BLOCK_RECORD
  5
FB
330
1
100
AcDbSymbolTableRecord
100
AcDbBlockTableRecord
  2
*D46
340
0
  0
BLOCK_RECORD
  5
108
330
1
100
AcDbSymbolTableRecord
100
AcDbBlockTableRecord
  2
*D57
340
0
  0
BLOCK_RECORD
  5
113
330
1
100
AcDbSymbolTableRecord
100
AcDbBlockTableRecord
  2
*D68
340
0
  0
BLOCK_RECORD
  5
11E
330
1
100
AcDbSymbolTableRecord
100
AcDbBlockTableRecord
  2
*D79
340
0
  0
ENDTAB
  0
ENDSEC
  0
SECTION
  2
BLOCKS
  0
BLOCK
  5
20
330
1F
100
AcDbEntity
  8
0
100
AcDbBlockBegin
  2
*Model_Space
 70
     0
 71
     0
 10
0.0
 20
0.0
 30
0.0
  3
*Model_Space
  1

  0
ENDBLK
  5
21
330
1F
100
AcDbEntity
  8
0
100
AcDbBlockEnd
  0
BLOCK
  5
1C
330
1B
100
AcDbEntity
 67
     1
  8
0
100
AcDbBlockBegin
  2
*Paper_Space
 70
     0
 71
     0
 10
0.0
 20
0.0
 30
0.0
  3
*Paper_Space
  1

  0
ENDBLK
  5
1D
330
1B
100
AcDbEntity
 67
     1
  8
0
100
AcDbBlockEnd
  0
BLOCK
  5
24
330
23
100
AcDbEntity
  8
0
100
AcDbBlockBegin
  2
*Paper_Space0
 70
     0
 71
     0
 10
0.0
 20
0.0
 30
0.0
  3
*Paper_Space0
  1

  0
ENDBLK
  5
25
330
23
100
AcDbEntity
  8
0
100
AcDbBlockEnd
  0
BLOCK
  5
38
330
37
100
AcDbEntity
  8
0
100
AcDbBlockBegin
  2
_J__A4
 70
     0
 71
     0
 10
0.0
 20
0.0
 30
0.0
  3
_J__A4
  1

  0
POINT
  5
3B
330
37
100
AcDbEntity
  8
1
 62
     4
100
AcDbPoint
 10
34.0
 20
34.00000000000001
 30
0.0
  0
POINT
  5
3C
330
37
100
AcDbEntity
  8
1
 62
     4
100
AcDbPoint
 10
57.0
 20
12.25
 30
0.0
  0
POINT
  5
3D
330
37
100
AcDbEntity
  8
1
 62
     4
100
AcDbPoint
 10
57.0
 20
20.75000000000001
 30
0.0
  0
POINT
  5
3E
330
37
100
AcDbEntity
  8
1
 62
     4
100
AcDbPoint
 10
57.0
 20
24.75000000000001
 30
0.0
  0
POINT
  5
3F
330
37
100
AcDbEntity
  8
1
 62
     4
100
AcDbPoint
 10
57.0
 20
16.25
 30
0.0
  0
POINT
  5
40
330
37
100
AcDbEntity
  8
1
 62
     4
100
AcDbPoint
 10
157.5
 20
19.00000000000001
 30
0.0
  0
POINT
  5
41
330
37
100
AcDbEntity
  8
1
 62
     4
100
AcDbPoint
 10
47.5
 20
282.0000000000003
 30
0.0
  0
POINT
  5
42
330
37
100
AcDbEntity
  8
1
 62
     4
100
AcDbPoint
 10
57.0
 20
22.75000000000001
 30
0.0
  0
POINT
  5
43
330
37
100
AcDbEntity
  8
1
 62
     4
100
AcDbPoint
 10
57.0
 20
14.25
 30
0.0
  0
POINT
  5
44
330
37
100
AcDbEntity
  8
1
 62
     4
100
AcDbPoint
 10
157.5
 20
12.5
 30
0.0
  0
POINT
  5
45
330
37
100
AcDbEntity
  8
1
 62
     4
100
AcDbPoint
 10
163.25
 20
12.5
 30
0.0
  0
POINT
  5
46
330
37
100
AcDbEntity
  8
1
 62
     4
100
AcDbPoint
 10
151.75
 20
12.5
 30
0.0
  0
POINT
  5
47
330
37
100
AcDbEntity
  8
1
 62
     4
100
AcDbPoint
 10
134.75
 20
12.5
 30
0.0
  0
POINT
  5
48
330
37
100
AcDbEntity
  8
1
 62
     4
100
AcDbPoint
 10
146.25
 20
12.5
 30
0.0
  0
POINT
  5
49
330
37
100
AcDbEntity
  8
1
 62
     4
100
AcDbPoint
 10
140.5
 20
12.5
 30
0.0
  0
POINT
  5
4A
330
37
100
AcDbEntity
  8
1
 62
     4
100
AcDbPoint
 10
140.5
 20
19.00000000000001
 30
0.0
  0
POINT
  5
4B
330
37
100
AcDbEntity
  8
1
 62
     4
100
AcDbPoint
 10
117.75
 20
12.5
 30
0.0
  0
POINT
  5
4C
330
37
100
AcDbEntity
  8
1
 62
     4
100
AcDbPoint
 10
129.25
 20
12.5
 30
0.0
  0
POINT
  5
4D
330
37
100
AcDbEntity
  8
1
 62
     4
100
AcDbPoint
 10
123.5
 20
12.5
 30
0.0
  0
POINT
  5
4E
330
37
100
AcDbEntity
  8
1
 62
     4
100
AcDbPoint
 10
123.5
 20
19.00000000000001
 30
0.0
  0
POINT
  5
4F
330
37
100
AcDbEntity
  8
1
 62
     4
100
AcDbPoint
 10
100.75
 20
12.5
 30
0.0
  0
POINT
  5
50
330
37
100
AcDbEntity
  8
1
 62
     4
100
AcDbPoint
 10
112.25
 20
12.5
 30
0.0
  0
POINT
  5
51
330
37
100
AcDbEntity
  8
1
 62
     4
100
AcDbPoint
 10
106.5
 20
12.5
 30
0.0
  0
POINT
  5
52
330
37
100
AcDbEntity
  8
1
 62
     4
100
AcDbPoint
 10
106.5
 20
19.00000000000001
 30
0.0
  0
POINT
  5
53
330
37
100
AcDbEntity
  8
1
 62
     4
100
AcDbPoint
 10
85.25
 20
17.0
 30
0.0
  0
POINT
  5
54
330
37
100
AcDbEntity
  8
1
 62
     4
100
AcDbPoint
 10
93.75
 20
17.0
 30
0.0
  0
LINE
  5
55
330
37
100
AcDbEntity
  8
1
  6
Continuous
 62
     2
100
AcDbLine
 10
81.0
 20
27.00000000000001
 30
0.0
 11
81.0
 21
10.0
 31
0.0
  0
LINE
  5
56
330
37
100
AcDbEntity
  8
1
  6
DOT_CENTER
 62
     2
100
AcDbLine
 10
187.0
 20
26.50000000000001
 30
0.0
 11
187.0
 21
20.50000000000001
 31
0.0
  0
LINE
  5
57
330
37
100
AcDbEntity
  8
1
  6
DOT_CENTER
 62
     2
100
AcDbLine
 10
184.0
 20
23.50000000000001
 30
0.0
 11
197.0
 21
23.50000000000001
 31
0.0
  0
LINE
  5
58
330
37
100
AcDbEntity
  8
1
  6
Continuous
 62
     7
100
AcDbLine
 10
196.0
 20
21.50000000000001
 30
0.0
 11
191.0
 21
22.30000000000001
 31
0.0
  0
LINE
  5
59
330
37
100
AcDbEntity
  8
1
  6
Continuous
 62
     7
100
AcDbLine
 10
196.0
 20
25.50000000000001
 30
0.0
 11
196.0
 21
21.50000000000001
 31
0.0
  0
LINE
  5
5A
330
37
100
AcDbEntity
  8
1
  6
Continuous
 62
     7
100
AcDbLine
 10
191.0
 20
24.70000000000001
 30
0.0
 11
196.0
 21
25.50000000000001
 31
0.0
  0
LINE
  5
5B
330
37
100
AcDbEntity
  8
1
  6
Continuous
 62
     7
100
AcDbLine
 10
191.0
 20
24.70000000000001
 30
0.0
 11
191.0
 21
22.30000000000001
 31
0.0
  0
LINE
  5
5C
330
37
100
AcDbEntity
  8
1
  6
Continuous
 62
     2
100
AcDbLine
 10
33.0
 20
27.0
 30
0.0
 11
33.0
 21
10.0
 31
0.0
  0
LINE
  5
5D
330
37
100
AcDbEntity
  8
1
  6
Continuous
 62
     2
100
AcDbLine
 10
25.0
 20
18.50000000000001
 30
0.0
 11
81.0
 21
18.50000000000001
 31
0.0
  0
LINE
  5
5E
330
37
100
AcDbEntity
  8
1
  6
Continuous
 62
     7
100
AcDbLine
 10
200.0
 20
287.0000000000003
 30
0.0
 11
105.0
 21
287.0000000000003
 31
0.0
  0
LINE
  5
5F
330
37
100
AcDbEntity
  8
1
  6
Continuous
 62
     7
100
AcDbLine
 10
200.0
 20
10.0
 30
0.0
 11
200.0
 21
148.5
 31
0.0
  0
LINE
  5
60
330
37
100
AcDbEntity
  8
1
  6
Continuous
 62
     7
100
AcDbLine
 10
25.0
 20
10.0
 30
0.0
 11
105.0
 21
10.0
 31
0.0
  0
LINE
  5
61
330
37
100
AcDbEntity
  8
1
  6
PHANTOM
 62
     4
100
AcDbLine
 10
0.0
 20
297.0
 30
0.0
 11
0.0
 21
0.0
 31
0.0
  0
LINE
  5
62
330
37
100
AcDbEntity
  8
1
  6
PHANTOM
 62
     4
100
AcDbLine
 10
210.0
 20
297.0
 30
0.0
 11
0.0
 21
297.0
 31
0.0
  0
LINE
  5
63
330
37
100
AcDbEntity
  8
1
  6
PHANTOM
 62
     4
100
AcDbLine
 10
210.0
 20
0.0
 30
0.0
 11
210.0
 21
297.0
 31
0.0
  0
LINE
  5
64
330
37
100
AcDbEntity
  8
1
  6
PHANTOM
 62
     4
100
AcDbLine
 10
0.0
 20
0.0
 30
0.0
 11
210.0
 21
0.0
 31
0.0
  0
LINE
  5
65
330
37
100
AcDbEntity
  8
1
  6
Continuous
 62
     7
100
AcDbLine
 10
25.0
 20
41.0
 30
0.0
 11
200.0
 21
41.0
 31
0.0
  0
LINE
  5
66
330
37
100
AcDbEntity
  8
1
  6
Continuous
 62
     7
100
AcDbLine
 10
200.0
 20
27.00000000000001
 30
0.0
 11
25.0
 21
27.00000000000001
 31
0.0
  0
LINE
  5
67
330
37
100
AcDbEntity
  8
1
  6
Continuous
 62
     2
100
AcDbLine
 10
33.0
 20
41.00000000000001
 30
0.0
 11
33.0
 21
27.0
 31
0.0
  0
LINE
  5
68
330
37
100
AcDbEntity
  8
1
  6
Continuous
 62
     2
100
AcDbLine
 10
55.0
 20
287.0000000000003
 30
0.0
 11
55.0
 21
277.0000000000003
 31
0.0
  0
LINE
  5
69
330
37
100
AcDbEntity
  8
1
  6
Continuous
 62
     2
100
AcDbLine
 10
40.0
 20
287.0000000000003
 30
0.0
 11
40.0
 21
277.0000000000003
 31
0.0
  0
LINE
  5
6A
330
37
100
AcDbEntity
  8
1
  6
Continuous
 62
     7
100
AcDbLine
 10
25.0
 20
10.0
 30
0.0
 11
25.0
 21
148.5
 31
0.0
  0
LINE
  5
6B
330
37
100
AcDbEntity
  8
1
  6
Continuous
 62
     2
100
AcDbLine
 10
55.0
 20
277.0000000000003
 30
0.0
 11
25.0
 21
277.0000000000003
 31
0.0
  0
LINE
  5
6C
330
37
100
AcDbEntity
  8
1
  6
Continuous
 62
     2
100
AcDbLine
 10
166.0
 20
27.00000000000001
 30
0.0
 11
166.0
 21
10.0
 31
0.0
  0
LINE
  5
6D
330
37
100
AcDbEntity
  8
1
  6
Continuous
 62
     2
100
AcDbLine
 10
132.0
 20
27.00000000000001
 30
0.0
 11
132.0
 21
9.99999999999999
 31
0.0
  0
LINE
  5
6E
330
37
100
AcDbEntity
  8
1
  6
Continuous
 62
     2
100
AcDbLine
 10
149.0
 20
27.00000000000001
 30
0.0
 11
149.0
 21
10.0
 31
0.0
  0
LINE
  5
6F
330
37
100
AcDbEntity
  8
1
  6
Continuous
 62
     2
100
AcDbLine
 10
115.0
 20
27.00000000000001
 30
0.0
 11
115.0
 21
9.99999999999999
 31
0.0
  0
LINE
  5
70
330
37
100
AcDbEntity
  8
1
  6
Continuous
 62
     2
100
AcDbLine
 10
98.0
 20
27.00000000000001
 30
0.0
 11
98.0
 21
9.99999999999999
 31
0.0
  0
LINE
  5
71
330
37
100
AcDbEntity
  8
1
  6
Continuous
 62
     2
100
AcDbLine
 10
166.0
 20
20.00000000000001
 30
0.0
 11
200.0
 21
20.00000000000001
 31
0.0
  0
LINE
  5
72
330
37
100
AcDbEntity
  8
1
  6
Continuous
 62
     2
100
AcDbLine
 10
105.0
 20
287.0000000000003
 30
0.0
 11
105.0
 21
292.0000000000003
 31
0.0
  0
LINE
  5
73
330
37
100
AcDbEntity
  8
1
  6
Continuous
 62
     7
100
AcDbLine
 10
105.0
 20
287.0000000000003
 30
0.0
 11
25.0
 21
287.0000000000003
 31
0.0
  0
LINE
  5
74
330
37
100
AcDbEntity
  8
1
  6
Continuous
 62
     7
100
AcDbLine
 10
25.0
 20
148.5
 30
0.0
 11
25.0
 21
287.0000000000003
 31
0.0
  0
LINE
  5
75
330
37
100
AcDbEntity
  8
1
  6
Continuous
 62
     7
100
AcDbLine
 10
200.0
 20
148.5
 30
0.0
 11
200.0
 21
287.0000000000003
 31
0.0
  0
LINE
  5
76
330
37
100
AcDbEntity
  8
1
  6
Continuous
 62
     2
100
AcDbLine
 10
105.0
 20
10.0
 30
0.0
 11
105.0
 21
5.0
 31
0.0
  0
LINE
  5
77
330
37
100
AcDbEntity
  8
1
  6
Continuous
 62
     7
100
AcDbLine
 10
105.0
 20
10.0
 30
0.0
 11
200.0
 21
10.0
 31
0.0
  0
LINE
  5
78
330
37
100
AcDbEntity
  8
1
  6
Continuous
 62
     2
100
AcDbLine
 10
200.0
 20
148.5
 30
0.0
 11
205.0
 21
148.5
 31
0.0
  0
LINE
  5
79
330
37
100
AcDbEntity
  8
1
  6
Continuous
 62
     2
100
AcDbLine
 10
25.0
 20
148.5
 30
0.0
 11
20.0
 21
148.5
 31
0.0
  0
CIRCLE
  5
7A
330
37
100
AcDbEntity
  8
1
  6
DOT_CENTER
 62
     7
100
AcDbCircle
 10
89.5
 20
18.0
 30
0.0
 40
0.1000000000000227
  0
CIRCLE
  5
7B
330
37
100
AcDbEntity
  8
1
  6
DOT_CENTER
 62
     7
100
AcDbCircle
 10
89.5
 20
16.0
 30
0.0
 40
0.1000000000000227
  0
CIRCLE
  5
7C
330
37
100
AcDbEntity
  8
1
  6
Continuous
 62
     7
100
AcDbCircle
 10
187.0
 20
23.50000000000001
 30
0.0
 40
2.0
  0
CIRCLE
  5
7D
330
37
100
AcDbEntity
  8
1
  6
Continuous
 62
     7
100
AcDbCircle
 10
187.0
 20
23.50000000000001
 30
0.0
 40
1.200000000000102
  0
CIRCLE
  5
7E
330
37
100
AcDbEntity
  8
1
  6
Continuous
 62
     7
100
AcDbCircle
 10
154.5
 20
12.5
 30
0.0
 40
0.3000000000000114
  0
CIRCLE
  5
7F
330
37
100
AcDbEntity
  8
1
  6
Continuous
 62
     7
100
AcDbCircle
 10
160.5
 20
12.5
 30
0.0
 40
0.3000000000000114
  0
CIRCLE
  5
80
330
37
100
AcDbEntity
  8
1
  6
Continuous
 62
     7
100
AcDbCircle
 10
143.5
 20
12.5
 30
0.0
 40
0.3000000000000114
  0
CIRCLE
  5
81
330
37
100
AcDbEntity
  8
1
  6
Continuous
 62
     7
100
AcDbCircle
 10
137.5
 20
12.5
 30
0.0
 40
0.3000000000000114
  0
CIRCLE
  5
82
330
37
100
AcDbEntity
  8
1
  6
Continuous
 62
     7
100
AcDbCircle
 10
126.5
 20
12.5
 30
0.0
 40
0.2999999999999972
  0
CIRCLE
  5
83
330
37
100
AcDbEntity
  8
1
  6
Continuous
 62
     7
100
AcDbCircle
 10
120.5
 20
12.5
 30
0.0
 40
0.2999999999999972
  0
CIRCLE
  5
84
330
37
100
AcDbEntity
  8
1
  6
Continuous
 62
     7
100
AcDbCircle
 10
109.5
 20
12.5
 30
0.0
 40
0.2999999999999972
  0
CIRCLE
  5
85
330
37
100
AcDbEntity
  8
1
  6
Continuous
 62
     7
100
AcDbCircle
 10
103.5
 20
12.5
 30
0.0
 40
0.2999999999999972
  0
MTEXT
  5
87
330
37
100
AcDbEntity
  8
1
 62
   250
100
AcDbMText
 10
25.0
 20
5.0
 30
0.0
 40
3.5
 41
0.0
 71
     4
 72
     1
  1
備考欄の文字列 原点位置=4
  7
CONVERTER_1
 73
     1
 44
0.7202881152461
  0
MTEXT
  5
88
330
37
100
AcDbEntity
  8
1
 62
     2
100
AcDbMText
 10
89.5
 20
24.00000000000001
 30
0.0
 40
3.5
 41
0.0
 71
     5
 72
     1
  1
尺度
  7
CONVERTER_1
 73
     1
 44
0.7202881152461
  0
MTEXT
  5
89
330
37
100
AcDbEntity
  8
1
 62
     2
100
AcDbMText
 10
135.5
 20
25.00000000000001
 30
0.0
 40
3.0
 41
0.0
 71
     5
 72
     1
  1
製図
  7
CONVERTER_1
 73
     1
 44
0.78031212484994
  0
MTEXT
  5
8A
330
37
100
AcDbEntity
  8
1
 62
     2
100
AcDbMText
 10
152.5
 20
25.00000000000001
 30
0.0
 40
3.0
 41
0.0
 71
     5
 72
     1
  1
担当
  7
CONVERTER_1
 73
     1
 44
0.78031212484994
  0
MTEXT
  5
8B
330
37
100
AcDbEntity
  8
1
 62
     2
100
AcDbMText
 10
118.5
 20
25.00000000000001
 30
0.0
 40
3.0
 41
0.0
 71
     5
 72
     1
  1
検図
  7
CONVERTER_1
 73
     1
 44
0.78031212484994
  0
MTEXT
  5
8C
330
37
100
AcDbEntity
  8
1
 62
     2
100
AcDbMText
 10
175.0
 20
23.50000000000001
 30
0.0
 40
3.5
 41
0.0
 71
     5
 72
     1
  1
第三角法
  7
CONVERTER_1
 73
     1
 44
0.7202881152461
  0
MTEXT
  5
8D
330
37
100
AcDbEntity
  8
1
 62
     2
100
AcDbMText
 10
101.5
 20
25.00000000000001
 30
0.0
 40
3.0
 41
0.0
 71
     5
 72
     1
  1
承認
  7
CONVERTER_1
 73
     1
 44
0.78031212484994
  0
MTEXT
  5
8E
330
37
100
AcDbEntity
  8
1
 62
     2
100
AcDbMText
 10
29.0
 20
14.25
 30
0.0
 40
3.5
 41
0.0
 71
     5
 72
     1
  1
品番
  7
CONVERTER_1
 73
     1
 44
0.96038415366146
  0
MTEXT
  5
8F
330
37
100
AcDbEntity
  8
1
 62
     2
100
AcDbMText
 10
29.0
 20
22.75
 30
0.0
 40
3.5
 41
0.0
 71
     5
 72
     1
  1
品名
  7
CONVERTER_1
 73
     1
 44
0.96038415366146
  0
MTEXT
  5
90
330
37
100
AcDbEntity
  8
1
 62
     2
100
AcDbMText
 10
29.0
 20
34.00000000000001
 30
0.0
 40
3.5
 41
0.0
 71
     5
 72
     1
  1
備考
  7
CONVERTER_1
 73
     1
 44
0.60024009603842
  0
MTEXT
  5
91
330
37
100
AcDbEntity
  8
1
 62
     2
100
AcDbMText
 10
32.5
 20
282.0000000000003
 30
0.0
 40
5.0
 41
0.0
 71
     5
 72
     1
  1
図番
  7
CONVERTER_1
 73
     1
 44
0.60024009603842
  0
MTEXT
  5
92
330
37
100
AcDbEntity
  8
1
 62
     7
100
AcDbMText
 10
171.5
 20
15.0
 30
0.0
 40
2.5
 41
0.0
 71
     5
 72
     1
  1
株式会社
  7
CONVERTER_1
 73
     1
 44
1.32052821128451
  0
MTEXT
  5
93
330
37
100
AcDbEntity
  8
1
 62
     7
100
AcDbMText
 10
188.5
 20
15.0
 30
0.0
 40
3.0
 41
0.0
 71
     5
 72
     1
  1
三栄水栓製作所
  7
CONVERTER_1
 73
     1
 44
1.32052821128451
  0
ENDBLK
  5
39
330
37
100
AcDbEntity
  8
0
100
AcDbBlockEnd
  0
BLOCK
  5
D6
330
CF
100
AcDbEntity
  8
0
100
AcDbBlockBegin
  2
*D02
 70
     1
 71
     0
 10
0.0
 20
0.0
 30
0.0
  3
*D02
  1

  0
LINE
  5
D0
330
CF
100
AcDbEntity
  8
1
  6
Continuous
 62
     2
100
AcDbLine
 10
1310.28670029657
 20
1627.201061606432
 30
0.0
 11
1310.28670029657
 21
1819.688116193014
 31
0.0
  0
LINE
  5
D1
330
CF
100
AcDbEntity
  8
1
  6
Continuous
 62
     2
100
AcDbLine
 10
1062.886884979081
 20
1627.201061606432
 30
0.0
 11
1318.28670029657
 21
1627.201061606432
 31
0.0
  0
LINE
  5
D2
330
CF
100
AcDbEntity
  8
1
  6
Continuous
 62
     2
100
AcDbLine
 10
1230.336700296569
 20
1819.688116193014
 30
0.0
 11
1318.28670029657
 21
1819.688116193014
 31
0.0
  0
SOLID
  5
D3
330
CF
100
AcDbEntity
  8
1
 62
     2
100
AcDbTrace
 10
1306.600430364123
 20
1655.201061606432
 30
0.0
 11
1313.972970229017
 21
1655.201061606432
 31
0.0
 12
1310.28670029657
 22
1627.201061606432
 32
0.0
 13
1310.28670029657
 23
1627.201061606432
 33
0.0
  0
SOLID
  5
D4
330
CF
100
AcDbEntity
  8
1
 62
     2
100
AcDbTrace
 10
1313.972970229017
 20
1791.688116193014
 30
0.0
 11
1306.600430364123
 21
1791.688116193014
 31
0.0
 12
1310.28670029657
 22
1819.688116193014
 32
0.0
 13
1310.28670029657
 23
1819.688116193014
 33
0.0
  0
MTEXT
  5
D5
330
CF
100
AcDbEntity
  8
1
 62
     7
100
AcDbMText
 10
1302.28670029657
 20
1694.044588899723
 30
0.0
 40
28.0
 41
0.0
 71
     7
 72
     1
  1
190
  7
CONVERTER_2
 11
0.0
 21
1.0
 31
0.0
 73
     1
 44
0.60024009603842
  0
ENDBLK
  5
D7
330
CF
100
AcDbEntity
  8
0
100
AcDbBlockEnd
  0
BLOCK
  5
E1
330
DA
100
AcDbEntity
  8
0
100
AcDbBlockBegin
  2
*D13
 70
     1
 71
     0
 10
0.0
 20
0.0
 30
0.0
  3
*D13
  1

  0
LINE
  5
DB
330
DA
100
AcDbEntity
  8
1
  6
Continuous
 62
     2
100
AcDbLine
 10
1310.28670029657
 20
1627.201061606432
 30
0.0
 11
1310.28670029657
 21
1438.976531876464
 31
0.0
  0
LINE
  5
DC
330
DA
100
AcDbEntity
  8
1
  6
Continuous
 62
     2
100
AcDbLine
 10
1062.886884979081
 20
1627.201061606432
 30
0.0
 11
1318.28670029657
 21
1627.201061606432
 31
0.0
  0
LINE
  5
DD
330
DA
100
AcDbEntity
  8
1
  6
Continuous
 62
     2
100
AcDbLine
 10
1230.336700296569
 20
1438.976531876464
 30
0.0
 11
1318.28670029657
 21
1438.976531876464
 31
0.0
  0
SOLID
  5
DE
330
DA
100
AcDbEntity
  8
1
 62
     2
100
AcDbTrace
 10
1313.972970229017
 20
1599.201061606432
 30
0.0
 11
1306.600430364123
 21
1599.201061606432
 31
0.0
 12
1310.28670029657
 22
1627.201061606432
 32
0.0
 13
1310.28670029657
 23
1627.201061606432
 33
0.0
  0
SOLID
  5
DF
330
DA
100
AcDbEntity
  8
1
 62
     2
100
AcDbTrace
 10
1306.600430364123
 20
1466.976531876464
 30
0.0
 11
1313.972970229017
 21
1466.976531876464
 31
0.0
 12
1310.28670029657
 22
1438.976531876464
 32
0.0
 13
1310.28670029657
 23
1438.976531876464
 33
0.0
  0
MTEXT
  5
E0
330
DA
100
AcDbEntity
  8
1
 62
     7
100
AcDbMText
 10
1302.28670029657
 20
1503.688796741448
 30
0.0
 40
28.0
 41
0.0
 71
     7
 72
     1
  1
190
  7
CONVERTER_2
 11
0.0
 21
1.0
 31
0.0
 73
     1
 44
0.60024009603842
  0
ENDBLK
  5
E2
330
DA
100
AcDbEntity
  8
0
100
AcDbBlockEnd
  0
BLOCK
  5
EC
330
E5
100
AcDbEntity
  8
0
100
AcDbBlockBegin
  2
*D24
 70
     1
 71
     0
 10
0.0
 20
0.0
 30
0.0
  3
*D24
  1

  0
LINE
  5
E6
330
E5
100
AcDbEntity
  8
1
  6
Continuous
 62
     2
100
AcDbLine
 10
569.5680533463627
 20
1358.976531876464
 30
0.0
 11
1003.820179064799
 21
1358.976531876464
 31
0.0
  0
LINE
  5
E7
330
E5
100
AcDbEntity
  8
1
  6
Continuous
 62
     2
100
AcDbLine
 10
569.5680533463627
 20
1438.92664213723
 30
0.0
 11
569.5680533463627
 21
1350.976531876464
 31
0.0
  0
LINE
  5
E8
330
E5
100
AcDbEntity
  8
1
  6
Continuous
 62
     2
100
AcDbLine
 10
1003.820179064799
 20
1568.130048032215
 30
0.0
 11
1003.820179064799
 21
1350.976531876464
 31
0.0
  0
SOLID
  5
E9
330
E5
100
AcDbEntity
  8
1
 62
     2
100
AcDbTrace
 10
597.5680533463627
 20
1362.662801808911
 30
0.0
 11
597.5680533463627
 21
1355.290261944017
 31
0.0
 12
569.5680533463627
 22
1358.976531876464
 32
0.0
 13
569.5680533463627
 23
1358.976531876464
 33
0.0
  0
SOLID
  5
EA
330
E5
100
AcDbEntity
  8
1
 62
     2
100
AcDbTrace
 10
975.8201790647991
 20
1355.290261944017
 30
0.0
 11
975.8201790647991
 21
1362.662801808911
 31
0.0
 12
1003.820179064799
 22
1358.976531876464
 32
0.0
 13
1003.820179064799
 23
1358.976531876464
 33
0.0
  0
MTEXT
  5
EB
330
E5
100
AcDbEntity
  8
1
 62
     7
100
AcDbMText
 10
753.0941162055809
 20
1366.976531876464
 30
0.0
 40
28.0
 41
0.0
 71
     7
 72
     1
  1
435
  7
CONVERTER_2
 11
0.9999999999970621
 21
2.424068405545307E-6
 31
0.0
 73
     1
 44
0.60024009603842
  0
ENDBLK
  5
ED
330
E5
100
AcDbEntity
  8
0
100
AcDbBlockEnd
  0
BLOCK
  5
F7
330
F0
100
AcDbEntity
  8
0
100
AcDbBlockBegin
  2
*D35
 70
     1
 71
     0
 10
0.0
 20
0.0
 30
0.0
  3
*D35
  1

  0
LINE
  5
F1
330
F0
100
AcDbEntity
  8
1
  6
Continuous
 62
     2
100
AcDbLine
 10
1003.8201790648
 20
1358.976531876464
 30
0.0
 11
1230.28670029657
 21
1358.976531876464
 31
0.0
  0
LINE
  5
F2
330
F0
100
AcDbEntity
  8
1
  6
Continuous
 62
     2
100
AcDbLine
 10
1003.8201790648
 20
1568.130048032215
 30
0.0
 11
1003.8201790648
 21
1350.976531876464
 31
0.0
  0
LINE
  5
F3
330
F0
100
AcDbEntity
  8
1
  6
Continuous
 62
     2
100
AcDbLine
 10
1230.28670029657
 20
1438.926531876464
 30
0.0
 11
1230.28670029657
 21
1350.976531876464
 31
0.0
  0
SOLID
  5
F4
330
F0
100
AcDbEntity
  8
1
 62
     2
100
AcDbTrace
 10
1031.8201790648
 20
1362.662801808911
 30
0.0
 11
1031.8201790648
 21
1355.290261944017
 31
0.0
 12
1003.8201790648
 22
1358.976531876464
 32
0.0
 13
1003.8201790648
 23
1358.976531876464
 33
0.0
  0
SOLID
  5
F5
330
F0
100
AcDbEntity
  8
1
 62
     2
100
AcDbTrace
 10
1202.28670029657
 20
1355.290261944017
 30
0.0
 11
1202.28670029657
 21
1362.662801808911
 31
0.0
 12
1230.28670029657
 22
1358.976531876464
 32
0.0
 13
1230.28670029657
 23
1358.976531876464
 33
0.0
  0
MTEXT
  5
F6
330
F0
100
AcDbEntity
  8
1
 62
     7
100
AcDbMText
 10
1083.453439680685
 20
1366.976531876464
 30
0.0
 40
28.0
 41
0.0
 71
     7
 72
     1
  1
225
  7
CONVERTER_2
 11
0.9999999999970621
 21
2.424068405545307E-6
 31
0.0
 73
     1
 44
0.60024009603842
  0
ENDBLK
  5
F8
330
F0
100
AcDbEntity
  8
0
100
AcDbBlockEnd
  0
BLOCK
  5
104
330
FB
100
AcDbEntity
  8
0
100
AcDbBlockBegin
  2
*D46
 70
     1
 71
     0
 10
0.0
 20
0.0
 30
0.0
  3
*D46
  1

  0
LINE
  5
FC
330
FB
100
AcDbEntity
  8
1
  6
Continuous
 62
     2
100
AcDbLine
 10
1311.13466545189
 20
759.1967718982783
 30
0.0
 11
1311.13466545189
 21
703.1967718982783
 31
0.0
  0
LINE
  5
FD
330
FB
100
AcDbEntity
  8
1
  6
Continuous
 62
     2
100
AcDbLine
 10
1311.13466545189
 20
814.2567191313209
 30
0.0
 11
1311.13466545189
 21
759.1967718982783
 31
0.0
  0
LINE
  5
FE
330
FB
100
AcDbEntity
  8
1
  6
Continuous
 62
     2
100
AcDbLine
 10
1311.13466545189
 20
870.2567191313209
 30
0.0
 11
1311.13466545189
 21
814.2567191313209
 31
0.0
  0
LINE
  5
FF
330
FB
100
AcDbEntity
  8
1
  6
Continuous
 62
     2
100
AcDbLine
 10
997.7253801590441
 20
814.2567191313209
 30
0.0
 11
1319.13466545189
 21
814.2567191313209
 31
0.0
  0
LINE
  5
100
330
FB
100
AcDbEntity
  8
1
  6
Continuous
 62
     2
100
AcDbLine
 10
1146.648826292894
 20
759.1967718982783
 30
0.0
 11
1319.13466545189
 21
759.1967718982783
 31
0.0
  0
SOLID
  5
101
330
FB
100
AcDbEntity
  8
1
 62
     2
100
AcDbTrace
 10
1307.448395519443
 20
842.2567191313209
 30
0.0
 11
1314.820935384337
 21
842.2567191313209
 31
0.0
 12
1311.13466545189
 22
814.2567191313209
 32
0.0
 13
1311.13466545189
 23
814.2567191313209
 33
0.0
  0
SOLID
  5
102
330
FB
100
AcDbEntity
  8
1
 62
     2
100
AcDbTrace
 10
1314.820935384337
 20
731.1967718982783
 30
0.0
 11
1307.448395519443
 21
731.1967718982783
 31
0.0
 12
1311.13466545189
 22
759.1967718982783
 32
0.0
 13
1311.13466545189
 23
759.1967718982783
 33
0.0
  0
MTEXT
  5
103
330
FB
100
AcDbEntity
  8
1
 62
     7
100
AcDbMText
 10
1303.13466545189
 20
765.854055435071
 30
0.0
 40
28.0
 41
0.0
 71
     7
 72
     1
  1
50
  7
CONVERTER_2
 11
0.0
 21
1.0
 31
0.0
 73
     1
 44
0.60024009603842
  0
ENDBLK
  5
105
330
FB
100
AcDbEntity
  8
0
100
AcDbBlockEnd
  0
BLOCK
  5
10F
330
108
100
AcDbEntity
  8
0
100
AcDbBlockBegin
  2
*D57
 70
     1
 71
     0
 10
0.0
 20
0.0
 30
0.0
  3
*D57
  1

  0
LINE
  5
109
330
108
100
AcDbEntity
  8
1
  6
Continuous
 62
     2
100
AcDbLine
 10
569.5680533463628
 20
1899.688116125965
 30
0.0
 11
1230.28670029657
 21
1899.688116125965
 31
0.0
  0
LINE
  5
10A
330
108
100
AcDbEntity
  8
1
  6
Continuous
 62
     2
100
AcDbLine
 10
1230.28670029657
 20
1819.738116193014
 30
0.0
 11
1230.28670029657
 21
1907.688116125965
 31
0.0
  0
LINE
  5
10B
330
108
100
AcDbEntity
  8
1
  6
Continuous
 62
     2
100
AcDbLine
 10
569.5680533463628
 20
1819.738116125965
 30
0.0
 11
569.5680533463628
 21
1907.688116125965
 31
0.0
  0
SOLID
  5
10C
330
108
100
AcDbEntity
  8
1
 62
     2
100
AcDbTrace
 10
597.5680533463628
 20
1903.374386058412
 30
0.0
 11
597.5680533463628
 21
1896.001846193518
 31
0.0
 12
569.5680533463628
 22
1899.688116125965
 32
0.0
 13
569.5680533463628
 23
1899.688116125965
 33
0.0
  0
SOLID
  5
10D
330
108
100
AcDbEntity
  8
1
 62
     2
100
AcDbTrace
 10
1202.28670029657
 20
1896.001846193518
 30
0.0
 11
1202.28670029657
 21
1903.374386058412
 31
0.0
 12
1230.28670029657
 22
1899.688116125965
 32
0.0
 13
1230.28670029657
 23
1899.688116125965
 33
0.0
  0
MTEXT
  5
10E
330
108
100
AcDbEntity
  8
1
 62
     7
100
AcDbMText
 10
866.3273768214662
 20
1907.688116125965
 30
0.0
 40
28.0
 41
0.0
 71
     7
 72
     1
  1
660
  7
CONVERTER_2
 11
0.9999999999970621
 21
2.424068405545307E-6
 31
0.0
 73
     1
 44
0.60024009603842
  0
ENDBLK
  5
110
330
108
100
AcDbEntity
  8
0
100
AcDbBlockEnd
  0
BLOCK
  5
11A
330
113
100
AcDbEntity
  8
0
100
AcDbBlockBegin
  2
*D68
 70
     1
 71
     0
 10
0.0
 20
0.0
 30
0.0
  3
*D68
  1

  0
LINE
  5
114
330
113
100
AcDbEntity
  8
1
  6
Continuous
 62
     2
100
AcDbLine
 10
1374.28670029657
 20
1819.688116193014
 30
0.0
 11
1374.28670029657
 21
1438.976531876464
 31
0.0
  0
LINE
  5
115
330
113
100
AcDbEntity
  8
1
  6
Continuous
 62
     2
100
AcDbLine
 10
1230.336700296569
 20
1819.688116193014
 30
0.0
 11
1382.28670029657
 21
1819.688116193014
 31
0.0
  0
LINE
  5
116
330
113
100
AcDbEntity
  8
1
  6
Continuous
 62
     2
100
AcDbLine
 10
1230.336700296569
 20
1438.976531876464
 30
0.0
 11
1382.28670029657
 21
1438.976531876464
 31
0.0
  0
SOLID
  5
117
330
113
100
AcDbEntity
  8
1
 62
     2
100
AcDbTrace
 10
1377.972970229017
 20
1791.688116193014
 30
0.0
 11
1370.600430364123
 21
1791.688116193014
 31
0.0
 12
1374.28670029657
 22
1819.688116193014
 32
0.0
 13
1374.28670029657
 23
1819.688116193014
 33
0.0
  0
SOLID
  5
118
330
113
100
AcDbEntity
  8
1
 62
     2
100
AcDbTrace
 10
1370.600430364123
 20
1466.976531876464
 30
0.0
 11
1377.972970229017
 21
1466.976531876464
 31
0.0
 12
1374.28670029657
 22
1438.976531876464
 32
0.0
 13
1374.28670029657
 23
1438.976531876464
 33
0.0
  0
MTEXT
  5
119
330
113
100
AcDbEntity
  8
1
 62
     7
100
AcDbMText
 10
1366.28670029657
 20
1593.601061606432
 30
0.0
 40
28.0
 41
0.0
 71
     7
 72
     1
  1
380
  7
CONVERTER_2
 11
0.0
 21
1.0
 31
0.0
 73
     1
 44
0.60024009603842
  0
ENDBLK
  5
11B
330
113
100
AcDbEntity
  8
0
100
AcDbBlockEnd
  0
BLOCK
  5
125
330
11E
100
AcDbEntity
  8
0
100
AcDbBlockBegin
  2
*D79
 70
     1
 71
     0
 10
0.0
 20
0.0
 30
0.0
  3
*D79
  1

  0
LINE
  5
11F
330
11E
100
AcDbEntity
  8
1
  6
Continuous
 62
     2
100
AcDbLine
 10
482.9220266645838
 20
844.753830393082
 30
0.0
 11
482.9220266645838
 21
723.9402668446423
 31
0.0
  0
LINE
  5
120
330
11E
100
AcDbEntity
  8
1
  6
Continuous
 62
     2
100
AcDbLine
 10
665.3500430210479
 20
844.753830393082
 30
0.0
 11
474.9220266645838
 21
844.753830393082
 31
0.0
  0
LINE
  5
121
330
11E
100
AcDbEntity
  8
1
  6
Continuous
 62
     2
100
AcDbLine
 10
661.6574675809515
 20
723.9402668446423
 30
0.0
 11
474.9220266645838
 21
723.9402668446423
 31
0.0
  0
SOLID
  5
122
330
11E
100
AcDbEntity
  8
1
 62
     2
100
AcDbTrace
 10
486.6082965970309
 20
816.753830393082
 30
0.0
 11
479.2357567321367
 21
816.753830393082
 31
0.0
 12
482.9220266645838
 22
844.753830393082
 32
0.0
 13
482.9220266645838
 23
844.753830393082
 33
0.0
  0
SOLID
  5
123
330
11E
100
AcDbEntity
  8
1
 62
     2
100
AcDbTrace
 10
479.2357567321367
 20
751.9402668446423
 30
0.0
 11
486.6082965970309
 21
751.9402668446423
 31
0.0
 12
482.9220266645838
 22
723.9402668446423
 32
0.0
 13
482.9220266645838
 23
723.9402668446423
 33
0.0
  0
MTEXT
  5
124
330
11E
100
AcDbEntity
  8
1
 62
     7
100
AcDbMText
 10
474.9220266645838
 20
754.9470486188621
 30
0.0
 40
28.0
 41
0.0
 71
     7
 72
     1
  1
120
  7
CONVERTER_2
 11
0.0
 21
1.0
 31
0.0
 73
     1
 44
0.60024009603842
  0
ENDBLK
  5
126
330
11E
100
AcDbEntity
  8
0
100
AcDbBlockEnd
  0
ENDSEC
  0
SECTION
  2
ENTITIES
  0
INSERT
  5
3A
330
1F
100
AcDbEntity
  8
1
100
AcDbBlockReference
  2
_J__A4
 10
0.0
 20
0.0
 30
0.0
 41
8.0
 42
8.0
 43
8.0
  0
LINE
  5
94
330
1F
100
AcDbEntity
  8
1
  6
PHANTOM
 62
     4
100
AcDbLine
 10
569.6180533463618
 20
1438.97664213723
 30
0.0
 11
569.5180533463619
 21
1438.97664213723
 31
0.0
  0
LINE
  5
95
330
1F
100
AcDbEntity
  8
1
  6
PHANTOM
 62
     4
100
AcDbLine
 10
569.5680533463627
 20
1439.02664213723
 30
0.0
 11
569.5680533463627
 21
1438.92664213723
 31
0.0
  0
LINE
  5
96
330
1F
100
AcDbEntity
  8
1
  6
Continuous
 62
     7
100
AcDbLine
 10
1219.945003417022
 20
841.4680842637803
 30
0.0
 11
1221.890499505754
 21
834.1395685532687
 31
0.0
  0
LINE
  5
97
330
1F
100
AcDbEntity
  8
1
  6
Continuous
 62
     7
100
AcDbLine
 10
1218.534542729084
 20
841.0650183150801
 30
0.0
 11
1219.945003417022
 21
841.4680842637803
 31
0.0
  0
LINE
  5
98
330
1F
100
AcDbEntity
  8
1
  6
Continuous
 62
     7
100
AcDbLine
 10
562.9499547499451
 20
825.4785776240253
 30
0.0
 11
561.5817705216033
 21
832.477726925555
 31
0.0
  0
LINE
  5
99
330
1F
100
AcDbEntity
  8
1
  6
Continuous
 62
     7
100
AcDbLine
 10
563.9680955787471
 20
833.1525818263262
 30
0.0
 11
561.5817705216033
 21
832.477726925555
 31
0.0
  0
LINE
  5
9A
330
1F
100
AcDbEntity
  8
1
  6
Continuous
 62
     7
100
AcDbLine
 10
1114.759179322515
 20
723.9402668446423
 30
0.0
 11
1118.565517321646
 21
728.8585580100053
 31
0.0
  0
LINE
  5
9B
330
1F
100
AcDbEntity
  8
1
  6
Continuous
 62
     7
100
AcDbLine
 10
1090.416900484109
 20
723.9402668446423
 30
0.0
 11
1114.759179322515
 21
723.9402668446423
 31
0.0
  0
LINE
  5
9C
330
1F
100
AcDbEntity
  8
1
  6
Continuous
 62
     7
100
AcDbLine
 10
661.6574675809513
 20
723.9402668446423
 30
0.0
 11
685.8731340492768
 21
723.9402668446423
 31
0.0
  0
LINE
  5
9D
330
1F
100
AcDbEntity
  8
1
  6
Continuous
 62
     7
100
AcDbLine
 10
659.4150795680766
 20
728.9529845799968
 30
0.0
 11
661.6574675809513
 21
723.9402668446423
 31
0.0
  0
LINE
  5
9E
330
1F
100
AcDbEntity
  8
___C_____1
  6
Continuous
 62
     7
100
AcDbLine
 10
685.8731340492768
 20
723.9402668446423
 30
0.0
 11
1090.416900484109
 21
723.9402668446423
 31
0.0
  0
LINE
  5
9F
330
1F
100
AcDbEntity
  8
1
  6
DASH_CENTER
 62
     2
100
AcDbLine
 10
944.7448573014872
 20
1627.201061606432
 30
0.0
 11
1026.820179064799
 21
1627.201061606432
 31
0.0
  0
LINE
  5
A0
330
1F
100
AcDbEntity
  8
1
  6
DASH_CENTER
 62
     2
100
AcDbLine
 10
1003.820179064799
 20
1568.130048032215
 30
0.0
 11
1003.820179064799
 21
1686.272075180648
 31
0.0
  0
LINE
  5
A1
330
1F
100
AcDbEntity
  8
1
  6
DASH_CENTER
 62
     2
100
AcDbLine
 10
1026.820179064799
 20
1627.201061606432
 30
0.0
 11
1041.320179064799
 21
1627.201061606432
 31
0.0
  0
LINE
  5
A2
330
1F
100
AcDbEntity
  8
1
  6
DASH_CENTER
 62
     2
100
AcDbLine
 10
1041.320179064799
 20
1627.201061606432
 30
0.0
 11
1062.886884979081
 21
1627.201061606432
 31
0.0
  0
LINE
  5
A3
330
1F
100
AcDbEntity
  8
1
  6
PHANTOM
 62
     4
100
AcDbLine
 10
569.5680533463628
 20
1819.638116125965
 30
0.0
 11
569.5680533463628
 21
1819.738116125965
 31
0.0
  0
LINE
  5
A4
330
1F
100
AcDbEntity
  8
1
  6
PHANTOM
 62
     4
100
AcDbLine
 10
569.5180533463631
 20
1819.688116125965
 30
0.0
 11
569.618053346363
 21
1819.688116125965
 31
0.0
  0
LINE
  5
A5
330
1F
100
AcDbEntity
  8
1
  6
PHANTOM
 62
     4
100
AcDbLine
 10
1230.236700296569
 20
1819.688116193014
 30
0.0
 11
1230.336700296569
 21
1819.688116193014
 31
0.0
  0
LINE
  5
A6
330
1F
100
AcDbEntity
  8
1
  6
PHANTOM
 62
     4
100
AcDbLine
 10
1230.28670029657
 20
1819.738116193014
 30
0.0
 11
1230.28670029657
 21
1819.638116193014
 31
0.0
  0
LINE
  5
A7
330
1F
100
AcDbEntity
  8
1
  6
PHANTOM
 62
     4
100
AcDbLine
 10
1230.28670029657
 20
1439.026531876464
 30
0.0
 11
1230.28670029657
 21
1438.926531876464
 31
0.0
  0
LINE
  5
A8
330
1F
100
AcDbEntity
  8
1
  6
PHANTOM
 62
     4
100
AcDbLine
 10
1230.336700296569
 20
1438.976531876464
 30
0.0
 11
1230.236700296569
 21
1438.976531876464
 31
0.0
  0
CIRCLE
  5
A9
330
1F
100
AcDbEntity
  8
1
  6
Continuous
 62
     7
100
AcDbCircle
 10
1003.820179064799
 20
1627.201061606432
 30
0.0
 40
23.0
  0
CIRCLE
  5
AA
330
1F
100
AcDbEntity
  8
1
  6
Continuous
 62
     7
100
AcDbCircle
 10
1003.820179064799
 20
1627.201061606432
 30
0.0
 40
37.5
  0
SPLINE
  5
AB
330
1F
100
AcDbEntity
  8
___C_____1
  6
Continuous
 62
     7
100
AcDbSpline
210
0.0
220
0.0
230
1.0
 70
     8
 71
     3
 72
    61
 73
    57
 74
    55
 42
0.0000000001
 43
0.0000000001
 44
0.00000001
 40
0.0
 40
0.0
 40
0.0
 40
0.0
 40
0.1394329096764037
 40
0.1896604455848965
 40
0.327928611869318
 40
0.7275804349652959
 40
1.365886901237182
 40
2.22011899704892
 40
3.267547708765116
 40
4.485444022749619
 40
5.851078925366708
 40
7.341723402980771
 40
8.934648441955984
 40
10.60712502865629
 40
12.33642414944609
 40
14.09981679068966
 40
15.87457393875095
 40
17.63796657999458
 40
19.36726570078421
 40
21.03974228748474
 40
22.63266732645967
 40
24.12331180407373
 40
25.48894670669099
 40
26.70684302067554
 40
27.75427173239163
 40
28.60850382820337
 40
29.24681029447531
 40
29.64646211757112
 40
29.78473028385566
 40
31.07140012749303
 40
32.23750434371678
 40
33.27502981355463
 40
34.17720585595345
 40
34.94111513116905
 40
35.57332226944767
 40
36.10207095825895
 40
36.59546945183661
 40
37.15622962580586
 40
37.87645107814241
 40
42.57293593285962
 40
47.40035676878019
 40
52.35771238713332
 40
57.4426685456807
 40
62.6517696771536
 40
67.98061939068987
 40
73.4240337607924
 40
78.9761713998307
 40
84.63064401954422
 40
90.3806107763365
 40
96.21885925723207
 40
102.1378755473507
 40
108.04531342896
 40
113.8605501106308
 40
119.5794690802045
 40
125.1979637876746
 40
130.7119762224244
 40
130.7119762224244
 40
130.7119762224244
 40
130.7119762224244
 10
1221.890499505775
 20
834.139568553188
 30
0.0
 10
1221.902451173173
 20
834.0946321966028
 30
0.0
 10
1221.918708157047
 20
834.0335085391198
 30
0.0
 10
1221.939322325854
 20
833.9261070951121
 30
0.0
 10
1221.995085513481
 20
833.7379173407586
 30
0.0
 10
1222.091673139503
 20
833.3580337932756
 30
0.0
 10
1222.256654765043
 20
832.7491840148593
 30
0.0
 10
1222.473859945524
 20
831.9308940462331
 30
0.0
 10
1222.742234487221
 20
830.9262593648278
 30
0.0
 10
1223.054052600489
 20
829.7568000680681
 30
0.0
 10
1223.404111701469
 20
828.4446320640363
 30
0.0
 10
1223.786338502153
 20
827.0116656593461
 30
0.0
 10
1224.194942318855
 20
825.4798778926499
 30
0.0
 10
1224.624044739593
 20
823.8712250871149
 30
0.0
 10
1225.067793660755
 20
822.207669778127
 30
0.0
 10
1225.520329310683
 20
820.5111726905593
 30
0.0
 10
1225.975794092272
 20
818.8036950621481
 30
0.0
 10
1226.428329831418
 20
817.1071979966971
 30
0.0
 10
1226.872078406592
 20
815.4436426019408
 30
0.0
 10
1227.301182058937
 20
813.8349901017128
 30
0.0
 10
1227.709781610749
 20
812.3032012777805
 30
0.0
 10
1228.092022787999
 20
810.8702384369389
 30
0.0
 10
1228.442034955853
 20
809.5580587985191
 30
0.0
 10
1228.754000185669
 20
808.3886359709034
 30
0.0
 10
1229.021938160477
 20
807.3838930676786
 30
0.0
 10
1229.24033914711
 20
806.5658995308725
 30
0.0
 10
1229.402449144071
 20
805.9563378962029
 30
0.0
 10
1229.504333366206
 20
805.5777673371385
 30
0.0
 10
1229.65805854106
 20
804.9891765739354
 30
0.0
 10
1229.993072423255
 20
804.1896296794317
 30
0.0
 10
1230.377258007506
 20
803.0921879800407
 30
0.0
 10
1230.720944465604
 20
802.1153726936134
 30
0.0
 10
1230.981592743048
 20
801.2522504722765
 30
0.0
 10
1231.143528347049
 20
800.5018379518681
 30
0.0
 10
1231.184781126723
 20
799.8581657131322
 30
0.0
 10
1231.071571515224
 20
799.3059504917495
 30
0.0
 10
1230.744340024389
 20
798.8690290848458
 30
0.0
 10
1230.206074211616
 20
798.5875792923519
 30
0.0
 10
1228.230402254681
 20
798.2708109496571
 30
0.0
 10
1224.846010076401
 20
797.8663499415839
 30
0.0
 10
1220.107535322611
 20
796.9109883151607
 30
0.0
 10
1215.286582646113
 20
795.7606804481731
 30
0.0
 10
1210.395552479069
 20
794.366928754682
 30
0.0
 10
1205.443699133865
 20
792.7516742821759
 30
0.0
 10
1200.441179992789
 20
790.9172218674507
 30
0.0
 10
1195.397922781301
 20
788.8713277074763
 30
0.0
 10
1190.32394402378
 20
786.6202208333871
 30
0.0
 10
1185.229229430401
 20
784.1705855094458
 30
0.0
 10
1180.123871133663
 20
781.5288462633624
 30
0.0
 10
1175.017617614201
 20
778.7020103550563
 30
0.0
 10
1169.945846298718
 20
775.7093106881874
 30
0.0
 10
1164.957739628292
 20
772.5935567972429
 30
0.0
 10
1160.117053355831
 20
769.3718575708963
 30
0.0
 10
1155.451404567753
 20
766.0659877587251
 30
0.0
 10
1150.956963837494
 20
762.694522636584
 30
0.0
 10
1148.075858765459
 20
760.3553709060461
 30
0.0
 10
1146.648826292893
 20
759.1967718982775
 30
0.0
 11
1221.890499505775
 21
834.139568553188
 31
0.0
 11
1221.924011759995
 21
834.0042228287712
 31
0.0
 11
1221.93421554977
 21
833.9550426697874
 31
0.0
 11
1221.969852128282
 21
833.8214458132391
 31
0.0
 11
1222.072856485351
 21
833.4352959949964
 31
0.0
 11
1222.237370553276
 21
832.8185543421635
 31
0.0
 11
1222.457536264357
 21
831.9931819818442
 31
0.0
 11
1222.727495550893
 21
830.9811400411419
 31
0.0
 11
1223.041390345184
 21
829.804389647161
 31
0.0
 11
1223.393362579529
 21
828.4848919270052
 31
0.0
 11
1223.777554186227
 21
827.044608007778
 31
0.0
 11
1224.188107097577
 21
825.5054990165836
 31
0.0
 11
1224.61916324588
 21
823.8895260805258
 31
0.0
 11
1225.064864563434
 21
822.2186503267084
 31
0.0
 11
1225.519352982539
 21
820.5148328822352
 31
0.0
 11
1225.976770435495
 21
818.8000348742102
 31
0.0
 11
1226.4312588546
 21
817.096217429737
 31
0.0
 11
1226.876960172154
 21
815.4253416759198
 31
0.0
 11
1227.308016320457
 21
813.8093687398617
 31
0.0
 11
1227.718569231807
 21
812.2702597486675
 31
0.0
 11
1228.102760838505
 21
810.8299758294404
 31
0.0
 11
1228.45473307285
 21
809.5104781092845
 31
0.0
 11
1228.768627867141
 21
808.3337277153034
 31
0.0
 11
1229.038587153677
 21
807.3216857746013
 31
0.0
 11
1229.258752864758
 21
806.496313414282
 31
0.0
 11
1229.423266932683
 21
805.8795717614489
 31
0.0
 11
1229.526271289752
 21
805.4934219432065
 31
0.0
 11
1229.561907868264
 21
805.359825086658
 31
0.0
 11
1229.995685411516
 21
804.1484802433139
 31
0.0
 11
1230.391773180959
 21
803.051706099749
 31
0.0
 11
1230.72801290298
 21
802.0701756876388
 31
0.0
 11
1230.982246303966
 21
801.2045620386582
 31
0.0
 11
1231.132315110305
 21
800.4555381844823
 31
0.0
 11
1231.156061048382
 21
799.8237771567865
 31
0.0
 11
1231.031325844586
 21
799.3099519872458
 31
0.0
 11
1230.735951225303
 21
798.9147357075353
 31
0.0
 11
1230.24777891692
 21
798.6388013493305
 31
0.0
 11
1229.544650645824
 21
798.4828219443061
 31
0.0
 11
1224.896585560153
 21
797.8101697682496
 31
0.0
 11
1220.157201005736
 21
796.89244106518
 31
0.0
 11
1215.336563695665
 21
795.736227135335
 31
0.0
 11
1210.444740343029
 21
794.3481192789523
 31
0.0
 11
1205.491797660918
 21
792.7347087962692
 31
0.0
 11
1200.487802362422
 21
790.9025869875229
 31
0.0
 11
1195.44282116063
 21
788.8583451529514
 31
0.0
 11
1190.366920768634
 21
786.6085745927921
 31
0.0
 11
1185.270167899523
 21
784.1598666072825
 31
0.0
 11
1180.162629266387
 21
781.51881249666
 31
0.0
 11
1175.054371582316
 21
778.6920035611621
 31
0.0
 11
1169.9554615604
 21
775.6860311010264
 31
0.0
 11
1164.947175485797
 21
772.553158151159
 31
0.0
 11
1160.106533483817
 21
769.3305563028821
 31
0.0
 11
1155.439370992388
 21
766.0254650092643
 31
0.0
 11
1150.951523449437
 21
762.645123723373
 31
0.0
 11
1146.648826292893
 21
759.1967718982775
 31
0.0
  0
SPLINE
  5
AC
330
1F
100
AcDbEntity
  8
___C_____1
  6
Continuous
 62
     7
100
AcDbSpline
210
0.0
220
0.0
230
1.0
 70
     8
 71
     3
 72
    29
 73
    25
 74
    23
 42
0.0000000001
 43
0.0000000001
 44
0.00000001
 40
0.0
 40
0.0
 40
0.0
 40
0.0
 40
1.232243995868952
 40
2.697463780154358
 40
3.998978959302873
 40
7.430246249785254
 40
12.28134828115678
 40
17.84236768297301
 40
23.40338708478923
 40
28.25448911616073
 40
31.68575640664325
 40
32.98727158579165
 40
36.71281209079288
 40
39.05303022060731
 40
39.97233648602339
 40
52.5686964826951
 40
64.95733683088669
 40
78.34942104709731
 40
93.07350358635283
 40
106.352772800556
 40
118.4205991690372
 40
129.4153351538815
 40
139.3790066626992
 40
148.2649247817325
 40
148.2649247817325
 40
148.2649247817325
 40
148.2649247817325
 10
562.9499547499448
 20
825.4785776240271
 30
0.0
 10
563.0075646052198
 20
825.0716047659539
 30
0.0
 10
563.1336763968009
 20
824.1807142054491
 30
0.0
 10
563.4624242990906
 20
822.8873173390131
 30
0.0
 10
563.9060841183854
 20
820.8698483838492
 30
0.0
 10
564.6181025518006
 20
817.7553272381389
 30
0.0
 10
565.6323600084235
 20
813.2538284969347
 30
0.0
 10
566.8056445866488
 20
808.0602617441717
 30
0.0
 10
567.9861909210624
 20
802.868525558958
 30
0.0
 10
568.9831746682839
 20
798.3626724038811
 30
0.0
 10
569.7315079121222
 20
795.2573056158492
 30
0.0
 10
570.2607388675759
 20
792.4848801787628
 30
0.0
 10
571.5331019148455
 20
790.2664807355423
 30
0.0
 10
573.4394238849702
 20
788.7994742831011
 30
0.0
 10
578.5556624875247
 20
787.3880861580673
 30
0.0
 10
587.1468546686415
 20
786.3201185062851
 30
0.0
 10
599.3748636286513
 20
782.4019145519047
 30
0.0
 10
611.9465588926248
 20
777.4741115637198
 30
0.0
 10
624.2078698161398
 20
771.0376465531997
 30
0.0
 10
635.026333457953
 20
763.1259668793689
 30
0.0
 10
643.7455909494813
 20
754.6582652546008
 30
0.0
 10
650.5427706708809
 20
745.9665675608569
 30
0.0
 10
655.746075488815
 20
737.4482836549969
 30
0.0
 10
658.2396019051382
 20
731.6747134434474
 30
0.0
 10
659.4150795680766
 20
728.9529845799968
 30
0.0
 11
562.9499547499448
 21
825.4785776240271
 31
0.0
 11
563.1427427840144
 21
824.2615081768407
 31
0.0
 11
563.467636127988
 21
822.8327628071884
 31
0.0
 11
563.7546048620786
 21
821.5632783814436
 31
0.0
 11
564.5111587974085
 21
818.2164558044804
 31
0.0
 11
565.5807695335644
 21
813.4847411267048
 31
0.0
 11
566.8069086701335
 21
808.0605803985229
 31
0.0
 11
568.0330478067025
 21
802.6364196703411
 31
0.0
 11
569.1026585428583
 21
797.9047049925655
 31
0.0
 11
569.8592124781883
 21
794.5578824156021
 31
0.0
 11
570.1461812122789
 21
793.2883979898575
 31
0.0
 11
572.0016522027763
 21
790.0577820334449
 31
0.0
 11
573.9108123297531
 21
788.7043683846759
 31
0.0
 11
574.7883740486477
 21
788.4304898729888
 31
0.0
 11
587.1330405007484
 21
785.9249968372509
 31
0.0
 11
599.0060095394892
 21
782.3879053934313
 31
0.0
 11
611.4427145112704
 21
777.4203819562495
 31
0.0
 11
624.432843106119
 21
770.4881986268714
 31
0.0
 11
635.1442895145815
 21
762.6393830027201
 31
0.0
 11
643.7876450508331
 21
754.217694434876
 31
0.0
 11
650.5735010290489
 21
745.5668922744203
 31
0.0
 11
655.7124487634051
 21
737.0307358724335
 31
0.0
 11
659.4150795680766
 21
728.9529845799968
 31
0.0
  0
SPLINE
  5
AD
330
1F
100
AcDbEntity
  8
___C_____1
  6
Continuous
 62
     7
100
AcDbSpline
210
0.0
220
0.0
230
1.0
 70
     8
 71
     3
 72
    16
 73
    12
 74
    10
 42
0.0000000001
 43
0.0000000001
 44
0.00000001
 40
0.0
 40
0.0
 40
0.0
 40
0.0
 40
6.407555977759889
 40
12.65575349223999
 40
18.73861223765637
 40
24.65070534134813
 40
30.3873356674701
 40
35.94474573880645
 40
41.32036912430893
 40
41.38584675957494
 40
41.57716327327292
 40
41.57716327327292
 40
41.57716327327292
 40
41.57716327327292
 10
1146.648826292893
 20
759.1967718982775
 30
0.0
 10
1145.017158000279
 20
757.8180161235921
 30
0.0
 10
1141.79440165385
 20
755.0947947782015
 30
0.0
 10
1137.215458966989
 20
750.8453680762366
 30
0.0
 10
1132.928681677903
 20
746.5211641295501
 30
0.0
 10
1128.892577575624
 20
742.2363649279359
 30
0.0
 10
1125.342181592031
 20
737.586512255175
 30
0.0
 10
1121.473526179199
 20
734.0804160543312
 30
0.0
 10
1120.598683735036
 20
728.8467011646135
 30
0.0
 10
1118.714716834796
 20
728.8588780854527
 30
0.0
 10
1118.629216610851
 20
728.858694663122
 30
0.0
 10
1118.565517321628
 20
728.8585580100053
 30
0.0
 11
1146.648826292893
 21
759.1967718982775
 31
0.0
 11
1141.787199642719
 21
755.0228816358913
 31
0.0
 11
1137.204749454586
 21
750.7753973859808
 31
0.0
 11
1132.911251900668
 21
746.4664474824442
 31
0.0
 11
1128.916483153137
 21
742.1081602591801
 31
0.0
 11
1125.230219384166
 21
737.7126640500869
 31
0.0
 11
1121.862236765926
 21
733.2920871890622
 31
0.0
 11
1118.822311470592
 21
728.8585580100053
 31
0.0
 11
1118.756833835326
 21
728.8585580100053
 31
0.0
 11
1118.565517321628
 21
728.8585580100053
 31
0.0
  0
SPLINE
  5
AE
330
1F
100
AcDbEntity
  8
___C_____1
  6
Continuous
 62
     7
100
AcDbSpline
210
0.0
220
0.0
230
1.0
 70
     8
 71
     3
 72
    12
 73
     8
 74
     6
 42
0.0000000001
 43
0.0000000001
 44
0.00000001
 40
0.0
 40
0.0
 40
0.0
 40
0.0
 40
29.9139642471936
 40
60.77571326699997
 40
92.52754468770223
 40
93.15040446475038
 40
93.77306647107945
 40
93.77306647107945
 40
93.77306647107945
 40
93.77306647107945
 10
1091.379848664917
 20
818.3356953049619
 30
0.0
 10
1081.441166409533
 20
817.5192582825522
 30
0.0
 10
1061.248907770268
 20
815.8605165001358
 30
0.0
 10
1030.426191169331
 20
814.565621556168
 30
0.0
 10
1009.347225404672
 20
814.2529475734609
 30
0.0
 10
998.3481077465428
 20
814.2560378594219
 30
0.0
 10
997.9329340470348
 20
814.2564920647282
 30
0.0
 10
997.7253801590491
 20
814.2567191313209
 30
0.0
 11
1091.379848664917
 21
818.3356953049619
 31
0.0
 11
1061.55088728387
 21
816.0821825114784
 31
0.0
 11
1030.71940336315
 21
814.7157448773785
 31
0.0
 11
998.9709016245824
 21
814.2559232544936
 31
0.0
 11
998.3480418793367
 21
814.2561222945024
 31
0.0
 11
997.7253801590491
 21
814.2567191313209
 31
0.0
  0
SPLINE
  5
AF
330
1F
100
AcDbEntity
  8
___C_____1
  6
Continuous
 62
     7
100
AcDbSpline
210
0.0
220
0.0
230
1.0
 70
     8
 71
     3
 72
    13
 73
     9
 74
     7
 42
0.0000000001
 43
0.0000000001
 44
0.00000001
 40
0.0
 40
0.0
 40
0.0
 40
0.0
 40
59.19328024457104
 40
120.4877212457081
 40
235.7003429464907
 40
350.9045093298316
 40
466.1086757131712
 40
581.3212974139534
 40
581.3212974139534
 40
581.3212974139534
 40
581.3212974139534
 10
901.6746705935193
 20
1511.35332278995
 30
0.0
 10
888.9476815785854
 20
1526.772981325498
 30
0.0
 10
863.0419385889629
 20
1558.159643994958
 30
0.0
 10
847.4322367461533
 20
1638.179921124657
 30
0.0
 10
888.0096063732929
 20
1737.934596701271
 30
0.0
 10
1004.796836474914
 20
1786.723574448656
 30
0.0
 10
1128.201202730035
 20
1737.88828023816
 30
0.0
 10
1147.017362921118
 20
1659.248480509196
 30
0.0
 10
1156.425788253239
 20
1619.927137771398
 30
0.0
 11
901.6746705935193
 21
1511.35332278995
 31
0.0
 11
867.8203144717904
 21
1559.909753854182
 31
0.0
 11
855.3735427869187
 21
1619.927137771398
 31
0.0
 11
899.4635889683902
 21
1726.369685781502
 31
0.0
 11
1005.89966552008
 21
1770.453260504559
 31
0.0
 11
1112.335742071768
 21
1726.369685781502
 31
0.0
 11
1156.425788253239
 21
1619.927137771398
 31
0.0
  0
SPLINE
  5
B0
330
1F
100
AcDbEntity
  8
___C_____1
  6
Continuous
 62
     7
100
AcDbSpline
210
0.0
220
0.0
230
1.0
 70
     8
 71
     3
 72
    13
 73
     9
 74
     7
 42
0.0000000001
 43
0.0000000001
 44
0.00000001
 40
0.0
 40
0.0
 40
0.0
 40
0.0
 40
57.22170736611264
 40
116.515308168071
 40
233.4763142479929
 40
350.4457756344353
 40
460.5669550298568
 40
569.7774752510068
 40
569.7774752510068
 40
569.7774752510068
 40
569.7774752510068
 10
893.7881199384256
 20
1517.600437313241
 30
0.0
 10
882.005489456855
 20
1532.892648213633
 30
0.0
 10
858.0136009798656
 20
1564.030773020538
 30
0.0
 10
843.3690008079821
 20
1643.125529488672
 30
0.0
 10
884.0912414520619
 20
1743.545616197319
 30
0.0
 10
1000.548763668162
 20
1791.830442012551
 30
0.0
 10
1119.752466004617
 20
1748.004044010912
 30
0.0
 10
1143.855046359891
 20
1675.473479861503
 30
0.0
 10
1155.85629991272
 20
1639.358770238872
 30
0.0
 11
893.7881199384256
 21
1517.600437313241
 31
0.0
 11
862.4641040569657
 21
1565.487072431519
 31
0.0
 11
851.0074655095914
 21
1623.663326429665
 31
0.0
 11
895.7629933314065
 21
1731.72266046712
 31
0.0
 11
1003.828798827276
 21
1776.48465974735
 31
0.0
 11
1106.553493977957
 21
1736.807069628514
 31
0.0
 11
1155.85629991272
 21
1639.358770238872
 31
0.0
  0
SPLINE
  5
B1
330
1F
100
AcDbEntity
  8
___C_____1
  6
Continuous
 62
     7
100
AcDbSpline
210
0.0
220
0.0
230
1.0
 70
     8
 71
     3
 72
     9
 73
     5
 74
     3
 42
0.0000000001
 43
0.0000000001
 44
0.00000001
 40
0.0
 40
0.0
 40
0.0
 40
0.0
 40
61.36822120404321
 40
129.3112956055646
 40
129.3112956055646
 40
129.3112956055646
 40
129.3112956055646
 10
1218.534542729084
 20
841.0650183150801
 30
0.0
 10
1198.679817217163
 20
836.0335679185577
 30
0.0
 10
1156.84317555693
 20
825.4316088461876
 30
0.0
 10
1113.928295573523
 20
820.7798397954538
 30
0.0
 10
1091.379848664917
 20
818.3356953049619
 30
0.0
 11
1218.534542729084
 21
841.0650183150801
 31
0.0
 11
1158.727521337705
 21
827.3107911088898
 31
0.0
 11
1091.379848664917
 21
818.3356953049619
 31
0.0
  0
SPLINE
  5
B2
330
1F
100
AcDbEntity
  8
___C_____1
  6
Continuous
 62
     7
100
AcDbSpline
210
0.0
220
0.0
230
1.0
 70
     8
 71
     3
 72
    67
 73
    63
 74
    61
 42
0.0000000001
 43
0.0000000001
 44
0.00000001
 40
0.0
 40
0.0
 40
0.0
 40
0.0
 40
2.088812675473862
 40
4.215667162233904
 40
7.216939645044026
 40
15.62050259691273
 40
28.52597427299657
 40
45.03297292845275
 40
64.24111681843806
 40
85.25002419810949
 40
107.1593133226239
 40
129.0686024471385
 40
150.0775098268098
 40
169.2856537167951
 40
185.7926523722514
 40
198.6981240483352
 40
207.1016870002037
 40
210.1029594830139
 40
226.3756706856009
 40
243.6555071114362
 40
253.191721023441
 40
262.414664924713
 40
264.8538699647195
 40
271.4745693590235
 40
281.2313895190497
 40
293.078956856225
 40
305.971897781974
 40
318.8648387077234
 40
330.7124060448982
 40
340.4692262049249
 40
347.0899255992284
 40
349.5291306392352
 40
351.969060482527
 40
358.5917272000351
 40
368.3514465732036
 40
380.2025343834806
 40
393.0993064123107
 40
405.9960784411413
 40
417.8471662514178
 40
427.6068856245865
 40
434.2295523420941
 40
436.6694821853862
 40
445.8891907490003
 40
455.4027943128277
 40
472.7040691782795
 40
488.9725396464617
 40
491.9738121292718
 40
500.3773750811405
 40
513.2828467572242
 40
529.7898454126807
 40
548.997989302666
 40
570.0068966823374
 40
591.9161858068518
 40
613.8254749313662
 40
634.8343823110375
 40
654.0425262010228
 40
670.5495248564793
 40
683.4549965325631
 40
691.8585594844317
 40
694.8598319672418
 40
696.9874006777943
 40
699.0663043029616
 40
699.0663043029616
 40
699.0663043029616
 40
699.0663043029616
 10
570.1893133542044
 20
1493.785470345999
 30
0.0
 10
570.3655417748103
 20
1493.051199242753
 30
0.0
 10
570.7212081179551
 20
1491.569284366192
 30
0.0
 10
573.3820230135827
 20
1491.005340368939
 30
0.0
 10
577.7553266745899
 20
1491.308695971748
 30
0.0
 10
585.963326391634
 20
1491.077600835359
 30
0.0
 10
598.51460025832
 20
1491.197099125271
 30
0.0
 10
614.7426585349986
 20
1491.150286603107
 30
0.0
 10
633.6434512033002
 20
1491.166195118
 30
0.0
 10
654.3546225907214
 20
1491.161152367156
 30
0.0
 10
675.9624608224171
 20
1491.16312121312
 30
0.0
 10
697.574341937001
 20
1491.160659526234
 30
0.0
 10
718.2742084823731
 20
1491.168005577004
 30
0.0
 10
737.2109689628935
 20
1491.144497522602
 30
0.0
 10
753.3331210765634
 20
1491.213745927009
 30
0.0
 10
766.1547540247772
 20
1491.036961879637
 30
0.0
 10
773.839910437335
 20
1491.378842636684
 30
0.0
 10
784.188820500676
 20
1490.460908307154
 30
0.0
 10
772.8505528092197
 20
1509.687335163899
 30
0.0
 10
774.5097259242543
 20
1521.431828194433
 30
0.0
 10
773.273239919582
 20
1533.806157637791
 30
0.0
 10
773.2916018572665
 20
1540.807348425399
 30
0.0
 10
773.2876021017207
 20
1546.906494666514
 30
0.0
 10
773.2858051688432
 20
1553.176624176106
 30
0.0
 10
773.2817397872814
 20
1562.586023717939
 30
0.0
 10
773.2773049635759
 20
1574.084753641615
 30
0.0
 10
773.2723065440315
 20
1586.629352505624
 30
0.0
 10
773.2673109525931
 20
1599.173802900205
 30
0.0
 10
773.2628687719907
 20
1610.672919045025
 30
0.0
 10
773.2588231916648
 20
1620.081279064833
 30
0.0
 10
773.2569860331115
 20
1626.35352033536
 30
0.0
 10
773.2545284807105
 20
1630.186798113039
 30
0.0
 10
773.2569862811914
 20
1634.020731665373
 30
0.0
 10
773.2588230568039
 20
1640.294836715722
 30
0.0
 10
773.2628688118591
 20
1649.7059924064
 30
0.0
 10
773.267310995217
 20
1661.208525477343
 30
0.0
 10
773.272306307482
 20
1673.756703448319
 30
0.0
 10
773.2773058287903
 20
1686.305029812129
 30
0.0
 10
773.2817370629493
 20
1697.807176861175
 30
0.0
 10
773.2858122879932
 20
1707.2193715376
 30
0.0
 10
773.2875891961203
 20
1713.491365916445
 30
0.0
 10
773.2916337570407
 20
1719.590326989882
 30
0.0
 10
773.2726962831583
 20
1726.583309882451
 30
0.0
 10
774.5115413941619
 20
1738.955146727961
 30
0.0
 10
772.8438287948318
 20
1750.696028010379
 30
0.0
 10
784.1874357678647
 20
1769.929409102135
 30
0.0
 10
773.8398484215164
 20
1769.011500506922
 30
0.0
 10
766.1547899529018
 20
1769.353424069259
 30
0.0
 10
753.3331063612496
 20
1769.17661788322
 30
0.0
 10
737.2109740710087
 20
1769.245874982901
 30
0.0
 10
718.274206926997
 20
1769.222363868348
 30
0.0
 10
697.5743421839405
 20
1769.229711334534
 30
0.0
 10
675.9624615580635
 20
1769.22724738134
 30
0.0
 10
654.3546194616611
 20
1769.229223737053
 30
0.0
 10
633.6434620497139
 20
1769.224155065489
 30
0.0
 10
614.7426239874465
 20
1769.240147493674
 30
0.0
 10
598.5146995749383
 20
1769.19308757604
 30
0.0
 10
585.9630839396407
 20
1769.313217480162
 30
0.0
 10
577.7557451690723
 20
1769.080900866343
 30
0.0
 10
573.3813430157911
 20
1769.385875984259
 30
0.0
 10
570.7254836364828
 20
1768.81957201495
 30
0.0
 10
570.3666529995129
 20
1767.343182849725
 30
0.0
 10
570.1893133542044
 20
1766.613528511652
 30
0.0
 11
570.1893133542044
 21
1493.785470345999
 31
0.0
 11
571.0122671493127
 21
1491.865604349546
 31
0.0
 11
573.019497834367
 21
1491.162372535115
 31
0.0
 11
576.0207703171772
 21
1491.162372535115
 31
0.0
 11
584.4243332690459
 21
1491.162372535115
 31
0.0
 11
597.3298049451297
 21
1491.162372535115
 31
0.0
 11
613.8368036005859
 21
1491.162372535115
 31
0.0
 11
633.0449474905712
 21
1491.162372535115
 31
0.0
 11
654.0538548702426
 21
1491.162372535115
 31
0.0
 11
675.9631439947571
 21
1491.162372535115
 31
0.0
 11
697.8724331192716
 21
1491.162372535115
 31
0.0
 11
718.8813404989429
 21
1491.162372535115
 31
0.0
 11
738.0894843889282
 21
1491.162372535115
 31
0.0
 11
754.5964830443845
 21
1491.162372535115
 31
0.0
 11
767.5019547204684
 21
1491.162372535115
 31
0.0
 11
775.9055176723368
 21
1491.162372535115
 31
0.0
 11
778.9067901551471
 21
1491.162372535115
 31
0.0
 11
775.914819214606
 21
1507.157660584217
 31
0.0
 11
773.9971103709568
 21
1524.330754064852
 31
0.0
 11
773.433014912448
 21
1533.850269393334
 31
0.0
 11
773.2895642509166
 21
1543.072097634725
 31
0.0
 11
773.2885978464599
 21
1545.511302483289
 31
0.0
 11
773.2859747486489
 21
1552.132001357961
 31
0.0
 11
773.2821091308221
 21
1561.888820752216
 31
0.0
 11
773.2774151663182
 21
1573.736387159525
 31
0.0
 11
773.2723070284756
 21
1586.62932707336
 31
0.0
 11
773.267198890633
 21
1599.522266987197
 31
0.0
 11
773.2625049261291
 21
1611.369833394505
 31
0.0
 11
773.2586393083022
 21
1621.12665278876
 31
0.0
 11
773.2560162104912
 21
1627.747351663432
 31
0.0
 11
773.2550498060346
 21
1630.186556511996
 31
0.0
 11
773.2560162104913
 21
1632.626486163902
 31
0.0
 11
773.2586393083024
 21
1639.249152361933
 31
0.0
 11
773.2625049261291
 21
1649.008870969557
 31
0.0
 11
773.267198890633
 21
1660.859957850244
 31
0.0
 11
773.2723070284756
 21
1673.756728867462
 31
0.0
 11
773.2774151663182
 21
1686.65349988468
 31
0.0
 11
773.2821091308221
 21
1698.504586765366
 31
0.0
 11
773.2859747486489
 21
1708.26430537299
 31
0.0
 11
773.2885978464599
 21
1714.886971571021
 31
0.0
 11
773.2895642509166
 21
1717.326901222927
 31
0.0
 11
773.433014912448
 21
1726.545493735111
 31
0.0
 11
773.9971103709568
 21
1736.042358959139
 31
0.0
 11
775.914819214606
 21
1753.237023967824
 31
0.0
 11
778.9067901551471
 21
1769.227997711317
 31
0.0
 11
775.9055176723369
 21
1769.227997711317
 31
0.0
 11
767.5019547204682
 21
1769.227997711317
 31
0.0
 11
754.5964830443846
 21
1769.227997711317
 31
0.0
 11
738.0894843889281
 21
1769.227997711317
 31
0.0
 11
718.8813404989428
 21
1769.227997711317
 31
0.0
 11
697.8724331192715
 21
1769.227997711317
 31
0.0
 11
675.9631439947571
 21
1769.227997711317
 31
0.0
 11
654.0538548702426
 21
1769.227997711317
 31
0.0
 11
633.0449474905713
 21
1769.227997711317
 31
0.0
 11
613.836803600586
 21
1769.227997711317
 31
0.0
 11
597.3298049451296
 21
1769.227997711317
 31
0.0
 11
584.4243332690458
 21
1769.227997711317
 31
0.0
 11
576.0207703171772
 21
1769.227997711317
 31
0.0
 11
573.019497834367
 21
1769.227997711317
 31
0.0
 11
571.0122671493127
 21
1768.522608744081
 31
0.0
 11
570.1893133542044
 21
1766.613528511652
 31
0.0
  0
SPLINE
  5
B3
330
1F
100
AcDbEntity
  8
___C_____1
  6
Continuous
 62
     7
100
AcDbSpline
210
0.0
220
0.0
230
1.0
 70
    11
 71
     3
 72
   105
 73
   101
 74
    99
 42
0.0000000001
 43
0.0000000001
 44
0.00000001
 40
0.0
 40
0.0
 40
0.0
 40
0.0
 40
2.23161002511521
 40
4.400869581931268
 40
7.233467481119881
 40
15.43309297877011
 40
28.55249377501185
 40
46.14441756997156
 40
67.76161206377799
 40
92.95682495655944
 40
121.282803948444
 40
152.2922967395597
 40
185.5380510300348
 40
220.5728145199969
 40
256.9493349095751
 40
294.2203598988966
 40
331.9386371880901
 40
369.6569144772835
 40
406.9279394666055
 40
443.3044598561833
 40
478.3392233461456
 40
511.5849776366205
 40
542.5944704277362
 40
570.9204494196205
 40
596.1156623124022
 40
617.7328568062086
 40
635.3247806011684
 40
648.4441813974096
 40
656.6438068950605
 40
659.4764047942489
 40
661.6565649762071
 40
663.8901641583042
 40
666.8960507629589
 40
675.4764907071559
 40
688.9756541862427
 40
706.7377113955671
 40
728.1068325304776
 40
752.4271877863222
 40
779.0429473584485
 40
807.2982814422047
 40
836.537360232939
 40
866.1043539259994
 40
895.3434327167337
 40
923.5987668004901
 40
950.2145263726164
 40
974.5348816284608
 40
995.9040027633713
 40
1013.666059972696
 40
1027.165223451783
 40
1035.745663395979
 40
1038.751550000634
 40
1040.974130654112
 40
1043.152172760869
 40
1045.984770660058
 40
1054.184396157708
 40
1067.30379695395
 40
1084.89572074891
 40
1106.512915242716
 40
1131.708128135498
 40
1160.034107127382
 40
1191.043599918497
 40
1224.289354208972
 40
1259.324117698935
 40
1295.700638088513
 40
1332.971663077835
 40
1370.689940367028
 40
1408.408217656222
 40
1445.679242645543
 40
1482.055763035121
 40
1517.090526525084
 40
1550.336280815559
 40
1581.345773606674
 40
1609.671752598559
 40
1634.86696549134
 40
1656.484159985147
 40
1674.076083780107
 40
1687.195484576348
 40
1695.395110073998
 40
1698.227707973187
 40
1700.394838800952
 40
1702.615420427271
 40
1705.621307031925
 40
1714.201746976122
 40
1727.700910455209
 40
1745.462967664533
 40
1766.832088799444
 40
1791.152444055289
 40
1817.768203627415
 40
1846.023537711171
 40
1875.262616501906
 40
1904.829610194966
 40
1934.0686889857
 40
1962.324023069456
 40
1988.939782641583
 40
2013.260137897427
 40
2034.629259032338
 40
2052.391316241662
 40
2065.890479720748
 40
2074.470919664946
 40
2077.4768062696
 40
2077.4768062696
 40
2077.4768062696
 40
2077.4768062696
 10
1230.28670029657
 20
1441.910259691269
 30
0.0
 10
1230.119370566503
 20
1441.129703622947
 30
0.0
 10
1229.789386245355
 20
1439.590399972485
 30
0.0
 10
1227.209137213235
 20
1438.763763105609
 30
0.0
 10
1222.893176352397
 20
1439.177017275379
 30
0.0
 10
1214.776668020437
 20
1438.854528268012
 30
0.0
 10
1201.842192475043
 20
1439.029742976745
 30
0.0
 10
1184.384388313546
 20
1438.956586993381
 30
0.0
 10
1162.921757701734
 20
1438.983375709426
 30
0.0
 10
1137.873776025686
 20
1438.974317618716
 30
0.0
 10
1109.697474489639
 20
1438.977218325918
 30
0.0
 10
1078.836883266715
 20
1438.976325991873
 30
0.0
 10
1045.740267485758
 20
1438.976591984326
 30
0.0
 10
1010.854572294063
 20
1438.97651472191
 30
0.0
 10
974.6271404880116
 20
1438.976536693872
 30
0.0
 10
937.5051983676681
 20
1438.976530469817
 30
0.0
 10
899.9360054494873
 20
1438.976532577137
 30
0.0
 10
862.3668124308872
 20
1438.976530497036
 30
0.0
 10
825.2448706058613
 20
1438.976536587571
 30
0.0
 10
789.0174377576976
 20
1438.976515103996
 30
0.0
 10
754.1317462303925
 20
1438.976590644647
 30
0.0
 10
721.0351178340118
 20
1438.976330580829
 30
0.0
 10
690.1745689324756
 20
1438.977203025613
 30
0.0
 10
661.998129822444
 20
1438.974366972425
 30
0.0
 10
636.9505777511578
 20
1438.983223166866
 30
0.0
 10
615.4866766111145
 20
1438.957031545955
 30
0.0
 10
598.032342072499
 20
1439.028556951664
 30
0.0
 10
585.0895564896387
 20
1438.857247613015
 30
0.0
 10
576.9883430821358
 20
1439.172548645517
 30
0.0
 10
572.6492025852831
 20
1438.768171896884
 30
0.0
 10
570.1032697746209
 20
1439.580071833569
 30
0.0
 10
569.371878877943
 20
1442.209620818365
 30
0.0
 10
569.7519201958188
 20
1446.73502949052
 30
0.0
 10
569.4584075477929
 20
1455.159597370042
 30
0.0
 10
569.6146836867239
 20
1468.406747132916
 30
0.0
 10
569.5510772251935
 20
1485.963790193086
 30
0.0
 10
569.5736878801851
 20
1507.109468381742
 30
0.0
 10
569.5662983859218
 20
1531.21279328209
 30
0.0
 10
569.5685735964977
 20
1557.609456228278
 30
0.0
 10
569.5679075892872
 20
1585.646324233701
 30
0.0
 10
569.5680832356552
 20
1614.666749677351
 30
0.0
 10
569.5680838577689
 20
1644.015155499861
 30
0.0
 10
569.5679057712179
 20
1673.035581222605
 30
0.0
 10
569.5685798608135
 20
1701.072448170697
 30
0.0
 10
569.56627730714
 20
1727.469114728723
 30
0.0
 10
569.5737555445194
 20
1751.572427898486
 30
0.0
 10
569.5508733638219
 20
1772.718141980822
 30
0.0
 10
569.6152436566341
 20
1790.275084067804
 30
0.0
 10
569.457090844034
 20
1803.522481913964
 30
0.0
 10
569.7541281980786
 20
1811.946583851706
 30
0.0
 10
569.3698297200822
 20
1816.468987269891
 30
0.0
 10
570.1067058991193
 20
1819.092304971026
 30
0.0
 10
572.6505714969642
 20
1819.894373738945
 30
0.0
 10
576.9877094667355
 20
1819.494016790905
 30
0.0
 10
585.0899420706617
 20
1819.806233551991
 30
0.0
 10
598.0321739037803
 20
1819.636599959509
 30
0.0
 10
615.4867396450568
 20
1819.707425704444
 30
0.0
 10
636.950556121862
 20
1819.681490289697
 30
0.0
 10
661.9981368204001
 20
1819.690259852935
 30
0.0
 10
690.1745667630122
 20
1819.687451541992
 30
0.0
 10
721.0351184847068
 20
1819.688315452523
 30
0.0
 10
754.1317460403602
 20
1819.688057932668
 30
0.0
 10
789.0174378121817
 20
1819.6881327343
 30
0.0
 10
825.2448705895831
 20
1819.688111461202
 30
0.0
 10
862.3668124393872
 20
1819.688117490897
 30
0.0
 10
899.9360054319534
 20
1819.688115435934
 30
0.0
 10
937.5051984288867
 20
1819.688117504792
 30
0.0
 10
974.6271402658483
 20
1819.688111406938
 30
0.0
 10
1010.854573088569
 20
1819.688132929346
 30
0.0
 10
1045.740264701035
 20
1819.68805724879
 30
0.0
 10
1078.836892805304
 20
1819.688317795093
 30
0.0
 10
1109.697442686538
 20
1819.687443731493
 30
0.0
 10
1137.873878611928
 20
1819.690285047012
 30
0.0
 10
1162.921440627938
 20
1819.681412419784
 30
0.0
 10
1184.38531235711
 20
1819.707652639602
 30
0.0
 10
1201.839727212424
 20
1819.635994517533
 30
0.0
 10
1214.782320430061
 20
1819.807621722981
 30
0.0
 10
1222.883887892714
 20
1819.491735645141
 30
0.0
 10
1227.218295727098
 20
1819.896463205408
 30
0.0
 10
1229.755552392577
 20
1819.08866264694
 30
0.0
 10
1230.482685411048
 20
1816.46771988479
 30
0.0
 10
1230.102675114655
 20
1811.947159167211
 30
0.0
 10
1230.396440514154
 20
1803.522138834609
 30
0.0
 10
1230.240029800184
 20
1790.275229972858
 30
0.0
 10
1230.303691044125
 20
1772.71808886452
 30
0.0
 10
1230.281060873183
 20
1751.572445521022
 30
0.0
 10
1230.288456935277
 20
1727.469109272214
 30
0.0
 10
1230.286178894717
 20
1701.072449652243
 30
0.0
 10
1230.286849017884
 20
1673.035581356716
 30
0.0
 10
1230.286659348675
 20
1644.015153299607
 30
0.0
 10
1230.286711198516
 20
1614.666758388286
 30
0.0
 10
1230.286697491532
 20
1585.646292480872
 30
0.0
 10
1230.286700991936
 20
1557.609567579046
 30
0.0
 10
1230.286700131527
 20
1531.212418126882
 30
0.0
 10
1230.286700333648
 20
1507.110672762444
 30
0.0
 10
1230.286700288849
 20
1485.960161572055
 30
0.0
 10
1230.286700297998
 20
1468.416714295645
 30
0.0
 10
1230.28670029636
 20
1455.136160751796
 30
0.0
 10
1230.286700296582
 20
1446.774330742435
 30
0.0
 10
1230.286700296572
 20
1442.91222189282
 30
0.0
 10
1230.28670029657
 20
1441.910259691269
 30
0.0
 11
1230.28670029657
 21
1441.910259691269
 31
0.0
 11
1229.465903654265
 21
1439.835078692856
 31
0.0
 11
1227.473773038843
 21
1438.976531876464
 31
0.0
 11
1224.641175139655
 21
1438.976531876464
 31
0.0
 11
1216.441549642004
 21
1438.976531876464
 31
0.0
 11
1203.322148845763
 21
1438.976531876464
 31
0.0
 11
1185.730225050803
 21
1438.976531876464
 31
0.0
 11
1164.113030556996
 21
1438.976531876464
 31
0.0
 11
1138.917817664215
 21
1438.976531876464
 31
0.0
 11
1110.59183867233
 21
1438.976531876464
 31
0.0
 11
1079.582345881215
 21
1438.976531876464
 31
0.0
 11
1046.33659159074
 21
1438.976531876464
 31
0.0
 11
1011.301828100778
 21
1438.976531876464
 31
0.0
 11
974.9253077111993
 21
1438.976531876464
 31
0.0
 11
937.6542827218777
 21
1438.976531876464
 31
0.0
 11
899.9360054326843
 21
1438.976531876464
 31
0.0
 11
862.2177281434908
 21
1438.976531876464
 31
0.0
 11
824.9467031541689
 21
1438.976531876464
 31
0.0
 11
788.5701827645911
 21
1438.976531876464
 31
0.0
 11
753.5354192746288
 21
1438.976531876464
 31
0.0
 11
720.2896649841539
 21
1438.976531876464
 31
0.0
 11
689.2801721930382
 21
1438.976531876464
 31
0.0
 11
660.9541932011539
 21
1438.976531876464
 31
0.0
 11
635.7589803083722
 21
1438.976531876464
 31
0.0
 11
614.1417858145658
 21
1438.976531876464
 31
0.0
 11
596.5498620196059
 21
1438.976531876464
 31
0.0
 11
583.4304612233648
 21
1438.976531876464
 31
0.0
 11
575.2308357257139
 21
1438.976531876464
 31
0.0
 11
572.3982378265255
 21
1438.976531876464
 31
0.0
 11
570.3942428706787
 21
1439.835078692856
 31
0.0
 11
569.5680533463628
 21
1441.910259691269
 31
0.0
 11
569.5680533463628
 21
1444.916146295924
 31
0.0
 11
569.5680533463627
 21
1453.496586240121
 31
0.0
 11
569.5680533463628
 21
1466.995749719207
 31
0.0
 11
569.5680533463628
 21
1484.757806928532
 31
0.0
 11
569.5680533463628
 21
1506.126928063442
 31
0.0
 11
569.5680533463628
 21
1530.447283319287
 31
0.0
 11
569.5680533463627
 21
1557.063042891413
 31
0.0
 11
569.5680533463628
 21
1585.31837697517
 31
0.0
 11
569.5680533463628
 21
1614.557455765904
 31
0.0
 11
569.5680533463628
 21
1644.124449458964
 31
0.0
 11
569.5680533463628
 21
1673.363528249698
 31
0.0
 11
569.5680533463628
 21
1701.618862333455
 31
0.0
 11
569.5680533463628
 21
1728.234621905581
 31
0.0
 11
569.5680533463628
 21
1752.554977161426
 31
0.0
 11
569.5680533463628
 21
1773.924098296336
 31
0.0
 11
569.5680533463628
 21
1791.686155505661
 31
0.0
 11
569.5680533463629
 21
1805.185318984748
 31
0.0
 11
569.5680533463628
 21
1813.765758928944
 31
0.0
 11
569.5680533463628
 21
1816.771645533599
 31
0.0
 11
570.3942428706787
 21
1818.834962191586
 31
0.0
 11
572.3982378265255
 21
1819.688116125965
 31
0.0
 11
575.230835725714
 21
1819.688116125965
 31
0.0
 11
583.4304612233646
 21
1819.688116125965
 31
0.0
 11
596.5498620196057
 21
1819.688116125965
 31
0.0
 11
614.1417858145659
 21
1819.688116125965
 31
0.0
 11
635.7589803083725
 21
1819.688116125965
 31
0.0
 11
660.9541932011539
 21
1819.688116125965
 31
0.0
 11
689.2801721930382
 21
1819.688116125965
 31
0.0
 11
720.2896649841536
 21
1819.688116125965
 31
0.0
 11
753.5354192746285
 21
1819.688116125965
 31
0.0
 11
788.5701827645916
 21
1819.688116125965
 31
0.0
 11
824.9467031541694
 21
1819.688116125965
 31
0.0
 11
862.2177281434908
 21
1819.688116125965
 31
0.0
 11
899.9360054326843
 21
1819.688116125965
 31
0.0
 11
937.6542827218776
 21
1819.688116125965
 31
0.0
 11
974.9253077111993
 21
1819.688116125965
 31
0.0
 11
1011.301828100777
 21
1819.688116125965
 31
0.0
 11
1046.33659159074
 21
1819.688116125965
 31
0.0
 11
1079.582345881215
 21
1819.688116125965
 31
0.0
 11
1110.59183867233
 21
1819.688116125965
 31
0.0
 11
1138.917817664215
 21
1819.688116125965
 31
0.0
 11
1164.113030556996
 21
1819.688116125965
 31
0.0
 11
1185.730225050803
 21
1819.688116125965
 31
0.0
 11
1203.322148845763
 21
1819.688116125965
 31
0.0
 11
1216.441549642004
 21
1819.688116125965
 31
0.0
 11
1224.641175139655
 21
1819.688116125965
 31
0.0
 11
1227.473773038843
 21
1819.688116125965
 31
0.0
 11
1229.465903654265
 21
1818.834962191586
 31
0.0
 11
1230.28670029657
 21
1816.771645533599
 31
0.0
 11
1230.28670029657
 21
1813.765758928944
 31
0.0
 11
1230.28670029657
 21
1805.185318984748
 31
0.0
 11
1230.28670029657
 21
1791.686155505661
 31
0.0
 11
1230.28670029657
 21
1773.924098296336
 31
0.0
 11
1230.28670029657
 21
1752.554977161425
 31
0.0
 11
1230.28670029657
 21
1728.234621905581
 31
0.0
 11
1230.28670029657
 21
1701.618862333455
 31
0.0
 11
1230.28670029657
 21
1673.363528249699
 31
0.0
 11
1230.28670029657
 21
1644.124449458964
 31
0.0
 11
1230.28670029657
 21
1614.557455765904
 31
0.0
 11
1230.28670029657
 21
1585.318376975169
 31
0.0
 11
1230.28670029657
 21
1557.063042891413
 31
0.0
 11
1230.28670029657
 21
1530.447283319287
 31
0.0
 11
1230.28670029657
 21
1506.126928063443
 31
0.0
 11
1230.28670029657
 21
1484.757806928532
 31
0.0
 11
1230.28670029657
 21
1466.995749719207
 31
0.0
 11
1230.28670029657
 21
1453.496586240121
 31
0.0
 11
1230.28670029657
 21
1444.916146295924
 31
0.0
 11
1230.28670029657
 21
1441.910259691269
 31
0.0
  0
SPLINE
  5
B4
330
1F
100
AcDbEntity
  8
___C_____1
  6
Continuous
 62
     7
100
AcDbSpline
210
0.0
220
0.0
230
1.0
 70
    11
 71
     3
 72
   107
 73
   103
 74
   101
 42
0.0000000001
 43
0.0000000001
 44
0.00000001
 40
0.0
 40
0.0
 40
0.0
 40
0.0
 40
2.832597899188841
 40
11.03222339683885
 40
24.15162419308058
 40
41.74354798804029
 40
63.36074248184673
 40
88.55595537462818
 40
116.881934366513
 40
147.8914271576284
 40
181.1371814481033
 40
216.1719449380656
 40
252.5484653276438
 40
289.8194903169652
 40
327.5377676061588
 40
365.2560448953523
 40
402.5270698846741
 40
438.903590274252
 40
473.9383537642143
 40
507.1841080546892
 40
538.1936008458049
 40
566.5195798376894
 40
591.7147927304709
 40
613.3319872242773
 40
630.9239110192372
 40
644.0433118154783
 40
652.2429373131292
 40
655.0755352123176
 40
657.2578226083592
 40
659.4761973246781
 40
662.1939423720352
 40
669.9723161282635
 40
682.2490265145995
 40
698.4617814522804
 40
718.0482888625421
 40
740.4462566666215
 40
765.0933927857544
 40
791.4274051411782
 40
818.886001654129
 40
846.9068902458431
 40
874.9277788375572
 40
902.3863753505081
 40
928.7203877059313
 40
953.367523825065
 40
975.7654916291441
 40
995.3519990394055
 40
1011.564753977087
 40
1023.841464363423
 40
1031.619838119651
 40
1034.337583167008
 40
1036.569987504277
 40
1038.753122328094
 40
1041.585720227282
 40
1049.785345724933
 40
1062.904746521174
 40
1080.496670316134
 40
1102.113864809941
 40
1127.309077702722
 40
1155.635056694607
 40
1186.644549485722
 40
1219.890303776197
 40
1254.92506726616
 40
1291.301587655738
 40
1328.572612645059
 40
1366.290889934253
 40
1404.009167223446
 40
1441.280192212768
 40
1477.656712602346
 40
1512.691476092309
 40
1545.937230382783
 40
1576.946723173899
 40
1605.272702165783
 40
1630.467915058565
 40
1652.085109552372
 40
1669.677033347331
 40
1682.796434143572
 40
1690.996059641223
 40
1693.828657540412
 40
1695.994945957116
 40
1698.227748126023
 40
1700.94549317338
 40
1708.723866929608
 40
1721.000577315944
 40
1737.213332253625
 40
1756.799839663887
 40
1779.197807467966
 40
1803.844943587099
 40
1830.178955942523
 40
1857.637552455474
 40
1885.658441047188
 40
1913.679329638902
 40
1941.137926151853
 40
1967.471938507277
 40
1992.119074626409
 40
2014.517042430489
 40
2034.103549840751
 40
2050.316304778431
 40
2062.593015164767
 40
2070.371388920996
 40
2073.089133968353
 40
2075.307909031855
 40
2077.47334342807
 40
2077.47334342807
 40
2077.47334342807
 40
2077.47334342807
 10
1227.473773038843
 20
1819.688116125965
 30
0.0
 10
1226.529573739113
 20
1819.688116125965
 30
0.0
 10
1222.852165940167
 20
1819.688116125964
 30
0.0
 10
1214.801624542474
 20
1819.688116125966
 30
0.0
 10
1201.83130784619
 20
1819.688116125964
 30
0.0
 10
1184.388468151187
 20
1819.688116125967
 30
0.0
 10
1162.920357757337
 20
1819.688116125961
 30
0.0
 10
1137.874228964517
 20
1819.688116125985
 30
0.0
 10
1109.697334072573
 20
1819.688116125879
 30
0.0
 10
1078.836925381487
 20
1819.68811612633
 30
0.0
 10
1045.740255190667
 20
1819.688116124465
 30
0.0
 10
1010.854575801883
 20
1819.688116131981
 30
0.0
 10
974.6271395074481
 20
1819.688116102357
 30
0.0
 10
937.5051986366873
 20
1819.688116216821
 30
0.0
 10
899.9360053768882
 20
1819.688115782669
 30
0.0
 10
862.3668124505426
 20
1819.688117400152
 30
0.0
 10
825.2448705991436
 20
1819.688111481061
 30
0.0
 10
789.0174377651701
 20
1819.688132742552
 30
0.0
 10
754.1317462083357
 20
1819.688057883942
 30
0.0
 10
721.0351179085556
 20
1819.688315624253
 30
0.0
 10
690.174568684174
 20
1819.687450968276
 30
0.0
 10
661.9981306233278
 20
1819.69026170381
 30
0.0
 10
636.9505752757959
 20
1819.68148456895
 30
0.0
 10
615.4866838250227
 20
1819.707442376346
 30
0.0
 10
598.0323228264606
 20
1819.636555480418
 30
0.0
 10
585.0896006173887
 20
1819.806335534652
 30
0.0
 10
576.9882705681365
 20
1819.493849205416
 30
0.0
 10
572.6485810812909
 20
1819.894680592854
 30
0.0
 10
570.1068795147808
 20
1819.091048912551
 30
0.0
 10
569.3910441972787
 20
1816.568048282106
 30
0.0
 10
569.7294464532054
 20
1812.400888129851
 30
0.0
 10
569.4714373469033
 20
1804.75580899124
 30
0.0
 10
569.6093428108896
 20
1792.695464945296
 30
0.0
 10
569.5529354803324
 20
1776.658305183163
 30
0.0
 10
569.5731045470437
 20
1757.263460382161
 30
0.0
 10
569.5664677055767
 20
1735.051530733846
 30
0.0
 10
569.568528424609
 20
1710.592257604636
 30
0.0
 10
569.5679157488594
 20
1684.445547750209
 30
0.0
 10
569.5680941979842
 20
1657.174417942032
 30
0.0
 10
569.5680328621804
 20
1629.340952662088
 30
0.0
 10
569.5680936093635
 20
1601.507487086212
 30
0.0
 10
569.5679180091654
 20
1574.236358136263
 30
0.0
 10
569.5685205478233
 20
1548.089645336112
 30
0.0
 10
569.5664940127169
 20
1523.630382114553
 30
0.0
 10
569.5730207394161
 20
1501.418420557279
 30
0.0
 10
569.55318631111
 20
1482.023672726173
 30
0.0
 10
569.6086577492022
 20
1465.986241765924
 30
0.0
 10
569.4730403689185
 20
1453.926560749086
 30
0.0
 10
569.7267686699697
 20
1446.280241140792
 30
0.0
 10
569.3936138673571
 20
1442.110111580281
 30
0.0
 10
570.1015791634866
 20
1439.577835793682
 30
0.0
 10
572.6482221430031
 20
1438.769101257934
 30
0.0
 10
576.9883463980682
 20
1439.171589110652
 30
0.0
 10
585.0895544717573
 20
1438.857831529433
 30
0.0
 10
598.0323429525849
 20
1439.028302280221
 30
0.0
 10
615.4866762812357
 20
1438.957127003333
 30
0.0
 10
636.9505778643513
 20
1438.98319041188
 30
0.0
 10
661.9981297858226
 20
1438.974377569992
 30
0.0
 10
690.1745689438242
 20
1438.977199740226
 30
0.0
 10
721.0351178306272
 20
1438.976331566207
 30
0.0
 10
754.1317462313004
 20
1438.976590356963
 30
0.0
 10
789.0174377577589
 20
1438.976515186114
 30
0.0
 10
825.2448706045879
 20
1438.97653656445
 30
0.0
 10
862.3668124360733
 20
1438.976530504016
 30
0.0
 10
899.9360054298159
 20
1438.976532572845
 30
0.0
 10
937.5051984406998
 20
1438.976530479901
 30
0.0
 10
974.6271402217772
 20
1438.976536658629
 30
0.0
 10
1010.854573246485
 20
1438.976514847602
 30
0.0
 10
1045.740264147466
 20
1438.976591543866
 30
0.0
 10
1078.836894701477
 20
1438.976327500572
 30
0.0
 10
1109.697436364404
 20
1438.977213295692
 30
0.0
 10
1137.873899005034
 20
1438.974333844551
 30
0.0
 10
1162.921377596877
 20
1438.983325558577
 30
0.0
 10
1184.385496047617
 20
1438.956733147276
 30
0.0
 10
1201.839237143167
 20
1439.029353051695
 30
0.0
 10
1214.783444071883
 20
1438.855422296944
 30
0.0
 10
1222.882041440942
 20
1439.175548140576
 30
0.0
 10
1227.219977819794
 20
1438.765414577486
 30
0.0
 10
1229.753599151287
 20
1439.585171332833
 30
0.0
 10
1230.461526171403
 20
1442.109442637503
 30
0.0
 10
1230.127642901851
 20
1446.280731165983
 30
0.0
 10
1230.381918050681
 20
1453.926267401526
 30
0.0
 10
1230.246008381111
 20
1465.986367129897
 30
0.0
 10
1230.301599374011
 20
1482.023626824871
 30
0.0
 10
1230.281722197454
 20
1501.418435894397
 30
0.0
 10
1230.28826299138
 20
1523.63037729771
 30
0.0
 10
1230.286232086428
 20
1548.089646789121
 30
0.0
 10
1230.286835932568
 20
1574.236357675425
 30
0.0
 10
1230.286659918804
 20
1601.507487379646
 30
0.0
 10
1230.286720931572
 20
1629.340951954286
 30
0.0
 10
1230.28665896249
 20
1657.174420451402
 30
0.0
 10
1230.286839604816
 20
1684.445538780162
 30
0.0
 10
1230.286219289259
 20
1710.592288710811
 30
0.0
 10
1230.288305731777
 20
1735.05142688041
 30
0.0
 10
1230.281586037794
 20
1757.263791223807
 30
0.0
 10
1230.302006891017
 20
1776.657314997334
 30
0.0
 10
1230.244895382576
 20
1792.698169311565
 30
0.0
 10
1230.384522430967
 20
1804.749480862386
 30
0.0
 10
1230.123292390253
 20
1812.411459012338
 30
0.0
 10
1230.465929981146
 20
1816.556585099674
 30
0.0
 10
1229.742759300795
 20
1819.120551754516
 30
0.0
 10
1228.223942208991
 20
1819.500468760851
 30
0.0
 10
1227.473773038843
 20
1819.688116125965
 30
0.0
 11
1227.473773038843
 21
1819.688116125965
 31
0.0
 11
1224.641175139654
 21
1819.688116125965
 31
0.0
 11
1216.441549642004
 21
1819.688116125965
 31
0.0
 11
1203.322148845763
 21
1819.688116125965
 31
0.0
 11
1185.730225050803
 21
1819.688116125966
 31
0.0
 11
1164.113030556996
 21
1819.688116125965
 31
0.0
 11
1138.917817664215
 21
1819.688116125965
 31
0.0
 11
1110.59183867233
 21
1819.688116125965
 31
0.0
 11
1079.582345881215
 21
1819.688116125965
 31
0.0
 11
1046.33659159074
 21
1819.688116125965
 31
0.0
 11
1011.301828100778
 21
1819.688116125965
 31
0.0
 11
974.9253077111993
 21
1819.688116125965
 31
0.0
 11
937.6542827218779
 21
1819.688116125965
 31
0.0
 11
899.9360054326843
 21
1819.688116125965
 31
0.0
 11
862.2177281434908
 21
1819.688116125965
 31
0.0
 11
824.946703154169
 21
1819.688116125965
 31
0.0
 11
788.5701827645911
 21
1819.688116125965
 31
0.0
 11
753.5354192746288
 21
1819.688116125965
 31
0.0
 11
720.2896649841539
 21
1819.688116125965
 31
0.0
 11
689.2801721930382
 21
1819.688116125965
 31
0.0
 11
660.9541932011537
 21
1819.688116125965
 31
0.0
 11
635.7589803083722
 21
1819.688116125965
 31
0.0
 11
614.1417858145658
 21
1819.688116125965
 31
0.0
 11
596.5498620196059
 21
1819.688116125965
 31
0.0
 11
583.4304612233648
 21
1819.688116125965
 31
0.0
 11
575.2308357257139
 21
1819.688116125965
 31
0.0
 11
572.3982378265255
 21
1819.688116125965
 31
0.0
 11
570.3910071414712
 21
1818.831726462378
 31
0.0
 11
569.5680533463628
 21
1816.771645533599
 31
0.0
 11
569.5680533463628
 21
1814.053900486242
 31
0.0
 11
569.5680533463628
 21
1806.275526730014
 31
0.0
 11
569.5680533463628
 21
1793.998816343678
 31
0.0
 11
569.5680533463628
 21
1777.786061405997
 31
0.0
 11
569.5680533463627
 21
1758.199553995735
 31
0.0
 11
569.5680533463628
 21
1735.801586191656
 31
0.0
 11
569.5680533463629
 21
1711.154450072523
 31
0.0
 11
569.5680533463628
 21
1684.820437717099
 31
0.0
 11
569.5680533463628
 21
1657.361841204148
 31
0.0
 11
569.5680533463628
 21
1629.340952612434
 31
0.0
 11
569.5680533463628
 21
1601.32006402072
 31
0.0
 11
569.5680533463628
 21
1573.861467507769
 31
0.0
 11
569.5680533463628
 21
1547.527455152346
 31
0.0
 11
569.5680533463628
 21
1522.880319033212
 31
0.0
 11
569.5680533463628
 21
1500.482351229133
 31
0.0
 11
569.5680533463628
 21
1480.895843818872
 31
0.0
 11
569.5680533463628
 21
1464.683088881191
 31
0.0
 11
569.5680533463628
 21
1452.406378494854
 31
0.0
 11
569.5680533463628
 21
1444.628004738626
 31
0.0
 11
569.5680533463628
 21
1441.910259691269
 31
0.0
 11
570.3910071414712
 21
1439.835078692856
 31
0.0
 11
572.3982378265255
 21
1438.976531876464
 31
0.0
 11
575.230835725714
 21
1438.976531876464
 31
0.0
 11
583.4304612233646
 21
1438.976531876464
 31
0.0
 11
596.5498620196057
 21
1438.976531876464
 31
0.0
 11
614.1417858145659
 21
1438.976531876464
 31
0.0
 11
635.7589803083725
 21
1438.976531876464
 31
0.0
 11
660.9541932011539
 21
1438.976531876464
 31
0.0
 11
689.2801721930382
 21
1438.976531876464
 31
0.0
 11
720.2896649841536
 21
1438.976531876464
 31
0.0
 11
753.5354192746285
 21
1438.976531876464
 31
0.0
 11
788.5701827645916
 21
1438.976531876464
 31
0.0
 11
824.9467031541694
 21
1438.976531876464
 31
0.0
 11
862.2177281434908
 21
1438.976531876464
 31
0.0
 11
899.9360054326843
 21
1438.976531876464
 31
0.0
 11
937.6542827218776
 21
1438.976531876464
 31
0.0
 11
974.9253077111993
 21
1438.976531876464
 31
0.0
 11
1011.301828100777
 21
1438.976531876464
 31
0.0
 11
1046.33659159074
 21
1438.976531876464
 31
0.0
 11
1079.582345881215
 21
1438.976531876464
 31
0.0
 11
1110.59183867233
 21
1438.976531876464
 31
0.0
 11
1138.917817664215
 21
1438.976531876464
 31
0.0
 11
1164.113030556996
 21
1438.976531876464
 31
0.0
 11
1185.730225050803
 21
1438.976531876464
 31
0.0
 11
1203.322148845763
 21
1438.976531876464
 31
0.0
 11
1216.441549642004
 21
1438.976531876464
 31
0.0
 11
1224.641175139655
 21
1438.976531876464
 31
0.0
 11
1227.473773038843
 21
1438.976531876464
 31
0.0
 11
1229.462667925058
 21
1439.835078692856
 31
0.0
 11
1230.28670029657
 21
1441.910259691269
 31
0.0
 11
1230.28670029657
 21
1444.628004738626
 31
0.0
 11
1230.28670029657
 21
1452.406378494854
 31
0.0
 11
1230.28670029657
 21
1464.683088881191
 31
0.0
 11
1230.28670029657
 21
1480.895843818872
 31
0.0
 11
1230.28670029657
 21
1500.482351229133
 31
0.0
 11
1230.28670029657
 21
1522.880319033212
 31
0.0
 11
1230.28670029657
 21
1547.527455152345
 31
0.0
 11
1230.28670029657
 21
1573.86146750777
 31
0.0
 11
1230.28670029657
 21
1601.32006402072
 31
0.0
 11
1230.28670029657
 21
1629.340952612434
 31
0.0
 11
1230.28670029657
 21
1657.361841204148
 31
0.0
 11
1230.28670029657
 21
1684.820437717099
 31
0.0
 11
1230.28670029657
 21
1711.154450072523
 31
0.0
 11
1230.28670029657
 21
1735.801586191656
 31
0.0
 11
1230.28670029657
 21
1758.199553995735
 31
0.0
 11
1230.28670029657
 21
1777.786061405997
 31
0.0
 11
1230.28670029657
 21
1793.998816343677
 31
0.0
 11
1230.28670029657
 21
1806.275526730014
 31
0.0
 11
1230.28670029657
 21
1814.053900486242
 31
0.0
 11
1230.28670029657
 21
1816.771645533599
 31
0.0
 11
1229.462667925058
 21
1818.831726462378
 31
0.0
 11
1227.473773038843
 21
1819.688116125965
 31
0.0
  0
SPLINE
  5
B5
330
1F
100
AcDbEntity
  8
___C_____1
  6
Continuous
 62
     7
100
AcDbSpline
210
0.0
220
0.0
230
1.0
 70
    11
 71
     3
 72
   107
 73
   103
 74
   101
 42
0.0000000001
 43
0.0000000001
 44
0.00000001
 40
0.0
 40
0.0
 40
0.0
 40
0.0
 40
2.832597899188841
 40
11.03222339683885
 40
24.15162419308058
 40
41.74354798804029
 40
63.36074248184673
 40
88.55595537462818
 40
116.881934366513
 40
147.8914271576284
 40
181.1371814481033
 40
216.1719449380656
 40
252.5484653276438
 40
289.8194903169652
 40
327.5377676061588
 40
365.2560448953523
 40
402.5270698846741
 40
438.903590274252
 40
473.9383537642143
 40
507.1841080546892
 40
538.1936008458049
 40
566.5195798376894
 40
591.7147927304709
 40
613.3319872242773
 40
630.9239110192372
 40
644.0433118154783
 40
652.2429373131292
 40
655.0755352123176
 40
657.2578226083592
 40
659.4761973246781
 40
662.1939423720352
 40
669.9723161282635
 40
682.2490265145995
 40
698.4617814522804
 40
718.0482888625421
 40
740.4462566666215
 40
765.0933927857544
 40
791.4274051411782
 40
818.886001654129
 40
846.9068902458431
 40
874.9277788375572
 40
902.3863753505081
 40
928.7203877059313
 40
953.367523825065
 40
975.7654916291441
 40
995.3519990394055
 40
1011.564753977087
 40
1023.841464363423
 40
1031.619838119651
 40
1034.337583167008
 40
1036.569987504277
 40
1038.753122328094
 40
1041.585720227282
 40
1049.785345724933
 40
1062.904746521174
 40
1080.496670316134
 40
1102.113864809941
 40
1127.309077702722
 40
1155.635056694607
 40
1186.644549485722
 40
1219.890303776197
 40
1254.92506726616
 40
1291.301587655738
 40
1328.572612645059
 40
1366.290889934253
 40
1404.009167223446
 40
1441.280192212768
 40
1477.656712602346
 40
1512.691476092309
 40
1545.937230382783
 40
1576.946723173899
 40
1605.272702165783
 40
1630.467915058565
 40
1652.085109552372
 40
1669.677033347331
 40
1682.796434143572
 40
1690.996059641223
 40
1693.828657540412
 40
1695.994945957116
 40
1698.227748126023
 40
1700.94549317338
 40
1708.723866929608
 40
1721.000577315944
 40
1737.213332253625
 40
1756.799839663887
 40
1779.197807467966
 40
1803.844943587099
 40
1830.178955942523
 40
1857.637552455474
 40
1885.658441047188
 40
1913.679329638902
 40
1941.137926151853
 40
1967.471938507277
 40
1992.119074626409
 40
2014.517042430489
 40
2034.103549840751
 40
2050.316304778431
 40
2062.593015164767
 40
2070.371388920996
 40
2073.089133968353
 40
2075.307909031855
 40
2077.47334342807
 40
2077.47334342807
 40
2077.47334342807
 40
2077.47334342807
 10
1227.473773038843
 20
1819.688116125965
 30
0.0
 10
1226.529573739113
 20
1819.688116125965
 30
0.0
 10
1222.852165940167
 20
1819.688116125964
 30
0.0
 10
1214.801624542474
 20
1819.688116125966
 30
0.0
 10
1201.83130784619
 20
1819.688116125964
 30
0.0
 10
1184.388468151187
 20
1819.688116125967
 30
0.0
 10
1162.920357757337
 20
1819.688116125961
 30
0.0
 10
1137.874228964517
 20
1819.688116125985
 30
0.0
 10
1109.697334072573
 20
1819.688116125879
 30
0.0
 10
1078.836925381487
 20
1819.68811612633
 30
0.0
 10
1045.740255190667
 20
1819.688116124465
 30
0.0
 10
1010.854575801883
 20
1819.688116131981
 30
0.0
 10
974.6271395074481
 20
1819.688116102357
 30
0.0
 10
937.5051986366873
 20
1819.688116216821
 30
0.0
 10
899.9360053768882
 20
1819.688115782669
 30
0.0
 10
862.3668124505426
 20
1819.688117400152
 30
0.0
 10
825.2448705991436
 20
1819.688111481061
 30
0.0
 10
789.0174377651701
 20
1819.688132742552
 30
0.0
 10
754.1317462083357
 20
1819.688057883942
 30
0.0
 10
721.0351179085556
 20
1819.688315624253
 30
0.0
 10
690.174568684174
 20
1819.687450968276
 30
0.0
 10
661.9981306233278
 20
1819.69026170381
 30
0.0
 10
636.9505752757959
 20
1819.68148456895
 30
0.0
 10
615.4866838250227
 20
1819.707442376346
 30
0.0
 10
598.0323228264606
 20
1819.636555480418
 30
0.0
 10
585.0896006173887
 20
1819.806335534652
 30
0.0
 10
576.9882705681365
 20
1819.493849205416
 30
0.0
 10
572.6485810812909
 20
1819.894680592854
 30
0.0
 10
570.1068795147808
 20
1819.091048912551
 30
0.0
 10
569.3910441972787
 20
1816.568048282106
 30
0.0
 10
569.7294464532054
 20
1812.400888129851
 30
0.0
 10
569.4714373469033
 20
1804.75580899124
 30
0.0
 10
569.6093428108896
 20
1792.695464945296
 30
0.0
 10
569.5529354803324
 20
1776.658305183163
 30
0.0
 10
569.5731045470437
 20
1757.263460382161
 30
0.0
 10
569.5664677055767
 20
1735.051530733846
 30
0.0
 10
569.568528424609
 20
1710.592257604636
 30
0.0
 10
569.5679157488594
 20
1684.445547750209
 30
0.0
 10
569.5680941979842
 20
1657.174417942032
 30
0.0
 10
569.5680328621804
 20
1629.340952662088
 30
0.0
 10
569.5680936093635
 20
1601.507487086212
 30
0.0
 10
569.5679180091654
 20
1574.236358136263
 30
0.0
 10
569.5685205478233
 20
1548.089645336112
 30
0.0
 10
569.5664940127169
 20
1523.630382114553
 30
0.0
 10
569.5730207394161
 20
1501.418420557279
 30
0.0
 10
569.55318631111
 20
1482.023672726173
 30
0.0
 10
569.6086577492022
 20
1465.986241765924
 30
0.0
 10
569.4730403689185
 20
1453.926560749086
 30
0.0
 10
569.7267686699697
 20
1446.280241140792
 30
0.0
 10
569.3936138673571
 20
1442.110111580281
 30
0.0
 10
570.1015791634866
 20
1439.577835793682
 30
0.0
 10
572.6482221430031
 20
1438.769101257934
 30
0.0
 10
576.9883463980682
 20
1439.171589110652
 30
0.0
 10
585.0895544717573
 20
1438.857831529433
 30
0.0
 10
598.0323429525849
 20
1439.028302280221
 30
0.0
 10
615.4866762812357
 20
1438.957127003333
 30
0.0
 10
636.9505778643513
 20
1438.98319041188
 30
0.0
 10
661.9981297858226
 20
1438.974377569992
 30
0.0
 10
690.1745689438242
 20
1438.977199740226
 30
0.0
 10
721.0351178306272
 20
1438.976331566207
 30
0.0
 10
754.1317462313004
 20
1438.976590356963
 30
0.0
 10
789.0174377577589
 20
1438.976515186114
 30
0.0
 10
825.2448706045879
 20
1438.97653656445
 30
0.0
 10
862.3668124360733
 20
1438.976530504016
 30
0.0
 10
899.9360054298159
 20
1438.976532572845
 30
0.0
 10
937.5051984406998
 20
1438.976530479901
 30
0.0
 10
974.6271402217772
 20
1438.976536658629
 30
0.0
 10
1010.854573246485
 20
1438.976514847602
 30
0.0
 10
1045.740264147466
 20
1438.976591543866
 30
0.0
 10
1078.836894701477
 20
1438.976327500572
 30
0.0
 10
1109.697436364404
 20
1438.977213295692
 30
0.0
 10
1137.873899005034
 20
1438.974333844551
 30
0.0
 10
1162.921377596877
 20
1438.983325558577
 30
0.0
 10
1184.385496047617
 20
1438.956733147276
 30
0.0
 10
1201.839237143167
 20
1439.029353051695
 30
0.0
 10
1214.783444071883
 20
1438.855422296944
 30
0.0
 10
1222.882041440942
 20
1439.175548140576
 30
0.0
 10
1227.219977819794
 20
1438.765414577486
 30
0.0
 10
1229.753599151287
 20
1439.585171332833
 30
0.0
 10
1230.461526171403
 20
1442.109442637503
 30
0.0
 10
1230.127642901851
 20
1446.280731165983
 30
0.0
 10
1230.381918050681
 20
1453.926267401526
 30
0.0
 10
1230.246008381111
 20
1465.986367129897
 30
0.0
 10
1230.301599374011
 20
1482.023626824871
 30
0.0
 10
1230.281722197454
 20
1501.418435894397
 30
0.0
 10
1230.28826299138
 20
1523.63037729771
 30
0.0
 10
1230.286232086428
 20
1548.089646789121
 30
0.0
 10
1230.286835932568
 20
1574.236357675425
 30
0.0
 10
1230.286659918804
 20
1601.507487379646
 30
0.0
 10
1230.286720931572
 20
1629.340951954286
 30
0.0
 10
1230.28665896249
 20
1657.174420451402
 30
0.0
 10
1230.286839604816
 20
1684.445538780162
 30
0.0
 10
1230.286219289259
 20
1710.592288710811
 30
0.0
 10
1230.288305731777
 20
1735.05142688041
 30
0.0
 10
1230.281586037794
 20
1757.263791223807
 30
0.0
 10
1230.302006891017
 20
1776.657314997334
 30
0.0
 10
1230.244895382576
 20
1792.698169311565
 30
0.0
 10
1230.384522430967
 20
1804.749480862386
 30
0.0
 10
1230.123292390253
 20
1812.411459012338
 30
0.0
 10
1230.465929981146
 20
1816.556585099674
 30
0.0
 10
1229.742759300795
 20
1819.120551754516
 30
0.0
 10
1228.223942208991
 20
1819.500468760851
 30
0.0
 10
1227.473773038843
 20
1819.688116125965
 30
0.0
 11
1227.473773038843
 21
1819.688116125965
 31
0.0
 11
1224.641175139654
 21
1819.688116125965
 31
0.0
 11
1216.441549642004
 21
1819.688116125965
 31
0.0
 11
1203.322148845763
 21
1819.688116125965
 31
0.0
 11
1185.730225050803
 21
1819.688116125966
 31
0.0
 11
1164.113030556996
 21
1819.688116125965
 31
0.0
 11
1138.917817664215
 21
1819.688116125965
 31
0.0
 11
1110.59183867233
 21
1819.688116125965
 31
0.0
 11
1079.582345881215
 21
1819.688116125965
 31
0.0
 11
1046.33659159074
 21
1819.688116125965
 31
0.0
 11
1011.301828100778
 21
1819.688116125965
 31
0.0
 11
974.9253077111993
 21
1819.688116125965
 31
0.0
 11
937.6542827218779
 21
1819.688116125965
 31
0.0
 11
899.9360054326843
 21
1819.688116125965
 31
0.0
 11
862.2177281434908
 21
1819.688116125965
 31
0.0
 11
824.946703154169
 21
1819.688116125965
 31
0.0
 11
788.5701827645911
 21
1819.688116125965
 31
0.0
 11
753.5354192746288
 21
1819.688116125965
 31
0.0
 11
720.2896649841539
 21
1819.688116125965
 31
0.0
 11
689.2801721930382
 21
1819.688116125965
 31
0.0
 11
660.9541932011537
 21
1819.688116125965
 31
0.0
 11
635.7589803083722
 21
1819.688116125965
 31
0.0
 11
614.1417858145658
 21
1819.688116125965
 31
0.0
 11
596.5498620196059
 21
1819.688116125965
 31
0.0
 11
583.4304612233648
 21
1819.688116125965
 31
0.0
 11
575.2308357257139
 21
1819.688116125965
 31
0.0
 11
572.3982378265255
 21
1819.688116125965
 31
0.0
 11
570.3910071414712
 21
1818.831726462378
 31
0.0
 11
569.5680533463628
 21
1816.771645533599
 31
0.0
 11
569.5680533463628
 21
1814.053900486242
 31
0.0
 11
569.5680533463628
 21
1806.275526730014
 31
0.0
 11
569.5680533463628
 21
1793.998816343678
 31
0.0
 11
569.5680533463628
 21
1777.786061405997
 31
0.0
 11
569.5680533463627
 21
1758.199553995735
 31
0.0
 11
569.5680533463628
 21
1735.801586191656
 31
0.0
 11
569.5680533463629
 21
1711.154450072523
 31
0.0
 11
569.5680533463628
 21
1684.820437717099
 31
0.0
 11
569.5680533463628
 21
1657.361841204148
 31
0.0
 11
569.5680533463628
 21
1629.340952612434
 31
0.0
 11
569.5680533463628
 21
1601.32006402072
 31
0.0
 11
569.5680533463628
 21
1573.861467507769
 31
0.0
 11
569.5680533463628
 21
1547.527455152346
 31
0.0
 11
569.5680533463628
 21
1522.880319033212
 31
0.0
 11
569.5680533463628
 21
1500.482351229133
 31
0.0
 11
569.5680533463628
 21
1480.895843818872
 31
0.0
 11
569.5680533463628
 21
1464.683088881191
 31
0.0
 11
569.5680533463628
 21
1452.406378494854
 31
0.0
 11
569.5680533463628
 21
1444.628004738626
 31
0.0
 11
569.5680533463628
 21
1441.910259691269
 31
0.0
 11
570.3910071414712
 21
1439.835078692856
 31
0.0
 11
572.3982378265255
 21
1438.976531876464
 31
0.0
 11
575.230835725714
 21
1438.976531876464
 31
0.0
 11
583.4304612233646
 21
1438.976531876464
 31
0.0
 11
596.5498620196057
 21
1438.976531876464
 31
0.0
 11
614.1417858145659
 21
1438.976531876464
 31
0.0
 11
635.7589803083725
 21
1438.976531876464
 31
0.0
 11
660.9541932011539
 21
1438.976531876464
 31
0.0
 11
689.2801721930382
 21
1438.976531876464
 31
0.0
 11
720.2896649841536
 21
1438.976531876464
 31
0.0
 11
753.5354192746285
 21
1438.976531876464
 31
0.0
 11
788.5701827645916
 21
1438.976531876464
 31
0.0
 11
824.9467031541694
 21
1438.976531876464
 31
0.0
 11
862.2177281434908
 21
1438.976531876464
 31
0.0
 11
899.9360054326843
 21
1438.976531876464
 31
0.0
 11
937.6542827218776
 21
1438.976531876464
 31
0.0
 11
974.9253077111993
 21
1438.976531876464
 31
0.0
 11
1011.301828100777
 21
1438.976531876464
 31
0.0
 11
1046.33659159074
 21
1438.976531876464
 31
0.0
 11
1079.582345881215
 21
1438.976531876464
 31
0.0
 11
1110.59183867233
 21
1438.976531876464
 31
0.0
 11
1138.917817664215
 21
1438.976531876464
 31
0.0
 11
1164.113030556996
 21
1438.976531876464
 31
0.0
 11
1185.730225050803
 21
1438.976531876464
 31
0.0
 11
1203.322148845763
 21
1438.976531876464
 31
0.0
 11
1216.441549642004
 21
1438.976531876464
 31
0.0
 11
1224.641175139655
 21
1438.976531876464
 31
0.0
 11
1227.473773038843
 21
1438.976531876464
 31
0.0
 11
1229.462667925058
 21
1439.835078692856
 31
0.0
 11
1230.28670029657
 21
1441.910259691269
 31
0.0
 11
1230.28670029657
 21
1444.628004738626
 31
0.0
 11
1230.28670029657
 21
1452.406378494854
 31
0.0
 11
1230.28670029657
 21
1464.683088881191
 31
0.0
 11
1230.28670029657
 21
1480.895843818872
 31
0.0
 11
1230.28670029657
 21
1500.482351229133
 31
0.0
 11
1230.28670029657
 21
1522.880319033212
 31
0.0
 11
1230.28670029657
 21
1547.527455152345
 31
0.0
 11
1230.28670029657
 21
1573.86146750777
 31
0.0
 11
1230.28670029657
 21
1601.32006402072
 31
0.0
 11
1230.28670029657
 21
1629.340952612434
 31
0.0
 11
1230.28670029657
 21
1657.361841204148
 31
0.0
 11
1230.28670029657
 21
1684.820437717099
 31
0.0
 11
1230.28670029657
 21
1711.154450072523
 31
0.0
 11
1230.28670029657
 21
1735.801586191656
 31
0.0
 11
1230.28670029657
 21
1758.199553995735
 31
0.0
 11
1230.28670029657
 21
1777.786061405997
 31
0.0
 11
1230.28670029657
 21
1793.998816343677
 31
0.0
 11
1230.28670029657
 21
1806.275526730014
 31
0.0
 11
1230.28670029657
 21
1814.053900486242
 31
0.0
 11
1230.28670029657
 21
1816.771645533599
 31
0.0
 11
1229.462667925058
 21
1818.831726462378
 31
0.0
 11
1227.473773038843
 21
1819.688116125965
 31
0.0
  0
SPLINE
  5
B6
330
1F
100
AcDbEntity
  8
___C_____1
  6
Continuous
 62
     7
100
AcDbSpline
210
0.0
220
0.0
230
1.0
 70
     8
 71
     3
 72
     9
 73
     5
 74
     3
 42
0.0000000001
 43
0.0000000001
 44
0.00000001
 40
0.0
 40
0.0
 40
0.0
 40
0.0
 40
57.51057104050143
 40
102.286233822195
 40
102.286233822195
 40
102.286233822195
 40
102.286233822195
 10
665.3500430210463
 20
844.7538303930821
 30
0.0
 10
646.1154777964828
 20
844.4775291755568
 30
0.0
 10
611.9055716795288
 20
843.9861097646582
 30
0.0
 10
578.5635299778797
 20
836.4510459758086
 30
0.0
 10
563.9680955787471
 20
833.1525818263262
 30
0.0
 11
665.3500430210463
 21
844.7538303930821
 31
0.0
 11
607.9207023381696
 21
841.6982436843399
 31
0.0
 11
563.9680955787471
 21
833.1525818263262
 31
0.0
  0
SPLINE
  5
B7
330
1F
100
AcDbEntity
  8
___C_____1
  6
Continuous
 62
     7
100
AcDbSpline
210
0.0
220
0.0
230
1.0
 70
     8
 71
     3
 72
    20
 73
    16
 74
    14
 42
0.0000000001
 43
0.0000000001
 44
0.00000001
 40
0.0
 40
0.0
 40
0.0
 40
0.0
 40
44.9500138249674
 40
88.41814550512258
 40
129.9778397978477
 40
169.1985713025851
 40
192.274202732989
 40
216.3852814875282
 40
240.9407368118686
 40
265.3476773524986
 40
289.0130795207824
 40
311.3454969363926
 40
331.7575373433917
 40
332.9694618701367
 40
334.1777875111696
 40
334.1777875111696
 40
334.1777875111696
 40
334.1777875111696
 10
997.7253801590491
 20
814.2567191313209
 30
0.0
 10
982.7402682317836
 20
814.4704128028845
 30
0.0
 10
953.264063575767
 20
814.8907552352453
 30
0.0
 10
910.0390356284029
 20
818.0866229851289
 30
0.0
 10
868.8519027532807
 20
822.6682730473747
 30
0.0
 10
834.7930401881608
 20
828.9383469212323
 30
0.0
 10
806.3586781976056
 20
833.5341563069711
 30
0.0
 10
782.6547263867777
 20
836.7185585641516
 30
0.0
 10
758.4521148615486
 20
839.4759607800937
 30
0.0
 10
734.3453745165331
 20
841.7211131979548
 30
0.0
 10
710.9356954424966
 20
843.4054474538858
 30
0.0
 10
688.8227869847731
 20
844.4745681925093
 30
0.0
 10
674.1703257124882
 20
844.7644075563112
 30
0.0
 10
666.5595633179871
 20
844.7574211716806
 30
0.0
 10
665.7528165788137
 20
844.7550261321491
 30
0.0
 10
665.3500430210463
 20
844.7538303930821
 30
0.0
 11
997.7253801590491
 21
814.2567191313209
 31
0.0
 11
952.7886889635282
 21
815.3510350195156
 31
0.0
 11
909.4280840442835
 21
818.4065894373725
 31
0.0
 11
868.1523978473117
 21
823.2569418651735
 31
0.0
 11
829.4704628186091
 21
829.7356517832
 31
0.0
 11
806.6843885595273
 21
833.3797683800517
 31
0.0
 11
782.7919401854125
 21
836.6193716579012
 31
0.0
 11
758.3941520381554
 21
839.3975580640375
 31
0.0
 11
734.0920584596478
 21
841.6574240457508
 31
0.0
 11
710.48669379178
 21
843.3420660503301
 31
0.0
 11
688.1790923764435
 21
844.3945805250653
 31
0.0
 11
667.7702885555291
 21
844.7580639172461
 31
0.0
 11
666.5583644912049
 21
844.7570052208644
 31
0.0
 11
665.3500430210463
 21
844.7538303930821
 31
0.0
  0
MTEXT
  5
B9
330
1F
100
AcDbEntity
  8
1
 62
     7
100
AcDbMText
 10
1124.0
 20
100.0
 30
0.0
 40
20.0
 41
0.0
 71
     5
 72
     1
  1
11
  7
CONVERTER_2
 73
     1
 44
0.7202881152461
  0
MTEXT
  5
BA
330
1F
100
AcDbEntity
  8
1
 62
     7
100
AcDbMText
 10
1170.0
 20
100.0
 30
0.0
 40
20.0
 41
0.0
 71
     5
 72
     1
  1
22
  7
CONVERTER_2
 73
     1
 44
0.7202881152461
  0
MTEXT
  5
BB
330
1F
100
AcDbEntity
  8
1
 62
     7
100
AcDbMText
 10
1078.0
 20
100.0
 30
0.0
 40
20.0
 41
0.0
 71
     5
 72
     1
  1
11
  7
CONVERTER_2
 73
     1
 44
0.7202881152461
  0
MTEXT
  5
BC
330
1F
100
AcDbEntity
  8
1
 62
     7
100
AcDbMText
 10
272.0
 20
295.6666666666667
 30
0.0
 40
28.0
 41
0.0
 71
     4
 72
     1
  1
シリーズ名：Urbi(Roca)
  7
CONVERTER_1
 73
     1
 44
0.7202881152461
  0
MTEXT
  5
BD
330
1F
100
AcDbEntity
  8
1
 62
     7
100
AcDbMText
 10
272.0
 20
248.3333333333334
 30
0.0
 40
28.0
 41
0.0
 71
     4
 72
     1
  1
容量：2,5L・オーバーフロー無・水栓取付穴なし
  7
CONVERTER_1
 73
     1
 44
0.7202881152461
  0
MTEXT
  5
BE
330
1F
100
AcDbEntity
  8
1
 62
     7
100
AcDbMText
 10
456.0
 20
182.0000000000001
 30
0.0
 40
28.0
 41
0.0
 71
     5
 72
     1
  1
洗面器
  7
CONVERTER_1
 73
     1
 44
0.7202881152461
  0
MTEXT
  5
BF
330
1F
100
AcDbEntity
  8
1
 62
     7
100
AcDbMText
 10
456.0
 20
114.0
 30
0.0
 40
28.0
 41
0.0
 71
     5
 72
     1
  1
SR327226-W
  7
CONVERTER_2
 73
     1
 44
0.7202881152461
  0
MTEXT
  5
C0
330
1F
100
AcDbEntity
  8
1
 62
     7
100
AcDbMText
 10
1260.0
 20
152.0000000000001
 30
0.0
 40
40.0
 41
0.0
 71
     5
 72
     1
  1
板津
  7
CONVERTER_1
 73
     1
 44
0.7202881152461
  0
MTEXT
  5
C1
330
1F
100
AcDbEntity
  8
1
 62
     7
100
AcDbMText
 10
1124.0
 20
152.0000000000001
 30
0.0
 40
40.0
 41
0.0
 71
     5
 72
     1
  1
酒光
  7
CONVERTER_1
 73
     1
 44
0.7202881152461
  0
MTEXT
  5
C2
330
1F
100
AcDbEntity
  8
1
 62
     7
100
AcDbMText
 10
1214.0
 20
100.0
 30
0.0
 40
20.0
 41
0.0
 71
     5
 72
     1
  1
11
  7
CONVERTER_2
 73
     1
 44
0.7202881152461
  0
MTEXT
  5
C3
330
1F
100
AcDbEntity
  8
1
 62
     7
100
AcDbMText
 10
1306.0
 20
100.0
 30
0.0
 40
20.0
 41
0.0
 71
     5
 72
     1
  1
 9
  7
CONVERTER_2
 73
     1
 44
0.7202881152461
  0
MTEXT
  5
C4
330
1F
100
AcDbEntity
  8
1
 62
     7
100
AcDbMText
 10
1260.0
 20
100.0
 30
0.0
 40
20.0
 41
0.0
 71
     5
 72
     1
  1
2
  7
CONVERTER_2
 73
     1
 44
0.7202881152461
  0
MTEXT
  5
C5
330
1F
100
AcDbEntity
  8
1
 62
     7
100
AcDbMText
 10
682.0
 20
136.0
 30
0.0
 40
28.0
 41
0.0
 71
     5
 72
     1
  1
1
  7
CONVERTER_2
 73
     1
 44
0.7202881152461
  0
MTEXT
  5
C6
330
1F
100
AcDbEntity
  8
1
 62
     7
100
AcDbMText
 10
750.0
 20
136.0
 30
0.0
 40
28.0
 41
0.0
 71
     5
 72
     1
  1
8
  7
CONVERTER_2
 73
     1
 44
0.7202881152461
  0
MTEXT
  5
C7
330
1F
100
AcDbEntity
  8
1
 62
     7
100
AcDbMText
 10
852.0
 20
152.0000000000001
 30
0.0
 40
40.0
 41
0.0
 71
     5
 72
     1
  1
牧
  7
CONVERTER_1
 73
     1
 44
0.7202881152461
  0
MTEXT
  5
C8
330
1F
100
AcDbEntity
  8
1
 62
     7
100
AcDbMText
 10
988.0
 20
152.0000000000001
 30
0.0
 40
40.0
 41
0.0
 71
     5
 72
     1
  1
片岡
  7
CONVERTER_1
 73
     1
 44
0.7202881152461
  0
MTEXT
  5
C9
330
1F
100
AcDbEntity
  8
1
 62
     7
100
AcDbMText
 10
942.0
 20
100.0
 30
0.0
 40
20.0
 41
0.0
 71
     5
 72
     1
  1
11
  7
CONVERTER_2
 73
     1
 44
0.7202881152461
  0
MTEXT
  5
CA
330
1F
100
AcDbEntity
  8
1
 62
     7
100
AcDbMText
 10
1034.0
 20
100.0
 30
0.0
 40
20.0
 41
0.0
 71
     5
 72
     1
  1
22
  7
CONVERTER_2
 73
     1
 44
0.7202881152461
  0
MTEXT
  5
CB
330
1F
100
AcDbEntity
  8
1
 62
     7
100
AcDbMText
 10
988.0
 20
100.0
 30
0.0
 40
20.0
 41
0.0
 71
     5
 72
     1
  1
11
  7
CONVERTER_2
 73
     1
 44
0.7202881152461
  0
MTEXT
  5
CC
330
1F
100
AcDbEntity
  8
1
 62
     7
100
AcDbMText
 10
852.0
 20
100.0
 30
0.0
 40
20.0
 41
0.0
 71
     5
 72
     1
  1
11
  7
CONVERTER_2
 73
     1
 44
0.7202881152461
  0
MTEXT
  5
CD
330
1F
100
AcDbEntity
  8
1
 62
     7
100
AcDbMText
 10
898.0
 20
100.0
 30
0.0
 40
20.0
 41
0.0
 71
     5
 72
     1
  1
24
  7
CONVERTER_2
 73
     1
 44
0.7202881152461
  0
MTEXT
  5
CE
330
1F
100
AcDbEntity
  8
1
 62
     7
100
AcDbMText
 10
806.0
 20
100.0
 30
0.0
 40
20.0
 41
0.0
 71
     5
 72
     1
  1
11
  7
CONVERTER_2
 73
     1
 44
0.7202881152461
  0
DIMENSION
  5
D9
330
1F
100
AcDbEntity
  8
1
100
AcDbDimension
  2
*D02
 10
1310.28670029657
 20
1627.201061606432
 30
0.0
 11
1288.28670029657
 21
1723.444588899723
 31
0.0
  1
190
 71
     5
 42
0.0
 53
90.0
  3
ME10_DIM_0
100
AcDbAlignedDimension
 13
1230.336700296569
 23
1819.688116193014
 33
0.0
 14
1062.886884979081
 24
1627.201061606432
 34
0.0
 50
90.0
100
AcDbRotatedDimension
  0
DIMENSION
  5
E4
330
1F
100
AcDbEntity
  8
1
100
AcDbDimension
  2
*D13
 10
1310.28670029657
 20
1627.201061606432
 30
0.0
 11
1288.28670029657
 21
1533.088796741448
 31
0.0
  1
190
 71
     5
 42
0.0
 53
90.0
  3
ME10_DIM_1
100
AcDbAlignedDimension
 13
1230.336700296569
 23
1438.976531876464
 33
0.0
 14
1062.886884979081
 24
1627.201061606432
 34
0.0
 50
90.0
100
AcDbRotatedDimension
  0
DIMENSION
  5
EF
330
1F
100
AcDbEntity
  8
1
100
AcDbDimension
  2
*D24
 10
569.5680533463627
 20
1358.976531876464
 30
0.0
 11
786.6941162055809
 21
1380.976531876464
 31
0.0
  1
435
 71
     5
 42
0.0
 53
0.00013888888889
  3
ME10_DIM_2
100
AcDbAlignedDimension
 13
1003.820179064799
 23
1568.130048032215
 33
0.0
 14
569.5680533463627
 24
1438.92664213723
 34
0.0
100
AcDbRotatedDimension
  0
DIMENSION
  5
FA
330
1F
100
AcDbEntity
  8
1
100
AcDbDimension
  2
*D35
 10
1003.8201790648
 20
1358.976531876464
 30
0.0
 11
1117.053439680685
 21
1380.976531876464
 31
0.0
  1
225
 71
     5
 42
0.0
 53
0.00013888888889
  3
ME10_DIM_3
100
AcDbAlignedDimension
 13
1230.28670029657
 23
1438.926531876464
 33
0.0
 14
1003.820179064799
 24
1568.130048032215
 34
0.0
100
AcDbRotatedDimension
  0
DIMENSION
  5
107
330
1F
100
AcDbEntity
  8
1
100
AcDbDimension
  2
*D46
 10
1311.13466545189
 20
814.2567191313209
 30
0.0
 11
1289.13466545189
 21
786.854055435071
 31
0.0
  1
50
 71
     5
 42
0.0
 53
90.0
  3
ME10_DIM_4
100
AcDbAlignedDimension
 13
1146.648826292895
 23
759.1967718982783
 33
0.0
 14
997.7253801590443
 24
814.2567191313209
 34
0.0
 50
90.0
100
AcDbRotatedDimension
  0
DIMENSION
  5
112
330
1F
100
AcDbEntity
  8
1
100
AcDbDimension
  2
*D57
 10
569.5680533463628
 20
1899.688116125965
 30
0.0
 11
899.9273768214662
 21
1921.688116125965
 31
0.0
  1
660
 71
     5
 42
0.0
 53
0.00013888888889
  3
ME10_DIM_5
100
AcDbAlignedDimension
 13
1230.28670029657
 23
1819.738116193014
 33
0.0
 14
569.5680533463628
 24
1819.738116125965
 34
0.0
100
AcDbRotatedDimension
  0
DIMENSION
  5
11D
330
1F
100
AcDbEntity
  8
1
100
AcDbDimension
  2
*D68
 10
1374.28670029657
 20
1819.688116193014
 30
0.0
 11
1352.28670029657
 21
1627.201061606432
 31
0.0
  1
380
 71
     5
 42
0.0
 53
90.0
  3
ME10_DIM_6
100
AcDbAlignedDimension
 13
1230.336700296569
 23
1438.976531876464
 33
0.0
 14
1230.336700296569
 24
1819.688116193014
 34
0.0
 50
90.0
100
AcDbRotatedDimension
  0
DIMENSION
  5
128
330
1F
100
AcDbEntity
  8
1
100
AcDbDimension
  2
*D79
 10
482.9220266645838
 20
844.753830393082
 30
0.0
 11
460.9220266645838
 21
784.3470486188621
 31
0.0
  1
120
 71
     5
 42
0.0
 53
90.0
  3
ME10_DIM_7
100
AcDbAlignedDimension
 13
661.6574675809513
 23
723.9402668446423
 33
0.0
 14
665.3500430210479
 24
844.753830393082
 34
0.0
 50
90.0
100
AcDbRotatedDimension
  0
ENDSEC
  0
SECTION
  2
OBJECTS
  0
DICTIONARY
  5
C
330
0
100
AcDbDictionary
281
     1
  3
ACAD_GROUP
350
D
  3
ACAD_LAYOUT
350
1A
  3
ACAD_MLINESTYLE
350
17
  3
ACAD_PLOTSETTINGS
350
19
  3
ACAD_PLOTSTYLENAME
350
E
  3
ACAD_TABLESTYLE
350
2A
  3
AcDbVariableDictionary
350
2C
  0
DICTIONARY
  5
D
102
{ACAD_REACTORS
330
C
102
}
330
C
100
AcDbDictionary
281
     1
  0
DICTIONARY
  5
1A
102
{ACAD_REACTORS
330
C
102
}
330
C
100
AcDbDictionary
281
     1
  3
Layout1
350
1E
  3
Layout2
350
26
  3
Model
350
22
  0
DICTIONARY
  5
17
102
{ACAD_REACTORS
330
C
102
}
330
C
100
AcDbDictionary
281
     1
  3
Standard
350
18
  0
DICTIONARY
  5
19
102
{ACAD_REACTORS
330
C
102
}
330
C
100
AcDbDictionary
281
     1
  0
ACDBDICTIONARYWDFLT
  5
E
102
{ACAD_REACTORS
330
C
102
}
330
C
100
AcDbDictionary
281
     1
  3
Normal
350
F
100
AcDbDictionaryWithDefault
340
F
  0
DICTIONARY
  5
2A
102
{ACAD_REACTORS
330
C
102
}
330
C
100
AcDbDictionary
281
     1
  3
Standard
350
2B
  0
DICTIONARY
  5
2C
102
{ACAD_REACTORS
330
C
102
}
330
C
100
AcDbDictionary
281
     1
  3
CTABLESTYLE
350
2D
  0
LAYOUT
  5
1E
102
{ACAD_REACTORS
330
1A
102
}
330
1A
100
AcDbPlotSettings
  1

  2

  4

  6

 40
0.0
 41
0.0
 42
0.0
 43
0.0
 44
0.0
 45
0.0
 46
0.0
 47
0.0
 48
0.0
 49
0.0
140
0.0
141
0.0
142
1.0
143
1.0
 70
   688
 72
     0
 73
     0
 74
     5
  7

 75
    16
147
1.0
148
0.0
149
0.0
100
AcDbLayout
  1
Layout1
 70
     1
 71
     1
 10
0.0
 20
0.0
 11
12.0
 21
9.0
 12
0.0
 22
0.0
 32
0.0
 14
1.00000000000000E+20
 24
1.00000000000000E+20
 34
1.00000000000000E+20
 15
-1.00000000000000E+20
 25
-1.00000000000000E+20
 35
-1.00000000000000E+20
146
0.0
 13
0.0
 23
0.0
 33
0.0
 16
1.0
 26
0.0
 36
0.0
 17
0.0
 27
1.0
 37
0.0
 76
     0
330
1B
  0
LAYOUT
  5
26
102
{ACAD_REACTORS
330
1A
102
}
330
1A
100
AcDbPlotSettings
  1

  2

  4

  6

 40
0.0
 41
0.0
 42
0.0
 43
0.0
 44
0.0
 45
0.0
 46
0.0
 47
0.0
 48
0.0
 49
0.0
140
0.0
141
0.0
142
1.0
143
1.0
 70
   688
 72
     0
 73
     0
 74
     5
  7

 75
    16
147
1.0
148
0.0
149
0.0
100
AcDbLayout
  1
Layout2
 70
     1
 71
     2
 10
0.0
 20
0.0
 11
0.0
 21
0.0
 12
0.0
 22
0.0
 32
0.0
 14
0.0
 24
0.0
 34
0.0
 15
0.0
 25
0.0
 35
0.0
146
0.0
 13
0.0
 23
0.0
 33
0.0
 16
1.0
 26
0.0
 36
0.0
 17
0.0
 27
1.0
 37
0.0
 76
     0
330
23
  0
LAYOUT
  5
22
102
{ACAD_REACTORS
330
1A
102
}
330
1A
100
AcDbPlotSettings
  1

  2

  4

  6

 40
0.0
 41
0.0
 42
0.0
 43
0.0
 44
0.0
 45
0.0
 46
0.0
 47
0.0
 48
0.0
 49
0.0
140
0.0
141
0.0
142
1.0
143
1.0
 70
  1712
 72
     0
 73
     0
 74
     0
  7

 75
     0
147
1.0
148
0.0
149
0.0
100
AcDbLayout
  1
Model
 70
     1
 71
     0
 10
0.0
 20
0.0
 11
0.0
 21
0.0
 12
0.0
 22
0.0
 32
0.0
 14
0.0
 24
0.0
 34
0.0
 15
1680.0
 25
2376.0
 35
0.0
146
0.0
 13
0.0
 23
0.0
 33
0.0
 16
1.0
 26
0.0
 36
0.0
 17
0.0
 27
1.0
 37
0.0
 76
     0
330
1F
  0
MLINESTYLE
  5
18
102
{ACAD_REACTORS
330
17
102
}
330
17
100
AcDbMlineStyle
  2
Standard
 70
     0
  3

 62
   256
 51
90.0
 52
90.0
 71
     2
 49
0.5
 62
   256
  6
BYLAYER
 49
-0.5
 62
   256
  6
BYLAYER
  0
ACDBPLACEHOLDER
  5
F
102
{ACAD_REACTORS
330
E
102
}
330
E
  0
TABLESTYLE
  5
2B
102
{ACAD_REACTORS
330
2A
102
}
330
2A
100
AcDbTableStyle
  3
Standard
 70
     0
 71
     0
 40
0.06
 41
0.06
280
     0
281
     0
  7
Standard
140
0.18
170
     2
 62
     0
 63
     7
283
     0
274
    -2
284
     1
 64
     0
275
    -2
285
     1
 65
     0
276
    -2
286
     1
 66
     0
277
    -2
287
     1
 67
     0
278
    -2
288
     1
 68
     0
279
    -2
289
     1
 69
     0
  7
Standard
140
0.25
170
     5
 62
     0
 63
     7
283
     0
274
    -2
284
     1
 64
     0
275
    -2
285
     1
 65
     0
276
    -2
286
     1
 66
     0
277
    -2
287
     1
 67
     0
278
    -2
288
     1
 68
     0
279
    -2
289
     1
 69
     0
  7
Standard
140
0.18
170
     5
 62
     0
 63
     7
283
     0
274
    -2
284
     1
 64
     0
275
    -2
285
     1
 65
     0
276
    -2
286
     1
 66
     0
277
    -2
287
     1
 67
     0
278
    -2
288
     1
 68
     0
279
    -2
289
     1
 69
     0
  0
DICTIONARYVAR
  5
2D
102
{ACAD_REACTORS
330
2C
102
}
330
2C
100
DictionaryVariables
280
     0
  1
Standard
  0
ENDSEC
  0
EOF
