  0
SECTION
  2
HEADER
  9
$ACADVER
  1
AC1015
  9
$ACADMAINTVER
 70
     6
  9
$DWGCODEPAGE
  3
DOS932
  9
$INSBASE
 10
0.0
 20
0.0
 30
0.0
  9
$EXTMIN
 10
0.0
 20
0.0
 30
0.0
  9
$EXTMAX
 10
1680.0
 20
2376.0
 30
0.0
  9
$LIMMIN
 10
0.0
 20
0.0
  9
$LIMMAX
 10
12.0
 20
9.0
  9
$ORTHOMODE
 70
     0
  9
$REGENMODE
 70
     1
  9
$FILLMODE
 70
     1
  9
$QTEXTMODE
 70
     0
  9
$MIRRTEXT
 70
     1
  9
$LTSCALE
 40
1.0
  9
$ATTMODE
 70
     1
  9
$TEXTSIZE
 40
0.2
  9
$TRACEWID
 40
0.05
  9
$TEXTSTYLE
  7
Standard
  9
$CLAYER
  8
0
  9
$CELTYPE
  6
ByLayer
  9
$CECOLOR
 62
   256
  9
$CELTSCALE
 40
1.0
  9
$DISPSILH
 70
     0
  9
$DIMSCALE
 40
1.0
  9
$DIMASZ
 40
0.18
  9
$DIMEXO
 40
0.0625
  9
$DIMDLI
 40
0.38
  9
$DIMRND
 40
0.0
  9
$DIMDLE
 40
0.0
  9
$DIMEXE
 40
0.18
  9
$DIMTP
 40
0.0
  9
$DIMTM
 40
0.0
  9
$DIMTXT
 40
0.18
  9
$DIMCEN
 40
0.09
  9
$DIMTSZ
 40
0.0
  9
$DIMTOL
 70
     0
  9
$DIMLIM
 70
     0
  9
$DIMTIH
 70
     1
  9
$DIMTOH
 70
     1
  9
$DIMSE1
 70
     0
  9
$DIMSE2
 70
     0
  9
$DIMTAD
 70
     0
  9
$DIMZIN
 70
     0
  9
$DIMBLK
  1

  9
$DIMASO
 70
     1
  9
$DIMSHO
 70
     1
  9
$DIMPOST
  1

  9
$DIMAPOST
  1

  9
$DIMALT
 70
     0
  9
$DIMALTD
 70
     2
  9
$DIMALTF
 40
25.4
  9
$DIMLFAC
 40
1.0
  9
$DIMTOFL
 70
     0
  9
$DIMTVP
 40
0.0
  9
$DIMTIX
 70
     0
  9
$DIMSOXD
 70
     0
  9
$DIMSAH
 70
     0
  9
$DIMBLK1
  1

  9
$DIMBLK2
  1

  9
$DIMSTYLE
  2
Standard
  9
$DIMCLRD
 70
     0
  9
$DIMCLRE
 70
     0
  9
$DIMCLRT
 70
     0
  9
$DIMTFAC
 40
1.0
  9
$DIMGAP
 40
0.09
  9
$DIMJUST
 70
     0
  9
$DIMSD1
 70
     0
  9
$DIMSD2
 70
     0
  9
$DIMTOLJ
 70
     1
  9
$DIMTZIN
 70
     0
  9
$DIMALTZ
 70
     0
  9
$DIMALTTZ
 70
     0
  9
$DIMUPT
 70
     0
  9
$DIMDEC
 70
     4
  9
$DIMTDEC
 70
     4
  9
$DIMALTU
 70
     2
  9
$DIMALTTD
 70
     2
  9
$DIMTXSTY
  7
Standard
  9
$DIMAUNIT
 70
     0
  9
$DIMADEC
 70
     0
  9
$DIMALTRND
 40
0.0
  9
$DIMAZIN
 70
     0
  9
$DIMDSEP
 70
    46
  9
$DIMATFIT
 70
     3
  9
$DIMFRAC
 70
     0
  9
$DIMLDRBLK
  1

  9
$DIMLUNIT
 70
     2
  9
$DIMLWD
 70
    -2
  9
$DIMLWE
 70
    -2
  9
$DIMTMOVE
 70
     0
  9
$LUNITS
 70
     2
  9
$LUPREC
 70
     4
  9
$SKETCHINC
 40
0.1
  9
$FILLETRAD
 40
0.5
  9
$AUNITS
 70
     0
  9
$AUPREC
 70
     0
  9
$MENU
  1
.
  9
$ELEVATION
 40
0.0
  9
$PELEVATION
 40
0.0
  9
$THICKNESS
 40
0.0
  9
$LIMCHECK
 70
     0
  9
$CHAMFERA
 40
0.5
  9
$CHAMFERB
 40
0.5
  9
$CHAMFERC
 40
1.0
  9
$CHAMFERD
 40
0.0
  9
$SKPOLY
 70
     0
  9
$TDCREATE
 40
2455644.599669051
  9
$TDUCREATE
 40
2455644.224669051
  9
$TDUPDATE
 40
2455644.599669063
  9
$TDUUPDATE
 40
2455644.224669063
  9
$TDINDWG
 40
0.0000000116
  9
$TDUSRTIMER
 40
0.0000000116
  9
$USRTIMER
 70
     1
  9
$ANGBASE
 50
0.0
  9
$ANGDIR
 70
     0
  9
$PDMODE
 70
     0
  9
$PDSIZE
 40
0.0
  9
$PLINEWID
 40
0.0
  9
$SPLFRAME
 70
     0
  9
$SPLINETYPE
 70
     6
  9
$SPLINESEGS
 70
     8
  9
$HANDSEED
  5
168
  9
$SURFTAB1
 70
     6
  9
$SURFTAB2
 70
     6
  9
$SURFTYPE
 70
     6
  9
$SURFU
 70
     6
  9
$SURFV
 70
     6
  9
$UCSBASE
  2

  9
$UCSNAME
  2

  9
$UCSORG
 10
0.0
 20
0.0
 30
0.0
  9
$UCSXDIR
 10
1.0
 20
0.0
 30
0.0
  9
$UCSYDIR
 10
0.0
 20
1.0
 30
0.0
  9
$UCSORTHOREF
  2

  9
$UCSORTHOVIEW
 70
     0
  9
$UCSORGTOP
 10
0.0
 20
0.0
 30
0.0
  9
$UCSORGBOTTOM
 10
0.0
 20
0.0
 30
0.0
  9
$UCSORGLEFT
 10
0.0
 20
0.0
 30
0.0
  9
$UCSORGRIGHT
 10
0.0
 20
0.0
 30
0.0
  9
$UCSORGFRONT
 10
0.0
 20
0.0
 30
0.0
  9
$UCSORGBACK
 10
0.0
 20
0.0
 30
0.0
  9
$PUCSBASE
  2

  9
$PUCSNAME
  2

  9
$PUCSORG
 10
0.0
 20
0.0
 30
0.0
  9
$PUCSXDIR
 10
1.0
 20
0.0
 30
0.0
  9
$PUCSYDIR
 10
0.0
 20
1.0
 30
0.0
  9
$PUCSORTHOREF
  2

  9
$PUCSORTHOVIEW
 70
     0
  9
$PUCSORGTOP
 10
0.0
 20
0.0
 30
0.0
  9
$PUCSORGBOTTOM
 10
0.0
 20
0.0
 30
0.0
  9
$PUCSORGLEFT
 10
0.0
 20
0.0
 30
0.0
  9
$PUCSORGRIGHT
 10
0.0
 20
0.0
 30
0.0
  9
$PUCSORGFRONT
 10
0.0
 20
0.0
 30
0.0
  9
$PUCSORGBACK
 10
0.0
 20
0.0
 30
0.0
  9
$USERI1
 70
     0
  9
$USERI2
 70
     0
  9
$USERI3
 70
     0
  9
$USERI4
 70
     0
  9
$USERI5
 70
     0
  9
$USERR1
 40
13.2
  9
$USERR2
 40
0.0
  9
$USERR3
 40
0.0
  9
$USERR4
 40
0.0
  9
$USERR5
 40
0.0
  9
$WORLDVIEW
 70
     1
  9
$SHADEDGE
 70
     3
  9
$SHADEDIF
 70
    70
  9
$TILEMODE
 70
     1
  9
$MAXACTVP
 70
    64
  9
$PINSBASE
 10
0.0
 20
0.0
 30
0.0
  9
$PLIMCHECK
 70
     0
  9
$PEXTMIN
 10
1.00000000000000E+20
 20
1.00000000000000E+20
 30
1.00000000000000E+20
  9
$PEXTMAX
 10
-1.00000000000000E+20
 20
-1.00000000000000E+20
 30
-1.00000000000000E+20
  9
$PLIMMIN
 10
0.0
 20
0.0
  9
$PLIMMAX
 10
12.0
 20
9.0
  9
$UNITMODE
 70
     0
  9
$VISRETAIN
 70
     1
  9
$PLINEGEN
 70
     0
  9
$PSLTSCALE
 70
     1
  9
$TREEDEPTH
 70
  3020
  9
$CMLSTYLE
  2
Standard
  9
$CMLJUST
 70
     0
  9
$CMLSCALE
 40
1.0
  9
$PROXYGRAPHICS
 70
     1
  9
$MEASUREMENT
 70
     1
  9
$CELWEIGHT
370
    -1
  9
$ENDCAPS
280
     0
  9
$JOINSTYLE
280
     0
  9
$LWDISPLAY
290
     0
  9
$INSUNITS
 70
     1
  9
$HYPERLINKBASE
  1

  9
$STYLESHEET
  1

  9
$XEDIT
290
     1
  9
$CEPSNTYPE
380
     0
  9
$PSTYLEMODE
290
     0
  9
$FINGERPRINTGUID
  2
{FAEB1C30-E019-11D5-929B-00C0DF256EC4}
  9
$VERSIONGUID
  2
{FAEB1C32-E019-11D5-929B-00C0DF256EC4}
  9
$EXTNAMES
290
     1
  9
$PSVPSCALE
 40
0.0
  9
$OLESTARTUP
290
     0
  0
ENDSEC
  0
SECTION
  2
CLASSES
  0
CLASS
  1
ACDBDICTIONARYWDFLT
  2
AcDbDictionaryWithDefault
  3
ObjectDBX Classes
 90
        0
280
     0
281
     0
  0
CLASS
  1
TABLESTYLE
  2
AcDbTableStyle
  3
ObjectDBX Classes
 90
     2047
280
     0
281
     0
  0
CLASS
  1
DICTIONARYVAR
  2
AcDbDictionaryVar
  3
ObjectDBX Classes
 90
        0
280
     0
281
     0
  0
CLASS
  1

  2
exOdDbCircle
  3

 90
        0
280
     0
281
     1
  0
CLASS
  1

  2
exOdDbSpline
  3

 90
        0
280
     0
281
     1
  0
CLASS
  1
ACDBPLACEHOLDER
  2
AcDbPlaceHolder
  3
ObjectDBX Classes
 90
        0
280
     0
281
     0
  0
CLASS
  1
LAYOUT
  2
AcDbLayout
  3
ObjectDBX Classes
 90
        0
280
     0
281
     0
  0
ENDSEC
  0
SECTION
  2
TABLES
  0
TABLE
  2
VPORT
  5
8
330
0
100
AcDbSymbolTable
 70
     2
  0
VPORT
  5
29
330
8
100
AcDbSymbolTableRecord
100
AcDbViewportTableRecord
  2
*Active
 70
     0
 10
0.0
 20
0.0
 11
1.0
 21
1.0
 12
840.0
 22
1188.0
 13
0.0
 23
0.0
 14
0.5
 24
0.5
 15
0.5
 25
0.5
 16
0.0
 26
0.0
 36
1.0
 17
0.0
 27
0.0
 37
0.0
 40
2613.6
 41
1.60267857142857
 42
50.0
 43
0.0
 44
0.0
 50
0.0
 51
0.0
 71
     0
 72
   100
 73
     1
 74
     3
 75
     0
 76
     0
 77
     0
 78
     0
281
     0
 65
     1
110
0.0
120
0.0
130
0.0
111
1.0
121
0.0
131
0.0
112
0.0
122
1.0
132
0.0
 79
     0
146
0.0
  0
ENDTAB
  0
TABLE
  2
LTYPE
  5
5
330
0
100
AcDbSymbolTable
 70
     9
  0
LTYPE
  5
14
330
5
100
AcDbSymbolTableRecord
100
AcDbLinetypeTableRecord
  2
ByBlock
 70
     0
  3

 72
    65
 73
     0
 40
0.0
  0
LTYPE
  5
15
330
5
100
AcDbSymbolTableRecord
100
AcDbLinetypeTableRecord
  2
ByLayer
 70
     0
  3

 72
    65
 73
     0
 40
0.0
  0
LTYPE
  5
16
330
5
100
AcDbSymbolTableRecord
100
AcDbLinetypeTableRecord
  2
Continuous
 70
     0
  3
Solid line
 72
    65
 73
     0
 40
0.0
  0
LTYPE
  5
2E
330
5
100
AcDbSymbolTableRecord
100
AcDbLinetypeTableRecord
  2
DASHED
 70
     0
  3
Dashed
 72
    65
 73
     2
 40
15.0
 49
7.0
 74
     0
 49
-8.0
 74
     0
  0
LTYPE
  5
2F
330
5
100
AcDbSymbolTableRecord
100
AcDbLinetypeTableRecord
  2
DOTTED
 70
     0
  3
Dotted
 72
    65
 73
     2
 40
1.0
 49
0.0
 74
     0
 49
-1.0
 74
     0
  0
LTYPE
  5
30
330
5
100
AcDbSymbolTableRecord
100
AcDbLinetypeTableRecord
  2
DOT_CENTER
 70
     0
  3
Dot_Center
 72
    65
 73
     4
 40
14.0
 49
12.0
 74
     0
 49
-1.0
 74
     0
 49
0.0
 74
     0
 49
-1.0
 74
     0
  0
LTYPE
  5
31
330
5
100
AcDbSymbolTableRecord
100
AcDbLinetypeTableRecord
  2
LONG_DASHED
 70
     0
  3
Long_Dashed
 72
    65
 73
     2
 40
15.0
 49
10.0
 74
     0
 49
-5.0
 74
     0
  0
LTYPE
  5
32
330
5
100
AcDbSymbolTableRecord
100
AcDbLinetypeTableRecord
  2
DASH_CENTER
 70
     0
  3
Dash_Center
 72
    65
 73
     4
 40
14.0
 49
11.0
 74
     0
 49
-1.0
 74
     0
 49
1.0
 74
     0
 49
-1.0
 74
     0
  0
LTYPE
  5
33
330
5
100
AcDbSymbolTableRecord
100
AcDbLinetypeTableRecord
  2
PHANTOM
 70
     0
  3
Phantom
 72
    65
 73
     6
 40
13.0
 49
10.0
 74
     0
 49
-1.0
 74
     0
 49
0.0
 74
     0
 49
-1.0
 74
     0
 49
0.0
 74
     0
 49
-1.0
 74
     0
  0
LTYPE
  5
34
330
5
100
AcDbSymbolTableRecord
100
AcDbLinetypeTableRecord
  2
CENTER_DASH_DASH
 70
     0
  3
Center_Dash_Dash
 72
    65
 73
     6
 40
14.0
 49
9.0
 74
     0
 49
-1.0
 74
     0
 49
1.0
 74
     0
 49
-1.0
 74
     0
 49
1.0
 74
     0
 49
-1.0
 74
     0
  0
LTYPE
  5
35
330
5
100
AcDbSymbolTableRecord
100
AcDbLinetypeTableRecord
  2
AI9_LType4
 70
     0
  3
AI9_LType4
 72
    65
 73
     2
 40
4.0
 49
2.0
 74
     0
 49
-2.0
 74
     0
  0
ENDTAB
  0
TABLE
  2
LAYER
  5
2
330
0
100
AcDbSymbolTable
 70
     3
  0
LAYER
  5
10
330
2
100
AcDbSymbolTableRecord
100
AcDbLayerTableRecord
  2
0
 70
     0
 62
     7
  6
Continuous
370
    -3
390
F
  0
LAYER
  5
36
330
2
100
AcDbSymbolTableRecord
100
AcDbLayerTableRecord
  2
1
 70
     0
 62
     7
  6
Continuous
370
    -3
390
F
  0
LAYER
  5
37
330
2
100
AcDbSymbolTableRecord
100
AcDbLayerTableRecord
  2
CAPA_1
 70
     0
 62
     7
  6
Continuous
370
    -3
390
F
  0
ENDTAB
  0
TABLE
  2
STYLE
  5
3
330
0
100
AcDbSymbolTable
 70
     3
  0
STYLE
  5
11
330
3
100
AcDbSymbolTableRecord
100
AcDbTextStyleTableRecord
  2
Standard
 70
     0
 40
0.0
 41
1.0
 50
0.0
 71
     0
 42
0.2
  3
txt
  4

  0
STYLE
  5
8B
330
3
100
AcDbSymbolTableRecord
100
AcDbTextStyleTableRecord
  2
CONVERTER_1
 70
     0
 40
0.0
 41
0.89
 50
0.0
 71
     0
 42
0.2
  3
msmincho.ttc
  4

1001
ACAD
1000
MS Mincho
1071
    32785
  0
STYLE
  5
CB
330
3
100
AcDbSymbolTableRecord
100
AcDbTextStyleTableRecord
  2
CONVERTER_2
 70
     0
 40
0.0
 41
0.9
 50
0.0
 71
     0
 42
0.2
  3
txt.shx
  4

  0
ENDTAB
  0
TABLE
  2
VIEW
  5
6
330
0
100
AcDbSymbolTable
 70
     0
  0
ENDTAB
  0
TABLE
  2
UCS
  5
7
330
0
100
AcDbSymbolTable
 70
     0
  0
ENDTAB
  0
TABLE
  2
APPID
  5
9
330
0
100
AcDbSymbolTable
 70
     1
  0
APPID
  5
12
330
9
100
AcDbSymbolTableRecord
100
AcDbRegAppTableRecord
  2
ACAD
 70
     0
  0
ENDTAB
  0
TABLE
  2
DIMSTYLE
  5
A
330
0
100
AcDbSymbolTable
 70
    13
100
AcDbDimStyleTable
  0
DIMSTYLE
105
27
330
A
100
AcDbSymbolTableRecord
100
AcDbDimStyleTableRecord
  2
Standard
 70
     0
340
11
  0
DIMSTYLE
105
EA
102
{ACAD_REACTORS
330
EB
102
}
330
A
100
AcDbSymbolTableRecord
100
AcDbDimStyleTableRecord
  2
ME10_DIM_0
 70
     0
 41
28.0
 42
0.0
 44
8.0
 73
     0
 74
     0
 77
     1
 78
     8
140
28.0
147
0.625
172
     1
173
     1
176
     2
177
     2
178
     7
271
     2
340
CB
  0
DIMSTYLE
105
F6
102
{ACAD_REACTORS
330
F7
102
}
330
A
100
AcDbSymbolTableRecord
100
AcDbDimStyleTableRecord
  2
ME10_DIM_1
 70
     0
 41
28.0
 42
0.0
 44
8.0
 73
     0
 74
     0
 77
     1
 78
     8
140
28.0
147
0.625
172
     1
173
     1
176
     2
177
     2
178
     7
271
     2
340
CB
  0
DIMSTYLE
105
101
102
{ACAD_REACTORS
330
102
102
}
330
A
100
AcDbSymbolTableRecord
100
AcDbDimStyleTableRecord
  2
ME10_DIM_2
 70
     0
 41
28.0
 42
0.0
 44
8.0
 73
     0
 74
     0
 77
     1
 78
     8
140
28.0
147
0.625
172
     1
173
     1
176
     2
177
     2
178
     7
271
     2
340
CB
  0
DIMSTYLE
105
10C
102
{ACAD_REACTORS
330
10D
102
}
330
A
100
AcDbSymbolTableRecord
100
AcDbDimStyleTableRecord
  2
ME10_DIM_3
 70
     0
 41
28.0
 42
0.0
 44
8.0
 73
     0
 74
     0
 77
     1
 78
     8
140
28.0
147
0.625
172
     1
173
     1
176
     2
177
     2
178
     7
271
     2
340
CB
  0
DIMSTYLE
105
117
102
{ACAD_REACTORS
330
118
102
}
330
A
100
AcDbSymbolTableRecord
100
AcDbDimStyleTableRecord
  2
ME10_DIM_4
 70
     0
 41
28.0
 42
0.0
 44
8.0
 73
     0
 74
     0
 77
     1
 78
     8
140
28.0
147
0.625
172
     1
173
     1
176
     2
177
     2
178
     7
271
     2
340
CB
  0
DIMSTYLE
105
122
102
{ACAD_REACTORS
330
123
102
}
330
A
100
AcDbSymbolTableRecord
100
AcDbDimStyleTableRecord
  2
ME10_DIM_5
 70
     0
 41
28.0
 42
0.0
 44
8.0
 73
     0
 74
     0
 77
     1
 78
     8
140
28.0
147
0.625
172
     1
173
     1
176
     2
177
     2
178
     7
271
     2
340
CB
  0
DIMSTYLE
105
12D
102
{ACAD_REACTORS
330
12E
102
}
330
A
100
AcDbSymbolTableRecord
100
AcDbDimStyleTableRecord
  2
ME10_DIM_6
 70
     0
 41
28.0
 42
0.0
 44
8.0
 73
     0
 74
     0
 77
     1
 78
     8
140
28.0
147
0.625
172
     1
173
     1
176
     2
177
     2
178
     7
271
     2
340
CB
  0
DIMSTYLE
105
138
102
{ACAD_REACTORS
330
139
102
}
330
A
100
AcDbSymbolTableRecord
100
AcDbDimStyleTableRecord
  2
ME10_DIM_7
 70
     0
 41
28.0
 42
0.0
 44
8.0
 73
     0
 74
     0
 77
     1
 78
     8
140
28.0
147
0.625
172
     1
173
     1
176
     2
177
     2
178
     7
271
     2
340
CB
  0
DIMSTYLE
105
143
102
{ACAD_REACTORS
330
144
102
}
330
A
100
AcDbSymbolTableRecord
100
AcDbDimStyleTableRecord
  2
ME10_DIM_8
 70
     0
 41
28.0
 42
0.0
 44
8.0
 73
     0
 74
     0
 77
     1
 78
     8
140
28.0
147
0.625
172
     1
173
     1
176
     2
177
     2
178
     7
271
     2
340
CB
  0
DIMSTYLE
105
14E
102
{ACAD_REACTORS
330
14F
102
}
330
A
100
AcDbSymbolTableRecord
100
AcDbDimStyleTableRecord
  2
ME10_DIM_9
 70
     0
 41
28.0
 42
0.0
 44
8.0
 73
     0
 74
     0
 77
     1
 78
     8
140
28.0
147
0.625
172
     1
173
     1
176
     2
177
     2
178
     7
271
     2
340
CB
  0
DIMSTYLE
105
159
102
{ACAD_REACTORS
330
15A
102
}
330
A
100
AcDbSymbolTableRecord
100
AcDbDimStyleTableRecord
  2
ME10_DIM_10
 70
     0
 41
28.0
 42
0.0
 44
8.0
 73
     0
 74
     0
 77
     1
 78
     8
140
28.0
147
0.625
172
     1
173
     1
176
     2
177
     2
178
     7
271
     2
340
CB
  0
DIMSTYLE
105
166
102
{ACAD_REACTORS
330
167
102
}
330
A
100
AcDbSymbolTableRecord
100
AcDbDimStyleTableRecord
  2
ME10_DIM_11
 70
     0
 41
28.0
 42
0.0
 44
8.0
 73
     0
 74
     0
 77
     1
 78
     8
140
28.0
147
0.625
172
     1
173
     1
176
     2
177
     2
178
     7
271
     2
340
CB
  0
ENDTAB
  0
TABLE
  2
BLOCK_RECORD
  5
1
330
0
100
AcDbSymbolTable
 70
    15
  0
BLOCK_RECORD
  5
1F
330
1
100
AcDbSymbolTableRecord
100
AcDbBlockTableRecord
  2
*Model_Space
340
22
  0
BLOCK_RECORD
  5
1B
330
1
100
AcDbSymbolTableRecord
100
AcDbBlockTableRecord
  2
*Paper_Space
340
1E
  0
BLOCK_RECORD
  5
23
330
1
100
AcDbSymbolTableRecord
100
AcDbBlockTableRecord
  2
*Paper_Space0
340
26
  0
BLOCK_RECORD
  5
38
330
1
100
AcDbSymbolTableRecord
100
AcDbBlockTableRecord
  2
_J__A4
340
0
102
{BLKREFS
331
3E
102
}
  0
BLOCK_RECORD
  5
3B
330
1
100
AcDbSymbolTableRecord
100
AcDbBlockTableRecord
  2
TOP
340
0
102
{BLKREFS
331
3F
102
}
  0
BLOCK_RECORD
  5
DF
330
1
100
AcDbSymbolTableRecord
100
AcDbBlockTableRecord
  2
*D03
340
0
  0
BLOCK_RECORD
  5
EC
330
1
100
AcDbSymbolTableRecord
100
AcDbBlockTableRecord
  2
*D14
340
0
  0
BLOCK_RECORD
  5
F8
330
1
100
AcDbSymbolTableRecord
100
AcDbBlockTableRecord
  2
*D25
340
0
  0
BLOCK_RECORD
  5
103
330
1
100
AcDbSymbolTableRecord
100
AcDbBlockTableRecord
  2
*D36
340
0
  0
BLOCK_RECORD
  5
10E
330
1
100
AcDbSymbolTableRecord
100
AcDbBlockTableRecord
  2
*D47
340
0
  0
BLOCK_RECORD
  5
119
330
1
100
AcDbSymbolTableRecord
100
AcDbBlockTableRecord
  2
*D58
340
0
  0
BLOCK_RECORD
  5
124
330
1
100
AcDbSymbolTableRecord
100
AcDbBlockTableRecord
  2
*D69
340
0
  0
BLOCK_RECORD
  5
12F
330
1
100
AcDbSymbolTableRecord
100
AcDbBlockTableRecord
  2
*D710
340
0
  0
BLOCK_RECORD
  5
13A
330
1
100
AcDbSymbolTableRecord
100
AcDbBlockTableRecord
  2
*D811
340
0
  0
BLOCK_RECORD
  5
145
330
1
100
AcDbSymbolTableRecord
100
AcDbBlockTableRecord
  2
*D912
340
0
  0
BLOCK_RECORD
  5
150
330
1
100
AcDbSymbolTableRecord
100
AcDbBlockTableRecord
  2
*D1013
340
0
  0
BLOCK_RECORD
  5
15B
330
1
100
AcDbSymbolTableRecord
100
AcDbBlockTableRecord
  2
*D1114
340
0
  0
ENDTAB
  0
ENDSEC
  0
SECTION
  2
BLOCKS
  0
BLOCK
  5
20
330
1F
100
AcDbEntity
  8
0
100
AcDbBlockBegin
  2
*Model_Space
 70
     0
 71
     0
 10
0.0
 20
0.0
 30
0.0
  3
*Model_Space
  1

  0
ENDBLK
  5
21
330
1F
100
AcDbEntity
  8
0
100
AcDbBlockEnd
  0
BLOCK
  5
1C
330
1B
100
AcDbEntity
 67
     1
  8
0
100
AcDbBlockBegin
  2
*Paper_Space
 70
     0
 71
     0
 10
0.0
 20
0.0
 30
0.0
  3
*Paper_Space
  1

  0
ENDBLK
  5
1D
330
1B
100
AcDbEntity
 67
     1
  8
0
100
AcDbBlockEnd
  0
BLOCK
  5
24
330
23
100
AcDbEntity
  8
0
100
AcDbBlockBegin
  2
*Paper_Space0
 70
     0
 71
     0
 10
0.0
 20
0.0
 30
0.0
  3
*Paper_Space0
  1

  0
ENDBLK
  5
25
330
23
100
AcDbEntity
  8
0
100
AcDbBlockEnd
  0
BLOCK
  5
39
330
38
100
AcDbEntity
  8
0
100
AcDbBlockBegin
  2
_J__A4
 70
     0
 71
     0
 10
0.0
 20
0.0
 30
0.0
  3
_J__A4
  1

  0
POINT
  5
40
330
38
100
AcDbEntity
  8
1
 62
     4
100
AcDbPoint
 10
34.0
 20
34.00000000000001
 30
0.0
  0
POINT
  5
41
330
38
100
AcDbEntity
  8
1
 62
     4
100
AcDbPoint
 10
57.0
 20
12.25
 30
0.0
  0
POINT
  5
42
330
38
100
AcDbEntity
  8
1
 62
     4
100
AcDbPoint
 10
57.0
 20
20.75000000000001
 30
0.0
  0
POINT
  5
43
330
38
100
AcDbEntity
  8
1
 62
     4
100
AcDbPoint
 10
57.0
 20
24.75000000000001
 30
0.0
  0
POINT
  5
44
330
38
100
AcDbEntity
  8
1
 62
     4
100
AcDbPoint
 10
57.0
 20
16.25
 30
0.0
  0
POINT
  5
45
330
38
100
AcDbEntity
  8
1
 62
     4
100
AcDbPoint
 10
157.5
 20
19.00000000000001
 30
0.0
  0
POINT
  5
46
330
38
100
AcDbEntity
  8
1
 62
     4
100
AcDbPoint
 10
47.5
 20
282.0000000000003
 30
0.0
  0
POINT
  5
47
330
38
100
AcDbEntity
  8
1
 62
     4
100
AcDbPoint
 10
57.0
 20
22.75000000000001
 30
0.0
  0
POINT
  5
48
330
38
100
AcDbEntity
  8
1
 62
     4
100
AcDbPoint
 10
57.0
 20
14.25
 30
0.0
  0
POINT
  5
49
330
38
100
AcDbEntity
  8
1
 62
     4
100
AcDbPoint
 10
157.5
 20
12.5
 30
0.0
  0
POINT
  5
4A
330
38
100
AcDbEntity
  8
1
 62
     4
100
AcDbPoint
 10
163.25
 20
12.5
 30
0.0
  0
POINT
  5
4B
330
38
100
AcDbEntity
  8
1
 62
     4
100
AcDbPoint
 10
151.75
 20
12.5
 30
0.0
  0
POINT
  5
4C
330
38
100
AcDbEntity
  8
1
 62
     4
100
AcDbPoint
 10
134.75
 20
12.5
 30
0.0
  0
POINT
  5
4D
330
38
100
AcDbEntity
  8
1
 62
     4
100
AcDbPoint
 10
146.25
 20
12.5
 30
0.0
  0
POINT
  5
4E
330
38
100
AcDbEntity
  8
1
 62
     4
100
AcDbPoint
 10
140.5
 20
12.5
 30
0.0
  0
POINT
  5
4F
330
38
100
AcDbEntity
  8
1
 62
     4
100
AcDbPoint
 10
140.5
 20
19.00000000000001
 30
0.0
  0
POINT
  5
50
330
38
100
AcDbEntity
  8
1
 62
     4
100
AcDbPoint
 10
117.75
 20
12.5
 30
0.0
  0
POINT
  5
51
330
38
100
AcDbEntity
  8
1
 62
     4
100
AcDbPoint
 10
129.25
 20
12.5
 30
0.0
  0
POINT
  5
52
330
38
100
AcDbEntity
  8
1
 62
     4
100
AcDbPoint
 10
123.5
 20
12.5
 30
0.0
  0
POINT
  5
53
330
38
100
AcDbEntity
  8
1
 62
     4
100
AcDbPoint
 10
123.5
 20
19.00000000000001
 30
0.0
  0
POINT
  5
54
330
38
100
AcDbEntity
  8
1
 62
     4
100
AcDbPoint
 10
100.75
 20
12.5
 30
0.0
  0
POINT
  5
55
330
38
100
AcDbEntity
  8
1
 62
     4
100
AcDbPoint
 10
112.25
 20
12.5
 30
0.0
  0
POINT
  5
56
330
38
100
AcDbEntity
  8
1
 62
     4
100
AcDbPoint
 10
106.5
 20
12.5
 30
0.0
  0
POINT
  5
57
330
38
100
AcDbEntity
  8
1
 62
     4
100
AcDbPoint
 10
106.5
 20
19.00000000000001
 30
0.0
  0
POINT
  5
58
330
38
100
AcDbEntity
  8
1
 62
     4
100
AcDbPoint
 10
85.25
 20
17.0
 30
0.0
  0
POINT
  5
59
330
38
100
AcDbEntity
  8
1
 62
     4
100
AcDbPoint
 10
93.75
 20
17.0
 30
0.0
  0
LINE
  5
5A
330
38
100
AcDbEntity
  8
1
  6
Continuous
 62
     2
100
AcDbLine
 10
81.0
 20
27.00000000000001
 30
0.0
 11
81.0
 21
10.0
 31
0.0
  0
LINE
  5
5B
330
38
100
AcDbEntity
  8
1
  6
DOT_CENTER
 62
     2
100
AcDbLine
 10
187.0
 20
26.50000000000001
 30
0.0
 11
187.0
 21
20.50000000000001
 31
0.0
  0
LINE
  5
5C
330
38
100
AcDbEntity
  8
1
  6
DOT_CENTER
 62
     2
100
AcDbLine
 10
184.0
 20
23.50000000000001
 30
0.0
 11
197.0
 21
23.50000000000001
 31
0.0
  0
LINE
  5
5D
330
38
100
AcDbEntity
  8
1
  6
Continuous
 62
     7
100
AcDbLine
 10
196.0
 20
21.50000000000001
 30
0.0
 11
191.0
 21
22.30000000000001
 31
0.0
  0
LINE
  5
5E
330
38
100
AcDbEntity
  8
1
  6
Continuous
 62
     7
100
AcDbLine
 10
196.0
 20
25.50000000000001
 30
0.0
 11
196.0
 21
21.50000000000001
 31
0.0
  0
LINE
  5
5F
330
38
100
AcDbEntity
  8
1
  6
Continuous
 62
     7
100
AcDbLine
 10
191.0
 20
24.70000000000001
 30
0.0
 11
196.0
 21
25.50000000000001
 31
0.0
  0
LINE
  5
60
330
38
100
AcDbEntity
  8
1
  6
Continuous
 62
     7
100
AcDbLine
 10
191.0
 20
24.70000000000001
 30
0.0
 11
191.0
 21
22.30000000000001
 31
0.0
  0
LINE
  5
61
330
38
100
AcDbEntity
  8
1
  6
Continuous
 62
     2
100
AcDbLine
 10
33.0
 20
27.0
 30
0.0
 11
33.0
 21
10.0
 31
0.0
  0
LINE
  5
62
330
38
100
AcDbEntity
  8
1
  6
Continuous
 62
     2
100
AcDbLine
 10
25.0
 20
18.50000000000001
 30
0.0
 11
81.0
 21
18.50000000000001
 31
0.0
  0
LINE
  5
63
330
38
100
AcDbEntity
  8
1
  6
Continuous
 62
     7
100
AcDbLine
 10
200.0
 20
287.0000000000003
 30
0.0
 11
105.0
 21
287.0000000000003
 31
0.0
  0
LINE
  5
64
330
38
100
AcDbEntity
  8
1
  6
Continuous
 62
     7
100
AcDbLine
 10
200.0
 20
10.0
 30
0.0
 11
200.0
 21
148.5
 31
0.0
  0
LINE
  5
65
330
38
100
AcDbEntity
  8
1
  6
Continuous
 62
     7
100
AcDbLine
 10
25.0
 20
10.0
 30
0.0
 11
105.0
 21
10.0
 31
0.0
  0
LINE
  5
66
330
38
100
AcDbEntity
  8
1
  6
PHANTOM
 62
     4
100
AcDbLine
 10
0.0
 20
297.0
 30
0.0
 11
0.0
 21
0.0
 31
0.0
  0
LINE
  5
67
330
38
100
AcDbEntity
  8
1
  6
PHANTOM
 62
     4
100
AcDbLine
 10
210.0
 20
297.0
 30
0.0
 11
0.0
 21
297.0
 31
0.0
  0
LINE
  5
68
330
38
100
AcDbEntity
  8
1
  6
PHANTOM
 62
     4
100
AcDbLine
 10
210.0
 20
0.0
 30
0.0
 11
210.0
 21
297.0
 31
0.0
  0
LINE
  5
69
330
38
100
AcDbEntity
  8
1
  6
PHANTOM
 62
     4
100
AcDbLine
 10
0.0
 20
0.0
 30
0.0
 11
210.0
 21
0.0
 31
0.0
  0
LINE
  5
6A
330
38
100
AcDbEntity
  8
1
  6
Continuous
 62
     7
100
AcDbLine
 10
25.0
 20
41.0
 30
0.0
 11
200.0
 21
41.0
 31
0.0
  0
LINE
  5
6B
330
38
100
AcDbEntity
  8
1
  6
Continuous
 62
     7
100
AcDbLine
 10
200.0
 20
27.00000000000001
 30
0.0
 11
25.0
 21
27.00000000000001
 31
0.0
  0
LINE
  5
6C
330
38
100
AcDbEntity
  8
1
  6
Continuous
 62
     2
100
AcDbLine
 10
33.0
 20
41.00000000000001
 30
0.0
 11
33.0
 21
27.0
 31
0.0
  0
LINE
  5
6D
330
38
100
AcDbEntity
  8
1
  6
Continuous
 62
     2
100
AcDbLine
 10
55.0
 20
287.0000000000003
 30
0.0
 11
55.0
 21
277.0000000000003
 31
0.0
  0
LINE
  5
6E
330
38
100
AcDbEntity
  8
1
  6
Continuous
 62
     2
100
AcDbLine
 10
40.0
 20
287.0000000000003
 30
0.0
 11
40.0
 21
277.0000000000003
 31
0.0
  0
LINE
  5
6F
330
38
100
AcDbEntity
  8
1
  6
Continuous
 62
     7
100
AcDbLine
 10
25.0
 20
10.0
 30
0.0
 11
25.0
 21
148.5
 31
0.0
  0
LINE
  5
70
330
38
100
AcDbEntity
  8
1
  6
Continuous
 62
     2
100
AcDbLine
 10
55.0
 20
277.0000000000003
 30
0.0
 11
25.0
 21
277.0000000000003
 31
0.0
  0
LINE
  5
71
330
38
100
AcDbEntity
  8
1
  6
Continuous
 62
     2
100
AcDbLine
 10
166.0
 20
27.00000000000001
 30
0.0
 11
166.0
 21
10.0
 31
0.0
  0
LINE
  5
72
330
38
100
AcDbEntity
  8
1
  6
Continuous
 62
     2
100
AcDbLine
 10
132.0
 20
27.00000000000001
 30
0.0
 11
132.0
 21
9.99999999999999
 31
0.0
  0
LINE
  5
73
330
38
100
AcDbEntity
  8
1
  6
Continuous
 62
     2
100
AcDbLine
 10
149.0
 20
27.00000000000001
 30
0.0
 11
149.0
 21
10.0
 31
0.0
  0
LINE
  5
74
330
38
100
AcDbEntity
  8
1
  6
Continuous
 62
     2
100
AcDbLine
 10
115.0
 20
27.00000000000001
 30
0.0
 11
115.0
 21
9.99999999999999
 31
0.0
  0
LINE
  5
75
330
38
100
AcDbEntity
  8
1
  6
Continuous
 62
     2
100
AcDbLine
 10
98.0
 20
27.00000000000001
 30
0.0
 11
98.0
 21
9.99999999999999
 31
0.0
  0
LINE
  5
76
330
38
100
AcDbEntity
  8
1
  6
Continuous
 62
     2
100
AcDbLine
 10
166.0
 20
20.00000000000001
 30
0.0
 11
200.0
 21
20.00000000000001
 31
0.0
  0
LINE
  5
77
330
38
100
AcDbEntity
  8
1
  6
Continuous
 62
     2
100
AcDbLine
 10
105.0
 20
287.0000000000003
 30
0.0
 11
105.0
 21
292.0000000000003
 31
0.0
  0
LINE
  5
78
330
38
100
AcDbEntity
  8
1
  6
Continuous
 62
     7
100
AcDbLine
 10
105.0
 20
287.0000000000003
 30
0.0
 11
25.0
 21
287.0000000000003
 31
0.0
  0
LINE
  5
79
330
38
100
AcDbEntity
  8
1
  6
Continuous
 62
     7
100
AcDbLine
 10
25.0
 20
148.5
 30
0.0
 11
25.0
 21
287.0000000000003
 31
0.0
  0
LINE
  5
7A
330
38
100
AcDbEntity
  8
1
  6
Continuous
 62
     7
100
AcDbLine
 10
200.0
 20
148.5
 30
0.0
 11
200.0
 21
287.0000000000003
 31
0.0
  0
LINE
  5
7B
330
38
100
AcDbEntity
  8
1
  6
Continuous
 62
     2
100
AcDbLine
 10
105.0
 20
10.0
 30
0.0
 11
105.0
 21
5.0
 31
0.0
  0
LINE
  5
7C
330
38
100
AcDbEntity
  8
1
  6
Continuous
 62
     7
100
AcDbLine
 10
105.0
 20
10.0
 30
0.0
 11
200.0
 21
10.0
 31
0.0
  0
LINE
  5
7D
330
38
100
AcDbEntity
  8
1
  6
Continuous
 62
     2
100
AcDbLine
 10
200.0
 20
148.5
 30
0.0
 11
205.0
 21
148.5
 31
0.0
  0
LINE
  5
7E
330
38
100
AcDbEntity
  8
1
  6
Continuous
 62
     2
100
AcDbLine
 10
25.0
 20
148.5
 30
0.0
 11
20.0
 21
148.5
 31
0.0
  0
CIRCLE
  5
7F
330
38
100
AcDbEntity
  8
1
  6
DOT_CENTER
 62
     7
100
AcDbCircle
 10
89.5
 20
18.0
 30
0.0
 40
0.1000000000000227
  0
CIRCLE
  5
80
330
38
100
AcDbEntity
  8
1
  6
DOT_CENTER
 62
     7
100
AcDbCircle
 10
89.5
 20
16.0
 30
0.0
 40
0.1000000000000227
  0
CIRCLE
  5
81
330
38
100
AcDbEntity
  8
1
  6
Continuous
 62
     7
100
AcDbCircle
 10
187.0
 20
23.50000000000001
 30
0.0
 40
2.0
  0
CIRCLE
  5
82
330
38
100
AcDbEntity
  8
1
  6
Continuous
 62
     7
100
AcDbCircle
 10
187.0
 20
23.50000000000001
 30
0.0
 40
1.200000000000102
  0
CIRCLE
  5
83
330
38
100
AcDbEntity
  8
1
  6
Continuous
 62
     7
100
AcDbCircle
 10
154.5
 20
12.5
 30
0.0
 40
0.3000000000000114
  0
CIRCLE
  5
84
330
38
100
AcDbEntity
  8
1
  6
Continuous
 62
     7
100
AcDbCircle
 10
160.5
 20
12.5
 30
0.0
 40
0.3000000000000114
  0
CIRCLE
  5
85
330
38
100
AcDbEntity
  8
1
  6
Continuous
 62
     7
100
AcDbCircle
 10
143.5
 20
12.5
 30
0.0
 40
0.3000000000000114
  0
CIRCLE
  5
86
330
38
100
AcDbEntity
  8
1
  6
Continuous
 62
     7
100
AcDbCircle
 10
137.5
 20
12.5
 30
0.0
 40
0.3000000000000114
  0
CIRCLE
  5
87
330
38
100
AcDbEntity
  8
1
  6
Continuous
 62
     7
100
AcDbCircle
 10
126.5
 20
12.5
 30
0.0
 40
0.2999999999999972
  0
CIRCLE
  5
88
330
38
100
AcDbEntity
  8
1
  6
Continuous
 62
     7
100
AcDbCircle
 10
120.5
 20
12.5
 30
0.0
 40
0.2999999999999972
  0
CIRCLE
  5
89
330
38
100
AcDbEntity
  8
1
  6
Continuous
 62
     7
100
AcDbCircle
 10
109.5
 20
12.5
 30
0.0
 40
0.2999999999999972
  0
CIRCLE
  5
8A
330
38
100
AcDbEntity
  8
1
  6
Continuous
 62
     7
100
AcDbCircle
 10
103.5
 20
12.5
 30
0.0
 40
0.2999999999999972
  0
MTEXT
  5
8C
330
38
100
AcDbEntity
  8
1
 62
   250
100
AcDbMText
 10
25.0
 20
5.0
 30
0.0
 40
3.5
 41
0.0
 71
     4
 72
     1
  1
備考欄の文字列 原点位置=4
  7
CONVERTER_1
 73
     1
 44
0.7202881152461
  0
MTEXT
  5
8D
330
38
100
AcDbEntity
  8
1
 62
     2
100
AcDbMText
 10
89.5
 20
24.00000000000001
 30
0.0
 40
3.5
 41
0.0
 71
     5
 72
     1
  1
尺度
  7
CONVERTER_1
 73
     1
 44
0.7202881152461
  0
MTEXT
  5
8E
330
38
100
AcDbEntity
  8
1
 62
     2
100
AcDbMText
 10
135.5
 20
25.00000000000001
 30
0.0
 40
3.0
 41
0.0
 71
     5
 72
     1
  1
製図
  7
CONVERTER_1
 73
     1
 44
0.78031212484994
  0
MTEXT
  5
8F
330
38
100
AcDbEntity
  8
1
 62
     2
100
AcDbMText
 10
152.5
 20
25.00000000000001
 30
0.0
 40
3.0
 41
0.0
 71
     5
 72
     1
  1
担当
  7
CONVERTER_1
 73
     1
 44
0.78031212484994
  0
MTEXT
  5
90
330
38
100
AcDbEntity
  8
1
 62
     2
100
AcDbMText
 10
118.5
 20
25.00000000000001
 30
0.0
 40
3.0
 41
0.0
 71
     5
 72
     1
  1
検図
  7
CONVERTER_1
 73
     1
 44
0.78031212484994
  0
MTEXT
  5
91
330
38
100
AcDbEntity
  8
1
 62
     2
100
AcDbMText
 10
175.0
 20
23.50000000000001
 30
0.0
 40
3.5
 41
0.0
 71
     5
 72
     1
  1
第三角法
  7
CONVERTER_1
 73
     1
 44
0.7202881152461
  0
MTEXT
  5
92
330
38
100
AcDbEntity
  8
1
 62
     2
100
AcDbMText
 10
101.5
 20
25.00000000000001
 30
0.0
 40
3.0
 41
0.0
 71
     5
 72
     1
  1
承認
  7
CONVERTER_1
 73
     1
 44
0.78031212484994
  0
MTEXT
  5
93
330
38
100
AcDbEntity
  8
1
 62
     2
100
AcDbMText
 10
29.0
 20
14.25
 30
0.0
 40
3.5
 41
0.0
 71
     5
 72
     1
  1
品番
  7
CONVERTER_1
 73
     1
 44
0.96038415366146
  0
MTEXT
  5
94
330
38
100
AcDbEntity
  8
1
 62
     2
100
AcDbMText
 10
29.0
 20
22.75
 30
0.0
 40
3.5
 41
0.0
 71
     5
 72
     1
  1
品名
  7
CONVERTER_1
 73
     1
 44
0.96038415366146
  0
MTEXT
  5
95
330
38
100
AcDbEntity
  8
1
 62
     2
100
AcDbMText
 10
29.0
 20
34.00000000000001
 30
0.0
 40
3.5
 41
0.0
 71
     5
 72
     1
  1
備考
  7
CONVERTER_1
 73
     1
 44
0.60024009603842
  0
MTEXT
  5
96
330
38
100
AcDbEntity
  8
1
 62
     2
100
AcDbMText
 10
32.5
 20
282.0000000000003
 30
0.0
 40
5.0
 41
0.0
 71
     5
 72
     1
  1
図番
  7
CONVERTER_1
 73
     1
 44
0.60024009603842
  0
MTEXT
  5
97
330
38
100
AcDbEntity
  8
1
 62
     7
100
AcDbMText
 10
171.5
 20
15.0
 30
0.0
 40
2.5
 41
0.0
 71
     5
 72
     1
  1
株式会社
  7
CONVERTER_1
 73
     1
 44
1.32052821128451
  0
MTEXT
  5
98
330
38
100
AcDbEntity
  8
1
 62
     7
100
AcDbMText
 10
188.5
 20
15.0
 30
0.0
 40
3.0
 41
0.0
 71
     5
 72
     1
  1
三栄水栓製作所
  7
CONVERTER_1
 73
     1
 44
1.32052821128451
  0
ENDBLK
  5
3A
330
38
100
AcDbEntity
  8
0
100
AcDbBlockEnd
  0
BLOCK
  5
3C
330
3B
100
AcDbEntity
  8
0
100
AcDbBlockBegin
  2
TOP
 70
     0
 71
     0
 10
-1164.977900588241
 20
1268.646873687883
 30
0.0
  3
TOP
  1

  0
SPLINE
  5
99
330
3B
100
AcDbEntity
  8
CAPA_1
  6
Continuous
 62
     7
100
AcDbSpline
210
0.0
220
0.0
230
1.0
 70
    11
 71
     3
 72
    97
 73
    93
 74
    91
 42
0.0000000001
 43
0.0000000001
 44
0.00000001
 40
0.0
 40
0.0
 40
0.0
 40
0.0
 40
3.21176337368302
 40
6.378481155734449
 40
9.641079040523815
 40
10.81491228136465
 40
14.10124370609539
 40
19.35415372142079
 40
26.42772273404575
 40
35.17603115067582
 40
45.45315937801665
 40
57.11318782277414
 40
70.01019689165612
 40
83.9982669913707
 40
98.93147852862711
 40
114.6639119101359
 40
131.0496475426094
 40
147.9427658327622
 40
165.1973471873106
 40
182.6674720129749
 40
200.2072207164786
 40
217.6706737045492
 40
234.9119113839232
 40
251.7850141613422
 40
268.1440624435613
 40
283.8431366373499
 40
298.7363171495002
 40
312.6776843868365
 40
325.5213187562337
 40
337.1213006646456
 40
340.9826820437575
 40
344.7478660534869
 40
348.6718465790575
 40
357.6717044340508
 40
368.1955364844368
 40
380.1157547661742
 40
393.3047713149294
 40
407.6349981662098
 40
422.9788473554287
 40
439.2087309179405
 40
456.1970608890609
 40
473.8162493040788
 40
491.9387081982643
 40
510.4368496068731
 40
529.1830855651515
 40
548.0498281083374
 40
566.9094892716623
 40
585.634481090354
 40
604.0972155996357
 40
622.1701048347276
 40
639.7255608308475
 40
656.6359956232112
 40
672.7738212470327
 40
688.0114497375247
 40
702.2212931298983
 40
715.2757634593642
 40
727.0472727611322
 40
737.4082330704113
 40
746.2310564224099
 40
753.3881548523372
 40
758.7519403954029
 40
762.1948250868217
 40
763.5892209618476
 40
767.5504465745936
 40
771.3763711837313
 40
775.2891084567914
 40
780.7724050984663
 40
786.2772459914393
 40
813.7019849428747
 40
840.6984516065404
 40
867.3522331753241
 40
893.7381125388123
 40
919.9206422423977
 40
945.9550228698793
 40
971.8882333745092
 40
997.7603579221058
 40
1023.606056601227
 40
1049.456133470885
 40
1075.339162544951
 40
1101.283138623001
 40
1127.317124150012
 40
1153.472864907728
 40
1179.786346243815
 40
1206.299258170597
 40
1233.06033293273
 40
1260.126513924736
 40
1287.563911870779
 40
1315.448504846312
 40
1337.286793009679
 40
1358.84201762966
 40
1380.150708631121
 40
1401.245661972051
 40
1401.245661972051
 40
1401.245661972051
 40
1401.245661972051
 10
991.7162773223439
 20
1431.96377735735
 30
0.0
 10
992.7180803375663
 20
1432.38224776262
 30
0.0
 10
994.7076358903546
 20
1433.213319446205
 30
0.0
 10
996.7423549864188
 20
1435.901471185385
 30
0.0
 10
997.254455871196
 20
1438.45032131359
 30
0.0
 10
997.1960942804401
 20
1441.02292893729
 30
0.0
 10
997.2268933400912
 20
1444.261493080676
 30
0.0
 10
997.2100217328925
 20
1449.465290772481
 30
0.0
 10
997.216844990211
 20
1456.490418199041
 30
0.0
 10
997.2140111525899
 20
1465.190013497717
 30
0.0
 10
997.2146176799026
 20
1475.418526902832
 30
0.0
 10
997.2140157102884
 20
1487.029907352581
 30
0.0
 10
997.2137623296762
 20
1499.878279089986
 30
0.0
 10
997.2133682124143
 20
1513.817708551122
 30
0.0
 10
997.2129909564479
 20
1528.702280446867
 30
0.0
 10
997.2125901369068
 20
1544.38607389204
 30
0.0
 10
997.2121843068135
 20
1560.723169676929
 30
0.0
 10
997.2117752312854
 20
1577.567648080475
 30
0.0
 10
997.2113677607047
 20
1594.773589613121
 30
0.0
 10
997.2109724914819
 20
1612.195074395235
 30
0.0
 10
997.2105733861762
 20
1629.686183883251
 30
0.0
 10
997.210255149683
 20
1647.100994584488
 30
0.0
 10
997.2097307378076
 20
1664.293601239357
 30
0.0
 10
997.2100660303013
 20
1681.118032237358
 30
0.0
 10
997.2074691450102
 20
1697.42855420061
 30
0.0
 10
997.2153388804102
 20
1713.078590688676
 30
0.0
 10
997.1872064288849
 20
1727.924501272586
 30
0.0
 10
997.281331614884
 20
1741.812605266536
 30
0.0
 10
996.9706399074373
 20
1754.622831988107
 30
0.0
 10
997.7818046846943
 20
1764.018048815819
 30
0.0
 10
996.5764599375849
 20
1770.486010473357
 30
0.0
 10
993.6194315721886
 20
1773.382824724969
 30
0.0
 10
988.007209084521
 20
1774.420465380504
 30
0.0
 10
980.2194953370241
 20
1773.826446146023
 30
0.0
 10
969.7272318508117
 20
1774.057712332072
 30
0.0
 10
957.8530892412306
 20
1773.983204880753
 30
0.0
 10
944.7054944136971
 20
1774.006911942878
 30
0.0
 10
930.4181334828986
 20
1774.000251941105
 30
0.0
 10
915.1167135682015
 20
1774.002873607667
 30
0.0
 10
898.9293885383388
 20
1774.002837904433
 30
0.0
 10
881.9835795120989
 20
1774.003655158734
 30
0.0
 10
864.4069228090641
 20
1774.004298331827
 30
0.0
 10
846.3269925865143
 20
1774.005051001772
 30
0.0
 10
827.8713806997713
 20
1774.005823581888
 30
0.0
 10
809.1676740301425
 20
1774.006631347706
 30
0.0
 10
790.3434608404302
 20
1774.007460437808
 30
0.0
 10
771.5263290140467
 20
1774.0083049892
 30
0.0
 10
752.8438665371299
 20
1774.009156950103
 30
0.0
 10
734.4236613696612
 20
1774.010008885928
 30
0.0
 10
716.3933014731945
 20
1774.010853076521
 30
0.0
 10
698.880374828266
 20
1774.011682299512
 30
0.0
 10
682.0124693415457
 20
1774.012487692426
 30
0.0
 10
665.9171731804094
 20
1774.013266105935
 30
0.0
 10
650.7220736108243
 20
1774.013994653857
 30
0.0
 10
636.5547609619789
 20
1774.014717518231
 30
0.0
 10
623.5428153589988
 20
1774.015255473846
 30
0.0
 10
611.8138501049319
 20
1774.016155704185
 30
0.0
 10
601.4953738675822
 20
1774.015674499475
 30
0.0
 10
592.7152123405576
 20
1774.019009193573
 30
0.0
 10
585.6002826848364
 20
1774.011465590422
 30
0.0
 10
580.2798979106998
 20
1774.030804808339
 30
0.0
 10
576.8778693895227
 20
1773.994334574869
 30
0.0
 10
573.9486171545603
 20
1774.072915549498
 30
0.0
 10
570.8545639023367
 20
1773.33859456163
 30
0.0
 10
567.8796635799033
 20
1770.451836380507
 30
0.0
 10
566.9895322300513
 20
1765.988713687687
 30
0.0
 10
567.1260761591948
 20
1761.044532682991
 30
0.0
 10
566.8834464894412
 20
1748.22802839624
 30
0.0
 10
567.8174441841201
 20
1728.254082890027
 30
0.0
 10
571.1001268360603
 20
1701.401137512657
 30
0.0
 10
576.548446181806
 20
1675.252918829358
 30
0.0
 10
584.0066578842403
 20
1649.891410087354
 30
0.0
 10
593.4037295611493
 20
1625.403562629733
 30
0.0
 10
604.6465559237985
 20
1601.874653225164
 30
0.0
 10
617.6481772744369
 20
1579.390142304956
 30
0.0
 10
632.3203472907205
 20
1558.035293795164
 30
0.0
 10
648.5755073542991
 20
1537.895381003334
 30
0.0
 10
666.3262388444655
 20
1519.055724631254
 30
0.0
 10
685.4853699756425
 20
1501.601761301496
 30
0.0
 10
705.9658956411322
 20
1485.619090251826
 30
0.0
 10
727.6809373341731
 20
1471.193512248396
 30
0.0
 10
750.5436838644574
 20
1458.411060129989
 30
0.0
 10
774.4673262424199
 20
1447.358008387433
 30
0.0
 10
799.3649934112682
 20
1438.120904606934
 30
0.0
 10
825.1496529086483
 20
1430.786445351193
 30
0.0
 10
851.7341300340537
 20
1425.441849133773
 30
0.0
 10
879.0306877717496
 20
1422.173231722975
 30
0.0
 10
904.758428600165
 20
1421.158044520665
 30
0.0
 10
928.522339225865
 20
1421.887637975176
 30
0.0
 10
950.0053139798524
 20
1423.914291956395
 30
0.0
 10
971.100597981743
 20
1427.138322522021
 30
0.0
 10
984.8675151504547
 20
1430.360706607541
 30
0.0
 10
991.7162773223439
 20
1431.96377735735
 30
0.0
 11
991.7162773223439
 21
1431.96377735735
 31
0.0
 11
994.558557128274
 21
1433.459394110845
 31
0.0
 11
996.4979951134959
 21
1435.962728250076
 31
0.0
 11
997.2154047757407
 21
1439.145473658422
 31
0.0
 11
997.2153728206122
 21
1440.319306898828
 31
0.0
 11
997.2152804571579
 21
1443.605638322261
 31
0.0
 11
997.2151329382763
 21
1448.858548335515
 31
0.0
 11
997.2149355168647
 21
1455.932117345385
 31
0.0
 11
997.2146934458215
 21
1464.680425758666
 31
0.0
 11
997.2144119780442
 21
1474.957553982152
 31
0.0
 11
997.214096366431
 21
1486.617582422638
 31
0.0
 11
997.2137518638792
 21
1499.514591486919
 31
0.0
 11
997.2133837232872
 21
1513.502661581789
 31
0.0
 11
997.2129971975527
 21
1528.435873114043
 31
0.0
 11
997.2125975395734
 21
1544.168306490476
 31
0.0
 11
997.2121900022473
 21
1560.554042117881
 31
0.0
 11
997.2117798384725
 21
1577.447160403054
 31
0.0
 11
997.2113723011465
 21
1594.70174175279
 31
0.0
 11
997.2109726431672
 21
1612.171866573883
 31
0.0
 11
997.2105861174325
 21
1629.711615273128
 31
0.0
 11
997.2102179768406
 21
1647.175068257318
 31
0.0
 11
997.209873474289
 21
1664.41630593325
 31
0.0
 11
997.2095578626756
 21
1681.289408707717
 31
0.0
 11
997.2092763948983
 21
1697.648456987515
 31
0.0
 11
997.2090343238551
 21
1713.347531179437
 31
0.0
 11
997.2088369024436
 21
1728.240711690279
 31
0.0
 11
997.2086893835619
 21
1742.182078926835
 31
0.0
 11
997.2085970201079
 21
1755.0257132959
 31
0.0
 11
997.2085650649791
 21
1766.625695204268
 31
0.0
 11
996.1924880327534
 21
1770.350994335819
 31
0.0
 11
993.5120813815498
 21
1772.995239182898
 31
0.0
 11
989.7190817795776
 21
1774.000613334394
 31
0.0
 11
980.7192239247569
 21
1774.000669065371
 31
0.0
 11
970.1953918756196
 21
1774.000831191848
 31
0.0
 11
958.275173596738
 21
1774.001092114148
 31
0.0
 11
945.0861570526831
 21
1774.00144423259
 31
0.0
 11
930.7559302080268
 21
1774.001879947498
 31
0.0
 11
915.4120810273406
 21
1774.002391659192
 31
0.0
 11
899.1821974751963
 21
1774.002971767994
 31
0.0
 11
882.1938675161654
 21
1774.003612674225
 31
0.0
 11
864.5746791148196
 21
1774.004306778206
 31
0.0
 11
846.4522202357302
 21
1774.005046480258
 31
0.0
 11
827.9540788434695
 21
1774.005824180704
 31
0.0
 11
809.2078429026086
 21
1774.006632279865
 31
0.0
 11
790.3411003777193
 21
1774.007463178061
 31
0.0
 11
771.4814392333734
 21
1774.008309275615
 31
0.0
 11
752.7564474341423
 21
1774.009162972847
 31
0.0
 11
734.2937129445977
 21
1774.010016670079
 31
0.0
 11
716.2208237293112
 21
1774.010862767632
 31
0.0
 11
698.6653677528544
 21
1774.011693665828
 31
0.0
 11
681.754932979799
 21
1774.012501764989
 31
0.0
 11
665.6171073747166
 21
1774.013279465435
 31
0.0
 11
650.3794789021789
 21
1774.014019167488
 31
0.0
 11
636.1696355267576
 21
1774.014713271468
 31
0.0
 11
623.1151652130243
 21
1774.0153541777
 31
0.0
 11
611.3436559255504
 21
1774.015934286501
 31
0.0
 11
600.9826956289076
 21
1774.016445998195
 31
0.0
 11
592.1598722876678
 21
1774.016881713103
 31
0.0
 11
585.0027738664023
 21
1774.017233831546
 31
0.0
 11
579.6389883296829
 21
1774.017494753845
 31
0.0
 11
576.1961036420814
 21
1774.017656880322
 31
0.0
 11
574.8017077681692
 21
1774.017712611299
 31
0.0
 11
570.9756495641731
 21
1772.991755996861
 31
0.0
 11
568.255344600185
 21
1770.301469763445
 31
0.0
 11
567.2198883874647
 21
1766.528229325899
 31
0.0
 11
567.0835216541244
 21
1761.046628631335
 31
0.0
 11
567.0420559076241
 21
1755.541943912951
 31
0.0
 11
568.1682942238595
 21
1728.14034005826
 31
0.0
 11
571.4887126078055
 21
1701.348848235706
 31
0.0
 11
576.9158662123223
 21
1675.253444892025
 31
0.0
 11
584.362310190269
 21
1649.940106473953
 31
0.0
 11
593.7405996945061
 21
1625.494809428225
 31
0.0
 11
604.9632898778931
 21
1602.003530201578
 31
0.0
 11
617.9429358932899
 21
1579.552245240747
 31
0.0
 11
632.5920928935567
 21
1558.226930992467
 31
0.0
 11
648.8233160315527
 21
1538.113563903476
 31
0.0
 11
666.549160460138
 21
1519.298120420507
 31
0.0
 11
685.6821813321724
 21
1501.866576990298
 31
0.0
 11
706.1349338005159
 21
1485.904910059583
 31
0.0
 11
727.8199730180285
 21
1471.499096075099
 31
0.0
 11
750.6498541375694
 21
1458.735111483581
 31
0.0
 11
774.5371323119988
 21
1447.698932731766
 31
0.0
 11
799.3943626941766
 21
1438.476536266388
 31
0.0
 11
825.1341004369624
 21
1431.153898534184
 31
0.0
 11
851.6689006932168
 21
1425.816995981889
 31
0.0
 11
878.9113186157983
 21
1422.551805056239
 31
0.0
 11
906.7739093575677
 21
1421.44430220397
 31
0.0
 11
928.6016706821613
 21
1422.122288533345
 31
0.0
 11
950.0632937399738
 21
1424.128888678418
 31
0.0
 11
971.1158165977773
 21
1427.423064374612
 31
0.0
 11
991.7162773223439
 21
1431.96377735735
 31
0.0
  0
SPLINE
  5
9A
330
3B
100
AcDbEntity
  8
CAPA_1
  6
Continuous
 62
     7
100
AcDbSpline
210
0.0
220
0.0
230
1.0
 70
    11
 71
     3
 72
    97
 73
    93
 74
    91
 42
0.0000000001
 43
0.0000000001
 44
0.00000001
 40
0.0
 40
0.0
 40
0.0
 40
0.0
 40
3.21176337368302
 40
6.378481155734449
 40
9.641079040523815
 40
10.81491228136465
 40
14.10124370609539
 40
19.35415372142079
 40
26.42772273404575
 40
35.17603115067582
 40
45.45315937801665
 40
57.11318782277414
 40
70.01019689165612
 40
83.9982669913707
 40
98.93147852862711
 40
114.6639119101359
 40
131.0496475426094
 40
147.9427658327622
 40
165.1973471873106
 40
182.6674720129749
 40
200.2072207164786
 40
217.6706737045492
 40
234.9119113839232
 40
251.7850141613422
 40
268.1440624435613
 40
283.8431366373499
 40
298.7363171495002
 40
312.6776843868365
 40
325.5213187562337
 40
337.1213006646456
 40
340.9826820437575
 40
344.7478660534869
 40
348.6718465790575
 40
357.6717044340508
 40
368.1955364844368
 40
380.1157547661742
 40
393.3047713149294
 40
407.6349981662098
 40
422.9788473554287
 40
439.2087309179405
 40
456.1970608890609
 40
473.8162493040788
 40
491.9387081982643
 40
510.4368496068731
 40
529.1830855651515
 40
548.0498281083374
 40
566.9094892716623
 40
585.634481090354
 40
604.0972155996357
 40
622.1701048347276
 40
639.7255608308475
 40
656.6359956232112
 40
672.7738212470327
 40
688.0114497375247
 40
702.2212931298983
 40
715.2757634593642
 40
727.0472727611322
 40
737.4082330704113
 40
746.2310564224099
 40
753.3881548523372
 40
758.7519403954029
 40
762.1948250868217
 40
763.5892209618476
 40
767.5504465745936
 40
771.3763711837313
 40
775.2891084567914
 40
780.7724050984663
 40
786.2772459914393
 40
813.7019849428747
 40
840.6984516065404
 40
867.3522331753241
 40
893.7381125388123
 40
919.9206422423977
 40
945.9550228698793
 40
971.8882333745092
 40
997.7603579221058
 40
1023.606056601227
 40
1049.456133470885
 40
1075.339162544951
 40
1101.283138623001
 40
1127.317124150012
 40
1153.472864907728
 40
1179.786346243815
 40
1206.299258170597
 40
1233.06033293273
 40
1260.126513924736
 40
1287.563911870779
 40
1315.448504846312
 40
1337.286793009679
 40
1358.84201762966
 40
1380.150708631121
 40
1401.245661972051
 40
1401.245661972051
 40
1401.245661972051
 40
1401.245661972051
 10
991.7162773223439
 20
1431.96377735735
 30
0.0
 10
992.7180803375663
 20
1432.38224776262
 30
0.0
 10
994.7076358903546
 20
1433.213319446205
 30
0.0
 10
996.7423549864188
 20
1435.901471185385
 30
0.0
 10
997.254455871196
 20
1438.45032131359
 30
0.0
 10
997.1960942804401
 20
1441.02292893729
 30
0.0
 10
997.2268933400912
 20
1444.261493080676
 30
0.0
 10
997.2100217328925
 20
1449.465290772481
 30
0.0
 10
997.216844990211
 20
1456.490418199041
 30
0.0
 10
997.2140111525899
 20
1465.190013497717
 30
0.0
 10
997.2146176799026
 20
1475.418526902832
 30
0.0
 10
997.2140157102884
 20
1487.029907352581
 30
0.0
 10
997.2137623296762
 20
1499.878279089986
 30
0.0
 10
997.2133682124143
 20
1513.817708551122
 30
0.0
 10
997.2129909564479
 20
1528.702280446867
 30
0.0
 10
997.2125901369068
 20
1544.38607389204
 30
0.0
 10
997.2121843068135
 20
1560.723169676929
 30
0.0
 10
997.2117752312854
 20
1577.567648080475
 30
0.0
 10
997.2113677607047
 20
1594.773589613121
 30
0.0
 10
997.2109724914819
 20
1612.195074395235
 30
0.0
 10
997.2105733861762
 20
1629.686183883251
 30
0.0
 10
997.210255149683
 20
1647.100994584488
 30
0.0
 10
997.2097307378076
 20
1664.293601239357
 30
0.0
 10
997.2100660303013
 20
1681.118032237358
 30
0.0
 10
997.2074691450102
 20
1697.42855420061
 30
0.0
 10
997.2153388804102
 20
1713.078590688676
 30
0.0
 10
997.1872064288849
 20
1727.924501272586
 30
0.0
 10
997.281331614884
 20
1741.812605266536
 30
0.0
 10
996.9706399074373
 20
1754.622831988107
 30
0.0
 10
997.7818046846943
 20
1764.018048815819
 30
0.0
 10
996.5764599375849
 20
1770.486010473357
 30
0.0
 10
993.6194315721886
 20
1773.382824724969
 30
0.0
 10
988.007209084521
 20
1774.420465380504
 30
0.0
 10
980.2194953370241
 20
1773.826446146023
 30
0.0
 10
969.7272318508117
 20
1774.057712332072
 30
0.0
 10
957.8530892412306
 20
1773.983204880753
 30
0.0
 10
944.7054944136971
 20
1774.006911942878
 30
0.0
 10
930.4181334828986
 20
1774.000251941105
 30
0.0
 10
915.1167135682015
 20
1774.002873607667
 30
0.0
 10
898.9293885383388
 20
1774.002837904433
 30
0.0
 10
881.9835795120989
 20
1774.003655158734
 30
0.0
 10
864.4069228090641
 20
1774.004298331827
 30
0.0
 10
846.3269925865143
 20
1774.005051001772
 30
0.0
 10
827.8713806997713
 20
1774.005823581888
 30
0.0
 10
809.1676740301425
 20
1774.006631347706
 30
0.0
 10
790.3434608404302
 20
1774.007460437808
 30
0.0
 10
771.5263290140467
 20
1774.0083049892
 30
0.0
 10
752.8438665371299
 20
1774.009156950103
 30
0.0
 10
734.4236613696612
 20
1774.010008885928
 30
0.0
 10
716.3933014731945
 20
1774.010853076521
 30
0.0
 10
698.880374828266
 20
1774.011682299512
 30
0.0
 10
682.0124693415457
 20
1774.012487692426
 30
0.0
 10
665.9171731804094
 20
1774.013266105935
 30
0.0
 10
650.7220736108243
 20
1774.013994653857
 30
0.0
 10
636.5547609619789
 20
1774.014717518231
 30
0.0
 10
623.5428153589988
 20
1774.015255473846
 30
0.0
 10
611.8138501049319
 20
1774.016155704185
 30
0.0
 10
601.4953738675822
 20
1774.015674499475
 30
0.0
 10
592.7152123405576
 20
1774.019009193573
 30
0.0
 10
585.6002826848364
 20
1774.011465590422
 30
0.0
 10
580.2798979106998
 20
1774.030804808339
 30
0.0
 10
576.8778693895227
 20
1773.994334574869
 30
0.0
 10
573.9486171545603
 20
1774.072915549498
 30
0.0
 10
570.8545639023367
 20
1773.33859456163
 30
0.0
 10
567.8796635799033
 20
1770.451836380507
 30
0.0
 10
566.9895322300513
 20
1765.988713687687
 30
0.0
 10
567.1260761591948
 20
1761.044532682991
 30
0.0
 10
566.8834464894412
 20
1748.22802839624
 30
0.0
 10
567.8174441841201
 20
1728.254082890027
 30
0.0
 10
571.1001268360603
 20
1701.401137512657
 30
0.0
 10
576.548446181806
 20
1675.252918829358
 30
0.0
 10
584.0066578842403
 20
1649.891410087354
 30
0.0
 10
593.4037295611493
 20
1625.403562629733
 30
0.0
 10
604.6465559237985
 20
1601.874653225164
 30
0.0
 10
617.6481772744369
 20
1579.390142304956
 30
0.0
 10
632.3203472907205
 20
1558.035293795164
 30
0.0
 10
648.5755073542991
 20
1537.895381003334
 30
0.0
 10
666.3262388444655
 20
1519.055724631254
 30
0.0
 10
685.4853699756425
 20
1501.601761301496
 30
0.0
 10
705.9658956411322
 20
1485.619090251826
 30
0.0
 10
727.6809373341731
 20
1471.193512248396
 30
0.0
 10
750.5436838644574
 20
1458.411060129989
 30
0.0
 10
774.4673262424199
 20
1447.358008387433
 30
0.0
 10
799.3649934112682
 20
1438.120904606934
 30
0.0
 10
825.1496529086483
 20
1430.786445351193
 30
0.0
 10
851.7341300340537
 20
1425.441849133773
 30
0.0
 10
879.0306877717496
 20
1422.173231722975
 30
0.0
 10
904.758428600165
 20
1421.158044520665
 30
0.0
 10
928.522339225865
 20
1421.887637975176
 30
0.0
 10
950.0053139798524
 20
1423.914291956395
 30
0.0
 10
971.100597981743
 20
1427.138322522021
 30
0.0
 10
984.8675151504547
 20
1430.360706607541
 30
0.0
 10
991.7162773223439
 20
1431.96377735735
 30
0.0
 11
991.7162773223439
 21
1431.96377735735
 31
0.0
 11
994.558557128274
 21
1433.459394110845
 31
0.0
 11
996.4979951134959
 21
1435.962728250076
 31
0.0
 11
997.2154047757407
 21
1439.145473658422
 31
0.0
 11
997.2153728206122
 21
1440.319306898828
 31
0.0
 11
997.2152804571579
 21
1443.605638322261
 31
0.0
 11
997.2151329382763
 21
1448.858548335515
 31
0.0
 11
997.2149355168647
 21
1455.932117345385
 31
0.0
 11
997.2146934458215
 21
1464.680425758666
 31
0.0
 11
997.2144119780442
 21
1474.957553982152
 31
0.0
 11
997.214096366431
 21
1486.617582422638
 31
0.0
 11
997.2137518638792
 21
1499.514591486919
 31
0.0
 11
997.2133837232872
 21
1513.502661581789
 31
0.0
 11
997.2129971975527
 21
1528.435873114043
 31
0.0
 11
997.2125975395734
 21
1544.168306490476
 31
0.0
 11
997.2121900022473
 21
1560.554042117881
 31
0.0
 11
997.2117798384725
 21
1577.447160403054
 31
0.0
 11
997.2113723011465
 21
1594.70174175279
 31
0.0
 11
997.2109726431672
 21
1612.171866573883
 31
0.0
 11
997.2105861174325
 21
1629.711615273128
 31
0.0
 11
997.2102179768406
 21
1647.175068257318
 31
0.0
 11
997.209873474289
 21
1664.41630593325
 31
0.0
 11
997.2095578626756
 21
1681.289408707717
 31
0.0
 11
997.2092763948983
 21
1697.648456987515
 31
0.0
 11
997.2090343238551
 21
1713.347531179437
 31
0.0
 11
997.2088369024436
 21
1728.240711690279
 31
0.0
 11
997.2086893835619
 21
1742.182078926835
 31
0.0
 11
997.2085970201079
 21
1755.0257132959
 31
0.0
 11
997.2085650649791
 21
1766.625695204268
 31
0.0
 11
996.1924880327534
 21
1770.350994335819
 31
0.0
 11
993.5120813815498
 21
1772.995239182898
 31
0.0
 11
989.7190817795776
 21
1774.000613334394
 31
0.0
 11
980.7192239247569
 21
1774.000669065371
 31
0.0
 11
970.1953918756196
 21
1774.000831191848
 31
0.0
 11
958.275173596738
 21
1774.001092114148
 31
0.0
 11
945.0861570526831
 21
1774.00144423259
 31
0.0
 11
930.7559302080268
 21
1774.001879947498
 31
0.0
 11
915.4120810273406
 21
1774.002391659192
 31
0.0
 11
899.1821974751963
 21
1774.002971767994
 31
0.0
 11
882.1938675161654
 21
1774.003612674225
 31
0.0
 11
864.5746791148196
 21
1774.004306778206
 31
0.0
 11
846.4522202357302
 21
1774.005046480258
 31
0.0
 11
827.9540788434695
 21
1774.005824180704
 31
0.0
 11
809.2078429026086
 21
1774.006632279865
 31
0.0
 11
790.3411003777193
 21
1774.007463178061
 31
0.0
 11
771.4814392333734
 21
1774.008309275615
 31
0.0
 11
752.7564474341423
 21
1774.009162972847
 31
0.0
 11
734.2937129445977
 21
1774.010016670079
 31
0.0
 11
716.2208237293112
 21
1774.010862767632
 31
0.0
 11
698.6653677528544
 21
1774.011693665828
 31
0.0
 11
681.754932979799
 21
1774.012501764989
 31
0.0
 11
665.6171073747166
 21
1774.013279465435
 31
0.0
 11
650.3794789021789
 21
1774.014019167488
 31
0.0
 11
636.1696355267576
 21
1774.014713271468
 31
0.0
 11
623.1151652130243
 21
1774.0153541777
 31
0.0
 11
611.3436559255504
 21
1774.015934286501
 31
0.0
 11
600.9826956289076
 21
1774.016445998195
 31
0.0
 11
592.1598722876678
 21
1774.016881713103
 31
0.0
 11
585.0027738664023
 21
1774.017233831546
 31
0.0
 11
579.6389883296829
 21
1774.017494753845
 31
0.0
 11
576.1961036420814
 21
1774.017656880322
 31
0.0
 11
574.8017077681692
 21
1774.017712611299
 31
0.0
 11
570.9756495641731
 21
1772.991755996861
 31
0.0
 11
568.255344600185
 21
1770.301469763445
 31
0.0
 11
567.2198883874647
 21
1766.528229325899
 31
0.0
 11
567.0835216541244
 21
1761.046628631335
 31
0.0
 11
567.0420559076241
 21
1755.541943912951
 31
0.0
 11
568.1682942238595
 21
1728.14034005826
 31
0.0
 11
571.4887126078055
 21
1701.348848235706
 31
0.0
 11
576.9158662123223
 21
1675.253444892025
 31
0.0
 11
584.362310190269
 21
1649.940106473953
 31
0.0
 11
593.7405996945061
 21
1625.494809428225
 31
0.0
 11
604.9632898778931
 21
1602.003530201578
 31
0.0
 11
617.9429358932899
 21
1579.552245240747
 31
0.0
 11
632.5920928935567
 21
1558.226930992467
 31
0.0
 11
648.8233160315527
 21
1538.113563903476
 31
0.0
 11
666.549160460138
 21
1519.298120420507
 31
0.0
 11
685.6821813321724
 21
1501.866576990298
 31
0.0
 11
706.1349338005159
 21
1485.904910059583
 31
0.0
 11
727.8199730180285
 21
1471.499096075099
 31
0.0
 11
750.6498541375694
 21
1458.735111483581
 31
0.0
 11
774.5371323119988
 21
1447.698932731766
 31
0.0
 11
799.3943626941766
 21
1438.476536266388
 31
0.0
 11
825.1341004369624
 21
1431.153898534184
 31
0.0
 11
851.6689006932168
 21
1425.816995981889
 31
0.0
 11
878.9113186157983
 21
1422.551805056239
 31
0.0
 11
906.7739093575677
 21
1421.44430220397
 31
0.0
 11
928.6016706821613
 21
1422.122288533345
 31
0.0
 11
950.0632937399738
 21
1424.128888678418
 31
0.0
 11
971.1158165977773
 21
1427.423064374612
 31
0.0
 11
991.7162773223439
 21
1431.96377735735
 31
0.0
  0
ENDBLK
  5
3D
330
3B
100
AcDbEntity
  8
0
100
AcDbBlockEnd
  0
BLOCK
  5
E8
330
DF
100
AcDbEntity
  8
0
100
AcDbBlockBegin
  2
*D03
 70
     1
 71
     0
 10
0.0
 20
0.0
 30
0.0
  3
*D03
  1

  0
LINE
  5
E0
330
DF
100
AcDbEntity
  8
1
  6
Continuous
 62
     2
100
AcDbLine
 10
997.2513395799557
 20
667.142977660474
 30
0.0
 11
1053.251339579956
 21
667.142977660474
 31
0.0
  0
LINE
  5
E1
330
DF
100
AcDbEntity
  8
1
  6
Continuous
 62
     2
100
AcDbLine
 10
929.3637925567737
 20
667.142977660474
 30
0.0
 11
997.2513395799557
 21
667.142977660474
 31
0.0
  0
LINE
  5
E2
330
DF
100
AcDbEntity
  8
1
  6
Continuous
 62
     2
100
AcDbLine
 10
873.3637925567737
 20
667.142977660474
 30
0.0
 11
929.3637925567737
 21
667.142977660474
 31
0.0
  0
LINE
  5
E3
330
DF
100
AcDbEntity
  8
1
  6
Continuous
 62
     2
100
AcDbLine
 10
929.3637925567737
 20
827.9038024322549
 30
0.0
 11
929.3637925567737
 21
659.142977660474
 31
0.0
  0
LINE
  5
E4
330
DF
100
AcDbEntity
  8
1
  6
Continuous
 62
     2
100
AcDbLine
 10
997.2513395799557
 20
776.2446660153138
 30
0.0
 11
997.2513395799557
 21
659.142977660474
 31
0.0
  0
SOLID
  5
E5
330
DF
100
AcDbEntity
  8
1
 62
     2
100
AcDbTrace
 10
901.3637925567737
 20
663.4567077280269
 30
0.0
 11
901.3637925567737
 21
670.8292475929211
 31
0.0
 12
929.3637925567737
 22
667.142977660474
 32
0.0
 13
929.3637925567737
 23
667.142977660474
 33
0.0
  0
SOLID
  5
E6
330
DF
100
AcDbEntity
  8
1
 62
     2
100
AcDbTrace
 10
1025.251339579956
 20
670.8292475929211
 30
0.0
 11
1025.251339579956
 21
663.4567077280269
 31
0.0
 12
997.2513395799557
 22
667.142977660474
 32
0.0
 13
997.2513395799557
 23
667.142977660474
 33
0.0
  0
MTEXT
  5
E7
330
DF
100
AcDbEntity
  8
1
 62
     7
100
AcDbMText
 10
944.998275552191
 20
675.142977660474
 30
0.0
 40
28.0
 41
0.0
 71
     7
 72
     1
  1
70
  7
CONVERTER_2
 11
0.9999999999970621
 21
2.424068405545307E-6
 31
0.0
 73
     1
 44
0.60024009603842
  0
ENDBLK
  5
E9
330
DF
100
AcDbEntity
  8
0
100
AcDbBlockEnd
  0
BLOCK
  5
F4
330
EC
100
AcDbEntity
  8
0
100
AcDbBlockBegin
  2
*D14
 70
     1
 71
     0
 10
0.0
 20
0.0
 30
0.0
  3
*D14
  1

  0
LINE
  5
ED
330
EC
100
AcDbEntity
  8
1
  6
Continuous
 62
     2
100
AcDbLine
 10
1017.303717067335
 20
887.2246171757381
 30
0.0
 11
1017.303717067335
 21
776.2946660153137
 31
0.0
  0
LINE
  5
EE
330
EC
100
AcDbEntity
  8
1
  6
Continuous
 62
     2
100
AcDbLine
 10
1017.303717067335
 20
954.3140252594501
 30
0.0
 11
1017.303717067335
 21
887.2246171757381
 31
0.0
  0
LINE
  5
EF
330
EC
100
AcDbEntity
  8
1
  6
Continuous
 62
     2
100
AcDbLine
 10
993.4088673183592
 20
887.2246171757381
 30
0.0
 11
1025.303717067335
 21
887.2246171757381
 31
0.0
  0
LINE
  5
F0
330
EC
100
AcDbEntity
  8
1
  6
Continuous
 62
     2
100
AcDbLine
 10
997.3013395799557
 20
776.2946660153137
 30
0.0
 11
1025.303717067335
 21
776.2946660153137
 31
0.0
  0
SOLID
  5
F1
330
EC
100
AcDbEntity
  8
1
 62
     2
100
AcDbTrace
 10
1020.989986999782
 20
859.2246171757381
 30
0.0
 11
1013.617447134888
 21
859.2246171757381
 31
0.0
 12
1017.303717067335
 22
887.2246171757381
 32
0.0
 13
1017.303717067335
 23
887.2246171757381
 33
0.0
  0
SOLID
  5
F2
330
EC
100
AcDbEntity
  8
1
 62
     2
100
AcDbTrace
 10
1013.617447134888
 20
804.2946660153137
 30
0.0
 11
1020.989986999782
 21
804.2946660153137
 31
0.0
 12
1017.303717067335
 22
776.2946660153137
 32
0.0
 13
1017.303717067335
 23
776.2946660153137
 33
0.0
  0
MTEXT
  5
F3
330
EC
100
AcDbEntity
  8
1
 62
     7
100
AcDbMText
 10
1009.303717067335
 20
903.91402525945
 30
0.0
 40
28.0
 41
0.0
 71
     7
 72
     1
  1
110
  7
CONVERTER_2
 11
0.0
 21
1.0
 31
0.0
 73
     1
 44
0.60024009603842
  0
ENDBLK
  5
F5
330
EC
100
AcDbEntity
  8
0
100
AcDbBlockEnd
  0
BLOCK
  5
FF
330
F8
100
AcDbEntity
  8
0
100
AcDbBlockBegin
  2
*D25
 70
     1
 71
     0
 10
0.0
 20
0.0
 30
0.0
  3
*D25
  1

  0
LINE
  5
F9
330
F8
100
AcDbEntity
  8
1
  6
Continuous
 62
     2
100
AcDbLine
 10
766.5547382128298
 20
1048.1801830983
 30
0.0
 11
929.3637925567737
 21
1048.1801830983
 31
0.0
  0
LINE
  5
FA
330
F8
100
AcDbEntity
  8
1
  6
Continuous
 62
     2
100
AcDbLine
 10
766.5547382128298
 20
858.7509066244779
 30
0.0
 11
766.5547382128298
 21
1056.1801830983
 31
0.0
  0
LINE
  5
FB
330
F8
100
AcDbEntity
  8
1
  6
Continuous
 62
     2
100
AcDbLine
 10
929.3637925567737
 20
858.7509066244779
 30
0.0
 11
929.3637925567737
 21
1056.1801830983
 31
0.0
  0
SOLID
  5
FC
330
F8
100
AcDbEntity
  8
1
 62
     2
100
AcDbTrace
 10
794.5547382128298
 20
1051.866453030747
 30
0.0
 11
794.5547382128298
 21
1044.493913165853
 31
0.0
 12
766.5547382128298
 22
1048.1801830983
 32
0.0
 13
766.5547382128298
 23
1048.1801830983
 33
0.0
  0
SOLID
  5
FD
330
F8
100
AcDbEntity
  8
1
 62
     2
100
AcDbTrace
 10
901.3637925567737
 20
1044.493913165853
 30
0.0
 11
901.3637925567737
 21
1051.866453030747
 31
0.0
 12
929.3637925567737
 22
1048.1801830983
 32
0.0
 13
929.3637925567737
 23
1048.1801830983
 33
0.0
  0
MTEXT
  5
FE
330
F8
100
AcDbEntity
  8
1
 62
     7
100
AcDbMText
 10
809.8061500203261
 20
1056.1801830983
 30
0.0
 40
28.0
 41
0.0
 71
     7
 72
     1
  1
165
  7
CONVERTER_2
 11
0.9999999999970621
 21
2.424068405545307E-6
 31
0.0
 73
     1
 44
0.60024009603842
  0
ENDBLK
  5
100
330
F8
100
AcDbEntity
  8
0
100
AcDbBlockEnd
  0
BLOCK
  5
10A
330
103
100
AcDbEntity
  8
0
100
AcDbBlockBegin
  2
*D36
 70
     1
 71
     0
 10
0.0
 20
0.0
 30
0.0
  3
*D36
  1

  0
LINE
  5
104
330
103
100
AcDbEntity
  8
1
  6
Continuous
 62
     2
100
AcDbLine
 10
1126.68477638042
 20
754.3299882048823
 30
0.0
 11
1126.68477638042
 21
887.2246171757381
 31
0.0
  0
LINE
  5
105
330
103
100
AcDbEntity
  8
1
  6
Continuous
 62
     2
100
AcDbLine
 10
893.7996178568728
 20
754.3299882048823
 30
0.0
 11
1134.68477638042
 21
754.3299882048823
 31
0.0
  0
LINE
  5
106
330
103
100
AcDbEntity
  8
1
  6
Continuous
 62
     2
100
AcDbLine
 10
993.4088673183592
 20
887.2246171757381
 30
0.0
 11
1134.68477638042
 21
887.2246171757381
 31
0.0
  0
SOLID
  5
107
330
103
100
AcDbEntity
  8
1
 62
     2
100
AcDbTrace
 10
1122.998506447973
 20
782.3299882048823
 30
0.0
 11
1130.371046312867
 21
782.3299882048823
 31
0.0
 12
1126.68477638042
 22
754.3299882048823
 32
0.0
 13
1126.68477638042
 23
754.3299882048823
 33
0.0
  0
SOLID
  5
108
330
103
100
AcDbEntity
  8
1
 62
     2
100
AcDbTrace
 10
1130.371046312867
 20
859.2246171757381
 30
0.0
 11
1122.998506447973
 21
859.2246171757381
 31
0.0
 12
1126.68477638042
 22
887.2246171757381
 32
0.0
 13
1126.68477638042
 23
887.2246171757381
 33
0.0
  0
MTEXT
  5
109
330
103
100
AcDbEntity
  8
1
 62
     7
100
AcDbMText
 10
1118.68477638042
 20
787.0674466188701
 30
0.0
 40
28.0
 41
0.0
 71
     7
 72
     1
  1
130
  7
CONVERTER_2
 11
0.0
 21
1.0
 31
0.0
 73
     1
 44
0.60024009603842
  0
ENDBLK
  5
10B
330
103
100
AcDbEntity
  8
0
100
AcDbBlockEnd
  0
BLOCK
  5
115
330
10E
100
AcDbEntity
  8
0
100
AcDbBlockBegin
  2
*D47
 70
     1
 71
     0
 10
0.0
 20
0.0
 30
0.0
  3
*D47
  1

  0
LINE
  5
10F
330
10E
100
AcDbEntity
  8
1
  6
Continuous
 62
     2
100
AcDbLine
 10
997.2153249035029
 20
1277.900771919684
 30
0.0
 11
783.4949640573117
 21
1277.900771919684
 31
0.0
  0
LINE
  5
110
330
10E
100
AcDbEntity
  8
1
  6
Continuous
 62
     2
100
AcDbLine
 10
997.2153249035029
 20
1439.139392934408
 30
0.0
 11
997.2153249035029
 21
1269.900771919684
 31
0.0
  0
LINE
  5
111
330
10E
100
AcDbEntity
  8
1
  6
Continuous
 62
     2
100
AcDbLine
 10
783.4949640573117
 20
1573.153057057123
 30
0.0
 11
783.4949640573117
 21
1269.900771919684
 31
0.0
  0
SOLID
  5
112
330
10E
100
AcDbEntity
  8
1
 62
     2
100
AcDbTrace
 10
969.2153249035029
 20
1274.214501987237
 30
0.0
 11
969.2153249035029
 21
1281.587041852131
 31
0.0
 12
997.2153249035029
 22
1277.900771919684
 32
0.0
 13
997.2153249035029
 23
1277.900771919684
 33
0.0
  0
SOLID
  5
113
330
10E
100
AcDbEntity
  8
1
 62
     2
100
AcDbTrace
 10
811.4949640573117
 20
1281.587041852131
 30
0.0
 11
811.4949640573117
 21
1274.214501987237
 31
0.0
 12
783.4949640573117
 22
1277.900771919684
 32
0.0
 13
783.4949640573117
 23
1277.900771919684
 33
0.0
  0
MTEXT
  5
114
330
10E
100
AcDbEntity
  8
1
 62
     7
100
AcDbMText
 10
860.9551839481582
 20
1285.900771919684
 30
0.0
 40
28.0
 41
0.0
 71
     7
 72
     1
  1
215
  7
CONVERTER_2
 11
0.9999999999970621
 21
2.424068405545307E-6
 31
0.0
 73
     1
 44
0.60024009603842
  0
ENDBLK
  5
116
330
10E
100
AcDbEntity
  8
0
100
AcDbBlockEnd
  0
BLOCK
  5
120
330
119
100
AcDbEntity
  8
0
100
AcDbBlockBegin
  2
*D58
 70
     1
 71
     0
 10
0.0
 20
0.0
 30
0.0
  3
*D58
  1

  0
LINE
  5
11A
330
119
100
AcDbEntity
  8
1
  6
Continuous
 62
     2
100
AcDbLine
 10
856.1737214212575
 20
1341.900771919684
 30
0.0
 11
997.2153249035029
 21
1341.900771919684
 31
0.0
  0
LINE
  5
11B
330
119
100
AcDbEntity
  8
1
  6
Continuous
 62
     2
100
AcDbLine
 10
856.1737214212575
 20
1670.850942785299
 30
0.0
 11
856.1737214212575
 21
1333.900771919684
 31
0.0
  0
LINE
  5
11C
330
119
100
AcDbEntity
  8
1
  6
Continuous
 62
     2
100
AcDbLine
 10
997.2153249035029
 20
1439.139392934408
 30
0.0
 11
997.2153249035029
 21
1333.900771919684
 31
0.0
  0
SOLID
  5
11D
330
119
100
AcDbEntity
  8
1
 62
     2
100
AcDbTrace
 10
884.1737214212575
 20
1345.587041852131
 30
0.0
 11
884.1737214212575
 21
1338.214501987237
 31
0.0
 12
856.1737214212575
 22
1341.900771919684
 32
0.0
 13
856.1737214212575
 23
1341.900771919684
 33
0.0
  0
SOLID
  5
11E
330
119
100
AcDbEntity
  8
1
 62
     2
100
AcDbTrace
 10
969.2153249035029
 20
1338.214501987237
 30
0.0
 11
969.2153249035029
 21
1345.587041852131
 31
0.0
 12
997.2153249035029
 22
1341.900771919684
 32
0.0
 13
997.2153249035029
 23
1341.900771919684
 33
0.0
  0
MTEXT
  5
11F
330
119
100
AcDbEntity
  8
1
 62
     7
100
AcDbMText
 10
897.2945626301311
 20
1349.900771919684
 30
0.0
 40
28.0
 41
0.0
 71
     7
 72
     1
  1
140
  7
CONVERTER_2
 11
0.9999999999970621
 21
2.424068405545307E-6
 31
0.0
 73
     1
 44
0.60024009603842
  0
ENDBLK
  5
121
330
119
100
AcDbEntity
  8
0
100
AcDbBlockEnd
  0
BLOCK
  5
12B
330
124
100
AcDbEntity
  8
0
100
AcDbBlockBegin
  2
*D69
 70
     1
 71
     0
 10
0.0
 20
0.0
 30
0.0
  3
*D69
  1

  0
LINE
  5
125
330
124
100
AcDbEntity
  8
1
  6
Continuous
 62
     2
100
AcDbLine
 10
1265.743836137019
 20
1151.685301988803
 30
0.0
 11
1338.394967045477
 21
1224.336991752413
 31
0.0
  0
LINE
  5
126
330
124
100
AcDbEntity
  8
1
  6
Continuous
 62
     2
100
AcDbLine
 10
1189.790883418963
 20
1227.637670457558
 30
0.0
 11
1271.400712143529
 21
1146.028469496412
 31
0.0
  0
LINE
  5
127
330
124
100
AcDbEntity
  8
1
  6
Continuous
 62
     2
100
AcDbLine
 10
1262.148183286986
 20
1300.58318900138
 30
0.0
 11
1344.051843051987
 21
1218.680159260022
 31
0.0
  0
SOLID
  5
128
330
124
100
AcDbEntity
  8
1
 62
     2
100
AcDbTrace
 10
1282.936153368587
 20
1174.09094445279
 30
0.0
 11
1288.149346352182
 21
1168.877791570393
 31
0.0
 12
1265.743836137019
 22
1151.685301988803
 32
0.0
 13
1265.743836137019
 23
1151.685301988803
 33
0.0
  0
SOLID
  5
129
330
124
100
AcDbEntity
  8
1
 62
     2
100
AcDbTrace
 10
1321.20264981391
 20
1201.931349288426
 30
0.0
 11
1315.989456830314
 21
1207.144502170823
 31
0.0
 12
1338.394967045477
 22
1224.336991752413
 32
0.0
 13
1338.394967045477
 23
1224.336991752413
 33
0.0
  0
MTEXT
  5
12A
330
124
100
AcDbEntity
  8
1
 62
     7
100
AcDbMText
 10
1284.132316372233
 20
1181.387675687296
 30
0.0
 40
28.0
 41
0.0
 71
     7
 72
     1
  1
103
  7
CONVERTER_2
 11
0.7071040615488555
 21
0.7071095008137794
 31
0.0
 73
     1
 44
0.60024009603842
  0
ENDBLK
  5
12C
330
124
100
AcDbEntity
  8
0
100
AcDbBlockEnd
  0
BLOCK
  5
136
330
12F
100
AcDbEntity
  8
0
100
AcDbBlockBegin
  2
*D710
 70
     1
 71
     0
 10
0.0
 20
0.0
 30
0.0
  3
*D710
  1

  0
LINE
  5
130
330
12F
100
AcDbEntity
  8
1
  6
Continuous
 62
     2
100
AcDbLine
 10
1251.43167422632
 20
1421.444353240543
 30
0.0
 11
1251.43167422632
 21
1774.017559936017
 31
0.0
  0
LINE
  5
131
330
12F
100
AcDbEntity
  8
1
  6
Continuous
 62
     2
100
AcDbLine
 10
891.2653249035027
 20
1421.444353240543
 30
0.0
 11
1259.43167422632
 21
1421.444353240543
 31
0.0
  0
LINE
  5
132
330
12F
100
AcDbEntity
  8
1
  6
Continuous
 62
     2
100
AcDbLine
 10
997.2585622344501
 20
1774.017559936017
 30
0.0
 11
1259.43167422632
 21
1774.017559936017
 31
0.0
  0
SOLID
  5
133
330
12F
100
AcDbEntity
  8
1
 62
     2
100
AcDbTrace
 10
1247.745404293873
 20
1449.444353240543
 30
0.0
 11
1255.117944158767
 21
1449.444353240543
 31
0.0
 12
1251.43167422632
 22
1421.444353240543
 32
0.0
 13
1251.43167422632
 23
1421.444353240543
 33
0.0
  0
SOLID
  5
134
330
12F
100
AcDbEntity
  8
1
 62
     2
100
AcDbTrace
 10
1255.117944158767
 20
1746.017559936017
 30
0.0
 11
1247.745404293873
 21
1746.017559936017
 31
0.0
 12
1251.43167422632
 22
1774.017559936017
 32
0.0
 13
1251.43167422632
 23
1774.017559936017
 33
0.0
  0
MTEXT
  5
135
330
12F
100
AcDbEntity
  8
1
 62
     7
100
AcDbMText
 10
1243.43167422632
 20
1566.44240001457
 30
0.0
 40
28.0
 41
0.0
 71
     7
 72
     1
  1
350
  7
CONVERTER_2
 11
0.0
 21
1.0
 31
0.0
 73
     1
 44
0.60024009603842
  0
ENDBLK
  5
137
330
12F
100
AcDbEntity
  8
0
100
AcDbBlockEnd
  0
BLOCK
  5
141
330
13A
100
AcDbEntity
  8
0
100
AcDbBlockBegin
  2
*D811
 70
     1
 71
     0
 10
0.0
 20
0.0
 30
0.0
  3
*D811
  1

  0
LINE
  5
13B
330
13A
100
AcDbEntity
  8
1
  6
Continuous
 62
     2
100
AcDbLine
 10
567.1181354306201
 20
1854.000617414529
 30
0.0
 11
997.2085622344501
 21
1854.000617414529
 31
0.0
  0
LINE
  5
13C
330
13A
100
AcDbEntity
  8
1
  6
Continuous
 62
     2
100
AcDbLine
 10
997.2085622344501
 20
1774.067559936017
 30
0.0
 11
997.2085622344501
 21
1862.000617414529
 31
0.0
  0
LINE
  5
13D
330
13A
100
AcDbEntity
  8
1
  6
Continuous
 62
     2
100
AcDbLine
 10
567.1181354306201
 20
1774.067559936017
 30
0.0
 11
567.1181354306201
 21
1862.000617414529
 31
0.0
  0
SOLID
  5
13E
330
13A
100
AcDbEntity
  8
1
 62
     2
100
AcDbTrace
 10
595.1181354306201
 20
1857.686887346976
 30
0.0
 11
595.1181354306201
 21
1850.314347482082
 31
0.0
 12
567.1181354306201
 22
1854.000617414529
 32
0.0
 13
567.1181354306201
 23
1854.000617414529
 33
0.0
  0
SOLID
  5
13F
330
13A
100
AcDbEntity
  8
1
 62
     2
100
AcDbTrace
 10
969.2085622344501
 20
1850.314347482082
 30
0.0
 11
969.2085622344501
 21
1857.686887346976
 31
0.0
 12
997.2085622344501
 22
1854.000617414529
 32
0.0
 13
997.2085622344501
 23
1854.000617414529
 33
0.0
  0
MTEXT
  5
140
330
13A
100
AcDbEntity
  8
1
 62
     7
100
AcDbMText
 10
748.5633488325351
 20
1862.000617414529
 30
0.0
 40
28.0
 41
0.0
 71
     7
 72
     1
  1
430
  7
CONVERTER_2
 11
0.9999999999970621
 21
2.424068405545307E-6
 31
0.0
 73
     1
 44
0.60024009603842
  0
ENDBLK
  5
142
330
13A
100
AcDbEntity
  8
0
100
AcDbBlockEnd
  0
BLOCK
  5
14C
330
145
100
AcDbEntity
  8
0
100
AcDbBlockBegin
  2
*D912
 70
     1
 71
     0
 10
0.0
 20
0.0
 30
0.0
  3
*D912
  1

  0
LINE
  5
146
330
145
100
AcDbEntity
  8
1
  6
Continuous
 62
     2
100
AcDbLine
 10
1077.20856223445
 20
1633.935307144558
 30
0.0
 11
1077.20856223445
 21
1774.017559936018
 31
0.0
  0
LINE
  5
147
330
145
100
AcDbEntity
  8
1
  6
Continuous
 62
     2
100
AcDbLine
 10
997.25856223445
 20
1774.017559936018
 30
0.0
 11
1085.20856223445
 21
1774.017559936018
 31
0.0
  0
LINE
  5
148
330
145
100
AcDbEntity
  8
1
  6
Continuous
 62
     2
100
AcDbLine
 10
844.277214144746
 20
1633.935307144558
 30
0.0
 11
1085.20856223445
 21
1633.935307144558
 31
0.0
  0
SOLID
  5
149
330
145
100
AcDbEntity
  8
1
 62
     2
100
AcDbTrace
 10
1073.522292302003
 20
1661.935307144558
 30
0.0
 11
1080.894832166897
 21
1661.935307144558
 31
0.0
 12
1077.20856223445
 22
1633.935307144558
 32
0.0
 13
1077.20856223445
 23
1633.935307144558
 33
0.0
  0
SOLID
  5
14A
330
145
100
AcDbEntity
  8
1
 62
     2
100
AcDbTrace
 10
1080.894832166897
 20
1746.017559936018
 30
0.0
 11
1073.522292302003
 21
1746.017559936018
 31
0.0
 12
1077.20856223445
 22
1774.017559936018
 32
0.0
 13
1077.20856223445
 23
1774.017559936018
 33
0.0
  0
MTEXT
  5
14B
330
145
100
AcDbEntity
  8
1
 62
     7
100
AcDbMText
 10
1069.20856223445
 20
1674.581638025934
 30
0.0
 40
28.0
 41
0.0
 71
     7
 72
     1
  1
140
  7
CONVERTER_2
 11
0.0
 21
1.0
 31
0.0
 73
     1
 44
0.60024009603842
  0
ENDBLK
  5
14D
330
145
100
AcDbEntity
  8
0
100
AcDbBlockEnd
  0
BLOCK
  5
157
330
150
100
AcDbEntity
  8
0
100
AcDbBlockBegin
  2
*D1013
 70
     1
 71
     0
 10
0.0
 20
0.0
 30
0.0
  3
*D1013
  1

  0
LINE
  5
151
330
150
100
AcDbEntity
  8
1
  6
Continuous
 62
     2
100
AcDbLine
 10
1162.62183693096
 20
1439.189392934408
 30
0.0
 11
1162.62183693096
 21
1774.017559936017
 31
0.0
  0
LINE
  5
152
330
150
100
AcDbEntity
  8
1
  6
Continuous
 62
     2
100
AcDbLine
 10
997.25856223445
 20
1774.017559936017
 30
0.0
 11
1170.62183693096
 21
1774.017559936017
 31
0.0
  0
LINE
  5
153
330
150
100
AcDbEntity
  8
1
  6
Continuous
 62
     2
100
AcDbLine
 10
997.2653249035029
 20
1439.189392934408
 30
0.0
 11
1170.62183693096
 21
1439.189392934408
 31
0.0
  0
SOLID
  5
154
330
150
100
AcDbEntity
  8
1
 62
     2
100
AcDbTrace
 10
1158.935566998513
 20
1467.189392934408
 30
0.0
 11
1166.308106863407
 21
1467.189392934408
 31
0.0
 12
1162.62183693096
 22
1439.189392934408
 32
0.0
 13
1162.62183693096
 23
1439.189392934408
 33
0.0
  0
SOLID
  5
155
330
150
100
AcDbEntity
  8
1
 62
     2
100
AcDbTrace
 10
1166.308106863407
 20
1746.017559936017
 30
0.0
 11
1158.935566998513
 21
1746.017559936017
 31
0.0
 12
1162.62183693096
 22
1774.017559936017
 32
0.0
 13
1162.62183693096
 23
1774.017559936017
 33
0.0
  0
MTEXT
  5
156
330
150
100
AcDbEntity
  8
1
 62
     7
100
AcDbMText
 10
1154.62183693096
 20
1600.50125723212
 30
0.0
 40
28.0
 41
0.0
 71
     7
 72
     1
  1
340
  7
CONVERTER_2
 11
0.0
 21
1.0
 31
0.0
 73
     1
 44
0.60024009603842
  0
ENDBLK
  5
158
330
150
100
AcDbEntity
  8
0
100
AcDbBlockEnd
  0
BLOCK
  5
164
330
15B
100
AcDbEntity
  8
0
100
AcDbBlockBegin
  2
*D1114
 70
     1
 71
     0
 10
0.0
 20
0.0
 30
0.0
  3
*D1114
  1

  0
LINE
  5
15C
330
15B
100
AcDbEntity
  8
1
  6
Continuous
 62
     2
100
AcDbLine
 10
571.816413206506
 20
941.0384152366137
 30
0.0
 11
571.816413206506
 21
885.0384152366137
 31
0.0
  0
LINE
  5
15D
330
15B
100
AcDbEntity
  8
1
  6
Continuous
 62
     2
100
AcDbLine
 10
571.816413206506
 20
885.0384152366137
 30
0.0
 11
571.816413206506
 21
861.8287805005348
 31
0.0
  0
LINE
  5
15E
330
15B
100
AcDbEntity
  8
1
  6
Continuous
 62
     2
100
AcDbLine
 10
571.816413206506
 20
861.8287805005348
 30
0.0
 11
571.816413206506
 21
805.8287805005348
 31
0.0
  0
LINE
  5
15F
330
15B
100
AcDbEntity
  8
1
  6
Continuous
 62
     2
100
AcDbLine
 10
794.4607589527977
 20
861.8287805005348
 30
0.0
 11
563.816413206506
 21
861.8287805005348
 31
0.0
  0
LINE
  5
160
330
15B
100
AcDbEntity
  8
1
  6
Continuous
 62
     2
100
AcDbLine
 10
666.8283324783643
 20
885.0384152366137
 30
0.0
 11
563.816413206506
 21
885.0384152366137
 31
0.0
  0
SOLID
  5
161
330
15B
100
AcDbEntity
  8
1
 62
     2
100
AcDbTrace
 10
568.1301432740589
 20
913.0384152366137
 30
0.0
 11
575.5026831389531
 21
913.0384152366137
 31
0.0
 12
571.816413206506
 22
885.0384152366137
 32
0.0
 13
571.816413206506
 23
885.0384152366137
 33
0.0
  0
SOLID
  5
162
330
15B
100
AcDbEntity
  8
1
 62
     2
100
AcDbTrace
 10
575.5026831389531
 20
833.8287805005348
 30
0.0
 11
568.1301432740589
 21
833.8287805005348
 31
0.0
 12
571.816413206506
 22
861.8287805005348
 32
0.0
 13
571.816413206506
 23
861.8287805005348
 33
0.0
  0
MTEXT
  5
163
330
15B
100
AcDbEntity
  8
1
 62
     7
100
AcDbMText
 10
563.816413206506
 20
848.00218053502
 30
0.0
 40
28.0
 41
0.0
 71
     7
 72
     1
  1
25
  7
CONVERTER_2
 11
0.0
 21
1.0
 31
0.0
 73
     1
 44
0.60024009603842
  0
ENDBLK
  5
165
330
15B
100
AcDbEntity
  8
0
100
AcDbBlockEnd
  0
ENDSEC
  0
SECTION
  2
ENTITIES
  0
INSERT
  5
3E
330
1F
100
AcDbEntity
  8
1
100
AcDbBlockReference
  2
_J__A4
 10
0.0
 20
0.0
 30
0.0
 41
8.0
 42
8.0
 43
8.0
  0
INSERT
  5
3F
330
1F
100
AcDbEntity
  8
0
100
AcDbBlockReference
  2
TOP
 10
-1164.977900588241
 20
1268.646873687883
 30
0.0
  0
LINE
  5
9B
330
1F
100
AcDbEntity
  8
1
  6
PHANTOM
 62
     4
100
AcDbLine
 10
893.699617856873
 20
754.3299882048823
 30
0.0
 11
893.7996178568729
 21
754.3299882048823
 31
0.0
  0
LINE
  5
9C
330
1F
100
AcDbEntity
  8
1
  6
PHANTOM
 62
     4
100
AcDbLine
 10
893.749617856873
 20
754.2799882048823
 30
0.0
 11
893.749617856873
 21
754.3799882048822
 31
0.0
  0
LINE
  5
9D
330
1F
100
AcDbEntity
  8
1
  6
PHANTOM
 62
     4
100
AcDbLine
 10
997.2513395799557
 20
776.244666015314
 30
0.0
 11
997.2513395799557
 21
776.344666015314
 31
0.0
  0
LINE
  5
9E
330
1F
100
AcDbEntity
  8
1
  6
PHANTOM
 62
     4
100
AcDbLine
 10
997.2013395799557
 20
776.294666015314
 30
0.0
 11
997.3013395799557
 21
776.294666015314
 31
0.0
  0
LINE
  5
9F
330
1F
100
AcDbEntity
  8
1
  6
PHANTOM
 62
     4
100
AcDbLine
 10
993.3088673183593
 20
887.2246171757381
 30
0.0
 11
993.4088673183592
 21
887.2246171757381
 31
0.0
  0
LINE
  5
A0
330
1F
100
AcDbEntity
  8
1
  6
PHANTOM
 62
     4
100
AcDbLine
 10
993.3588673183592
 20
887.1746171757379
 30
0.0
 11
993.3588673183592
 21
887.2746171757381
 31
0.0
  0
LINE
  5
A1
330
1F
100
AcDbEntity
  8
1
  6
DASH_CENTER
 62
     2
100
AcDbLine
 10
856.1737214212575
 20
1670.850942785299
 30
0.0
 11
856.1737214212575
 21
1742.353262797645
 31
0.0
  0
LINE
  5
A2
330
1F
100
AcDbEntity
  8
1
  6
DASH_CENTER
 62
     2
100
AcDbLine
 10
820.4228102058877
 20
1706.668790604757
 30
0.0
 11
891.9246326366273
 21
1706.668790604757
 31
0.0
  0
LINE
  5
A3
330
1F
100
AcDbEntity
  8
CAPA_1
  6
DASH_CENTER
 62
     2
100
AcDbLine
 10
830.0682617132492
 20
1732.663110575115
 30
0.0
 11
1262.148183286986
 21
1300.58318900138
 31
0.0
  0
LINE
  5
A4
330
1F
100
AcDbEntity
  8
CAPA_1
  6
DASH_CENTER
 62
     2
100
AcDbLine
 10
744.5735817489198
 20
1672.851547403638
 30
0.0
 11
1189.790883418963
 21
1227.637670457558
 31
0.0
  0
LINE
  5
A5
330
1F
100
AcDbEntity
  8
CAPA_1
  6
Continuous
 62
     7
100
AcDbLine
 10
648.2140568365476
 20
876.452073873857
 30
0.0
 11
659.4277645194807
 21
876.452073873857
 31
0.0
  0
LINE
  5
A6
330
1F
100
AcDbEntity
  8
CAPA_1
  6
Continuous
 62
     7
100
AcDbLine
 10
814.7849570290009
 20
776.168234702298
 30
0.0
 11
898.4004165043216
 21
776.168234702298
 31
0.0
  0
LINE
  5
A7
330
1F
100
AcDbEntity
  8
CAPA_1
  6
Continuous
 62
     7
100
AcDbLine
 10
937.458589236513
 20
843.583846499721
 30
0.0
 11
948.6962302802403
 21
843.583846499721
 31
0.0
  0
LINE
  5
A8
330
1F
100
AcDbEntity
  8
CAPA_1
  6
Continuous
 62
     7
100
AcDbLine
 10
929.3637925567737
 20
839.7775487268459
 30
0.0
 11
929.3637925567737
 21
827.9038024322549
 31
0.0
  0
LINE
  5
A9
330
1F
100
AcDbEntity
  8
CAPA_1
  6
Continuous
 62
     7
100
AcDbLine
 10
921.2655711530715
 20
843.583846499721
 30
0.0
 11
910.0347696305325
 21
843.583846499721
 31
0.0
  0
LINE
  5
AA
330
1F
100
AcDbEntity
  8
CAPA_1
  6
Continuous
 62
     7
100
AcDbLine
 10
929.3637925567737
 20
847.396983793788
 30
0.0
 11
929.3637925567737
 21
858.7509066244779
 31
0.0
  0
LINE
  5
AB
330
1F
100
AcDbEntity
  8
CAPA_1
  6
Continuous
 62
     7
100
AcDbLine
 10
774.642695371379
 20
843.583846499721
 30
0.0
 11
785.890600660261
 21
843.583846499721
 31
0.0
  0
LINE
  5
AC
330
1F
100
AcDbEntity
  8
CAPA_1
  6
Continuous
 62
     7
100
AcDbLine
 10
766.5547382128298
 20
839.7775487268459
 30
0.0
 11
766.5547382128298
 21
827.9038024322549
 31
0.0
  0
LINE
  5
AD
330
1F
100
AcDbEntity
  8
CAPA_1
  6
Continuous
 62
     7
100
AcDbLine
 10
758.4599415330904
 20
843.583846499721
 30
0.0
 11
747.2222905626268
 21
843.583846499721
 31
0.0
  0
LINE
  5
AE
330
1F
100
AcDbEntity
  8
CAPA_1
  6
Continuous
 62
     7
100
AcDbLine
 10
766.5547382128298
 20
847.396983793788
 30
0.0
 11
766.5547382128298
 21
858.7509066244779
 31
0.0
  0
LINE
  5
AF
330
1F
100
AcDbEntity
  8
1
  6
PHANTOM
 62
     4
100
AcDbLine
 10
567.1181354306201
 20
1773.967559936017
 30
0.0
 11
567.1181354306201
 21
1774.067559936018
 31
0.0
  0
LINE
  5
B0
330
1F
100
AcDbEntity
  8
1
  6
PHANTOM
 62
     4
100
AcDbLine
 10
567.0681354306203
 20
1774.017559936017
 30
0.0
 11
567.1681354306202
 21
1774.017559936017
 31
0.0
  0
LINE
  5
B1
330
1F
100
AcDbEntity
  8
1
  6
PHANTOM
 62
     4
100
AcDbLine
 10
997.1585622344502
 20
1774.017559936017
 30
0.0
 11
997.2585622344501
 21
1774.017559936017
 31
0.0
  0
LINE
  5
B2
330
1F
100
AcDbEntity
  8
1
  6
PHANTOM
 62
     4
100
AcDbLine
 10
997.2085622344501
 20
1773.967559936017
 30
0.0
 11
997.2085622344501
 21
1774.067559936018
 31
0.0
  0
LINE
  5
B3
330
1F
100
AcDbEntity
  8
1
  6
DASH_CENTER
 62
     2
100
AcDbLine
 10
722.7127139698772
 20
1633.935307144557
 30
0.0
 11
844.2772141447462
 21
1633.935307144557
 31
0.0
  0
LINE
  5
B4
330
1F
100
AcDbEntity
  8
1
  6
DASH_CENTER
 62
     2
100
AcDbLine
 10
783.4949640573117
 20
1573.153057057123
 30
0.0
 11
783.4949640573117
 21
1694.717557231992
 31
0.0
  0
LINE
  5
B5
330
1F
100
AcDbEntity
  8
1
  6
PHANTOM
 62
     4
100
AcDbLine
 10
997.2153249035029
 20
1439.139392934408
 30
0.0
 11
997.2153249035029
 21
1439.239392934408
 31
0.0
  0
LINE
  5
B6
330
1F
100
AcDbEntity
  8
1
  6
PHANTOM
 62
     4
100
AcDbLine
 10
997.1653249035029
 20
1439.189392934408
 30
0.0
 11
997.2653249035028
 21
1439.189392934408
 31
0.0
  0
LINE
  5
B7
330
1F
100
AcDbEntity
  8
1
  6
PHANTOM
 62
     4
100
AcDbLine
 10
891.1653249035029
 20
1421.444353240543
 30
0.0
 11
891.2653249035028
 21
1421.444353240543
 31
0.0
  0
LINE
  5
B8
330
1F
100
AcDbEntity
  8
1
  6
PHANTOM
 62
     4
100
AcDbLine
 10
891.2153249035029
 20
1421.394353240543
 30
0.0
 11
891.2153249035029
 21
1421.494353240543
 31
0.0
  0
LINE
  5
B9
330
1F
100
AcDbEntity
  8
CAPA_1
  6
DASH_CENTER
 62
     2
100
AcDbLine
 10
807.555384596616
 20
848.4844974431835
 30
0.0
 11
807.555384596616
 21
875.179893152339
 31
0.0
  0
LINE
  5
BA
330
1F
100
AcDbEntity
  8
CAPA_1
  6
DASH_CENTER
 62
     2
100
AcDbLine
 10
820.6294916768666
 20
861.8287805005348
 30
0.0
 11
794.4607589527977
 21
861.8287805005348
 31
0.0
  0
CIRCLE
  5
BB
330
1F
100
AcDbEntity
  8
CAPA_1
  6
Continuous
 62
     7
100
AcDbCircle
 10
856.1737214212575
 20
1706.602102791472
 30
0.0
 40
17.87558000308673
  0
CIRCLE
  5
BC
330
1F
100
AcDbEntity
  8
CAPA_1
  6
Continuous
 62
     7
100
AcDbCircle
 10
783.4949640573117
 20
1633.931892347329
 30
0.0
 40
22.93868198322525
  0
CIRCLE
  5
BD
330
1F
100
AcDbEntity
  8
CAPA_1
  6
Continuous
 62
     7
100
AcDbCircle
 10
783.4949640573117
 20
1633.935307144557
 30
0.0
 40
36.78225008743448
  0
CIRCLE
  5
BE
330
1F
100
AcDbEntity
  8
CAPA_1
  6
DASHED
 62
     3
100
AcDbCircle
 10
807.5485450754268
 20
861.8287805005348
 30
0.0
 40
8.665911589196185
  0
SPLINE
  5
BF
330
1F
100
AcDbEntity
  8
CAPA_1
  6
Continuous
 62
     7
100
AcDbSpline
210
0.0
220
0.0
230
1.0
 70
     8
 71
     3
 72
    64
 73
    60
 74
    58
 42
0.0000000001
 43
0.0000000001
 44
0.00000001
 40
0.0
 40
0.0
 40
0.0
 40
0.0
 40
6.430443573626635
 40
12.67210414429422
 40
18.96000245268098
 40
25.50932263752334
 40
28.66939239399047
 40
34.44869498915803
 40
42.4447069638522
 40
52.25490485889937
 40
63.47676521512581
 40
75.70776457335758
 40
88.54537947442118
 40
101.5870864591428
 40
114.4303620683488
 40
126.6726828428653
 40
137.9115253235188
 40
147.7443660511352
 40
155.768681566541
 40
161.5819484105627
 40
162.9351536960665
 40
164.2332273843295
 40
166.278988356611
 40
172.0682616869744
 40
181.0790329956977
 40
192.7892879030611
 40
206.6770120293456
 40
222.2201909948347
 40
238.8968104198155
 40
256.1848559245789
 40
273.5623131294232
 40
290.5071676546573
 40
306.4974051206086
 40
321.0110111476382
 40
333.5259713561751
 40
343.5202713668148
 40
350.4718968006753
 40
353.858833281907
 40
355.2012431866751
 40
356.5932651945257
 40
358.1808725118614
 40
362.6619753903971
 40
369.6139952199234
 40
378.614353390233
 40
389.2404712911179
 40
401.0697703123704
 40
413.6796718437826
 40
426.6475972751483
 40
439.5509679962603
 40
451.9672053969142
 40
463.473730866907
 40
473.6479657960399
 40
482.0673315741228
 40
488.3092495909929
 40
491.9511412366005
 40
498.3770806800334
 40
504.615433205601
 40
510.901289929165
 40
517.4499614268515
 40
517.4499614268515
 40
517.4499614268515
 40
517.4499614268515
 10
601.692027801941
 20
1727.651317429556
 30
0.0
 10
601.9474443622866
 20
1729.810976388469
 30
0.0
 10
602.4507790414293
 20
1734.066891696668
 30
0.0
 10
606.2826515801791
 20
1739.385749155233
 30
0.0
 10
611.6733067245173
 20
1743.025680200381
 30
0.0
 10
617.0698255763052
 20
1743.929169406574
 30
0.0
 10
622.2235188009465
 20
1743.799413611446
 30
0.0
 10
627.8722588146657
 20
1743.850331922092
 30
0.0
 10
635.7325065590093
 20
1743.827919972921
 30
0.0
 10
645.4091130020515
 20
1743.836143333061
 30
0.0
 10
656.4966073372221
 20
1743.833424419425
 30
0.0
 10
668.5934876018671
 20
1743.834284704351
 30
0.0
 10
681.2969252512012
 20
1743.833928563286
 30
0.0
 10
694.2044080151733
 20
1743.834433945178
 30
0.0
 10
706.9137055383152
 20
1743.832822695433
 30
0.0
 10
719.0211690734514
 20
1743.838335421284
 30
0.0
 10
730.1280671842941
 20
1743.820349702779
 30
0.0
 10
739.8199643190635
 20
1743.874937442302
 30
0.0
 10
747.7285914657113
 20
1743.725861751621
 30
0.0
 10
752.7546075769694
 20
1744.028912281071
 30
0.0
 10
755.6183576474519
 20
1743.688322722693
 30
0.0
 10
756.909636307029
 20
1742.729335437324
 30
0.0
 10
758.9815936060448
 20
1740.517461894773
 30
0.0
 10
763.0717700626806
 20
1736.650123704028
 30
0.0
 10
769.3404325728673
 20
1730.431125964598
 30
0.0
 10
777.5958331358688
 20
1722.369103730586
 30
0.0
 10
787.3835514629185
 20
1712.764890058483
 30
0.0
 10
798.3612407040553
 20
1702.00798182662
 30
0.0
 10
810.1459219535029
 20
1690.455723673661
 30
0.0
 10
822.367998701215
 20
1678.476079445297
 30
0.0
 10
834.6535711703344
 20
1666.433484116841
 30
0.0
 10
846.6307643561775
 20
1654.694433128016
 30
0.0
 10
857.9244038969039
 20
1643.621199524422
 30
0.0
 10
868.1693271387395
 20
1633.589357038512
 30
0.0
 10
876.9692787708568
 20
1624.933039483991
 30
0.0
 10
884.0171480220196
 20
1618.105221285634
 30
0.0
 10
888.7824725890949
 20
1613.261113097072
 30
0.0
 10
891.6770171163382
 20
1610.687460192962
 30
0.0
 10
892.9810350159055
 20
1609.055021748727
 30
0.0
 10
893.1871709642988
 20
1607.58287304056
 30
0.0
 10
893.0967356206501
 20
1605.109781351559
 30
0.0
 10
893.1639245760209
 20
1600.759297016627
 30
0.0
 10
893.1289979439379
 20
1593.953498047114
 30
0.0
 10
893.1432190896808
 20
1585.09186463538
 30
0.0
 10
893.1386631427362
 20
1574.607345365532
 30
0.0
 10
893.1405044859441
 20
1562.918671571143
 30
0.0
 10
893.1404005011118
 20
1550.449700261325
 30
0.0
 10
893.1407937602777
 20
1537.622609845838
 30
0.0
 10
893.1413580263198
 20
1524.860122454885
 30
0.0
 10
893.1407470031486
 20
1512.584678144101
 30
0.0
 10
893.1441201720415
 20
1501.219228173515
 30
0.0
 10
893.1348304431733
 20
1491.185187785622
 30
0.0
 10
893.1615976870986
 20
1482.908535609623
 30
0.0
 10
893.0989954568086
 20
1476.803101556098
 30
0.0
 10
893.2592571136776
 20
1471.377691982633
 30
0.0
 10
892.3112272134257
 20
1465.876173015663
 30
0.0
 10
888.5734851629329
 20
1460.590921057277
 30
0.0
 10
883.1531542357195
 20
1456.859165535452
 30
0.0
 10
878.8437863707799
 20
1456.373079538166
 30
0.0
 10
876.6449806162021
 20
1456.125059707521
 30
0.0
 11
601.692027801941
 21
1727.651317429556
 31
0.0
 11
602.9881529915152
 21
1733.949782643126
 31
0.0
 11
606.5234284921023
 21
1739.09372605401
 31
0.0
 11
611.7682042014988
 21
1742.562154068938
 31
0.0
 11
618.1928300175008
 21
1743.83407309464
 31
0.0
 11
621.3528997739679
 21
1743.83407309464
 31
0.0
 11
627.1322023691355
 21
1743.83407309464
 31
0.0
 11
635.1282143438297
 21
1743.83407309464
 31
0.0
 11
644.9384122388768
 21
1743.83407309464
 31
0.0
 11
656.1602725951033
 21
1743.83407309464
 31
0.0
 11
668.391271953335
 21
1743.83407309464
 31
0.0
 11
681.2288868543986
 21
1743.83407309464
 31
0.0
 11
694.2705938391202
 21
1743.83407309464
 31
0.0
 11
707.1138694483262
 21
1743.83407309464
 31
0.0
 11
719.3561902228428
 21
1743.83407309464
 31
0.0
 11
730.5950327034963
 21
1743.83407309464
 31
0.0
 11
740.4278734311126
 21
1743.83407309464
 31
0.0
 11
748.4521889465185
 21
1743.83407309464
 31
0.0
 11
754.2654557905402
 21
1743.83407309464
 31
0.0
 11
755.593214642394
 21
1743.572881639881
 31
0.0
 11
756.6798736898539
 21
1742.862834166303
 31
0.0
 11
758.1408457609374
 21
1741.430808131894
 31
0.0
 11
762.2752313316859
 21
1737.378334609952
 31
0.0
 11
768.7102344383454
 21
1731.070820472402
 31
0.0
 11
777.0730591171629
 21
1722.87367259117
 31
0.0
 11
786.9909094043849
 21
1713.152297838182
 31
0.0
 11
798.0909893362577
 21
1702.272103085363
 31
0.0
 11
810.0005029490283
 21
1690.59849520464
 31
0.0
 11
822.3466542789429
 21
1678.496881067938
 31
0.0
 11
834.7566473622482
 21
1666.332667547184
 31
0.0
 11
846.8576862351907
 21
1654.471261514302
 31
0.0
 11
858.2769749340171
 21
1643.278069841219
 31
0.0
 11
868.6417174949736
 21
1633.118499399861
 31
0.0
 11
877.5791179543071
 21
1624.357957062153
 31
0.0
 11
884.7163803482642
 21
1617.361849700021
 31
0.0
 11
889.6807087130912
 21
1612.495584185392
 31
0.0
 11
892.0993070850349
 21
1610.12456739019
 31
0.0
 11
892.8615073531788
 21
1609.019526620055
 31
0.0
 11
893.1389431210004
 21
1607.655431804775
 31
0.0
 11
893.138986692491
 21
1606.067824488037
 31
0.0
 11
893.1391093006396
 21
1601.586721611179
 31
0.0
 11
893.1392987859598
 21
1594.634701784235
 31
0.0
 11
893.1395429889664
 21
1585.634343617238
 31
0.0
 11
893.139829750173
 21
1575.008225720223
 31
0.0
 11
893.1401469100942
 21
1563.178926703222
 31
0.0
 11
893.1404823092441
 21
1550.56902517627
 31
0.0
 11
893.1408237881369
 21
1537.6010997494
 31
0.0
 11
893.1411591872869
 21
1524.697729032647
 31
0.0
 11
893.141476347208
 21
1512.281491636044
 31
0.0
 11
893.1417631084148
 21
1500.774966169625
 31
0.0
 11
893.1420073114211
 21
1490.600731243423
 31
0.0
 11
893.1421967967415
 21
1482.181365467472
 31
0.0
 11
893.1423194048898
 21
1475.939447451806
 31
0.0
 11
893.1423629763807
 21
1472.297555806459
 31
0.0
 11
891.8467721392095
 21
1466.003579153078
 31
0.0
 11
888.3126722139091
 21
1460.862841856615
 31
0.0
 11
883.0690720798001
 21
1457.396337510339
 31
0.0
 11
876.6449806162021
 21
1456.125059707521
 31
0.0
  0
SPLINE
  5
C0
330
1F
100
AcDbEntity
  8
CAPA_1
  6
Continuous
 62
     7
100
AcDbSpline
210
0.0
220
0.0
230
1.0
 70
    11
 71
     3
 72
    48
 73
    44
 74
    42
 42
0.0000000001
 43
0.0000000001
 44
0.00000001
 40
0.0
 40
0.0
 40
0.0
 40
0.0
 40
5.321229297321679
 40
19.62691125350966
 40
40.4300369648995
 40
65.24359752782539
 40
91.58058403862196
 40
116.9539875936246
 40
138.8767992891676
 40
154.8620102215855
 40
162.422611487214
 40
171.4521245746599
 40
180.6150358125631
 40
242.8653070860637
 40
303.4414883493981
 40
362.9897032422082
 40
421.965983249857
 40
480.7368136256363
 40
539.6915678060484
 40
599.3552121720296
 40
660.4879268199761
 40
669.515231127054
 40
678.6646524034677
 40
686.0017517422458
 40
701.9287529882746
 40
724.0251199072226
 40
749.8703162647586
 40
777.043805826551
 40
803.1250523582684
 40
825.6935196255794
 40
842.3286713941525
 40
847.5825951443487
 40
852.6248708170128
 40
860.4462951014032
 40
881.1314407735923
 40
910.5116170621992
 40
944.4181331960525
 40
978.682298404417
 40
1009.13542191765
 40
1031.608812969832
 40
1041.933780821283
 40
1046.779671285539
 40
1051.77204409863
 40
1051.77204409863
 40
1051.77204409863
 40
1051.77204409863
 10
902.3828122170947
 20
1607.64859209401
 30
0.0
 10
902.3828142290341
 20
1605.874849385883
 30
0.0
 10
902.3828216499046
 20
1599.332547076808
 30
0.0
 10
902.3826677878245
 20
1585.855838188538
 30
0.0
 10
902.3836702704487
 20
1565.881910257174
 30
0.0
 10
902.3788750995673
 20
1541.896420818069
 30
0.0
 10
902.3981591867657
 20
1516.392184745833
 30
0.0
 10
902.3311372843566
 20
1491.834759813251
 30
0.0
 10
902.5283675012895
 20
1470.779278772362
 30
0.0
 10
902.0817027883095
 20
1455.536270592964
 30
0.0
 10
902.9139525902898
 20
1444.839559676525
 30
0.0
 10
899.8825466794719
 20
1435.666125644242
 30
0.0
 10
871.8378896271171
 20
1428.496421297296
 30
0.0
 10
829.1924462937038
 20
1442.583133689715
 30
0.0
 10
770.8733245687785
 20
1459.369046794979
 30
0.0
 10
718.581920561948
 20
1489.362427445337
 30
0.0
 10
672.6176164921754
 20
1526.909904702699
 30
0.0
 10
634.5547186587796
 20
1572.178616874447
 30
0.0
 10
604.2156145442787
 20
1623.657392038001
 30
0.0
 10
587.4088068889807
 20
1680.994127355417
 30
0.0
 10
573.30903831243
 20
1723.082390242744
 30
0.0
 10
580.8173846553757
 20
1750.619633949195
 30
0.0
 10
589.9706937144043
 20
1753.444858512294
 30
0.0
 10
600.6019663038396
 20
1752.690328597705
 30
0.0
 10
615.816218098747
 20
1753.100705636204
 30
0.0
 10
637.0637814724353
 20
1752.914521127971
 30
0.0
 10
662.1152990040872
 20
1752.987902510309
 30
0.0
 10
688.4832808796184
 20
1752.930079860648
 30
0.0
 10
713.7393632111243
 20
1753.070455718851
 30
0.0
 10
735.558058203039
 20
1752.668975479859
 30
0.0
 10
750.2535396002147
 20
1753.533698704282
 30
0.0
 10
759.3965407863446
 20
1752.374661594491
 30
0.0
 10
764.2383099497622
 20
1748.487892409877
 30
0.0
 10
771.9274816844489
 20
1740.468616252826
 30
0.0
 10
785.923557862455
 20
1727.101421421799
 30
0.0
 10
805.8107139532722
 20
1707.441015027305
 30
0.0
 10
829.0756967498996
 20
1684.714109509525
 30
0.0
 10
852.5151078925425
 20
1661.652846186151
 30
0.0
 10
873.3633896730983
 20
1641.445337241064
 30
0.0
 10
888.2157327799152
 20
1626.379165254914
 30
0.0
 10
897.4905556018362
 20
1618.066483331748
 30
0.0
 10
901.8284848323904
 20
1612.666960499358
 30
0.0
 10
902.1962113897213
 20
1609.337903721654
 30
0.0
 10
902.3828122170947
 20
1607.64859209401
 30
0.0
 11
902.3828122170947
 21
1607.64859209401
 31
0.0
 11
902.3828122170949
 21
1602.327362796688
 31
0.0
 11
902.3828122170947
 21
1588.0216808405
 31
0.0
 11
902.3828122170949
 21
1567.21855512911
 31
0.0
 11
902.3828122170947
 21
1542.404994566185
 31
0.0
 11
902.3828122170949
 21
1516.068008055388
 31
0.0
 11
902.3828122170947
 21
1490.694604500385
 31
0.0
 11
902.3828122170946
 21
1468.771792804842
 31
0.0
 11
902.3828122170949
 21
1452.786581872424
 31
0.0
 11
902.3828122170947
 21
1445.225980606796
 31
0.0
 11
898.8633535476463
 21
1436.910602246769
 31
0.0
 11
890.3756999727779
 21
1433.458258239183
 31
0.0
 11
828.7563315864605
 21
1442.298490888595
 31
0.0
 11
771.3941220800417
 21
1461.767714216454
 31
0.0
 11
719.3936580241134
 21
1490.783944758832
 31
0.0
 11
673.859525989268
 21
1528.265199051796
 31
0.0
 11
635.8963125460983
 21
1573.129493631416
 31
0.0
 11
606.6086042651966
 21
1624.294845033763
 31
0.0
 11
587.1009877171553
 21
1680.679269794905
 31
0.0
 11
578.4780494725668
 21
1741.200784450912
 31
0.0
 11
581.9898134674074
 21
1749.517017774787
 31
0.0
 11
590.4646425845971
 21
1752.965086963148
 31
0.0
 11
597.8017419233752
 21
1752.965086963148
 31
0.0
 11
613.728743169404
 21
1752.965086963148
 31
0.0
 11
635.825110088352
 21
1752.965086963148
 31
0.0
 11
661.670306445888
 21
1752.965086963148
 31
0.0
 11
688.8437960076803
 21
1752.965086963148
 31
0.0
 11
714.9250425393977
 21
1752.965086963148
 31
0.0
 11
737.4935098067087
 21
1752.965086963148
 31
0.0
 11
754.1286615752819
 21
1752.965086963148
 31
0.0
 11
759.2746889605389
 21
1751.905786758739
 31
0.0
 11
763.4204086467183
 21
1749.035673129845
 31
0.0
 11
769.0062214187452
 21
1743.56087874902
 31
0.0
 11
783.7789146030497
 21
1729.081832248574
 31
0.0
 11
804.7613705019668
 21
1708.51653859155
 31
0.0
 11
828.976471417832
 21
1684.783002740992
 31
0.0
 11
853.4470996529811
 21
1660.799229659944
 31
0.0
 11
875.1961375097495
 21
1639.483224311448
 31
0.0
 11
891.2464672904724
 21
1623.75299165855
 31
0.0
 11
898.6209712974854
 21
1616.526536664291
 31
0.0
 11
901.3726724337948
 21
1612.537702843736
 31
0.0
 11
902.3828122170947
 21
1607.64859209401
 31
0.0
  0
SPLINE
  5
C1
330
1F
100
AcDbEntity
  8
CAPA_1
  6
Continuous
 62
     7
100
AcDbSpline
210
0.0
220
0.0
230
1.0
 70
     8
 71
     3
 72
    16
 73
    12
 74
    10
 42
0.0000000001
 43
0.0000000001
 44
0.00000001
 40
0.0
 40
0.0
 40
0.0
 40
0.0
 40
12.35439341705462
 40
24.91126048987
 40
100.1595393601612
 40
172.9648694922283
 40
244.8195616707116
 40
317.0895259160899
 40
391.5395842640252
 40
402.9852719254187
 40
415.3676300990174
 40
415.3676300990174
 40
415.3676300990174
 40
415.3676300990174
 10
890.2286461913749
 20
1500.183056586911
 30
0.0
 10
889.4053580752391
 20
1495.609127536824
 30
0.0
 10
887.7452891404937
 20
1486.386308238255
 30
0.0
 10
849.3284359334981
 20
1484.97285981769
 30
0.0
 10
801.3139444686863
 20
1501.951480404596
 30
0.0
 10
735.1151985977473
 20
1536.880257692978
 30
0.0
 10
682.8256262638644
 20
1588.297398251747
 30
0.0
 10
648.3385412425766
 20
1653.495159481531
 30
0.0
 10
629.069086591363
 20
1701.762617752388
 30
0.0
 10
633.2532237592116
 20
1738.381524234622
 30
0.0
 10
641.9357558051748
 20
1740.150081014997
 30
0.0
 10
646.4476751791502
 20
1741.069120018725
 30
0.0
 11
890.2286461913749
 21
1500.183056586911
 31
0.0
 11
885.8170327492871
 21
1488.643182084086
 31
0.0
 11
873.5260725083084
 21
1486.072733282994
 31
0.0
 11
800.5041166142112
 21
1504.241316891565
 31
0.0
 11
737.0270044486208
 21
1539.896222960104
 31
0.0
 11
685.9084835840331
 21
1590.393684407995
 31
0.0
 11
649.9623015929437
 21
1653.089934154625
 31
0.0
 11
632.002206047849
 21
1725.341205119377
 31
0.0
 11
634.9826100127943
 21
1736.392040302652
 31
0.0
 11
646.4476751791502
 21
1741.069120018725
 31
0.0
  0
SPLINE
  5
C2
330
1F
100
AcDbEntity
  8
CAPA_1
  6
Continuous
 62
     7
100
AcDbSpline
210
0.0
220
0.0
230
1.0
 70
    11
 71
     3
 72
    51
 73
    47
 74
    45
 42
0.0000000001
 43
0.0000000001
 44
0.00000001
 40
0.0
 40
0.0
 40
0.0
 40
0.0
 40
5.728570471202524
 40
11.38416214053208
 40
44.68978554891393
 40
81.39669794354238
 40
120.1354900519828
 40
159.5367526009879
 40
198.2310763168704
 40
234.8490519256904
 40
268.0212701533484
 40
296.3783217256418
 40
318.5507973682974
 40
333.1692878069952
 40
338.864383767403
 40
343.6629496751222
 40
348.4106629834422
 40
390.794109303025
 40
434.1666559742377
 40
495.4692867313787
 40
555.0030684268807
 40
613.4135389373031
 40
671.1604439179339
 40
728.589183879062
 40
786.0151178687888
 40
843.8121240445058
 40
902.4973035596368
 40
962.8014937789608
 40
968.3063346719383
 40
973.7896313136115
 40
979.5271178210024
 40
985.3213924441808
 40
990.8102977261783
 40
1005.035971373374
 40
1026.742992449451
 40
1054.675940018053
 40
1087.579393142833
 40
1124.197930887464
 40
1163.276132315644
 40
1203.558576491119
 40
1243.789842477697
 40
1282.714509339298
 40
1319.077156140024
 40
1351.622361944331
 40
1379.094705817436
 40
1400.238766826527
 40
1400.238766826527
 40
1400.238766826527
 40
1400.238766826527
 10
989.7190789489035
 20
1774.000617414529
 30
0.0
 10
991.7375869603141
 20
1773.546046392768
 30
0.0
 10
995.7488883136584
 20
1772.642695331255
 30
0.0
 10
999.8875862450536
 20
1756.790362053591
 30
0.0
 10
995.9851188016176
 20
1732.468872213379
 30
0.0
 10
997.5711544369757
 20
1695.85225540884
 30
0.0
 10
997.1087616992943
 20
1657.676940823594
 30
0.0
 10
997.2368726839361
 20
1618.702452174939
 30
0.0
 10
997.206678198434
 20
1580.472850053482
 30
0.0
 10
997.2075102113306
 20
1544.30769823496
 30
0.0
 10
997.2333477359158
 20
1511.597912224365
 30
0.0
 10
997.1558390569019
 20
1483.681083411851
 30
0.0
 10
997.3576815621937
 20
1462.006396599287
 30
0.0
 10
996.9606259875341
 20
1447.762810665048
 30
0.0
 10
997.5327948975939
 20
1439.509447765395
 30
0.0
 10
996.214218164027
 20
1434.158405561047
 30
0.0
 10
979.9076845437249
 20
1425.93909905493
 30
0.0
 10
949.6973645155497
 20
1424.443347835118
 30
0.0
 10
900.8599675541879
 20
1419.690550921131
 30
0.0
 10
845.9565426973863
 20
1425.112968094879
 30
0.0
 10
788.0016058519447
 20
1440.574063701995
 30
0.0
 10
734.6699974947359
 20
1465.521429138937
 30
0.0
 10
686.9326819681395
 20
1498.692647321631
 30
0.0
 10
645.7014396904413
 20
1539.219616600207
 30
0.0
 10
611.9358756926876
 20
1586.165287029502
 30
0.0
 10
586.5415713428599
 20
1638.62210971975
 30
0.0
 10
570.7496553646317
 20
1695.701618372732
 30
0.0
 10
566.6033659206526
 20
1737.221382889698
 30
0.0
 10
567.1495436341523
 20
1761.055411445268
 30
0.0
 10
566.8762516815881
 20
1766.550099607742
 30
0.0
 10
568.7539285108526
 20
1772.531286019064
 30
0.0
 10
574.7667447402016
 20
1774.382418357507
 30
0.0
 10
583.1530465367347
 20
1773.745467068268
 30
0.0
 10
597.0382829392473
 20
1774.170621491331
 30
0.0
 10
618.2870062917754
 20
1773.95225358618
 30
0.0
 10
645.8171867545613
 20
1774.036611356326
 30
0.0
 10
678.2967491691923
 20
1774.005475565464
 30
0.0
 10
714.4985272472163
 20
1774.013102909066
 30
0.0
 10
753.1577460535899
 20
1774.008524007823
 30
0.0
 10
793.0218599481257
 20
1774.00750348689
 30
0.0
 10
832.8346137230469
 20
1774.005562149819
 30
0.0
 10
871.3408167767043
 20
1774.004033175892
 30
0.0
 10
907.2849875073218
 20
1774.002649296744
 30
0.0
 10
939.4117201953918
 20
1774.001593816079
 30
0.0
 10
966.4655903026455
 20
1774.00082614536
 30
0.0
 10
982.6710586077418
 20
1774.000680679837
 30
0.0
 10
989.7190789489035
 20
1774.000617414529
 30
0.0
 11
989.7190789489035
 21
1774.000617414529
 31
0.0
 11
995.0258395370887
 21
1771.843116150748
 31
0.0
 11
997.2085622343069
 21
1766.625699284401
 31
0.0
 11
997.2087215363608
 21
1733.3200758764
 31
0.0
 11
997.2091583323148
 21
1696.613163484371
 31
0.0
 11
997.2098109568578
 21
1657.874371381427
 31
0.0
 11
997.2106177446791
 21
1618.473108840682
 31
0.0
 11
997.2115170304668
 21
1579.77878513525
 31
0.0
 11
997.2124471489102
 21
1543.160809538243
 31
0.0
 11
997.213346434698
 21
1509.988591322774
 31
0.0
 11
997.2141532225189
 21
1481.631539761958
 31
0.0
 11
997.2148058470618
 21
1459.459064128907
 31
0.0
 11
997.2152426430157
 21
1444.840573696735
 31
0.0
 11
997.2154019450694
 21
1439.145477738555
 31
0.0
 11
995.6610776741948
 21
1434.605619719663
 31
0.0
 11
991.7162744916772
 21
1431.963781437482
 31
0.0
 11
950.063290909301
 21
1424.12889275855
 31
0.0
 11
906.7739065268946
 21
1421.444306284102
 31
0.0
 11
845.7080446770369
 21
1426.826968662559
 31
0.0
 11
788.2325524794312
 21
1442.345955730363
 31
0.0
 11
735.3070441688133
 21
1467.057767386161
 31
0.0
 11
687.8911339799159
 21
1500.0189035286
 31
0.0
 11
646.9444361474749
 21
1540.285864056329
 31
0.0
 11
613.4265649062238
 21
1586.915148867994
 31
0.0
 11
588.297134490897
 21
1638.963257862242
 31
0.0
 11
572.5157591362292
 21
1695.486690937722
 31
0.0
 11
567.0420530769545
 21
1755.541947993079
 31
0.0
 11
567.0835188234552
 21
1761.046632711468
 31
0.0
 11
567.2198855567916
 21
1766.52823340603
 31
0.0
 11
569.4410816270514
 21
1771.818322199232
 31
0.0
 11
574.8017049374952
 21
1774.017716691435
 31
0.0
 11
580.290610213833
 21
1774.017467430839
 31
0.0
 11
594.5162838439078
 21
1774.016769501169
 31
0.0
 11
616.2233048935232
 21
1774.015697680605
 31
0.0
 11
644.1562524284831
 21
1774.014326747325
 31
0.0
 11
677.0597055145915
 21
1774.012731479509
 31
0.0
 11
713.6782432176528
 21
1774.010986655335
 31
0.0
 11
752.7564446034703
 21
1774.009167052982
 31
0.0
 11
793.0388887378481
 21
1774.007347450629
 31
0.0
 11
833.2701546865901
 21
1774.005602626455
 31
0.0
 11
872.194821515501
 21
1774.004007358639
 31
0.0
 11
908.5574682903836
 21
1774.002636425359
 31
0.0
 11
941.102674077042
 21
1774.001564604795
 31
0.0
 11
968.575017941281
 21
1774.000866675125
 31
0.0
 11
989.7190789489035
 21
1774.000617414529
 31
0.0
  0
SPLINE
  5
C3
330
1F
100
AcDbEntity
  8
CAPA_1
  6
Continuous
 62
     7
100
AcDbSpline
210
0.0
220
0.0
230
1.0
 70
     8
 71
     3
 72
    37
 73
    33
 74
    31
 42
0.0000000001
 43
0.0000000001
 44
0.00000001
 40
0.0
 40
0.0
 40
0.0
 40
0.0
 40
1.91919606650906
 40
3.22407259112594
 40
4.749065700333728
 40
6.657307320439614
 40
8.304398053178165
 40
10.24161172121885
 40
11.89262254133402
 40
13.93739355926174
 40
15.60113851725978
 40
18.81029697601707
 40
23.35680488397318
 40
29.03259817417389
 40
35.62961277758216
 40
42.93978462551357
 40
50.75504965073115
 40
58.86734378843001
 40
67.06860297753542
 40
75.15076316272258
 40
82.90576029786493
 40
90.12553035241454
 40
96.60200932440122
 40
102.1271332704902
 40
106.4928383895687
 40
109.4910613376464
 40
110.9137414944277
 40
113.56496741562
 40
115.4839017395933
 40
117.2142054861706
 40
119.3962817165569
 40
122.4556826789768
 40
122.4556826789768
 40
122.4556826789768
 40
122.4556826789768
 10
666.8283324783643
 20
885.049589594109
 30
0.0
 10
666.1853491959482
 20
885.0587509003767
 30
0.0
 10
665.1051965145391
 20
885.0741410509472
 30
0.0
 10
663.5705703147321
 20
884.479204565461
 30
0.0
 10
662.5927447305141
 20
883.1889681785549
 30
0.0
 10
661.5802239922093
 20
881.8452403050142
 30
0.0
 10
660.5624618793725
 20
880.3270384064506
 30
0.0
 10
659.6274583725131
 20
878.8201385197191
 30
0.0
 10
659.4182083601864
 20
876.89611279264
 30
0.0
 10
659.8771775045648
 20
875.1542530146783
 30
0.0
 10
660.5125165379787
 20
872.9417903450697
 30
0.0
 10
661.36281112533
 20
869.9172180125058
 30
0.0
 10
662.5824163660545
 20
865.6103332718363
 30
0.0
 10
664.1065759338776
 20
860.2146904445472
 30
0.0
 10
665.8820093382431
 20
853.933236853039
 30
0.0
 10
667.8509074568276
 20
846.9652096435711
 30
0.0
 10
669.9570418869868
 20
839.5111398622348
 30
0.0
 10
672.1436781249847
 20
831.7711433526606
 30
0.0
 10
674.3542330661002
 20
823.9454608144246
 30
0.0
 10
676.532091777457
 20
816.2343016565544
 30
0.0
 10
678.6206114104211
 20
808.8378684904087
 30
0.0
 10
680.5632922994053
 20
801.9564215912412
 30
0.0
 10
682.3031706895988
 20
795.7900283815826
 30
0.0
 10
683.7847454989058
 20
790.5393609010453
 30
0.0
 10
684.9484528674941
 20
786.4034017943581
 30
0.0
 10
685.7449698350594
 20
783.5853630254406
 30
0.0
 10
686.3740498088959
 20
781.3125121252151
 30
0.0
 10
686.931517869167
 20
779.3992594556204
 30
0.0
 10
687.9916255670302
 20
777.5154763622868
 30
0.0
 10
689.7353401116718
 20
776.4935651422247
 30
0.0
 10
692.066826647162
 20
776.1987427145676
 30
0.0
 10
693.8116634835575
 20
776.1881160593556
 30
0.0
 10
694.8301083417855
 20
776.181913380609
 30
0.0
 11
666.8283324783643
 21
885.049589594109
 31
0.0
 11
664.9129601421244
 21
884.9285013813434
 31
0.0
 11
663.7119575966783
 21
884.4183096229541
 31
0.0
 11
662.6766280452675
 21
883.2986236388019
 31
0.0
 11
661.5425185043903
 21
881.7639635363703
 31
0.0
 11
660.621294961009
 21
880.39858627532
 31
0.0
 11
659.7242795605816
 21
878.6815655512052
 31
0.0
 11
659.5233947222481
 21
877.0428215169322
 31
0.0
 11
659.9168047524281
 21
875.036253037186
 31
0.0
 11
660.369688132994
 21
873.4353333237491
 31
0.0
 11
661.2427939874796
 21
870.3472296693559
 31
0.0
 11
662.4795057155785
 21
865.9721550118569
 31
0.0
 11
664.0232067169837
 21
860.5103222891028
 31
0.0
 11
665.8172803913888
 21
854.1619444389438
 31
0.0
 11
667.805110138487
 21
847.1272343992307
 31
0.0
 11
669.9300793579713
 21
839.6064051078139
 31
0.0
 11
672.1355714495358
 21
831.7996695025439
 31
0.0
 11
674.364969812873
 21
823.9072405212711
 31
0.0
 11
676.5616578476768
 21
816.1293311018465
 31
0.0
 11
678.6690189536403
 21
808.66615418212
 31
0.0
 11
680.6304365304568
 21
801.7179226999422
 31
0.0
 11
682.3892939778198
 21
795.484849593164
 31
0.0
 11
683.8889746954222
 21
790.1671477996354
 31
0.0
 11
685.0728620829578
 21
785.9650302572072
 31
0.0
 11
685.8843395401198
 21
783.0787099037299
 31
0.0
 11
686.2667904666014
 21
781.708399677054
 31
0.0
 11
687.1153523426927
 21
779.196639014163
 31
0.0
 11
688.1553166847739
 21
777.5839446516372
 31
0.0
 11
689.6273318763281
 21
776.6744819909121
 31
0.0
 11
691.7720463008375
 21
776.272416433424
 31
0.0
 11
694.8301083417855
 21
776.181913380609
 31
0.0
  0
SPLINE
  5
C4
330
1F
100
AcDbEntity
  8
CAPA_1
  6
Continuous
 62
     7
100
AcDbSpline
210
0.0
220
0.0
230
1.0
 70
     8
 71
     3
 72
    93
 73
    89
 74
    87
 42
0.0000000001
 43
0.0000000001
 44
0.00000001
 40
0.0
 40
0.0
 40
0.0
 40
0.0
 40
5.728589882823891
 40
9.760911552409603
 40
14.65960777210739
 40
19.51980300573892
 40
24.08712813884252
 40
27.47655031898228
 40
28.80303285232556
 40
30.39101551201177
 40
34.74516151437722
 40
41.25076789438199
 40
49.29313168698641
 40
58.25754992715058
 40
67.52931964983458
 40
76.49373788999885
 40
84.53610168260305
 40
91.04170806260794
 40
95.39585406497338
 40
96.9838367246596
 40
98.64625858302516
 40
102.8023132289398
 40
108.2051842686285
 40
113.6080553083171
 40
117.7641099542316
 40
119.4265318125974
 40
121.1855328447867
 40
126.0614945672226
 40
133.4528549187076
 40
142.7580518380438
 40
153.375523264034
 40
164.7037071354802
 40
176.1410413911847
 40
187.0859639699499
 40
196.9369128105781
 40
205.0923258518716
 40
210.9506410326329
 40
213.9102962916642
 40
217.4203618905497
 40
221.0950073391285
 40
224.1530329174514
 40
230.2465245072604
 40
238.7609649702014
 40
249.0818371679195
 40
260.5946239620606
 40
272.6848082142695
 40
284.7378727861924
 40
296.1393005394745
 40
306.274574335761
 40
314.5291770366977
 40
320.2885915039301
 40
322.9383005991034
 40
325.8701071330061
 40
327.7106249882727
 40
330.4876418100221
 40
332.8815934279971
 40
338.352765720065
 40
346.5431014731466
 40
357.0945434741626
 40
369.6490345100331
 40
383.8485173676791
 40
399.3349348340206
 40
415.7502296959789
 40
432.7363447404742
 40
449.9352227544277
 40
466.9888065247592
 40
483.5390388383892
 40
499.2278624822387
 40
513.6972202432285
 40
526.5890549082787
 40
537.5453092643102
 40
546.2079260982437
 40
552.2188481969994
 40
555.2200183474979
 40
560.5487927350838
 40
566.8932016374578
 40
572.9564504382911
 40
577.4372145884088
 40
578.9978795461501
 40
583.3383844752004
 40
589.9464944593241
 40
598.3099745823298
 40
607.9165899280905
 40
618.2541055805798
 40
628.8102866239349
 40
639.0728981425782
 40
648.5297052214818
 40
656.6684729468217
 40
656.6684729468217
 40
656.6684729468217
 40
656.6684729468217
 10
814.7849557019899
 20
776.168233959084
 30
0.0
 10
816.7502583679263
 20
776.1488129194771
 30
0.0
 10
820.0989263452649
 20
776.115721521116
 30
0.0
 10
824.1210380018054
 20
772.6065206005926
 30
0.0
 10
824.5732454824021
 20
767.7993888155859
 30
0.0
 10
824.9321534568469
 20
763.1456467634325
 30
0.0
 10
825.0970587571491
 20
758.7083597888779
 30
0.0
 10
825.6564431413949
 20
755.9931916475109
 30
0.0
 10
825.2513060260401
 20
753.2973949583216
 30
0.0
 10
828.4329392688857
 20
754.1401500341151
 30
0.0
 10
832.0329320867186
 20
753.5815893799024
 30
0.0
 10
838.608026223033
 20
753.933452110287
 30
0.0
 10
846.3421273002482
 20
753.8908296808172
 30
0.0
 10
855.1359082833196
 20
754.0000627393456
 30
0.0
 10
864.1859650541491
 20
754.0773720003788
 30
0.0
 10
872.9726256447714
 20
754.1253143049585
 30
0.0
 10
880.7306738584026
 20
754.2888234976414
 30
0.0
 10
887.2413953114694
 20
754.0865804932253
 30
0.0
 10
890.9701806509985
 20
754.6366372100945
 30
0.0
 10
894.1126343408589
 20
753.9153360758727
 30
0.0
 10
893.9993378452118
 20
757.0949306861731
 30
0.0
 10
895.1613710116222
 20
760.2810733529359
 30
0.0
 10
896.0729891833023
 20
765.3087368341003
 30
0.0
 10
896.9952906932068
 20
770.3255251774822
 30
0.0
 10
898.1369844272282
 20
773.5323724334854
 30
0.0
 10
898.0533691688268
 20
776.7525081291316
 30
0.0
 10
901.5158525177118
 20
775.8927718241608
 30
0.0
 10
905.6927676929163
 20
776.5079680491067
 30
0.0
 10
913.1373352984316
 20
776.1948663339779
 30
0.0
 10
922.1447426456822
 20
776.3148635780722
 30
0.0
 10
932.5938465849358
 20
776.275346585462
 30
0.0
 10
943.7116651723201
 20
776.2868377735508
 30
0.0
 10
954.952179804442
 20
776.2847399068874
 30
0.0
 10
965.6921691843961
 20
776.2816297210316
 30
0.0
 10
975.3545895157004
 20
776.2938381077981
 30
0.0
 10
983.2765480584003
 20
776.2594246545136
 30
0.0
 10
989.0079663900824
 20
776.3365034275187
 30
0.0
 10
992.9736702389967
 20
776.1860998858695
 30
0.0
 10
996.8930551049041
 20
776.7493576067873
 30
0.0
 10
997.3290419909142
 20
780.7446030789487
 30
0.0
 10
997.210219517913
 20
784.8616467298148
 30
0.0
 10
997.2712943004838
 20
790.8316882739359
 30
0.0
 10
997.2438583574777
 20
799.1047270107705
 30
0.0
 10
997.2537703403224
 20
809.2339753823507
 30
0.0
 10
997.2506549905909
 20
820.5377435696958
 30
0.0
 10
997.2513906817705
 20
832.4241808444241
 30
0.0
 10
997.2518195653665
 20
844.2725661817727
 30
0.0
 10
997.2495792702357
 20
855.4675715525369
 30
0.0
 10
997.2566975135894
 20
865.4031474331249
 30
0.0
 10
997.2373611730241
 20
873.438924164027
 30
0.0
 10
997.2787728901403
 20
879.0234580557373
 30
0.0
 10
997.2058666341172
 20
882.751025089034
 30
0.0
 10
997.4157599747498
 20
885.3768806902388
 30
0.0
 10
995.476581387388
 20
887.3829910123104
 30
0.0
 10
992.9790501810164
 20
887.1838622686131
 30
0.0
 10
989.4849957284202
 20
887.2500763790808
 30
0.0
 10
984.101606323992
 20
887.2108768207403
 30
0.0
 10
976.0462181795243
 20
887.2302412325613
 30
0.0
 10
965.6079825546146
 20
887.2226097690493
 30
0.0
 10
953.1749918211665
 20
887.2252767962941
 30
0.0
 10
939.0941661541463
 20
887.224413541252
 30
0.0
 10
923.7273140649913
 20
887.2246780510078
 30
0.0
 10
907.4313091204214
 20
887.2246002037837
 30
0.0
 10
890.5645641439629
 20
887.2246231461071
 30
0.0
 10
873.4850337639222
 20
887.2246133957829
 30
0.0
 10
856.5508034188708
 20
887.2246287216553
 30
0.0
 10
840.1199241186235
 20
887.2245794778698
 30
0.0
 10
824.5504497369093
 20
887.2247472169631
 30
0.0
 10
810.200454978766
 20
887.2241951160172
 30
0.0
 10
797.4279395337774
 20
887.2259207502492
 30
0.0
 10
786.5911341610654
 20
887.2208991308797
 30
0.0
 10
778.0476177547067
 20
887.2340005344123
 30
0.0
 10
772.1565880852534
 20
887.2059222335759
 30
0.0
 10
767.375122271214
 20
887.2671163254831
 30
0.0
 10
762.4909671301725
 20
886.8877645247471
 30
0.0
 10
756.6305682125733
 20
886.1029947528223
 30
0.0
 10
751.0564321070322
 20
885.3399265843678
 30
0.0
 10
747.0336756947052
 20
884.9226121421775
 30
0.0
 10
743.5718965954724
 20
884.9660436537457
 30
0.0
 10
739.4027193445545
 20
884.9505808626024
 30
0.0
 10
732.9650616394573
 20
884.9681518554263
 30
0.0
 10
724.7724462482246
 20
884.973376944414
 30
0.0
 10
715.3365436460153
 20
884.9852813229089
 30
0.0
 10
705.1697908148252
 20
884.9962379972244
 30
0.0
 10
694.784357960574
 20
885.0078991551974
 30
0.0
 10
684.6924983972519
 20
885.0190168312049
 30
0.0
 10
675.4064416810131
 20
885.0292089028485
 30
0.0
 10
669.5412534804345
 20
885.0355036327118
 30
0.0
 10
666.8283324783654
 20
885.0384152366137
 30
0.0
 11
814.7849557019899
 21
776.168233959084
 31
0.0
 11
820.449882810728
 21
775.3165633077894
 31
0.0
 11
823.4435228826121
 21
772.6151308790545
 31
0.0
 11
824.5554825268291
 21
767.8443059606034
 31
0.0
 11
824.9089566416479
 21
762.9969815688211
 31
0.0
 11
825.2364612296634
 21
758.4414135892703
 31
0.0
 11
825.4774007283355
 21
755.0605659332522
 31
0.0
 11
825.571179575124
 21
753.737402512068
 31
0.0
 11
827.1591024477239
 21
753.7511821397244
 31
0.0
 11
831.5130845177557
 21
753.7889649897501
 31
0.0
 11
838.018445963568
 21
753.8454170127296
 31
0.0
 11
846.0605069635092
 21
753.9152041592477
 31
0.0
 11
855.0245876959277
 21
753.9929923798889
 31
0.0
 11
864.296008339172
 21
754.0734476252377
 31
0.0
 11
873.2600890715906
 21
754.1512358458788
 31
0.0
 11
881.3021500715316
 21
754.2210229923967
 31
0.0
 11
887.807511517344
 21
754.2774750153762
 31
0.0
 11
892.1614935873758
 21
754.3152578654019
 31
0.0
 11
893.7494164599757
 21
754.3290374930584
 31
0.0
 11
894.0939352243304
 21
755.9553687189098
 31
0.0
 11
894.9552321352174
 21
760.0211967835388
 31
0.0
 11
896.0749181193705
 21
765.3067732675562
 31
0.0
 11
897.1946041035236
 21
770.5923497515736
 31
0.0
 11
898.0559010144107
 21
774.6581778162024
 31
0.0
 11
898.4004197787654
 21
776.284509042054
 31
0.0
 11
900.1594208109547
 21
776.2845090420541
 31
0.0
 11
905.0353825333906
 21
776.2845090420541
 31
0.0
 11
912.4267428848756
 21
776.284509042054
 31
0.0
 11
921.7319398042118
 21
776.2845090420541
 31
0.0
 11
932.349411230202
 21
776.2845090420539
 31
0.0
 11
943.6775951016482
 21
776.284509042054
 31
0.0
 11
955.1149293573527
 21
776.2845090420539
 31
0.0
 11
966.0598519361179
 21
776.284509042054
 31
0.0
 11
975.9108007767461
 21
776.284509042054
 31
0.0
 11
984.0662138180396
 21
776.284509042054
 31
0.0
 11
989.924528998801
 21
776.284509042054
 31
0.0
 11
992.8841842578322
 21
776.284509042054
 31
0.0
 11
996.2399173508925
 21
777.3138855118741
 31
0.0
 11
997.2513395799606
 21
780.8465961209261
 31
0.0
 11
997.2513395799607
 21
783.9046216992489
 31
0.0
 11
997.2513395799605
 21
789.9981132890579
 31
0.0
 11
997.2513395799606
 21
798.5125537519989
 31
0.0
 11
997.2513395799606
 21
808.833425949717
 31
0.0
 11
997.2513395799606
 21
820.3462127438581
 31
0.0
 11
997.2513395799606
 21
832.4363969960671
 31
0.0
 11
997.2513395799606
 21
844.4894615679899
 31
0.0
 11
997.2513395799607
 21
855.890889321272
 31
0.0
 11
997.2513395799606
 21
866.0261631175586
 31
0.0
 11
997.2513395799606
 21
874.2807658184952
 31
0.0
 11
997.2513395799607
 21
880.0401802857276
 31
0.0
 11
997.2513395799606
 21
882.6898893809009
 31
0.0
 11
996.9330397068635
 21
885.6043661337711
 31
0.0
 11
995.6442608732937
 21
886.9183505681149
 31
0.0
 11
992.8841842578322
 21
887.2246176167209
 31
0.0
 11
990.4902326398571
 21
887.2246176167209
 31
0.0
 11
985.0190603477893
 21
887.2246176167209
 31
0.0
 11
976.8287245947076
 21
887.2246176167208
 31
0.0
 11
966.2772825936917
 21
887.2246176167209
 31
0.0
 11
953.7227915578212
 21
887.2246176167209
 31
0.0
 11
939.5233087001752
 21
887.2246176167209
 31
0.0
 11
924.0368912338337
 21
887.2246176167209
 31
0.0
 11
907.6215963718754
 21
887.2246176167209
 31
0.0
 11
890.63548132738
 21
887.2246176167211
 31
0.0
 11
873.4366033134265
 21
887.2246176167209
 31
0.0
 11
856.3830195430951
 21
887.2246176167209
 31
0.0
 11
839.8327872294651
 21
887.2246176167209
 31
0.0
 11
824.1439635856156
 21
887.2246176167209
 31
0.0
 11
809.6746058246258
 21
887.2246176167209
 31
0.0
 11
796.7827711595755
 21
887.2246176167209
 31
0.0
 11
785.8265168035441
 21
887.2246176167209
 31
0.0
 11
777.1638999696106
 21
887.2246176167209
 31
0.0
 11
771.1529778708549
 21
887.2246176167209
 31
0.0
 11
768.1518077203564
 21
887.2246176167209
 31
0.0
 11
762.8348944365072
 21
886.8692732684909
 31
0.0
 11
756.5388338087529
 21
886.087515702385
 31
0.0
 11
750.5261936957375
 21
885.305758136279
 31
0.0
 11
746.059541956105
 21
884.950413788049
 31
0.0
 11
744.4988779951597
 21
884.9521776837745
 31
0.0
 11
740.1583758306206
 21
884.9570765348447
 31
0.0
 11
733.5502700399331
 21
884.9645210870996
 31
0.0
 11
725.1867952005423
 21
884.9739220863787
 31
0.0
 11
715.5801858898935
 21
884.9846902785228
 31
0.0
 11
705.2426766854321
 21
884.9962364093714
 31
0.0
 11
694.6865021646032
 21
885.0079712247647
 31
0.0
 11
684.4238969048524
 21
885.019305470543
 31
0.0
 11
674.9670954836247
 21
885.0296498925459
 31
0.0
 11
666.8283324783654
 21
885.0384152366137
 31
0.0
  0
SPLINE
  5
C5
330
1F
100
AcDbEntity
  8
CAPA_1
  6
AI9_LType4
 62
     7
100
AcDbSpline
210
0.0
220
0.0
230
1.0
 70
    11
 71
     3
 72
    19
 73
    15
 74
    13
 42
0.0000000001
 43
0.0000000001
 44
0.00000001
 40
0.0
 40
0.0
 40
0.0
 40
0.0
 40
7.806191019696222
 40
15.7274547280453
 40
23.65307529149703
 40
31.46009900926467
 40
35.82896425908368
 40
40.19782950890269
 40
48.00760911705606
 40
55.9333904666558
 40
63.85481504958672
 40
71.66376225353986
 40
76.03262750335887
 40
80.40149275317788
 40
80.40149275317788
 40
80.40149275317788
 40
80.40149275317788
 10
924.9932152508745
 20
833.2045803588239
 30
0.0
 10
922.3327424010342
 20
833.866588530075
 30
0.0
 10
916.9725781166249
 20
835.2003636729942
 30
0.0
 10
913.7437562337902
 20
843.6420644812945
 30
0.0
 10
916.9559639828351
 20
851.7455330345274
 30
0.0
 10
923.8711446197838
 20
854.309261778714
 30
0.0
 10
929.3621311889049
 20
853.848562799541
 30
0.0
 10
934.8536484285919
 20
854.307260363515
 30
0.0
 10
941.7720219903863
 20
851.7610425758981
 30
0.0
 10
944.9793341111335
 20
843.5882005215919
 30
0.0
 10
941.771713603101
 20
835.3986143829186
 30
0.0
 10
934.8506960136717
 20
832.9003762074229
 30
0.0
 10
929.3671524055212
 20
833.2618439592168
 30
0.0
 10
926.4511943024235
 20
833.2236682256214
 30
0.0
 10
924.9932152508745
 20
833.2045803588239
 30
0.0
 11
924.9932152508745
 21
833.2045803588239
 31
0.0
 11
917.8033967932703
 21
836.2448317929457
 31
0.0
 11
914.8225653464024
 21
843.583841441568
 31
0.0
 11
917.8033967932703
 21
850.9275533913365
 31
0.0
 11
924.9932152508745
 21
853.9699422350709
 31
0.0
 11
929.3620805006935
 21
853.9699422350709
 31
0.0
 11
933.7309457505126
 21
853.9699422350709
 31
0.0
 11
940.9237565815749
 21
850.9275533913365
 31
0.0
 11
943.9050155103651
 21
843.583841441568
 31
0.0
 11
940.9237565815749
 21
836.2448317929457
 31
0.0
 11
933.7309457505126
 21
833.2045803588239
 31
0.0
 11
929.3620805006935
 21
833.2045803588239
 31
0.0
 11
924.9932152508745
 21
833.2045803588239
 31
0.0
  0
SPLINE
  5
C6
330
1F
100
AcDbEntity
  8
CAPA_1
  6
AI9_LType4
 62
     7
100
AcDbSpline
210
0.0
220
0.0
230
1.0
 70
    11
 71
     3
 72
    19
 73
    15
 74
    13
 42
0.0000000001
 43
0.0000000001
 44
0.00000001
 40
0.0
 40
0.0
 40
0.0
 40
0.0
 40
7.810128478996132
 40
15.73107049759072
 40
23.65636954813373
 40
31.46733030544311
 40
35.83277569988041
 40
40.19822109431771
 40
48.00760699318839
 40
55.9322632554992
 40
63.85256213225765
 40
71.66111558495807
 40
76.02656097939537
 40
80.39200637383267
 40
80.39200637383267
 40
80.39200637383267
 40
80.39200637383267
 10
762.1909998163173
 20
833.2045803588239
 30
0.0
 10
759.5287397648143
 20
833.8661678872666
 30
0.0
 10
754.1664463447069
 20
835.1987298391276
 30
0.0
 10
750.9386944205803
 20
843.6420095375345
 30
0.0
 10
754.1497059680967
 20
851.74732505487
 30
0.0
 10
761.0666418489569
 20
854.3086499925246
 30
0.0
 10
766.5564885841275
 20
853.8488110365879
 30
0.0
 10
772.0454839857212
 20
854.3069261101805
 30
0.0
 10
778.9634533991842
 20
851.7613274194317
 30
0.0
 10
782.1648415907275
 20
843.5881959477999
 30
0.0
 10
778.9631504235717
 20
835.3983498309326
 30
0.0
 10
772.0425138737869
 20
832.9006478897067
 30
0.0
 10
766.5615405648586
 20
833.2617693125446
 30
0.0
 10
763.6478467324977
 20
833.2236433433975
 30
0.0
 10
762.1909998163173
 20
833.2045803588239
 30
0.0
 11
762.1909998163173
 21
833.2045803588239
 31
0.0
 11
754.9969065394862
 21
836.2448317929457
 31
0.0
 11
752.0169300564639
 21
843.583841441568
 31
0.0
 11
754.9969065394862
 21
850.9275533913365
 31
0.0
 11
762.1909998163173
 21
853.9699422350709
 31
0.0
 11
766.5564452107547
 21
853.9699422350709
 31
0.0
 11
770.921890605192
 21
853.9699422350709
 31
0.0
 11
778.1142739543329
 21
850.9275533913365
 31
0.0
 11
781.092540509665
 21
843.583841441568
 31
0.0
 11
778.1142739543329
 21
836.2448317929457
 31
0.0
 11
770.921890605192
 21
833.2045803588239
 31
0.0
 11
766.5564452107547
 21
833.2045803588239
 31
0.0
 11
762.1909998163173
 21
833.2045803588239
 31
0.0
  0
SPLINE
  5
C7
330
1F
100
AcDbEntity
  8
CAPA_1
  6
Continuous
 62
     7
100
AcDbSpline
210
0.0
220
0.0
230
1.0
 70
     8
 71
     3
 72
    62
 73
    58
 74
    56
 42
0.0000000001
 43
0.0000000001
 44
0.00000001
 40
0.0
 40
0.0
 40
0.0
 40
0.0
 40
4.401390237308004
 40
7.85792491355599
 40
10.22226855340807
 40
11.34708571862771
 40
13.2618574921256
 40
14.56755011230617
 40
16.09728129627858
 40
17.99591351383852
 40
19.64252621486805
 40
21.582916440844
 40
23.2339272609591
 40
25.28002523491719
 40
26.9434518710964
 40
30.15231241714871
 40
34.6985439880783
 40
40.37408365981557
 40
46.97086850145719
 40
54.28083558065822
 40
62.09592196546256
 40
70.20806472542715
 40
78.40920093278548
 40
86.49126766408462
 40
94.24620200288823
 40
101.4659410447206
 40
107.9424219071065
 40
113.4675817527532
 40
117.8333578540046
 40
120.8316878356208
 40
122.2545114220497
 40
124.9057373432422
 40
126.8246716672157
 40
128.5549754137929
 40
130.7370516441795
 40
133.7964526065993
 40
135.263918794298
 40
138.2300682032346
 40
142.5338142340339
 40
148.01407028681
 40
154.5097497615824
 40
161.8597660583424
 40
169.9030325770673
 40
178.4784627177292
 40
187.4249698802961
 40
196.5814674647348
 40
205.7868688710108
 40
214.8800874990869
 40
223.7000367489275
 40
232.0856300204956
 40
239.8757807137544
 40
246.9094022286665
 40
253.0254079651945
 40
258.0627113233005
 40
261.8602257029468
 40
264.2568645040958
 40
265.0915411267094
 40
265.0915411267094
 40
265.0915411267094
 40
265.0915411267094
 10
666.8283324783654
 20
885.0384152366137
 30
0.0
 10
665.3611483035456
 20
885.0401155491867
 30
0.0
 10
662.7417434204327
 20
885.0431511647106
 30
0.0
 10
659.3348779629135
 20
885.0451663001682
 30
0.0
 10
657.0184613480994
 20
885.0505570375619
 30
0.0
 10
655.2195840868494
 20
885.0456016636308
 30
0.0
 10
653.7596030730767
 20
885.0756860168008
 30
0.0
 10
652.2276467085408
 20
884.4768512987233
 30
0.0
 10
651.240420771894
 20
883.1967456816652
 30
0.0
 10
650.2473643226174
 20
881.8402597572085
 30
0.0
 10
649.2290500437806
 20
880.3258094238101
 30
0.0
 10
648.286565451564
 20
878.8220108485496
 30
0.0
 10
648.0763487397742
 20
876.8950406664603
 30
0.0
 10
648.5458871150844
 20
875.155330977419
 30
0.0
 10
649.1763889171516
 20
872.9413878021325
 30
0.0
 10
650.0276007971803
 20
869.9173180093673
 30
0.0
 10
651.245386328736
 20
865.6102358822684
 30
0.0
 10
652.7689720308968
 20
860.2146827624744
 30
0.0
 10
654.5434729907965
 20
853.93320790017
 30
0.0
 10
656.5116674115282
 20
846.9651930743636
 30
0.0
 10
658.6171450352517
 20
839.5111233405423
 30
0.0
 10
660.8032345478184
 20
831.7711292020235
 30
0.0
 10
663.0133410306796
 20
823.9454474290174
 30
0.0
 10
665.1908578953387
 20
816.2342884413097
 30
0.0
 10
667.279147839364
 20
808.8378552930394
 30
0.0
 10
669.2217057170028
 20
801.9564054854907
 30
0.0
 10
670.961601005356
 20
795.7900147747675
 30
0.0
 10
672.4432414620501
 20
790.5393279239161
 30
0.0
 10
673.607314919791
 20
786.403398525978
 30
0.0
 10
674.4038780676186
 20
783.585260096992
 30
0.0
 10
675.0341015261186
 20
781.3126467898353
 30
0.0
 10
675.5912001446272
 20
779.3992138883231
 30
0.0
 10
676.6514135975444
 20
777.5155434166486
 30
0.0
 10
678.3950431670585
 20
776.4933294433588
 30
0.0
 10
680.7268828690401
 20
776.2000786860208
 30
0.0
 10
682.9587020415693
 20
776.1795833874669
 30
0.0
 10
685.4571069408474
 20
776.1827606779765
 30
0.0
 10
688.3692417115356
 20
776.1810346421179
 30
0.0
 10
692.6194424257845
 20
776.1813173535759
 30
0.0
 10
698.0459447901526
 20
776.1805119160201
 30
0.0
 10
704.4879488821595
 20
776.1799517059296
 30
0.0
 10
711.7842630737108
 20
776.1791717669321
 30
0.0
 10
719.7738360266108
 20
776.178351576119
 30
0.0
 10
728.2955699924792
 20
776.1774575624002
 30
0.0
 10
737.1883817428164
 20
776.1765228733701
 30
0.0
 10
746.2911836957028
 20
776.1755606855844
 30
0.0
 10
755.4428895299759
 20
776.1745899774085
 30
0.0
 10
764.4824125701498
 20
776.1736281073715
 30
0.0
 10
773.2486662376259
 20
776.1726928835253
 30
0.0
 10
781.5805639280038
 20
776.1718019985946
 30
0.0
 10
789.3170190435718
 20
776.1709731776687
 30
0.0
 10
796.2969449849359
 20
776.1702241408852
 30
0.0
 10
802.3592551531092
 20
776.1695726069995
 30
0.0
 10
807.3428629490124
 20
776.1690363075026
 30
0.0
 10
811.0866817735832
 20
776.1686329406887
 30
0.0
 10
813.4296250277632
 20
776.1683802807995
 30
0.0
 10
814.50673016274
 20
776.1682639963575
 30
0.0
 10
814.7849557019899
 20
776.168233959084
 30
0.0
 11
666.8283324783654
 21
885.0384152366137
 31
0.0
 11
662.4269446810869
 21
885.0430497849162
 31
0.0
 11
658.9704117973938
 21
885.0465700197559
 31
0.0
 11
656.6060692152628
 21
885.0488064523984
 31
0.0
 11
655.4812523226701
 21
885.049589594109
 31
0.0
 11
653.5703131322945
 21
884.9285013813435
 31
0.0
 11
652.3684239576758
 21
884.4183096229542
 31
0.0
 11
651.3261280341922
 21
883.2986236388019
 31
0.0
 11
650.2082628063757
 21
881.7639635363703
 31
0.0
 11
649.2878942268389
 21
880.39858627532
 31
0.0
 11
648.3840391156496
 21
878.6815655512052
 31
0.0
 11
648.1831542773166
 21
877.0428215169322
 31
0.0
 11
648.583404018259
 21
875.036253037186
 31
0.0
 11
649.0351165873551
 21
873.4353333237491
 31
0.0
 11
649.9071268073261
 21
870.3472296693558
 31
0.0
 11
651.1428222543631
 21
865.9721550118569
 31
0.0
 11
652.6855905046568
 21
860.5103222891027
 31
0.0
 11
654.4788191343981
 21
854.1619444389437
 31
0.0
 11
656.4658957197778
 21
847.1272343992307
 31
0.0
 11
658.5902078369868
 21
839.6064051078139
 31
0.0
 11
660.7951430622159
 21
831.7996695025439
 31
0.0
 11
663.0240889716557
 21
823.9072405212711
 31
0.0
 11
665.2204331414974
 21
816.1293311018465
 31
0.0
 11
667.3275631479316
 21
808.6661541821198
 31
0.0
 11
669.2888665671494
 21
801.7179226999423
 31
0.0
 11
671.0477309753414
 21
795.4848495931637
 31
0.0
 11
672.5475439486986
 21
790.1671477996353
 31
0.0
 11
673.7316930634115
 21
785.9650302572071
 31
0.0
 11
674.5435658956715
 21
783.0787099037299
 31
0.0
 11
674.9265500216689
 21
781.708399677054
 31
0.0
 11
675.7751118977607
 21
779.196639014163
 31
0.0
 11
676.8150762398423
 21
777.5839446516372
 31
0.0
 11
678.2870914313963
 21
776.6744819909121
 31
0.0
 11
680.431805855906
 21
776.272416433424
 31
0.0
 11
683.4898678968539
 21
776.181913380609
 31
0.0
 11
684.9573340817864
 21
776.1818232775194
 31
0.0
 11
687.9234834794595
 21
776.1815647850492
 31
0.0
 11
692.2272294908096
 21
776.1811556283961
 31
0.0
 11
697.7074855167742
 21
776.1806135327587
 31
0.0
 11
704.2031649582895
 21
776.1799562233342
 31
0.0
 11
711.5531812162931
 21
776.1792014253213
 31
0.0
 11
719.5964476917213
 21
776.1783668639173
 31
0.0
 11
728.1718777855115
 21
776.1774702643206
 31
0.0
 11
737.1183848986001
 21
776.176529351729
 31
0.0
 11
746.2748824319244
 21
776.1755618513403
 31
0.0
 11
755.4802837864219
 21
776.1745854883527
 31
0.0
 11
764.5735023630278
 21
776.1736179879642
 31
0.0
 11
773.3934515626802
 21
776.1726770753725
 31
0.0
 11
781.7790447863155
 21
776.1717804757757
 31
0.0
 11
789.5691954348708
 21
776.1709459143717
 31
0.0
 11
796.6028169092831
 21
776.1701911163585
 31
0.0
 11
802.7188226104894
 21
776.1695338069343
 31
0.0
 11
807.7561259394262
 21
776.1689917112967
 31
0.0
 11
811.5536402970306
 21
776.1685825546438
 31
0.0
 11
813.9502790842396
 21
776.1683240621736
 31
0.0
 11
814.7849557019899
 21
776.168233959084
 31
0.0
  0
MTEXT
  5
C8
330
1F
100
AcDbEntity
  8
1
 62
     7
100
AcDbMText
 10
272.0
 20
295.6666666666667
 30
0.0
 40
28.0
 41
0.0
 71
     4
 72
     1
  1
シリーズ名：Hall(Roca)
  7
CONVERTER_1
 73
     1
 44
0.7202881152461
  0
MTEXT
  5
C9
330
1F
100
AcDbEntity
  8
1
 62
     7
100
AcDbMText
 10
272.0
 20
248.3333333333334
 30
0.0
 40
28.0
 41
0.0
 71
     4
 72
     1
  1
容量：2L・オーバーフロー付・水栓取付穴1付
  7
CONVERTER_1
 73
     1
 44
0.7202881152461
  0
MTEXT
  5
CA
330
1F
100
AcDbEntity
  8
1
 62
     7
100
AcDbMText
 10
456.0
 20
182.0000000000001
 30
0.0
 40
28.0
 41
0.0
 71
     5
 72
     1
  1
手洗器
  7
CONVERTER_1
 73
     1
 44
0.7202881152461
  0
MTEXT
  5
CC
330
1F
100
AcDbEntity
  8
1
 62
     7
100
AcDbMText
 10
456.0
 20
114.0
 30
0.0
 40
28.0
 41
0.0
 71
     5
 72
     1
  1
SR327622-W
  7
CONVERTER_2
 73
     1
 44
0.7202881152461
  0
MTEXT
  5
CD
330
1F
100
AcDbEntity
  8
1
 62
     7
100
AcDbMText
 10
1260.0
 20
152.0000000000001
 30
0.0
 40
40.0
 41
0.0
 71
     5
 72
     1
  1
板津
  7
CONVERTER_1
 73
     1
 44
0.7202881152461
  0
MTEXT
  5
CE
330
1F
100
AcDbEntity
  8
1
 62
     7
100
AcDbMText
 10
1124.0
 20
152.0000000000001
 30
0.0
 40
40.0
 41
0.0
 71
     5
 72
     1
  1
酒光
  7
CONVERTER_1
 73
     1
 44
0.7202881152461
  0
MTEXT
  5
CF
330
1F
100
AcDbEntity
  8
1
 62
     7
100
AcDbMText
 10
1124.0
 20
100.0
 30
0.0
 40
20.0
 41
0.0
 71
     5
 72
     1
  1
2
  7
CONVERTER_2
 73
     1
 44
0.7202881152461
  0
MTEXT
  5
D0
330
1F
100
AcDbEntity
  8
1
 62
     7
100
AcDbMText
 10
1170.0
 20
100.0
 30
0.0
 40
20.0
 41
0.0
 71
     5
 72
     1
  1
 9
  7
CONVERTER_2
 73
     1
 44
0.7202881152461
  0
MTEXT
  5
D1
330
1F
100
AcDbEntity
  8
1
 62
     7
100
AcDbMText
 10
1078.0
 20
100.0
 30
0.0
 40
20.0
 41
0.0
 71
     5
 72
     1
  1
11
  7
CONVERTER_2
 73
     1
 44
0.7202881152461
  0
MTEXT
  5
D2
330
1F
100
AcDbEntity
  8
1
 62
     7
100
AcDbMText
 10
1214.0
 20
100.0
 30
0.0
 40
20.0
 41
0.0
 71
     5
 72
     1
  1
11
  7
CONVERTER_2
 73
     1
 44
0.7202881152461
  0
MTEXT
  5
D3
330
1F
100
AcDbEntity
  8
1
 62
     7
100
AcDbMText
 10
1306.0
 20
100.0
 30
0.0
 40
20.0
 41
0.0
 71
     5
 72
     1
  1
 9
  7
CONVERTER_2
 73
     1
 44
0.7202881152461
  0
MTEXT
  5
D4
330
1F
100
AcDbEntity
  8
1
 62
     7
100
AcDbMText
 10
1260.0
 20
100.0
 30
0.0
 40
20.0
 41
0.0
 71
     5
 72
     1
  1
2
  7
CONVERTER_2
 73
     1
 44
0.7202881152461
  0
MTEXT
  5
D5
330
1F
100
AcDbEntity
  8
1
 62
     7
100
AcDbMText
 10
682.0
 20
136.0
 30
0.0
 40
28.0
 41
0.0
 71
     5
 72
     1
  1
1
  7
CONVERTER_2
 73
     1
 44
0.7202881152461
  0
MTEXT
  5
D6
330
1F
100
AcDbEntity
  8
1
 62
     7
100
AcDbMText
 10
750.0
 20
136.0
 30
0.0
 40
28.0
 41
0.0
 71
     5
 72
     1
  1
8
  7
CONVERTER_2
 73
     1
 44
0.7202881152461
  0
MTEXT
  5
D7
330
1F
100
AcDbEntity
  8
1
 62
     7
100
AcDbMText
 10
988.0
 20
152.0000000000001
 30
0.0
 40
40.0
 41
0.0
 71
     5
 72
     1
  1
阪口
  7
CONVERTER_1
 73
     1
 44
0.7202881152461
  0
MTEXT
  5
D8
330
1F
100
AcDbEntity
  8
1
 62
     7
100
AcDbMText
 10
852.0
 20
152.0000000000001
 30
0.0
 40
40.0
 41
0.0
 71
     5
 72
     1
  1
牧
  7
CONVERTER_1
 73
     1
 44
0.7202881152461
  0
MTEXT
  5
D9
330
1F
100
AcDbEntity
  8
1
 62
     7
100
AcDbMText
 10
942.0
 20
100.0
 30
0.0
 40
20.0
 41
0.0
 71
     5
 72
     1
  1
11
  7
CONVERTER_2
 73
     1
 44
0.7202881152461
  0
MTEXT
  5
DA
330
1F
100
AcDbEntity
  8
1
 62
     7
100
AcDbMText
 10
1034.0
 20
100.0
 30
0.0
 40
20.0
 41
0.0
 71
     5
 72
     1
  1
15
  7
CONVERTER_2
 73
     1
 44
0.7202881152461
  0
MTEXT
  5
DB
330
1F
100
AcDbEntity
  8
1
 62
     7
100
AcDbMText
 10
988.0
 20
100.0
 30
0.0
 40
20.0
 41
0.0
 71
     5
 72
     1
  1
2
  7
CONVERTER_2
 73
     1
 44
0.7202881152461
  0
MTEXT
  5
DC
330
1F
100
AcDbEntity
  8
1
 62
     7
100
AcDbMText
 10
852.0
 20
100.0
 30
0.0
 40
20.0
 41
0.0
 71
     5
 72
     1
  1
2
  7
CONVERTER_2
 73
     1
 44
0.7202881152461
  0
MTEXT
  5
DD
330
1F
100
AcDbEntity
  8
1
 62
     7
100
AcDbMText
 10
898.0
 20
100.0
 30
0.0
 40
20.0
 41
0.0
 71
     5
 72
     1
  1
18
  7
CONVERTER_2
 73
     1
 44
0.7202881152461
  0
MTEXT
  5
DE
330
1F
100
AcDbEntity
  8
1
 62
     7
100
AcDbMText
 10
806.0
 20
100.0
 30
0.0
 40
20.0
 41
0.0
 71
     5
 72
     1
  1
11
  7
CONVERTER_2
 73
     1
 44
0.7202881152461
  0
DIMENSION
  5
EB
330
1F
100
AcDbEntity
  8
1
100
AcDbDimension
  2
*D03
 10
929.3637925567737
 20
667.142977660474
 30
0.0
 11
965.998275552191
 21
689.142977660474
 31
0.0
  1
70
 71
     5
 42
0.0
 53
0.00013888888889
  3
ME10_DIM_0
100
AcDbAlignedDimension
 13
997.2513395799557
 23
776.244666015314
 33
0.0
 14
929.3637925567737
 24
827.9038024322549
 34
0.0
100
AcDbRotatedDimension
  0
DIMENSION
  5
F7
330
1F
100
AcDbEntity
  8
1
100
AcDbDimension
  2
*D14
 10
1017.303717067335
 20
887.2246171757381
 30
0.0
 11
995.303717067335
 21
929.1140252594501
 31
0.0
  1
110
 71
     5
 42
0.0
 53
90.0
  3
ME10_DIM_1
100
AcDbAlignedDimension
 13
997.3013395799557
 23
776.294666015314
 33
0.0
 14
993.4088673183592
 24
887.2246171757381
 34
0.0
 50
90.0
100
AcDbRotatedDimension
  0
DIMENSION
  5
102
330
1F
100
AcDbEntity
  8
1
100
AcDbDimension
  2
*D25
 10
766.5547382128298
 20
1048.1801830983
 30
0.0
 11
839.2061500203261
 21
1070.1801830983
 31
0.0
  1
165
 71
     5
 42
0.0
 53
0.00013888888889
  3
ME10_DIM_2
100
AcDbAlignedDimension
 13
929.3637925567737
 23
858.7509066244779
 33
0.0
 14
766.5547382128298
 24
858.7509066244779
 34
0.0
100
AcDbRotatedDimension
  0
DIMENSION
  5
10D
330
1F
100
AcDbEntity
  8
1
100
AcDbDimension
  2
*D36
 10
1126.68477638042
 20
754.3299882048823
 30
0.0
 11
1104.68477638042
 21
816.4674466188701
 31
0.0
  1
130
 71
     5
 42
0.0
 53
90.0
  3
ME10_DIM_3
100
AcDbAlignedDimension
 13
993.4088673183592
 23
887.2246171757381
 33
0.0
 14
893.7996178568729
 24
754.3299882048823
 34
0.0
 50
90.0
100
AcDbRotatedDimension
  0
DIMENSION
  5
118
330
1F
100
AcDbEntity
  8
1
100
AcDbDimension
  2
*D47
 10
997.2153249035029
 20
1277.900771919684
 30
0.0
 11
890.3551839481581
 21
1299.900771919684
 31
0.0
  1
215
 71
     5
 42
0.0
 53
0.00013888888889
  3
ME10_DIM_4
100
AcDbAlignedDimension
 13
783.4949640573117
 23
1573.153057057123
 33
0.0
 14
997.2153249035029
 24
1439.139392934408
 34
0.0
100
AcDbRotatedDimension
  0
DIMENSION
  5
123
330
1F
100
AcDbEntity
  8
1
100
AcDbDimension
  2
*D58
 10
856.1737214212575
 20
1341.900771919684
 30
0.0
 11
926.694562630131
 21
1363.900771919684
 31
0.0
  1
140
 71
     5
 42
0.0
 53
0.00013888888889
  3
ME10_DIM_5
100
AcDbAlignedDimension
 13
997.2153249035029
 23
1439.139392934408
 33
0.0
 14
856.1737214212575
 24
1670.850942785299
 34
0.0
100
AcDbRotatedDimension
  0
DIMENSION
  5
12E
330
1F
100
AcDbEntity
  8
1
100
AcDbDimension
  2
*D69
 10
1265.743836137019
 20
1151.685301988803
 30
0.0
 11
1295.021642770377
 21
1212.076151872905
 31
0.0
  1
103
 71
     5
 42
0.0
 53
45.00022036765311
  3
ME10_DIM_6
100
AcDbAlignedDimension
 13
1262.148183286986
 23
1300.58318900138
 33
0.0
 14
1189.790883418963
 24
1227.637670457558
 34
0.0
 50
45.00022036765311
100
AcDbRotatedDimension
  0
DIMENSION
  5
139
330
1F
100
AcDbEntity
  8
1
100
AcDbDimension
  2
*D710
 10
1251.43167422632
 20
1421.444353240543
 30
0.0
 11
1229.43167422632
 21
1600.04240001457
 31
0.0
  1
350
 71
     5
 42
0.0
 53
90.0
  3
ME10_DIM_7
100
AcDbAlignedDimension
 13
997.2585622344501
 23
1774.017559936017
 33
0.0
 14
891.2653249035028
 24
1421.444353240543
 34
0.0
 50
90.0
100
AcDbRotatedDimension
  0
DIMENSION
  5
144
330
1F
100
AcDbEntity
  8
1
100
AcDbDimension
  2
*D811
 10
567.1181354306201
 20
1854.000617414529
 30
0.0
 11
782.1633488325351
 21
1876.000617414529
 31
0.0
  1
430
 71
     5
 42
0.0
 53
0.00013888888889
  3
ME10_DIM_8
100
AcDbAlignedDimension
 13
997.2085622344501
 23
1774.067559936018
 33
0.0
 14
567.1181354306201
 24
1774.067559936018
 34
0.0
100
AcDbRotatedDimension
  0
DIMENSION
  5
14F
330
1F
100
AcDbEntity
  8
1
100
AcDbDimension
  2
*D912
 10
1077.20856223445
 20
1633.935307144558
 30
0.0
 11
1055.20856223445
 21
1703.981638025934
 31
0.0
  1
140
 71
     5
 42
0.0
 53
90.0
  3
ME10_DIM_9
100
AcDbAlignedDimension
 13
997.2585622344501
 23
1774.017559936017
 33
0.0
 14
844.2772141447462
 24
1633.935307144557
 34
0.0
 50
90.0
100
AcDbRotatedDimension
  0
DIMENSION
  5
15A
330
1F
100
AcDbEntity
  8
1
100
AcDbDimension
  2
*D1013
 10
1162.62183693096
 20
1439.189392934408
 30
0.0
 11
1140.62183693096
 21
1634.10125723212
 31
0.0
  1
340
 71
     5
 42
0.0
 53
90.0
  3
ME10_DIM_10
100
AcDbAlignedDimension
 13
997.2585622344501
 23
1774.017559936017
 33
0.0
 14
997.2653249035028
 24
1439.189392934408
 34
0.0
 50
90.0
100
AcDbRotatedDimension
  0
DIMENSION
  5
167
330
1F
100
AcDbEntity
  8
1
100
AcDbDimension
  2
*D1114
 10
571.816413206506
 20
885.0384152366137
 30
0.0
 11
549.816413206506
 21
869.00218053502
 31
0.0
  1
25
 71
     5
 42
0.0
 53
90.0
  3
ME10_DIM_11
100
AcDbAlignedDimension
 13
794.4607589527977
 23
861.8287805005348
 33
0.0
 14
666.8283324783643
 24
885.0384152366137
 34
0.0
 50
90.0
100
AcDbRotatedDimension
  0
ENDSEC
  0
SECTION
  2
OBJECTS
  0
DICTIONARY
  5
C
330
0
100
AcDbDictionary
281
     1
  3
ACAD_GROUP
350
D
  3
ACAD_LAYOUT
350
1A
  3
ACAD_MLINESTYLE
350
17
  3
ACAD_PLOTSETTINGS
350
19
  3
ACAD_PLOTSTYLENAME
350
E
  3
ACAD_TABLESTYLE
350
2A
  3
AcDbVariableDictionary
350
2C
  0
DICTIONARY
  5
D
102
{ACAD_REACTORS
330
C
102
}
330
C
100
AcDbDictionary
281
     1
  0
DICTIONARY
  5
1A
102
{ACAD_REACTORS
330
C
102
}
330
C
100
AcDbDictionary
281
     1
  3
Layout1
350
1E
  3
Layout2
350
26
  3
Model
350
22
  0
DICTIONARY
  5
17
102
{ACAD_REACTORS
330
C
102
}
330
C
100
AcDbDictionary
281
     1
  3
Standard
350
18
  0
DICTIONARY
  5
19
102
{ACAD_REACTORS
330
C
102
}
330
C
100
AcDbDictionary
281
     1
  0
ACDBDICTIONARYWDFLT
  5
E
102
{ACAD_REACTORS
330
C
102
}
330
C
100
AcDbDictionary
281
     1
  3
Normal
350
F
100
AcDbDictionaryWithDefault
340
F
  0
DICTIONARY
  5
2A
102
{ACAD_REACTORS
330
C
102
}
330
C
100
AcDbDictionary
281
     1
  3
Standard
350
2B
  0
DICTIONARY
  5
2C
102
{ACAD_REACTORS
330
C
102
}
330
C
100
AcDbDictionary
281
     1
  3
CTABLESTYLE
350
2D
  0
LAYOUT
  5
1E
102
{ACAD_REACTORS
330
1A
102
}
330
1A
100
AcDbPlotSettings
  1

  2

  4

  6

 40
0.0
 41
0.0
 42
0.0
 43
0.0
 44
0.0
 45
0.0
 46
0.0
 47
0.0
 48
0.0
 49
0.0
140
0.0
141
0.0
142
1.0
143
1.0
 70
   688
 72
     0
 73
     0
 74
     5
  7

 75
    16
147
1.0
148
0.0
149
0.0
100
AcDbLayout
  1
Layout1
 70
     1
 71
     1
 10
0.0
 20
0.0
 11
12.0
 21
9.0
 12
0.0
 22
0.0
 32
0.0
 14
1.00000000000000E+20
 24
1.00000000000000E+20
 34
1.00000000000000E+20
 15
-1.00000000000000E+20
 25
-1.00000000000000E+20
 35
-1.00000000000000E+20
146
0.0
 13
0.0
 23
0.0
 33
0.0
 16
1.0
 26
0.0
 36
0.0
 17
0.0
 27
1.0
 37
0.0
 76
     0
330
1B
  0
LAYOUT
  5
26
102
{ACAD_REACTORS
330
1A
102
}
330
1A
100
AcDbPlotSettings
  1

  2

  4

  6

 40
0.0
 41
0.0
 42
0.0
 43
0.0
 44
0.0
 45
0.0
 46
0.0
 47
0.0
 48
0.0
 49
0.0
140
0.0
141
0.0
142
1.0
143
1.0
 70
   688
 72
     0
 73
     0
 74
     5
  7

 75
    16
147
1.0
148
0.0
149
0.0
100
AcDbLayout
  1
Layout2
 70
     1
 71
     2
 10
0.0
 20
0.0
 11
0.0
 21
0.0
 12
0.0
 22
0.0
 32
0.0
 14
0.0
 24
0.0
 34
0.0
 15
0.0
 25
0.0
 35
0.0
146
0.0
 13
0.0
 23
0.0
 33
0.0
 16
1.0
 26
0.0
 36
0.0
 17
0.0
 27
1.0
 37
0.0
 76
     0
330
23
  0
LAYOUT
  5
22
102
{ACAD_REACTORS
330
1A
102
}
330
1A
100
AcDbPlotSettings
  1

  2

  4

  6

 40
0.0
 41
0.0
 42
0.0
 43
0.0
 44
0.0
 45
0.0
 46
0.0
 47
0.0
 48
0.0
 49
0.0
140
0.0
141
0.0
142
1.0
143
1.0
 70
  1712
 72
     0
 73
     0
 74
     0
  7

 75
     0
147
1.0
148
0.0
149
0.0
100
AcDbLayout
  1
Model
 70
     1
 71
     0
 10
0.0
 20
0.0
 11
0.0
 21
0.0
 12
0.0
 22
0.0
 32
0.0
 14
0.0
 24
0.0
 34
0.0
 15
1680.0
 25
2376.0
 35
0.0
146
0.0
 13
0.0
 23
0.0
 33
0.0
 16
1.0
 26
0.0
 36
0.0
 17
0.0
 27
1.0
 37
0.0
 76
     0
330
1F
  0
MLINESTYLE
  5
18
102
{ACAD_REACTORS
330
17
102
}
330
17
100
AcDbMlineStyle
  2
Standard
 70
     0
  3

 62
   256
 51
90.0
 52
90.0
 71
     2
 49
0.5
 62
   256
  6
BYLAYER
 49
-0.5
 62
   256
  6
BYLAYER
  0
ACDBPLACEHOLDER
  5
F
102
{ACAD_REACTORS
330
E
102
}
330
E
  0
TABLESTYLE
  5
2B
102
{ACAD_REACTORS
330
2A
102
}
330
2A
100
AcDbTableStyle
  3
Standard
 70
     0
 71
     0
 40
0.06
 41
0.06
280
     0
281
     0
  7
Standard
140
0.18
170
     2
 62
     0
 63
     7
283
     0
274
    -2
284
     1
 64
     0
275
    -2
285
     1
 65
     0
276
    -2
286
     1
 66
     0
277
    -2
287
     1
 67
     0
278
    -2
288
     1
 68
     0
279
    -2
289
     1
 69
     0
  7
Standard
140
0.25
170
     5
 62
     0
 63
     7
283
     0
274
    -2
284
     1
 64
     0
275
    -2
285
     1
 65
     0
276
    -2
286
     1
 66
     0
277
    -2
287
     1
 67
     0
278
    -2
288
     1
 68
     0
279
    -2
289
     1
 69
     0
  7
Standard
140
0.18
170
     5
 62
     0
 63
     7
283
     0
274
    -2
284
     1
 64
     0
275
    -2
285
     1
 65
     0
276
    -2
286
     1
 66
     0
277
    -2
287
     1
 67
     0
278
    -2
288
     1
 68
     0
279
    -2
289
     1
 69
     0
  0
DICTIONARYVAR
  5
2D
102
{ACAD_REACTORS
330
2C
102
}
330
2C
100
DictionaryVariables
280
     0
  1
Standard
  0
ENDSEC
  0
EOF
