  0
SECTION
  2
HEADER
  9
$ACADVER
  1
AC1015
  9
$ACADMAINTVER
 70
     6
  9
$DWGCODEPAGE
  3
DOS932
  9
$INSBASE
 10
0.0
 20
0.0
 30
0.0
  9
$EXTMIN
 10
0.0
 20
0.0
 30
0.0
  9
$EXTMAX
 10
1680.0
 20
2376.0
 30
0.0
  9
$LIMMIN
 10
0.0
 20
0.0
  9
$LIMMAX
 10
12.0
 20
9.0
  9
$ORTHOMODE
 70
     0
  9
$REGENMODE
 70
     1
  9
$FILLMODE
 70
     1
  9
$QTEXTMODE
 70
     0
  9
$MIRRTEXT
 70
     1
  9
$LTSCALE
 40
1.0
  9
$ATTMODE
 70
     1
  9
$TEXTSIZE
 40
0.2
  9
$TRACEWID
 40
0.05
  9
$TEXTSTYLE
  7
Standard
  9
$CLAYER
  8
0
  9
$CELTYPE
  6
ByLayer
  9
$CECOLOR
 62
   256
  9
$CELTSCALE
 40
1.0
  9
$DISPSILH
 70
     0
  9
$DIMSCALE
 40
1.0
  9
$DIMASZ
 40
0.18
  9
$DIMEXO
 40
0.0625
  9
$DIMDLI
 40
0.38
  9
$DIMRND
 40
0.0
  9
$DIMDLE
 40
0.0
  9
$DIMEXE
 40
0.18
  9
$DIMTP
 40
0.0
  9
$DIMTM
 40
0.0
  9
$DIMTXT
 40
0.18
  9
$DIMCEN
 40
0.09
  9
$DIMTSZ
 40
0.0
  9
$DIMTOL
 70
     0
  9
$DIMLIM
 70
     0
  9
$DIMTIH
 70
     1
  9
$DIMTOH
 70
     1
  9
$DIMSE1
 70
     0
  9
$DIMSE2
 70
     0
  9
$DIMTAD
 70
     0
  9
$DIMZIN
 70
     0
  9
$DIMBLK
  1

  9
$DIMASO
 70
     1
  9
$DIMSHO
 70
     1
  9
$DIMPOST
  1

  9
$DIMAPOST
  1

  9
$DIMALT
 70
     0
  9
$DIMALTD
 70
     2
  9
$DIMALTF
 40
25.4
  9
$DIMLFAC
 40
1.0
  9
$DIMTOFL
 70
     0
  9
$DIMTVP
 40
0.0
  9
$DIMTIX
 70
     0
  9
$DIMSOXD
 70
     0
  9
$DIMSAH
 70
     0
  9
$DIMBLK1
  1

  9
$DIMBLK2
  1

  9
$DIMSTYLE
  2
Standard
  9
$DIMCLRD
 70
     0
  9
$DIMCLRE
 70
     0
  9
$DIMCLRT
 70
     0
  9
$DIMTFAC
 40
1.0
  9
$DIMGAP
 40
0.09
  9
$DIMJUST
 70
     0
  9
$DIMSD1
 70
     0
  9
$DIMSD2
 70
     0
  9
$DIMTOLJ
 70
     1
  9
$DIMTZIN
 70
     0
  9
$DIMALTZ
 70
     0
  9
$DIMALTTZ
 70
     0
  9
$DIMUPT
 70
     0
  9
$DIMDEC
 70
     4
  9
$DIMTDEC
 70
     4
  9
$DIMALTU
 70
     2
  9
$DIMALTTD
 70
     2
  9
$DIMTXSTY
  7
Standard
  9
$DIMAUNIT
 70
     0
  9
$DIMADEC
 70
     0
  9
$DIMALTRND
 40
0.0
  9
$DIMAZIN
 70
     0
  9
$DIMDSEP
 70
    46
  9
$DIMATFIT
 70
     3
  9
$DIMFRAC
 70
     0
  9
$DIMLDRBLK
  1

  9
$DIMLUNIT
 70
     2
  9
$DIMLWD
 70
    -2
  9
$DIMLWE
 70
    -2
  9
$DIMTMOVE
 70
     0
  9
$LUNITS
 70
     2
  9
$LUPREC
 70
     4
  9
$SKETCHINC
 40
0.1
  9
$FILLETRAD
 40
0.5
  9
$AUNITS
 70
     0
  9
$AUPREC
 70
     0
  9
$MENU
  1
.
  9
$ELEVATION
 40
0.0
  9
$PELEVATION
 40
0.0
  9
$THICKNESS
 40
0.0
  9
$LIMCHECK
 70
     0
  9
$CHAMFERA
 40
0.5
  9
$CHAMFERB
 40
0.5
  9
$CHAMFERC
 40
1.0
  9
$CHAMFERD
 40
0.0
  9
$SKPOLY
 70
     0
  9
$TDCREATE
 40
2455644.600162755
  9
$TDUCREATE
 40
2455644.225162755
  9
$TDUPDATE
 40
2455644.600162766
  9
$TDUUPDATE
 40
2455644.225162766
  9
$TDINDWG
 40
0.0000000116
  9
$TDUSRTIMER
 40
0.0000000116
  9
$USRTIMER
 70
     1
  9
$ANGBASE
 50
0.0
  9
$ANGDIR
 70
     0
  9
$PDMODE
 70
     0
  9
$PDSIZE
 40
0.0
  9
$PLINEWID
 40
0.0
  9
$SPLFRAME
 70
     0
  9
$SPLINETYPE
 70
     6
  9
$SPLINESEGS
 70
     8
  9
$HANDSEED
  5
101
  9
$SURFTAB1
 70
     6
  9
$SURFTAB2
 70
     6
  9
$SURFTYPE
 70
     6
  9
$SURFU
 70
     6
  9
$SURFV
 70
     6
  9
$UCSBASE
  2

  9
$UCSNAME
  2

  9
$UCSORG
 10
0.0
 20
0.0
 30
0.0
  9
$UCSXDIR
 10
1.0
 20
0.0
 30
0.0
  9
$UCSYDIR
 10
0.0
 20
1.0
 30
0.0
  9
$UCSORTHOREF
  2

  9
$UCSORTHOVIEW
 70
     0
  9
$UCSORGTOP
 10
0.0
 20
0.0
 30
0.0
  9
$UCSORGBOTTOM
 10
0.0
 20
0.0
 30
0.0
  9
$UCSORGLEFT
 10
0.0
 20
0.0
 30
0.0
  9
$UCSORGRIGHT
 10
0.0
 20
0.0
 30
0.0
  9
$UCSORGFRONT
 10
0.0
 20
0.0
 30
0.0
  9
$UCSORGBACK
 10
0.0
 20
0.0
 30
0.0
  9
$PUCSBASE
  2

  9
$PUCSNAME
  2

  9
$PUCSORG
 10
0.0
 20
0.0
 30
0.0
  9
$PUCSXDIR
 10
1.0
 20
0.0
 30
0.0
  9
$PUCSYDIR
 10
0.0
 20
1.0
 30
0.0
  9
$PUCSORTHOREF
  2

  9
$PUCSORTHOVIEW
 70
     0
  9
$PUCSORGTOP
 10
0.0
 20
0.0
 30
0.0
  9
$PUCSORGBOTTOM
 10
0.0
 20
0.0
 30
0.0
  9
$PUCSORGLEFT
 10
0.0
 20
0.0
 30
0.0
  9
$PUCSORGRIGHT
 10
0.0
 20
0.0
 30
0.0
  9
$PUCSORGFRONT
 10
0.0
 20
0.0
 30
0.0
  9
$PUCSORGBACK
 10
0.0
 20
0.0
 30
0.0
  9
$USERI1
 70
     0
  9
$USERI2
 70
     0
  9
$USERI3
 70
     0
  9
$USERI4
 70
     0
  9
$USERI5
 70
     0
  9
$USERR1
 40
13.2
  9
$USERR2
 40
0.0
  9
$USERR3
 40
0.0
  9
$USERR4
 40
0.0
  9
$USERR5
 40
0.0
  9
$WORLDVIEW
 70
     1
  9
$SHADEDGE
 70
     3
  9
$SHADEDIF
 70
    70
  9
$TILEMODE
 70
     1
  9
$MAXACTVP
 70
    64
  9
$PINSBASE
 10
0.0
 20
0.0
 30
0.0
  9
$PLIMCHECK
 70
     0
  9
$PEXTMIN
 10
1.00000000000000E+20
 20
1.00000000000000E+20
 30
1.00000000000000E+20
  9
$PEXTMAX
 10
-1.00000000000000E+20
 20
-1.00000000000000E+20
 30
-1.00000000000000E+20
  9
$PLIMMIN
 10
0.0
 20
0.0
  9
$PLIMMAX
 10
12.0
 20
9.0
  9
$UNITMODE
 70
     0
  9
$VISRETAIN
 70
     1
  9
$PLINEGEN
 70
     0
  9
$PSLTSCALE
 70
     1
  9
$TREEDEPTH
 70
  3020
  9
$CMLSTYLE
  2
Standard
  9
$CMLJUST
 70
     0
  9
$CMLSCALE
 40
1.0
  9
$PROXYGRAPHICS
 70
     1
  9
$MEASUREMENT
 70
     1
  9
$CELWEIGHT
370
    -1
  9
$ENDCAPS
280
     0
  9
$JOINSTYLE
280
     0
  9
$LWDISPLAY
290
     0
  9
$INSUNITS
 70
     1
  9
$HYPERLINKBASE
  1

  9
$STYLESHEET
  1

  9
$XEDIT
290
     1
  9
$CEPSNTYPE
380
     0
  9
$PSTYLEMODE
290
     0
  9
$FINGERPRINTGUID
  2
{FAEB1C30-E019-11D5-929B-00C0DF256EC4}
  9
$VERSIONGUID
  2
{FAEB1C32-E019-11D5-929B-00C0DF256EC4}
  9
$EXTNAMES
290
     1
  9
$PSVPSCALE
 40
0.0
  9
$OLESTARTUP
290
     0
  0
ENDSEC
  0
SECTION
  2
CLASSES
  0
CLASS
  1
ACDBDICTIONARYWDFLT
  2
AcDbDictionaryWithDefault
  3
ObjectDBX Classes
 90
        0
280
     0
281
     0
  0
CLASS
  1
TABLESTYLE
  2
AcDbTableStyle
  3
ObjectDBX Classes
 90
     2047
280
     0
281
     0
  0
CLASS
  1
DICTIONARYVAR
  2
AcDbDictionaryVar
  3
ObjectDBX Classes
 90
        0
280
     0
281
     0
  0
CLASS
  1

  2
exOdDbCircle
  3

 90
        0
280
     0
281
     1
  0
CLASS
  1

  2
exOdDbSpline
  3

 90
        0
280
     0
281
     1
  0
CLASS
  1

  2
exOdDbPolyline
  3

 90
        0
280
     0
281
     1
  0
CLASS
  1
ACDBPLACEHOLDER
  2
AcDbPlaceHolder
  3
ObjectDBX Classes
 90
        0
280
     0
281
     0
  0
CLASS
  1
LAYOUT
  2
AcDbLayout
  3
ObjectDBX Classes
 90
        0
280
     0
281
     0
  0
ENDSEC
  0
SECTION
  2
TABLES
  0
TABLE
  2
VPORT
  5
8
330
0
100
AcDbSymbolTable
 70
     2
  0
VPORT
  5
29
330
8
100
AcDbSymbolTableRecord
100
AcDbViewportTableRecord
  2
*Active
 70
     0
 10
0.0
 20
0.0
 11
1.0
 21
1.0
 12
840.0
 22
1188.0
 13
0.0
 23
0.0
 14
0.5
 24
0.5
 15
0.5
 25
0.5
 16
0.0
 26
0.0
 36
1.0
 17
0.0
 27
0.0
 37
0.0
 40
2613.6
 41
1.60267857142857
 42
50.0
 43
0.0
 44
0.0
 50
0.0
 51
0.0
 71
     0
 72
   100
 73
     1
 74
     3
 75
     0
 76
     0
 77
     0
 78
     0
281
     0
 65
     1
110
0.0
120
0.0
130
0.0
111
1.0
121
0.0
131
0.0
112
0.0
122
1.0
132
0.0
 79
     0
146
0.0
  0
ENDTAB
  0
TABLE
  2
LTYPE
  5
5
330
0
100
AcDbSymbolTable
 70
     8
  0
LTYPE
  5
14
330
5
100
AcDbSymbolTableRecord
100
AcDbLinetypeTableRecord
  2
ByBlock
 70
     0
  3

 72
    65
 73
     0
 40
0.0
  0
LTYPE
  5
15
330
5
100
AcDbSymbolTableRecord
100
AcDbLinetypeTableRecord
  2
ByLayer
 70
     0
  3

 72
    65
 73
     0
 40
0.0
  0
LTYPE
  5
16
330
5
100
AcDbSymbolTableRecord
100
AcDbLinetypeTableRecord
  2
Continuous
 70
     0
  3
Solid line
 72
    65
 73
     0
 40
0.0
  0
LTYPE
  5
2E
330
5
100
AcDbSymbolTableRecord
100
AcDbLinetypeTableRecord
  2
DASHED
 70
     0
  3
Dashed
 72
    65
 73
     2
 40
15.0
 49
7.0
 74
     0
 49
-8.0
 74
     0
  0
LTYPE
  5
2F
330
5
100
AcDbSymbolTableRecord
100
AcDbLinetypeTableRecord
  2
DOTTED
 70
     0
  3
Dotted
 72
    65
 73
     2
 40
1.0
 49
0.0
 74
     0
 49
-1.0
 74
     0
  0
LTYPE
  5
30
330
5
100
AcDbSymbolTableRecord
100
AcDbLinetypeTableRecord
  2
DOT_CENTER
 70
     0
  3
Dot_Center
 72
    65
 73
     4
 40
14.0
 49
12.0
 74
     0
 49
-1.0
 74
     0
 49
0.0
 74
     0
 49
-1.0
 74
     0
  0
LTYPE
  5
31
330
5
100
AcDbSymbolTableRecord
100
AcDbLinetypeTableRecord
  2
LONG_DASHED
 70
     0
  3
Long_Dashed
 72
    65
 73
     2
 40
15.0
 49
10.0
 74
     0
 49
-5.0
 74
     0
  0
LTYPE
  5
32
330
5
100
AcDbSymbolTableRecord
100
AcDbLinetypeTableRecord
  2
DASH_CENTER
 70
     0
  3
Dash_Center
 72
    65
 73
     4
 40
14.0
 49
11.0
 74
     0
 49
-1.0
 74
     0
 49
1.0
 74
     0
 49
-1.0
 74
     0
  0
LTYPE
  5
33
330
5
100
AcDbSymbolTableRecord
100
AcDbLinetypeTableRecord
  2
PHANTOM
 70
     0
  3
Phantom
 72
    65
 73
     6
 40
13.0
 49
10.0
 74
     0
 49
-1.0
 74
     0
 49
0.0
 74
     0
 49
-1.0
 74
     0
 49
0.0
 74
     0
 49
-1.0
 74
     0
  0
LTYPE
  5
34
330
5
100
AcDbSymbolTableRecord
100
AcDbLinetypeTableRecord
  2
CENTER_DASH_DASH
 70
     0
  3
Center_Dash_Dash
 72
    65
 73
     6
 40
14.0
 49
9.0
 74
     0
 49
-1.0
 74
     0
 49
1.0
 74
     0
 49
-1.0
 74
     0
 49
1.0
 74
     0
 49
-1.0
 74
     0
  0
ENDTAB
  0
TABLE
  2
LAYER
  5
2
330
0
100
AcDbSymbolTable
 70
     3
  0
LAYER
  5
10
330
2
100
AcDbSymbolTableRecord
100
AcDbLayerTableRecord
  2
0
 70
     0
 62
     7
  6
Continuous
370
    -3
390
F
  0
LAYER
  5
35
330
2
100
AcDbSymbolTableRecord
100
AcDbLayerTableRecord
  2
1
 70
     0
 62
     7
  6
Continuous
370
    -3
390
F
  0
LAYER
  5
36
330
2
100
AcDbSymbolTableRecord
100
AcDbLayerTableRecord
  2
___C_____1
 70
     0
 62
     7
  6
Continuous
370
    -3
390
F
  0
ENDTAB
  0
TABLE
  2
STYLE
  5
3
330
0
100
AcDbSymbolTable
 70
     3
  0
STYLE
  5
11
330
3
100
AcDbSymbolTableRecord
100
AcDbTextStyleTableRecord
  2
Standard
 70
     0
 40
0.0
 41
1.0
 50
0.0
 71
     0
 42
0.2
  3
txt
  4

  0
STYLE
  5
86
330
3
100
AcDbSymbolTableRecord
100
AcDbTextStyleTableRecord
  2
CONVERTER_1
 70
     0
 40
0.0
 41
0.89
 50
0.0
 71
     0
 42
0.2
  3
msmincho.ttc
  4

1001
ACAD
1000
MS Mincho
1071
    32785
  0
STYLE
  5
B4
330
3
100
AcDbSymbolTableRecord
100
AcDbTextStyleTableRecord
  2
CONVERTER_2
 70
     0
 40
0.0
 41
0.9
 50
0.0
 71
     0
 42
0.2
  3
txt.shx
  4

  0
ENDTAB
  0
TABLE
  2
VIEW
  5
6
330
0
100
AcDbSymbolTable
 70
     0
  0
ENDTAB
  0
TABLE
  2
UCS
  5
7
330
0
100
AcDbSymbolTable
 70
     0
  0
ENDTAB
  0
TABLE
  2
APPID
  5
9
330
0
100
AcDbSymbolTable
 70
     1
  0
APPID
  5
12
330
9
100
AcDbSymbolTableRecord
100
AcDbRegAppTableRecord
  2
ACAD
 70
     0
  0
ENDTAB
  0
TABLE
  2
DIMSTYLE
  5
A
330
0
100
AcDbSymbolTable
 70
     6
100
AcDbDimStyleTable
  0
DIMSTYLE
105
27
330
A
100
AcDbSymbolTableRecord
100
AcDbDimStyleTableRecord
  2
Standard
 70
     0
340
11
  0
DIMSTYLE
105
D1
102
{ACAD_REACTORS
330
D2
102
}
330
A
100
AcDbSymbolTableRecord
100
AcDbDimStyleTableRecord
  2
ME10_DIM_0
 70
     0
 41
28.0
 42
0.0
 44
8.0
 73
     0
 74
     0
 77
     1
 78
     8
140
28.0
147
0.625
172
     1
173
     1
176
     2
177
     2
178
     7
271
     2
340
B4
  0
DIMSTYLE
105
DC
102
{ACAD_REACTORS
330
DD
102
}
330
A
100
AcDbSymbolTableRecord
100
AcDbDimStyleTableRecord
  2
ME10_DIM_1
 70
     0
  3
{\Fgdt;n}<>
 41
28.0
 42
0.0
 44
8.0
 73
     0
 74
     0
 77
     1
 78
     8
140
28.0
147
0.625
172
     1
173
     1
176
     2
177
     2
178
     7
271
     2
340
B4
  0
DIMSTYLE
105
E9
102
{ACAD_REACTORS
330
EA
102
}
330
A
100
AcDbSymbolTableRecord
100
AcDbDimStyleTableRecord
  2
ME10_DIM_2
 70
     0
 41
28.0
 42
0.0
 44
8.0
 73
     0
 74
     0
 77
     1
 78
     8
140
28.0
147
0.625
172
     1
173
     1
176
     2
177
     2
178
     7
271
     2
340
B4
  0
DIMSTYLE
105
F4
102
{ACAD_REACTORS
330
F5
102
}
330
A
100
AcDbSymbolTableRecord
100
AcDbDimStyleTableRecord
  2
ME10_DIM_3
 70
     0
 41
28.0
 42
0.0
 44
8.0
 73
     0
 74
     0
 77
     1
 78
     8
140
28.0
147
0.625
172
     1
173
     1
176
     2
177
     2
178
     7
271
     2
340
B4
  0
DIMSTYLE
105
FF
102
{ACAD_REACTORS
330
100
102
}
330
A
100
AcDbSymbolTableRecord
100
AcDbDimStyleTableRecord
  2
ME10_DIM_4
 70
     0
 41
28.0
 42
0.0
 44
8.0
 73
     0
 74
     0
 77
     1
 78
     8
140
28.0
147
0.625
172
     1
173
     1
176
     2
177
     2
178
     7
271
     2
340
B4
  0
ENDTAB
  0
TABLE
  2
BLOCK_RECORD
  5
1
330
0
100
AcDbSymbolTable
 70
     7
  0
BLOCK_RECORD
  5
1F
330
1
100
AcDbSymbolTableRecord
100
AcDbBlockTableRecord
  2
*Model_Space
340
22
  0
BLOCK_RECORD
  5
1B
330
1
100
AcDbSymbolTableRecord
100
AcDbBlockTableRecord
  2
*Paper_Space
340
1E
  0
BLOCK_RECORD
  5
23
330
1
100
AcDbSymbolTableRecord
100
AcDbBlockTableRecord
  2
*Paper_Space0
340
26
  0
BLOCK_RECORD
  5
37
330
1
100
AcDbSymbolTableRecord
100
AcDbBlockTableRecord
  2
_J__A4
340
0
102
{BLKREFS
331
3A
102
}
  0
BLOCK_RECORD
  5
C8
330
1
100
AcDbSymbolTableRecord
100
AcDbBlockTableRecord
  2
*D02
340
0
  0
BLOCK_RECORD
  5
D3
330
1
100
AcDbSymbolTableRecord
100
AcDbBlockTableRecord
  2
*D13
340
0
  0
BLOCK_RECORD
  5
DE
330
1
100
AcDbSymbolTableRecord
100
AcDbBlockTableRecord
  2
*D24
340
0
  0
BLOCK_RECORD
  5
EB
330
1
100
AcDbSymbolTableRecord
100
AcDbBlockTableRecord
  2
*D35
340
0
  0
BLOCK_RECORD
  5
F6
330
1
100
AcDbSymbolTableRecord
100
AcDbBlockTableRecord
  2
*D46
340
0
  0
ENDTAB
  0
ENDSEC
  0
SECTION
  2
BLOCKS
  0
BLOCK
  5
20
330
1F
100
AcDbEntity
  8
0
100
AcDbBlockBegin
  2
*Model_Space
 70
     0
 71
     0
 10
0.0
 20
0.0
 30
0.0
  3
*Model_Space
  1

  0
ENDBLK
  5
21
330
1F
100
AcDbEntity
  8
0
100
AcDbBlockEnd
  0
BLOCK
  5
1C
330
1B
100
AcDbEntity
 67
     1
  8
0
100
AcDbBlockBegin
  2
*Paper_Space
 70
     0
 71
     0
 10
0.0
 20
0.0
 30
0.0
  3
*Paper_Space
  1

  0
ENDBLK
  5
1D
330
1B
100
AcDbEntity
 67
     1
  8
0
100
AcDbBlockEnd
  0
BLOCK
  5
24
330
23
100
AcDbEntity
  8
0
100
AcDbBlockBegin
  2
*Paper_Space0
 70
     0
 71
     0
 10
0.0
 20
0.0
 30
0.0
  3
*Paper_Space0
  1

  0
ENDBLK
  5
25
330
23
100
AcDbEntity
  8
0
100
AcDbBlockEnd
  0
BLOCK
  5
38
330
37
100
AcDbEntity
  8
0
100
AcDbBlockBegin
  2
_J__A4
 70
     0
 71
     0
 10
0.0
 20
0.0
 30
0.0
  3
_J__A4
  1

  0
POINT
  5
3B
330
37
100
AcDbEntity
  8
1
 62
     4
100
AcDbPoint
 10
34.0
 20
34.00000000000001
 30
0.0
  0
POINT
  5
3C
330
37
100
AcDbEntity
  8
1
 62
     4
100
AcDbPoint
 10
57.0
 20
12.25
 30
0.0
  0
POINT
  5
3D
330
37
100
AcDbEntity
  8
1
 62
     4
100
AcDbPoint
 10
57.0
 20
20.75000000000001
 30
0.0
  0
POINT
  5
3E
330
37
100
AcDbEntity
  8
1
 62
     4
100
AcDbPoint
 10
57.0
 20
24.75000000000001
 30
0.0
  0
POINT
  5
3F
330
37
100
AcDbEntity
  8
1
 62
     4
100
AcDbPoint
 10
57.0
 20
16.25
 30
0.0
  0
POINT
  5
40
330
37
100
AcDbEntity
  8
1
 62
     4
100
AcDbPoint
 10
157.5
 20
19.00000000000001
 30
0.0
  0
POINT
  5
41
330
37
100
AcDbEntity
  8
1
 62
     4
100
AcDbPoint
 10
47.5
 20
282.0000000000003
 30
0.0
  0
POINT
  5
42
330
37
100
AcDbEntity
  8
1
 62
     4
100
AcDbPoint
 10
57.0
 20
22.75000000000001
 30
0.0
  0
POINT
  5
43
330
37
100
AcDbEntity
  8
1
 62
     4
100
AcDbPoint
 10
57.0
 20
14.25
 30
0.0
  0
POINT
  5
44
330
37
100
AcDbEntity
  8
1
 62
     4
100
AcDbPoint
 10
157.5
 20
12.5
 30
0.0
  0
POINT
  5
45
330
37
100
AcDbEntity
  8
1
 62
     4
100
AcDbPoint
 10
163.25
 20
12.5
 30
0.0
  0
POINT
  5
46
330
37
100
AcDbEntity
  8
1
 62
     4
100
AcDbPoint
 10
151.75
 20
12.5
 30
0.0
  0
POINT
  5
47
330
37
100
AcDbEntity
  8
1
 62
     4
100
AcDbPoint
 10
134.75
 20
12.5
 30
0.0
  0
POINT
  5
48
330
37
100
AcDbEntity
  8
1
 62
     4
100
AcDbPoint
 10
146.25
 20
12.5
 30
0.0
  0
POINT
  5
49
330
37
100
AcDbEntity
  8
1
 62
     4
100
AcDbPoint
 10
140.5
 20
12.5
 30
0.0
  0
POINT
  5
4A
330
37
100
AcDbEntity
  8
1
 62
     4
100
AcDbPoint
 10
140.5
 20
19.00000000000001
 30
0.0
  0
POINT
  5
4B
330
37
100
AcDbEntity
  8
1
 62
     4
100
AcDbPoint
 10
117.75
 20
12.5
 30
0.0
  0
POINT
  5
4C
330
37
100
AcDbEntity
  8
1
 62
     4
100
AcDbPoint
 10
129.25
 20
12.5
 30
0.0
  0
POINT
  5
4D
330
37
100
AcDbEntity
  8
1
 62
     4
100
AcDbPoint
 10
123.5
 20
12.5
 30
0.0
  0
POINT
  5
4E
330
37
100
AcDbEntity
  8
1
 62
     4
100
AcDbPoint
 10
123.5
 20
19.00000000000001
 30
0.0
  0
POINT
  5
4F
330
37
100
AcDbEntity
  8
1
 62
     4
100
AcDbPoint
 10
100.75
 20
12.5
 30
0.0
  0
POINT
  5
50
330
37
100
AcDbEntity
  8
1
 62
     4
100
AcDbPoint
 10
112.25
 20
12.5
 30
0.0
  0
POINT
  5
51
330
37
100
AcDbEntity
  8
1
 62
     4
100
AcDbPoint
 10
106.5
 20
12.5
 30
0.0
  0
POINT
  5
52
330
37
100
AcDbEntity
  8
1
 62
     4
100
AcDbPoint
 10
106.5
 20
19.00000000000001
 30
0.0
  0
POINT
  5
53
330
37
100
AcDbEntity
  8
1
 62
     4
100
AcDbPoint
 10
85.25
 20
17.0
 30
0.0
  0
POINT
  5
54
330
37
100
AcDbEntity
  8
1
 62
     4
100
AcDbPoint
 10
93.75
 20
17.0
 30
0.0
  0
LINE
  5
55
330
37
100
AcDbEntity
  8
1
  6
Continuous
 62
     2
100
AcDbLine
 10
81.0
 20
27.00000000000001
 30
0.0
 11
81.0
 21
10.0
 31
0.0
  0
LINE
  5
56
330
37
100
AcDbEntity
  8
1
  6
DOT_CENTER
 62
     2
100
AcDbLine
 10
187.0
 20
26.50000000000001
 30
0.0
 11
187.0
 21
20.50000000000001
 31
0.0
  0
LINE
  5
57
330
37
100
AcDbEntity
  8
1
  6
DOT_CENTER
 62
     2
100
AcDbLine
 10
184.0
 20
23.50000000000001
 30
0.0
 11
197.0
 21
23.50000000000001
 31
0.0
  0
LINE
  5
58
330
37
100
AcDbEntity
  8
1
  6
Continuous
 62
     7
100
AcDbLine
 10
196.0
 20
21.50000000000001
 30
0.0
 11
191.0
 21
22.30000000000001
 31
0.0
  0
LINE
  5
59
330
37
100
AcDbEntity
  8
1
  6
Continuous
 62
     7
100
AcDbLine
 10
196.0
 20
25.50000000000001
 30
0.0
 11
196.0
 21
21.50000000000001
 31
0.0
  0
LINE
  5
5A
330
37
100
AcDbEntity
  8
1
  6
Continuous
 62
     7
100
AcDbLine
 10
191.0
 20
24.70000000000001
 30
0.0
 11
196.0
 21
25.50000000000001
 31
0.0
  0
LINE
  5
5B
330
37
100
AcDbEntity
  8
1
  6
Continuous
 62
     7
100
AcDbLine
 10
191.0
 20
24.70000000000001
 30
0.0
 11
191.0
 21
22.30000000000001
 31
0.0
  0
LINE
  5
5C
330
37
100
AcDbEntity
  8
1
  6
Continuous
 62
     2
100
AcDbLine
 10
33.0
 20
27.0
 30
0.0
 11
33.0
 21
10.0
 31
0.0
  0
LINE
  5
5D
330
37
100
AcDbEntity
  8
1
  6
Continuous
 62
     2
100
AcDbLine
 10
25.0
 20
18.50000000000001
 30
0.0
 11
81.0
 21
18.50000000000001
 31
0.0
  0
LINE
  5
5E
330
37
100
AcDbEntity
  8
1
  6
Continuous
 62
     7
100
AcDbLine
 10
200.0
 20
287.0000000000003
 30
0.0
 11
105.0
 21
287.0000000000003
 31
0.0
  0
LINE
  5
5F
330
37
100
AcDbEntity
  8
1
  6
Continuous
 62
     7
100
AcDbLine
 10
200.0
 20
10.0
 30
0.0
 11
200.0
 21
148.5
 31
0.0
  0
LINE
  5
60
330
37
100
AcDbEntity
  8
1
  6
Continuous
 62
     7
100
AcDbLine
 10
25.0
 20
10.0
 30
0.0
 11
105.0
 21
10.0
 31
0.0
  0
LINE
  5
61
330
37
100
AcDbEntity
  8
1
  6
PHANTOM
 62
     4
100
AcDbLine
 10
0.0
 20
297.0
 30
0.0
 11
0.0
 21
0.0
 31
0.0
  0
LINE
  5
62
330
37
100
AcDbEntity
  8
1
  6
PHANTOM
 62
     4
100
AcDbLine
 10
210.0
 20
297.0
 30
0.0
 11
0.0
 21
297.0
 31
0.0
  0
LINE
  5
63
330
37
100
AcDbEntity
  8
1
  6
PHANTOM
 62
     4
100
AcDbLine
 10
210.0
 20
0.0
 30
0.0
 11
210.0
 21
297.0
 31
0.0
  0
LINE
  5
64
330
37
100
AcDbEntity
  8
1
  6
PHANTOM
 62
     4
100
AcDbLine
 10
0.0
 20
0.0
 30
0.0
 11
210.0
 21
0.0
 31
0.0
  0
LINE
  5
65
330
37
100
AcDbEntity
  8
1
  6
Continuous
 62
     7
100
AcDbLine
 10
25.0
 20
41.0
 30
0.0
 11
200.0
 21
41.0
 31
0.0
  0
LINE
  5
66
330
37
100
AcDbEntity
  8
1
  6
Continuous
 62
     7
100
AcDbLine
 10
200.0
 20
27.00000000000001
 30
0.0
 11
25.0
 21
27.00000000000001
 31
0.0
  0
LINE
  5
67
330
37
100
AcDbEntity
  8
1
  6
Continuous
 62
     2
100
AcDbLine
 10
33.0
 20
41.00000000000001
 30
0.0
 11
33.0
 21
27.0
 31
0.0
  0
LINE
  5
68
330
37
100
AcDbEntity
  8
1
  6
Continuous
 62
     2
100
AcDbLine
 10
55.0
 20
287.0000000000003
 30
0.0
 11
55.0
 21
277.0000000000003
 31
0.0
  0
LINE
  5
69
330
37
100
AcDbEntity
  8
1
  6
Continuous
 62
     2
100
AcDbLine
 10
40.0
 20
287.0000000000003
 30
0.0
 11
40.0
 21
277.0000000000003
 31
0.0
  0
LINE
  5
6A
330
37
100
AcDbEntity
  8
1
  6
Continuous
 62
     7
100
AcDbLine
 10
25.0
 20
10.0
 30
0.0
 11
25.0
 21
148.5
 31
0.0
  0
LINE
  5
6B
330
37
100
AcDbEntity
  8
1
  6
Continuous
 62
     2
100
AcDbLine
 10
55.0
 20
277.0000000000003
 30
0.0
 11
25.0
 21
277.0000000000003
 31
0.0
  0
LINE
  5
6C
330
37
100
AcDbEntity
  8
1
  6
Continuous
 62
     2
100
AcDbLine
 10
166.0
 20
27.00000000000001
 30
0.0
 11
166.0
 21
10.0
 31
0.0
  0
LINE
  5
6D
330
37
100
AcDbEntity
  8
1
  6
Continuous
 62
     2
100
AcDbLine
 10
132.0
 20
27.00000000000001
 30
0.0
 11
132.0
 21
9.99999999999999
 31
0.0
  0
LINE
  5
6E
330
37
100
AcDbEntity
  8
1
  6
Continuous
 62
     2
100
AcDbLine
 10
149.0
 20
27.00000000000001
 30
0.0
 11
149.0
 21
10.0
 31
0.0
  0
LINE
  5
6F
330
37
100
AcDbEntity
  8
1
  6
Continuous
 62
     2
100
AcDbLine
 10
115.0
 20
27.00000000000001
 30
0.0
 11
115.0
 21
9.99999999999999
 31
0.0
  0
LINE
  5
70
330
37
100
AcDbEntity
  8
1
  6
Continuous
 62
     2
100
AcDbLine
 10
98.0
 20
27.00000000000001
 30
0.0
 11
98.0
 21
9.99999999999999
 31
0.0
  0
LINE
  5
71
330
37
100
AcDbEntity
  8
1
  6
Continuous
 62
     2
100
AcDbLine
 10
166.0
 20
20.00000000000001
 30
0.0
 11
200.0
 21
20.00000000000001
 31
0.0
  0
LINE
  5
72
330
37
100
AcDbEntity
  8
1
  6
Continuous
 62
     2
100
AcDbLine
 10
105.0
 20
287.0000000000003
 30
0.0
 11
105.0
 21
292.0000000000003
 31
0.0
  0
LINE
  5
73
330
37
100
AcDbEntity
  8
1
  6
Continuous
 62
     7
100
AcDbLine
 10
105.0
 20
287.0000000000003
 30
0.0
 11
25.0
 21
287.0000000000003
 31
0.0
  0
LINE
  5
74
330
37
100
AcDbEntity
  8
1
  6
Continuous
 62
     7
100
AcDbLine
 10
25.0
 20
148.5
 30
0.0
 11
25.0
 21
287.0000000000003
 31
0.0
  0
LINE
  5
75
330
37
100
AcDbEntity
  8
1
  6
Continuous
 62
     7
100
AcDbLine
 10
200.0
 20
148.5
 30
0.0
 11
200.0
 21
287.0000000000003
 31
0.0
  0
LINE
  5
76
330
37
100
AcDbEntity
  8
1
  6
Continuous
 62
     2
100
AcDbLine
 10
105.0
 20
10.0
 30
0.0
 11
105.0
 21
5.0
 31
0.0
  0
LINE
  5
77
330
37
100
AcDbEntity
  8
1
  6
Continuous
 62
     7
100
AcDbLine
 10
105.0
 20
10.0
 30
0.0
 11
200.0
 21
10.0
 31
0.0
  0
LINE
  5
78
330
37
100
AcDbEntity
  8
1
  6
Continuous
 62
     2
100
AcDbLine
 10
200.0
 20
148.5
 30
0.0
 11
205.0
 21
148.5
 31
0.0
  0
LINE
  5
79
330
37
100
AcDbEntity
  8
1
  6
Continuous
 62
     2
100
AcDbLine
 10
25.0
 20
148.5
 30
0.0
 11
20.0
 21
148.5
 31
0.0
  0
CIRCLE
  5
7A
330
37
100
AcDbEntity
  8
1
  6
DOT_CENTER
 62
     7
100
AcDbCircle
 10
89.5
 20
18.0
 30
0.0
 40
0.1000000000000227
  0
CIRCLE
  5
7B
330
37
100
AcDbEntity
  8
1
  6
DOT_CENTER
 62
     7
100
AcDbCircle
 10
89.5
 20
16.0
 30
0.0
 40
0.1000000000000227
  0
CIRCLE
  5
7C
330
37
100
AcDbEntity
  8
1
  6
Continuous
 62
     7
100
AcDbCircle
 10
187.0
 20
23.50000000000001
 30
0.0
 40
2.0
  0
CIRCLE
  5
7D
330
37
100
AcDbEntity
  8
1
  6
Continuous
 62
     7
100
AcDbCircle
 10
187.0
 20
23.50000000000001
 30
0.0
 40
1.200000000000102
  0
CIRCLE
  5
7E
330
37
100
AcDbEntity
  8
1
  6
Continuous
 62
     7
100
AcDbCircle
 10
154.5
 20
12.5
 30
0.0
 40
0.3000000000000114
  0
CIRCLE
  5
7F
330
37
100
AcDbEntity
  8
1
  6
Continuous
 62
     7
100
AcDbCircle
 10
160.5
 20
12.5
 30
0.0
 40
0.3000000000000114
  0
CIRCLE
  5
80
330
37
100
AcDbEntity
  8
1
  6
Continuous
 62
     7
100
AcDbCircle
 10
143.5
 20
12.5
 30
0.0
 40
0.3000000000000114
  0
CIRCLE
  5
81
330
37
100
AcDbEntity
  8
1
  6
Continuous
 62
     7
100
AcDbCircle
 10
137.5
 20
12.5
 30
0.0
 40
0.3000000000000114
  0
CIRCLE
  5
82
330
37
100
AcDbEntity
  8
1
  6
Continuous
 62
     7
100
AcDbCircle
 10
126.5
 20
12.5
 30
0.0
 40
0.2999999999999972
  0
CIRCLE
  5
83
330
37
100
AcDbEntity
  8
1
  6
Continuous
 62
     7
100
AcDbCircle
 10
120.5
 20
12.5
 30
0.0
 40
0.2999999999999972
  0
CIRCLE
  5
84
330
37
100
AcDbEntity
  8
1
  6
Continuous
 62
     7
100
AcDbCircle
 10
109.5
 20
12.5
 30
0.0
 40
0.2999999999999972
  0
CIRCLE
  5
85
330
37
100
AcDbEntity
  8
1
  6
Continuous
 62
     7
100
AcDbCircle
 10
103.5
 20
12.5
 30
0.0
 40
0.2999999999999972
  0
MTEXT
  5
87
330
37
100
AcDbEntity
  8
1
 62
   250
100
AcDbMText
 10
25.0
 20
5.0
 30
0.0
 40
3.5
 41
0.0
 71
     4
 72
     1
  1
備考欄の文字列 原点位置=4
  7
CONVERTER_1
 73
     1
 44
0.7202881152461
  0
MTEXT
  5
88
330
37
100
AcDbEntity
  8
1
 62
     2
100
AcDbMText
 10
89.5
 20
24.00000000000001
 30
0.0
 40
3.5
 41
0.0
 71
     5
 72
     1
  1
尺度
  7
CONVERTER_1
 73
     1
 44
0.7202881152461
  0
MTEXT
  5
89
330
37
100
AcDbEntity
  8
1
 62
     2
100
AcDbMText
 10
135.5
 20
25.00000000000001
 30
0.0
 40
3.0
 41
0.0
 71
     5
 72
     1
  1
製図
  7
CONVERTER_1
 73
     1
 44
0.78031212484994
  0
MTEXT
  5
8A
330
37
100
AcDbEntity
  8
1
 62
     2
100
AcDbMText
 10
152.5
 20
25.00000000000001
 30
0.0
 40
3.0
 41
0.0
 71
     5
 72
     1
  1
担当
  7
CONVERTER_1
 73
     1
 44
0.78031212484994
  0
MTEXT
  5
8B
330
37
100
AcDbEntity
  8
1
 62
     2
100
AcDbMText
 10
118.5
 20
25.00000000000001
 30
0.0
 40
3.0
 41
0.0
 71
     5
 72
     1
  1
検図
  7
CONVERTER_1
 73
     1
 44
0.78031212484994
  0
MTEXT
  5
8C
330
37
100
AcDbEntity
  8
1
 62
     2
100
AcDbMText
 10
175.0
 20
23.50000000000001
 30
0.0
 40
3.5
 41
0.0
 71
     5
 72
     1
  1
第三角法
  7
CONVERTER_1
 73
     1
 44
0.7202881152461
  0
MTEXT
  5
8D
330
37
100
AcDbEntity
  8
1
 62
     2
100
AcDbMText
 10
101.5
 20
25.00000000000001
 30
0.0
 40
3.0
 41
0.0
 71
     5
 72
     1
  1
承認
  7
CONVERTER_1
 73
     1
 44
0.78031212484994
  0
MTEXT
  5
8E
330
37
100
AcDbEntity
  8
1
 62
     2
100
AcDbMText
 10
29.0
 20
14.25
 30
0.0
 40
3.5
 41
0.0
 71
     5
 72
     1
  1
品番
  7
CONVERTER_1
 73
     1
 44
0.96038415366146
  0
MTEXT
  5
8F
330
37
100
AcDbEntity
  8
1
 62
     2
100
AcDbMText
 10
29.0
 20
22.75
 30
0.0
 40
3.5
 41
0.0
 71
     5
 72
     1
  1
品名
  7
CONVERTER_1
 73
     1
 44
0.96038415366146
  0
MTEXT
  5
90
330
37
100
AcDbEntity
  8
1
 62
     2
100
AcDbMText
 10
29.0
 20
34.00000000000001
 30
0.0
 40
3.5
 41
0.0
 71
     5
 72
     1
  1
備考
  7
CONVERTER_1
 73
     1
 44
0.60024009603842
  0
MTEXT
  5
91
330
37
100
AcDbEntity
  8
1
 62
     2
100
AcDbMText
 10
32.5
 20
282.0000000000003
 30
0.0
 40
5.0
 41
0.0
 71
     5
 72
     1
  1
図番
  7
CONVERTER_1
 73
     1
 44
0.60024009603842
  0
MTEXT
  5
92
330
37
100
AcDbEntity
  8
1
 62
     7
100
AcDbMText
 10
171.5
 20
15.0
 30
0.0
 40
2.5
 41
0.0
 71
     5
 72
     1
  1
株式会社
  7
CONVERTER_1
 73
     1
 44
1.32052821128451
  0
MTEXT
  5
93
330
37
100
AcDbEntity
  8
1
 62
     7
100
AcDbMText
 10
188.5
 20
15.0
 30
0.0
 40
3.0
 41
0.0
 71
     5
 72
     1
  1
三栄水栓製作所
  7
CONVERTER_1
 73
     1
 44
1.32052821128451
  0
ENDBLK
  5
39
330
37
100
AcDbEntity
  8
0
100
AcDbBlockEnd
  0
BLOCK
  5
CF
330
C8
100
AcDbEntity
  8
0
100
AcDbBlockBegin
  2
*D02
 70
     1
 71
     0
 10
0.0
 20
0.0
 30
0.0
  3
*D02
  1

  0
LINE
  5
C9
330
C8
100
AcDbEntity
  8
1
  6
Continuous
 62
     2
100
AcDbLine
 10
956.137731039657
 20
1850.055873782996
 30
0.0
 11
956.137731039657
 21
1640.038635568047
 31
0.0
  0
LINE
  5
CA
330
C8
100
AcDbEntity
  8
1
  6
Continuous
 62
     2
100
AcDbLine
 10
900.1377310396571
 20
1640.038635568047
 30
0.0
 11
964.137731039657
 21
1640.038635568047
 31
0.0
  0
LINE
  5
CB
330
C8
100
AcDbEntity
  8
1
  6
Continuous
 62
     2
100
AcDbLine
 10
666.1118670151417
 20
1850.055873782996
 30
0.0
 11
964.137731039657
 21
1850.055873782996
 31
0.0
  0
SOLID
  5
CC
330
C8
100
AcDbEntity
  8
1
 62
     2
100
AcDbTrace
 10
959.8240009721041
 20
1822.055873782996
 30
0.0
 11
952.4514611072099
 21
1822.055873782996
 31
0.0
 12
956.137731039657
 22
1850.055873782996
 32
0.0
 13
956.137731039657
 23
1850.055873782996
 33
0.0
  0
SOLID
  5
CD
330
C8
100
AcDbEntity
  8
1
 62
     2
100
AcDbTrace
 10
952.4514611072099
 20
1668.038635568047
 30
0.0
 11
959.8240009721041
 21
1668.038635568047
 31
0.0
 12
956.137731039657
 22
1640.038635568047
 32
0.0
 13
956.137731039657
 23
1640.038635568047
 33
0.0
  0
MTEXT
  5
CE
330
C8
100
AcDbEntity
  8
1
 62
     7
100
AcDbMText
 10
948.137731039657
 20
1715.646876554868
 30
0.0
 40
28.0
 41
0.0
 71
     7
 72
     1
  1
210
  7
CONVERTER_2
 11
0.0
 21
1.0
 31
0.0
 73
     1
 44
0.60024009603842
  0
ENDBLK
  5
D0
330
C8
100
AcDbEntity
  8
0
100
AcDbBlockEnd
  0
BLOCK
  5
DA
330
D3
100
AcDbEntity
  8
0
100
AcDbBlockBegin
  2
*D13
 70
     1
 71
     0
 10
0.0
 20
0.0
 30
0.0
  3
*D13
  1

  0
LINE
  5
D4
330
D3
100
AcDbEntity
  8
1
  6
Continuous
 62
     2
100
AcDbLine
 10
1098.29634447351
 20
1115.266620091475
 30
0.0
 11
1519.38902453998
 21
1115.266620091475
 31
0.0
  0
LINE
  5
D5
330
D3
100
AcDbEntity
  8
1
  6
Continuous
 62
     2
100
AcDbLine
 10
1519.38902453998
 20
1004.370479503635
 30
0.0
 11
1519.38902453998
 21
1123.266620091475
 31
0.0
  0
LINE
  5
D6
330
D3
100
AcDbEntity
  8
1
  6
Continuous
 62
     2
100
AcDbLine
 10
1098.29634447351
 20
1004.370479503635
 30
0.0
 11
1098.29634447351
 21
1123.266620091475
 31
0.0
  0
SOLID
  5
D7
330
D3
100
AcDbEntity
  8
1
 62
     2
100
AcDbTrace
 10
1126.29634447351
 20
1118.952890023922
 30
0.0
 11
1126.29634447351
 21
1111.580350159028
 31
0.0
 12
1098.29634447351
 22
1115.266620091475
 32
0.0
 13
1098.29634447351
 23
1115.266620091475
 33
0.0
  0
SOLID
  5
D8
330
D3
100
AcDbEntity
  8
1
 62
     2
100
AcDbTrace
 10
1491.38902453998
 20
1111.580350159028
 30
0.0
 11
1491.38902453998
 21
1118.952890023922
 31
0.0
 12
1519.38902453998
 22
1115.266620091475
 32
0.0
 13
1519.38902453998
 23
1115.266620091475
 33
0.0
  0
MTEXT
  5
D9
330
D3
100
AcDbEntity
  8
1
 62
     7
100
AcDbMText
 10
1246.120425735292
 20
1123.266508778254
 30
0.0
 40
28.0
 41
0.0
 71
     7
 72
     1
  1
\C7;{\Fgdt;n}\C7;420
  7
CONVERTER_2
 11
0.9999999999970621
 21
2.424068405545307E-6
 31
0.0
 73
     1
 44
0.60024009603842
  0
ENDBLK
  5
DB
330
D3
100
AcDbEntity
  8
0
100
AcDbBlockEnd
  0
BLOCK
  5
E7
330
DE
100
AcDbEntity
  8
0
100
AcDbBlockBegin
  2
*D24
 70
     1
 71
     0
 10
0.0
 20
0.0
 30
0.0
  3
*D24
  1

  0
LINE
  5
DF
330
DE
100
AcDbEntity
  8
1
  6
Continuous
 62
     2
100
AcDbLine
 10
954.961691699016
 20
919.5404288640431
 30
0.0
 11
954.961691699016
 21
975.5404288640431
 31
0.0
  0
LINE
  5
E0
330
DE
100
AcDbEntity
  8
1
  6
Continuous
 62
     2
100
AcDbLine
 10
954.961691699016
 20
975.5404288640431
 30
0.0
 11
954.961691699016
 21
1035.315626919552
 31
0.0
  0
LINE
  5
E1
330
DE
100
AcDbEntity
  8
1
  6
Continuous
 62
     2
100
AcDbLine
 10
954.961691699016
 20
1035.315626919552
 30
0.0
 11
954.961691699016
 21
1091.315626919552
 31
0.0
  0
LINE
  5
E2
330
DE
100
AcDbEntity
  8
1
  6
Continuous
 62
     2
100
AcDbLine
 10
466.0966498692455
 20
1035.315626919552
 30
0.0
 11
962.961691699016
 21
1035.315626919552
 31
0.0
  0
LINE
  5
E3
330
DE
100
AcDbEntity
  8
1
  6
Continuous
 62
     2
100
AcDbLine
 10
877.7633492379812
 20
975.5404288640431
 30
0.0
 11
962.961691699016
 21
975.5404288640431
 31
0.0
  0
SOLID
  5
E4
330
DE
100
AcDbEntity
  8
1
 62
     2
100
AcDbTrace
 10
958.6479616314631
 20
947.5404288640431
 30
0.0
 11
951.2754217665689
 21
947.5404288640431
 31
0.0
 12
954.961691699016
 22
975.5404288640431
 32
0.0
 13
954.961691699016
 23
975.5404288640431
 33
0.0
  0
SOLID
  5
E5
330
DE
100
AcDbEntity
  8
1
 62
     2
100
AcDbTrace
 10
951.2754217665689
 20
1063.315626919552
 30
0.0
 11
958.6479616314631
 21
1063.315626919552
 31
0.0
 12
954.961691699016
 22
1035.315626919552
 32
0.0
 13
954.961691699016
 23
1035.315626919552
 33
0.0
  0
MTEXT
  5
E6
330
DE
100
AcDbEntity
  8
1
 62
     7
100
AcDbMText
 10
946.961691699016
 20
984.75745881671
 30
0.0
 40
28.0
 41
0.0
 71
     7
 72
     1
  1
60
  7
CONVERTER_2
 11
0.0
 21
1.0
 31
0.0
 73
     1
 44
0.60024009603842
  0
ENDBLK
  5
E8
330
DE
100
AcDbEntity
  8
0
100
AcDbBlockEnd
  0
BLOCK
  5
F2
330
EB
100
AcDbEntity
  8
0
100
AcDbBlockBegin
  2
*D35
 70
     1
 71
     0
 10
0.0
 20
0.0
 30
0.0
  3
*D35
  1

  0
LINE
  5
EC
330
EB
100
AcDbEntity
  8
1
  6
Continuous
 62
     2
100
AcDbLine
 10
382.9789904055947
 20
811.7562620630292
 30
0.0
 11
382.9789904055947
 21
1035.315626919552
 31
0.0
  0
LINE
  5
ED
330
EB
100
AcDbEntity
  8
1
  6
Continuous
 62
     2
100
AcDbLine
 10
466.0966498692455
 20
1035.315626919552
 30
0.0
 11
374.9789904055947
 21
1035.315626919552
 31
0.0
  0
LINE
  5
EE
330
EB
100
AcDbEntity
  8
1
  6
Continuous
 62
     2
100
AcDbLine
 10
641.6421767476247
 20
811.7562620630292
 30
0.0
 11
374.9789904055947
 21
811.7562620630292
 31
0.0
  0
SOLID
  5
EF
330
EB
100
AcDbEntity
  8
1
 62
     2
100
AcDbTrace
 10
379.2927204731476
 20
839.7562620630292
 30
0.0
 11
386.6652603380418
 21
839.7562620630292
 31
0.0
 12
382.9789904055947
 22
811.7562620630292
 32
0.0
 13
382.9789904055947
 23
811.7562620630292
 33
0.0
  0
SOLID
  5
F0
330
EB
100
AcDbEntity
  8
1
 62
     2
100
AcDbTrace
 10
386.6652603380418
 20
1007.315626919552
 30
0.0
 11
379.2927204731476
 21
1007.315626919552
 31
0.0
 12
382.9789904055947
 22
1035.315626919552
 32
0.0
 13
382.9789904055947
 23
1035.315626919552
 33
0.0
  0
MTEXT
  5
F1
330
EB
100
AcDbEntity
  8
1
 62
     7
100
AcDbMText
 10
374.9789904055947
 20
888.2901091269597
 30
0.0
 40
28.0
 41
0.0
 71
     7
 72
     1
  1
230
  7
CONVERTER_2
 11
0.0
 21
1.0
 31
0.0
 73
     1
 44
0.60024009603842
  0
ENDBLK
  5
F3
330
EB
100
AcDbEntity
  8
0
100
AcDbBlockEnd
  0
BLOCK
  5
FD
330
F6
100
AcDbEntity
  8
0
100
AcDbBlockBegin
  2
*D46
 70
     1
 71
     0
 10
0.0
 20
0.0
 30
0.0
  3
*D46
  1

  0
LINE
  5
F7
330
F6
100
AcDbEntity
  8
1
  6
Continuous
 62
     2
100
AcDbLine
 10
1018.961691699016
 20
839.6682474504476
 30
0.0
 11
1018.961691699016
 21
975.5404288640431
 31
0.0
  0
LINE
  5
F8
330
F6
100
AcDbEntity
  8
1
  6
Continuous
 62
     2
100
AcDbLine
 10
877.7633492379812
 20
975.5404288640431
 30
0.0
 11
1026.961691699016
 21
975.5404288640431
 31
0.0
  0
LINE
  5
F9
330
F6
100
AcDbEntity
  8
1
  6
Continuous
 62
     2
100
AcDbLine
 10
765.5350660334404
 20
839.6682474504476
 30
0.0
 11
1026.961691699016
 21
839.6682474504476
 31
0.0
  0
SOLID
  5
FA
330
F6
100
AcDbEntity
  8
1
 62
     2
100
AcDbTrace
 10
1015.275421766569
 20
867.6682474504476
 30
0.0
 11
1022.647961631463
 21
867.6682474504476
 31
0.0
 12
1018.961691699016
 22
839.6682474504476
 32
0.0
 13
1018.961691699016
 23
839.6682474504476
 33
0.0
  0
SOLID
  5
FB
330
F6
100
AcDbEntity
  8
1
 62
     2
100
AcDbTrace
 10
1022.647961631463
 20
947.5404288640431
 30
0.0
 11
1015.275421766569
 21
947.5404288640431
 31
0.0
 12
1018.961691699016
 22
975.5404288640431
 32
0.0
 13
1018.961691699016
 23
975.5404288640431
 33
0.0
  0
MTEXT
  5
FC
330
F6
100
AcDbEntity
  8
1
 62
     7
100
AcDbMText
 10
1010.961691699016
 20
880.7737469665784
 30
0.0
 40
28.0
 41
0.0
 71
     7
 72
     1
  1
138
  7
CONVERTER_2
 11
0.0
 21
1.0
 31
0.0
 73
     1
 44
0.60024009603842
  0
ENDBLK
  5
FE
330
F6
100
AcDbEntity
  8
0
100
AcDbBlockEnd
  0
ENDSEC
  0
SECTION
  2
ENTITIES
  0
INSERT
  5
3A
330
1F
100
AcDbEntity
  8
1
100
AcDbBlockReference
  2
_J__A4
 10
0.0
 20
0.0
 30
0.0
 41
8.0
 42
8.0
 43
8.0
  0
LINE
  5
96
330
1F
100
AcDbEntity
  8
___C_____1
  6
Continuous
 62
     7
100
AcDbLine
 10
559.3974461085197
 20
839.6682474504476
 30
0.0
 11
734.4253112652552
 21
839.6682474504476
 31
0.0
  0
LINE
  5
97
330
1F
100
AcDbEntity
  8
1
  6
DASH_CENTER
 62
     2
100
AcDbLine
 10
432.0946121616507
 20
1640.038635568047
 30
0.0
 11
900.137731039657
 21
1640.038635568047
 31
0.0
  0
LINE
  5
98
330
1F
100
AcDbEntity
  8
1
  6
DASH_CENTER
 62
     2
100
AcDbLine
 10
666.1118670151416
 20
1406.021375797881
 30
0.0
 11
666.1118670151416
 21
1850.055873782996
 31
0.0
  0
LINE
  5
99
330
1F
100
AcDbEntity
  8
1
  6
DASH_CENTER
 62
     2
100
AcDbLine
 10
666.1118670151416
 20
1850.055873782996
 30
0.0
 11
666.1118670151416
 21
1874.055873782996
 31
0.0
  0
LINE
  5
9A
330
1F
100
AcDbEntity
  8
1
  6
Continuous
 62
     7
100
AcDbLine
 10
462.969027499604
 20
1035.76976675373
 30
0.0
 11
462.9789904055944
 21
1025.256423456616
 31
0.0
  0
LINE
  5
9B
330
1F
100
AcDbEntity
  8
1
  6
Continuous
 62
     7
100
AcDbLine
 10
466.0966498692455
 20
1035.315626919552
 30
0.0
 11
462.969027499604
 21
1035.76976675373
 31
0.0
  0
LINE
  5
9C
330
1F
100
AcDbEntity
  8
___C_____1
  6
Continuous
 62
     7
100
AcDbLine
 10
466.0966498692455
 20
1035.315626919552
 30
0.0
 11
877.7633492379812
 21
975.5404288640431
 31
0.0
  0
LINE
  5
9D
330
1F
100
AcDbEntity
  8
1
  6
Continuous
 62
     7
100
AcDbLine
 10
874.6721925928343
 20
964.739188770836
 30
0.0
 11
877.7633492379812
 21
975.5404288640431
 31
0.0
  0
LINE
  5
9E
330
1F
100
AcDbEntity
  8
1
  6
Continuous
 62
     7
100
AcDbLine
 10
765.5350660334404
 20
839.6682474504476
 30
0.0
 11
783.8177127827913
 21
851.204610605259
 31
0.0
  0
LINE
  5
9F
330
1F
100
AcDbEntity
  8
___C_____1
  6
Continuous
 62
     7
100
AcDbLine
 10
734.4253112652552
 20
839.6682474504476
 30
0.0
 11
765.5350660334404
 21
839.6682474504476
 31
0.0
  0
CIRCLE
  5
A0
330
1F
100
AcDbEntity
  8
___C_____1
  6
Continuous
 62
     7
100
AcDbCircle
 10
666.1118667546574
 20
1640.038635568047
 30
0.0
 40
23.00212294606024
  0
CIRCLE
  5
A1
330
1F
100
AcDbEntity
  8
___C_____1
  6
Continuous
 62
     7
100
AcDbCircle
 10
666.1118667546574
 20
1640.038635568047
 30
0.0
 40
38.13014988275415
  0
CIRCLE
  5
A2
330
1F
100
AcDbEntity
  8
___C_____1
  6
Continuous
 62
     7
100
AcDbCircle
 10
666.1118667546574
 20
1632.190346428223
 30
0.0
 40
178.7705370143752
  0
CIRCLE
  5
A3
330
1F
100
AcDbEntity
  8
___C_____1
  6
Continuous
 62
     7
100
AcDbCircle
 10
666.1118667546574
 20
1640.038635568047
 30
0.0
 40
210.0172545930067
  0
CIRCLE
  5
A4
330
1F
100
AcDbEntity
  8
___C_____1
  6
Continuous
 62
     7
100
AcDbCircle
 10
666.1118667546574
 20
1640.038635568047
 30
0.0
 40
210.0172545930067
  0
SPLINE
  5
A5
330
1F
100
AcDbEntity
  8
___C_____1
  6
Continuous
 62
     7
100
AcDbSpline
210
0.0
220
0.0
230
1.0
 70
     8
 71
     3
 72
    80
 73
    76
 74
    74
 42
0.0000000001
 43
0.0000000001
 44
0.00000001
 40
0.0
 40
0.0
 40
0.0
 40
0.0
 40
0.0916522894088467
 40
0.1838973826040594
 40
0.2999364095946796
 40
0.638770368407095
 40
1.18647457580265
 40
1.929124348542119
 40
2.852795003387187
 40
3.943561857098403
 40
5.187500226437224
 40
6.570685428164766
 40
8.079192779042259
 40
9.699097595830367
 40
11.41647519529089
 40
13.21740089418437
 40
15.08795000927238
 40
17.01419785731569
 40
18.98221975507566
 40
20.97809101931328
 40
22.98788696679002
 40
24.99768291426675
 40
26.99355417850437
 40
28.96157607626456
 40
30.88782392430765
 40
32.75837303939578
 40
34.55929873828914
 40
36.27667633774966
 40
37.89658115453788
 40
39.40508850541526
 40
40.78827370714269
 40
42.03221207648174
 40
43.12297893019284
 40
44.0466495850378
 40
44.78929935777738
 40
45.33700356517294
 40
45.67583752398535
 40
45.79187655097597
 40
47.64980579216232
 40
49.30314257592345
 40
50.7730560398185
 40
52.08087843564024
 40
53.24829572574886
 40
54.29761256639504
 40
55.25206875807548
 40
56.13612451269245
 40
56.97555810828798
 40
57.79720171816429
 40
58.62827451263279
 40
59.49552827113963
 40
60.42456998057541
 40
61.439596691125
 40
62.5635140486306
 40
63.81825723407241
 40
65.2251434645908
 40
66.40487109587023
 40
67.85594696242256
 40
69.54422998556932
 40
71.43556116411186
 40
73.49577325772764
 40
75.69069470920266
 40
77.98615148127541
 40
80.34796801081946
 40
82.74196774485918
 40
85.13397346080632
 40
87.48980746768164
 40
89.77529173817125
 40
91.956247998924
 40
93.99849779522992
 40
95.86786254061931
 40
97.53016356006711
 40
98.9512221381748
 40
100.0968595988575
 40
101.1192253198164
 40
102.1137261353689
 40
102.1137261353689
 40
102.1137261353689
 40
102.1137261353689
 10
641.6421767476227
 20
811.7562620630292
 30
0.0
 10
641.6727268879365
 20
811.756058504878
 30
0.0
 10
641.734024765798
 20
811.7556500719684
 30
0.0
 10
641.8340038149643
 20
811.7555271116642
 30
0.0
 10
642.0163763877184
 20
811.7555872226448
 30
0.0
 10
642.35056887959
 20
811.7555401624404
 30
0.0
 10
642.8936314741306
 20
811.7555660449319
 30
0.0
 10
643.6316397077338
 20
811.7555550755787
 30
0.0
 10
644.550668793327
 20
811.7555591608132
 30
0.0
 10
645.636794088774
 20
811.7555577534004
 30
0.0
 10
646.8760908961131
 20
811.7555582134758
 30
0.0
 10
648.2546345370506
 20
811.7555580687019
 30
0.0
 10
649.7585003267595
 20
811.7555581129477
 30
0.0
 10
651.3737635824948
 20
811.7555580997371
 30
0.0
 10
653.0864996208676
 20
811.7555581036058
 30
0.0
 10
654.882783758684
 20
811.7555581024917
 30
0.0
 10
656.7486913126918
 20
811.755558102808
 30
0.0
 10
658.6702975996557
 20
811.7555581027193
 30
0.0
 10
660.633677936336
 20
811.755558102744
 30
0.0
 10
662.624907639494
 20
811.7555581027369
 30
0.0
 10
664.6300620258909
 20
811.755558102739
 30
0.0
 10
666.635216412288
 20
811.7555581027382
 30
0.0
 10
668.6264461154462
 20
811.7555581027382
 30
0.0
 10
670.5898264521265
 20
811.7555581027401
 30
0.0
 10
672.5114327390903
 20
811.7555581027336
 30
0.0
 10
674.3773402930983
 20
811.7555581027557
 30
0.0
 10
676.1736244309125
 20
811.755558102678
 30
0.0
 10
677.8863604692934
 20
811.7555581029474
 30
0.0
 10
679.5016237250012
 20
811.7555581020288
 30
0.0
 10
681.0054895148012
 20
811.7555581051051
 30
0.0
 10
682.3840331554427
 20
811.7555580950391
 30
0.0
 10
683.6233299637227
 20
811.7555581270283
 30
0.0
 10
684.7094552562902
 20
811.7555580291697
 30
0.0
 10
685.6284843502419
 20
811.7555583132196
 30
0.0
 10
686.3664925614013
 20
811.7555575505107
 30
0.0
 10
686.9095552088979
 20
811.7555593501437
 30
0.0
 10
687.243747604484
 20
811.7555560780046
 30
0.0
 10
688.014681691738
 20
811.7555737460798
 30
0.0
 10
689.2237825787493
 20
811.7543589412217
 30
0.0
 10
690.8841778870672
 20
811.7548313830572
 30
0.0
 10
692.3611899156389
 20
811.7644535685841
 30
0.0
 10
693.6760528707218
 20
811.7899927544031
 30
0.0
 10
694.8500480740872
 20
811.8383192934766
 30
0.0
 10
695.9044850569002
 20
811.9164354476006
 30
0.0
 10
696.8606326140321
 20
812.0315285088609
 30
0.0
 10
697.7395849273153
 20
812.1909567277714
 30
0.0
 10
698.5621197599683
 20
812.4020884030474
 30
0.0
 10
699.3487132835926
 20
812.6719899590205
 30
0.0
 10
700.119822284358
 20
813.007187901134
 30
0.0
 10
700.8962402206309
 20
813.4137707837704
 30
0.0
 10
701.6992014639627
 20
813.8977455906389
 30
0.0
 10
702.5502100210902
 20
814.465311509948
 30
0.0
 10
703.4708059653681
 20
815.1229257111683
 30
0.0
 10
704.4824744308708
 20
815.8771861593277
 30
0.0
 10
705.5003813160079
 20
816.6540019358026
 30
0.0
 10
706.5676944943492
 20
817.4739375872975
 30
0.0
 10
707.7028868875256
 20
818.3594260710268
 30
0.0
 10
709.022117829372
 20
819.3946125216229
 30
0.0
 10
710.4980378620008
 20
820.5590227952257
 30
0.0
 10
712.1042966313926
 20
821.830873665966
 30
0.0
 10
713.8142449905377
 20
823.1887703015004
 30
0.0
 10
715.6013388994278
 20
824.6111800550409
 30
0.0
 10
717.4390097180695
 20
826.0766021426744
 30
0.0
 10
719.3006998924922
 20
827.5635212082914
 30
0.0
 10
721.1598512009005
 20
829.0504227174174
 30
0.0
 10
722.989907173364
 20
830.5157898680457
 30
0.0
 10
724.7643122259414
 20
831.9381045894893
 30
0.0
 10
726.4565107905919
 20
833.2958492108236
 30
0.0
 10
728.0399505829601
 20
834.5675004077334
 30
0.0
 10
729.4880716982947
 20
835.73154950804
 30
0.0
 10
730.77434327675
 20
836.7664350792667
 30
0.0
 10
731.8721532720235
 20
837.6507476792449
 30
0.0
 10
732.8034891362345
 20
838.4016036370344
 30
0.0
 10
733.6230536025576
 20
839.0648095141075
 30
0.0
 10
734.1603665386691
 20
839.4689627237453
 30
0.0
 10
734.4253112653015
 20
839.668247450482
 30
0.0
 11
641.6421767476227
 21
811.7562620630292
 31
0.0
 11
641.733827516431
 21
811.7557341134824
 31
0.0
 11
641.826072441705
 21
811.7555581027385
 31
0.0
 11
641.9421114686957
 21
811.7555581027384
 31
0.0
 11
642.2809454275081
 21
811.7555581027384
 31
0.0
 11
642.8286496349036
 21
811.7555581027385
 31
0.0
 11
643.5712994076431
 21
811.7555581027383
 31
0.0
 11
644.4949700624882
 21
811.7555581027385
 31
0.0
 11
645.5857369161994
 21
811.7555581027385
 31
0.0
 11
646.8296752855382
 21
811.7555581027385
 31
0.0
 11
648.2128604872657
 21
811.7555581027385
 31
0.0
 11
649.7213678381432
 21
811.7555581027385
 31
0.0
 11
651.3412726549313
 21
811.7555581027385
 31
0.0
 11
653.0586502543919
 21
811.7555581027385
 31
0.0
 11
654.8595759532853
 21
811.7555581027386
 31
0.0
 11
656.7301250683734
 21
811.7555581027385
 31
0.0
 11
658.6563729164167
 21
811.7555581027386
 31
0.0
 11
660.6243948141766
 21
811.7555581027385
 31
0.0
 11
662.6202660784143
 21
811.7555581027385
 31
0.0
 11
664.630062025891
 21
811.7555581027385
 31
0.0
 11
666.6398579733677
 21
811.7555581027385
 31
0.0
 11
668.6357292376054
 21
811.7555581027385
 31
0.0
 11
670.6037511353655
 21
811.7555581027386
 31
0.0
 11
672.5299989834086
 21
811.7555581027385
 31
0.0
 11
674.4005480984968
 21
811.7555581027386
 31
0.0
 11
676.2014737973901
 21
811.7555581027384
 31
0.0
 11
677.9188513968506
 21
811.7555581027385
 31
0.0
 11
679.5387562136389
 21
811.7555581027386
 31
0.0
 11
681.0472635645162
 21
811.7555581027386
 31
0.0
 11
682.4304487662437
 21
811.7555581027386
 31
0.0
 11
683.6743871355827
 21
811.7555581027385
 31
0.0
 11
684.7651539892938
 21
811.7555581027385
 31
0.0
 11
685.6888246441388
 21
811.7555581027384
 31
0.0
 11
686.4314744168784
 21
811.7555581027385
 31
0.0
 11
686.9791786242739
 21
811.7555581027384
 31
0.0
 11
687.3180125830863
 21
811.7555581027385
 31
0.0
 11
687.434051610077
 21
811.7555581027385
 31
0.0
 11
689.2919806590182
 21
811.7547129072566
 31
0.0
 11
690.9453162887962
 21
811.7566663258596
 31
0.0
 11
692.4151848794209
 21
811.7681518661209
 31
0.0
 11
693.7227128109025
 21
811.795903035613
 31
0.0
 11
694.8890264632514
 21
811.846653341909
 31
0.0
 11
695.935252216478
 21
811.9271362925822
 31
0.0
 11
696.8825164505927
 21
812.0440853952052
 31
0.0
 11
697.7519455456053
 21
812.2042341573514
 31
0.0
 11
698.5646658815267
 21
812.4143160865938
 31
0.0
 11
699.341803838367
 21
812.6810646905051
 31
0.0
 11
700.1044857961365
 21
813.0112134766586
 31
0.0
 11
700.8738381348453
 21
813.4114959526271
 31
0.0
 11
701.6709872345041
 21
813.8886456259839
 31
0.0
 11
702.5170594751228
 21
814.4493960043018
 31
0.0
 11
703.433181236712
 21
815.1004805951538
 31
0.0
 11
704.440478899282
 21
815.8486329061132
 31
0.0
 11
705.560078842843
 21
816.7005864447526
 31
0.0
 11
706.495170246797
 21
817.4198647985598
 31
0.0
 11
707.6401422646278
 21
818.3113019802362
 31
0.0
 11
708.968440744343
 21
819.3533781362977
 31
0.0
 11
710.4535115339506
 21
820.524573413261
 31
0.0
 11
712.0688004814583
 21
821.8033679576427
 31
0.0
 11
713.7877534348739
 21
823.1682419159586
 31
0.0
 11
715.5838162422056
 21
824.5976754347256
 31
0.0
 11
717.4304347514608
 21
826.0701486604596
 31
0.0
 11
719.3010548106474
 21
827.5641417396774
 31
0.0
 11
721.1691222677736
 21
829.058134818895
 31
0.0
 11
723.0080829708467
 21
830.5306080446289
 31
0.0
 11
724.791382767875
 21
831.9600415633958
 31
0.0
 11
726.492467506866
 21
833.3249155217116
 31
0.0
 11
728.0847830358277
 21
834.6037100660926
 31
0.0
 11
729.5417752027678
 21
835.7749053430555
 31
0.0
 11
730.8368898556945
 21
836.8169814991169
 31
0.0
 11
731.9435728426151
 21
837.7084186807925
 31
0.0
 11
732.8352700115379
 21
838.4276970345991
 31
0.0
 11
733.634036889919
 21
839.0658217413712
 31
0.0
 11
734.4253112653015
 21
839.668247450482
 31
0.0
  0
SPLINE
  5
A6
330
1F
100
AcDbEntity
  8
___C_____1
  6
Continuous
 62
     7
100
AcDbSpline
210
0.0
220
0.0
230
1.0
 70
    11
 71
     3
 72
    15
 73
    11
 74
     9
 42
0.0000000001
 43
0.0000000001
 44
0.00000001
 40
0.0
 40
0.0
 40
0.0
 40
0.0
 40
160.7339825644131
 40
321.4745173884964
 40
482.2150522125791
 40
642.949034776992
 40
803.6939613429513
 40
964.4365566794071
 40
1125.179152015863
 40
1285.924078581823
 40
1285.924078581823
 40
1285.924078581823
 40
1285.924078581823
 10
666.1118670151416
 20
1850.055873782996
 30
0.0
 10
611.2566182411703
 20
1836.937629554088
 30
0.0
 10
501.5438845398738
 20
1810.700606336035
 30
0.0
 10
433.3824326592273
 20
1638.398908798331
 30
0.0
 10
501.5439308163935
 20
1475.935373533918
 30
0.0
 10
666.1154168784126
 20
1407.06525934772
 30
0.0
 10
830.6887168170367
 20
1475.93244630599
 30
0.0
 10
898.8620849367135
 20
1638.398827919928
 30
0.0
 10
830.6886705371992
 20
1810.704038320459
 30
0.0
 10
720.97106672399
 20
1836.938531883354
 30
0.0
 10
666.1118670151416
 20
1850.055873782996
 30
0.0
 11
666.1118670151416
 21
1850.055873782996
 31
0.0
 11
517.6134843323609
 21
1788.54454562618
 31
0.0
 11
456.1032330545402
 21
1640.038624790438
 31
0.0
 11
517.6134843323609
 21
1491.532703954697
 31
0.0
 11
666.1118670151416
 21
1430.021375797881
 31
0.0
 11
814.6220953668623
 21
1491.532703954696
 31
0.0
 11
876.1377310396572
 21
1640.038624790438
 31
0.0
 11
814.6220953668623
 21
1788.54454562618
 31
0.0
 11
666.1118670151416
 21
1850.055873782996
 31
0.0
  0
SPLINE
  5
A7
330
1F
100
AcDbEntity
  8
___C_____1
  6
Continuous
 62
     7
100
AcDbSpline
210
0.0
220
0.0
230
1.0
 70
     8
 71
     3
 72
   261
 73
   257
 74
   255
 42
0.0000000001
 43
0.0000000001
 44
0.00000001
 40
0.0
 40
0.0
 40
0.0
 40
0.0
 40
8.425138750313753
 40
16.7752918144051
 40
25.05721273138124
 40
33.27736748460679
 40
41.44193928926313
 40
49.55683576678695
 40
57.62769843189199
 40
65.65991438763992
 40
73.65863009819438
 40
81.62876708774739
 40
89.57503939759393
 40
97.50197262120526
 40
105.4139243289964
 40
113.3151056897571
 40
121.2096040937664
 40
129.101406582851
 40
136.994423894394
 40
144.8925149290526
 40
152.7995114551578
 40
160.7192428661449
 40
168.6555608105807
 40
176.612363517321
 40
184.5936196410517
 40
187.1482564813472
 40
189.3410837711774
 40
191.2053724916534
 40
192.7744191644459
 40
194.0815797254159
 40
195.1603313883943
 40
196.044380256332
 40
196.7678323615647
 40
197.365415860519
 40
197.8726314899448
 40
198.3255119631083
 40
198.7596947677228
 40
199.209245670488
 40
199.7063450437926
 40
200.4170396965542
 40
201.0086277159168
 40
201.5299535018054
 40
202.046912766267
 40
202.6365046917359
 40
203.3704223289998
 40
204.3087886893666
 40
205.5037944231288
 40
207.0039223933464
 40
207.1746434696973
 40
207.6722772454442
 40
208.4750295406267
 40
209.5611061752857
 40
210.9087129694613
 40
212.4960557431935
 40
214.3013403165229
 40
216.3027725094897
 40
218.4785581421344
 40
220.8069030344967
 40
223.2660130066175
 40
225.8340938785367
 40
228.4893514702945
 40
231.2099916019318
 40
233.9742200934887
 40
236.7602427650048
 40
239.5462654365211
 40
242.310493928078
 40
245.0311340597153
 40
247.6863916514734
 40
250.2544725233925
 40
252.7135824955134
 40
255.0419273878757
 40
257.2177130205204
 40
259.219145213487
 40
261.0244297868163
 40
262.6117725605485
 40
263.9593793547241
 40
265.045455989383
 40
265.8482082845657
 40
266.3458420603123
 40
266.5165631366634
 40
266.6846229004767
 40
267.1695953617658
 40
267.9426702753065
 40
268.975037395873
 40
270.2378864782403
 40
271.7024072771836
 40
273.3397895474775
 40
275.1212230438968
 40
277.0178975212165
 40
279.0010027342118
 40
281.0417284376571
 40
283.1112643863277
 40
285.1808003349981
 40
287.2215260384436
 40
289.2046312514387
 40
291.1013057287587
 40
292.882739225178
 40
294.5201214954719
 40
295.984642294415
 40
297.2474913767823
 40
298.2798584973488
 40
299.0529334108894
 40
299.5379058721788
 40
299.7059656359919
 40
299.8777502002127
 40
300.374278187206
 40
301.1673110384705
 40
302.2286101955041
 40
303.5299370998047
 40
305.0430531928702
 40
306.7397199161986
 40
308.5916987112884
 40
310.5707510196368
 40
312.6486382827426
 40
314.7971219421028
 40
316.9879634392165
 40
319.192924215581
 40
321.3837657126948
 40
323.5322493720554
 40
325.610136635161
 40
327.5891889435094
 40
329.4411677385991
 40
331.1378344619278
 40
332.6509505549933
 40
333.9522774592937
 40
335.0135766163272
 40
335.8066094675918
 40
336.3031374545855
 40
336.4749220188058
 40
336.6466260841677
 40
337.1429213963783
 40
337.9355826296245
 40
338.9963844580931
 40
340.2971015559721
 40
341.8095085974477
 40
343.5053802567071
 40
345.3564912079377
 40
347.3346161253263
 40
349.4115296830604
 40
351.5590065553262
 40
353.7488214163117
 40
355.9527489402038
 40
358.1425638011896
 40
360.2900406734556
 40
362.3669542311894
 40
364.3450791485783
 40
366.1961900998089
 40
367.8920617590683
 40
369.4044688005437
 40
370.7051858984227
 40
371.7659877268915
 40
372.5586489601375
 40
373.0549442723481
 40
373.2266483377099
 40
373.394681211846
 40
373.8795760772104
 40
374.6525272982369
 40
375.6847292393589
 40
376.9473762650108
 40
378.4116627396259
 40
380.0487830276384
 40
381.8299314934816
 40
383.7263025015899
 40
385.7090904163965
 40
387.7494896023358
 40
389.8186944238409
 40
391.8878992453465
 40
393.9282984312854
 40
395.9110863460923
 40
397.8074573542004
 40
399.5886058200438
 40
401.2257261080561
 40
402.6900125826713
 40
403.952659608323
 40
404.9848615494452
 40
405.7578127704716
 40
406.242707635836
 40
406.4107405099721
 40
406.5814862998549
 40
407.079192112917
 40
407.8820606142803
 40
408.9682944690657
 40
410.3160963423949
 40
411.9036688993894
 40
413.7092148051699
 40
415.7109367248581
 40
417.8870373235756
 40
420.2157192664437
 40
422.6751852185836
 40
425.2436378451166
 40
427.8992798111644
 40
430.6203137818479
 40
433.3849424222887
 40
436.1713683976081
 40
438.9577943729277
 40
441.7224230133683
 40
444.4434569840518
 40
447.0990989500996
 40
449.6675515766326
 40
452.1270175287722
 40
454.4556994716403
 40
456.6318000703577
 40
458.6335219900463
 40
460.439067895827
 40
462.0266404528213
 40
463.3744423261505
 40
464.4606761809359
 40
465.2635446822991
 40
465.7612504953615
 40
465.9319962852441
 40
467.4344050323717
 40
468.6306985051911
 40
469.5696424622396
 40
470.303711678594
 40
470.8933148096104
 40
471.4104050717513
 40
471.9321412308152
 40
472.5244805844735
 40
473.2363549403791
 40
473.7333902140637
 40
474.1827535318193
 40
474.6166223375675
 40
475.0690579856603
 40
475.575707273486
 40
476.1726292618494
 40
476.8953609806866
 40
477.7786696220793
 40
478.8566995469789
 40
480.1631935612517
 40
481.7316640230655
 40
483.5955007653808
 40
485.7880332665273
 40
488.3425647678023
 40
496.3264086268871
 40
504.2853544592008
 40
512.2234093771463
 40
520.1445099679672
 40
528.0525458893324
 40
535.9513839513505
 40
543.8448925104763
 40
551.7369659979629
 40
559.6315494025132
 40
567.53266252356
 40
575.4444238083723
 40
583.371073583093
 40
591.3169964852754
 40
599.2867429039832
 40
607.2850492335283
 40
615.3168567491506
 40
623.3873289178968
 40
631.5018669663524
 40
639.6661235391504
 40
647.886014298782
 40
656.1677273383937
 40
664.5177303049615
 40
672.9427751602663
 40
672.9427751602663
 40
672.9427751602663
 40
672.9427751602663
 10
1098.303492656386
 20
1004.370479503635
 30
0.0
 10
1098.505177306245
 20
1001.568959460881
 30
0.0
 10
1098.906751565867
 20
995.9908535526133
 30
0.0
 10
1099.936743325961
 20
987.6986536459345
 30
0.0
 10
1101.269980805712
 20
979.5207430796511
 30
0.0
 10
1102.93084740232
 20
971.4654757919562
 30
0.0
 10
1104.905129291562
 20
963.53888350175
 30
0.0
 10
1107.188833843243
 20
955.7476098288162
 30
0.0
 10
1109.775259192899
 20
948.0981332434751
 30
0.0
 10
1112.658423286022
 20
940.5969733122594
 30
0.0
 10
1115.832154077998
 20
933.2506362189716
 30
0.0
 10
1119.290331586608
 20
926.0656295536059
 30
0.0
 10
1123.02682377429
 20
919.0484587315676
 30
0.0
 10
1127.035503804118
 20
912.2056283176953
 30
0.0
 10
1131.310245581268
 20
905.5436420813354
 30
0.0
 10
1135.844924952017
 20
899.0690033044962
 30
0.0
 10
1140.633419576171
 20
892.7882153443911
 30
0.0
 10
1145.669608189197
 20
886.7077808911585
 30
0.0
 10
1150.947373359706
 20
880.8342061146207
 30
0.0
 10
1156.46059062919
 20
875.17398644981
 30
0.0
 10
1162.203168455959
 20
869.733660873985
 30
0.0
 10
1168.168898050269
 20
864.5196100039852
 30
0.0
 10
1174.352014316785
 20
859.5388124707404
 30
0.0
 10
1180.745094360554
 20
854.7960134392338
 30
0.0
 10
1185.843082556714
 20
851.3275057346187
 30
0.0
 10
1189.408131666672
 20
849.0269475667851
 30
0.0
 10
1191.25544639497
 20
847.8249890579698
 30
0.0
 10
1192.825860808748
 20
846.7998632759482
 30
0.0
 10
1194.144866898716
 20
845.9297036810981
 30
0.0
 10
1195.239259898395
 20
845.1946296943851
 30
0.0
 10
1196.135574736242
 20
844.5742999832401
 30
0.0
 10
1196.860391721595
 20
844.0483620541598
 30
0.0
 10
1197.440206256044
 20
843.596264515666
 30
0.0
 10
1197.901267813638
 20
843.1971928018601
 30
0.0
 10
1198.269300789193
 20
842.8301600028029
 30
0.0
 10
1198.56948135919
 20
842.4745729153219
 30
0.0
 10
1198.82761166834
 20
842.1109304388941
 30
0.0
 10
1199.070844803374
 20
841.7200190100018
 30
0.0
 10
1199.35114197136
 20
841.2439744297393
 30
0.0
 10
1199.65303797277
 20
840.7256243341758
 30
0.0
 10
1199.998871481861
 20
840.2242428643344
 30
0.0
 10
1200.380225975169
 20
839.831308243266
 30
0.0
 10
1200.849439097609
 20
839.5468372518212
 30
0.0
 10
1201.43884526994
 20
839.3622793326566
 30
0.0
 10
1202.186156518373
 20
839.251536991708
 30
0.0
 10
1203.140668526744
 20
839.1929086659661
 30
0.0
 10
1204.351740194901
 20
839.1699258796358
 30
0.0
 10
1205.307035832796
 20
839.1685933709809
 30
0.0
 10
1206.029863113343
 20
839.1686340374198
 30
0.0
 10
1206.520232257151
 20
839.1686222546233
 30
0.0
 10
1207.315719773716
 20
839.1686287192545
 30
0.0
 10
1208.394531703679
 20
839.1686259875562
 30
0.0
 10
1209.734873763051
 20
839.1686270015371
 30
0.0
 10
1211.314951812928
 20
839.1686266534747
 30
0.0
 10
1213.112971658693
 20
839.1686267668055
 30
0.0
 10
1215.107139125292
 20
839.1686267312957
 30
0.0
 10
1217.275660031196
 20
839.1686267420978
 30
0.0
 10
1219.596740196932
 20
839.1686267388893
 30
0.0
 10
1222.04858544239
 20
839.1686267398214
 30
0.0
 10
1224.609401587666
 20
839.1686267395645
 30
0.0
 10
1227.257394452738
 20
839.1686267395987
 30
0.0
 10
1229.970769857849
 20
839.1686267397349
 30
0.0
 10
1232.727733622268
 20
839.168626739143
 30
0.0
 10
1235.506491568958
 20
839.1686267413938
 30
0.0
 10
1238.285249507008
 20
839.168626732999
 30
0.0
 10
1241.042213297012
 20
839.1686267639271
 30
0.0
 10
1243.755588610636
 20
839.168626651352
 30
0.0
 10
1246.403581804088
 20
839.1686270559497
 30
0.0
 10
1248.964396785246
 20
839.168625621504
 30
0.0
 10
1251.416246096362
 20
839.168630631309
 30
0.0
 10
1253.737312302076
 20
839.1686134294135
 30
0.0
 10
1255.905880202914
 20
839.1686713377746
 30
0.0
 10
1257.899893179611
 20
839.1684809713631
 30
0.0
 10
1259.698406093292
 20
839.1690885422677
 30
0.0
 10
1261.276969825506
 20
839.1672225612899
 30
0.0
 10
1262.621723418568
 20
839.1726585659978
 30
0.0
 10
1263.688650532884
 20
839.1580137920178
 30
0.0
 10
1264.512263754011
 20
839.1926710049291
 30
0.0
 10
1264.95136942174
 20
839.1295028378498
 30
0.0
 10
1265.298417692388
 20
839.2135942554471
 30
0.0
 10
1265.288711897486
 20
838.8632839132679
 30
0.0
 10
1265.435440118322
 20
838.458323529961
 30
0.0
 10
1265.566154952793
 20
837.6786231354816
 30
0.0
 10
1265.787658765117
 20
836.6912883663117
 30
0.0
 10
1266.041632916051
 20
835.4599581570342
 30
0.0
 10
1266.342454741641
 20
834.0378494487998
 30
0.0
 10
1266.677091401598
 20
832.4444035996471
 30
0.0
 10
1267.041935515194
 20
830.7106762815372
 30
0.0
 10
1267.430332683928
 20
828.8639685462229
 30
0.0
 10
1267.836570098277
 20
826.9327416976392
 30
0.0
 10
1268.254654125561
 20
824.9451110015924
 30
0.0
 10
1268.678672109743
 20
822.9292915055747
 30
0.0
 10
1269.102690090836
 20
820.9134720057483
 30
0.0
 10
1269.520774127177
 20
818.9258413208644
 30
0.0
 10
1269.927011509779
 20
816.994614433158
 30
0.0
 10
1270.315408788949
 20
815.147906833928
 30
0.0
 10
1270.680252528307
 20
813.414179054671
 30
0.0
 10
1271.0148904158
 20
811.8207347181221
 30
0.0
 10
1271.315708377282
 20
810.3986212484269
 30
0.0
 10
1271.569694038034
 20
809.1673052218677
 30
0.0
 10
1271.791166218658
 20
808.1799314752357
 30
0.0
 10
1271.921957234174
 20
807.4003249531613
 30
0.0
 10
1272.068544615401
 20
806.9951910233641
 30
0.0
 10
1272.059017364283
 20
806.6446638680153
 30
0.0
 10
1272.40633058037
 20
806.7290991335411
 30
0.0
 10
1272.842390258495
 20
806.6661871778475
 30
0.0
 10
1273.653690733882
 20
806.7002958329285
 30
0.0
 10
1274.694050309007
 20
806.6860922761464
 30
0.0
 10
1275.990172557797
 20
806.6912777341588
 30
0.0
 10
1277.492457698111
 20
806.6895303119221
 30
0.0
 10
1279.18016397095
 20
806.6900877746973
 30
0.0
 10
1281.022591332977
 20
806.6899170122783
 30
0.0
 10
1282.992271900121
 20
806.6899676711737
 30
0.0
 10
1285.060734434135
 20
806.6899530369179
 30
0.0
 10
1287.199808593142
 20
806.6899571679375
 30
0.0
 10
1289.381236310647
 20
806.6899560259409
 30
0.0
 10
1291.576784485383
 20
806.6899563354823
 30
0.0
 10
1293.758213062873
 20
806.6899562531833
 30
0.0
 10
1295.897283886812
 20
806.6899562746388
 30
0.0
 10
1297.965758292638
 20
806.6899562691606
 30
0.0
 10
1299.935397749262
 20
806.6899562705277
 30
0.0
 10
1301.777963691247
 20
806.6899562701955
 30
0.0
 10
1303.465217561806
 20
806.6899562702736
 30
0.0
 10
1304.968920802023
 20
806.689956270256
 30
0.0
 10
1306.260834853493
 20
806.6899562702597
 30
0.0
 10
1307.312721157691
 20
806.6899562702588
 30
0.0
 10
1308.096341156122
 20
806.6899562702595
 30
0.0
 10
1308.583456290281
 20
806.6899562702587
 30
0.0
 10
1308.86346182914
 20
806.6899562702591
 30
0.0
 10
1309.143389809738
 20
806.6899562702588
 30
0.0
 10
1309.63027668001
 20
806.689956270259
 30
0.0
 10
1310.413529471319
 20
806.6899562702588
 30
0.0
 10
1311.46492285785
 20
806.6899562702597
 30
0.0
 10
1312.756231513794
 20
806.6899562702558
 30
0.0
 10
1314.259230113318
 20
806.6899562702737
 30
0.0
 10
1315.945693330703
 20
806.6899562701952
 30
0.0
 10
1317.787395839726
 20
806.6899562705277
 30
0.0
 10
1319.756112316288
 20
806.689956269161
 30
0.0
 10
1321.823617427636
 20
806.6899562746368
 30
0.0
 10
1323.961685875382
 20
806.689956253191
 30
0.0
 10
1326.14209222762
 20
806.6899563354524
 30
0.0
 10
1328.336611560859
 20
806.6899560260533
 30
0.0
 10
1330.517017052838
 20
806.6899571675235
 30
0.0
 10
1332.655088836711
 20
806.6899530384092
 30
0.0
 10
1334.72258207248
 20
806.6899676659152
 30
0.0
 10
1336.691339672611
 20
806.6899170303866
 30
0.0
 10
1338.532903557682
 20
806.6900877140396
 30
0.0
 10
1340.21981932097
 20
806.6895305083981
 30
0.0
 10
1341.721399370392
 20
806.6912771246253
 30
0.0
 10
1343.016917559614
 20
806.6860940584381
 30
0.0
 10
1344.056780557734
 20
806.7002910637407
 30
0.0
 10
1344.867722613592
 20
806.6661981414904
 30
0.0
 10
1345.303537819492
 20
806.72908107865
 30
0.0
 10
1345.650763687082
 20
806.6446795235221
 30
0.0
 10
1345.640961127393
 20
806.9951968593733
 30
0.0
 10
1345.78722391304
 20
807.400321417573
 30
0.0
 10
1345.917395746247
 20
808.1799330088045
 30
0.0
 10
1346.138081722452
 20
809.1673046506344
 30
0.0
 10
1346.391087736559
 20
810.3986214430668
 30
0.0
 10
1346.690773982185
 20
811.820734655641
 30
0.0
 10
1347.024143896081
 20
813.4141790738717
 30
0.0
 10
1347.387608005344
 20
815.1479068282259
 30
0.0
 10
1347.774535757652
 20
816.9946144348052
 30
0.0
 10
1348.179236354438
 20
818.9258413203984
 30
0.0
 10
1348.59573872192
 20
820.9134720058848
 30
0.0
 10
1349.018152602655
 20
822.9292915055064
 30
0.0
 10
1349.440566486154
 20
824.9451110017272
 30
0.0
 10
1349.85706884554
 20
826.9327416971793
 30
0.0
 10
1350.261769470693
 20
828.8639685478483
 30
0.0
 10
1350.648697124337
 20
830.7106762759076
 30
0.0
 10
1351.012161567938
 20
832.444403618603
 30
0.0
 10
1351.345530385177
 20
834.0378493871122
 30
0.0
 10
1351.645220082921
 20
835.4599583492015
 30
0.0
 10
1351.898215814381
 20
836.6912878023343
 30
0.0
 10
1352.118930049729
 20
837.6786246495694
 30
0.0
 10
1352.24903382428
 20
838.4583200392857
 30
0.0
 10
1352.39542243328
 20
838.8632896751421
 30
0.0
 10
1352.385460772148
 20
839.2136096094343
 30
0.0
 10
1352.732612456391
 20
839.1294849975668
 30
0.0
 10
1353.171725777442
 20
839.1926819689809
 30
0.0
 10
1353.995488900404
 20
839.1580089525722
 30
0.0
 10
1355.062557500367
 20
839.1726604044885
 30
0.0
 10
1356.407510571079
 20
839.1672219209922
 30
0.0
 10
1357.986301164082
 20
839.1690887528471
 30
0.0
 10
1359.785074967726
 20
839.1684809048935
 30
0.0
 10
1361.779376428643
 20
839.1686713581109
 30
0.0
 10
1363.948258301974
 20
839.168613423344
 30
0.0
 10
1366.269660489307
 20
839.1686306330838
 30
0.0
 10
1368.721864733825
 20
839.168625620994
 30
0.0
 10
1371.28305041652
 20
839.1686270560945
 30
0.0
 10
1373.931426933027
 20
839.1686266513111
 30
0.0
 10
1376.645195033946
 20
839.168626763939
 30
0.0
 10
1379.402557921224
 20
839.168626732996
 30
0.0
 10
1382.181718111429
 20
839.1686267413945
 30
0.0
 10
1384.960878310286
 20
839.1686267391431
 30
0.0
 10
1387.718241171949
 20
839.1686267397346
 30
0.0
 10
1390.432009364467
 20
839.1686267395991
 30
0.0
 10
1393.080385552187
 20
839.1686267395642
 30
0.0
 10
1395.641572400438
 20
839.1686267398203
 30
0.0
 10
1398.093772574276
 20
839.1686267388925
 30
0.0
 10
1400.415188738877
 20
839.1686267420876
 30
0.0
 10
1402.584023559215
 20
839.1686267313291
 30
0.0
 10
1404.578479700895
 20
839.1686267666973
 30
0.0
 10
1406.376759827472
 20
839.1686266538144
 30
0.0
 10
1407.957066608972
 20
839.168627000503
 30
0.0
 10
1409.297602695858
 20
839.168625990525
 30
0.0
 10
1410.376570794308
 20
839.1686287114387
 30
0.0
 10
1411.172173465415
 20
839.1686222723309
 30
0.0
 10
1411.662613594895
 20
839.1686340086075
 30
0.0
 10
1412.386233384395
 20
839.1685934641822
 30
0.0
 10
1413.342726790833
 20
839.1699238907384
 30
0.0
 10
1414.555180547151
 20
839.1928999932826
 30
0.0
 10
1415.51036703074
 20
839.2515196312716
 30
0.0
 10
1416.257928031035
 20
839.3622600433857
 30
0.0
 10
1416.847432436129
 20
839.5468561348702
 30
0.0
 10
1417.316789720679
 20
839.8314049737071
 30
0.0
 10
1417.698741022346
 20
840.2243301110508
 30
0.0
 10
1418.045714764111
 20
840.725821472918
 30
0.0
 10
1418.350162257107
 20
841.2433923929843
 30
0.0
 10
1418.630109627274
 20
841.7200008548007
 30
0.0
 10
1418.873063938026
 20
842.1108629175667
 30
0.0
 10
1419.130605472215
 20
842.4745293048252
 30
0.0
 10
1419.430077623279
 20
842.8301361045235
 30
0.0
 10
1419.797296210158
 20
843.1971965563242
 30
0.0
 10
1420.257483474807
 20
843.5962890608955
 30
0.0
 10
1420.836391524074
 20
844.0484010028787
 30
0.0
 10
1421.560304613829
 20
844.5743478245847
 30
0.0
 10
1422.455753659235
 20
845.194682953543
 30
0.0
 10
1423.549356070464
 20
845.9297603100896
 30
0.0
 10
1424.867684928964
 20
846.7999210913761
 30
0.0
 10
1426.437569955772
 20
847.8250511504048
 30
0.0
 10
1428.284556102967
 20
849.0269947113225
 30
0.0
 10
1431.850082772972
 20
851.3281519409177
 30
0.0
 10
1436.95057282
 20
854.7956944847318
 30
0.0
 10
1443.346179870798
 20
859.5387408688217
 30
0.0
 10
1449.531584459704
 20
864.519479000818
 30
0.0
 10
1455.499136107372
 20
869.7335540539373
 30
0.0
 10
1461.24316252933
 20
875.173883041433
 30
0.0
 10
1466.757462260257
 20
880.8341130083511
 30
0.0
 10
1472.035973945306
 20
886.7076973562238
 30
0.0
 10
1477.072597231408
 20
892.7881424449264
 30
0.0
 10
1481.861240450685
 20
899.0689413678895
 30
0.0
 10
1486.395807690507
 20
905.5435913666496
 30
0.0
 10
1490.670202106169
 20
912.2055888305176
 30
0.0
 10
1494.678325035039
 20
919.0484302711345
 30
0.0
 10
1498.414075909405
 20
926.0656117013423
 30
0.0
 10
1501.871353444554
 20
933.2506283469695
 30
0.0
 10
1505.044051184656
 20
940.5969745900727
 30
0.0
 10
1507.926074751065
 20
948.0981426524562
 30
0.0
 10
1510.511277747544
 20
955.7476261699077
 30
0.0
 10
1512.793703722277
 20
963.5389054449859
 30
0.0
 10
1514.766676693293
 20
971.4655017880875
 30
0.0
 10
1516.426228983249
 20
979.5207718073812
 30
0.0
 10
1517.758175210819
 20
987.6986824635067
 30
0.0
 10
1518.786914505934
 20
995.9908844680358
 30
0.0
 10
1519.187723532494
 20
1001.568963455714
 30
0.0
 10
1519.38902453998
 20
1004.370479503635
 30
0.0
 11
1098.303492656386
 21
1004.370479503635
 31
0.0
 11
1098.981187733573
 21
995.9726409516983
 31
0.0
 11
1099.992122471234
 21
987.6839096163283
 31
0.0
 11
1101.330179184148
 21
979.5107940348579
 31
0.0
 11
1102.989240187092
 21
971.45980274462
 31
0.0
 11
1104.963187794846
 21
963.5374442829476
 31
0.0
 11
1107.245904322188
 21
955.7502271871728
 31
0.0
 11
1109.831272083897
 21
948.104659994629
 31
0.0
 11
1112.713173394751
 21
940.6072512426488
 31
0.0
 11
1115.885490569529
 21
933.2645094685648
 31
0.0
 11
1119.34210592301
 21
926.0829432097099
 31
0.0
 11
1123.076901769971
 21
919.0690610034171
 31
0.0
 11
1127.083760425193
 21
912.2293713870188
 31
0.0
 11
1131.356564203453
 21
905.5703828978482
 31
0.0
 11
1135.88919541953
 21
899.0986040732375
 31
0.0
 11
1140.675536388202
 21
892.8205434505202
 31
0.0
 11
1145.709469424249
 21
886.7427095670284
 31
0.0
 11
1150.984876842448
 21
880.8716109600955
 31
0.0
 11
1156.495640957578
 21
875.2137561670537
 31
0.0
 11
1162.235644084418
 21
869.775653725236
 31
0.0
 11
1168.198768537747
 21
864.5638121719755
 31
0.0
 11
1174.378896632342
 21
859.5847400446045
 31
0.0
 11
1180.769910682984
 21
854.8449458804562
 31
0.0
 11
1187.365693004449
 21
850.3509382168629
 31
0.0
 11
1189.508531502922
 21
848.9601066112199
 31
0.0
 11
1191.34691778612
 21
847.7647709275001
 31
0.0
 11
1192.907375101111
 21
846.7446996548013
 31
0.0
 11
1194.216426694962
 21
845.8796612822208
 31
0.0
 11
1195.300595814741
 21
845.1494242988563
 31
0.0
 11
1196.186405707515
 21
844.5337571938051
 31
0.0
 11
1196.900379620353
 21
844.0124284561653
 31
0.0
 11
1197.469040800321
 21
843.5652065750338
 31
0.0
 11
1197.918912494489
 21
843.1718600395086
 31
0.0
 11
1198.276517949922
 21
842.812157338687
 31
0.0
 11
1198.568380413688
 21
842.465866961667
 31
0.0
 11
1198.821023132857
 21
842.1127573975454
 31
0.0
 11
1199.060969354494
 21
841.7325971354202
 31
0.0
 11
1199.314742325668
 21
841.305154664389
 31
0.0
 11
1199.681501607857
 21
840.6964063433296
 31
0.0
 11
1200.026138338852
 21
840.2155717477542
 31
0.0
 11
1200.395450223101
 21
839.8476188877507
 31
0.0
 11
1200.836234965049
 21
839.5775157734057
 31
0.0
 11
1201.39529026914
 21
839.3902304148069
 31
0.0
 11
1202.119413839821
 21
839.2707308220412
 31
0.0
 11
1203.055403381537
 21
839.2039850051958
 31
0.0
 11
1204.250056598734
 21
839.174960974358
 31
0.0
 11
1205.750171195856
 21
839.1686267396149
 31
0.0
 11
1205.920892272207
 21
839.1686267396149
 31
0.0
 11
1206.418526047954
 21
839.1686267396148
 31
0.0
 11
1207.221278343136
 21
839.1686267396148
 31
0.0
 11
1208.307354977795
 21
839.168626739615
 31
0.0
 11
1209.654961771971
 21
839.1686267396149
 31
0.0
 11
1211.242304545703
 21
839.1686267396149
 31
0.0
 11
1213.047589119032
 21
839.168626739615
 31
0.0
 11
1215.049021311999
 21
839.1686267396149
 31
0.0
 11
1217.224806944644
 21
839.1686267396149
 31
0.0
 11
1219.553151837006
 21
839.1686267396148
 31
0.0
 11
1222.012261809127
 21
839.168626739615
 31
0.0
 11
1224.580342681046
 21
839.168626739615
 31
0.0
 11
1227.235600272804
 21
839.1686267396149
 31
0.0
 11
1229.956240404441
 21
839.168626739615
 31
0.0
 11
1232.720468895998
 21
839.1686267396149
 31
0.0
 11
1235.506491567514
 21
839.1686267396149
 31
0.0
 11
1238.292514239031
 21
839.1686267396149
 31
0.0
 11
1241.056742730588
 21
839.1686267396149
 31
0.0
 11
1243.777382862225
 21
839.1686267396149
 31
0.0
 11
1246.432640453983
 21
839.1686267396149
 31
0.0
 11
1249.000721325902
 21
839.1686267396149
 31
0.0
 11
1251.459831298023
 21
839.1686267396149
 31
0.0
 11
1253.788176190385
 21
839.1686267396149
 31
0.0
 11
1255.96396182303
 21
839.1686267396149
 31
0.0
 11
1257.965394015997
 21
839.1686267396149
 31
0.0
 11
1259.770678589326
 21
839.1686267396149
 31
0.0
 11
1261.358021363058
 21
839.1686267396149
 31
0.0
 11
1262.705628157234
 21
839.1686267396149
 31
0.0
 11
1263.791704791893
 21
839.1686267396149
 31
0.0
 11
1264.594457087075
 21
839.1686267396149
 31
0.0
 11
1265.092090862822
 21
839.1686267396149
 31
0.0
 11
1265.262811939173
 21
839.1686267396149
 31
0.0
 11
1265.297405430478
 21
839.0041658793099
 31
0.0
 11
1265.397232362532
 21
838.5295788252874
 31
0.0
 11
1265.556362422537
 21
837.7730588678847
 31
0.0
 11
1265.768865297699
 21
836.7627992974403
 31
0.0
 11
1266.028810675223
 21
835.5269934042922
 31
0.0
 11
1266.330268242315
 21
834.093834478778
 31
0.0
 11
1266.667307686177
 21
832.4915158112359
 31
0.0
 11
1267.033998694015
 21
830.7482306920041
 31
0.0
 11
1267.424410953035
 21
828.8921724114204
 31
0.0
 11
1267.83261415044
 21
826.9515342598224
 31
0.0
 11
1268.252677973435
 21
824.9545095275488
 31
0.0
 11
1268.678672109226
 21
822.9292915049369
 31
0.0
 11
1269.104666245017
 21
820.9040734823253
 31
0.0
 11
1269.524730068012
 21
818.9070487500514
 31
0.0
 11
1269.932933265417
 21
816.9664105984537
 31
0.0
 11
1270.323345524437
 21
815.1103523178697
 31
0.0
 11
1270.690036532275
 21
813.3670671986379
 31
0.0
 11
1271.027075976137
 21
811.7647485310959
 31
0.0
 11
1271.328533543228
 21
810.3315896055817
 31
0.0
 11
1271.588478920753
 21
809.0957837124336
 31
0.0
 11
1271.800981795915
 21
808.0855241419893
 31
0.0
 11
1271.960111855921
 21
807.3290041845867
 31
0.0
 11
1272.059938787974
 21
806.8544171305639
 31
0.0
 11
1272.094532279279
 21
806.689956270259
 31
0.0
 11
1272.2663168435
 21
806.689956270259
 31
0.0
 11
1272.762844830493
 21
806.689956270259
 31
0.0
 11
1273.555877681758
 21
806.689956270259
 31
0.0
 11
1274.617176838791
 21
806.689956270259
 31
0.0
 11
1275.918503743092
 21
806.689956270259
 31
0.0
 11
1277.431619836157
 21
806.689956270259
 31
0.0
 11
1279.128286559486
 21
806.689956270259
 31
0.0
 11
1280.980265354576
 21
806.689956270259
 31
0.0
 11
1282.959317662924
 21
806.689956270259
 31
0.0
 11
1285.03720492603
 21
806.689956270259
 31
0.0
 11
1287.18568858539
 21
806.6899562702589
 31
0.0
 11
1289.376530082504
 21
806.689956270259
 31
0.0
 11
1291.581490858868
 21
806.689956270259
 31
0.0
 11
1293.772332355982
 21
806.689956270259
 31
0.0
 11
1295.920816015343
 21
806.689956270259
 31
0.0
 11
1297.998703278448
 21
806.689956270259
 31
0.0
 11
1299.977755586797
 21
806.6899562702591
 31
0.0
 11
1301.829734381886
 21
806.689956270259
 31
0.0
 11
1303.526401105215
 21
806.689956270259
 31
0.0
 11
1305.039517198281
 21
806.689956270259
 31
0.0
 11
1306.340844102581
 21
806.689956270259
 31
0.0
 11
1307.402143259614
 21
806.689956270259
 31
0.0
 11
1308.195176110879
 21
806.689956270259
 31
0.0
 11
1308.691704097873
 21
806.689956270259
 31
0.0
 11
1308.863488662093
 21
806.689956270259
 31
0.0
 11
1309.035192727455
 21
806.689956270259
 31
0.0
 11
1309.531488039665
 21
806.689956270259
 31
0.0
 11
1310.324149272912
 21
806.689956270259
 31
0.0
 11
1311.38495110138
 21
806.689956270259
 31
0.0
 11
1312.685668199259
 21
806.689956270259
 31
0.0
 11
1314.198075240735
 21
806.689956270259
 31
0.0
 11
1315.893946899994
 21
806.689956270259
 31
0.0
 11
1317.745057851225
 21
806.689956270259
 31
0.0
 11
1319.723182768614
 21
806.689956270259
 31
0.0
 11
1321.800096326348
 21
806.689956270259
 31
0.0
 11
1323.947573198613
 21
806.6899562702589
 31
0.0
 11
1326.137388059599
 21
806.689956270259
 31
0.0
 11
1328.341315583491
 21
806.689956270259
 31
0.0
 11
1330.531130444477
 21
806.689956270259
 31
0.0
 11
1332.678607316743
 21
806.689956270259
 31
0.0
 11
1334.755520874477
 21
806.689956270259
 31
0.0
 11
1336.733645791866
 21
806.6899562702591
 31
0.0
 11
1338.584756743096
 21
806.689956270259
 31
0.0
 11
1340.280628402355
 21
806.689956270259
 31
0.0
 11
1341.793035443831
 21
806.689956270259
 31
0.0
 11
1343.09375254171
 21
806.689956270259
 31
0.0
 11
1344.154554370179
 21
806.689956270259
 31
0.0
 11
1344.947215603425
 21
806.689956270259
 31
0.0
 11
1345.443510915635
 21
806.689956270259
 31
0.0
 11
1345.615214980997
 21
806.689956270259
 31
0.0
 11
1345.649677601592
 21
806.8544171305638
 31
0.0
 11
1345.749126878164
 21
807.3290041845867
 31
0.0
 11
1345.907654932898
 21
808.0855241419893
 31
0.0
 11
1346.119353887978
 21
809.0957837124336
 31
0.0
 11
1346.378315865587
 21
810.3315896055818
 31
0.0
 11
1346.67863298791
 21
811.7647485310959
 31
0.0
 11
1347.01439737713
 21
813.367067198638
 31
0.0
 11
1347.37970115543
 21
815.1103523178698
 31
0.0
 11
1347.768636444996
 21
816.9664105984538
 31
0.0
 11
1348.175295368009
 21
818.9070487500514
 31
0.0
 11
1348.593770046656
 21
820.9040734823253
 31
0.0
 11
1349.018152603118
 21
822.9292915049368
 31
0.0
 11
1349.442535159581
 21
824.9545095275488
 31
0.0
 11
1349.861009838226
 21
826.9515342598224
 31
0.0
 11
1350.267668761241
 21
828.8921724114202
 31
0.0
 11
1350.656604050806
 21
830.7482306920041
 31
0.0
 11
1351.021907829107
 21
832.491515811236
 31
0.0
 11
1351.357672218326
 21
834.093834478778
 31
0.0
 11
1351.657989340649
 21
835.5269934042922
 31
0.0
 11
1351.916951318258
 21
836.7627992974403
 31
0.0
 11
1352.128650273338
 21
837.7730588678847
 31
0.0
 11
1352.287178328072
 21
838.5295788252873
 31
0.0
 11
1352.386627604645
 21
839.00416587931
 31
0.0
 11
1352.421090225239
 21
839.1686267396149
 31
0.0
 11
1352.591836015122
 21
839.1686267396149
 31
0.0
 11
1353.089541828184
 21
839.1686267396148
 31
0.0
 11
1353.892410329547
 21
839.1686267396148
 31
0.0
 11
1354.978644184333
 21
839.168626739615
 31
0.0
 11
1356.326446057662
 21
839.1686267396149
 31
0.0
 11
1357.914018614656
 21
839.1686267396149
 31
0.0
 11
1359.719564520437
 21
839.168626739615
 31
0.0
 11
1361.721286440125
 21
839.1686267396149
 31
0.0
 11
1363.897387038843
 21
839.1686267396149
 31
0.0
 11
1366.226068981711
 21
839.1686267396148
 31
0.0
 11
1368.685534933851
 21
839.168626739615
 31
0.0
 11
1371.253987560383
 21
839.168626739615
 31
0.0
 11
1373.909629526431
 21
839.1686267396149
 31
0.0
 11
1376.630663497115
 21
839.168626739615
 31
0.0
 11
1379.395292137556
 21
839.1686267396149
 31
0.0
 11
1382.181718112875
 21
839.1686267396149
 31
0.0
 11
1384.968144088195
 21
839.1686267396149
 31
0.0
 11
1387.732772728635
 21
839.1686267396149
 31
0.0
 11
1390.453806699319
 21
839.1686267396149
 31
0.0
 11
1393.109448665367
 21
839.1686267396149
 31
0.0
 11
1395.677901291899
 21
839.1686267396149
 31
0.0
 11
1398.137367244039
 21
839.1686267396149
 31
0.0
 11
1400.466049186907
 21
839.1686267396149
 31
0.0
 11
1402.642149785625
 21
839.1686267396149
 31
0.0
 11
1404.643871705313
 21
839.1686267396149
 31
0.0
 11
1406.449417611094
 21
839.1686267396149
 31
0.0
 11
1408.036990168088
 21
839.1686267396149
 31
0.0
 11
1409.384792041417
 21
839.1686267396149
 31
0.0
 11
1410.471025896203
 21
839.1686267396149
 31
0.0
 11
1411.273894397566
 21
839.1686267396149
 31
0.0
 11
1411.771600210628
 21
839.1686267396149
 31
0.0
 11
1411.942346000511
 21
839.1686267396149
 31
0.0
 11
1413.444741394845
 21
839.174960974358
 31
0.0
 11
1414.640682730674
 21
839.2039850051958
 31
0.0
 11
1415.577251334894
 21
839.2707308220413
 31
0.0
 11
1416.301528534403
 21
839.3902304148069
 31
0.0
 11
1416.860595656097
 21
839.5775157734057
 31
0.0
 11
1417.301534026872
 21
839.8476188877507
 31
0.0
 11
1417.671424973625
 21
840.2155717477542
 31
0.0
 11
1418.017349823253
 21
840.6964063433295
 31
0.0
 11
1418.386389902653
 21
841.305154664389
 31
0.0
 11
1418.640037290271
 21
841.7325971354202
 31
0.0
 11
1418.879631877951
 21
842.1127573975452
 31
0.0
 11
1419.131734587827
 21
842.4658669616669
 31
0.0
 11
1419.422906342035
 21
842.812157338687
 31
0.0
 11
1419.779708062709
 21
843.1718600395087
 31
0.0
 11
1420.228700671982
 21
843.5652065750339
 31
0.0
 11
1420.796445091991
 21
844.0124284561653
 31
0.0
 11
1421.509502244868
 21
844.5337571938053
 31
0.0
 11
1422.394433052749
 21
845.1494242988563
 31
0.0
 11
1423.477798437768
 21
845.8796612822207
 31
0.0
 11
1424.786159322061
 21
846.7446996548013
 31
0.0
 11
1426.346076627759
 21
847.7647709275001
 31
0.0
 11
1428.184111277
 21
848.9601066112199
 31
0.0
 11
1430.326824191917
 21
850.3509382168629
 31
0.0
 11
1436.925737578666
 21
854.8449458804561
 31
0.0
 11
1443.319419619807
 21
859.5847400446045
 31
0.0
 11
1449.501778120473
 21
864.5638121719753
 31
0.0
 11
1455.466720885798
 21
869.7756537252363
 31
0.0
 11
1461.208155720916
 21
875.2137561670537
 31
0.0
 11
1466.719990430959
 21
880.8716109600953
 31
0.0
 11
1471.996132821064
 21
886.7427095670286
 31
0.0
 11
1477.030490696362
 21
892.8205434505201
 31
0.0
 11
1481.816971861987
 21
899.0986040732374
 31
0.0
 11
1486.349484123073
 21
905.5703828978482
 31
0.0
 11
1490.621935284754
 21
912.2293713870188
 31
0.0
 11
1494.628233152164
 21
919.0690610034171
 31
0.0
 11
1498.362285530436
 21
926.0829432097098
 31
0.0
 11
1501.818000224704
 21
933.2645094685649
 31
0.0
 11
1504.989285040101
 21
940.6072512426488
 31
0.0
 11
1507.870047781761
 21
948.104659994629
 31
0.0
 11
1510.454196254818
 21
955.7502271871729
 31
0.0
 11
1512.735638264405
 21
963.5374442829475
 31
0.0
 11
1514.708281615657
 21
971.4598027446201
 31
0.0
 11
1516.366034113707
 21
979.510794034858
 31
0.0
 11
1517.702803563688
 21
987.6839096163282
 31
0.0
 11
1518.712497770734
 21
995.9726409516984
 31
0.0
 11
1519.38902453998
 21
1004.370479503635
 31
0.0
  0
SPLINE
  5
A8
330
1F
100
AcDbEntity
  8
___C_____1
  6
Continuous
 62
     7
100
AcDbSpline
210
0.0
220
0.0
230
1.0
 70
     8
 71
     3
 72
    11
 73
     7
 74
     5
 42
0.0000000001
 43
0.0000000001
 44
0.00000001
 40
0.0
 40
0.0
 40
0.0
 40
0.0
 40
71.21713522186083
 40
189.2839259039569
 40
307.3356611755628
 40
378.5506958851354
 40
378.5506958851354
 40
378.5506958851354
 40
378.5506958851354
 10
1121.495158678536
 20
990.4141277369629
 30
0.0
 10
1144.543125111236
 20
996.4114603505456
 30
0.0
 10
1205.800988922991
 20
1012.351425620341
 30
0.0
 10
1308.849835099506
 20
1012.374116823357
 30
0.0
 10
1411.897927476724
 20
1012.350534988191
 30
0.0
 10
1473.150117599344
 20
996.411483312928
 30
0.0
 10
1496.19735851783
 20
990.4141277369629
 30
0.0
 11
1121.495158678536
 21
990.4141277369629
 31
0.0
 11
1190.951700055608
 21
1006.151637360277
 31
0.0
 11
1308.854873630138
 21
1012.36522915763
 31
0.0
 11
1426.742970898748
 21
1006.151637360277
 31
0.0
 11
1496.19735851783
 21
990.4141277369629
 31
0.0
  0
SPLINE
  5
A9
330
1F
100
AcDbEntity
  8
___C_____1
  6
Continuous
 62
     7
100
AcDbSpline
210
0.0
220
0.0
230
1.0
 70
     8
 71
     3
 72
   172
 73
   168
 74
   166
 42
0.0000000001
 43
0.0000000001
 44
0.00000001
 40
0.0
 40
0.0
 40
0.0
 40
0.0
 40
1.434542088997586
 40
2.829746101541184
 40
4.197632950887224
 40
5.547950768526437
 40
6.888251770815647
 40
8.224117013088392
 40
9.55948816751326
 40
10.89706519409898
 40
14.93649206193843
 40
19.00156763251211
 40
23.0806235538953
 40
27.16184338152575
 40
31.47311185825492
 40
35.77743567529831
 40
40.07791806059441
 40
44.37686439316715
 40
48.67591865696443
 40
55.2316388508125
 40
61.78955180310975
 40
68.34874301048711
 40
74.90810190044518
 40
82.46504538733126
 40
90.0212177422093
 40
97.57710084512031
 40
105.1329575437281
 40
116.247091552191
 40
127.3614390848984
 40
138.475872373877
 40
150.3028204482455
 40
162.1296897503339
 40
173.956561668367
 40
186.1456424032155
 40
198.3347247670487
 40
210.5238251011239
 40
222.7129254351991
 40
234.9020077990331
 40
247.0910885338813
 40
258.9179604519144
 40
270.7448297540026
 40
282.5717778283708
 40
293.6862111173494
 40
304.800558650057
 40
315.9146926585199
 40
323.4705493571273
 40
331.0264324600383
 40
338.5826048149161
 40
346.1395483018019
 40
352.69890719176
 40
359.2580983991371
 40
365.8160113514346
 40
372.3717315452824
 40
376.6707858090797
 40
380.9697321416526
 40
385.2702145269487
 40
389.5745383439921
 40
393.8858068207213
 40
397.9670266483515
 40
402.0460825697352
 40
406.1111581403093
 40
410.1505850081489
 40
411.4881620347348
 40
412.8235331891597
 40
414.1593984314322
 40
415.4996994337218
 40
416.8500172513608
 40
418.2179041007075
 40
419.6131081132506
 40
421.0476502022485
 40
421.8003544491037
 40
422.5576426629536
 40
423.3108127756756
 40
424.0522069542682
 40
424.7756214999966
 40
425.4768906497334
 40
426.1546949563072
 40
426.8116072902449
 40
427.4552599910223
 40
428.0989126917992
 40
428.7558250257372
 40
429.433629332311
 40
430.1348984820478
 40
430.8583130277763
 40
431.599707206369
 40
432.3528773190908
 40
433.1101655329408
 40
433.862869779796
 40
435.2974118687939
 40
436.6926158813371
 40
438.0605027306834
 40
439.4108205483224
 40
440.7511215506117
 40
442.0869867928847
 40
443.4223579473091
 40
444.7599349738949
 40
448.7993618417347
 40
452.8644374123086
 40
456.9434933336916
 40
461.0247131613222
 40
465.3359816380512
 40
469.6403054550951
 40
473.9407878403907
 40
478.2397341729641
 40
482.5387884367611
 40
489.0945086306094
 40
495.6524215829066
 40
502.2116127902841
 40
508.7709716802419
 40
516.3279151671278
 40
523.8840875220052
 40
531.4399706249158
 40
538.9958273235236
 40
550.1099613319867
 40
561.224308864695
 40
572.3387421536741
 40
584.1656902280422
 40
595.9925595301302
 40
607.8194314481631
 40
620.0085121830108
 40
632.1975945468438
 40
644.3866948809181
 40
656.5757952149937
 40
668.7648775788288
 40
680.9539583136774
 40
692.7808302317103
 40
704.607699533798
 40
716.434647608166
 40
727.5490808971446
 40
738.6634284298526
 40
749.7775624383157
 40
757.3334191369236
 40
764.8893022398341
 40
772.4454745947115
 40
780.0024180815974
 40
786.5617769715559
 40
793.1209681789333
 40
799.6788811312309
 40
806.2346013250792
 40
810.5336555888765
 40
814.8326019214492
 40
819.1330843067453
 40
823.4374081237887
 40
827.7486766005184
 40
831.8298964281483
 40
835.9089523495313
 40
839.9740279201047
 40
844.0134547879439
 40
845.3510318145299
 40
846.6864029689549
 40
848.0222682112276
 40
849.3625692135169
 40
850.7128870311564
 40
852.0807738805027
 40
853.4759778930462
 40
854.9105199820444
 40
855.6632242288996
 40
856.4205124427496
 40
857.1736825554714
 40
857.915076734064
 40
858.6384912797921
 40
859.3397604295288
 40
860.0175647361031
 40
860.6744770700409
 40
861.3181297708183
 40
861.3698180152818
 40
861.4215148406335
 40
861.4215148406335
 40
861.4215148406335
 40
861.4215148406335
 10
1101.493756112677
 20
999.1182334655769
 30
0.0
 10
1101.855418443802
 20
998.8050663299975
 30
0.0
 10
1102.568825585653
 20
998.1873197418477
 30
0.0
 10
1103.708906089926
 20
997.3730054582277
 30
0.0
 10
1104.872211208132
 20
996.6460296810222
 30
0.0
 10
1106.061407780603
 20
995.9994602979128
 30
0.0
 10
1107.271319381129
 20
995.4175267583676
 30
0.0
 10
1108.498960532587
 20
994.8867839107323
 30
0.0
 10
1109.74088091036
 20
994.3932220663003
 30
0.0
 10
1111.835741219095
 20
993.6070963167318
 30
0.0
 10
1114.801677078446
 20
992.5528476806503
 30
0.0
 10
1118.661762264052
 20
991.2894035553239
 30
0.0
 10
1122.564989239103
 20
990.1169447138896
 30
0.0
 10
1126.574422190656
 20
989.0169675829385
 30
0.0
 10
1130.682520751229
 20
987.9976014982649
 30
0.0
 10
1134.88330556044
 20
987.0531161006468
 30
0.0
 10
1139.09699846739
 20
986.1886166845859
 30
0.0
 10
1143.321795440425
 20
985.3899100804811
 30
0.0
 10
1148.2962712765
 20
984.5121643202161
 30
0.0
 10
1154.023305400888
 20
983.5676313016445
 30
0.0
 10
1160.506664357403
 20
982.5825409830986
 30
0.0
 10
1167.002393651865
 20
981.6739653463295
 30
0.0
 10
1173.837971366315
 20
980.794229129305
 30
0.0
 10
1181.012825093907
 20
979.9503226553709
 30
0.0
 10
1188.526562737914
 20
979.1479117876816
 30
0.0
 10
1196.047346885761
 20
978.4184323834675
 30
0.0
 10
1204.755572646846
 20
977.6501898704842
 30
0.0
 10
1214.653340975281
 20
976.8718658218633
 30
0.0
 10
1225.742268199599
 20
976.118371525735
 30
0.0
 10
1237.075314117046
 20
975.4612444586453
 30
0.0
 10
1248.65134060456
 20
974.9005884425353
 30
0.0
 10
1260.469404844058
 20
974.4393285222652
 30
0.0
 10
1272.411764162815
 20
974.0802235157572
 30
0.0
 10
1284.477494386485
 20
973.8217956932799
 30
0.0
 10
1296.665741117492
 20
973.6663145059515
 30
0.0
 10
1308.854872653316
 20
973.6149569555913
 30
0.0
 10
1321.044004189138
 20
973.6663145059516
 30
0.0
 10
1333.232250920147
 20
973.8217956932798
 30
0.0
 10
1345.297981143816
 20
974.0802235157579
 30
0.0
 10
1357.240340462573
 20
974.4393285222652
 30
0.0
 10
1369.058404702072
 20
974.9005884425351
 30
0.0
 10
1380.634431189585
 20
975.461244458645
 30
0.0
 10
1391.967477107032
 20
976.1183715257355
 30
0.0
 10
1403.05640433135
 20
976.8718658218627
 30
0.0
 10
1412.954172659786
 20
977.650189870484
 30
0.0
 10
1421.66239842087
 20
978.4184323834677
 30
0.0
 10
1429.183182568717
 20
979.1479117876816
 30
0.0
 10
1436.696920212723
 20
979.9503226553709
 30
0.0
 10
1443.871773940315
 20
980.7942291293048
 30
0.0
 10
1450.707351654765
 20
981.6739653463292
 30
0.0
 10
1457.203080949226
 20
982.5825409831
 30
0.0
 10
1463.686439905747
 20
983.5676313016386
 30
0.0
 10
1469.413474030114
 20
984.512164320234
 30
0.0
 10
1474.387949866243
 20
985.3899100804397
 30
0.0
 10
1478.612746839097
 20
986.1886166847431
 30
0.0
 10
1482.826439746728
 20
987.0531161000579
 30
0.0
 10
1487.027224553392
 20
987.9976015004656
 30
0.0
 10
1491.135323123317
 20
989.0169675748961
 30
0.0
 10
1495.14475604175
 20
990.1169447421194
 30
0.0
 10
1499.047983138759
 20
991.2894034499896
 30
0.0
 10
1502.908067871501
 20
992.5528480712774
 30
0.0
 10
1505.874005036037
 20
993.6070952779678
 30
0.0
 10
1507.968863348464
 20
994.3932232138216
 30
0.0
 10
1509.210788813442
 20
994.8867794869259
 30
0.0
 10
1510.438410785642
 20
995.4175433390152
 30
0.0
 10
1511.648394426221
 20
995.9993979828054
 30
0.0
 10
1512.837318819531
 20
996.6462654470423
 30
0.0
 10
1514.001660972027
 20
997.3721055004543
 30
0.0
 10
1515.137748635432
 20
998.1907926041608
 30
0.0
 10
1516.053831765294
 20
998.9587174822
 30
0.0
 10
1516.768615634997
 20
999.6317084949948
 30
0.0
 10
1517.294132553985
 20
1000.173372638155
 30
0.0
 10
1517.787767409116
 20
1000.739384098414
 30
0.0
 10
1518.238107890223
 20
1001.326454587763
 30
0.0
 10
1518.633720223482
 20
1001.931425002726
 30
0.0
 10
1518.963118298171
 20
1002.551324021363
 30
0.0
 10
1519.214590410382
 20
1003.183447430589
 30
0.0
 10
1519.375953153843
 20
1003.825171734292
 30
0.0
 10
1519.434128034249
 20
1004.473851562393
 30
0.0
 10
1519.375953153843
 20
1005.122531390494
 30
0.0
 10
1519.214590410383
 20
1005.764255694197
 30
0.0
 10
1518.963118298171
 20
1006.396379103423
 30
0.0
 10
1518.633720223481
 20
1007.01627812206
 30
0.0
 10
1518.238107890222
 20
1007.621248537024
 30
0.0
 10
1517.787767409116
 20
1008.208319026372
 30
0.0
 10
1517.294132553985
 20
1008.774330486631
 30
0.0
 10
1516.768615634996
 20
1009.315994629791
 30
0.0
 10
1516.053831765294
 20
1009.988985642586
 30
0.0
 10
1515.137748635432
 20
1010.756910520626
 30
0.0
 10
1514.001660972026
 20
1011.575597624331
 30
0.0
 10
1512.837318819531
 20
1012.301437677744
 30
0.0
 10
1511.648394426221
 20
1012.948305141981
 30
0.0
 10
1510.438410785641
 20
1013.530159785771
 30
0.0
 10
1509.210788813442
 20
1014.06092363786
 30
0.0
 10
1507.968863348464
 20
1014.554479910965
 30
0.0
 10
1505.874005036037
 20
1015.340607846818
 30
0.0
 10
1502.908067871502
 20
1016.394855053509
 30
0.0
 10
1499.04798313876
 20
1017.658299674796
 30
0.0
 10
1495.14475604175
 20
1018.830758382667
 30
0.0
 10
1491.135323123318
 20
1019.93073554989
 30
0.0
 10
1487.027224553392
 20
1020.950101624321
 30
0.0
 10
1482.826439746729
 20
1021.894587024728
 30
0.0
 10
1478.612746839097
 20
1022.759086440043
 30
0.0
 10
1474.387949866244
 20
1023.557793044346
 30
0.0
 10
1469.413474030115
 20
1024.435538804552
 30
0.0
 10
1463.686439905748
 20
1025.380071823147
 30
0.0
 10
1457.203080949226
 20
1026.365162141686
 30
0.0
 10
1450.707351654766
 20
1027.273737778457
 30
0.0
 10
1443.871773940316
 20
1028.153473995481
 30
0.0
 10
1436.696920212724
 20
1028.997380469415
 30
0.0
 10
1429.183182568718
 20
1029.799791337105
 30
0.0
 10
1421.662398420871
 20
1030.529270741319
 30
0.0
 10
1412.954172659786
 20
1031.297513254302
 30
0.0
 10
1403.05640433135
 20
1032.075837302923
 30
0.0
 10
1391.967477107031
 20
1032.829331599051
 30
0.0
 10
1380.634431189585
 20
1033.486458666141
 30
0.0
 10
1369.058404702072
 20
1034.047114682252
 30
0.0
 10
1357.240340462573
 20
1034.508374602521
 30
0.0
 10
1345.297981143817
 20
1034.867479609029
 30
0.0
 10
1333.232250920147
 20
1035.125907431507
 30
0.0
 10
1321.04400418914
 20
1035.281388618834
 30
0.0
 10
1308.854872653317
 20
1035.332746169195
 30
0.0
 10
1296.665741117494
 20
1035.281388618835
 30
0.0
 10
1284.477494386485
 20
1035.125907431506
 30
0.0
 10
1272.411764162815
 20
1034.86747960903
 30
0.0
 10
1260.469404844058
 20
1034.50837460252
 30
0.0
 10
1248.65134060456
 20
1034.047114682252
 30
0.0
 10
1237.075314117046
 20
1033.486458666141
 30
0.0
 10
1225.7422681996
 20
1032.829331599052
 30
0.0
 10
1214.653340975282
 20
1032.075837302923
 30
0.0
 10
1204.755572646846
 20
1031.297513254303
 30
0.0
 10
1196.047346885762
 20
1030.529270741318
 30
0.0
 10
1188.526562737915
 20
1029.799791337105
 30
0.0
 10
1181.012825093908
 20
1028.997380469415
 30
0.0
 10
1173.837971366316
 20
1028.153473995481
 30
0.0
 10
1167.002393651866
 20
1027.273737778457
 30
0.0
 10
1160.506664357405
 20
1026.365162141686
 30
0.0
 10
1154.023305400883
 20
1025.380071823147
 30
0.0
 10
1148.296271276517
 20
1024.435538804552
 30
0.0
 10
1143.321795440387
 20
1023.557793044346
 30
0.0
 10
1139.096998467534
 20
1022.759086440043
 30
0.0
 10
1134.883305559903
 20
1021.894587024728
 30
0.0
 10
1130.682520753239
 20
1020.950101624321
 30
0.0
 10
1126.574422183313
 20
1019.93073554989
 30
0.0
 10
1122.564989264881
 20
1018.830758382666
 30
0.0
 10
1118.661762167872
 20
1017.658299674796
 30
0.0
 10
1114.80167743513
 20
1016.394855053508
 30
0.0
 10
1111.835740270595
 20
1015.34060784682
 30
0.0
 10
1109.740881958168
 20
1014.554479910964
 30
0.0
 10
1108.498956493189
 20
1014.060923637864
 30
0.0
 10
1107.271334520996
 20
1013.530159785762
 30
0.0
 10
1106.061350880388
 20
1012.948305142014
 30
0.0
 10
1104.872426487186
 20
1012.301437677621
 30
0.0
 10
1103.70808433428
 20
1011.575597624807
 30
0.0
 10
1102.571996672456
 20
1010.756910518791
 30
0.0
 10
1101.655913537477
 20
1009.988985648222
 30
0.0
 10
1100.941129678699
 20
1009.315994619479
 30
0.0
 10
1100.415612725601
 20
1008.77433052611
 30
0.0
 10
1099.921977997309
 20
1008.208318880708
 30
0.0
 10
1099.471637054097
 20
1007.621249065873
 30
0.0
 10
1099.076026382579
 20
1007.016276225347
 30
0.0
 10
1098.746622386051
 20
1006.396385850526
 30
0.0
 10
1098.495171307973
 20
1005.764231738821
 30
0.0
 10
1098.333733434542
 20
1005.122617098591
 30
0.0
 10
1098.293461316299
 20
1004.671166310664
 30
0.0
 10
1098.29509242236
 20
1004.422159674979
 30
0.0
 10
1098.295927100036
 20
1004.387707180531
 30
0.0
 10
1098.296344473513
 20
1004.370479503541
 30
0.0
 11
1101.493756112677
 21
999.1182334655769
 31
0.0
 11
1102.592917684219
 21
998.1964119835369
 31
0.0
 11
1103.724220946979
 21
997.3798661095736
 31
0.0
 11
1104.884204867651
 21
996.654916637958
 31
0.0
 11
1106.069408412932
 21
996.0078843629605
 31
0.0
 11
1107.276370549516
 21
995.4250900788511
 31
0.0
 11
1108.501630244099
 21
994.8928545799008
 31
0.0
 11
1109.741726463376
 21
994.3974986603797
 31
0.0
 11
1110.993198174043
 21
993.9253431145585
 31
0.0
 11
1114.799073376059
 21
992.5717244949666
 31
0.0
 11
1118.662295531532
 21
991.3066735189442
 31
0.0
 11
1122.568811237656
 21
990.1328625258209
 31
0.0
 11
1126.504567091624
 21
989.0529638549251
 31
0.0
 11
1130.688399465381
 21
988.0124915839157
 31
0.0
 11
1134.88737749545
 21
987.0660313232785
 31
0.0
 11
1139.099638406477
 21
986.1994248591471
 31
0.0
 11
1143.323319423108
 21
985.3985139776554
 31
0.0
 11
1147.55655776999
 21
984.6491404649374
 31
0.0
 11
1154.024744157625
 21
983.5814176006888
 31
0.0
 11
1160.508104519648
 21
982.5953847888324
 31
0.0
 11
1167.003931095645
 21
981.6858649212586
 31
0.0
 11
1173.5095161252
 21
980.8476808898579
 31
0.0
 11
1181.014576623246
 21
979.9636776180003
 31
0.0
 11
1188.527893122384
 21
979.1600509382515
 31
0.0
 11
1196.048360754246
 21
978.4293416506528
 31
0.0
 11
1203.574874650463
 21
977.7640905552446
 31
0.0
 11
1214.654702014455
 21
976.8915079848198
 31
0.0
 11
1225.743391152309
 21
976.1367270352525
 31
0.0
 11
1236.839112640792
 21
975.4920627930419
 31
0.0
 11
1248.652172269947
 21
974.9190680707077
 31
0.0
 11
1260.47001017374
 21
974.4569590269122
 31
0.0
 11
1272.291513057369
 21
974.1006320171031
 31
0.0
 11
1284.477793820525
 21
973.8393843909197
 31
0.0
 11
1296.665881506272
 21
973.6836685058947
 31
0.0
 11
1308.854872653315
 21
973.6320761474576
 31
0.0
 11
1321.043863800359
 21
973.6836685058947
 31
0.0
 11
1333.231951486107
 21
973.8393843909198
 31
0.0
 11
1345.418232249263
 21
974.1006320171033
 31
0.0
 11
1357.239735132891
 21
974.4569590269123
 31
0.0
 11
1369.057573036684
 21
974.9190680707077
 31
0.0
 11
1380.870632665839
 21
975.4920627930418
 31
0.0
 11
1391.966354154322
 21
976.1367270352527
 31
0.0
 11
1403.055043292176
 21
976.8915079848197
 31
0.0
 11
1414.134870656168
 21
977.7640905552446
 31
0.0
 11
1421.661384552385
 21
978.4293416506527
 31
0.0
 11
1429.181852184246
 21
979.1600509382515
 31
0.0
 11
1436.695168683384
 21
979.963677618
 31
0.0
 11
1444.20022918143
 21
980.8476808898579
 31
0.0
 11
1450.705814210986
 21
981.6858649212585
 31
0.0
 11
1457.201640786982
 21
982.5953847888322
 31
0.0
 11
1463.685001149005
 21
983.5814176006887
 31
0.0
 11
1470.15318753664
 21
984.6491404649373
 31
0.0
 11
1474.386425883522
 21
985.3985139776554
 31
0.0
 11
1478.610106900153
 21
986.1994248591469
 31
0.0
 11
1482.82236781118
 21
987.0660313232784
 31
0.0
 11
1487.021345841249
 21
988.0124915839156
 31
0.0
 11
1491.205178215007
 21
989.0529638549251
 31
0.0
 11
1495.140934068974
 21
990.1328625258205
 31
0.0
 11
1499.047449775099
 21
991.3066735189441
 31
0.0
 11
1502.910671930572
 21
992.5717244949666
 31
0.0
 11
1506.716547132588
 21
993.9253431145587
 31
0.0
 11
1507.968018843255
 21
994.3974986603798
 31
0.0
 11
1509.208115062532
 21
994.8928545799009
 31
0.0
 11
1510.433374757115
 21
995.4250900788511
 31
0.0
 11
1511.640336893699
 21
996.0078843629605
 31
0.0
 11
1512.82554043898
 21
996.6549166379581
 31
0.0
 11
1513.985524359653
 21
997.3798661095738
 31
0.0
 11
1515.116827622412
 21
998.1964119835368
 31
0.0
 11
1516.215989193955
 21
999.1182334655767
 31
0.0
 11
1516.763546411989
 21
999.6347068687765
 31
0.0
 11
1517.290156082923
 21
1000.178919780526
 31
0.0
 11
1517.784210780547
 21
1000.747404762257
 31
0.0
 11
1518.234103078651
 21
1001.336694375399
 31
0.0
 11
1518.628225551024
 21
1001.943321181386
 31
0.0
 11
1518.954970771458
 21
1002.563817741647
 31
0.0
 11
1519.202731313743
 21
1003.194716617614
 31
0.0
 11
1519.359899751667
 21
1003.832550370719
 31
0.0
 11
1519.414868659022
 21
1004.473851562393
 31
0.0
 11
1519.359899751667
 21
1005.115152754067
 31
0.0
 11
1519.202731313743
 21
1005.752986507172
 31
0.0
 11
1518.954970771459
 21
1006.383885383139
 31
0.0
 11
1518.628225551024
 21
1007.0043819434
 31
0.0
 11
1518.23410307865
 21
1007.611008749387
 31
0.0
 11
1517.784210780547
 21
1008.20029836253
 31
0.0
 11
1517.290156082923
 21
1008.76878334426
 31
0.0
 11
1516.763546411989
 21
1009.31299625601
 31
0.0
 11
1516.215989193955
 21
1009.829469659209
 31
0.0
 11
1515.116827622412
 21
1010.751291141249
 31
0.0
 11
1513.985524359652
 21
1011.567837015212
 31
0.0
 11
1512.82554043898
 21
1012.292786486828
 31
0.0
 11
1511.6403368937
 21
1012.939818761826
 31
0.0
 11
1510.433374757116
 21
1013.522613045935
 31
0.0
 11
1509.208115062532
 21
1014.054848544885
 31
0.0
 11
1507.968018843256
 21
1014.550204464406
 31
0.0
 11
1506.716547132588
 21
1015.022360010227
 31
0.0
 11
1502.910671930573
 21
1016.375978629819
 31
0.0
 11
1499.047449775099
 21
1017.641029605842
 31
0.0
 11
1495.140934068975
 21
1018.814840598965
 31
0.0
 11
1491.205178215007
 21
1019.894739269861
 31
0.0
 11
1487.02134584125
 21
1020.935211540871
 31
0.0
 11
1482.822367811181
 21
1021.881671801508
 31
0.0
 11
1478.610106900154
 21
1022.748278265639
 31
0.0
 11
1474.386425883522
 21
1023.54918914713
 31
0.0
 11
1470.153187536641
 21
1024.298562659848
 31
0.0
 11
1463.685001149006
 21
1025.366285524097
 31
0.0
 11
1457.201640786983
 21
1026.352318335953
 31
0.0
 11
1450.705814210986
 21
1027.261838203527
 31
0.0
 11
1444.200229181431
 21
1028.100022234928
 31
0.0
 11
1436.695168683385
 21
1028.984025506786
 31
0.0
 11
1429.181852184247
 21
1029.787652186534
 31
0.0
 11
1421.661384552386
 21
1030.518361474134
 31
0.0
 11
1414.134870656169
 21
1031.183612569542
 31
0.0
 11
1403.055043292177
 21
1032.056195139967
 31
0.0
 11
1391.966354154322
 21
1032.810976089534
 31
0.0
 11
1380.870632665839
 21
1033.455640331745
 31
0.0
 11
1369.057573036683
 21
1034.028635054079
 31
0.0
 11
1357.239735132891
 21
1034.490744097874
 31
0.0
 11
1345.418232249263
 21
1034.847071107683
 31
0.0
 11
1333.231951486107
 21
1035.108318733867
 31
0.0
 11
1321.04386380036
 21
1035.264034618892
 31
0.0
 11
1308.854872653318
 21
1035.315626977329
 31
0.0
 11
1296.665881506274
 21
1035.264034618892
 31
0.0
 11
1284.477793820525
 21
1035.108318733866
 31
0.0
 11
1272.291513057369
 21
1034.847071107683
 31
0.0
 11
1260.47001017374
 21
1034.490744097874
 31
0.0
 11
1248.652172269948
 21
1034.028635054079
 31
0.0
 11
1236.839112640793
 21
1033.455640331745
 31
0.0
 11
1225.74339115231
 21
1032.810976089534
 31
0.0
 11
1214.654702014455
 21
1032.056195139967
 31
0.0
 11
1203.574874650463
 21
1031.183612569542
 31
0.0
 11
1196.048360754246
 21
1030.518361474133
 31
0.0
 11
1188.527893122385
 21
1029.787652186535
 31
0.0
 11
1181.014576623248
 21
1028.984025506786
 31
0.0
 11
1173.509516125202
 21
1028.100022234928
 31
0.0
 11
1167.003931095646
 21
1027.261838203528
 31
0.0
 11
1160.508104519649
 21
1026.352318335954
 31
0.0
 11
1154.024744157626
 21
1025.366285524097
 31
0.0
 11
1147.55655776999
 21
1024.298562659849
 31
0.0
 11
1143.323319423108
 21
1023.54918914713
 31
0.0
 11
1139.099638406477
 21
1022.748278265639
 31
0.0
 11
1134.88737749545
 21
1021.881671801507
 31
0.0
 11
1130.688399465381
 21
1020.93521154087
 31
0.0
 11
1126.504567091624
 21
1019.894739269861
 31
0.0
 11
1122.568811237656
 21
1018.814840598965
 31
0.0
 11
1118.662295531532
 21
1017.641029605842
 31
0.0
 11
1114.799073376059
 21
1016.37597862982
 31
0.0
 11
1110.993198174044
 21
1015.022360010228
 31
0.0
 11
1109.741726463377
 21
1014.550204464407
 31
0.0
 11
1108.501630244099
 21
1014.054848544886
 31
0.0
 11
1107.276370549516
 21
1013.522613045935
 31
0.0
 11
1106.069408412932
 21
1012.939818761826
 31
0.0
 11
1104.884204867652
 21
1012.292786486829
 31
0.0
 11
1103.724220946979
 21
1011.567837015213
 31
0.0
 11
1102.592917684219
 21
1010.75129114125
 31
0.0
 11
1101.493756112677
 21
1009.829469659209
 31
0.0
 11
1100.946198894643
 21
1009.31299625601
 31
0.0
 11
1100.419589223709
 21
1008.76878334426
 31
0.0
 11
1099.925534526084
 21
1008.20029836253
 31
0.0
 11
1099.475642227981
 21
1007.611008749387
 31
0.0
 11
1099.081519755607
 21
1007.004381943401
 31
0.0
 11
1098.754774535173
 21
1006.383885383139
 31
0.0
 11
1098.507013992889
 21
1005.752986507172
 31
0.0
 11
1098.349845554964
 21
1005.115152754067
 31
0.0
 11
1098.29487664761
 21
1004.473851562393
 31
0.0
 11
1098.29524461421
 21
1004.422164627716
 31
0.0
 11
1098.296344473513
 21
1004.370479503541
 31
0.0
  0
SPLINE
  5
AA
330
1F
100
AcDbEntity
  8
___C_____1
  6
Continuous
 62
     7
100
AcDbSpline
210
0.0
220
0.0
230
1.0
 70
    11
 71
     3
 72
   770
 73
   766
 74
   764
 42
0.0000000001
 43
0.0000000001
 44
0.00000001
 40
0.0
 40
0.0
 40
0.0
 40
0.0
 40
0.0268023216370921
 40
0.0765780618199869
 40
0.1033803834569653
 40
0.6650020857550355
 40
1.232363048718077
 40
1.813116850175932
 40
2.414214152923237
 40
3.041748170278474
 40
3.700907820960464
 40
4.396012879575057
 40
5.130598022444449
 40
5.90751754147936
 40
6.729051787059357
 40
7.597004980788474
 40
8.512790074778813
 40
9.477499891397427
 40
10.49196555786752
 40
11.55680395279702
 40
12.67245600857127
 40
13.83921757206229
 40
15.05726428540118
 40
16.32667169296675
 40
17.64743154740375
 40
19.01946508918363
 40
20.44263391205192
 40
21.91674889709701
 40
23.44157759581331
 40
25.01685036232201
 40
26.64226547219641
 40
28.31749341639078
 40
30.0421805204763
 40
31.81595200938971
 40
33.63841461432374
 40
35.50915879978754
 40
37.42776067413241
 40
39.39378363512295
 40
41.40677979278211
 40
43.46629120423081
 40
45.57185094919034
 40
47.7229840699251
 40
49.91920839543266
 40
52.16003526642743
 40
54.44497017501939
 40
56.77351333078611
 40
59.1451601631429
 40
61.55940176839782
 40
64.01572530865222
 40
66.51361436864352
 40
69.05254927576991
 40
71.63200738778626
 40
74.25146335205773
 40
76.91038933971464
 40
79.60825525761885
 40
82.34452894066477
 40
85.11867632661931
 40
87.93016161542157
 40
90.77844741462926
 40
93.66299487248814
 40
96.58326379992924
 40
99.53871278264232
 40
102.528799284236
 40
105.5529797413889
 40
108.6107096517885
 40
111.7014436555636
 40
114.8246356108513
 40
117.9797386640565
 40
121.1662053153123
 40
124.3834874795959
 40
127.6310365439069
 40
130.9083034208709
 40
134.2147385991073
 40
137.5497921906494
 40
140.9129139756973
 40
144.3035534449402
 40
147.7211598396767
 40
151.1651821899328
 40
154.6350693507644
 40
158.1302700369088
 40
161.6502328559483
 40
165.194406340119
 40
168.7622389769002
 40
172.3531792385057
 40
175.9666756103827
 40
179.6021766188295
 40
183.2591308578189
 40
186.9369870151242
 40
190.635193897824
 40
194.3532004572698
 40
198.0904558135852
 40
201.8464092797658
 40
205.6205103854495
 40
209.4122089004109
 40
213.2209548578458
 40
217.0461985774992
 40
220.871164493072
 40
224.679644926488
 40
228.4710899932739
 40
232.2449495221759
 40
236.0006730782959
 40
239.7377099863843
 40
243.4555093543471
 40
247.1535200970219
 40
250.8311909602862
 40
254.4879705455672
 40
258.1233073348107
 40
261.7366497159987
 40
265.3274460092757
 40
268.8951444937841
 40
272.4391934352803
 40
275.9590411146442
 40
279.4541358573718
 40
282.9239260641684
 40
286.3678602427635
 40
289.7853870410754
 40
293.1759552818652
 40
296.5390139990437
 40
299.8740124757898
 40
303.1804002846722
 40
306.457627329975
 40
309.7051438924474
 40
312.9224006767296
 40
316.1088488617142
 40
319.2639401541543
 40
322.3871268458382
 40
325.4778618747041
 40
328.535598890299
 40
331.5597923240359
 40
334.5498974647555
 40
337.505370540157
 40
340.4256688047321
 40
343.3102506349096
 40
346.1585756322121
 40
348.9701047353201
 40
351.7443003420628
 40
354.48062644248
 40
357.178548764256
 40
359.8375349320126
 40
362.4570546421335
 40
365.0365798550536
 40
367.5755850072094
 40
370.0735472451802
 40
372.5299466849192
 40
374.9442666994312
 40
377.3159942387757
 40
379.6446201868824
 40
381.9296397604248
 40
384.1705529558436
 40
386.3668650516827
 40
388.5180871746228
 40
390.623736939117
 40
392.6833391723272
 40
394.6964267382608
 40
396.6625414776547
 40
398.5812352834137
 40
400.4520713353753
 40
402.2746255230742
 40
404.0484880912261
 40
405.7732655501548
 40
407.4485829027433
 40
409.0740862512093
 40
410.6494458617251
 40
412.1743597835229
 40
413.6485581426821
 40
415.0718082608206
 40
416.4439207871843
 40
417.764757081608
 40
419.0342381485241
 40
420.25235550244
 40
421.4191844476546
 40
422.5349003846694
 40
423.5997989179166
 40
424.6143207378357
 40
425.5790824837461
 40
426.4949150497331
 40
427.3629110366765
 40
428.1844831953457
 40
428.9614355789963
 40
429.6960484216264
 40
430.3911759778015
 40
431.0503530023241
 40
431.6778995104918
 40
432.2790048758023
 40
432.8597630270633
 40
433.4271256266689
 40
433.9887475161399
 40
434.0411507097117
 40
434.0935539032834
 40
434.1021689352384
 40
434.1107839671935
 40
437.8471212976292
 40
441.5680164700433
 40
445.2740762605795
 40
448.9658963607307
 40
452.6440613995939
 40
456.3091449843691
 40
459.9617097590896
 40
463.6023074815189
 40
467.2314791180894
 40
470.8497549567044
 40
474.4576547371856
 40
478.0556877990848
 40
481.6443532465497
 40
485.2241401298796
 40
488.7955276433732
 40
492.3589853390345
 40
495.9149733556684
 40
499.4639426628686
 40
503.0063353193719
 40
506.5425847452316
 40
510.0731160072402
 40
513.5983461170139
 40
517.118684341135
 40
520.634532522737
 40
524.1462854139058
 40
527.6543310182635
 40
531.159050943092
 40
534.6608207603525
 40
538.1600103759555
 40
541.6569844066283
 40
545.1521025637361
 40
548.6457200434062
 40
552.1381879223143
 40
555.6298535584892
 40
559.1210609964995
 40
562.6121513763882
 40
566.1034633457274
 40
569.5953334741715
 40
573.088096669887
 40
576.5820865972463
 40
580.0776360951808
 40
583.5750775955851
 40
587.0747435411774
 40
590.5769668022199
 40
594.0820810915109
 40
597.5904213770652
 40
601.1023242918977
 40
604.6181285403374
 40
608.1381753002964
 40
611.6628086209263
 40
615.1923758150945
 40
618.727227846122
 40
619.9272078030808
 40
621.049756271404
 40
622.0979283994715
 40
623.0747795565169
 40
623.9833655846338
 40
624.8267431402036
 40
625.6079701526411
 40
626.3301064363592
 40
626.9962145016618
 40
627.6093606217593
 40
628.1726162257235
 40
628.6890596992447
 40
629.1617786829982
 40
629.5938729554219
 40
629.9884579606195
 40
630.3486689733785
 40
630.6776657533793
 40
630.9786372946991
 40
631.2548058965937
 40
631.50942927884
 40
631.7457989501456
 40
631.9672327873341
 40
632.1770602386299
 40
632.3786001402289
 40
632.5751337715784
 40
632.7698785155837
 40
632.9659687017356
 40
633.1664487119522
 40
633.3742796655893
 40
633.5923569092338
 40
633.8235330819673
 40
634.1464638777293
 40
634.4430829517722
 40
634.7165083853033
 40
634.9701295112511
 40
635.2077534906316
 40
635.4337482318348
 40
635.6531311193576
 40
635.871540533092
 40
636.0950555769243
 40
636.3299038422285
 40
636.5821633848193
 40
636.8575586398084
 40
637.1613823372786
 40
637.498514263291
 40
637.8734890284698
 40
638.2905760135869
 40
638.7538520939994
 40
639.2672603219576
 40
639.8346542506598
 40
640.4598300994126
 40
641.1465494825158
 40
641.1806707775235
 40
641.2817591001168
 40
641.4479011066502
 40
641.6771834534783
 40
641.9676927969557
 40
642.3175157934373
 40
642.7247390992783
 40
643.1874493708325
 40
643.7037332644551
 40
644.2716774365009
 40
644.8893685433242
 40
645.5548932412797
 40
646.2663381867227
 40
647.0217900360077
 40
647.819335445489
 40
648.6570610715215
 40
649.5330535704596
 40
650.4453995986588
 40
651.3921858124735
 40
652.3714988682579
 40
653.381425422367
 40
654.4200521311558
 40
655.4854656509787
 40
656.5757526381905
 40
657.6889997491456
 40
658.823293640199
 40
659.9767209677056
 40
661.1473683880198
 40
662.3333225574964
 40
663.5326701324899
 40
664.7434977693555
 40
665.9638921244472
 40
667.1919398541205
 40
668.4257276147295
 40
669.6633420626287
 40
670.9028698541737
 40
672.1423976457185
 40
673.3800120936181
 40
674.6137998542271
 40
675.8418475839002
 40
677.0622419389921
 40
678.2730695758577
 40
679.4724171508511
 40
680.6583713203278
 40
681.829018740642
 40
682.9824460681483
 40
684.1167399592019
 40
685.2299870701573
 40
686.3202740573689
 40
687.3856875771918
 40
688.4243142859806
 40
689.4342408400897
 40
690.4135538958743
 40
691.3603401096885
 40
692.2726861378879
 40
693.1486786368263
 40
693.9864042628589
 40
694.7839496723401
 40
695.5394015216249
 40
696.2508464670676
 40
696.9163711650236
 40
697.5340622718469
 40
698.1020064438925
 40
698.6182903375151
 40
699.0810006090695
 40
699.48822391491
 40
699.8380469113919
 40
700.1285562548695
 40
700.3578386016976
 40
700.523980608231
 40
700.6250689308241
 40
700.6591902258318
 40
700.6929087567186
 40
700.7923784228348
 40
700.9550703343635
 40
701.1784556014889
 40
701.4600053343938
 40
701.797190643262
 40
702.187482638277
 40
702.6283524296221
 40
703.1172711274809
 40
703.6517098420369
 40
704.2291396834737
 40
704.8470317619747
 40
705.5028571877232
 40
706.1940870709029
 40
706.9181925216975
 40
707.6726446502898
 40
708.4549145668642
 40
709.2624733816034
 40
710.0927922046915
 40
710.9433421463116
 40
711.8115943166472
 40
712.6950198258817
 40
713.591089784199
 40
714.4972753017821
 40
715.411047488815
 40
716.3298774554806
 40
717.251236311963
 40
718.1725951684454
 40
719.0914251351111
 40
720.0051973221439
 40
720.9113828397271
 40
721.8074527980442
 40
722.6908783072789
 40
723.5591304776144
 40
724.4096804192345
 40
725.2399992423224
 40
726.0475580570618
 40
726.8298279736358
 40
727.5842801022285
 40
728.308385553023
 40
728.9996154362027
 40
729.6554408619512
 40
730.2733329404523
 40
730.850762781889
 40
731.385201496445
 40
731.8741201943038
 40
732.3149899856491
 40
732.7052819806639
 40
733.0424672895322
 40
733.3240170224372
 40
733.5474022895623
 40
733.7100942010912
 40
733.8095638672073
 40
733.8432823980942
 40
733.8768363317132
 40
733.9759097806826
 40
734.1381202171718
 40
734.3610851133502
 40
734.642421941386
 40
734.9797481734487
 40
735.3706812817073
 40
735.8128387383314
 40
736.3038380154891
 40
736.8412965853501
 40
737.4228319200837
 40
738.046061491858
 40
738.7086027728432
 40
739.4080732352073
 40
740.1420903511204
 40
740.908271592751
 40
741.704234432268
 40
742.5275963418411
 40
743.3759747936389
 40
744.24698725983
 40
745.1382512125846
 40
746.0473841240709
 40
746.9720034664584
 40
747.9097267119161
 40
748.8581713326129
 40
749.8149548007181
 40
750.7776945884003
 40
751.7440081678291
 40
752.7115130111737
 40
753.6778265906022
 40
754.6405663782845
 40
755.5973498463899
 40
756.5457944670865
 40
757.4835177125441
 40
758.4081370549317
 40
759.3172699664179
 40
760.2085339191725
 40
761.0795463853641
 40
761.9279248371616
 40
762.7512867467345
 40
763.5472495862517
 40
764.3134308278821
 40
765.0474479437952
 40
765.7469184061596
 40
766.4094596871445
 40
767.0326892589191
 40
767.6142245936525
 40
768.1516831635134
 40
768.6426824406716
 40
769.0848398972952
 40
769.4757730055538
 40
769.8130992376165
 40
770.0944360656525
 40
770.3174009618305
 40
770.4796113983199
 40
770.5786848472893
 40
770.6122387809083
 40
770.6457769910345
 40
770.7448040138332
 40
770.906938437934
 40
771.1297988519679
 40
771.4110038445639
 40
771.748172004353
 40
772.1389219199651
 40
772.5808721800303
 40
773.0716413731778
 40
773.6088480880393
 40
774.1901109132435
 40
774.8130484374213
 40
775.4752792492026
 40
776.1744219372171
 40
776.9080950900953
 40
777.6739172964675
 40
778.4695071449631
 40
779.2924832242128
 40
780.1404641228468
 40
781.0110684294945
 40
781.9019147327866
 40
782.8106216213529
 40
783.7348076838238
 40
784.6720915088289
 40
785.6200916849988
 40
786.5764268009633
 40
787.5387154453523
 40
788.5045762067963
 40
789.4716276739254
 40
790.4374884353694
 40
791.3997770797586
 40
792.3561121957231
 40
793.3041123718928
 40
794.2413961968979
 40
795.1655822593688
 40
796.0742891479353
 40
796.9651354512272
 40
797.8357397578751
 40
798.6837206565089
 40
799.5066967357585
 40
800.3022865842544
 40
801.0681087906263
 40
801.8017819435048
 40
802.5009246315193
 40
803.1631554433005
 40
803.7860929674783
 40
804.3673557926828
 40
804.9045625075436
 40
805.3953317006916
 40
805.8372819607567
 40
806.2280318763686
 40
806.5652000361575
 40
806.8464050287538
 40
807.0692654427875
 40
807.2313998668886
 40
807.3304268896872
 40
807.3639650998133
 40
807.3976890265514
 40
807.4971746104288
 40
807.6598925569402
 40
807.8833135715804
 40
808.1649083598437
 40
808.502147627225
 40
808.8925020792191
 40
809.33344242132
 40
809.8224393590228
 40
810.3569635978222
 40
810.9344858432124
 40
811.5524768006887
 40
812.2084071757454
 40
812.899747673877
 40
813.6239690005785
 40
814.3785418613441
 40
815.1609369616685
 40
815.9686250070469
 40
816.7990767029731
 40
817.6497627549426
 40
818.5181538684492
 40
819.4017207489882
 40
820.2979341020539
 40
821.204264633141
 40
822.1181830477443
 40
823.0371600513583
 40
823.9586663494775
 40
824.880172647597
 40
825.7991496512109
 40
826.7130680658141
 40
827.6193985969014
 40
828.5156119499671
 40
829.399178830506
 40
830.267569944013
 40
831.1182559959821
 40
831.9487076919086
 40
832.7563957372867
 40
833.5387908376114
 40
834.2933636983769
 40
835.0175850250782
 40
835.7089255232096
 40
836.3648558982663
 40
836.9828468557423
 40
837.5603691011329
 40
838.0948933399321
 40
838.5838902776351
 40
839.024830619736
 40
839.4151850717299
 40
839.7524243391111
 40
840.0340191273746
 40
840.2574401420148
 40
840.4201580885263
 40
840.5196436724036
 40
840.5533675991418
 40
840.5874888941497
 40
840.6885772167428
 40
840.8547192232762
 40
841.0840015701041
 40
841.3745109135817
 40
841.7243339100636
 40
842.1315572159043
 40
842.5942674874585
 40
843.1105513810811
 40
843.6784955531269
 40
844.2961866599507
 40
844.9617113579062
 40
845.6731563033492
 40
846.428608152634
 40
847.226153562115
 40
848.0638791881476
 40
848.9398716870859
 40
849.8522177152851
 40
850.7990039290997
 40
851.7783169848843
 40
852.7882435389932
 40
853.8268702477823
 40
854.8922837676051
 40
855.982570754817
 40
857.0958178657719
 40
858.2301117568255
 40
859.383539084332
 40
860.5541865046463
 40
861.7401406741234
 40
862.9394882491166
 40
864.1503158859822
 40
865.3707102410741
 40
866.5987579707472
 40
867.8325457313559
 40
869.0701601792556
 40
870.3096879708008
 40
871.5492157623456
 40
872.7868302102453
 40
874.0206179708542
 40
875.2486657005271
 40
876.4690600556193
 40
877.6798876924848
 40
878.8792352674785
 40
880.0651894369549
 40
881.2358368572694
 40
882.3892641847757
 40
883.5235580758296
 40
884.6368051867847
 40
885.7270921739963
 40
886.7925056938194
 40
887.8311324026082
 40
888.8410589567171
 40
889.8203720125017
 40
890.7671582263162
 40
891.6795042545153
 40
892.5554967534539
 40
893.3932223794865
 40
894.1907677889677
 40
894.9462196382525
 40
895.6576645836955
 40
896.3231892816513
 40
896.9408803884745
 40
897.5088245605201
 40
898.0251084541429
 40
898.4878187256974
 40
898.8950420315379
 40
899.2448650280197
 40
899.5353743714974
 40
899.7646567183255
 40
899.9307987248586
 40
900.031887047452
 40
900.0660083424597
 40
900.7504374555725
 40
901.3736467896043
 40
901.9393701291882
 40
902.4513759408023
 40
902.9134901262598
 40
903.3296282055045
 40
903.7038396450878
 40
904.0403665280073
 40
904.3437162578332
 40
904.6187415188806
 40
904.8707081990476
 40
905.1053146144819
 40
905.3286143319275
 40
905.5468132872121
 40
905.7659726780519
 40
905.9917166642582
 40
906.2290509065957
 40
906.4823323096931
 40
906.7553560890997
 40
907.0514975366627
 40
907.3738580018893
 40
907.606228039381
 40
907.8253795255986
 40
908.0341798154058
 40
908.2355360706529
 40
908.4324177827429
 40
908.6278741781568
 40
908.8250413941202
 40
909.0271365922692
 40
909.2374400846297
 40
909.4592702220473
 40
909.6959573546681
 40
909.9508221218302
 40
910.2271607429202
 40
910.5282374261311
 40
910.8572824418013
 40
911.2174939158822
 40
911.6120416071273
 40
912.0440714136832
 40
912.5167098380388
 40
913.0330680103045
 40
913.5962451128313
 40
914.2093311892256
 40
914.8754093909154
 40
915.5975577420815
 40
916.3788505082732
 40
917.2223592472457
 40
918.131153609431
 40
919.108301943518
 40
920.1568717516146
 40
921.2799300290232
 40
922.4805435159015
 40
926.0145836556367
 40
929.5433797954419
 40
933.0672820822877
 40
936.5866369922044
 40
940.1017877179705
 40
943.6130745625404
 40
947.1208353376484
 40
950.6254057670215
 40
954.1271198936278
 40
957.6263104903954
 40
961.1233094738165
 40
964.6184483198651
 40
968.1120584816317
 40
971.6044718080927
 40
975.0960209634261
 40
978.5870398462607
 40
982.0778640082756
 40
985.56883107152
 40
989.0602811438604
 40
992.5525572319269
 40
996.04600565094
 40
999.5409764307814
 40
1003.037823717693
 40
1006.536906170949
 40
1010.038587353881
 40
1013.543236118582
 40
1017.051226983681
 40
1020.562940504507
 40
1024.078763635015
 40
1027.599090080818
 40
1031.124320642682
 40
1034.654863549842
 40
1038.191134782509
 40
1041.733558382938
 40
1045.282566754436
 40
1048.838600947716
 40
1052.402110934005
 40
1055.97355586433
 40
1059.553404314442
 40
1063.142134514841
 40
1066.740234565416
 40
1070.348202634218
 40
1073.966547139939
 40
1077.595786917688
 40
1081.236451367712
 40
1084.889080586727
 40
1088.554225481611
 40
1092.232447865194
 40
1095.924320534006
 40
1099.630427327822
 40
1103.351363170965
 40
1107.087734095331
 40
1107.087734095331
 40
1107.087734095331
 40
1107.087734095331
 10
1519.38902453998
 20
1004.370479503635
 30
0.0
 10
1519.38902506648
 20
1004.379413601833
 30
0.0
 10
1519.389026570764
 20
1004.404939596686
 30
0.0
 10
1519.389011194829
 20
1004.439399987747
 30
0.0
 10
1519.389246911776
 20
1004.652129206883
 30
0.0
 10
1519.366159063021
 20
1005.037786142755
 30
0.0
 10
1519.262832378609
 20
1005.59957531504
 30
0.0
 10
1519.091919674819
 20
1006.158306040553
 30
0.0
 10
1518.853975358986
 20
1006.713682292545
 30
0.0
 10
1518.549919838078
 20
1007.265665407453
 30
0.0
 10
1518.180497817932
 20
1007.814257222715
 30
0.0
 10
1517.746411415462
 20
1008.359501371145
 30
0.0
 10
1517.248293206514
 20
1008.901437477387
 30
0.0
 10
1516.686736501257
 20
1009.440088878064
 30
0.0
 10
1516.062308767715
 20
1009.975456506586
 30
0.0
 10
1515.375564736827
 20
1010.507520277542
 30
0.0
 10
1514.627053871252
 20
1011.036242466096
 30
0.0
 10
1513.817324917756
 20
1011.561571659689
 30
0.0
 10
1512.946928199662
 20
1012.083446253873
 30
0.0
 10
1512.016416641225
 20
1012.601797272176
 30
0.0
 10
1511.026346054899
 20
1013.11655050517
 30
0.0
 10
1509.977275054423
 20
1013.627628081542
 30
0.0
 10
1508.869764794506
 20
1014.134949597231
 30
0.0
 10
1507.704378650533
 20
1014.638432916277
 30
0.0
 10
1506.481681896169
 20
1015.137994733671
 30
0.0
 10
1505.202241406358
 20
1015.633550968407
 30
0.0
 10
1503.866625396214
 20
1016.125017036505
 30
0.0
 10
1502.475403197723
 20
1016.612308039688
 30
0.0
 10
1501.029145071879
 20
1017.095338894961
 30
0.0
 10
1499.528422052231
 20
1017.57402442291
 30
0.0
 10
1497.973805815359
 20
1018.048279407191
 30
0.0
 10
1496.365868573956
 20
1018.518018633955
 30
0.0
 10
1494.705182988703
 20
1018.983156917343
 30
0.0
 10
1492.992322095596
 20
1019.443609115322
 30
0.0
 10
1491.227859245983
 20
1019.899290138895
 30
0.0
 10
1489.412368056973
 20
1020.350114956756
 30
0.0
 10
1487.546422370351
 20
1020.795998596898
 30
0.0
 10
1485.630596218451
 20
1021.236856146194
 30
0.0
 10
1483.665463795728
 20
1021.672602748661
 30
0.0
 10
1481.651599435002
 20
1022.10315360292
 30
0.0
 10
1479.589577587567
 20
1022.528423959207
 30
0.0
 10
1477.479972806454
 20
1022.948329116146
 30
0.0
 10
1475.323359732342
 20
1023.362784417473
 30
0.0
 10
1473.120313081627
 20
1023.771705248794
 30
0.0
 10
1470.871407636313
 20
1024.175007034457
 30
0.0
 10
1468.577218235406
 20
1024.572605234583
 30
0.0
 10
1466.238319767573
 20
1024.964415342267
 30
0.0
 10
1463.855287164863
 20
1025.350352880962
 30
0.0
 10
1461.428695397313
 20
1025.730333402067
 30
0.0
 10
1458.959119468314
 20
1026.10427248268
 30
0.0
 10
1456.447134410604
 20
1026.472085723541
 30
0.0
 10
1453.89331528281
 20
1026.833688747145
 30
0.0
 10
1451.298237166441
 20
1027.188997195999
 30
0.0
 10
1448.662475163282
 20
1027.537926731041
 30
0.0
 10
1445.986604393112
 20
1027.880393030183
 30
0.0
 10
1443.271199991723
 20
1028.216311786986
 30
0.0
 10
1440.51683710917
 20
1028.54559870944
 30
0.0
 10
1437.724090908251
 20
1028.868169518865
 30
0.0
 10
1434.89353656316
 20
1029.183939948882
 30
0.0
 10
1432.025749258294
 20
1029.492825744498
 30
0.0
 10
1429.121304187221
 20
1029.794742661254
 30
0.0
 10
1426.180776551741
 20
1030.089606464444
 30
0.0
 10
1423.204741561068
 20
1030.377332928412
 30
0.0
 10
1420.193774431102
 20
1030.657837835895
 30
0.0
 10
1417.148450383776
 20
1030.931036977434
 30
0.0
 10
1414.069344646476
 20
1031.196846150816
 30
0.0
 10
1410.95703245152
 20
1031.455181160585
 30
0.0
 10
1407.812089035703
 20
1031.705957817572
 30
0.0
 10
1404.635089639867
 20
1031.949091938471
 30
0.0
 10
1401.426609508537
 20
1032.184499345459
 30
0.0
 10
1398.187223889582
 20
1032.412095865826
 30
0.0
 10
1394.917508033907
 20
1032.631797331656
 30
0.0
 10
1391.618037195185
 20
1032.843519579511
 30
0.0
 10
1388.289386629604
 20
1033.047178450162
 30
0.0
 10
1384.932131595641
 20
1033.242689788323
 30
0.0
 10
1381.546847353864
 20
1033.429969442415
 30
0.0
 10
1378.134109166741
 20
1033.608933264346
 30
0.0
 10
1374.69449229847
 20
1033.779497109305
 30
0.0
 10
1371.228572014826
 20
1033.941576835575
 30
0.0
 10
1367.736923583023
 20
1034.095088304356
 30
0.0
 10
1364.220122271576
 20
1034.239947379608
 30
0.0
 10
1360.678743350189
 20
1034.376069927896
 30
0.0
 10
1357.113362089646
 20
1034.503371818255
 30
0.0
 10
1353.524553761701
 20
1034.621768922061
 30
0.0
 10
1349.912893638996
 20
1034.731177112907
 30
0.0
 10
1346.278956994969
 20
1034.8315122665
 30
0.0
 10
1342.62331910377
 20
1034.922690260552
 30
0.0
 10
1338.946555240197
 20
1035.004626974691
 30
0.0
 10
1335.249240679613
 20
1035.077238290342
 30
0.0
 10
1331.531950697896
 20
1035.140440090783
 30
0.0
 10
1327.795260571352
 20
1035.194148260532
 30
0.0
 10
1324.039745576733
 20
1035.238278687285
 30
0.0
 10
1320.265980990911
 20
1035.272747254324
 30
0.0
 10
1316.474542091844
 20
1035.297469868719
 30
0.0
 10
1312.666004154698
 20
1035.312362355075
 30
0.0
 10
1308.846351199611
 20
1035.317333814732
 30
0.0
 10
1305.02678675231
 20
1035.312362406147
 30
0.0
 10
1301.218514409109
 20
1035.297469822763
 30
0.0
 10
1297.42732903161
 20
1035.272747216975
 30
0.0
 10
1293.653806100804
 20
1035.23827863103
 30
0.0
 10
1289.898521100412
 20
1035.194148193276
 30
0.0
 10
1286.162049513082
 20
1035.14044001099
 30
0.0
 10
1282.444966821342
 20
1035.077238198973
 30
0.0
 10
1278.747848507276
 20
1035.004626872025
 30
0.0
 10
1275.071270052534
 20
1034.922690147034
 30
0.0
 10
1271.415806938259
 20
1034.831512142517
 30
0.0
 10
1267.782034645023
 20
1034.731176978847
 30
0.0
 10
1264.170528652758
 20
1034.621768778297
 30
0.0
 10
1260.581864440676
 20
1034.503371665154
 30
0.0
 10
1257.016617487196
 20
1034.376069765811
 30
0.0
 10
1253.475363269855
 20
1034.239947208883
 30
0.0
 10
1249.958677265211
 20
1034.095088125327
 30
0.0
 10
1246.467134948749
 20
1033.941576648569
 30
0.0
 10
1243.001311794764
 20
1033.779496914641
 30
0.0
 10
1239.561783276247
 20
1033.608933062333
 30
0.0
 10
1236.149124864756
 20
1033.429969233356
 30
0.0
 10
1232.763912030267
 20
1033.242689572512
 30
0.0
 10
1229.40672024103
 20
1033.047178227888
 30
0.0
 10
1226.078124963392
 20
1032.843519351055
 30
0.0
 10
1222.778701661612
 20
1032.631797097293
 30
0.0
 10
1219.509025797661
 20
1032.412095625825
 30
0.0
 10
1216.269672830992
 20
1032.184499100083
 30
0.0
 10
1213.061218218293
 20
1031.949091687977
 30
0.0
 10
1209.884237413214
 20
1031.705957562214
 30
0.0
 10
1206.739305866064
 20
1031.455180900613
 30
0.0
 10
1203.626999023471
 20
1031.196845886474
 30
0.0
 10
1200.547892328009
 20
1030.931036708962
 30
0.0
 10
1197.502561217784
 20
1030.657837563533
 30
0.0
 10
1194.491581125965
 20
1030.377332652394
 30
0.0
 10
1191.51552748027
 20
1030.089606185004
 30
0.0
 10
1188.574975702386
 20
1029.794742378625
 30
0.0
 10
1185.670501207312
 20
1029.492825458911
 30
0.0
 10
1182.802679402637
 20
1029.183939660566
 30
0.0
 10
1179.972085687713
 20
1028.868169228052
 30
0.0
 10
1177.179295452729
 20
1028.545598416364
 30
0.0
 10
1174.424884077669
 20
1028.216311491881
 30
0.0
 10
1171.709426931116
 20
1027.880392733286
 30
0.0
 10
1169.033499368921
 20
1027.537926432596
 30
0.0
 10
1166.397676732665
 20
1027.188996896253
 30
0.0
 10
1163.802534347922
 20
1026.833688446352
 30
0.0
 10
1161.24864752227
 20
1026.472085421965
 30
0.0
 10
1158.736591543016
 20
1026.104272180593
 30
0.0
 10
1156.266941674583
 20
1025.730333099757
 30
0.0
 10
1153.840273155508
 20
1025.350352578727
 30
0.0
 10
1151.457161194981
 20
1024.964415040425
 30
0.0
 10
1149.118180968845
 20
1024.572604933473
 30
0.0
 10
1146.82390761495
 20
1024.175006734439
 30
0.0
 10
1144.574916227775
 20
1023.77170495026
 30
0.0
 10
1142.37178185213
 20
1023.362784120845
 30
0.0
 10
1140.215079475837
 20
1022.948328821886
 30
0.0
 10
1138.105384021103
 20
1022.528423667822
 30
0.0
 10
1136.043270334428
 20
1022.103153314972
 30
0.0
 10
1134.029313174666
 20
1021.672602464773
 30
0.0
 10
1132.064087198935
 20
1021.236855867066
 30
0.0
 10
1130.148166945886
 20
1020.795998323313
 30
0.0
 10
1128.282126815807
 20
1020.350114689604
 30
0.0
 10
1126.466541046868
 20
1019.899289879188
 30
0.0
 10
1124.701983686696
 20
1019.443608864217
 30
0.0
 10
1122.989028558244
 20
1018.983156676169
 30
0.0
 10
1121.3282492187
 20
1018.518018404251
 30
0.0
 10
1119.720218909909
 20
1018.048279190743
 30
0.0
 10
1118.165510498387
 20
1017.574024221804
 30
0.0
 10
1116.664696402662
 20
1017.095338711641
 30
0.0
 10
1115.218348505123
 20
1016.612307877031
 30
0.0
 10
1113.827038045111
 20
1016.125016897918
 30
0.0
 10
1112.491335489362
 20
1015.633550857929
 30
0.0
 10
1111.211810375538
 20
1015.137994656118
 30
0.0
 10
1109.989031124334
 20
1014.638432877403
 30
0.0
 10
1108.82356481611
 20
1014.134949603911
 30
0.0
 10
1107.715976929744
 20
1013.627628142071
 30
0.0
 10
1106.666831045461
 20
1013.116550629303
 30
0.0
 10
1105.676688522457
 20
1012.601797472206
 30
0.0
 10
1104.746108177846
 20
1012.083446542186
 30
0.0
 10
1103.875646027898
 20
1011.561572058537
 30
0.0
 10
1103.06585519434
 20
1011.036242974631
 30
0.0
 10
1102.317286213167
 20
1010.507520985849
 30
0.0
 10
1101.63048798226
 20
1009.975457200397
 30
0.0
 10
1101.006010315466
 20
1009.440090394175
 30
0.0
 10
1100.444407593036
 20
1008.901437033178
 30
0.0
 10
1099.946249328322
 20
1008.359508583858
 30
0.0
 10
1099.512122634223
 20
1007.814239031096
 30
0.0
 10
1099.142682277401
 20
1007.265735676858
 30
0.0
 10
1098.838554414846
 20
1006.713445946922
 30
0.0
 10
1098.60074987492
 20
1006.159144286546
 30
0.0
 10
1098.429250435986
 20
1005.596596509313
 30
0.0
 10
1098.327977429245
 20
1005.048590760906
 30
0.0
 10
1098.299072393133
 20
1004.618958363438
 30
0.0
 10
1098.304664987981
 20
1004.428607302639
 30
0.0
 10
1098.33783475465
 20
1004.368343785664
 30
0.0
 10
1098.31190852171
 20
1004.370648336444
 30
0.0
 10
1097.08791361444
 20
1004.347753874351
 30
0.0
 10
1099.144370623121
 20
1000.085449686415
 30
0.0
 10
1098.713836303024
 20
997.0896573023055
 30
0.0
 10
1099.303118903394
 20
993.2141297152534
 30
0.0
 10
1099.70303549561
 20
989.6003365864367
 30
0.0
 10
1100.235001481264
 20
985.944942316784
 30
0.0
 10
1100.812713706006
 20
982.3294763988249
 30
0.0
 10
1101.458500070189
 20
978.7329262347837
 30
0.0
 10
1102.16573897328
 20
975.161606028274
 30
0.0
 10
1102.935525316229
 20
971.6145459859334
 30
0.0
 10
1103.766896726677
 20
968.0927182539925
 30
0.0
 10
1104.659439429487
 20
964.5965771134313
 30
0.0
 10
1105.612593330516
 20
961.1267149462919
 30
0.0
 10
1106.625837372344
 20
957.6836872710453
 30
0.0
 10
1107.698640085992
 20
954.2680594207988
 30
0.0
 10
1108.830472786949
 20
950.880394088553
 30
0.0
 10
1110.020806054631
 20
947.5212546520398
 30
0.0
 10
1111.269110673415
 20
944.1912042870711
 30
0.0
 10
1112.57485738257
 20
940.8908062052316
 30
0.0
 10
1113.937516944121
 20
937.6206235914367
 30
0.0
 10
1115.356560125713
 20
934.3812196217024
 30
0.0
 10
1116.831457706098
 20
931.1731574595445
 30
0.0
 10
1118.361680474466
 20
927.9970002581317
 30
0.0
 10
1119.946699231331
 20
924.8533111609345
 30
0.0
 10
1121.585984788912
 20
921.742653302814
 30
0.0
 10
1123.279007971535
 20
918.6655898110043
 30
0.0
 10
1125.02523961595
 20
915.6226838061488
 30
0.0
 10
1126.824150571561
 20
912.6144984033213
 30
0.0
 10
1128.675211700603
 20
909.6415967130604
 30
0.0
 10
1130.577893878217
 20
906.7045418423918
 30
0.0
 10
1132.531667992488
 20
903.8038968958417
 30
0.0
 10
1134.53600494439
 20
900.9402249764468
 30
0.0
 10
1136.590375647675
 20
898.114089186731
 30
0.0
 10
1138.6942510287
 20
895.3260526296804
 30
0.0
 10
1140.847102026186
 20
892.5766784096778
 30
0.0
 10
1143.048399590926
 20
889.8665296334203
 30
0.0
 10
1145.297614685429
 20
887.1961694108065
 30
0.0
 10
1147.594218283514
 20
884.5661608557834
 30
0.0
 10
1149.937681369853
 20
881.9770670871669
 30
0.0
 10
1152.327474939473
 20
879.4294512294346
 30
0.0
 10
1154.763069997167
 20
876.9238764133955
 30
0.0
 10
1157.243937557038
 20
874.4609057771692
 30
0.0
 10
1159.76954864134
 20
872.0411024657865
 30
0.0
 10
1162.339374281769
 20
869.6650296357511
 30
0.0
 10
1164.952885511405
 20
867.3332504408198
 30
0.0
 10
1167.609553391414
 20
865.0463280877835
 30
0.0
 10
1170.308848907745
 20
862.8048256303854
 30
0.0
 10
1173.050243353504
 20
860.6093067416841
 30
0.0
 10
1175.833206895881
 20
858.4603328289644
 30
0.0
 10
1178.657213929634
 20
856.3584738210227
 30
0.0
 10
1181.521723056665
 20
854.304267836495
 30
0.0
 10
1184.426251948026
 20
852.2983720047348
 30
0.0
 10
1186.720388443976
 20
850.7729922301045
 30
0.0
 10
1188.359174937793
 20
849.7116331246234
 30
0.0
 10
1189.301235919928
 20
849.0993227819212
 30
0.0
 10
1190.181020377825
 20
848.5276759090324
 30
0.0
 10
1191.000651377214
 20
847.9943518859202
 30
0.0
 10
1191.762636940272
 20
847.4976030590556
 30
0.0
 10
1192.469392302622
 20
847.0355386873458
 30
0.0
 10
1193.123355124759
 20
846.606302392569
 30
0.0
 10
1193.726957802662
 20
846.208029441239
 30
0.0
 10
1194.282634110811
 20
845.8388569039175
 30
0.0
 10
1194.792817612677
 20
845.496921114347
 30
0.0
 10
1195.259942020902
 20
845.1803581164681
 30
0.0
 10
1195.686441063933
 20
844.8873033419395
 30
0.0
 10
1196.07474841891
 20
844.6158913981333
 30
0.0
 10
1196.42729754473
 20
844.3642557474391
 30
0.0
 10
1196.746521405575
 20
844.1305283310547
 30
0.0
 10
1197.034852021552
 20
843.9128391537745
 30
0.0
 10
1197.294719786732
 20
843.7093159083419
 30
0.0
 10
1197.528552514348
 20
843.5180837916483
 30
0.0
 10
1197.738774251626
 20
843.3372657658242
 30
0.0
 10
1197.92780409625
 20
843.1649836002557
 30
0.0
 10
1198.098055542215
 20
842.9993599836514
 30
0.0
 10
1198.251937222008
 20
842.8385216857248
 30
0.0
 10
1198.391855825961
 20
842.6806030062892
 30
0.0
 10
1198.520221557802
 20
842.5237481428695
 30
0.0
 10
1198.639453934155
 20
842.3661103497045
 30
0.0
 10
1198.751988241714
 20
842.2058491605982
 30
0.0
 10
1198.860269351211
 20
842.0411208488997
 30
0.0
 10
1198.966773533481
 20
841.8700886700332
 30
0.0
 10
1199.073902870194
 20
841.6908630283219
 30
0.0
 10
1199.18437244355
 20
841.5017314983486
 30
0.0
 10
1199.312171129529
 20
841.2782983259557
 30
0.0
 10
1199.457615249776
 20
841.0348462919928
 30
0.0
 10
1199.613078624098
 20
840.7809950599637
 30
0.0
 10
1199.763193740863
 20
840.5510449791509
 30
0.0
 10
1199.911437889852
 20
840.3435700657601
 30
0.0
 10
1200.061775738854
 20
840.1574410236981
 30
0.0
 10
1200.218086249156
 20
839.9915440015718
 30
0.0
 10
1200.384232952448
 20
839.8448826634519
 30
0.0
 10
1200.563946816353
 20
839.7165225740473
 30
0.0
 10
1200.760798557506
 20
839.6054853885837
 30
0.0
 10
1200.978267445006
 20
839.5106448494571
 30
0.0
 10
1201.219864008156
 20
839.4307241856799
 30
0.0
 10
1201.489200069043
 20
839.3643755287696
 30
0.0
 10
1201.789981889244
 20
839.3102581773633
 30
0.0
 10
1202.12596995418
 20
839.2670737009081
 30
0.0
 10
1202.500943843485
 20
839.2335675858004
 30
0.0
 10
1202.918682719437
 20
839.2085180404581
 30
0.0
 10
1203.382957774512
 20
839.1907241645928
 30
0.0
 10
1203.897530942648
 20
839.1789967264879
 30
0.0
 10
1204.466156115357
 20
839.17215434003
 30
0.0
 10
1205.092580900844
 20
839.1690125109881
 30
0.0
 10
1205.541253536413
 20
839.1686228132867
 30
0.0
 10
1205.815229864853
 20
839.1686271586833
 30
0.0
 10
1205.915680407036
 20
839.1686264761961
 30
0.0
 10
1206.081184631903
 20
839.1686268590279
 30
0.0
 10
1206.309829197712
 20
839.1686266929105
 30
0.0
 10
1206.599700759899
 20
839.1686267563962
 30
0.0
 10
1206.948885975193
 20
839.1686267339094
 30
0.0
 10
1207.355471499809
 20
839.1686267414808
 30
0.0
 10
1207.817543990152
 20
839.1686267390219
 30
0.0
 10
1208.333190102557
 20
839.1686267397992
 30
0.0
 10
1208.900496493389
 20
839.1686267395586
 30
0.0
 10
1209.517549818997
 20
839.1686267396322
 30
0.0
 10
1210.182436735738
 20
839.1686267396099
 30
0.0
 10
1210.893243899965
 20
839.168626739616
 30
0.0
 10
1211.648057968035
 20
839.1686267396149
 30
0.0
 10
1212.444965596301
 20
839.1686267396146
 30
0.0
 10
1213.282053441119
 20
839.1686267396149
 30
0.0
 10
1214.157408158842
 20
839.1686267396145
 30
0.0
 10
1215.069116405826
 20
839.1686267396151
 30
0.0
 10
1216.015264838425
 20
839.1686267396144
 30
0.0
 10
1216.993940112995
 20
839.1686267396151
 30
0.0
 10
1218.003228885888
 20
839.1686267396146
 30
0.0
 10
1219.041217813463
 20
839.1686267396151
 30
0.0
 10
1220.10599355207
 20
839.1686267396149
 30
0.0
 10
1221.195642758067
 20
839.1686267396151
 30
0.0
 10
1222.308252087807
 20
839.1686267396148
 30
0.0
 10
1223.441908197645
 20
839.1686267396146
 30
0.0
 10
1224.594697743937
 20
839.1686267396151
 30
0.0
 10
1225.764707383036
 20
839.1686267396149
 30
0.0
 10
1226.950023771297
 20
839.1686267396149
 30
0.0
 10
1228.148733565076
 20
839.1686267396151
 30
0.0
 10
1229.358923420726
 20
839.1686267396146
 30
0.0
 10
1230.578679994603
 20
839.1686267396149
 30
0.0
 10
1231.806089943061
 20
839.1686267396149
 30
0.0
 10
1233.039239922455
 20
839.168626739615
 30
0.0
 10
1234.276216589139
 20
839.1686267396146
 30
0.0
 10
1235.515106599469
 20
839.1686267396149
 30
0.0
 10
1236.753996609798
 20
839.1686267396144
 30
0.0
 10
1237.990973276483
 20
839.1686267396151
 30
0.0
 10
1239.224123255877
 20
839.1686267396146
 30
0.0
 10
1240.451533204335
 20
839.1686267396149
 30
0.0
 10
1241.671289778211
 20
839.1686267396149
 30
0.0
 10
1242.881479633862
 20
839.1686267396149
 30
0.0
 10
1244.080189427641
 20
839.1686267396149
 30
0.0
 10
1245.265505815902
 20
839.168626739615
 30
0.0
 10
1246.435515455001
 20
839.1686267396149
 30
0.0
 10
1247.588305001293
 20
839.1686267396145
 30
0.0
 10
1248.721961111131
 20
839.1686267396149
 30
0.0
 10
1249.834570440871
 20
839.1686267396148
 30
0.0
 10
1250.924219646868
 20
839.1686267396146
 30
0.0
 10
1251.988995385476
 20
839.1686267396153
 30
0.0
 10
1253.026984313048
 20
839.1686267396136
 30
0.0
 10
1254.036273085947
 20
839.1686267396192
 30
0.0
 10
1255.0149483605
 20
839.1686267395995
 30
0.0
 10
1255.961096793157
 20
839.1686267396696
 30
0.0
 10
1256.87280503994
 20
839.1686267394226
 30
0.0
 10
1257.748159758367
 20
839.1686267402886
 30
0.0
 10
1258.585247600729
 20
839.1686267372666
 30
0.0
 10
1259.382155237504
 20
839.1686267477418
 30
0.0
 10
1260.136969276311
 20
839.1686267117127
 30
0.0
 10
1260.847776540307
 20
839.1686268345528
 30
0.0
 10
1261.512663120305
 20
839.1686264199326
 30
0.0
 10
1262.129717569161
 20
839.1686278029524
 30
0.0
 10
1262.697020265677
 20
839.1686232542593
 30
0.0
 10
1263.212678322215
 20
839.1686379606922
 30
0.0
 10
1263.674713009899
 20
839.1685914154691
 30
0.0
 10
1264.08141495764
 20
839.1687347635962
 30
0.0
 10
1264.430254391683
 20
839.1683090140299
 30
0.0
 10
1264.721102176002
 20
839.1695110056046
 30
0.0
 10
1264.947192351621
 20
839.166365865389
 30
0.0
 10
1265.118583387422
 20
839.1736141103445
 30
0.0
 10
1265.208539317711
 20
839.1606924251445
 30
0.0
 10
1265.278581813356
 20
839.1776015758604
 30
0.0
 10
1265.276573499616
 20
839.1064611603526
 30
0.0
 10
1265.30697977628
 20
839.0224634910924
 30
0.0
 10
1265.334497233449
 20
838.8570653428932
 30
0.0
 10
1265.38258611749
 20
838.6422663233168
 30
0.0
 10
1265.439229310454
 20
838.3663838749058
 30
0.0
 10
1265.508537517452
 20
838.0375931224738
 30
0.0
 10
1265.588302426368
 20
837.6562887832785
 30
0.0
 10
1265.678584590734
 20
837.2256591576306
 30
0.0
 10
1265.778675261674
 20
836.7479453279362
 30
0.0
 10
1265.888116188861
 20
836.2256968075978
 30
0.0
 10
1266.0063699806
 20
835.6613656657389
 30
0.0
 10
1266.132923669595
 20
835.0574340444734
 30
0.0
 10
1266.267256890978
 20
834.4163749775282
 30
0.0
 10
1266.408851486117
 20
833.7406642150855
 30
0.0
 10
1266.557188646866
 20
833.0327767076132
 30
0.0
 10
1266.711749754189
 20
832.2951876384168
 30
0.0
 10
1266.872016134519
 20
831.5303721236621
 30
0.0
 10
1267.037469129878
 20
830.7408052987089
 30
0.0
 10
1267.207590077866
 20
829.9289622934734
 30
0.0
 10
1267.381860317329
 20
829.0973182394041
 30
0.0
 10
1267.559761186764
 20
828.2483482675214
 30
0.0
 10
1267.740774024765
 20
827.3845275089642
 30
0.0
 10
1267.9243801699
 20
826.5083310948382
 30
0.0
 10
1268.110060960743
 20
825.6222341562599
 30
0.0
 10
1268.297297735866
 20
824.7287118243409
 30
0.0
 10
1268.485571833844
 20
823.830239230196
 30
0.0
 10
1268.674364593248
 20
822.9292915049367
 30
0.0
 10
1268.863157352652
 20
822.0283437796783
 30
0.0
 10
1269.05143145063
 20
821.1298711855328
 30
0.0
 10
1269.238668225753
 20
820.2363488536143
 30
0.0
 10
1269.424349016596
 20
819.3502519150352
 30
0.0
 10
1269.607955161731
 20
818.4740555009096
 30
0.0
 10
1269.788967999732
 20
817.6102347423525
 30
0.0
 10
1269.966868869167
 20
816.7612647704696
 30
0.0
 10
1270.14113910863
 20
815.9296207164009
 30
0.0
 10
1270.311260056619
 20
815.1177777111644
 30
0.0
 10
1270.476713051979
 20
814.3282108862139
 30
0.0
 10
1270.636979432303
 20
813.5633953714522
 30
0.0
 10
1270.791540539645
 20
812.8258063022779
 30
0.0
 10
1270.939877700331
 20
812.1179187947284
 30
0.0
 10
1271.081472295687
 20
811.4422080325538
 30
0.0
 10
1271.215805516319
 20
810.801148964683
 30
0.0
 10
1271.342359207878
 20
810.1972173465772
 30
0.0
 10
1271.46061299097
 20
809.6328861940697
 30
0.0
 10
1271.570053946879
 20
809.1106377090953
 30
0.0
 10
1271.670144524094
 20
808.632923764
 30
0.0
 10
1271.760426987747
 20
808.2022945068554
 30
0.0
 10
1271.840190967038
 20
807.8209890230422
 30
0.0
 10
1271.909501957659
 20
807.4922016979981
 30
0.0
 10
1271.966137230529
 20
807.2163094978229
 30
0.0
 10
1272.014246990884
 20
807.001536182597
 30
0.0
 10
1272.041716010055
 20
806.8360783942105
 30
0.0
 10
1272.072209134733
 20
806.7521876581847
 30
0.0
 10
1272.070093288855
 20
806.6811476998194
 30
0.0
 10
1272.138957992444
 20
806.697666480453
 30
0.0
 10
1272.227057198924
 20
806.6851320840761
 30
0.0
 10
1272.394158127531
 20
806.6921314374129
 30
0.0
 10
1272.613875273545
 20
806.6891104284957
 30
0.0
 10
1272.895350228823
 20
806.6902583441427
 30
0.0
 10
1273.231554067385
 20
806.6898542201669
 30
0.0
 10
1273.621802804884
 20
806.6899894198429
 30
0.0
 10
1274.063130669048
 20
806.6899458125993
 30
0.0
 10
1274.553346882844
 20
806.6899594951719
 30
0.0
 10
1275.090007864473
 20
806.6899552937286
 30
0.0
 10
1275.670750052959
 20
806.6899565615622
 30
0.0
 10
1276.293185142511
 20
806.6899561844488
 30
0.0
 10
1276.954932337554
 20
806.689956295266
 30
0.0
 10
1277.653608597801
 20
806.6899562630392
 30
0.0
 10
1278.386831545313
 20
806.6899562723265
 30
0.0
 10
1279.152218608844
 20
806.6899562696715
 30
0.0
 10
1279.94738727303
 20
806.6899562704251
 30
0.0
 10
1280.769955006486
 20
806.6899562702124
 30
0.0
 10
1281.617539282388
 20
806.6899562702721
 30
0.0
 10
1282.487757572623
 20
806.6899562702554
 30
0.0
 10
1283.378227349438
 20
806.68995627026
 30
0.0
 10
1284.286566084979
 20
806.6899562702586
 30
0.0
 10
1285.210391251423
 20
806.6899562702592
 30
0.0
 10
1286.147320320937
 20
806.6899562702588
 30
0.0
 10
1287.09497076569
 20
806.689956270259
 30
0.0
 10
1288.050960057852
 20
806.6899562702591
 30
0.0
 10
1289.012905669591
 20
806.6899562702588
 30
0.0
 10
1289.978425073076
 20
806.6899562702592
 30
0.0
 10
1290.945135740476
 20
806.6899562702589
 30
0.0
 10
1291.910655143962
 20
806.689956270259
 30
0.0
 10
1292.8726007557
 20
806.6899562702591
 30
0.0
 10
1293.828590047862
 20
806.6899562702591
 30
0.0
 10
1294.776240492615
 20
806.6899562702589
 30
0.0
 10
1295.713169562129
 20
806.6899562702591
 30
0.0
 10
1296.636994728573
 20
806.689956270259
 30
0.0
 10
1297.545333464116
 20
806.6899562702592
 30
0.0
 10
1298.435803240926
 20
806.689956270259
 30
0.0
 10
1299.306021531174
 20
806.6899562702591
 30
0.0
 10
1300.153605807028
 20
806.689956270259
 30
0.0
 10
1300.976173540657
 20
806.689956270259
 30
0.0
 10
1301.771342204231
 20
806.6899562702589
 30
0.0
 10
1302.536729269918
 20
806.6899562702591
 30
0.0
 10
1303.269952209887
 20
806.689956270259
 30
0.0
 10
1303.968628496308
 20
806.6899562702591
 30
0.0
 10
1304.630375601349
 20
806.6899562702589
 30
0.0
 10
1305.25281099718
 20
806.6899562702594
 30
0.0
 10
1305.83355215597
 20
806.6899562702591
 30
0.0
 10
1306.370216549887
 20
806.689956270259
 30
0.0
 10
1306.860421651101
 20
806.6899562702592
 30
0.0
 10
1307.301784931782
 20
806.6899562702589
 30
0.0
 10
1307.691923864097
 20
806.689956270259
 30
0.0
 10
1308.028455920216
 20
806.689956270259
 30
0.0
 10
1308.308998572308
 20
806.689956270259
 30
0.0
 10
1308.531169292543
 20
806.6899562702591
 30
0.0
 10
1308.692585553088
 20
806.689956270259
 30
0.0
 10
1308.790864826114
 20
806.6899562702589
 30
0.0
 10
1308.846253357019
 20
806.6899562702591
 30
0.0
 10
1308.901626412533
 20
806.6899562702588
 30
0.0
 10
1308.999859631542
 20
806.6899562702591
 30
0.0
 10
1309.161200251853
 20
806.689956270259
 30
0.0
 10
1309.383266862097
 20
806.6899562702591
 30
0.0
 10
1309.663678050903
 20
806.689956270259
 30
0.0
 10
1310.000052406902
 20
806.6899562702592
 30
0.0
 10
1310.390008518724
 20
806.6899562702588
 30
0.0
 10
1310.831164974999
 20
806.6899562702592
 30
0.0
 10
1311.321140364357
 20
806.6899562702589
 30
0.0
 10
1311.857553275429
 20
806.6899562702594
 30
0.0
 10
1312.438022296843
 20
806.689956270259
 30
0.0
 10
1313.060166017231
 20
806.689956270259
 30
0.0
 10
1313.721603025222
 20
806.6899562702588
 30
0.0
 10
1314.419951909447
 20
806.6899562702591
 30
0.0
 10
1315.152831258534
 20
806.6899562702588
 30
0.0
 10
1315.917859661117
 20
806.6899562702592
 30
0.0
 10
1316.712655705823
 20
806.6899562702589
 30
0.0
 10
1317.534837981282
 20
806.6899562702592
 30
0.0
 10
1318.382025076126
 20
806.6899562702592
 30
0.0
 10
1319.251835578984
 20
806.6899562702589
 30
0.0
 10
1320.141888078486
 20
806.6899562702588
 30
0.0
 10
1321.049801163263
 20
806.6899562702592
 30
0.0
 10
1321.973193421943
 20
806.6899562702588
 30
0.0
 10
1322.909683443159
 20
806.6899562702589
 30
0.0
 10
1323.856889815538
 20
806.6899562702588
 30
0.0
 10
1324.812431127713
 20
806.6899562702592
 30
0.0
 10
1325.773925968312
 20
806.689956270259
 30
0.0
 10
1326.738992925966
 20
806.6899562702591
 30
0.0
 10
1327.705250589306
 20
806.6899562702591
 30
0.0
 10
1328.670317546959
 20
806.6899562702589
 30
0.0
 10
1329.631812387558
 20
806.689956270259
 30
0.0
 10
1330.587353699733
 20
806.6899562702592
 30
0.0
 10
1331.534560072113
 20
806.6899562702588
 30
0.0
 10
1332.471050093328
 20
806.689956270259
 30
0.0
 10
1333.394442352009
 20
806.6899562702589
 30
0.0
 10
1334.302355436784
 20
806.6899562702599
 30
0.0
 10
1335.19240793629
 20
806.6899562702554
 30
0.0
 10
1336.062218439135
 20
806.6899562702719
 30
0.0
 10
1336.909405534027
 20
806.6899562702124
 30
0.0
 10
1337.731587809314
 20
806.6899562704249
 30
0.0
 10
1338.526383854631
 20
806.6899562696716
 30
0.0
 10
1339.291412255061
 20
806.6899562723248
 30
0.0
 10
1340.024291611679
 20
806.689956263046
 30
0.0
 10
1340.722640469775
 20
806.6899562952422
 30
0.0
 10
1341.384077567614
 20
806.6899561845298
 30
0.0
 10
1342.006220982248
 20
806.6899565612874
 30
0.0
 10
1342.586691031588
 20
806.6899552946495
 30
0.0
 10
1343.123100536243
 20
806.6899594921296
 30
0.0
 10
1343.613087019056
 20
806.6899458224657
 30
0.0
 10
1344.054208119774
 20
806.6899893885679
 30
0.0
 10
1344.444273847784
 20
806.6898543164464
 30
0.0
 10
1344.780320551152
 20
806.6902580591492
 30
0.0
 10
1345.061662438467
 20
806.6891112265099
 30
0.0
 10
1345.281279697572
 20
806.6921293852396
 30
0.0
 10
1345.44829520152
 20
806.6851366354806
 30
0.0
 10
1345.536365875866
 20
806.6976592062135
 30
0.0
 10
1345.605190277235
 20
806.6811539064217
 30
0.0
 10
1345.60312426729
 20
806.7521900975407
 30
0.0
 10
1345.633689431812
 20
806.8360768698294
 30
0.0
 10
1345.661287168339
 20
807.0015368689227
 30
0.0
 10
1345.709569105827
 20
807.216309231355
 30
0.0
 10
1345.766423439752
 20
807.4922017930028
 30
0.0
 10
1345.835996234188
 20
807.8209889910029
 30
0.0
 10
1345.916063583041
 20
808.2022945172436
 30
0.0
 10
1346.006688740702
 20
808.6329237607292
 30
0.0
 10
1346.107159455939
 20
809.1106377101019
 30
0.0
 10
1346.217015995943
 20
809.6328861937654
 30
0.0
 10
1346.335718848391
 20
810.1972173466679
 30
0.0
 10
1346.462753122296
 20
810.8011489646561
 30
0.0
 10
1346.597596469462
 20
811.4422080325619
 30
0.0
 10
1346.739728765703
 20
812.1179187947263
 30
0.0
 10
1346.888629232094
 20
812.8258063022781
 30
0.0
 10
1347.043777280341
 20
813.5633953714522
 30
0.0
 10
1347.204652267175
 20
814.3282108862138
 30
0.0
 10
1347.370733565048
 20
815.1177777111643
 30
0.0
 10
1347.541500541953
 20
815.9296207164009
 30
0.0
 10
1347.716432567136
 20
816.7612647704694
 30
0.0
 10
1347.895009009492
 20
817.6102347423524
 30
0.0
 10
1348.076709238019
 20
818.4740555009099
 30
0.0
 10
1348.261012621678
 20
819.3502519150353
 30
0.0
 10
1348.447398529449
 20
820.2363488536138
 30
0.0
 10
1348.635346330301
 20
821.1298711855328
 30
0.0
 10
1348.824335393207
 20
822.0283437796782
 30
0.0
 10
1349.013845087141
 20
822.9292915049368
 30
0.0
 10
1349.203354781074
 20
823.8302392301957
 30
0.0
 10
1349.39234384398
 20
824.7287118243406
 30
0.0
 10
1349.580291644833
 20
825.62223415626
 30
0.0
 10
1349.766677552602
 20
826.5083310948382
 30
0.0
 10
1349.950980936263
 20
827.3845275089639
 30
0.0
 10
1350.132681164789
 20
828.2483482675215
 30
0.0
 10
1350.311257607145
 20
829.0973182394043
 30
0.0
 10
1350.486189632328
 20
829.9289622934732
 30
0.0
 10
1350.656956609233
 20
830.740805298709
 30
0.0
 10
1350.823037907105
 20
831.5303721236617
 30
0.0
 10
1350.983912893945
 20
832.2951876384168
 30
0.0
 10
1351.139060942173
 20
833.032776707613
 30
0.0
 10
1351.287961408629
 20
833.740664215086
 30
0.0
 10
1351.430093704645
 20
834.4163749775264
 30
0.0
 10
1351.564937052584
 20
835.0574340444799
 30
0.0
 10
1351.691971323853
 20
835.661365665716
 30
0.0
 10
1351.810674185182
 20
836.2256968076754
 30
0.0
 10
1351.920530695695
 20
836.7479453276802
 30
0.0
 10
1352.021001507171
 20
837.2256591584628
 30
0.0
 10
1352.111626357514
 20
837.6562887806349
 30
0.0
 10
1352.191694660937
 20
838.0375931306276
 30
0.0
 10
1352.261264597054
 20
838.3663838507275
 30
0.0
 10
1352.318127063601
 20
838.642266391132
 30
0.0
 10
1352.36638756458
 20
838.8570651682255
 30
0.0
 10
1352.39403503889
 20
839.0224638790415
 30
0.0
 10
1352.424511024923
 20
839.1064605395455
 30
0.0
 10
1352.422555596964
 20
839.1775999662758
 30
0.0
 10
1352.492586351903
 20
839.1606943254916
 30
0.0
 10
1352.582552963586
 20
839.1736129158197
 30
0.0
 10
1352.753938007803
 20
839.1663664068908
 30
0.0
 10
1352.980030783275
 20
839.1695107938142
 30
0.0
 10
1353.270877573997
 20
839.1683090901286
 30
0.0
 10
1353.619717359976
 20
839.1687347377238
 30
0.0
 10
1354.026419189221
 20
839.1685914239291
 30
0.0
 10
1354.488453915381
 20
839.1686379580051
 30
0.0
 10
1355.004111959762
 20
839.168623255094
 30
0.0
 10
1355.571414660039
 20
839.1686278026976
 30
0.0
 10
1356.188469107751
 20
839.1686264200091
 30
0.0
 10
1356.853355688093
 20
839.1686268345302
 30
0.0
 10
1357.564162951986
 20
839.1686267117191
 30
0.0
 10
1358.318976990823
 20
839.1686267477403
 30
0.0
 10
1359.115884627589
 20
839.1686267372663
 30
0.0
 10
1359.952972469954
 20
839.1686267402888
 30
0.0
 10
1360.82832718838
 20
839.1686267394225
 30
0.0
 10
1361.740035435164
 20
839.1686267396696
 30
0.0
 10
1362.68618386782
 20
839.1686267395992
 30
0.0
 10
1363.664859142373
 20
839.1686267396193
 30
0.0
 10
1364.674147915272
 20
839.1686267396135
 30
0.0
 10
1365.712136842844
 20
839.1686267396152
 30
0.0
 10
1366.776912581453
 20
839.1686267396149
 30
0.0
 10
1367.866561787449
 20
839.168626739615
 30
0.0
 10
1368.97917111719
 20
839.168626739615
 30
0.0
 10
1370.112827227028
 20
839.1686267396144
 30
0.0
 10
1371.26561677332
 20
839.1686267396154
 30
0.0
 10
1372.435626412418
 20
839.1686267396148
 30
0.0
 10
1373.62094280068
 20
839.1686267396151
 30
0.0
 10
1374.819652594459
 20
839.1686267396148
 30
0.0
 10
1376.029842450109
 20
839.1686267396151
 30
0.0
 10
1377.249599023986
 20
839.1686267396146
 30
0.0
 10
1378.477008972444
 20
839.1686267396152
 30
0.0
 10
1379.710158951838
 20
839.1686267396149
 30
0.0
 10
1380.947135618522
 20
839.1686267396149
 30
0.0
 10
1382.186025628852
 20
839.168626739615
 30
0.0
 10
1383.424915639182
 20
839.1686267396146
 30
0.0
 10
1384.661892305867
 20
839.1686267396151
 30
0.0
 10
1385.89504228526
 20
839.1686267396149
 30
0.0
 10
1387.122452233718
 20
839.1686267396148
 30
0.0
 10
1388.342208807595
 20
839.1686267396151
 30
0.0
 10
1389.552398663246
 20
839.1686267396149
 30
0.0
 10
1390.751108457024
 20
839.1686267396146
 30
0.0
 10
1391.936424845286
 20
839.1686267396149
 30
0.0
 10
1393.106434484384
 20
839.1686267396148
 30
0.0
 10
1394.259224030676
 20
839.1686267396149
 30
0.0
 10
1395.392880140515
 20
839.1686267396146
 30
0.0
 10
1396.505489470254
 20
839.1686267396149
 30
0.0
 10
1397.595138676252
 20
839.1686267396149
 30
0.0
 10
1398.659914414859
 20
839.168626739615
 30
0.0
 10
1399.697903342433
 20
839.1686267396149
 30
0.0
 10
1400.707192115327
 20
839.1686267396148
 30
0.0
 10
1401.685867389897
 20
839.1686267396153
 30
0.0
 10
1402.632015822495
 20
839.1686267396144
 30
0.0
 10
1403.54372406948
 20
839.1686267396151
 30
0.0
 10
1404.419078787203
 20
839.168626739615
 30
0.0
 10
1405.256166632021
 20
839.168626739615
 30
0.0
 10
1406.053074260287
 20
839.1686267396144
 30
0.0
 10
1406.807888328357
 20
839.1686267396163
 30
0.0
 10
1407.518695492584
 20
839.1686267396099
 30
0.0
 10
1408.183582409325
 20
839.1686267396318
 30
0.0
 10
1408.800635734933
 20
839.1686267395583
 30
0.0
 10
1409.367942125764
 20
839.1686267398
 30
0.0
 10
1409.883588238171
 20
839.1686267390182
 30
0.0
 10
1410.345660728513
 20
839.1686267414932
 30
0.0
 10
1410.752246253129
 20
839.1686267338703
 30
0.0
 10
1411.101431468423
 20
839.1686267565108
 30
0.0
 10
1411.39130303061
 20
839.1686266925912
 30
0.0
 10
1411.619947596421
 20
839.1686268598451
 30
0.0
 10
1411.785451821283
 20
839.1686264743938
 30
0.0
 10
1411.885902363474
 20
839.1686271615506
 30
0.0
 10
1412.159115268548
 20
839.1686227986111
 30
0.0
 10
1412.606368977432
 20
839.1690126568415
 30
0.0
 10
1413.23081795387
 20
839.1721548170559
 30
0.0
 10
1413.79776317646
 20
839.178997682291
 30
0.0
 10
1414.310924358046
 20
839.1907257797882
 30
0.0
 10
1414.774027489313
 20
839.2085204978582
 30
0.0
 10
1415.190806592553
 20
839.2335710548222
 30
0.0
 10
1415.565004933801
 20
839.2670782958242
 30
0.0
 10
1415.900373739143
 20
839.3102638853848
 30
0.0
 10
1416.20066467259
 20
839.364382096082
 30
0.0
 10
1416.469610407768
 20
839.4307309745615
 30
0.0
 10
1416.710889626966
 20
839.5106507555174
 30
0.0
 10
1416.928086906516
 20
839.6054889886977
 30
0.0
 10
1417.124685585701
 20
839.7165226835213
 30
0.0
 10
1417.304137424721
 20
839.8448788530686
 30
0.0
 10
1417.469984119299
 20
839.991537017931
 30
0.0
 10
1417.625929410496
 20
840.1574308026883
 30
0.0
 10
1417.775800468653
 20
840.3435604836537
 30
0.0
 10
1417.923478110332
 20
840.5510216361737
 30
0.0
 10
1418.072772876751
 20
840.7810166438765
 30
0.0
 10
1418.227664331377
 20
841.0346621467559
 30
0.0
 10
1418.371115351085
 20
841.2793386424521
 30
0.0
 10
1418.502011086081
 20
841.5016214473064
 30
0.0
 10
1418.614423227774
 20
841.6908607371729
 30
0.0
 10
1418.723484219151
 20
841.8700578055791
 30
0.0
 10
1418.831632303995
 20
842.0410944530173
 30
0.0
 10
1418.941355533839
 20
842.2058179552915
 30
0.0
 10
1419.05512520462
 20
842.3660764113267
 30
0.0
 10
1419.175405106869
 20
842.5237114137185
 30
0.0
 10
1419.304643778042
 20
842.6805648502518
 30
0.0
 10
1419.445275943965
 20
842.8384836530232
 30
0.0
 10
1419.599726597844
 20
842.999323712075
 30
0.0
 10
1419.770417150262
 20
843.1649504427271
 30
0.0
 10
1419.95977061639
 20
843.3372366651297
 30
0.0
 10
1420.170214601449
 20
843.518059267577
 30
0.0
 10
1420.404182109604
 20
843.7092961353587
 30
0.0
 10
1420.66411098146
 20
843.9128240620171
 30
0.0
 10
1420.952442775716
 20
844.130517699424
 30
0.0
 10
1421.271621624893
 20
844.3642492744956
 30
0.0
 10
1421.62409330061
 20
844.6158887503228
 30
0.0
 10
1422.012304539116
 20
844.8873041834657
 30
0.0
 10
1422.43870259254
 20
845.180362126231
 30
0.0
 10
1422.905734950177
 20
845.4969279942711
 30
0.0
 10
1423.41584916784
 20
845.8388663827543
 30
0.0
 10
1423.971492799259
 20
846.2080412727078
 30
0.0
 10
1424.57511325249
 20
846.6063163633132
 30
0.0
 10
1425.229158179155
 20
847.0355545760868
 30
0.0
 10
1425.936073751427
 20
847.4976207974818
 30
0.0
 10
1426.69831185583
 20
847.9943708729713
 30
0.0
 10
1427.518300095943
 20
848.5276978625302
 30
0.0
 10
1428.398566612451
 20
849.0993398560471
 30
0.0
 10
1429.341222430107
 20
849.7116772222692
 30
0.0
 10
1430.98057890151
 20
850.7723620546063
 30
0.0
 10
1433.273803814837
 20
852.2985560460643
 30
0.0
 10
1436.177537413664
 20
854.3042328217443
 30
0.0
 10
1439.041108364171
 20
856.3584974743332
 30
0.0
 10
1441.864262577962
 20
858.4603408593932
 30
0.0
 10
1444.64639715977
 20
860.6093189889763
 30
0.0
 10
1447.387002486956
 20
862.804836759515
 30
0.0
 10
1450.085543987171
 20
865.0463394975537
 30
0.0
 10
1452.74149375694
 20
867.3332617286764
 30
0.0
 10
1455.354322102718
 20
869.6650408812571
 30
0.0
 10
1457.92349980293
 20
872.0411136197034
 30
0.0
 10
1460.448497501728
 20
874.4609168250072
 30
0.0
 10
1462.92878587027
 20
876.9238873316988
 30
0.0
 10
1465.36383556265
 20
879.4294619975432
 30
0.0
 10
1467.753117226829
 20
881.977077684128
 30
0.0
 10
1470.096101500885
 20
884.566171261231
 30
0.0
 10
1472.392259013257
 20
887.1961796047829
 30
0.0
 10
1474.641060381961
 20
889.8665395964798
 30
0.0
 10
1476.841976214151
 20
892.5766881229074
 30
0.0
 10
1478.994477105636
 20
895.3260620747512
 30
0.0
 10
1481.098033640481
 20
898.1140983459313
 30
0.0
 10
1483.152116390655
 20
900.9402338327245
 30
0.0
 10
1485.156195915729
 20
903.8039054328425
 30
0.0
 10
1487.109742762634
 20
906.7045500444947
 30
0.0
 10
1489.012227465497
 20
909.6416045654166
 30
0.0
 10
1490.86312054551
 20
912.6145058918888
 30
0.0
 10
1492.661892510899
 20
915.6226909177285
 30
0.0
 10
1494.408013856929
 20
918.6655965332741
 30
0.0
 10
1496.100955066005
 20
921.7426596243591
 30
0.0
 10
1497.740186607831
 20
924.8533170712846
 30
0.0
 10
1499.325178939646
 20
927.9970057477854
 30
0.0
 10
1500.855402506534
 20
931.1731625200071
 30
0.0
 10
1502.330327741813
 20
934.3812242454916
 30
0.0
 10
1503.749425067496
 20
937.6206277721798
 30
0.0
 10
1505.112164894833
 20
940.8908099374328
 30
0.0
 10
1506.418017624929
 20
944.1912075670851
 30
0.0
 10
1507.66645364942
 20
947.5212574745297
 30
0.0
 10
1508.856943351323
 20
950.8803964598375
 30
0.0
 10
1509.988957105544
 20
954.26806130895
 30
0.0
 10
1511.061965281048
 20
957.6836887928275
 30
0.0
 10
1512.075438237127
 20
961.126715667016
 30
0.0
 10
1513.028846342089
 20
964.5965786699348
 30
0.0
 10
1513.921659908235
 20
968.092714526272
 30
0.0
 10
1514.753349440847
 20
971.6145599315925
 30
0.0
 10
1515.523384710447
 20
975.1615516077297
 30
0.0
 10
1516.231238236768
 20
978.7331260932127
 30
0.0
 10
1516.876372230242
 20
982.328720527663
 30
0.0
 10
1517.45828757637
 20
985.9477697087668
 30
0.0
 10
1517.976340078977
 20
989.5897171323375
 30
0.0
 10
1518.430429969434
 20
993.2539735670947
 30
0.0
 10
1518.818414141398
 20
996.9400725265255
 30
0.0
 10
1519.145820306223
 20
1000.647086647786
 30
0.0
 10
1519.307844676426
 20
1003.127637143015
 30
0.0
 10
1519.38902453998
 20
1004.370479503635
 30
0.0
 11
1519.38902453998
 21
1004.370479503635
 31
0.0
 11
1519.38902453998
 21
1004.397281825272
 31
0.0
 11
1519.38902453998
 21
1004.447057565455
 31
0.0
 11
1519.38902453998
 21
1004.473859887092
 31
0.0
 11
1519.354970315134
 21
1005.034448190807
 31
0.0
 11
1519.253191170606
 21
1005.592605398083
 31
0.0
 11
1519.084262401408
 21
1006.148247413093
 31
0.0
 11
1518.848759302553
 21
1006.701290140014
 31
0.0
 11
1518.547257169053
 21
1007.251649483019
 31
0.0
 11
1518.180331295921
 21
1007.799241346283
 31
0.0
 11
1517.74855697817
 21
1008.343981633983
 31
0.0
 11
1517.252509510813
 21
1008.885786250291
 31
0.0
 11
1516.692764188862
 21
1009.424571099383
 31
0.0
 11
1516.069896307331
 21
1009.960252085435
 31
0.0
 11
1515.384481161231
 21
1010.49274511262
 31
0.0
 11
1514.637094045575
 21
1011.021966085114
 31
0.0
 11
1513.828310255377
 21
1011.547830907091
 31
0.0
 11
1512.958705085649
 21
1012.070255482727
 31
0.0
 11
1512.028853831403
 21
1012.589155716196
 31
0.0
 11
1511.039331787653
 21
1013.104447511672
 31
0.0
 11
1509.990714249411
 21
1013.616046773332
 31
0.0
 11
1508.883576511689
 21
1014.123869405349
 31
0.0
 11
1507.718493869501
 21
1014.627831311899
 31
0.0
 11
1506.496041617859
 21
1015.127848397156
 31
0.0
 11
1505.216795051776
 21
1015.623836565296
 31
0.0
 11
1503.881329466265
 21
1016.115711720492
 31
0.0
 11
1502.490220156338
 21
1016.603389766921
 31
0.0
 11
1501.044042417008
 21
1017.086786608756
 31
0.0
 11
1499.543371543288
 21
1017.565818150173
 31
0.0
 11
1497.988782830191
 21
1018.040400295346
 31
0.0
 11
1496.380851572728
 21
1018.510448948451
 31
0.0
 11
1494.720153065914
 21
1018.975880013661
 31
0.0
 11
1493.00726260476
 21
1019.436609395153
 31
0.0
 11
1491.242755484279
 21
1019.8925529971
 31
0.0
 11
1489.427206999485
 21
1020.343626723678
 31
0.0
 11
1487.56119244539
 21
1020.789746479062
 31
0.0
 11
1485.645287117005
 21
1021.230828167426
 31
0.0
 11
1483.680066309345
 21
1021.666787692945
 31
0.0
 11
1481.666105317423
 21
1022.097540959794
 31
0.0
 11
1479.603979436249
 21
1022.523003872148
 31
0.0
 11
1477.494263960839
 21
1022.943092334182
 31
0.0
 11
1475.337534186202
 21
1023.35772225007
 31
0.0
 11
1473.134365407354
 21
1023.766809523988
 31
0.0
 11
1470.885332919307
 21
1024.17027006011
 31
0.0
 11
1468.591012017072
 21
1024.568019762611
 31
0.0
 11
1466.251977995664
 21
1024.959974535666
 31
0.0
 11
1463.868806150094
 21
1025.34605028345
 31
0.0
 11
1461.442071775375
 21
1025.726162910137
 31
0.0
 11
1458.972350166521
 21
1026.100228319903
 31
0.0
 11
1456.460216618543
 21
1026.468162416922
 31
0.0
 11
1453.906246426455
 21
1026.82988110537
 31
0.0
 11
1451.311014885269
 21
1027.18530028942
 31
0.0
 11
1448.675097289998
 21
1027.534335873248
 31
0.0
 11
1445.999068935655
 21
1027.876903761029
 31
0.0
 11
1443.283505117252
 21
1028.212919856937
 31
0.0
 11
1440.528981129802
 21
1028.542300065148
 31
0.0
 11
1437.736072268318
 21
1028.864960289836
 31
0.0
 11
1434.905353827812
 21
1029.180816435176
 31
0.0
 11
1432.037401103297
 21
1029.489784405343
 31
0.0
 11
1429.132789389787
 21
1029.791780104511
 31
0.0
 11
1426.192093982293
 21
1030.086719436857
 31
0.0
 11
1423.215890175829
 21
1030.374518306553
 31
0.0
 11
1420.204753265406
 21
1030.655092617776
 31
0.0
 11
1417.159258546038
 21
1030.9283582747
 31
0.0
 11
1414.079981312738
 21
1031.1942311815
 31
0.0
 11
1410.967496860518
 21
1031.452627242351
 31
0.0
 11
1407.822380484391
 21
1031.703462361428
 31
0.0
 11
1404.64520747937
 21
1031.946652442905
 31
0.0
 11
1401.436553140467
 21
1032.182113390957
 31
0.0
 11
1398.196992762695
 21
1032.409761109759
 31
0.0
 11
1394.927101641067
 21
1032.629511503487
 31
0.0
 11
1391.627455070595
 21
1032.841280476314
 31
0.0
 11
1388.298628346292
 21
1033.044983932417
 31
0.0
 11
1384.941196763172
 21
1033.240537775968
 31
0.0
 11
1381.555735616246
 21
1033.427857911144
 31
0.0
 11
1378.142820200527
 21
1033.606860242119
 31
0.0
 11
1374.703025811029
 21
1033.777460673069
 31
0.0
 11
1371.236927742763
 21
1033.939575108167
 31
0.0
 11
1367.745101290743
 21
1034.093119451589
 31
0.0
 11
1364.228121749981
 21
1034.23800960751
 31
0.0
 11
1360.68656441549
 21
1034.374161480104
 31
0.0
 11
1357.121004582283
 21
1034.501490973546
 31
0.0
 11
1353.532017545371
 21
1034.619913992012
 31
0.0
 11
1349.92017859977
 21
1034.729346439675
 31
0.0
 11
1346.286063040489
 21
1034.829704220712
 31
0.0
 11
1342.630246162544
 21
1034.920903239296
 31
0.0
 11
1338.953303260945
 21
1035.002859399603
 31
0.0
 11
1335.255809630707
 21
1035.075488605806
 31
0.0
 11
1331.538340566841
 21
1035.138706762083
 31
0.0
 11
1327.80147136436
 21
1035.192429772606
 31
0.0
 11
1324.045777318278
 21
1035.236573541551
 31
0.0
 11
1320.271833723606
 21
1035.271053973093
 31
0.0
 11
1316.480215875358
 21
1035.295786971406
 31
0.0
 11
1312.671499068546
 21
1035.310688440666
 31
0.0
 11
1308.846258598183
 21
1035.315674285047
 31
0.0
 11
1305.021295932137
 21
1035.310688440666
 31
0.0
 11
1301.212844651376
 21
1035.295786971406
 31
0.0
 11
1297.421480256696
 21
1035.271053973093
 31
0.0
 11
1293.647778248889
 21
1035.236573541551
 31
0.0
 11
1289.892314128749
 21
1035.192429772606
 31
0.0
 11
1286.15566339707
 21
1035.138706762083
 31
0.0
 11
1282.438401554646
 21
1035.075488605806
 31
0.0
 11
1278.741104102271
 21
1035.002859399603
 31
0.0
 11
1275.064346540738
 21
1034.920903239296
 31
0.0
 11
1271.408704370839
 21
1034.829704220712
 31
0.0
 11
1267.774753093371
 21
1034.729346439675
 31
0.0
 11
1264.163068209126
 21
1034.619913992012
 31
0.0
 11
1260.574225218898
 21
1034.501490973546
 31
0.0
 11
1257.008799623479
 21
1034.374161480104
 31
0.0
 11
1253.467366923666
 21
1034.23800960751
 31
0.0
 11
1249.95050262025
 21
1034.093119451589
 31
0.0
 11
1246.458782214025
 21
1033.939575108167
 31
0.0
 11
1242.992781205786
 21
1033.777460673069
 31
0.0
 11
1239.553075096326
 21
1033.60686024212
 31
0.0
 11
1236.140239386439
 21
1033.427857911144
 31
0.0
 11
1232.754849576917
 21
1033.240537775968
 31
0.0
 11
1229.397481168556
 21
1033.044983932417
 31
0.0
 11
1226.068709662148
 21
1032.841280476314
 31
0.0
 11
1222.769110558488
 21
1032.629511503487
 31
0.0
 11
1219.499259358369
 21
1032.409761109759
 31
0.0
 11
1216.259731562585
 21
1032.182113390957
 31
0.0
 11
1213.051102671929
 21
1031.946652442905
 31
0.0
 11
1209.873948187196
 21
1031.703462361428
 31
0.0
 11
1206.728843609178
 21
1031.452627242351
 31
0.0
 11
1203.61636443867
 21
1031.1942311815
 31
0.0
 11
1200.537086176465
 21
1030.9283582747
 31
0.0
 11
1197.491584323356
 21
1030.655092617776
 31
0.0
 11
1194.480434380139
 21
1030.374518306553
 31
0.0
 11
1191.504211847606
 21
1030.086719436857
 31
0.0
 11
1188.56349222655
 21
1029.791780104511
 31
0.0
 11
1185.658851017767
 21
1029.489784405343
 31
0.0
 11
1182.790863722049
 21
1029.180816435176
 31
0.0
 11
1179.960105840189
 21
1028.864960289836
 31
0.0
 11
1177.167152872983
 21
1028.542300065148
 31
0.0
 11
1174.412580321223
 21
1028.212919856937
 31
0.0
 11
1171.696963685702
 21
1027.876903761029
 31
0.0
 11
1169.020878467216
 21
1027.534335873248
 31
0.0
 11
1166.384900166558
 21
1027.18530028942
 31
0.0
 11
1163.78960428452
 21
1026.82988110537
 31
0.0
 11
1161.235566321898
 21
1026.468162416922
 31
0.0
 11
1158.723361779484
 21
1026.100228319903
 31
0.0
 11
1156.253566158072
 21
1025.726162910137
 31
0.0
 11
1153.826754958456
 21
1025.34605028345
 31
0.0
 11
1151.44350368143
 21
1024.959974535666
 31
0.0
 11
1149.104387827787
 21
1024.568019762611
 31
0.0
 11
1146.809982898321
 21
1024.17027006011
 31
0.0
 11
1144.560864393825
 21
1023.766809523988
 31
0.0
 11
1142.357607815095
 21
1023.35772225007
 31
0.0
 11
1140.200788662922
 21
1022.943092334182
 31
0.0
 11
1138.090982438101
 21
1022.523003872148
 31
0.0
 11
1136.028764641425
 21
1022.097540959794
 31
0.0
 11
1134.014710773689
 21
1021.666787692945
 31
0.0
 11
1132.049396335685
 21
1021.230828167426
 31
0.0
 11
1130.133396828208
 21
1020.789746479062
 31
0.0
 11
1128.267287752052
 21
1020.343626723678
 31
0.0
 11
1126.451644608009
 21
1019.8925529971
 31
0.0
 11
1124.687042896873
 21
1019.436609395153
 31
0.0
 11
1122.974058119439
 21
1018.975880013661
 31
0.0
 11
1121.3132657765
 21
1018.510448948451
 31
0.0
 11
1119.70524136885
 21
1018.040400295346
 31
0.0
 11
1118.150560397281
 21
1017.565818150173
 31
0.0
 11
1116.64979836259
 21
1017.086786608756
 31
0.0
 11
1115.203530765567
 21
1016.603389766921
 31
0.0
 11
1113.812333107009
 21
1016.115711720492
 31
0.0
 11
1112.476780887707
 21
1015.623836565296
 31
0.0
 11
1111.197449608456
 21
1015.127848397156
 31
0.0
 11
1109.974914770049
 21
1014.627831311899
 31
0.0
 11
1108.809751873281
 21
1014.123869405349
 31
0.0
 11
1107.702536418944
 21
1013.616046773332
 31
0.0
 11
1106.653843907834
 21
1013.104447511672
 31
0.0
 11
1105.664249840742
 21
1012.589155716196
 31
0.0
 11
1104.734329718463
 21
1012.070255482727
 31
0.0
 11
1103.864659041791
 21
1011.547830907091
 31
0.0
 11
1103.055813311519
 21
1011.021966085114
 31
0.0
 11
1102.308368028442
 21
1010.49274511262
 31
0.0
 11
1101.622898693352
 21
1009.960252085435
 31
0.0
 11
1100.999980807043
 21
1009.424571099383
 31
0.0
 11
1100.44018987031
 21
1008.885786250291
 31
0.0
 11
1099.944101383944
 21
1008.343981633983
 31
0.0
 11
1099.512290848742
 21
1007.799241346284
 31
0.0
 11
1099.145333765496
 21
1007.251649483019
 31
0.0
 11
1098.843805635
 21
1006.701290140014
 31
0.0
 11
1098.608281958047
 21
1006.148247413093
 31
0.0
 11
1098.439338235431
 21
1005.592605398083
 31
0.0
 11
1098.337549967946
 21
1005.034448190807
 31
0.0
 11
1098.303492656386
 21
1004.473859887092
 31
0.0
 11
1098.312107688341
 21
1004.422169695363
 31
0.0
 11
1098.320722720296
 21
1004.370479503635
 31
0.0
 11
1098.312107688341
 21
1004.370479503635
 31
0.0
 11
1098.303492656386
 21
1004.370479503635
 31
0.0
 11
1098.560775382678
 21
1000.643010892693
 31
0.0
 11
1098.883957883232
 21
996.9361774791942
 31
0.0
 11
1099.272511154109
 21
993.2505424556575
 31
0.0
 11
1099.725906191369
 21
989.5866690146024
 31
0.0
 11
1100.243613991073
 21
985.9451203485482
 31
0.0
 11
1100.825105549282
 21
982.3264596500135
 31
0.0
 11
1101.469851862056
 21
978.7312501115174
 31
0.0
 11
1102.177323925457
 21
975.1600549255796
 31
0.0
 11
1102.946992735544
 21
971.6134372847187
 31
0.0
 11
1103.77832928838
 21
968.0919603814542
 31
0.0
 11
1104.670804580022
 21
964.5961874083046
 31
0.0
 11
1105.623889606535
 21
961.1266815577897
 31
0.0
 11
1106.637055363977
 21
957.6840060224283
 31
0.0
 11
1107.709772848409
 21
954.2687239947394
 31
0.0
 11
1108.841513055892
 21
950.8813986672423
 31
0.0
 11
1110.031746982487
 21
947.522593232456
 31
0.0
 11
1111.279945624255
 21
944.1928708828998
 31
0.0
 11
1112.585579977256
 21
940.8927948110928
 31
0.0
 11
1113.94812103755
 21
937.622928209554
 31
0.0
 11
1115.367039801199
 21
934.3838342708023
 31
0.0
 11
1116.841807264264
 21
931.1760761873572
 31
0.0
 11
1118.371894422804
 21
928.0002171517378
 31
0.0
 11
1119.956772272881
 21
924.856820356463
 31
0.0
 11
1121.595911810555
 21
921.746448994052
 31
0.0
 11
1123.288784031887
 21
918.6696662570239
 31
0.0
 11
1125.034859932939
 21
915.627035337898
 31
0.0
 11
1126.833610509769
 21
912.6191194291929
 31
0.0
 11
1128.68450675844
 21
909.6464817234283
 31
0.0
 11
1130.587019675012
 21
906.7096854131232
 31
0.0
 11
1132.540620255545
 21
903.8092936907966
 31
0.0
 11
1134.5447794961
 21
900.9458697489674
 31
0.0
 11
1136.598968392739
 21
898.119976780155
 31
0.0
 11
1138.702657941521
 21
895.3321779768785
 31
0.0
 11
1140.855319138507
 21
892.5830365316569
 31
0.0
 11
1143.056422979758
 21
889.8731156370095
 31
0.0
 11
1145.305440461336
 21
887.2029784854552
 31
0.0
 11
1147.601842579299
 21
884.5731882695134
 31
0.0
 11
1149.94510032971
 21
881.984308181703
 31
0.0
 11
1152.334684708629
 21
879.4369014145431
 31
0.0
 11
1154.770066712116
 21
876.9315311605528
 31
0.0
 11
1157.250717336232
 21
874.4687606122513
 31
0.0
 11
1159.776107577039
 21
872.049152962158
 31
0.0
 11
1162.345708430596
 21
869.6732714027913
 31
0.0
 11
1164.958990892964
 21
867.3416791266708
 31
0.0
 11
1167.615425960204
 21
865.0549393263158
 31
0.0
 11
1170.314484628377
 21
862.8136151942449
 31
0.0
 11
1173.055637893544
 21
860.6182699229778
 31
0.0
 11
1175.838356751765
 21
858.469466705033
 31
0.0
 11
1178.6621121991
 21
856.3677687329302
 31
0.0
 11
1181.526375231611
 21
854.313739199188
 31
0.0
 11
1184.430616845359
 21
852.3079412963259
 31
0.0
 11
1187.374308036403
 21
850.3509382168629
 31
0.0
 11
1188.380655161765
 21
849.6973195509888
 31
0.0
 11
1189.322038624661
 21
849.0858359130067
 31
0.0
 11
1190.20089102718
 21
848.5146238117311
 31
0.0
 11
1191.01964497141
 21
847.9818197559758
 31
0.0
 11
1191.780733059439
 21
847.4855602545553
 31
0.0
 11
1192.486587893354
 21
847.0239818162836
 31
0.0
 11
1193.139642075244
 21
846.5952209499747
 31
0.0
 11
1193.742328207196
 21
846.1974141644433
 31
0.0
 11
1194.297078891299
 21
845.8286979685033
 31
0.0
 11
1194.806326729641
 21
845.487208870969
 31
0.0
 11
1195.272504324309
 21
845.1710833806545
 31
0.0
 11
1195.698044277392
 21
844.8784580063741
 31
0.0
 11
1196.085379190977
 21
844.6074692569417
 31
0.0
 11
1196.436941667153
 21
844.3562536411719
 31
0.0
 11
1196.755164308008
 21
844.1229476678788
 31
0.0
 11
1197.042479715628
 21
843.9056878458763
 31
0.0
 11
1197.301320492104
 21
843.7026106839787
 31
0.0
 11
1197.534119239522
 21
843.5118526910007
 31
0.0
 11
1197.743308559971
 21
843.3315503757558
 31
0.0
 11
1197.931321055537
 21
843.1598402470585
 31
0.0
 11
1198.100589328311
 21
842.994858813723
 31
0.0
 11
1198.253545980379
 21
842.8347425845634
 31
0.0
 11
1198.392623613829
 21
842.6776280683941
 31
0.0
 11
1198.52025483075
 21
842.5216517740291
 31
0.0
 11
1198.638872233229
 21
842.3649502102828
 31
0.0
 11
1198.750908423354
 21
842.2056598859692
 31
0.0
 11
1198.858796003214
 21
842.0419173099024
 31
0.0
 11
1198.964967574897
 21
841.871858990897
 31
0.0
 11
1199.071855740489
 21
841.6936214377665
 31
0.0
 11
1199.181893102081
 21
841.505341159326
 31
0.0
 11
1199.297512261758
 21
841.305154664389
 31
0.0
 11
1199.462640684421
 21
841.027635470674
 31
0.0
 11
1199.618375457082
 21
840.7751883362666
 31
0.0
 11
1199.768450597476
 21
840.5466299849924
 31
0.0
 11
1199.916600123343
 21
840.3407771406775
 31
0.0
 11
1200.066558052418
 21
840.1564465271482
 31
0.0
 11
1200.22205840244
 21
839.9924548682308
 31
0.0
 11
1200.386835191146
 21
839.8476188877509
 31
0.0
 11
1200.564622436273
 21
839.7207553095345
 31
0.0
 11
1200.75915415556
 21
839.6106808574086
 31
0.0
 11
1200.974164366743
 21
839.5162122551984
 31
0.0
 11
1201.213387087559
 21
839.4361662267307
 31
0.0
 11
1201.480556335746
 21
839.3693594958311
 31
0.0
 11
1201.779406129042
 21
839.3146087863258
 31
0.0
 11
1202.113670485184
 21
839.2707308220412
 31
0.0
 11
1202.48708342191
 21
839.2365423268032
 31
0.0
 11
1202.903378956956
 21
839.2108600244377
 31
0.0
 11
1203.366291108061
 21
839.192500638771
 31
0.0
 11
1203.879553892961
 21
839.1802808936295
 31
0.0
 11
1204.446901329395
 21
839.1730175128387
 31
0.0
 11
1205.072067435099
 21
839.1695272202252
 31
0.0
 11
1205.758786227811
 21
839.1686267396149
 31
0.0
 11
1205.792907522819
 21
839.168626739615
 31
0.0
 11
1205.893995845412
 21
839.168626739615
 31
0.0
 11
1206.060137851946
 21
839.1686267396149
 31
0.0
 11
1206.289420198774
 21
839.168626739615
 31
0.0
 11
1206.579929542251
 21
839.1686267396149
 31
0.0
 11
1206.929752538733
 21
839.1686267396149
 31
0.0
 11
1207.336975844574
 21
839.1686267396149
 31
0.0
 11
1207.799686116128
 21
839.1686267396148
 31
0.0
 11
1208.31597000975
 21
839.168626739615
 31
0.0
 11
1208.883914181796
 21
839.1686267396148
 31
0.0
 11
1209.501605288619
 21
839.168626739615
 31
0.0
 11
1210.167129986575
 21
839.1686267396149
 31
0.0
 11
1210.878574932018
 21
839.1686267396148
 31
0.0
 11
1211.634026781303
 21
839.168626739615
 31
0.0
 11
1212.431572190784
 21
839.1686267396148
 31
0.0
 11
1213.269297816817
 21
839.1686267396149
 31
0.0
 11
1214.145290315755
 21
839.1686267396148
 31
0.0
 11
1215.057636343954
 21
839.1686267396149
 31
0.0
 11
1216.004422557769
 21
839.1686267396148
 31
0.0
 11
1216.983735613553
 21
839.1686267396149
 31
0.0
 11
1217.993662167662
 21
839.1686267396149
 31
0.0
 11
1219.032288876451
 21
839.1686267396149
 31
0.0
 11
1220.097702396274
 21
839.1686267396149
 31
0.0
 11
1221.187989383486
 21
839.168626739615
 31
0.0
 11
1222.301236494441
 21
839.1686267396149
 31
0.0
 11
1223.435530385494
 21
839.1686267396148
 31
0.0
 11
1224.588957713001
 21
839.168626739615
 31
0.0
 11
1225.759605133315
 21
839.1686267396149
 31
0.0
 11
1226.945559302792
 21
839.1686267396149
 31
0.0
 11
1228.144906877785
 21
839.168626739615
 31
0.0
 11
1229.355734514651
 21
839.1686267396149
 31
0.0
 11
1230.576128869742
 21
839.1686267396148
 31
0.0
 11
1231.804176599416
 21
839.1686267396149
 31
0.0
 11
1233.037964360025
 21
839.1686267396149
 31
0.0
 11
1234.275578807924
 21
839.1686267396148
 31
0.0
 11
1235.515106599469
 21
839.1686267396149
 31
0.0
 11
1236.754634391014
 21
839.1686267396148
 31
0.0
 11
1237.992248838913
 21
839.1686267396149
 31
0.0
 11
1239.226036599522
 21
839.1686267396149
 31
0.0
 11
1240.454084329195
 21
839.1686267396148
 31
0.0
 11
1241.674478684287
 21
839.168626739615
 31
0.0
 11
1242.885306321153
 21
839.1686267396149
 31
0.0
 11
1244.084653896146
 21
839.1686267396149
 31
0.0
 11
1245.270608065623
 21
839.1686267396149
 31
0.0
 11
1246.441255485937
 21
839.1686267396149
 31
0.0
 11
1247.594682813444
 21
839.1686267396148
 31
0.0
 11
1248.728976704497
 21
839.1686267396149
 31
0.0
 11
1249.842223815453
 21
839.1686267396149
 31
0.0
 11
1250.932510802664
 21
839.1686267396149
 31
0.0
 11
1251.997924322487
 21
839.1686267396149
 31
0.0
 11
1253.036551031276
 21
839.1686267396149
 31
0.0
 11
1254.046477585385
 21
839.1686267396149
 31
0.0
 11
1255.02579064117
 21
839.1686267396149
 31
0.0
 11
1255.972576854984
 21
839.1686267396149
 31
0.0
 11
1256.884922883183
 21
839.1686267396149
 31
0.0
 11
1257.760915382122
 21
839.1686267396149
 31
0.0
 11
1258.598641008154
 21
839.1686267396149
 31
0.0
 11
1259.396186417635
 21
839.1686267396149
 31
0.0
 11
1260.15163826692
 21
839.1686267396149
 31
0.0
 11
1260.863083212363
 21
839.1686267396149
 31
0.0
 11
1261.528607910319
 21
839.1686267396149
 31
0.0
 11
1262.146299017142
 21
839.1686267396149
 31
0.0
 11
1262.714243189188
 21
839.1686267396149
 31
0.0
 11
1263.23052708281
 21
839.1686267396149
 31
0.0
 11
1263.693237354365
 21
839.1686267396149
 31
0.0
 11
1264.100460660205
 21
839.1686267396149
 31
0.0
 11
1264.450283656687
 21
839.1686267396149
 31
0.0
 11
1264.740793000165
 21
839.168626739615
 31
0.0
 11
1264.970075346993
 21
839.1686267396149
 31
0.0
 11
1265.136217353526
 21
839.168626739615
 31
0.0
 11
1265.237305676119
 21
839.1686267396149
 31
0.0
 11
1265.271426971127
 21
839.1686267396149
 31
0.0
 11
1265.27834245682
 21
839.135624991437
 31
0.0
 11
1265.298743139613
 21
839.0382698343119
 31
0.0
 11
1265.332110358079
 21
838.8790363993533
 31
0.0
 11
1265.377925450791
 21
838.660399817674
 31
0.0
 11
1265.435669756323
 21
838.3848352203878
 31
0.0
 11
1265.504824613248
 21
838.0548177386081
 31
0.0
 11
1265.584871360138
 21
837.672822503448
 31
0.0
 11
1265.675291335567
 21
837.241324646021
 31
0.0
 11
1265.775565878108
 21
836.7627992974403
 31
0.0
 11
1265.885176326334
 21
836.2397215888195
 31
0.0
 11
1266.003604018817
 21
835.6745666512716
 31
0.0
 11
1266.130330294132
 21
835.0698096159101
 31
0.0
 11
1266.26483649085
 21
834.4279256138485
 31
0.0
 11
1266.406603947546
 21
833.7513897762001
 31
0.0
 11
1266.555114002792
 21
833.0426772340778
 31
0.0
 11
1266.70984799516
 21
832.3042631185958
 31
0.0
 11
1266.870287263226
 21
831.5386225608667
 31
0.0
 11
1267.03591314556
 21
830.7482306920042
 31
0.0
 11
1267.206206980737
 21
829.9355626431213
 31
0.0
 11
1267.38065010733
 21
829.1030935453318
 31
0.0
 11
1267.558723863911
 21
828.2532985297489
 31
0.0
 11
1267.739909589054
 21
827.3886527274862
 31
0.0
 11
1267.923688621331
 21
826.5116312696563
 31
0.0
 11
1268.109542299316
 21
825.6247092873732
 31
0.0
 11
1268.296951961582
 21
824.7303619117499
 31
0.0
 11
1268.485398946702
 21
823.8310642739002
 31
0.0
 11
1268.674364593248
 21
822.9292915049369
 31
0.0
 11
1268.863330239795
 21
822.0275187359737
 31
0.0
 11
1269.051777224914
 21
821.1282210981238
 31
0.0
 11
1269.23918688718
 21
820.2338737225007
 31
0.0
 11
1269.425040565165
 21
819.3469517402175
 31
0.0
 11
1269.608819597443
 21
818.4699302823879
 31
0.0
 11
1269.790005322585
 21
817.6052844801249
 31
0.0
 11
1269.968079079166
 21
816.7554894645421
 31
0.0
 11
1270.142522205759
 21
815.9230203667524
 31
0.0
 11
1270.312816040936
 21
815.1103523178699
 31
0.0
 11
1270.478441923271
 21
814.3199604490072
 31
0.0
 11
1270.638881191336
 21
813.5543198912783
 31
0.0
 11
1270.793615183705
 21
812.815905775796
 31
0.0
 11
1270.942125238951
 21
812.1071932336739
 31
0.0
 11
1271.083892695646
 21
811.4306573960254
 31
0.0
 11
1271.218398892364
 21
810.7887733939638
 31
0.0
 11
1271.345125167679
 21
810.1840163586022
 31
0.0
 11
1271.463552860163
 21
809.6188614210545
 31
0.0
 11
1271.573163308388
 21
809.0957837124336
 31
0.0
 11
1271.673437850929
 21
808.6172583638529
 31
0.0
 11
1271.763857826358
 21
808.1857605064258
 31
0.0
 11
1271.843904573248
 21
807.8037652712658
 31
0.0
 11
1271.913059430173
 21
807.473747789486
 31
0.0
 11
1271.970803735705
 21
807.1981831921999
 31
0.0
 11
1272.016618828417
 21
806.9795466105207
 31
0.0
 11
1272.049986046884
 21
806.8203131755621
 31
0.0
 11
1272.070386729676
 21
806.722958018437
 31
0.0
 11
1272.077302215369
 21
806.689956270259
 31
0.0
 11
1272.110856148988
 21
806.689956270259
 31
0.0
 11
1272.209929597957
 21
806.6899562702589
 31
0.0
 11
1272.372140034447
 21
806.689956270259
 31
0.0
 11
1272.595104930625
 21
806.689956270259
 31
0.0
 11
1272.876441758661
 21
806.6899562702591
 31
0.0
 11
1273.213767990724
 21
806.689956270259
 31
0.0
 11
1273.604701098982
 21
806.689956270259
 31
0.0
 11
1274.046858555606
 21
806.689956270259
 31
0.0
 11
1274.537857832764
 21
806.689956270259
 31
0.0
 11
1275.075316402625
 21
806.6899562702591
 31
0.0
 11
1275.656851737359
 21
806.6899562702591
 31
0.0
 11
1276.280081309133
 21
806.689956270259
 31
0.0
 11
1276.942622590118
 21
806.689956270259
 31
0.0
 11
1277.642093052482
 21
806.689956270259
 31
0.0
 11
1278.376110168395
 21
806.6899562702591
 31
0.0
 11
1279.142291410026
 21
806.6899562702591
 31
0.0
 11
1279.938254249543
 21
806.689956270259
 31
0.0
 11
1280.761616159116
 21
806.6899562702591
 31
0.0
 11
1281.609994610914
 21
806.6899562702591
 31
0.0
 11
1282.481007077105
 21
806.689956270259
 31
0.0
 11
1283.372271029859
 21
806.6899562702589
 31
0.0
 11
1284.281403941346
 21
806.689956270259
 31
0.0
 11
1285.206023283733
 21
806.689956270259
 31
0.0
 11
1286.143746529191
 21
806.6899562702589
 31
0.0
 11
1287.092191149888
 21
806.689956270259
 31
0.0
 11
1288.048974617993
 21
806.689956270259
 31
0.0
 11
1289.011714405675
 21
806.689956270259
 31
0.0
 11
1289.978027985104
 21
806.6899562702591
 31
0.0
 11
1290.945532828448
 21
806.689956270259
 31
0.0
 11
1291.911846407877
 21
806.689956270259
 31
0.0
 11
1292.874586195559
 21
806.6899562702591
 31
0.0
 11
1293.831369663665
 21
806.689956270259
 31
0.0
 11
1294.779814284361
 21
806.689956270259
 31
0.0
 11
1295.717537529819
 21
806.689956270259
 31
0.0
 11
1296.642156872206
 21
806.689956270259
 31
0.0
 11
1297.551289783693
 21
806.689956270259
 31
0.0
 11
1298.442553736447
 21
806.689956270259
 31
0.0
 11
1299.313566202639
 21
806.689956270259
 31
0.0
 11
1300.161944654436
 21
806.689956270259
 31
0.0
 11
1300.985306564009
 21
806.689956270259
 31
0.0
 11
1301.781269403527
 21
806.689956270259
 31
0.0
 11
1302.547450645157
 21
806.6899562702591
 31
0.0
 11
1303.28146776107
 21
806.689956270259
 31
0.0
 11
1303.980938223434
 21
806.689956270259
 31
0.0
 11
1304.643479504419
 21
806.689956270259
 31
0.0
 11
1305.266709076194
 21
806.6899562702591
 31
0.0
 11
1305.848244410927
 21
806.6899562702591
 31
0.0
 11
1306.385702980788
 21
806.689956270259
 31
0.0
 11
1306.876702257946
 21
806.6899562702591
 31
0.0
 11
1307.31885971457
 21
806.689956270259
 31
0.0
 11
1307.709792822829
 21
806.689956270259
 31
0.0
 11
1308.047119054891
 21
806.689956270259
 31
0.0
 11
1308.328455882927
 21
806.689956270259
 31
0.0
 11
1308.551420779105
 21
806.689956270259
 31
0.0
 11
1308.713631215595
 21
806.689956270259
 31
0.0
 11
1308.812704664564
 21
806.689956270259
 31
0.0
 11
1308.846258598183
 21
806.689956270259
 31
0.0
 11
1308.879796808309
 21
806.689956270259
 31
0.0
 11
1308.978823831108
 21
806.6899562702589
 31
0.0
 11
1309.140958255209
 21
806.689956270259
 31
0.0
 11
1309.363818669243
 21
806.689956270259
 31
0.0
 11
1309.645023661839
 21
806.6899562702591
 31
0.0
 11
1309.982191821628
 21
806.689956270259
 31
0.0
 11
1310.37294173724
 21
806.689956270259
 31
0.0
 11
1310.814891997305
 21
806.689956270259
 31
0.0
 11
1311.305661190453
 21
806.689956270259
 31
0.0
 11
1311.842867905314
 21
806.6899562702591
 31
0.0
 11
1312.424130730518
 21
806.6899562702591
 31
0.0
 11
1313.047068254696
 21
806.689956270259
 31
0.0
 11
1313.709299066477
 21
806.689956270259
 31
0.0
 11
1314.408441754492
 21
806.689956270259
 31
0.0
 11
1315.14211490737
 21
806.6899562702591
 31
0.0
 11
1315.907937113742
 21
806.6899562702591
 31
0.0
 11
1316.703526962238
 21
806.689956270259
 31
0.0
 11
1317.526503041488
 21
806.6899562702591
 31
0.0
 11
1318.374483940122
 21
806.6899562702591
 31
0.0
 11
1319.245088246769
 21
806.689956270259
 31
0.0
 11
1320.135934550061
 21
806.6899562702589
 31
0.0
 11
1321.044641438628
 21
806.689956270259
 31
0.0
 11
1321.968827501099
 21
806.689956270259
 31
0.0
 11
1322.906111326104
 21
806.6899562702589
 31
0.0
 11
1323.854111502274
 21
806.689956270259
 31
0.0
 11
1324.810446618238
 21
806.689956270259
 31
0.0
 11
1325.772735262627
 21
806.689956270259
 31
0.0
 11
1326.738596024071
 21
806.6899562702591
 31
0.0
 11
1327.7056474912
 21
806.689956270259
 31
0.0
 11
1328.671508252644
 21
806.689956270259
 31
0.0
 11
1329.633796897033
 21
806.6899562702591
 31
0.0
 11
1330.590132012998
 21
806.689956270259
 31
0.0
 11
1331.538132189168
 21
806.689956270259
 31
0.0
 11
1332.475416014173
 21
806.689956270259
 31
0.0
 11
1333.399602076644
 21
806.689956270259
 31
0.0
 11
1334.30830896521
 21
806.689956270259
 31
0.0
 11
1335.199155268502
 21
806.689956270259
 31
0.0
 11
1336.06975957515
 21
806.689956270259
 31
0.0
 11
1336.917740473784
 21
806.689956270259
 31
0.0
 11
1337.740716553033
 21
806.689956270259
 31
0.0
 11
1338.536306401529
 21
806.689956270259
 31
0.0
 11
1339.302128607901
 21
806.6899562702591
 31
0.0
 11
1340.03580176078
 21
806.689956270259
 31
0.0
 11
1340.734944448794
 21
806.689956270259
 31
0.0
 11
1341.397175260575
 21
806.689956270259
 31
0.0
 11
1342.020112784753
 21
806.6899562702591
 31
0.0
 11
1342.601375609958
 21
806.6899562702591
 31
0.0
 11
1343.138582324818
 21
806.689956270259
 31
0.0
 11
1343.629351517966
 21
806.6899562702591
 31
0.0
 11
1344.071301778032
 21
806.689956270259
 31
0.0
 11
1344.462051693643
 21
806.689956270259
 31
0.0
 11
1344.799219853432
 21
806.689956270259
 31
0.0
 11
1345.080424846029
 21
806.689956270259
 31
0.0
 11
1345.303285260062
 21
806.689956270259
 31
0.0
 11
1345.465419684163
 21
806.689956270259
 31
0.0
 11
1345.564446706962
 21
806.689956270259
 31
0.0
 11
1345.597984917088
 21
806.689956270259
 31
0.0
 11
1345.604926664119
 21
806.722958018437
 31
0.0
 11
1345.625404817859
 21
806.820313175562
 31
0.0
 11
1345.658898747281
 21
806.9795466105207
 31
0.0
 11
1345.704887821358
 21
807.1981831921999
 31
0.0
 11
1345.762851409063
 21
807.4737477894859
 31
0.0
 11
1345.832268879369
 21
807.8037652712657
 31
0.0
 11
1345.912619601247
 21
808.1857605064259
 31
0.0
 11
1346.003382943672
 21
808.6172583638529
 31
0.0
 11
1346.104038275614
 21
809.0957837124336
 31
0.0
 11
1346.214064966049
 21
809.6188614210545
 31
0.0
 11
1346.332942383946
 21
810.1840163586021
 31
0.0
 11
1346.460149898281
 21
810.7887733939637
 31
0.0
 11
1346.595166878025
 21
811.4306573960254
 31
0.0
 11
1346.737472692151
 21
812.1071932336738
 31
0.0
 11
1346.886546709632
 21
812.8159057757961
 31
0.0
 11
1347.04186829944
 21
813.5543198912782
 31
0.0
 11
1347.202916830549
 21
814.3199604490072
 31
0.0
 11
1347.36917167193
 21
815.1103523178699
 31
0.0
 11
1347.540112192557
 21
815.9230203667524
 31
0.0
 11
1347.715217761403
 21
816.7554894645421
 31
0.0
 11
1347.893967747439
 21
817.6052844801249
 31
0.0
 11
1348.075841519639
 21
818.4699302823879
 31
0.0
 11
1348.260318446976
 21
819.3469517402176
 31
0.0
 11
1348.446877898422
 21
820.2338737225006
 31
0.0
 11
1348.634999242949
 21
821.1282210981238
 31
0.0
 11
1348.824161849531
 21
822.0275187359738
 31
0.0
 11
1349.013845087141
 21
822.9292915049368
 31
0.0
 11
1349.20352832475
 21
823.8310642739001
 31
0.0
 11
1349.392690931332
 21
824.7303619117499
 31
0.0
 11
1349.58081227586
 21
825.6247092873731
 31
0.0
 11
1349.767371727306
 21
826.5116312696563
 31
0.0
 11
1349.951848654642
 21
827.388652727486
 31
0.0
 11
1350.133722426842
 21
828.2532985297489
 31
0.0
 11
1350.312472412879
 21
829.1030935453321
 31
0.0
 11
1350.487577981724
 21
829.9355626431213
 31
0.0
 11
1350.658518502351
 21
830.7482306920041
 31
0.0
 11
1350.824773343732
 21
831.5386225608665
 31
0.0
 11
1350.985821874841
 21
832.3042631185957
 31
0.0
 11
1351.141143464649
 21
833.0426772340779
 31
0.0
 11
1351.29021748213
 21
833.7513897762001
 31
0.0
 11
1351.432523296256
 21
834.4279256138484
 31
0.0
 11
1351.567540276
 21
835.0698096159102
 31
0.0
 11
1351.694747790335
 21
835.6745666512716
 31
0.0
 11
1351.813625208233
 21
836.2397215888195
 31
0.0
 11
1351.923651898667
 21
836.7627992974403
 31
0.0
 11
1352.02430723061
 21
837.2413246460211
 31
0.0
 11
1352.115070573034
 21
837.6728225034481
 31
0.0
 11
1352.195421294912
 21
838.0548177386081
 31
0.0
 11
1352.264838765218
 21
838.3848352203879
 31
0.0
 11
1352.322802352923
 21
838.660399817674
 31
0.0
 11
1352.368791427
 21
838.8790363993533
 31
0.0
 11
1352.402285356423
 21
839.0382698343119
 31
0.0
 11
1352.422763510162
 21
839.1356249914369
 31
0.0
 11
1352.429705257193
 21
839.1686267396149
 31
0.0
 11
1352.463826552201
 21
839.168626739615
 31
0.0
 11
1352.564914874794
 21
839.168626739615
 31
0.0
 11
1352.731056881328
 21
839.1686267396149
 31
0.0
 11
1352.960339228155
 21
839.168626739615
 31
0.0
 11
1353.250848571633
 21
839.1686267396149
 31
0.0
 11
1353.600671568115
 21
839.1686267396149
 31
0.0
 11
1354.007894873956
 21
839.1686267396149
 31
0.0
 11
1354.47060514551
 21
839.1686267396148
 31
0.0
 11
1354.986889039132
 21
839.168626739615
 31
0.0
 11
1355.554833211178
 21
839.1686267396148
 31
0.0
 11
1356.172524318002
 21
839.168626739615
 31
0.0
 11
1356.838049015958
 21
839.1686267396149
 31
0.0
 11
1357.549493961401
 21
839.1686267396148
 31
0.0
 11
1358.304945810685
 21
839.168626739615
 31
0.0
 11
1359.102491220166
 21
839.1686267396148
 31
0.0
 11
1359.940216846199
 21
839.1686267396149
 31
0.0
 11
1360.816209345137
 21
839.1686267396148
 31
0.0
 11
1361.728555373336
 21
839.1686267396149
 31
0.0
 11
1362.675341587151
 21
839.1686267396148
 31
0.0
 11
1363.654654642936
 21
839.1686267396149
 31
0.0
 11
1364.664581197045
 21
839.1686267396149
 31
0.0
 11
1365.703207905834
 21
839.1686267396149
 31
0.0
 11
1366.768621425656
 21
839.1686267396149
 31
0.0
 11
1367.858908412868
 21
839.168626739615
 31
0.0
 11
1368.972155523823
 21
839.1686267396149
 31
0.0
 11
1370.106449414877
 21
839.1686267396148
 31
0.0
 11
1371.259876742383
 21
839.168626739615
 31
0.0
 11
1372.430524162698
 21
839.1686267396149
 31
0.0
 11
1373.616478332175
 21
839.1686267396149
 31
0.0
 11
1374.815825907168
 21
839.168626739615
 31
0.0
 11
1376.026653544034
 21
839.1686267396149
 31
0.0
 11
1377.247047899125
 21
839.1686267396148
 31
0.0
 11
1378.475095628799
 21
839.1686267396149
 31
0.0
 11
1379.708883389407
 21
839.1686267396149
 31
0.0
 11
1380.946497837307
 21
839.1686267396148
 31
0.0
 11
1382.186025628852
 21
839.1686267396149
 31
0.0
 11
1383.425553420397
 21
839.1686267396148
 31
0.0
 11
1384.663167868297
 21
839.1686267396149
 31
0.0
 11
1385.896955628906
 21
839.1686267396149
 31
0.0
 11
1387.125003358578
 21
839.1686267396148
 31
0.0
 11
1388.345397713671
 21
839.168626739615
 31
0.0
 11
1389.556225350536
 21
839.1686267396149
 31
0.0
 11
1390.75557292553
 21
839.1686267396149
 31
0.0
 11
1391.941527095006
 21
839.1686267396149
 31
0.0
 11
1393.112174515321
 21
839.1686267396149
 31
0.0
 11
1394.265601842827
 21
839.1686267396148
 31
0.0
 11
1395.399895733881
 21
839.1686267396149
 31
0.0
 11
1396.513142844836
 21
839.1686267396149
 31
0.0
 11
1397.603429832048
 21
839.1686267396149
 31
0.0
 11
1398.668843351871
 21
839.1686267396149
 31
0.0
 11
1399.70747006066
 21
839.1686267396149
 31
0.0
 11
1400.717396614768
 21
839.1686267396149
 31
0.0
 11
1401.696709670553
 21
839.1686267396149
 31
0.0
 11
1402.643495884367
 21
839.1686267396149
 31
0.0
 11
1403.555841912567
 21
839.1686267396149
 31
0.0
 11
1404.431834411505
 21
839.1686267396149
 31
0.0
 11
1405.269560037538
 21
839.1686267396149
 31
0.0
 11
1406.067105447019
 21
839.1686267396149
 31
0.0
 11
1406.822557296304
 21
839.1686267396149
 31
0.0
 11
1407.534002241747
 21
839.1686267396149
 31
0.0
 11
1408.199526939703
 21
839.1686267396149
 31
0.0
 11
1408.817218046526
 21
839.1686267396149
 31
0.0
 11
1409.385162218571
 21
839.1686267396149
 31
0.0
 11
1409.901446112194
 21
839.1686267396149
 31
0.0
 11
1410.364156383749
 21
839.1686267396149
 31
0.0
 11
1410.771379689589
 21
839.1686267396149
 31
0.0
 11
1411.121202686071
 21
839.1686267396149
 31
0.0
 11
1411.411712029549
 21
839.168626739615
 31
0.0
 11
1411.640994376377
 21
839.1686267396149
 31
0.0
 11
1411.80713638291
 21
839.168626739615
 31
0.0
 11
1411.908224705503
 21
839.1686267396149
 31
0.0
 11
1411.942346000511
 21
839.1686267396149
 31
0.0
 11
1412.626774521257
 21
839.1695272202252
 31
0.0
 11
1413.249974081496
 21
839.1730175128388
 31
0.0
 11
1413.815650791508
 21
839.1802808936295
 31
0.0
 11
1414.327510761573
 21
839.1925006387711
 31
0.0
 11
1414.789260101972
 21
839.2108600244375
 31
0.0
 11
1415.204604922986
 21
839.236542326803
 31
0.0
 11
1415.577251334894
 21
839.2707308220413
 31
0.0
 11
1415.910905447978
 21
839.314608786326
 31
0.0
 11
1416.209273372518
 21
839.3693594958311
 31
0.0
 11
1416.476061218794
 21
839.4361662267307
 31
0.0
 11
1416.714975097087
 21
839.5162122551985
 31
0.0
 11
1416.929721117677
 21
839.6106808574085
 31
0.0
 11
1417.124005390845
 21
839.7207553095346
 31
0.0
 11
1417.301534026872
 21
839.8476188877507
 31
0.0
 11
1417.466013136037
 21
839.9924548682304
 31
0.0
 11
1417.621148828622
 21
840.1564465271481
 31
0.0
 11
1417.770647214907
 21
840.3407771406776
 31
0.0
 11
1417.918214405171
 21
840.5466299849923
 31
0.0
 11
1418.067556509697
 21
840.7751883362665
 31
0.0
 11
1418.222379638764
 21
841.0276354706741
 31
0.0
 11
1418.386389902653
 21
841.305154664389
 31
0.0
 11
1418.504378044298
 21
841.505341159326
 31
0.0
 11
1418.616529329006
 21
841.6936214377665
 31
0.0
 11
1418.72529023962
 21
841.8718589908968
 31
0.0
 11
1418.833107258982
 21
842.0419173099025
 31
0.0
 11
1418.942426869934
 21
842.2056598859691
 31
0.0
 11
1419.055695555316
 21
842.3649502102829
 31
0.0
 11
1419.175359797971
 21
842.5216517740291
 31
0.0
 11
1419.30386608074
 21
842.6776280683941
 31
0.0
 11
1419.443660886466
 21
842.8347425845634
 31
0.0
 11
1419.597190697989
 21
842.9948588137231
 31
0.0
 11
1419.766901998152
 21
843.1598402470585
 31
0.0
 11
1419.955241269796
 21
843.3315503757558
 31
0.0
 11
1420.164654995762
 21
843.5118526910006
 31
0.0
 11
1420.397589658894
 21
843.7026106839787
 31
0.0
 11
1420.656491742031
 21
843.9056878458763
 31
0.0
 11
1420.943807728017
 21
844.1229476678788
 31
0.0
 11
1421.261984099693
 21
844.3562536411719
 31
0.0
 11
1421.613467339899
 21
844.6074692569418
 31
0.0
 11
1422.000703931479
 21
844.8784580063741
 31
0.0
 11
1422.426140357274
 21
845.1710833806544
 31
0.0
 11
1422.892223100125
 21
845.487208870969
 31
0.0
 11
1423.401398642874
 21
845.8286979685033
 31
0.0
 11
1423.956113468364
 21
846.1974141644434
 31
0.0
 11
1424.558814059434
 21
846.5952209499749
 31
0.0
 11
1425.211946898929
 21
847.0239818162836
 31
0.0
 11
1425.917958469688
 21
847.4855602545551
 31
0.0
 11
1426.679295254553
 21
847.9818197559758
 31
0.0
 11
1427.498403736367
 21
848.5146238117311
 31
0.0
 11
1428.377730397971
 21
849.0858359130068
 31
0.0
 11
1429.319721722208
 21
849.6973195509888
 31
0.0
 11
1430.326824191917
 21
850.3509382168629
 31
0.0
 11
1433.269540395738
 21
852.307941296326
 31
0.0
 11
1436.172844887034
 21
854.3137391991884
 31
0.0
 11
1439.036208294245
 21
856.3677687329302
 31
0.0
 11
1441.859101245813
 21
858.469466705033
 31
0.0
 11
1444.64099437018
 21
860.618269922978
 31
0.0
 11
1447.381358295789
 21
862.8136151942452
 31
0.0
 11
1450.079663651078
 21
865.0549393263156
 31
0.0
 11
1452.735381064492
 21
867.3416791266708
 31
0.0
 11
1455.34798116447
 21
869.6732714027913
 31
0.0
 11
1457.916934579456
 21
872.0491529621581
 31
0.0
 11
1460.44171193789
 21
874.4687606122512
 31
0.0
 11
1462.921783868213
 21
876.9315311605526
 31
0.0
 11
1465.356620998869
 21
879.4369014145429
 31
0.0
 11
1467.745693958297
 21
881.984308181703
 31
0.0
 11
1470.08847337494
 21
884.5731882695137
 31
0.0
 11
1472.384429877238
 21
887.2029784854552
 31
0.0
 11
1474.633034093635
 21
889.8731156370096
 31
0.0
 11
1476.833756652571
 21
892.5830365316571
 31
0.0
 11
1478.986068182487
 21
895.3321779768786
 31
0.0
 11
1481.089439311826
 21
898.1199767801547
 31
0.0
 11
1483.143340669029
 21
900.9458697489673
 31
0.0
 11
1485.147242882537
 21
903.8092936907965
 31
0.0
 11
1487.100616580792
 21
906.7096854131233
 31
0.0
 11
1489.002932392236
 21
909.6464817234281
 31
0.0
 11
1490.85366094531
 21
912.6191194291928
 31
0.0
 11
1492.652272868456
 21
915.6270353378978
 31
0.0
 11
1494.398238790115
 21
918.6696662570241
 31
0.0
 11
1496.091029338729
 21
921.7464489940522
 31
0.0
 11
1497.730115142739
 21
924.8568203564628
 31
0.0
 11
1499.314966830588
 21
928.0002171517378
 31
0.0
 11
1500.845055030716
 21
931.1760761873575
 31
0.0
 11
1502.319850371565
 21
934.3838342708026
 31
0.0
 11
1503.738823481576
 21
937.6229282095536
 31
0.0
 11
1505.101444989192
 21
940.8927948110926
 31
0.0
 11
1506.407185522854
 21
944.1928708828998
 31
0.0
 11
1507.655515711003
 21
947.5225932324563
 31
0.0
 11
1508.845906182081
 21
950.8813986672421
 31
0.0
 11
1509.977827564529
 21
954.2687239947391
 31
0.0
 11
1511.05075048679
 21
957.6840060224283
 31
0.0
 11
1512.064145577304
 21
961.1266815577899
 31
0.0
 11
1513.017483464513
 21
964.596187408305
 31
0.0
 11
1513.910234776859
 21
968.091960381454
 31
0.0
 11
1514.741870142783
 21
971.6134372847187
 31
0.0
 11
1515.511860190727
 21
975.1600549255797
 31
0.0
 11
1516.219675549132
 21
978.7312501115179
 31
0.0
 11
1516.86478684644
 21
982.3264596500133
 31
0.0
 11
1517.446664711093
 21
985.9451203485481
 31
0.0
 11
1517.964779771532
 21
989.5866690146025
 31
0.0
 11
1518.418602656199
 21
993.2505424556579
 31
0.0
 11
1518.807603993535
 21
996.9361774791939
 31
0.0
 11
1519.131254411981
 21
1000.643010892693
 31
0.0
 11
1519.38902453998
 21
1004.370479503635
 31
0.0
  0
SPLINE
  5
AB
330
1F
100
AcDbEntity
  8
___C_____1
  6
Continuous
 62
     7
100
AcDbSpline
210
0.0
220
0.0
230
1.0
 70
    11
 71
     3
 72
   353
 73
   349
 74
   347
 42
0.0000000001
 43
0.0000000001
 44
0.00000001
 40
0.0
 40
0.0
 40
0.0
 40
0.0
 40
1.252145204438935
 40
2.577459831578877
 40
4.044014752445205
 40
5.69891393073723
 40
7.571953024696215
 40
9.680950654377476
 40
12.0359571553144
 40
14.64203647809133
 40
17.50100745753843
 40
20.61252759608401
 40
23.97477751547799
 40
27.58490298783954
 40
31.43930751799499
 40
35.53385078331387
 40
39.86398636654879
 40
44.4248594233925
 40
49.2113773166705
 40
54.21826162961202
 40
59.44008710555207
 40
64.87131124627581
 40
70.50629712746739
 40
76.33933121590482
 40
82.36463745353053
 40
88.57638851878583
 40
94.9687149295044
 40
101.5357124784125
 40
108.2714483686639
 40
115.1699663274553
 40
122.2252909104323
 40
129.4314311612635
 40
136.7823837546783
 40
144.272135724042
 40
151.8946668538653
 40
159.64395180178
 40
167.5139620022795
 40
175.4986673950313
 40
183.5920380131535
 40
191.7880454610425
 40
200.080664306802
 40
208.4638734107359
 40
216.9316572085821
 40
225.3988410154153
 40
233.7815093955909
 40
242.0736445474323
 40
250.2692230887486
 40
258.3622173405273
 40
266.3465966558314
 40
274.216328812566
 40
281.9653814916003
 40
289.5877238652801
 40
297.0773283259314
 40
304.4281723897419
 40
311.6342408188321
 40
318.6895280138054
 40
325.5880407413188
 40
332.3238012770527
 40
338.8908510651609
 40
345.2832550224806
 40
351.4951066518704
 40
357.5205341773762
 40
363.3537079792463
 40
368.9888496962087
 40
374.4202434860127
 40
379.6422501085074
 40
384.6493247415753
 40
389.4360397949914
 40
393.9971145067564
 40
398.3274538802518
 40
402.4222006942862
 40
406.2768061332234
 40
409.8871274494694
 40
413.249565690143
 40
416.3612641298424
 40
419.2204008460007
 40
421.8266307462193
 40
424.1817700283449
 40
426.2908800074994
 40
428.1640085236131
 40
429.8189722173316
 40
431.285566197369
 40
432.6108971493528
 40
433.8630443566181
 40
433.9147345483466
 40
433.9664247400751
 40
442.3913894931713
 40
450.7412969432084
 40
459.0229094953789
 40
467.2427028132979
 40
475.4068706001894
 40
483.5213317641975
 40
491.591739894006
 40
499.6234949406546
 40
507.621756975543
 40
515.5914618733611
 40
523.5373387520742
 40
531.4639289898423
 40
539.3756066304844
 40
547.2765999842549
 40
555.1710142286414
 40
563.0628548140361
 40
570.9560514807993
 40
578.8544826969178
 40
586.7620003286412
 40
594.6824543598274
 40
602.6197174789576
 40
610.5777093557937
 40
618.5604204324219
 40
621.1155869180744
 40
623.3090267989144
 40
625.1739402075119
 40
626.7435526703945
 40
628.0511494421455
 40
629.1301384049615
 40
630.0141598831184
 40
630.7372621087782
 40
631.3341313744385
 40
631.8402533562231
 40
632.2916774356947
 40
632.7240695333962
 40
633.1714893220322
 40
633.6660453735565
 40
634.3139028418141
 40
634.8611316235882
 40
635.3419040781716
 40
635.8011794474992
 40
636.2940243254272
 40
636.8762492405755
 40
637.5967044751169
 40
638.4971786682107
 40
639.6152231337496
 40
640.9863918595886
 40
641.1470264743894
 40
641.6156821031386
 40
642.3724864223555
 40
643.3975671085595
 40
644.6710518382702
 40
646.1730682880068
 40
647.8837441342889
 40
649.7832070536363
 40
651.8515847225681
 40
654.0690048176041
 40
656.4155950152633
 40
658.8714829920652
 40
661.4167964245298
 40
664.0316629891761
 40
666.6962103625237
 40
669.3905662210923
 40
672.094858241401
 40
674.7892140999693
 40
677.4537614733172
 40
680.0686280379634
 40
682.613941470428
 40
685.0698294472302
 40
687.4164196448894
 40
689.6338397399252
 40
691.7022174088568
 40
693.6016803282041
 40
695.3123561744862
 40
696.8143726242231
 40
698.0878573539337
 40
699.1129380401378
 40
699.8697423593546
 40
700.3383979881039
 40
700.4990326029047
 40
700.6670654770409
 40
701.151960342405
 40
701.9249115634316
 40
702.9571135045537
 40
704.2197605302055
 40
705.6840470048206
 40
707.3211672928331
 40
709.1023157586764
 40
710.9986867667844
 40
712.9814746815913
 40
715.0218738675303
 40
717.0910786890357
 40
719.1602835105409
 40
721.2006826964802
 40
723.1834706112869
 40
725.0798416193951
 40
726.8609900852383
 40
728.4981103732507
 40
729.9623968478659
 40
731.2250438735175
 40
732.2572458146395
 40
733.030197035666
 40
733.5150919010305
 40
733.6831247751666
 40
733.8421166211551
 40
734.3023561753321
 40
735.0387394620159
 40
736.0261625055234
 40
737.2395213301725
 40
738.6537119602806
 40
740.2436304201656
 40
741.984172734145
 40
743.8502349265364
 40
745.8167130216575
 40
747.8585030438255
 40
749.9505010173584
 40
752.0676029665738
 40
754.1847049157889
 40
756.2767028893218
 40
758.31849291149
 40
760.2849710066107
 40
762.1510331990021
 40
763.8915755129815
 40
765.4814939728667
 40
766.8956846029746
 40
768.1090434276239
 40
769.0964664711314
 40
769.832849757815
 40
770.2930893119922
 40
770.4520811579807
 40
770.6109984998238
 40
771.0710223841068
 40
771.8070605989601
 40
772.7940209325127
 40
774.0068111728949
 40
775.4203391082378
 40
777.0095125266701
 40
778.7492392163224
 40
780.6144269653246
 40
782.5799835618068
 40
784.6208167938994
 40
786.7118344497312
 40
788.8279443174333
 40
790.9440541851352
 40
793.0350718409677
 40
795.0759050730596
 40
797.0414616695416
 40
798.906649418544
 40
800.6463761081961
 40
802.2355495266288
 40
803.6490774619711
 40
804.8618677023537
 40
805.8488280359065
 40
806.5848662507594
 40
807.0448901350424
 40
807.2038074768857
 40
807.3718672406988
 40
807.8568397019882
 40
808.6299146155287
 40
809.6622817360951
 40
810.9251308184624
 40
812.3896516174057
 40
814.0270338876995
 40
815.808467384119
 40
817.7051418614389
 40
819.6882470744339
 40
821.7289727778792
 40
823.7985087265496
 40
825.8680446752202
 40
827.9087703786655
 40
829.8918755916607
 40
831.7885500689805
 40
833.5699835653999
 40
835.2073658356937
 40
836.671886634637
 40
837.9347357170043
 40
838.9671028375708
 40
839.7401777511112
 40
840.2251502124007
 40
840.3932099762137
 40
840.5538445910147
 40
841.0225002197637
 40
841.7793045389808
 40
842.8043852251847
 40
844.0778699548953
 40
845.5798864046321
 40
847.2905622509145
 40
849.1900251702616
 40
851.2584028391934
 40
853.4758229342294
 40
855.8224131318889
 40
858.2783011086908
 40
860.8236145411556
 40
863.4384811058019
 40
866.1030284791498
 40
868.7973843377183
 40
871.5016763580272
 40
874.1960322165953
 40
876.8605795899434
 40
879.4754461545897
 40
882.0207595870545
 40
884.4766475638567
 40
886.8232377615159
 40
889.0406578565514
 40
891.1090355254833
 40
893.0084984448308
 40
894.7191742911132
 40
896.22119074085
 40
897.4946754705607
 40
898.5197561567647
 40
899.2765604759813
 40
899.7452161047306
 40
899.9058507195316
 40
901.2725827326589
 40
902.3874833270186
 40
903.2858501285238
 40
904.004980346302
 40
904.5864106438396
 40
905.078743938388
 40
905.5375684603299
 40
906.0177897102351
 40
906.5642564245031
 40
907.211021533374
 40
907.7080622070625
 40
908.1574627106122
 40
908.5914286192605
 40
909.0440421151233
 40
909.5509634120783
 40
910.1482620871078
 40
910.8714875377935
 40
911.7554229033143
 40
912.8342315837238
 40
914.1416774644349
 40
915.7112951613466
 40
917.5764973895485
 40
919.7706368134579
 40
922.3270399889013
 40
930.3079735067078
 40
938.264391311066
 40
946.2002739736047
 40
954.1195308201111
 40
962.0260237773855
 40
969.9235917050326
 40
977.8160750368859
 40
985.7073405540998
 40
993.6013061089907
 40
1001.501965115525
 40
1009.413410619051
 40
1017.339858754674
 40
1025.285671400999
 40
1033.255377834238
 40
1041.2536951875
 40
1049.28554752205
 40
1057.356083322078
 40
1065.47069123268
 40
1073.635013872888
 40
1081.854959572087
 40
1090.136711899294
 40
1098.486736880559
 40
1106.911787829985
 40
1106.963478021713
 40
1107.015168213442
 40
1107.015168213442
 40
1107.015168213442
 40
1107.015168213442
 10
1519.38902453998
 20
1004.473859887092
 30
0.0
 10
1519.355189451751
 20
1004.892329435558
 30
0.0
 10
1519.285542113328
 20
1005.753721906723
 30
0.0
 10
1518.739635666948
 20
1007.009012369119
 30
0.0
 10
1517.897518377636
 20
1008.234362096579
 30
0.0
 10
1516.734659470763
 20
1009.435492427622
 30
0.0
 10
1515.269501896254
 20
1010.616838715226
 30
0.0
 10
1513.503343221328
 20
1011.780433981473
 30
0.0
 10
1511.44228974145
 20
1012.92672237782
 30
0.0
 10
1509.091192775423
 20
1014.055347014216
 30
0.0
 10
1506.455717632575
 20
1015.165579889951
 30
0.0
 10
1503.541610705495
 20
1016.256532659986
 30
0.0
 10
1500.3548282271
 20
1017.327252369501
 30
0.0
 10
1496.901419618865
 20
1018.37676430829
 30
0.0
 10
1493.187510505596
 20
1019.404090359814
 30
0.0
 10
1489.219273371224
 20
1020.408256382957
 30
0.0
 10
1485.002913875928
 20
1021.388294674468
 30
0.0
 10
1480.54466021183
 20
1022.343244314042
 30
0.0
 10
1475.850756496679
 20
1023.272150656388
 30
0.0
 10
1470.927458162343
 20
1024.17406454316
 30
0.0
 10
1465.781028831952
 20
1025.048041483132
 30
0.0
 10
1460.417738131761
 20
1025.893140900683
 30
0.0
 10
1454.843860148082
 20
1026.708425484676
 30
0.0
 10
1449.065672320373
 20
1027.492960640193
 30
0.0
 10
1443.08945463779
 20
1028.245814033731
 30
0.0
 10
1436.921489048414
 20
1028.966055218713
 30
0.0
 10
1430.56805901986
 20
1029.652755328118
 30
0.0
 10
1424.035449208808
 20
1030.304986822321
 30
0.0
 10
1417.329945209851
 20
1030.92182328198
 30
0.0
 10
1410.457833362722
 20
1031.502339237574
 30
0.0
 10
1403.425400602923
 20
1032.045610028697
 30
0.0
 10
1396.238934344914
 20
1032.550711687567
 30
0.0
 10
1388.904722389962
 20
1033.016720842249
 30
0.0
 10
1381.429052852822
 20
1033.442714636006
 30
0.0
 10
1373.818214102872
 20
1033.827770659892
 30
0.0
 10
1366.078494716436
 20
1034.170966896037
 30
0.0
 10
1358.216183437967
 20
1034.471381670671
 30
0.0
 10
1350.237569147511
 20
1034.728093611691
 30
0.0
 10
1342.148940835614
 20
1034.940181623595
 30
0.0
 10
1333.956587574559
 20
1035.10672482504
 30
0.0
 10
1325.666798522974
 20
1035.226802652737
 30
0.0
 10
1317.285862818993
 20
1035.299494353804
 30
0.0
 10
1308.846458595846
 20
1035.323804800038
 30
0.0
 10
1300.407234611968
 20
1035.299494517489
 30
0.0
 10
1292.026840397362
 20
1035.226802269668
 30
0.0
 10
1283.737535838533
 20
1035.106724416159
 30
0.0
 10
1275.545612323843
 20
1034.940181064785
 30
0.0
 10
1267.457361261504
 20
1034.728092947992
 30
0.0
 10
1259.479073973608
 20
1034.471380901848
 30
0.0
 10
1251.6170417005
 20
1034.170966033058
 30
0.0
 10
1243.877555572078
 20
1033.827769710148
 30
0.0
 10
1236.266906582677
 20
1033.442713607239
 30
0.0
 10
1228.791385558546
 20
1033.01671974158
 30
0.0
 10
1221.457283119026
 20
1032.550710521803
 30
0.0
 10
1214.270889628866
 20
1032.045608804309
 30
0.0
 10
1207.238495139377
 20
1031.502337960752
 30
0.0
 10
1200.366389315107
 20
1030.921821958683
 30
0.0
 10
1193.660861341695
 20
1030.304985458329
 30
0.0
 10
1187.128199809068
 20
1029.652753929092
 30
0.0
 10
1180.774692562084
 20
1028.966053790263
 30
0.0
 10
1174.606626507761
 20
1028.245812581501
 30
0.0
 10
1168.630287364151
 20
1027.492959169963
 30
0.0
 10
1162.851959329884
 20
1026.708424002492
 30
0.0
 10
1157.277924644794
 20
1025.893139413031
 30
0.0
 10
1151.914462999207
 20
1025.048039997161
 30
0.0
 10
1146.767850730445
 20
1024.174063066986
 30
0.0
 10
1141.844359716245
 20
1023.27214919952
 30
0.0
 10
1137.15025583075
 20
1022.34324288795
 30
0.0
 10
1132.691796759921
 20
1021.388293293514
 30
0.0
 10
1128.475228866605
 20
1020.408255065319
 30
0.0
 10
1124.506782620917
 20
1019.404089130338
 30
0.0
 10
1120.792665850331
 20
1018.37676319764
 30
0.0
 10
1117.339053583817
 20
1017.327251430452
 30
0.0
 10
1114.152072716617
 20
1016.256531932867
 30
0.0
 10
1111.237778197484
 20
1015.165579549583
 30
0.0
 10
1108.602117674538
 20
1014.055346931763
 30
0.0
 10
1106.250875133374
 20
1012.92672362946
 30
0.0
 10
1104.189603916103
 20
1011.780434071574
 30
0.0
 10
1102.423521139815
 20
1010.616846972371
 30
0.0
 10
1100.957589802932
 20
1009.435481457293
 30
0.0
 10
1099.796684743046
 20
1008.234419332182
 30
0.0
 10
1098.948069091063
 20
1007.008864637578
 30
0.0
 10
1098.422930016731
 20
1005.754241763428
 30
0.0
 10
1098.302447345965
 20
1004.873978572749
 30
0.0
 10
1098.303519817119
 20
1004.422170574255
 30
0.0
 10
1098.301304825619
 20
1001.579316103691
 30
0.0
 10
1098.99702023377
 20
995.9940243125393
 30
0.0
 10
1099.908155107523
 20
987.6978650831715
 30
0.0
 10
1101.270581780707
 20
979.5210239275529
 30
0.0
 10
1102.92171320989
 20
971.4655243581597
 30
0.0
 10
1104.896842642457
 20
963.5390849379958
 30
0.0
 10
1107.178861489376
 20
955.7479130332583
 30
0.0
 10
1109.764553210322
 20
948.0986136970959
 30
0.0
 10
1112.647015506957
 20
940.5976837201105
 30
0.0
 10
1115.820326389694
 20
933.2516461893188
 30
0.0
 10
1119.278304736072
 20
926.0670150486651
 30
0.0
 10
1123.014840187481
 20
919.0503048784959
 30
0.0
 10
1127.02380551023
 20
912.2080286536484
 30
0.0
 10
1131.299080107784
 20
905.5466987811224
 30
0.0
 10
1135.834543681101
 20
899.0728270236534
 30
0.0
 10
1140.624078408963
 20
892.7929256201262
 30
0.0
 10
1145.66156649095
 20
886.7135046961123
 30
0.0
 10
1150.940897477602
 20
880.8410832391296
 30
0.0
 10
1156.455940828218
 20
875.1821494038978
 30
0.0
 10
1162.200647679996
 20
869.7433099906317
 30
0.0
 10
1168.168669535946
 20
864.5307325599722
 30
0.0
 10
1174.354784148772
 20
859.5522338865421
 30
0.0
 10
1180.749555040485
 20
854.8094601933938
 30
0.0
 10
1185.853624416945
 20
851.3482585084308
 30
0.0
 10
1189.415164527332
 20
849.0407216818504
 30
0.0
 10
1191.26137227449
 20
847.8359814812651
 30
0.0
 10
1192.830852705808
 20
846.8083296031349
 30
0.0
 10
1194.149142886345
 20
845.9361028218104
 30
0.0
 10
1195.242893487829
 20
845.199333537885
 30
0.0
 10
1196.138534840152
 20
844.5776535461263
 30
0.0
 10
1196.862536969098
 20
844.0506712046986
 30
0.0
 10
1197.441284687377
 20
843.597794426144
 30
0.0
 10
1197.900924368199
 20
843.1981676330437
 30
0.0
 10
1198.267039657417
 20
842.8307401191678
 30
0.0
 10
1198.564718760627
 20
842.4749053614637
 30
0.0
 10
1198.819409376621
 20
842.1110244033179
 30
0.0
 10
1199.058914590966
 20
841.7203202989756
 30
0.0
 10
1199.321518853767
 20
841.2600095349262
 30
0.0
 10
1199.610989727248
 20
840.7767919685692
 30
0.0
 10
1199.923611484308
 20
840.313089749483
 30
0.0
 10
1200.253739219283
 20
839.9399896082315
 30
0.0
 10
1200.640773790484
 20
839.6530835397582
 30
0.0
 10
1201.114151540468
 20
839.4495564130461
 30
0.0
 10
1201.69941922094
 20
839.3150772755186
 30
0.0
 10
1202.429950353322
 20
839.2322584620645
 30
0.0
 10
1203.342152489964
 20
839.1876858563662
 30
0.0
 10
1204.471986026297
 20
839.1697954234157
 30
0.0
 10
1205.355275020788
 20
839.1685960974367
 30
0.0
 10
1206.022094477289
 20
839.1686336136447
 30
0.0
 10
1206.484126057396
 20
839.168622509685
 30
0.0
 10
1207.234306236274
 20
839.1686286095313
 30
0.0
 10
1208.25276282841
 20
839.1686260280293
 30
0.0
 10
1209.519623445178
 20
839.1686269879028
 30
0.0
 10
1211.015015788847
 20
839.1686266577929
 30
0.0
 10
1212.719067526729
 20
839.1686267654989
 30
0.0
 10
1214.611906338429
 20
839.1686267316765
 30
0.0
 10
1216.673659899479
 20
839.1686267419902
 30
0.0
 10
1218.884455886705
 20
839.1686267389181
 30
0.0
 10
1221.224421976533
 20
839.1686267398162
 30
0.0
 10
1223.673685845507
 20
839.168626739556
 30
0.0
 10
1226.212375170153
 20
839.168626739639
 30
0.0
 10
1228.82061762694
 20
839.1686267395791
 30
0.0
 10
1231.478540892584
 20
839.1686267397362
 30
0.0
 10
1234.16627264286
 20
839.1686267391611
 30
0.0
 10
1236.863940557088
 20
839.168626741312
 30
0.0
 10
1239.551672301353
 20
839.168626733338
 30
0.0
 10
1242.209595590618
 20
839.1686267625728
 30
0.0
 10
1244.817837961387
 20
839.1686266566213
 30
0.0
 10
1247.356527594092
 20
839.1686270359343
 30
0.0
 10
1249.805790374691
 20
839.1686256958514
 30
0.0
 10
1252.145760253572
 20
839.1686303611882
 30
0.0
 10
1254.356543268274
 20
839.1686143885481
 30
0.0
 10
1256.418340384165
 20
839.1686680161877
 30
0.0
 10
1258.311036362702
 20
839.1684921504191
 30
0.0
 10
1260.015542948255
 20
839.169052189372
 30
0.0
 10
1261.509541218916
 20
839.1673357132046
 30
0.0
 10
1262.780455439457
 20
839.1723267819858
 30
0.0
 10
1263.788010190579
 20
839.1589037043041
 30
0.0
 10
1264.563950395877
 20
839.1906211761753
 30
0.0
 10
1264.979089270219
 20
839.1328837324394
 30
0.0
 10
1265.308010321508
 20
839.2106342557296
 30
0.0
 10
1265.296158303635
 20
838.8621366420159
 30
0.0
 10
1265.444050700698
 20
838.4590185731967
 30
0.0
 10
1265.573341066683
 20
837.6783216590472
 30
0.0
 10
1265.794393043474
 20
836.691400662248
 30
0.0
 10
1266.047265881047
 20
835.4599198937306
 30
0.0
 10
1266.346996837058
 20
834.0378617316499
 30
0.0
 10
1266.680352547534
 20
832.4443998251952
 30
0.0
 10
1267.04382098693
 20
830.7106774023948
 30
0.0
 10
1267.430747461667
 20
828.8639682227853
 30
0.0
 10
1267.835448424749
 20
826.9327417881989
 30
0.0
 10
1268.251950691557
 20
824.9451109787578
 30
0.0
 10
1268.674364592275
 20
822.9292915037396
 30
0.0
 10
1269.096778498802
 20
820.9134720358725
 30
0.0
 10
1269.513280748589
 20
818.9258412054738
 30
0.0
 10
1269.917981771325
 20
816.9946148443366
 30
0.0
 10
1270.304908038563
 20
815.1479054092395
 30
0.0
 10
1270.668377181109
 20
813.4141838522075
 30
0.0
 10
1271.001730585186
 20
811.8207191059548
 30
0.0
 10
1271.301468801415
 20
810.3986698831534
 30
0.0
 10
1271.554320013349
 20
809.1671624876647
 30
0.0
 10
1271.775431422506
 20
808.1803146680745
 30
0.0
 10
1271.904578652971
 20
807.3994415156512
 30
0.0
 10
1272.05273567165
 20
806.9966492671205
 30
0.0
 10
1272.040554135997
 20
806.6484201583982
 30
0.0
 10
1272.365058408559
 20
806.7248608200558
 30
0.0
 10
1272.771330332326
 20
806.6687154165622
 30
0.0
 10
1273.524120820063
 20
806.6992203339246
 30
0.0
 10
1274.4928316853
 20
806.6864838619514
 30
0.0
 10
1275.701610416991
 20
806.6911477830058
 30
0.0
 10
1277.106152249808
 20
806.6895707675261
 30
0.0
 10
1278.688112875019
 20
806.6900757812371
 30
0.0
 10
1280.420161021985
 20
806.6899204257732
 30
0.0
 10
1282.277892833296
 20
806.6899667347863
 30
0.0
 10
1284.235992012763
 20
806.6899532847048
 30
0.0
 10
1286.269417145625
 20
806.6899571048234
 30
0.0
 10
1288.353046263519
 20
806.6899560413222
 30
0.0
 10
1290.461780456872
 20
806.68995633194
 30
0.0
 10
1292.570514350839
 20
806.6899562539348
 30
0.0
 10
1294.654144349181
 20
806.6899562745007
 30
0.0
 10
1296.687566375132
 20
806.6899562691783
 30
0.0
 10
1298.645676479456
 20
806.6899562705286
 30
0.0
 10
1300.503370679681
 20
806.6899562701935
 30
0.0
 10
1302.235545001832
 20
806.6899562702745
 30
0.0
 10
1303.817095469808
 20
806.6899562702557
 30
0.0
 10
1305.222918108025
 20
806.6899562702597
 30
0.0
 10
1306.427908940779
 20
806.6899562702587
 30
0.0
 10
1307.406963992393
 20
806.689956270259
 30
0.0
 10
1308.134979287182
 20
806.689956270259
 30
0.0
 10
1308.586850849465
 20
806.6899562702591
 30
0.0
 10
1308.846233763468
 20
806.689956270259
 30
0.0
 10
1309.105544787506
 20
806.6899562702586
 30
0.0
 10
1309.557204601166
 20
806.6899562702592
 30
0.0
 10
1310.284878745395
 20
806.6899562702589
 30
0.0
 10
1311.263475008325
 20
806.689956270259
 30
0.0
 10
1312.467901178084
 20
806.6899562702597
 30
0.0
 10
1313.873065042806
 20
806.6899562702554
 30
0.0
 10
1315.4538743906
 20
806.6899562702741
 30
0.0
 10
1317.185237009694
 20
806.6899562701938
 30
0.0
 10
1319.042060687802
 20
806.6899562705279
 30
0.0
 10
1320.999253214756
 20
806.6899562691792
 30
0.0
 10
1323.031722371909
 20
806.6899562744968
 30
0.0
 10
1325.114375973792
 20
806.6899562539504
 30
0.0
 10
1327.222121707627
 20
806.6899563318813
 30
0.0
 10
1329.329867740329
 20
806.6899560415396
 30
0.0
 10
1331.412520463287
 20
806.6899571040294
 30
0.0
 10
1333.444992721979
 20
806.6899532875448
 30
0.0
 10
1335.402174342966
 20
806.6899667248313
 30
0.0
 10
1337.259035567126
 20
806.6899204598738
 30
0.0
 10
1338.990272229203
 20
806.6900756675402
 30
0.0
 10
1340.571491025036
 20
806.6895711342742
 30
0.0
 10
1341.975376298978
 20
806.6911466494611
 30
0.0
 10
1343.183583818081
 20
806.6864871654236
 30
0.0
 10
1344.15185378059
 20
806.6992115205662
 30
0.0
 10
1344.904260279404
 20
806.6687356240288
 30
0.0
 10
1345.310399300105
 20
806.7248276136454
 30
0.0
 10
1345.634716784226
 20
806.6484494223355
 30
0.0
 10
1345.62277952062
 20
806.9966611455701
 30
0.0
 10
1345.771282745512
 20
807.3994343194137
 30
0.0
 10
1345.901037468956
 20
808.1803177894577
 30
0.0
 10
1346.122939936146
 20
809.1671613249912
 30
0.0
 10
1346.376769028643
 20
810.3986702793184
 30
0.0
 10
1346.677639553642
 20
811.8207189787826
 30
0.0
 10
1347.012260742961
 20
813.4141838912867
 30
0.0
 10
1347.377109573025
 20
815.1479053976345
 30
0.0
 10
1347.765505350182
 20
816.9946148476864
 30
0.0
 10
1348.171743163598
 20
818.9258412045317
 30
0.0
 10
1348.589827080877
 20
820.9134720361278
 30
0.0
 10
1349.013845088155
 20
822.9292915036872
 30
0.0
 10
1349.437863089375
 20
824.9451109787101
 30
0.0
 10
1349.855947024405
 20
826.9327417884342
 30
0.0
 10
1350.262184775612
 20
828.8639682219334
 30
0.0
 10
1350.650580769156
 20
830.7106774053492
 30
0.0
 10
1351.015428865954
 20
832.4443998152467
 30
0.0
 10
1351.35005246045
 20
834.0378617640242
 30
0.0
 10
1351.650915414294
 20
835.4599197928776
 30
0.0
 10
1351.904767058602
 20
836.691400958234
 30
0.0
 10
1352.126607548085
 20
837.678320864425
 30
0.0
 10
1352.256511537185
 20
838.4590204051696
 30
0.0
 10
1352.404738807384
 20
838.8621336180744
 30
0.0
 10
1352.393145617652
 20
839.2106267210928
 30
0.0
 10
1352.722013346481
 20
839.1328923740069
 30
0.0
 10
1353.137200053935
 20
839.1906158585923
 30
0.0
 10
1353.913113982604
 20
839.1589060550371
 30
0.0
 10
1354.920679854197
 20
839.1723258874285
 30
0.0
 10
1356.191589939842
 20
839.1673360253353
 30
0.0
 10
1357.685589632534
 20
839.1690520865111
 30
0.0
 10
1359.390095754117
 20
839.168492182959
 30
0.0
 10
1361.282791878352
 20
839.168668006208
 30
0.0
 10
1363.344588949814
 20
839.1686143915342
 30
0.0
 10
1365.555371977748
 20
839.1686303603121
 30
0.0
 10
1367.895341852765
 20
839.1686256961041
 30
0.0
 10
1370.344604634475
 20
839.1686270358629
 30
0.0
 10
1372.883294266865
 20
839.168626656641
 30
0.0
 10
1375.491536637722
 20
839.1686267625674
 30
0.0
 10
1378.149459926962
 20
839.1686267333391
 30
0.0
 10
1380.837191671234
 20
839.1686267413118
 30
0.0
 10
1383.534859585461
 20
839.1686267391608
 30
0.0
 10
1386.222591335737
 20
839.1686267397359
 30
0.0
 10
1388.880514601381
 20
839.1686267395791
 30
0.0
 10
1391.488757058169
 20
839.168626739639
 30
0.0
 10
1394.027446382814
 20
839.1686267395555
 30
0.0
 10
1396.476710251789
 20
839.1686267398176
 30
0.0
 10
1398.816676341617
 20
839.1686267389132
 30
0.0
 10
1401.027472328843
 20
839.1686267420075
 30
0.0
 10
1403.089225889891
 20
839.1686267316189
 30
0.0
 10
1404.982064701596
 20
839.1686267656867
 30
0.0
 10
1406.686116439467
 20
839.1686266571985
 30
0.0
 10
1408.181508783166
 20
839.1686269897073
 30
0.0
 10
1409.44836939985
 20
839.1686260228576
 30
0.0
 10
1410.466825992212
 20
839.1686286231222
 30
0.0
 10
1411.217006170555
 20
839.1686224789409
 30
0.0
 10
1411.679037751636
 20
839.168633663607
 30
0.0
 10
1412.344378301058
 20
839.1685959585312
 30
0.0
 10
1413.225140501365
 20
839.169796912068
 30
0.0
 10
1414.351744315332
 20
839.1876925305028
 30
0.0
 10
1415.26175225268
 20
839.2322734280608
 30
0.0
 10
1415.990863860733
 20
839.3151034126804
 30
0.0
 10
1416.57523357794
 20
839.4495856467646
 30
0.0
 10
1417.047973331567
 20
839.6530975290158
 30
0.0
 10
1417.434452509969
 20
839.9399470422783
 30
0.0
 10
1417.763611733549
 20
840.313101350027
 30
0.0
 10
1418.075465140435
 20
840.7764259504116
 30
0.0
 10
1418.361158533051
 20
841.2621054379351
 30
0.0
 10
1418.630117257832
 20
841.7200148308186
 30
0.0
 10
1418.873081451172
 20
842.1109252734606
 30
0.0
 10
1419.130628888433
 20
842.4747131163094
 30
0.0
 10
1419.430101317692
 20
842.8305547644289
 30
0.0
 10
1419.797315035489
 20
843.1980060392945
 30
0.0
 10
1420.25749631845
 20
843.5976836205399
 30
0.0
 10
1420.83639960737
 20
844.0506102335867
 30
0.0
 10
1421.560309487142
 20
844.5776368372763
 30
0.0
 10
1422.455756640504
 20
845.199353030451
 30
0.0
 10
1423.549357228312
 20
845.9361510990908
 30
0.0
 10
1424.867688022958
 20
846.8084035951205
 30
0.0
 10
1426.437559071251
 20
847.8360639449311
 30
0.0
 10
1428.284608638327
 20
849.0408707243259
 30
0.0
 10
1431.847187560225
 20
851.3469109214467
 30
0.0
 10
1436.949228785143
 20
854.809902798164
 30
0.0
 10
1443.342351580267
 20
859.5521892218403
 30
0.0
 10
1449.526603473617
 20
864.53081807173
 30
0.0
 10
1455.493052423217
 20
869.7433601569778
 30
0.0
 10
1461.236336243897
 20
875.1822076993693
 30
0.0
 10
1466.750138516984
 20
880.8411373301021
 30
0.0
 10
1472.028396499966
 20
886.7135571929089
 30
0.0
 10
1477.064978055551
 20
892.7929751687116
 30
0.0
 10
1481.853767847058
 20
899.0728733717243
 30
0.0
 10
1486.388644063322
 20
905.5467414284567
 30
0.0
 10
1490.663484631831
 20
912.2080672202586
 30
0.0
 10
1494.672165062791
 20
919.0503390120628
 30
0.0
 10
1498.408560539576
 20
926.067044455368
 30
0.0
 10
1501.866539634261
 20
933.2516706304747
 30
0.0
 10
1505.039987685447
 20
940.5977030199504
 30
0.0
 10
1507.92271963997
 20
948.0986277375891
 30
0.0
 10
1510.508808148942
 20
955.7479217864326
 30
0.0
 10
1512.791350886229
 20
963.5390883562303
 30
0.0
 10
1514.767111183616
 20
971.465522793844
 30
0.0
 10
1516.419036019477
 20
979.5210165539995
 30
0.0
 10
1517.782188552412
 20
987.6978558498827
 30
0.0
 10
1518.694830948581
 20
995.9939994285344
 30
0.0
 10
1519.389918665998
 20
1001.579328902786
 30
0.0
 10
1519.389021276573
 20
1004.422169806129
 30
0.0
 10
1519.389023452178
 20
1004.456629860105
 30
0.0
 10
1519.38902453998
 20
1004.473859887092
 30
0.0
 11
1519.38902453998
 21
1004.473859887092
 31
0.0
 11
1519.221841470614
 21
1005.714793984583
 31
0.0
 11
1518.724485717224
 21
1006.943246716878
 31
0.0
 11
1517.903247461876
 21
1008.158298593906
 31
0.0
 11
1516.764416886632
 21
1009.359030125598
 31
0.0
 11
1515.314284173557
 21
1010.544521821886
 31
0.0
 11
1513.559139504714
 21
1011.713854192701
 31
0.0
 11
1511.505273062167
 21
1012.866107747972
 31
0.0
 11
1509.158975027981
 21
1014.000362997631
 31
0.0
 11
1506.526535584218
 21
1015.115700451608
 31
0.0
 11
1503.614244912945
 21
1016.211200619836
 31
0.0
 11
1500.428393196222
 21
1017.285944012243
 31
0.0
 11
1496.975270616116
 21
1018.339011138761
 31
0.0
 11
1493.261167354689
 21
1019.369482509321
 31
0.0
 11
1489.292373594007
 21
1020.376438633854
 31
0.0
 11
1485.075179516132
 21
1021.35896002229
 31
0.0
 11
1480.615875303128
 21
1022.31612718456
 31
0.0
 11
1475.92075113706
 21
1023.247020630595
 31
0.0
 11
1470.996097199991
 21
1024.150720870327
 31
0.0
 11
1465.848203673985
 21
1025.026308413685
 31
0.0
 11
1460.483360741106
 21
1025.8728637706
 31
0.0
 11
1454.907858583418
 21
1026.689467451004
 31
0.0
 11
1449.127987382985
 21
1027.475199964826
 31
0.0
 11
1443.150037321871
 21
1028.229141821999
 31
0.0
 11
1436.98029858214
 21
1028.950373532452
 31
0.0
 11
1430.625061345855
 21
1029.637975606117
 31
0.0
 11
1424.090615795081
 21
1030.291028552923
 31
0.0
 11
1417.383252111881
 21
1030.908612882803
 31
0.0
 11
1410.50926047832
 21
1031.489809105687
 31
0.0
 11
1403.474931076461
 21
1032.033697731506
 31
0.0
 11
1396.286554088367
 21
1032.53935927019
 31
0.0
 11
1388.950419696104
 21
1033.00587423167
 31
0.0
 11
1381.472818081735
 21
1033.432323125878
 31
0.0
 11
1373.860039427324
 21
1033.817786462743
 31
0.0
 11
1366.118373914934
 21
1034.161344752197
 31
0.0
 11
1358.25411172663
 21
1034.462078504171
 31
0.0
 11
1350.273543044476
 21
1034.719068228595
 31
0.0
 11
1342.182958050535
 21
1034.931394435399
 31
0.0
 11
1333.988646926871
 21
1035.098137634516
 31
0.0
 11
1325.696899855549
 21
1035.218378335876
 31
0.0
 11
1317.314007018631
 21
1035.291197049409
 31
0.0
 11
1308.846258598183
 21
1035.315674285047
 31
0.0
 11
1300.379110171255
 21
1035.29119704941
 31
0.0
 11
1291.996758078497
 21
1035.218378335876
 31
0.0
 11
1283.705494751951
 21
1035.098137634516
 31
0.0
 11
1275.511612623653
 21
1034.931394435399
 31
0.0
 11
1267.421404125646
 21
1034.719068228595
 31
0.0
 11
1259.441161689968
 21
1034.462078504171
 31
0.0
 11
1251.577177748659
 21
1034.161344752197
 31
0.0
 11
1243.835744733758
 21
1033.817786462743
 31
0.0
 11
1236.223155077306
 21
1033.432323125878
 31
0.0
 11
1228.745701211341
 21
1033.00587423167
 31
0.0
 11
1221.409675567903
 21
1032.53935927019
 31
0.0
 11
1214.221370579032
 21
1032.033697731506
 31
0.0
 11
1207.187078676768
 21
1031.489809105687
 31
0.0
 11
1200.31309229315
 21
1030.908612882803
 31
0.0
 11
1193.605703860217
 21
1030.291028552923
 31
0.0
 11
1187.07120581001
 21
1029.637975606117
 31
0.0
 11
1180.715890574568
 21
1028.950373532452
 31
0.0
 11
1174.54605058593
 21
1028.229141821999
 31
0.0
 11
1168.567978276136
 21
1027.475199964826
 31
0.0
 11
1162.787966077226
 21
1026.689467451004
 31
0.0
 11
1157.212306421239
 21
1025.8728637706
 31
0.0
 11
1151.847291740216
 21
1025.026308413685
 31
0.0
 11
1146.699214466194
 21
1024.150720870327
 31
0.0
 11
1141.774367031215
 21
1023.247020630595
 31
0.0
 11
1137.079041867318
 21
1022.31612718456
 31
0.0
 11
1132.619531406541
 21
1021.35896002229
 31
0.0
 11
1128.402128080926
 21
1020.376438633854
 31
0.0
 11
1124.433124322511
 21
1019.369482509321
 31
0.0
 11
1120.718812563337
 21
1018.339011138761
 31
0.0
 11
1117.265485235442
 21
1017.285944012243
 31
0.0
 11
1114.079434770867
 21
1016.211200619836
 31
0.0
 11
1111.16695360165
 21
1015.115700451608
 31
0.0
 11
1108.534334159832
 21
1014.000362997631
 31
0.0
 11
1106.187868877452
 21
1012.866107747972
 31
0.0
 11
1104.133850186549
 21
1011.713854192701
 31
0.0
 11
1102.378570519164
 21
1010.544521821886
 31
0.0
 11
1100.928322307336
 21
1009.359030125598
 31
0.0
 11
1099.789397983105
 21
1008.158298593906
 31
0.0
 11
1098.96808997851
 21
1006.943246716878
 31
0.0
 11
1098.47069072559
 21
1005.714793984583
 31
0.0
 11
1098.303492656386
 21
1004.473859887092
 31
0.0
 11
1098.303492656386
 21
1004.422169695363
 31
0.0
 11
1098.303492656386
 21
1004.370479503635
 31
0.0
 11
1098.979038755026
 21
995.9726423678288
 31
0.0
 11
1099.988024188588
 21
987.683920945375
 31
0.0
 11
1101.324335520243
 21
979.5108322703906
 31
0.0
 11
1102.981859313162
 21
971.4598933769936
 31
0.0
 11
1104.954482130517
 21
963.5376212993023
 31
0.0
 11
1107.236090535478
 21
955.7505330714339
 31
0.0
 11
1109.820571091217
 21
948.1051457275064
 31
0.0
 11
1112.701810360904
 21
940.6079763016379
 31
0.0
 11
1115.873694907712
 21
933.2655418279458
 31
0.0
 11
1119.33011129481
 21
926.0843593405482
 31
0.0
 11
1123.06494608537
 21
919.0709458735628
 31
0.0
 11
1127.072085842563
 21
912.2318184611072
 31
0.0
 11
1131.34541712956
 21
905.5734941372996
 31
0.0
 11
1135.878826509532
 21
899.1024899362575
 31
0.0
 11
1140.666200545651
 21
892.8253228920989
 31
0.0
 11
1145.701425801087
 21
886.7485100389416
 31
0.0
 11
1150.978388839012
 21
880.8785684109032
 31
0.0
 11
1156.490976222597
 21
875.2220150421019
 31
0.0
 11
1162.233074515012
 21
869.7853669666552
 31
0.0
 11
1168.198570279429
 21
864.575141218681
 31
0.0
 11
1174.381350079019
 21
859.5978548322969
 31
0.0
 11
1180.775300476953
 21
854.860024841621
 31
0.0
 11
1187.374308036403
 21
850.368168280771
 31
0.0
 11
1189.515545344535
 21
848.9739019648663
 31
0.0
 11
1191.352744863127
 21
847.7756213467541
 31
0.0
 11
1192.912316814047
 21
846.7530572404651
 31
0.0
 11
1194.220671419161
 21
845.8859404600298
 31
0.0
 11
1195.304218900337
 21
845.1540018194791
 31
0.0
 11
1196.189369479442
 21
844.5369721328434
 31
0.0
 11
1196.902533378342
 21
844.0145822141537
 31
0.0
 11
1197.470120818905
 21
843.5665628774406
 31
0.0
 11
1197.918542022998
 21
843.1726449367347
 31
0.0
 11
1198.274207212488
 21
842.8125592060669
 31
0.0
 11
1198.563526609242
 21
842.4660364994678
 31
0.0
 11
1198.812910435126
 21
842.1128076309678
 31
0.0
 11
1199.04876891201
 21
841.732603414598
 31
0.0
 11
1199.297512261758
 21
841.305154664389
 31
0.0
 11
1199.63357604328
 21
840.7512770299551
 31
0.0
 11
1199.946327548333
 21
840.3022271043465
 31
0.0
 11
1200.270347515183
 21
839.9470465669166
 31
0.0
 11
1200.640216682096
 21
839.6747770970193
 31
0.0
 11
1201.090515787338
 21
839.4744603740076
 31
0.0
 11
1201.655825569176
 21
839.3351380772359
 31
0.0
 11
1202.370726765876
 21
839.245851886057
 31
0.0
 11
1203.269800115704
 21
839.1956434798249
 31
0.0
 11
1204.387626356927
 21
839.1735545378929
 31
0.0
 11
1205.758786227811
 21
839.1686267396149
 31
0.0
 11
1205.919420842612
 21
839.1686267396149
 31
0.0
 11
1206.388076471361
 21
839.1686267396148
 31
0.0
 11
1207.144880790578
 21
839.1686267396148
 31
0.0
 11
1208.169961476782
 21
839.1686267396149
 31
0.0
 11
1209.443446206493
 21
839.1686267396149
 31
0.0
 11
1210.945462656229
 21
839.1686267396149
 31
0.0
 11
1212.656138502511
 21
839.1686267396148
 31
0.0
 11
1214.555601421859
 21
839.1686267396148
 31
0.0
 11
1216.623979090791
 21
839.1686267396148
 31
0.0
 11
1218.841399185827
 21
839.1686267396148
 31
0.0
 11
1221.187989383486
 21
839.168626739615
 31
0.0
 11
1223.643877360288
 21
839.168626739615
 31
0.0
 11
1226.189190792752
 21
839.1686267396149
 31
0.0
 11
1228.804057357399
 21
839.1686267396149
 31
0.0
 11
1231.468604730746
 21
839.1686267396149
 31
0.0
 11
1234.162960589315
 21
839.168626739615
 31
0.0
 11
1236.867252609623
 21
839.1686267396149
 31
0.0
 11
1239.561608468192
 21
839.1686267396149
 31
0.0
 11
1242.22615584154
 21
839.1686267396149
 31
0.0
 11
1244.841022406186
 21
839.1686267396149
 31
0.0
 11
1247.38633583865
 21
839.1686267396149
 31
0.0
 11
1249.842223815453
 21
839.1686267396149
 31
0.0
 11
1252.188814013112
 21
839.1686267396149
 31
0.0
 11
1254.406234108148
 21
839.1686267396149
 31
0.0
 11
1256.474611777079
 21
839.1686267396149
 31
0.0
 11
1258.374074696427
 21
839.1686267396149
 31
0.0
 11
1260.084750542709
 21
839.1686267396149
 31
0.0
 11
1261.586766992446
 21
839.1686267396149
 31
0.0
 11
1262.860251722156
 21
839.1686267396149
 31
0.0
 11
1263.88533240836
 21
839.1686267396149
 31
0.0
 11
1264.642136727577
 21
839.1686267396149
 31
0.0
 11
1265.110792356326
 21
839.1686267396149
 31
0.0
 11
1265.271426971127
 21
839.1686267396149
 31
0.0
 11
1265.305889591721
 21
839.0041658793099
 31
0.0
 11
1265.405338868294
 21
838.5295788252874
 31
0.0
 11
1265.563866923028
 21
837.7730588678847
 31
0.0
 11
1265.775565878108
 21
836.7627992974403
 31
0.0
 11
1266.034527855717
 21
835.5269934042922
 31
0.0
 11
1266.33484497804
 21
834.093834478778
 31
0.0
 11
1266.67060936726
 21
832.4915158112359
 31
0.0
 11
1267.03591314556
 21
830.7482306920041
 31
0.0
 11
1267.424848435126
 21
828.8921724114204
 31
0.0
 11
1267.831507358139
 21
826.9515342598224
 31
0.0
 11
1268.249982036786
 21
824.9545095275488
 31
0.0
 11
1268.674364593248
 21
822.9292915049369
 31
0.0
 11
1269.09874714971
 21
820.9040734823253
 31
0.0
 11
1269.517221828357
 21
818.9070487500514
 31
0.0
 11
1269.923880751371
 21
816.9664105984537
 31
0.0
 11
1270.312816040936
 21
815.1103523178697
 31
0.0
 11
1270.678119819236
 21
813.3670671986379
 31
0.0
 11
1271.013884208456
 21
811.7647485310959
 31
0.0
 11
1271.314201330779
 21
810.3315896055817
 31
0.0
 11
1271.573163308388
 21
809.0957837124336
 31
0.0
 11
1271.784862263468
 21
808.0855241419893
 31
0.0
 11
1271.943390318202
 21
807.3290041845867
 31
0.0
 11
1272.042839594775
 21
806.8544171305639
 31
0.0
 11
1272.077302215369
 21
806.689956270259
 31
0.0
 11
1272.236294061358
 21
806.6899562702589
 31
0.0
 11
1272.696533615535
 21
806.6899562702589
 31
0.0
 11
1273.432916902218
 21
806.689956270259
 31
0.0
 11
1274.420339945726
 21
806.689956270259
 31
0.0
 11
1275.633698770375
 21
806.689956270259
 31
0.0
 11
1277.047889400483
 21
806.6899562702589
 31
0.0
 11
1278.637807860368
 21
806.6899562702589
 31
0.0
 11
1280.378350174347
 21
806.689956270259
 31
0.0
 11
1282.244412366739
 21
806.6899562702589
 31
0.0
 11
1284.21089046186
 21
806.689956270259
 31
0.0
 11
1286.252680484028
 21
806.689956270259
 31
0.0
 11
1288.344678457561
 21
806.689956270259
 31
0.0
 11
1290.461780406776
 21
806.689956270259
 31
0.0
 11
1292.578882355991
 21
806.689956270259
 31
0.0
 11
1294.670880329524
 21
806.689956270259
 31
0.0
 11
1296.712670351692
 21
806.689956270259
 31
0.0
 11
1298.679148446813
 21
806.689956270259
 31
0.0
 11
1300.545210639205
 21
806.689956270259
 31
0.0
 11
1302.285752953184
 21
806.689956270259
 31
0.0
 11
1303.875671413069
 21
806.689956270259
 31
0.0
 11
1305.289862043177
 21
806.689956270259
 31
0.0
 11
1306.503220867826
 21
806.6899562702589
 31
0.0
 11
1307.490643911334
 21
806.689956270259
 31
0.0
 11
1308.227027198017
 21
806.689956270259
 31
0.0
 11
1308.687266752195
 21
806.689956270259
 31
0.0
 11
1308.846258598183
 21
806.689956270259
 31
0.0
 11
1309.005175940026
 21
806.6899562702589
 31
0.0
 11
1309.465199824309
 21
806.6899562702589
 31
0.0
 11
1310.201238039163
 21
806.689956270259
 31
0.0
 11
1311.188198372715
 21
806.689956270259
 31
0.0
 11
1312.400988613097
 21
806.689956270259
 31
0.0
 11
1313.81451654844
 21
806.6899562702589
 31
0.0
 11
1315.403689966872
 21
806.6899562702589
 31
0.0
 11
1317.143416656525
 21
806.689956270259
 31
0.0
 11
1319.008604405527
 21
806.6899562702589
 31
0.0
 11
1320.974161002009
 21
806.689956270259
 31
0.0
 11
1323.014994234102
 21
806.689956270259
 31
0.0
 11
1325.106011889934
 21
806.689956270259
 31
0.0
 11
1327.222121757636
 21
806.689956270259
 31
0.0
 11
1329.338231625338
 21
806.689956270259
 31
0.0
 11
1331.42924928117
 21
806.689956270259
 31
0.0
 11
1333.470082513262
 21
806.689956270259
 31
0.0
 11
1335.435639109744
 21
806.689956270259
 31
0.0
 11
1337.300826858746
 21
806.689956270259
 31
0.0
 11
1339.040553548399
 21
806.689956270259
 31
0.0
 11
1340.629726966831
 21
806.689956270259
 31
0.0
 11
1342.043254902173
 21
806.689956270259
 31
0.0
 11
1343.256045142556
 21
806.6899562702589
 31
0.0
 11
1344.243005476109
 21
806.689956270259
 31
0.0
 11
1344.979043690962
 21
806.689956270259
 31
0.0
 11
1345.439067575245
 21
806.689956270259
 31
0.0
 11
1345.597984917088
 21
806.689956270259
 31
0.0
 11
1345.632578408393
 21
806.8544171305639
 31
0.0
 11
1345.732405340447
 21
807.3290041845867
 31
0.0
 11
1345.891535400452
 21
808.0855241419893
 31
0.0
 11
1346.104038275614
 21
809.0957837124336
 31
0.0
 11
1346.363983653139
 21
810.3315896055817
 31
0.0
 11
1346.66544122023
 21
811.7647485310959
 31
0.0
 11
1347.002480664092
 21
813.3670671986379
 31
0.0
 11
1347.36917167193
 21
815.1103523178699
 31
0.0
 11
1347.759583930949
 21
816.9664105984538
 31
0.0
 11
1348.167787128354
 21
818.9070487500514
 31
0.0
 11
1348.58785095135
 21
820.9040734823252
 31
0.0
 11
1349.013845087141
 21
822.9292915049368
 31
0.0
 11
1349.439839222931
 21
824.9545095275487
 31
0.0
 11
1349.859903045927
 21
826.9515342598224
 31
0.0
 11
1350.268106243332
 21
828.8921724114202
 31
0.0
 11
1350.658518502351
 21
830.7482306920041
 31
0.0
 11
1351.025209510189
 21
832.491515811236
 31
0.0
 11
1351.362248954052
 21
834.093834478778
 31
0.0
 11
1351.663706521143
 21
835.5269934042922
 31
0.0
 11
1351.923651898667
 21
836.7627992974403
 31
0.0
 11
1352.136154773829
 21
837.7730588678847
 31
0.0
 11
1352.295284833835
 21
838.5295788252872
 31
0.0
 11
1352.395111765888
 21
839.00416587931
 31
0.0
 11
1352.429705257193
 21
839.1686267396149
 31
0.0
 11
1352.590339871994
 21
839.1686267396148
 31
0.0
 11
1353.058995500743
 21
839.1686267396148
 31
0.0
 11
1353.81579981996
 21
839.1686267396148
 31
0.0
 11
1354.840880506164
 21
839.1686267396149
 31
0.0
 11
1356.114365235875
 21
839.1686267396148
 31
0.0
 11
1357.616381685612
 21
839.1686267396149
 31
0.0
 11
1359.327057531894
 21
839.1686267396149
 31
0.0
 11
1361.226520451241
 21
839.1686267396148
 31
0.0
 11
1363.294898120173
 21
839.1686267396148
 31
0.0
 11
1365.512318215209
 21
839.1686267396148
 31
0.0
 11
1367.858908412868
 21
839.168626739615
 31
0.0
 11
1370.31479638967
 21
839.168626739615
 31
0.0
 11
1372.860109822135
 21
839.1686267396149
 31
0.0
 11
1375.474976386781
 21
839.1686267396149
 31
0.0
 11
1378.139523760129
 21
839.1686267396149
 31
0.0
 11
1380.833879618698
 21
839.168626739615
 31
0.0
 11
1383.538171639007
 21
839.1686267396149
 31
0.0
 11
1386.232527497575
 21
839.1686267396149
 31
0.0
 11
1388.897074870923
 21
839.1686267396149
 31
0.0
 11
1391.511941435569
 21
839.1686267396149
 31
0.0
 11
1394.057254868034
 21
839.1686267396149
 31
0.0
 11
1396.513142844836
 21
839.1686267396149
 31
0.0
 11
1398.859733042495
 21
839.1686267396149
 31
0.0
 11
1401.077153137531
 21
839.1686267396149
 31
0.0
 11
1403.145530806463
 21
839.1686267396149
 31
0.0
 11
1405.04499372581
 21
839.1686267396149
 31
0.0
 11
1406.755669572093
 21
839.1686267396149
 31
0.0
 11
1408.257686021829
 21
839.1686267396149
 31
0.0
 11
1409.53117075154
 21
839.1686267396149
 31
0.0
 11
1410.556251437744
 21
839.168626739615
 31
0.0
 11
1411.313055756961
 21
839.1686267396149
 31
0.0
 11
1411.78171138571
 21
839.1686267396149
 31
0.0
 11
1411.942346000511
 21
839.1686267396149
 31
0.0
 11
1413.309069129938
 21
839.173554537893
 31
0.0
 11
1414.423750884498
 21
839.1956434798249
 31
0.0
 11
1415.320713551497
 21
839.245851886057
 31
0.0
 11
1416.034279418244
 21
839.3351380772359
 31
0.0
 11
1416.598770772046
 21
839.4744603740078
 31
0.0
 11
1417.048509900211
 21
839.6747770970193
 31
0.0
 11
1417.417819090046
 21
839.9470465669166
 31
0.0
 11
1417.74102062886
 21
840.3022271043465
 31
0.0
 11
1418.05243680396
 21
840.7512770299551
 31
0.0
 11
1418.386389902653
 21
841.305154664389
 31
0.0
 11
1418.640037290271
 21
841.732603414598
 31
0.0
 11
1418.879631877951
 21
842.1128076309677
 31
0.0
 11
1419.131734587827
 21
842.4660364994677
 31
0.0
 11
1419.422906342035
 21
842.8125592060668
 31
0.0
 11
1419.779708062709
 21
843.1726449367349
 31
0.0
 11
1420.228700671982
 21
843.5665628774407
 31
0.0
 11
1420.796445091991
 21
844.0145822141537
 31
0.0
 11
1421.509502244868
 21
844.5369721328435
 31
0.0
 11
1422.394433052749
 21
845.1540018194791
 31
0.0
 11
1423.477798437768
 21
845.8859404600297
 31
0.0
 11
1424.786159322061
 21
846.7530572404651
 31
0.0
 11
1426.346076627759
 21
847.7756213467541
 31
0.0
 11
1428.184111277
 21
848.9739019648664
 31
0.0
 11
1430.326824191917
 21
850.368168280771
 31
0.0
 11
1436.923681356688
 21
854.8600248416209
 31
0.0
 11
1443.315672537608
 21
859.5978548322969
 31
0.0
 11
1449.496680049455
 21
864.5751412186808
 31
0.0
 11
1455.460586207006
 21
869.7853669666554
 31
0.0
 11
1461.201273325041
 21
875.2220150421018
 31
0.0
 11
1466.712623718339
 21
880.8785684109034
 31
0.0
 11
1471.988519701677
 21
886.7485100389418
 31
0.0
 11
1477.022843589834
 21
892.8253228920989
 31
0.0
 11
1481.80947769759
 21
899.1024899362575
 31
0.0
 11
1486.342304339723
 21
905.5734941372997
 31
0.0
 11
1490.615205831011
 21
912.2318184611072
 31
0.0
 11
1494.622064486232
 21
919.0709458735628
 31
0.0
 11
1498.356762620166
 21
926.084359340548
 31
0.0
 11
1501.813182547592
 21
933.265541827946
 31
0.0
 11
1504.985206583286
 21
940.607976301638
 31
0.0
 11
1507.866717042029
 21
948.1051457275064
 31
0.0
 11
1510.451596238599
 21
955.7505330714339
 31
0.0
 11
1512.733726487774
 21
963.5376212993022
 31
0.0
 11
1514.706990104333
 21
971.4598933769937
 31
0.0
 11
1516.365269403054
 21
979.5108322703907
 31
0.0
 11
1517.702446698717
 21
987.6839209453749
 31
0.0
 11
1518.712404306099
 21
995.9726423678292
 31
0.0
 11
1519.38902453998
 21
1004.370479503635
 31
0.0
 11
1519.38902453998
 21
1004.422169695363
 31
0.0
 11
1519.38902453998
 21
1004.473859887092
 31
0.0
  0
SPLINE
  5
AC
330
1F
100
AcDbEntity
  8
___C_____1
  6
Continuous
 62
     7
100
AcDbSpline
210
0.0
220
0.0
230
1.0
 70
     8
 71
     3
 72
    13
 73
     9
 74
     7
 42
0.0000000001
 43
0.0000000001
 44
0.00000001
 40
0.0
 40
0.0
 40
0.0
 40
0.0
 40
2.424104911873823
 40
5.150414178312258
 40
12.9133685744607
 40
21.21830657593006
 40
26.97639308458263
 40
33.72247264758651
 40
33.72247264758651
 40
33.72247264758651
 40
33.72247264758651
 10
628.9076177331493
 20
839.6682474504403
 30
0.0
 10
629.1426398785645
 20
838.8943640208942
 30
0.0
 10
629.64198352662
 20
837.250119925529
 30
0.0
 10
630.4633548532377
 20
833.0270945844798
 30
0.0
 10
631.6878666658035
 20
826.8099952168064
 30
0.0
 10
632.2903690519997
 20
819.8269945656216
 30
0.0
 10
634.572063816866
 20
812.3535528182342
 30
0.0
 10
639.164517747551
 20
811.9655773639001
 30
0.0
 10
641.6421767476227
 20
811.7562620630292
 30
0.0
 11
628.9076177331493
 21
839.6682474504403
 31
0.0
 11
629.574638736536
 21
837.3377179816689
 31
0.0
 11
630.144089111084
 21
834.6715431023342
 31
0.0
 11
631.5117254338989
 21
827.0300097584825
 31
0.0
 11
632.7630588253251
 21
818.8198843056193
 31
0.0
 11
635.1468400170063
 21
813.5784009782287
 31
0.0
 11
641.6421767476227
 21
811.7562620630292
 31
0.0
  0
SPLINE
  5
AD
330
1F
100
AcDbEntity
  8
___C_____1
  6
Continuous
 62
     7
100
AcDbSpline
210
0.0
220
0.0
230
1.0
 70
     8
 71
     3
 72
     9
 73
     5
 74
     3
 42
0.0000000001
 43
0.0000000001
 44
0.00000001
 40
0.0
 40
0.0
 40
0.0
 40
0.0
 40
2.957755726417353
 40
6.260170798034137
 40
6.260170798034137
 40
6.260170798034137
 40
6.260170798034137
 10
1098.296344473513
 20
1004.370479503541
 30
0.0
 10
1098.556589979515
 20
1003.398666620237
 30
0.0
 10
1099.107406702628
 20
1001.34179810372
 30
0.0
 10
1100.669636322766
 20
999.8861359423565
 30
0.0
 10
1101.493756112675
 20
999.1182334655773
 30
0.0
 11
1098.296344473513
 21
1004.370479503541
 31
0.0
 11
1099.302858528112
 21
1001.58924805056
 31
0.0
 11
1101.493756112675
 21
999.1182334655773
 31
0.0
  0
SPLINE
  5
AE
330
1F
100
AcDbEntity
  8
___C_____1
  6
Continuous
 62
     7
100
AcDbSpline
210
0.0
220
0.0
230
1.0
 70
     8
 71
     3
 72
    73
 73
    69
 74
    67
 42
0.0000000001
 43
0.0000000001
 44
0.00000001
 40
0.0
 40
0.0
 40
0.0
 40
0.0
 40
2.620468041496368
 40
4.883015163556019
 40
6.82942079406621
 40
8.502098291950251
 40
9.944361458328409
 40
11.2006732149445
 40
12.31669783140491
 40
13.33887083749037
 40
14.31329678695096
 40
15.28427024112003
 40
16.29324446500514
 40
17.79943581342382
 40
19.74265941941846
 40
22.09601204836552
 40
24.83238233254959
 40
27.92469092705575
 40
31.3459987649928
 40
35.06957372687563
 40
39.06894375682262
 40
43.31794735151846
 40
47.790786737853
 40
52.46208704984728
 40
57.30696414392326
 40
62.30110359855575
 40
67.42085365211881
 40
72.6433352318293
 40
77.94657277006627
 40
83.3096501641927
 40
88.71289697967038
 40
94.13811076527206
 40
99.56882203334888
 40
107.5014632951011
 40
115.3526045790244
 40
123.0991593620488
 40
130.7172040748414
 40
138.1821612299414
 40
145.4689770178748
 40
152.5523014669469
 40
159.4066811640465
 40
166.0067777188922
 40
172.327630394415
 40
178.3449899306813
 40
184.0357648261163
 40
189.3786451811133
 40
194.3550096197195
 40
194.5409757417806
 40
195.0718244902104
 40
195.9069814383763
 40
197.0058721596473
 40
198.3279222273922
 40
199.8325572149788
 40
201.4792026957759
 40
203.2272842431518
 40
205.036227430475
 40
206.865457831114
 40
208.6744010184373
 40
210.4224825658133
 40
212.0691280466103
 40
213.5737630341969
 40
214.8958131019416
 40
215.9947038232126
 40
216.8298607713788
 40
217.3607095198082
 40
217.5466756418695
 40
217.7047360286433
 40
217.859962195379
 40
217.859962195379
 40
217.859962195379
 40
217.859962195379
 10
559.3974464036536
 20
839.6682475459367
 30
0.0
 10
558.9573097555689
 20
840.4227588349513
 30
0.0
 10
558.1371532443654
 20
841.8287252527787
 30
0.0
 10
556.9534574045947
 20
843.7734456487364
 30
0.0
 10
555.8974798385056
 20
845.4255594315339
 30
0.0
 10
554.9441752548262
 20
846.8179866884505
 30
0.0
 10
554.0701568300526
 20
847.9845288147313
 30
0.0
 10
553.2516053338029
 20
848.9586755299556
 30
0.0
 10
552.4642774640857
 20
849.7727067456347
 30
0.0
 10
551.6860789403315
 20
850.4609057437731
 30
0.0
 10
550.8901581488886
 20
851.0497014577218
 30
0.0
 10
550.0704232991457
 20
851.5957337041629
 30
0.0
 10
549.0162591102346
 20
852.1074448809005
 30
0.0
 10
547.9766557178068
 20
853.1963708315639
 30
0.0
 10
546.4672602886069
 20
854.4003384063025
 30
0.0
 10
544.6845712075067
 20
855.9251913916521
 30
0.0
 10
542.5958371039553
 20
857.6781566802475
 30
0.0
 10
540.2500657124132
 20
859.6795258495693
 30
0.0
 10
537.6684601546778
 20
861.9110347705813
 30
0.0
 10
534.8813941727789
 20
864.3671015341361
 30
0.0
 10
531.9163906229626
 20
867.0381922770043
 30
0.0
 10
528.8018678956073
 20
869.9160157263265
 30
0.0
 10
525.5659841464508
 20
872.9919265172769
 30
0.0
 10
522.2369767850468
 20
876.257398387181
 30
0.0
 10
518.8430590615399
 20
879.7038832275464
 30
0.0
 10
515.4124452147788
 20
883.3228504886993
 30
0.0
 10
511.9733496523045
 20
887.1057821063437
 30
0.0
 10
508.5539536939813
 20
891.0441566483297
 30
0.0
 10
505.1825378652358
 20
895.1295327086308
 30
0.0
 10
501.8869739289744
 20
899.3532429288596
 30
0.0
 10
498.6966538481411
 20
903.7075750133159
 30
0.0
 10
495.6352263449908
 20
908.1813447744796
 30
0.0
 10
492.3024822316915
 20
913.4853464356519
 30
0.0
 10
488.7558118065455
 20
919.6049141757321
 30
0.0
 10
485.036322744851
 20
926.5117702470067
 30
0.0
 10
481.5946241308507
 20
933.4444730827679
 30
0.0
 10
478.4297997858265
 20
940.3663991292065
 30
0.0
 10
475.5470655674989
 20
947.244617616811
 30
0.0
 10
472.9500222260331
 20
954.0452331319082
 30
0.0
 10
470.6426735758499
 20
960.7346104533809
 30
0.0
 10
468.6288970453954
 20
967.2790665368293
 30
0.0
 10
466.9125567042536
 20
973.6449608277392
 30
0.0
 10
465.4975143375493
 20
979.7987071287375
 30
0.0
 10
464.3874371473003
 20
985.7067585476743
 30
0.0
 10
463.5864521559245
 20
991.3358255166424
 30
0.0
 10
463.0968719809875
 20
996.6523620290707
 30
0.0
 10
462.9771737097481
 20
1000.154677430386
 30
0.0
 10
462.9780745120704
 20
1002.052399513721
 30
0.0
 10
462.9779700310053
 20
1002.569723958167
 30
0.0
 10
462.9780256602862
 20
1003.391355828633
 30
0.0
 10
462.9780030184292
 20
1004.476721850441
 30
0.0
 10
462.9780110671036
 20
1005.785247070415
 30
0.0
 10
462.9780084366446
 20
1007.276357261836
 30
0.0
 10
462.9780092467024
 20
1008.90947792984
 30
0.0
 10
462.9780090089909
 20
1010.644034669492
 30
0.0
 10
462.9780090739992
 20
1012.439453047607
 30
0.0
 10
462.9780090648255
 20
1014.255158639477
 30
0.0
 10
462.9780090357999
 20
1016.05057701783
 30
0.0
 10
462.9780091543297
 20
1017.785133756579
 30
0.0
 10
462.978008747469
 20
1019.418254427667
 30
0.0
 10
462.9780100693363
 20
1020.909364609074
 30
0.0
 10
462.9780060245364
 20
1022.217889859688
 30
0.0
 10
462.9780174030595
 20
1023.3032557953
 30
0.0
 10
462.9779894469078
 20
1024.124887877544
 30
0.0
 10
462.9780419532231
 20
1024.642211924236
 30
0.0
 10
462.9779723875935
 20
1024.933836868042
 30
0.0
 10
462.9781258476382
 20
1025.100254739701
 30
0.0
 10
462.9787039629608
 20
1025.204682126566
 30
0.0
 10
462.9789904055944
 20
1025.256423456616
 30
0.0
 11
559.3974464036536
 21
839.6682475459367
 31
0.0
 11
558.0694961100191
 21
841.9273183226367
 31
0.0
 11
556.8911035694248
 21
843.8587712730893
 31
0.0
 11
555.8391109279345
 21
845.496393439748
 31
0.0
 11
554.8903603316115
 21
846.873971865067
 31
0.0
 11
554.0216939265197
 21
848.0252935914997
 31
0.0
 11
553.2099538587221
 21
848.9841456615
 31
0.0
 11
552.431982274283
 21
849.7843151175222
 31
0.0
 11
551.6646213192651
 21
850.4595890020192
 31
0.0
 11
550.8847131397326
 21
851.0437543574458
 31
0.0
 11
550.0690998817488
 21
851.5705982262551
 31
0.0
 11
549.1946236913771
 21
852.0739076509011
 31
0.0
 11
548.0608463798999
 21
853.0654525999735
 31
0.0
 11
546.5797769516759
 21
854.323447564858
 31
0.0
 11
544.7796919104601
 21
855.8393507413714
 31
0.0
 11
542.6888677600078
 21
857.6046203253305
 31
0.0
 11
540.3355810040745
 21
859.6107145125524
 31
0.0
 11
537.7481081464148
 21
861.8490914988538
 31
0.0
 11
534.9547256907846
 21
864.3112094800517
 31
0.0
 11
531.9837101409386
 21
866.9885266519631
 31
0.0
 11
528.8633380006321
 21
869.8725012104045
 31
0.0
 11
525.6218857736203
 21
872.954591351193
 31
0.0
 11
522.2876299636588
 21
876.2262552701455
 31
0.0
 11
518.8888470745022
 21
879.6789511630789
 31
0.0
 11
515.4538136099059
 21
883.30413722581
 31
0.0
 11
512.0108060736254
 21
887.0932716541557
 31
0.0
 11
508.5881009694157
 21
891.0378126439329
 31
0.0
 11
505.2139748010319
 21
895.1292183909584
 31
0.0
 11
501.9167040722294
 21
899.3589470910492
 31
0.0
 11
498.7245652867632
 21
903.7184569400222
 31
0.0
 11
495.6658349483887
 21
908.1992061336939
 31
0.0
 11
492.768789560861
 21
912.7926528678818
 31
0.0
 11
488.7785039256106
 21
919.6486296718658
 31
0.0
 11
485.058612245196
 21
926.5625884037435
 31
0.0
 11
481.6131457517711
 21
933.5007345285439
 31
0.0
 11
478.4461356774896
 21
940.4292735112955
 31
0.0
 11
475.5616132545052
 21
947.3144108170272
 31
0.0
 11
472.9636097149715
 21
954.1223519107681
 31
0.0
 11
470.6561562910425
 21
960.819302257547
 31
0.0
 11
468.643284214872
 21
967.3714673223926
 31
0.0
 11
466.9290247186135
 21
973.7450525703339
 31
0.0
 11
465.5174090344209
 21
979.9062634664001
 31
0.0
 11
464.4124683944479
 21
985.8213054756195
 31
0.0
 11
463.6182340308482
 21
991.456384063021
 31
0.0
 11
463.1387371757757
 21
996.7777046936341
 31
0.0
 11
462.978009061384
 21
1001.751472832487
 31
0.0
 11
462.978009061384
 21
1001.937438954548
 31
0.0
 11
462.9780090613841
 21
1002.468287702978
 31
0.0
 11
462.978009061384
 21
1003.303444651144
 31
0.0
 11
462.978009061384
 21
1004.402335372415
 31
0.0
 11
462.978009061384
 21
1005.72438544016
 31
0.0
 11
462.978009061384
 21
1007.229020427746
 31
0.0
 11
462.9780090613841
 21
1008.875665908543
 31
0.0
 11
462.978009061384
 21
1010.623747455919
 31
0.0
 11
462.978009061384
 21
1012.432690643243
 31
0.0
 11
462.9780090613841
 21
1014.261921043882
 31
0.0
 11
462.978009061384
 21
1016.070864231205
 31
0.0
 11
462.978009061384
 21
1017.818945778581
 31
0.0
 11
462.978009061384
 21
1019.465591259378
 31
0.0
 11
462.978009061384
 21
1020.970226246964
 31
0.0
 11
462.978009061384
 21
1022.292276314709
 31
0.0
 11
462.978009061384
 21
1023.39116703598
 31
0.0
 11
462.9780090613841
 21
1024.226323984146
 31
0.0
 11
462.978009061384
 21
1024.757172732576
 31
0.0
 11
462.978009061384
 21
1024.943138854637
 31
0.0
 11
462.9782493624784
 21
1025.101199058744
 31
0.0
 11
462.9789904055944
 21
1025.256423456616
 31
0.0
  0
SPLINE
  5
AF
330
1F
100
AcDbEntity
  8
___C_____1
  6
Continuous
 62
     7
100
AcDbSpline
210
0.0
220
0.0
230
1.0
 70
     8
 71
     3
 72
    53
 73
    49
 74
    47
 42
0.0000000001
 43
0.0000000001
 44
0.00000001
 40
0.0
 40
0.0
 40
0.0
 40
0.0
 40
0.0918375758845142
 40
0.1824436846513187
 40
3.05610568110034
 40
5.893233520943598
 40
8.723088993728194
 40
11.57503529415656
 40
14.47846774211715
 40
17.4627439080158
 40
20.55712313068138
 40
23.79072249018079
 40
27.19249210272119
 40
30.79120865883188
 40
34.61548347004423
 40
38.69378020998992
 40
42.0545022380954
 40
45.59067218186595
 40
49.27361940092847
 40
53.07398566766583
 40
56.9619279148508
 40
60.90725456187465
 40
64.87952053697494
 40
68.84809609422068
 40
72.78221895577238
 40
76.65103619640993
 40
80.42364064323023
 40
84.06910594318912
 40
87.55652476856172
 40
90.85505616752268
 40
93.93399171844295
 40
98.04944322349078
 40
102.1731040803269
 40
106.2809881300416
 40
110.3488980763585
 40
114.3524770677217
 40
118.2672530287833
 40
122.0686793495035
 40
125.7321755234145
 40
129.2331719882324
 40
132.5471651087587
 40
135.6497917663568
 40
138.5169402296258
 40
141.1249292632788
 40
143.2501794062236
 40
145.1913088407701
 40
146.9468395014852
 40
148.5167182110772
 40
148.5167182110772
 40
148.5167182110772
 40
148.5167182110772
 10
783.8177127827579
 20
851.2046106052379
 30
0.0
 10
783.8437175663354
 20
851.2207659478447
 30
0.0
 10
783.8953784305159
 20
851.2528600030678
 30
0.0
 10
784.7764470263259
 20
851.7643302309944
 30
0.0
 10
786.4523389364066
 20
852.7292289358352
 30
0.0
 10
788.8821640617023
 20
854.2133013452205
 30
0.0
 10
791.277800014122
 20
855.7382047469988
 30
0.0
 10
793.6591766690758
 20
857.3256241813843
 30
0.0
 10
796.0501895689464
 20
858.9902512347196
 30
0.0
 10
798.4737041832622
 20
860.7486206711759
 30
0.0
 10
800.9528819261619
 20
862.6167656881617
 30
0.0
 10
803.5109038350431
 20
864.6107680067091
 30
0.0
 10
806.1706677516348
 20
866.7470464571883
 30
0.0
 10
808.9563591564391
 20
869.0405488507598
 30
0.0
 10
811.8869100416545
 20
871.5123267545088
 30
0.0
 10
814.7487226140543
 20
873.942699007605
 30
0.0
 10
817.4796463426713
 20
876.3777785800162
 30
0.0
 10
820.0379299267523
 20
878.8058440241009
 30
0.0
 10
822.6441002734479
 20
881.3946384626722
 30
0.0
 10
825.2771242090771
 20
884.1216097982662
 30
0.0
 10
827.9195379805043
 20
886.9601052264411
 30
0.0
 10
830.5528735803864
 20
889.8845678925896
 30
0.0
 10
833.158951093126
 20
892.8690918032042
 30
0.0
 10
835.7195216409637
 20
895.8878355735415
 30
0.0
 10
838.2163659790529
 20
898.9149173047995
 30
0.0
 10
840.6312743518191
 20
901.9244447995155
 30
0.0
 10
842.9460395274392
 20
904.8905214070173
 30
0.0
 10
845.142521417614
 20
907.7872053448327
 30
0.0
 10
847.2024386119597
 20
910.5886623957947
 30
0.0
 10
849.1081386990962
 20
913.2686304561113
 30
0.0
 10
851.0820716342715
 20
916.1563176559815
 30
0.0
 10
853.1369822537788
 20
919.3206391712727
 30
0.0
 10
855.320571367547
 20
922.8094808235628
 30
0.0
 10
857.4326783049203
 20
926.3236445319474
 30
0.0
 10
859.4658346748324
 20
929.8378467732489
 30
0.0
 10
861.4098263474771
 20
933.3286505972644
 30
0.0
 10
863.2551812922737
 20
936.7721183065562
 30
0.0
 10
864.9922407168649
 20
940.1444381085321
 30
0.0
 10
866.6114425428693
 20
943.4217496512771
 30
0.0
 10
868.1031357666165
 20
946.580233492442
 30
0.0
 10
869.4580616710514
 20
949.5959446729398
 30
0.0
 10
870.6658178524094
 20
952.4453623976522
 30
0.0
 10
871.7201211234835
 20
955.1035761053865
 30
0.0
 10
872.5789405001899
 20
957.4874070879321
 30
0.0
 10
873.2833783340739
 20
959.5979489104415
 30
0.0
 10
873.8569841942436
 20
961.4518748697897
 30
0.0
 10
874.3302525668726
 20
963.1433122283402
 30
0.0
 10
874.5625352329469
 20
964.227404261654
 30
0.0
 10
874.6721925928298
 20
964.7391887708138
 30
0.0
 11
783.8177127827579
 21
851.2046106052379
 31
0.0
 11
783.8959646202683
 21
851.2526812851852
 31
0.0
 11
783.9740996948531
 21
851.298554774975
 31
0.0
 11
786.4565650254581
 21
852.7460695943048
 31
0.0
 11
788.879562704931
 21
854.2220020537631
 31
0.0
 11
791.2661858050395
 21
855.7425651648759
 31
0.0
 11
793.6395273975514
 21
857.323971939169
 31
0.0
 11
796.0226805542335
 21
858.9824353881684
 31
0.0
 11
798.4387383468541
 21
860.7341685233999
 31
0.0
 11
800.9107938471805
 21
862.5953843563893
 31
0.0
 11
803.4619401269799
 21
864.582295898663
 31
0.0
 11
806.1152702580206
 21
866.7111161617465
 31
0.0
 11
808.8938773120697
 21
868.9980581571662
 31
0.0
 11
811.8208543608945
 21
871.4593348964472
 31
0.0
 11
814.9192944762631
 21
874.1111593911162
 31
0.0
 11
817.4244947166596
 21
876.3513433803703
 31
0.0
 11
819.9932547483663
 21
878.7815634878364
 31
0.0
 11
822.6073489926704
 21
881.3759056973948
 31
0.0
 11
825.2485518708584
 21
884.1084559929259
 31
0.0
 11
827.8986378042177
 21
886.9533003583098
 31
0.0
 11
830.5393812140349
 21
889.8845247774261
 31
0.0
 11
833.1525565215969
 21
892.8762152341558
 31
0.0
 11
835.7199381481905
 21
895.9024577123782
 31
0.0
 11
838.2233005151028
 21
898.9373381959741
 31
0.0
 11
840.6444180436203
 21
901.9549426688234
 31
0.0
 11
842.9650651550303
 21
904.9293571148064
 31
0.0
 11
845.1670162706193
 21
907.834667517803
 31
0.0
 11
847.2320458116748
 21
910.6449598616939
 31
0.0
 11
849.1419281994829
 21
913.3343201303585
 31
0.0
 11
850.878437855331
 21
915.8768343076773
 31
0.0
 11
853.1258122631725
 21
919.3244783382262
 31
0.0
 11
855.3127677304769
 21
922.8204481101535
 31
0.0
 11
857.4296579310693
 21
926.340886611894
 31
0.0
 11
859.466836538773
 21
929.8619368318792
 31
0.0
 11
861.4146572274121
 21
933.3597417585431
 31
0.0
 11
863.2634736708108
 21
936.8104443803181
 31
0.0
 11
865.0036395427928
 21
940.1901876856377
 31
0.0
 11
866.6255085171825
 21
943.4751146629346
 31
0.0
 11
868.1194342678039
 21
946.6413683006424
 31
0.0
 11
869.4757704684805
 21
949.6650915871933
 31
0.0
 11
870.684870793037
 21
952.5224275110209
 31
0.0
 11
871.7370889152971
 21
955.1895190605582
 31
0.0
 11
872.622778509085
 21
957.642509224238
 31
0.0
 11
873.2950155406805
 21
959.6586405551385
 31
0.0
 11
873.8664411504859
 21
961.5137567924998
 31
0.0
 11
874.3283889605269
 21
963.2074191323742
 31
0.0
 11
874.6721925928298
 21
964.7391887708138
 31
0.0
  0
LWPOLYLINE
  5
B0
330
1F
100
AcDbEntity
  8
___C_____1
  6
Continuous
 62
     7
100
AcDbPolyline
 90
        3
 70
     0
 43
0.0
 10
1265.26281886376
 20
839.168648891779
 10
1308.863474943163
 20
839.168648891779
 10
1352.421069560015
 20
839.168648891779
  0
MTEXT
  5
B1
330
1F
100
AcDbEntity
  8
1
 62
     7
100
AcDbMText
 10
272.0
 20
295.6666666666667
 30
0.0
 40
28.0
 41
0.0
 71
     4
 72
     1
  1
シリーズ名：Bol(Roca)
  7
CONVERTER_1
 73
     1
 44
0.7202881152461
  0
MTEXT
  5
B2
330
1F
100
AcDbEntity
  8
1
 62
     7
100
AcDbMText
 10
272.0
 20
248.3333333333334
 30
0.0
 40
28.0
 41
0.0
 71
     4
 72
     1
  1
容量：4L・オーバーフロー付・水栓取付穴なし
  7
CONVERTER_1
 73
     1
 44
0.7202881152461
  0
MTEXT
  5
B3
330
1F
100
AcDbEntity
  8
1
 62
     7
100
AcDbMText
 10
456.0
 20
182.0000000000001
 30
0.0
 40
28.0
 41
0.0
 71
     5
 72
     1
  1
手洗器
  7
CONVERTER_1
 73
     1
 44
0.7202881152461
  0
MTEXT
  5
B5
330
1F
100
AcDbEntity
  8
1
 62
     7
100
AcDbMText
 10
456.0
 20
114.0
 30
0.0
 40
28.0
 41
0.0
 71
     5
 72
     1
  1
SR327876-W
  7
CONVERTER_2
 73
     1
 44
0.7202881152461
  0
MTEXT
  5
B6
330
1F
100
AcDbEntity
  8
1
 62
     7
100
AcDbMText
 10
1260.0
 20
152.0000000000001
 30
0.0
 40
40.0
 41
0.0
 71
     5
 72
     1
  1
板津
  7
CONVERTER_1
 73
     1
 44
0.7202881152461
  0
MTEXT
  5
B7
330
1F
100
AcDbEntity
  8
1
 62
     7
100
AcDbMText
 10
1124.0
 20
152.0000000000001
 30
0.0
 40
40.0
 41
0.0
 71
     5
 72
     1
  1
酒光
  7
CONVERTER_1
 73
     1
 44
0.7202881152461
  0
MTEXT
  5
B8
330
1F
100
AcDbEntity
  8
1
 62
     7
100
AcDbMText
 10
1124.0
 20
100.0
 30
0.0
 40
20.0
 41
0.0
 71
     5
 72
     1
  1
2
  7
CONVERTER_2
 73
     1
 44
0.7202881152461
  0
MTEXT
  5
B9
330
1F
100
AcDbEntity
  8
1
 62
     7
100
AcDbMText
 10
1170.0
 20
100.0
 30
0.0
 40
20.0
 41
0.0
 71
     5
 72
     1
  1
 9
  7
CONVERTER_2
 73
     1
 44
0.7202881152461
  0
MTEXT
  5
BA
330
1F
100
AcDbEntity
  8
1
 62
     7
100
AcDbMText
 10
1078.0
 20
100.0
 30
0.0
 40
20.0
 41
0.0
 71
     5
 72
     1
  1
11
  7
CONVERTER_2
 73
     1
 44
0.7202881152461
  0
MTEXT
  5
BB
330
1F
100
AcDbEntity
  8
1
 62
     7
100
AcDbMText
 10
1214.0
 20
100.0
 30
0.0
 40
20.0
 41
0.0
 71
     5
 72
     1
  1
11
  7
CONVERTER_2
 73
     1
 44
0.7202881152461
  0
MTEXT
  5
BC
330
1F
100
AcDbEntity
  8
1
 62
     7
100
AcDbMText
 10
1306.0
 20
100.0
 30
0.0
 40
20.0
 41
0.0
 71
     5
 72
     1
  1
 9
  7
CONVERTER_2
 73
     1
 44
0.7202881152461
  0
MTEXT
  5
BD
330
1F
100
AcDbEntity
  8
1
 62
     7
100
AcDbMText
 10
1260.0
 20
100.0
 30
0.0
 40
20.0
 41
0.0
 71
     5
 72
     1
  1
2
  7
CONVERTER_2
 73
     1
 44
0.7202881152461
  0
MTEXT
  5
BE
330
1F
100
AcDbEntity
  8
1
 62
     7
100
AcDbMText
 10
682.0
 20
136.0
 30
0.0
 40
28.0
 41
0.0
 71
     5
 72
     1
  1
1
  7
CONVERTER_2
 73
     1
 44
0.7202881152461
  0
MTEXT
  5
BF
330
1F
100
AcDbEntity
  8
1
 62
     7
100
AcDbMText
 10
750.0
 20
136.0
 30
0.0
 40
28.0
 41
0.0
 71
     5
 72
     1
  1
8
  7
CONVERTER_2
 73
     1
 44
0.7202881152461
  0
MTEXT
  5
C0
330
1F
100
AcDbEntity
  8
1
 62
     7
100
AcDbMText
 10
988.0
 20
152.0000000000001
 30
0.0
 40
40.0
 41
0.0
 71
     5
 72
     1
  1
阪口
  7
CONVERTER_1
 73
     1
 44
0.7202881152461
  0
MTEXT
  5
C1
330
1F
100
AcDbEntity
  8
1
 62
     7
100
AcDbMText
 10
852.0
 20
152.0000000000001
 30
0.0
 40
40.0
 41
0.0
 71
     5
 72
     1
  1
牧
  7
CONVERTER_1
 73
     1
 44
0.7202881152461
  0
MTEXT
  5
C2
330
1F
100
AcDbEntity
  8
1
 62
     7
100
AcDbMText
 10
942.0
 20
100.0
 30
0.0
 40
20.0
 41
0.0
 71
     5
 72
     1
  1
11
  7
CONVERTER_2
 73
     1
 44
0.7202881152461
  0
MTEXT
  5
C3
330
1F
100
AcDbEntity
  8
1
 62
     7
100
AcDbMText
 10
1034.0
 20
100.0
 30
0.0
 40
20.0
 41
0.0
 71
     5
 72
     1
  1
15
  7
CONVERTER_2
 73
     1
 44
0.7202881152461
  0
MTEXT
  5
C4
330
1F
100
AcDbEntity
  8
1
 62
     7
100
AcDbMText
 10
988.0
 20
100.0
 30
0.0
 40
20.0
 41
0.0
 71
     5
 72
     1
  1
2
  7
CONVERTER_2
 73
     1
 44
0.7202881152461
  0
MTEXT
  5
C5
330
1F
100
AcDbEntity
  8
1
 62
     7
100
AcDbMText
 10
852.0
 20
100.0
 30
0.0
 40
20.0
 41
0.0
 71
     5
 72
     1
  1
2
  7
CONVERTER_2
 73
     1
 44
0.7202881152461
  0
MTEXT
  5
C6
330
1F
100
AcDbEntity
  8
1
 62
     7
100
AcDbMText
 10
898.0
 20
100.0
 30
0.0
 40
20.0
 41
0.0
 71
     5
 72
     1
  1
18
  7
CONVERTER_2
 73
     1
 44
0.7202881152461
  0
MTEXT
  5
C7
330
1F
100
AcDbEntity
  8
1
 62
     7
100
AcDbMText
 10
806.0
 20
100.0
 30
0.0
 40
20.0
 41
0.0
 71
     5
 72
     1
  1
11
  7
CONVERTER_2
 73
     1
 44
0.7202881152461
  0
DIMENSION
  5
D2
330
1F
100
AcDbEntity
  8
1
100
AcDbDimension
  2
*D02
 10
956.137731039657
 20
1850.055873782996
 30
0.0
 11
934.137731039657
 21
1745.046876554868
 31
0.0
  1
210
 71
     5
 42
0.0
 53
90.0
  3
ME10_DIM_0
100
AcDbAlignedDimension
 13
900.137731039657
 23
1640.038635568047
 33
0.0
 14
666.1118670151416
 24
1850.055873782996
 34
0.0
 50
90.0
100
AcDbRotatedDimension
  0
DIMENSION
  5
DD
330
1F
100
AcDbEntity
  8
1
100
AcDbDimension
  2
*D13
 10
1098.29634447351
 20
1115.266620091475
 30
0.0
 11
1308.840425735157
 21
1137.266620091475
 31
0.0
  1
{\Fgdt;n}420
 71
     5
 42
0.0
 53
0.00013888888889
  3
ME10_DIM_1
100
AcDbAlignedDimension
 13
1519.38902453998
 23
1004.370479503635
 33
0.0
 14
1098.29634447351
 24
1004.370479503635
 34
0.0
100
AcDbRotatedDimension
  0
DIMENSION
  5
EA
330
1F
100
AcDbEntity
  8
1
100
AcDbDimension
  2
*D24
 10
954.961691699016
 20
975.5404288640431
 30
0.0
 11
932.961691699016
 21
1005.75745881671
 31
0.0
  1
60
 71
     5
 42
0.0
 53
90.0
  3
ME10_DIM_2
100
AcDbAlignedDimension
 13
466.0966498692455
 23
1035.315626919552
 33
0.0
 14
877.7633492379812
 24
975.5404288640431
 34
0.0
 50
90.0
100
AcDbRotatedDimension
  0
DIMENSION
  5
F5
330
1F
100
AcDbEntity
  8
1
100
AcDbDimension
  2
*D35
 10
382.9789904055947
 20
811.7562620630292
 30
0.0
 11
360.9789904055947
 21
921.8901091269597
 31
0.0
  1
230
 71
     5
 42
0.0
 53
90.0
  3
ME10_DIM_3
100
AcDbAlignedDimension
 13
466.0966498692455
 23
1035.315626919552
 33
0.0
 14
641.6421767476247
 24
811.7562620630292
 34
0.0
 50
90.0
100
AcDbRotatedDimension
  0
DIMENSION
  5
100
330
1F
100
AcDbEntity
  8
1
100
AcDbDimension
  2
*D46
 10
1018.961691699016
 20
839.6682474504476
 30
0.0
 11
996.961691699016
 21
910.1737469665784
 31
0.0
  1
138
 71
     5
 42
0.0
 53
90.0
  3
ME10_DIM_4
100
AcDbAlignedDimension
 13
877.7633492379812
 23
975.5404288640431
 33
0.0
 14
765.5350660334404
 24
839.6682474504476
 34
0.0
 50
90.0
100
AcDbRotatedDimension
  0
ENDSEC
  0
SECTION
  2
OBJECTS
  0
DICTIONARY
  5
C
330
0
100
AcDbDictionary
281
     1
  3
ACAD_GROUP
350
D
  3
ACAD_LAYOUT
350
1A
  3
ACAD_MLINESTYLE
350
17
  3
ACAD_PLOTSETTINGS
350
19
  3
ACAD_PLOTSTYLENAME
350
E
  3
ACAD_TABLESTYLE
350
2A
  3
AcDbVariableDictionary
350
2C
  0
DICTIONARY
  5
D
102
{ACAD_REACTORS
330
C
102
}
330
C
100
AcDbDictionary
281
     1
  0
DICTIONARY
  5
1A
102
{ACAD_REACTORS
330
C
102
}
330
C
100
AcDbDictionary
281
     1
  3
Layout1
350
1E
  3
Layout2
350
26
  3
Model
350
22
  0
DICTIONARY
  5
17
102
{ACAD_REACTORS
330
C
102
}
330
C
100
AcDbDictionary
281
     1
  3
Standard
350
18
  0
DICTIONARY
  5
19
102
{ACAD_REACTORS
330
C
102
}
330
C
100
AcDbDictionary
281
     1
  0
ACDBDICTIONARYWDFLT
  5
E
102
{ACAD_REACTORS
330
C
102
}
330
C
100
AcDbDictionary
281
     1
  3
Normal
350
F
100
AcDbDictionaryWithDefault
340
F
  0
DICTIONARY
  5
2A
102
{ACAD_REACTORS
330
C
102
}
330
C
100
AcDbDictionary
281
     1
  3
Standard
350
2B
  0
DICTIONARY
  5
2C
102
{ACAD_REACTORS
330
C
102
}
330
C
100
AcDbDictionary
281
     1
  3
CTABLESTYLE
350
2D
  0
LAYOUT
  5
1E
102
{ACAD_REACTORS
330
1A
102
}
330
1A
100
AcDbPlotSettings
  1

  2

  4

  6

 40
0.0
 41
0.0
 42
0.0
 43
0.0
 44
0.0
 45
0.0
 46
0.0
 47
0.0
 48
0.0
 49
0.0
140
0.0
141
0.0
142
1.0
143
1.0
 70
   688
 72
     0
 73
     0
 74
     5
  7

 75
    16
147
1.0
148
0.0
149
0.0
100
AcDbLayout
  1
Layout1
 70
     1
 71
     1
 10
0.0
 20
0.0
 11
12.0
 21
9.0
 12
0.0
 22
0.0
 32
0.0
 14
1.00000000000000E+20
 24
1.00000000000000E+20
 34
1.00000000000000E+20
 15
-1.00000000000000E+20
 25
-1.00000000000000E+20
 35
-1.00000000000000E+20
146
0.0
 13
0.0
 23
0.0
 33
0.0
 16
1.0
 26
0.0
 36
0.0
 17
0.0
 27
1.0
 37
0.0
 76
     0
330
1B
  0
LAYOUT
  5
26
102
{ACAD_REACTORS
330
1A
102
}
330
1A
100
AcDbPlotSettings
  1

  2

  4

  6

 40
0.0
 41
0.0
 42
0.0
 43
0.0
 44
0.0
 45
0.0
 46
0.0
 47
0.0
 48
0.0
 49
0.0
140
0.0
141
0.0
142
1.0
143
1.0
 70
   688
 72
     0
 73
     0
 74
     5
  7

 75
    16
147
1.0
148
0.0
149
0.0
100
AcDbLayout
  1
Layout2
 70
     1
 71
     2
 10
0.0
 20
0.0
 11
0.0
 21
0.0
 12
0.0
 22
0.0
 32
0.0
 14
0.0
 24
0.0
 34
0.0
 15
0.0
 25
0.0
 35
0.0
146
0.0
 13
0.0
 23
0.0
 33
0.0
 16
1.0
 26
0.0
 36
0.0
 17
0.0
 27
1.0
 37
0.0
 76
     0
330
23
  0
LAYOUT
  5
22
102
{ACAD_REACTORS
330
1A
102
}
330
1A
100
AcDbPlotSettings
  1

  2

  4

  6

 40
0.0
 41
0.0
 42
0.0
 43
0.0
 44
0.0
 45
0.0
 46
0.0
 47
0.0
 48
0.0
 49
0.0
140
0.0
141
0.0
142
1.0
143
1.0
 70
  1712
 72
     0
 73
     0
 74
     0
  7

 75
     0
147
1.0
148
0.0
149
0.0
100
AcDbLayout
  1
Model
 70
     1
 71
     0
 10
0.0
 20
0.0
 11
0.0
 21
0.0
 12
0.0
 22
0.0
 32
0.0
 14
0.0
 24
0.0
 34
0.0
 15
1680.0
 25
2376.0
 35
0.0
146
0.0
 13
0.0
 23
0.0
 33
0.0
 16
1.0
 26
0.0
 36
0.0
 17
0.0
 27
1.0
 37
0.0
 76
     0
330
1F
  0
MLINESTYLE
  5
18
102
{ACAD_REACTORS
330
17
102
}
330
17
100
AcDbMlineStyle
  2
Standard
 70
     0
  3

 62
   256
 51
90.0
 52
90.0
 71
     2
 49
0.5
 62
   256
  6
BYLAYER
 49
-0.5
 62
   256
  6
BYLAYER
  0
ACDBPLACEHOLDER
  5
F
102
{ACAD_REACTORS
330
E
102
}
330
E
  0
TABLESTYLE
  5
2B
102
{ACAD_REACTORS
330
2A
102
}
330
2A
100
AcDbTableStyle
  3
Standard
 70
     0
 71
     0
 40
0.06
 41
0.06
280
     0
281
     0
  7
Standard
140
0.18
170
     2
 62
     0
 63
     7
283
     0
274
    -2
284
     1
 64
     0
275
    -2
285
     1
 65
     0
276
    -2
286
     1
 66
     0
277
    -2
287
     1
 67
     0
278
    -2
288
     1
 68
     0
279
    -2
289
     1
 69
     0
  7
Standard
140
0.25
170
     5
 62
     0
 63
     7
283
     0
274
    -2
284
     1
 64
     0
275
    -2
285
     1
 65
     0
276
    -2
286
     1
 66
     0
277
    -2
287
     1
 67
     0
278
    -2
288
     1
 68
     0
279
    -2
289
     1
 69
     0
  7
Standard
140
0.18
170
     5
 62
     0
 63
     7
283
     0
274
    -2
284
     1
 64
     0
275
    -2
285
     1
 65
     0
276
    -2
286
     1
 66
     0
277
    -2
287
     1
 67
     0
278
    -2
288
     1
 68
     0
279
    -2
289
     1
 69
     0
  0
DICTIONARYVAR
  5
2D
102
{ACAD_REACTORS
330
2C
102
}
330
2C
100
DictionaryVariables
280
     0
  1
Standard
  0
ENDSEC
  0
EOF
