  0
SECTION
  2
HEADER
  9
$ACADVER
  1
AC1015
  9
$ACADMAINTVER
 70
     6
  9
$DWGCODEPAGE
  3
ANSI_932
  9
$INSBASE
 10
0.0
 20
0.0
 30
0.0
  9
$EXTMIN
 10
-420.0
 20
-297.0
 30
1.000000E+20
  9
$EXTMAX
 10
420.0
 20
297.0
 30
-1.000000E+20
  9
$LIMMIN
 10
-420.0
 20
-297.0
  9
$LIMMAX
 10
420.0
 20
297.0
  9
$ORTHOMODE
 70
     0
  9
$REGENMODE
 70
     1
  9
$FILLMODE
 70
     1
  9
$QTEXTMODE
 70
     0
  9
$MIRRTEXT
 70
     1
  9
$LTSCALE
 40
1.0
  9
$ATTMODE
 70
     1
  9
$TEXTSIZE
 40
0.2
  9
$TRACEWID
 40
0.05
  9
$TEXTSTYLE
  7
STANDARD
  9
$CLAYER
  8
0
  9
$CELTYPE
  6
CONTINUOUS
  9
$CECOLOR
 62
   256
  9
$CELTSCALE
 40
1.0
  9
$DISPSILH
 70
     0
  9
$DIMSCALE
 40
2.0
  9
$DIMASZ
 40
2.0
  9
$DIMEXO
 40
1.0
  9
$DIMDLI
 40
0.38
  9
$DIMRND
 40
0.0
  9
$DIMDLE
 40
0.0
  9
$DIMEXE
 40
2.0
  9
$DIMTP
 40
0.0
  9
$DIMTM
 40
0.0
  9
$DIMTXT
 40
3.5
  9
$DIMCEN
 40
0.09
  9
$DIMTSZ
 40
0.0
  9
$DIMTOL
 70
     0
  9
$DIMLIM
 70
     0
  9
$DIMTIH
 70
     0
  9
$DIMTOH
 70
     0
  9
$DIMSE1
 70
     0
  9
$DIMSE2
 70
     0
  9
$DIMTAD
 70
     1
  9
$DIMZIN
 70
     0
  9
$DIMBLK
  1

  9
$DIMASO
 70
     1
  9
$DIMSHO
 70
     1
  9
$DIMPOST
  1

  9
$DIMAPOST
  1

  9
$DIMALT
 70
     0
  9
$DIMALTD
 70
     2
  9
$DIMALTF
 40
25.4
  9
$DIMLFAC
 40
1.0
  9
$DIMTOFL
 70
     0
  9
$DIMTVP
 40
0.0
  9
$DIMTIX
 70
     0
  9
$DIMSOXD
 70
     0
  9
$DIMSAH
 70
     0
  9
$DIMBLK1
  1

  9
$DIMBLK2
  1

  9
$DIMSTYLE
  2
Standard
  9
$DIMCLRD
 70
     0
  9
$DIMCLRE
 70
     0
  9
$DIMCLRT
 70
     0
  9
$DIMTFAC
 40
1.0
  9
$DIMGAP
 40
0.5
  9
$DIMJUST
 70
     0
  9
$DIMSD1
 70
     0
  9
$DIMSD2
 70
     0
  9
$DIMTOLJ
 70
     1
  9
$DIMTZIN
 70
     0
  9
$DIMALTZ
 70
     0
  9
$DIMALTTZ
 70
     0
  9
$DIMUPT
 70
     0
  9
$DIMDEC
 70
     3
  9
$DIMTDEC
 70
     4
  9
$DIMALTU
 70
     2
  9
$DIMALTTD
 70
     2
  9
$DIMTXSTY
  7
STANDARD
  9
$DIMAUNIT
 70
     0
  9
$DIMADEC
 70
     0
  9
$DIMALTRND
 40
0.0
  9
$DIMAZIN
 70
     0
  9
$DIMDSEP
 70
     0
  9
$DIMATFIT
 70
     3
  9
$DIMFRAC
 70
     0
  9
$DIMLDRBLK
  1

  9
$DIMLUNIT
 70
     2
  9
$DIMLWD
 70
     0
  9
$DIMLWE
 70
     0
  9
$DIMTMOVE
 70
     0
  9
$LUNITS
 70
     2
  9
$LUPREC
 70
     4
  9
$SKETCHINC
 40
0.1
  9
$FILLETRAD
 40
0.0
  9
$AUNITS
 70
     0
  9
$AUPREC
 70
     0
  9
$MENU
  1
acad
  9
$ELEVATION
 40
0.0
  9
$PELEVATION
 40
0.0
  9
$THICKNESS
 40
0.0
  9
$LIMCHECK
 70
     0
  9
$CHAMFERA
 40
0.0
  9
$CHAMFERB
 40
0.0
  9
$CHAMFERC
 40
0.0
  9
$CHAMFERD
 40
0.0
  9
$SKPOLY
 70
     0
  9
$TDCREATE
 40
2454289.000000000
  9
$TDUCREATE
 40
0.000000000
  9
$TDUPDATE
 40
0.000000000
  9
$TDUUPDATE
 40
2447892.625000000
  9
$TDINDWG
 40
0.0000000000
  9
$TDUSRTIMER
 40
0.0000000000
  9
$USRTIMER
 70
     1
  9
$ANGBASE
 50
0.0
  9
$ANGDIR
 70
     0
  9
$PDMODE
 70
     0
  9
$PDSIZE
 40
0.0
  9
$PLINEWID
 40
0.0
  9
$SPLFRAME
 70
     0
  9
$SPLINETYPE
 70
     6
  9
$SPLINESEGS
 70
     8
  9
$HANDSEED
  5
3D6
  9
$SURFTAB1
 70
     6
  9
$SURFTAB2
 70
     6
  9
$SURFTYPE
 70
     6
  9
$SURFU
 70
     6
  9
$SURFV
 70
     6
  9
$UCSBASE
  2

  9
$UCSNAME
  2

  9
$UCSORG
 10
0.0
 20
0.0
 30
0.0
  9
$UCSXDIR
 10
1.0
 20
0.0
 30
0.0
  9
$UCSYDIR
 10
0.0
 20
1.0
 30
0.0
  9
$UCSORTHOREF
  2

  9
$UCSORTHOVIEW
 70
     0
  9
$UCSORGTOP
 10
0.0
 20
0.0
 30
0.0
  9
$UCSORGBOTTOM
 10
0.0
 20
0.0
 30
0.0
  9
$UCSORGLEFT
 10
0.0
 20
0.0
 30
0.0
  9
$UCSORGRIGHT
 10
0.0
 20
0.0
 30
0.0
  9
$UCSORGFRONT
 10
0.0
 20
0.0
 30
0.0
  9
$UCSORGBACK
 10
0.0
 20
0.0
 30
0.0
  9
$PUCSBASE
  2

  9
$PUCSNAME
  2

  9
$PUCSORG
 10
0.0
 20
0.0
 30
0.0
  9
$PUCSXDIR
 10
1.0
 20
0.0
 30
0.0
  9
$PUCSYDIR
 10
0.0
 20
1.0
 30
0.0
  9
$PUCSORTHOREF
  2

  9
$PUCSORTHOVIEW
 70
     0
  9
$PUCSORGTOP
 10
0.0
 20
0.0
 30
0.0
  9
$PUCSORGBOTTOM
 10
0.0
 20
0.0
 30
0.0
  9
$PUCSORGLEFT
 10
0.0
 20
0.0
 30
0.0
  9
$PUCSORGRIGHT
 10
0.0
 20
0.0
 30
0.0
  9
$PUCSORGFRONT
 10
0.0
 20
0.0
 30
0.0
  9
$PUCSORGBACK
 10
0.0
 20
0.0
 30
0.0
  9
$USERI1
 70
     0
  9
$USERI2
 70
     0
  9
$USERI3
 70
     0
  9
$USERI4
 70
     0
  9
$USERI5
 70
     0
  9
$USERR1
 40
0.0
  9
$USERR2
 40
0.0
  9
$USERR3
 40
0.0
  9
$USERR4
 40
0.0
  9
$USERR5
 40
0.0
  9
$WORLDVIEW
 70
     1
  9
$SHADEDGE
 70
     3
  9
$SHADEDIF
 70
    70
  9
$TILEMODE
 70
     1
  9
$MAXACTVP
 70
    16
  9
$PINSBASE
 10
0.0
 20
0.0
 30
0.0
  9
$PLIMCHECK
 70
     0
  9
$PEXTMIN
 10
1.000000E+20
 20
1.000000E+20
 30
1.000000E+20
  9
$PEXTMAX
 10
-1.000000E+20
 20
-1.000000E+20
 30
-1.000000E+20
  9
$PLIMMIN
 10
0.0
 20
0.0
  9
$PLIMMAX
 10
12.0
 20
9.0
  9
$UNITMODE
 70
     0
  9
$VISRETAIN
 70
     0
  9
$PLINEGEN
 70
     1
  9
$PSLTSCALE
 70
     0
  9
$TREEDEPTH
 70
  3020
  9
$CMLSTYLE
  2
Standard
  9
$CMLJUST
 70
     0
  9
$CMLSCALE
 40
1.0
  9
$PROXYGRAPHICS
 70
     0
  9
$MEASUREMENT
 70
     0
  9
$CELWEIGHT
370
     0
  9
$ENDCAPS
280
     0
  9
$JOINSTYLE
280
     0
  9
$LWDISPLAY
290
     0
  9
$INSUNITS
 70
     0
  9
$HYPERLINKBASE
  1

  9
$STYLESHEET
  1

  9
$XEDIT
290
     1
  9
$CEPSNTYPE
380
     0
  9
$PSTYLEMODE
290
     1
  9
$FINGERPRINTGUID
  2

  9
$VERSIONGUID
  2

  9
$EXTNAMES
290
     1
  9
$PSVPSCALE
 40
0.0
  0
ENDSEC
  0
SECTION
  2
CLASSES
  0
CLASS
  1
LWPOLYLINE
  2
AcDbPolyline
  3
AutoCAD 2000
 90
        0
280
     0
281
     1
  0
CLASS
  1
IMAGE
  2
AcDbRasterImage
  3
ISM
 90
      127
280
     0
281
     1
  0
CLASS
  1
OLE2FRAME
  2
AcDbOle2Frame
  3
AutoCAD 2000
 90
        0
280
     0
281
     1
  0
CLASS
  1
HATCH
  2
AcDbHatch
  3
AutoCAD 2000
 90
        0
280
     0
281
     1
  0
CLASS
  1
DICTIONARYVAR
  2
AcDbDictionaryVar
  3
AutoCAD 2000
 90
        0
280
     0
281
     0
  0
CLASS
  1
RASTERVARIABLES
  2
AcDbRasterVariables
  3
ISM
 90
        0
280
     0
281
     0
  0
CLASS
  1
IMAGEDEF
  2
AcDbRasterImageDef
  3
ISM
 90
        0
280
     0
281
     0
  0
CLASS
  1
IMAGEDEF_REACTOR
  2
AcDbRasterImageDefReactor
  3
ISM
 90
        1
280
     0
281
     0
  0
CLASS
  1
IDBUFFER
  2
AcDbIdBuffer
  3
AutoCAD 2000
 90
        0
280
     0
281
     0
  0
CLASS
  1
SPATIAL_FILTER
  2
AcDbSpatialFilter
  3
AutoCAD 2000
 90
        0
280
     0
281
     0
  0
CLASS
  1
XRECORD
  2
AcDbXrecord
  3
AutoCAD 2000
 90
        0
280
     0
281
     0
  0
CLASS
  1
SORTENTSTABLE
  2
AcDbSortentsTable
  3
AutoCAD 2000
 90
        0
280
     0
281
     0
  0
CLASS
  1
LAYER_INDEX
  2
AcDbLayerIndex
  3
AutoCAD 2000
 90
        0
280
     0
281
     0
  0
CLASS
  1
SPATIAL_INDEX
  2
AcDbSpatialIndex
  3
AutoCAD 2000
 90
        0
280
     0
281
     0
  0
CLASS
  1
OBJECT_PTR
  2
CAseDLPNTableRecord
  3
"ASE-LPNTableRecord"
 90
        1
280
     0
281
     0
  0
CLASS
  1
LAYOUT
  2
AcDbLayout
  3
AutoCAD 2000
 90
        0
280
     0
281
     0
  0
CLASS
  1
PLOTSETTINGS
  2
AcDbPlotSettings
  3
AutoCAD 2000
 90
        0
280
     0
281
     0
  0
CLASS
  1
ACDBDICTIONARYWDFLT
  2
AcDbDictionaryWithDefault
  3
AutoCAD 2000
 90
        0
280
     0
281
     0
  0
CLASS
  1
ACDBPLACEHOLDER
  2
AcDbPlaceHolder
  3
AutoCAD 2000
 90
        0
280
     0
281
     0
  0
CLASS
  1
VBA_PROJECT
  2
AcDbVbaProject
  3
acadvba
 90
        0
280
     0
281
     0
  0
CLASS
  1
WIPEOUT
  2
AcDbWipeout
  3
WipeOut|AutoCAD Express Tool|expresstools@autodesk.com
 90
      127
280
     0
281
     1
  0
CLASS
  1
WIPEOUTVARIABLES
  2
AcDbWipeoutVariables
  3
WipeOut|AutoCAD Express Tool|expresstools@autodesk.com
 90
        0
280
     0
281
     0
  0
CLASS
  1
RTEXT
  2
RText
  3
RText|AutoCAD Express Tool|expresstools@autodesk.com
 90
        0
280
     0
281
     1
  0
CLASS
  1
ARCALIGNEDTEXT
  2
AcDbArcAlignedText
  3
ATEXT|AutoCAD Express Tool|expresstools@autodesk.com
 90
        0
280
     0
281
     1
  0
ENDSEC
  0
SECTION
  2
TABLES
  0
TABLE
  2
VPORT
  5
6
100
AcDbSymbolTable
 70
     1
  0
VPORT
  5
19
100
AcDbSymbolTableRecord
100
AcDbViewportTableRecord
  2
*ACTIVE
 70
     0
 10
0.0
 20
0.0
 11
1.0
 21
1.0
 12
0.0
 22
0.0
 13
0.0
 23
0.0
 14
1.0
 24
1.0
 15
0.0
 25
0.0
 16
0.0
 26
0.0
 36
1.0
 17
0.0
 27
0.0
 37
0.0
 40
594.0
 41
1.414141
 42
50.0
 43
0.0
 44
0.0
 50
0.0
 51
0.0
 71
     0
 72
   500
 73
     1
 74
     1
 75
     0
 76
     0
 77
     0
 78
     0
281
     0
 65
     0
110
0.0
120
0.0
130
0.0
111
1.0
121
0.0
131
0.0
112
0.0
122
1.0
132
0.0
345
0
346
0
 79
     0
146
0.0
  0
ENDTAB
  0
TABLE
  2
LTYPE
  5
3
100
AcDbSymbolTable
 70
     9
  0
LTYPE
  5
C
100
AcDbSymbolTableRecord
100
AcDbLinetypeTableRecord
  2
ByBlock
 70
    64
  3

 72
    65
 73
     0
 40
0.0
  0
LTYPE
  5
D
100
AcDbSymbolTableRecord
100
AcDbLinetypeTableRecord
  2
ByLayer
 70
    64
  3

 72
    65
 73
     0
 40
0.0
  0
LTYPE
  5
E
100
AcDbSymbolTableRecord
100
AcDbLinetypeTableRecord
  2
CONTINUOUS
 70
     0
  3
Solid line
 72
    65
 73
     0
 40
0.0
  0
LTYPE
  5
F
100
AcDbSymbolTableRecord
100
AcDbLinetypeTableRecord
  2
DASHED
 70
     0
  3
__ __ __ __ __ __ __ __ __ __ __ __ __ __ __
 72
    65
 73
     2
 40
2.0
 49
1.2
 74
     0
 49
-0.8
 74
     0
  0
LTYPE
  5
10
100
AcDbSymbolTableRecord
100
AcDbLinetypeTableRecord
  2
CENTER
 70
     0
  3
____ _ ____ _ ____ _ ____ _ ____ _ ____ _ ____
 72
    65
 73
     4
 40
12.0
 49
9.0
 74
     0
 49
-1.0
 74
     0
 49
1.0
 74
     0
 49
-1.0
 74
     0
  0
LTYPE
  5
11
100
AcDbSymbolTableRecord
100
AcDbLinetypeTableRecord
  2
HIDDEN
 70
     0
  3
_ _ _ _ _ _ _ _ _ _ _ _ _ _ _ _ _ _ _ _ _ _ _
 72
    65
 73
     2
 40
3.2
 49
2.4
 74
     0
 49
-0.8
 74
     0
  0
LTYPE
  5
12
100
AcDbSymbolTableRecord
100
AcDbLinetypeTableRecord
  2
PHANTOM
 70
     0
  3
_____ _ _ _____ _ _ _____ _ _ _____ _ _ _____
 72
    65
 73
     6
 40
13.5
 49
9.0
 74
     0
 49
-1.0
 74
     0
 49
1.0
 74
     0
 49
-0.5
 74
     0
 49
1.0
 74
     0
 49
-1.0
 74
     0
  0
LTYPE
  5
13
100
AcDbSymbolTableRecord
100
AcDbLinetypeTableRecord
  2
DOT
 70
     0
  3
...............................................
 72
    65
 73
     2
 40
1.0
 49
0.5
 74
     0
 49
-0.5
 74
     0
  0
LTYPE
  5
14
100
AcDbSymbolTableRecord
100
AcDbLinetypeTableRecord
  2
DASHDOT
 70
     0
  3
__ . __ . __ . __ . __ . __ . __ . __ . __ . __
 72
    65
 73
     4
 40
8.0
 49
5.0
 74
     0
 49
-1.0
 74
     0
 49
1.0
 74
     0
 49
-1.0
 74
     0
  0
ENDTAB
  0
TABLE
  2
LAYER
  5
1
100
AcDbSymbolTable
 70
     4
  0
LAYER
  5
15
100
AcDbSymbolTableRecord
100
AcDbLayerTableRecord
  2
0
 70
     0
 62
     7
  6
CONTINUOUS
290
     1
370
    -3
390
0
  0
LAYER
  5
16
100
AcDbSymbolTableRecord
100
AcDbLayerTableRecord
  2
1
 70
     0
 62
     7
  6
CONTINUOUS
290
     1
370
    -3
390
0
  0
LAYER
  5
17
100
AcDbSymbolTableRecord
100
AcDbLayerTableRecord
  2
2
 70
     0
 62
     7
  6
CONTINUOUS
290
     1
370
    -3
390
0
  0
LAYER
  5
18
100
AcDbSymbolTableRecord
100
AcDbLayerTableRecord
  2
3
 70
     0
 62
     7
  6
CONTINUOUS
290
     1
370
    -3
390
0
  0
ENDTAB
  0
TABLE
  2
STYLE
  5
2
100
AcDbSymbolTable
 70
     1
  0
STYLE
  5
1B
100
AcDbSymbolTableRecord
100
AcDbTextStyleTableRecord
  2
STANDARD
 70
    64
 40
0.0
 41
1.0
 50
0.0
 71
     0
 42
1.0
  3
txt
  4
BIGFONT
  0
ENDTAB
  0
TABLE
  2
VIEW
  5
4
100
AcDbSymbolTable
 70
     0
  0
ENDTAB
  0
TABLE
  2
UCS
  5
5
100
AcDbSymbolTable
 70
     0
  0
ENDTAB
  0
TABLE
  2
APPID
  5
7
100
AcDbSymbolTable
 70
     1
  0
APPID
  5
1A
100
AcDbSymbolTableRecord
100
AcDbRegAppTableRecord
  2
ACAD
 70
     0
  0
ENDTAB
  0
TABLE
  2
DIMSTYLE
  5
8
100
AcDbSymbolTable
 70
     1
100
AcDbDimStyleTable
 71
     0
  0
DIMSTYLE
105
2C
100
AcDbSymbolTableRecord
100
AcDbDimStyleTableRecord
  2
Standard
 70
     0
  3

  4

 40
2.0
 41
2.0
 42
1.0
 43
0.38
 44
2.0
 45
0.0
 46
0.0
 47
0.0
 48
0.0
 71
     0
 72
     0
 73
     0
 74
     0
 75
     0
 76
     0
 77
     1
 78
     0
 79
     0
140
3.5
141
0.09
142
0.0
143
25.4
144
1.0
145
0.0
146
1.0
147
0.5
148
0.0
170
     0
171
     2
172
     0
173
     0
174
     0
175
     0
176
     0
177
     0
178
     0
179
     0
271
     3
272
     4
273
     2
274
     2
275
     0
276
     0
277
     2
278
    46
279
     0
280
     0
281
     0
282
     0
283
     1
284
     0
285
     0
286
     0
288
     0
289
     3
340
1B
341
0
342
0
343
0
344
0
371
    -2
372
    -2
  0
ENDTAB
  0
TABLE
  2
BLOCK_RECORD
  5
27
100
AcDbSymbolTable
 70
     9
  0
BLOCK_RECORD
  5
25
100
AcDbSymbolTableRecord
100
AcDbBlockTableRecord
  2
*Model_Space
340
0
  0
BLOCK_RECORD
  5
26
100
AcDbSymbolTableRecord
100
AcDbBlockTableRecord
  2
*Paper_Space
340
0
  0
BLOCK_RECORD
  5
1C
100
AcDbSymbolTableRecord
100
AcDbBlockTableRecord
  2
*D0
340
0
  0
BLOCK_RECORD
  5
1D
100
AcDbSymbolTableRecord
100
AcDbBlockTableRecord
  2
*D1
340
0
  0
BLOCK_RECORD
  5
1E
100
AcDbSymbolTableRecord
100
AcDbBlockTableRecord
  2
*D2
340
0
  0
BLOCK_RECORD
  5
1F
100
AcDbSymbolTableRecord
100
AcDbBlockTableRecord
  2
*D3
340
0
  0
BLOCK_RECORD
  5
20
100
AcDbSymbolTableRecord
100
AcDbBlockTableRecord
  2
*D4
340
0
  0
BLOCK_RECORD
  5
21
100
AcDbSymbolTableRecord
100
AcDbBlockTableRecord
  2
*D5
340
0
  0
BLOCK_RECORD
  5
22
100
AcDbSymbolTableRecord
100
AcDbBlockTableRecord
  2
*D6
340
0
  0
BLOCK_RECORD
  5
23
100
AcDbSymbolTableRecord
100
AcDbBlockTableRecord
  2
*D7
340
0
  0
BLOCK_RECORD
  5
24
100
AcDbSymbolTableRecord
100
AcDbBlockTableRecord
  2
*D8
340
0
  0
ENDTAB
  0
ENDSEC
  0
SECTION
  2
BLOCKS
  0
BLOCK
  5
28
100
AcDbEntity
  8
0
390
0
100
AcDbBlockBegin
  2
*Model_Space
 70
     0
 10
0.0
 20
0.0
 30
0.0
  3
*Model_Space
  1

  0
ENDBLK
  5
29
100
AcDbEntity
  8
0
390
0
100
AcDbBlockEnd
  0
BLOCK
  5
2A
100
AcDbEntity
 67
     1
  8
0
390
0
100
AcDbBlockBegin
  2
*Paper_Space
 70
     0
 10
0.0
 20
0.0
 30
0.0
  3
*Paper_Space
  1

  0
ENDBLK
  5
2B
100
AcDbEntity
 67
     1
  8
0
390
0
100
AcDbBlockEnd
  0
BLOCK
  5
36E
100
AcDbEntity
  8
3
100
AcDbBlockBegin
  2
*D0
 70
     1
 10
0.0
 20
0.0
 30
0.0
  3
*D0
  1

  0
LINE
  5
36F
100
AcDbEntity
  8
3
370
    25
100
AcDbLine
 10
-95.547663
 20
165.4245
 30
0.0
 11
-95.547663
 21
162.628064
 31
0.0
  0
LINE
  5
370
100
AcDbEntity
  8
3
370
    25
100
AcDbLine
 10
-142.004465
 20
211.084867
 30
0.0
 11
-142.878178
 21
207.181455
 31
0.0
  0
LINE
  5
371
100
AcDbEntity
  8
3
370
    25
100
AcDbLine
 10
-142.004465
 20
211.084867
 30
0.0
 11
-140.809417
 21
207.267556
 31
0.0
  0
LINE
  5
372
100
AcDbEntity
  8
3
370
    25
100
AcDbLine
 10
-142.878178
 20
207.181455
 30
0.0
 11
-140.809417
 21
207.267556
 31
0.0
  0
LINE
  5
373
100
AcDbEntity
  8
3
370
    25
100
AcDbLine
 10
-95.547663
 20
164.628064
 30
0.0
 11
-99.364973
 21
165.823113
 31
0.0
  0
LINE
  5
374
100
AcDbEntity
  8
3
370
    25
100
AcDbLine
 10
-95.547663
 20
164.628064
 30
0.0
 11
-99.451075
 21
163.754351
 31
0.0
  0
LINE
  5
375
100
AcDbEntity
  8
3
370
    25
100
AcDbLine
 10
-99.364973
 20
165.823113
 30
0.0
 11
-99.451075
 21
163.754351
 31
0.0
  0
ARC
  5
376
100
AcDbEntity
  8
3
370
    25
100
AcDbCircle
 10
-95.547663
 20
211.084867
 30
0.0
 40
46.456802
100
AcDbArc
 50
180.0
 51
270.0
  0
ENDBLK
  5
377
100
AcDbEntity
  8
3
100
AcDbBlockEnd
  0
BLOCK
  5
378
100
AcDbEntity
  8
3
100
AcDbBlockBegin
  2
*D1
 70
     1
 10
0.0
 20
0.0
 30
0.0
  3
*D1
  1

  0
TEXT
  5
379
100
AcDbEntity
  8
3
370
    25
100
AcDbText
 10
-135.115097
 20
186.366675
 30
0.0
 40
7.0
  1
９０゜
 50
315.0
 72
     5
 11
-121.255804
 21
172.507382
 31
0.0
100
AcDbText
  0
LINE
  5
37A
100
AcDbEntity
  8
3
370
    25
100
AcDbLine
 10
-95.547663
 20
165.4245
 30
0.0
 11
-95.547663
 21
162.628064
 31
0.0
  0
LINE
  5
37B
100
AcDbEntity
  8
3
370
    25
100
AcDbLine
 10
-142.004465
 20
211.084867
 30
0.0
 11
-142.878178
 21
207.181455
 31
0.0
  0
LINE
  5
37C
100
AcDbEntity
  8
3
370
    25
100
AcDbLine
 10
-142.004465
 20
211.084867
 30
0.0
 11
-140.809417
 21
207.267556
 31
0.0
  0
LINE
  5
37D
100
AcDbEntity
  8
3
370
    25
100
AcDbLine
 10
-142.878178
 20
207.181455
 30
0.0
 11
-140.809417
 21
207.267556
 31
0.0
  0
LINE
  5
37E
100
AcDbEntity
  8
3
370
    25
100
AcDbLine
 10
-95.547663
 20
164.628064
 30
0.0
 11
-99.364973
 21
165.823113
 31
0.0
  0
LINE
  5
37F
100
AcDbEntity
  8
3
370
    25
100
AcDbLine
 10
-95.547663
 20
164.628064
 30
0.0
 11
-99.451075
 21
163.754351
 31
0.0
  0
LINE
  5
380
100
AcDbEntity
  8
3
370
    25
100
AcDbLine
 10
-99.364973
 20
165.823113
 30
0.0
 11
-99.451075
 21
163.754351
 31
0.0
  0
ARC
  5
381
100
AcDbEntity
  8
3
370
    25
100
AcDbCircle
 10
-95.547663
 20
211.084867
 30
0.0
 40
46.456802
100
AcDbArc
 50
180.0
 51
270.0
  0
ENDBLK
  5
382
100
AcDbEntity
  8
3
100
AcDbBlockEnd
  0
BLOCK
  5
383
100
AcDbEntity
  8
3
100
AcDbBlockBegin
  2
*D2
 70
     1
 10
0.0
 20
0.0
 30
0.0
  3
*D2
  1

  0
LINE
  5
384
100
AcDbEntity
  8
3
370
    25
100
AcDbLine
 10
-78.547663
 20
63.383105
 30
0.0
 11
-74.683959
 21
62.347829
 31
0.0
  0
LINE
  5
385
100
AcDbEntity
  8
3
370
    25
100
AcDbLine
 10
-78.547663
 20
63.383105
 30
0.0
 11
-74.683959
 21
64.418382
 31
0.0
  0
LINE
  5
386
100
AcDbEntity
  8
3
370
    25
100
AcDbLine
 10
-74.683959
 20
62.347829
 30
0.0
 11
-74.683959
 21
64.418382
 31
0.0
  0
LINE
  5
387
100
AcDbEntity
  8
3
370
    25
100
AcDbLine
 10
-68.547663
 20
63.383105
 30
0.0
 11
-141.547663
 21
63.383105
 31
0.0
  0
LINE
  5
388
100
AcDbEntity
  8
3
370
    25
100
AcDbLine
 10
-112.547663
 20
63.383105
 30
0.0
 11
-116.411366
 21
64.418382
 31
0.0
  0
LINE
  5
389
100
AcDbEntity
  8
3
370
    25
100
AcDbLine
 10
-112.547663
 20
63.383105
 30
0.0
 11
-116.411366
 21
62.347829
 31
0.0
  0
LINE
  5
38A
100
AcDbEntity
  8
3
370
    25
100
AcDbLine
 10
-116.411366
 20
64.418382
 30
0.0
 11
-116.411366
 21
62.347829
 31
0.0
  0
ENDBLK
  5
38B
100
AcDbEntity
  8
3
100
AcDbBlockEnd
  0
BLOCK
  5
38C
100
AcDbEntity
  8
3
100
AcDbBlockBegin
  2
*D3
 70
     1
 10
0.0
 20
0.0
 30
0.0
  3
*D3
  1

  0
TEXT
  5
38D
100
AcDbEntity
  8
3
370
    25
100
AcDbText
 10
-225.678996
 20
40.603826
 30
0.0
 40
7.0
  1
４０゜
 50
340.0
 72
     5
 11
-207.26102
 21
33.900231
 31
0.0
100
AcDbText
  0
LINE
  5
38E
100
AcDbEntity
  8
3
370
    25
100
AcDbLine
 10
-208.180204
 20
62.119763
 30
0.0
 11
-226.791305
 21
39.939916
 31
0.0
  0
LINE
  5
38F
100
AcDbEntity
  8
3
370
    25
100
AcDbLine
 10
-205.520125
 20
63.289921
 30
0.0
 11
-205.520125
 21
32.19784
 31
0.0
  0
LINE
  5
390
100
AcDbEntity
  8
3
370
    25
100
AcDbLine
 10
-225.50573
 20
41.472005
 30
0.0
 11
-223.012271
 21
38.344281
 31
0.0
  0
LINE
  5
391
100
AcDbEntity
  8
3
370
    25
100
AcDbLine
 10
-225.50573
 20
41.472005
 30
0.0
 11
-221.782468
 21
40.010046
 31
0.0
  0
LINE
  5
392
100
AcDbEntity
  8
3
370
    25
100
AcDbLine
 10
-223.012271
 20
38.344281
 30
0.0
 11
-221.782468
 21
40.010046
 31
0.0
  0
LINE
  5
393
100
AcDbEntity
  8
3
370
    25
100
AcDbLine
 10
-205.520125
 20
34.19784
 30
0.0
 11
-209.312038
 21
35.47118
 31
0.0
  0
LINE
  5
394
100
AcDbEntity
  8
3
370
    25
100
AcDbLine
 10
-205.520125
 20
34.19784
 30
0.0
 11
-209.440689
 21
33.404629
 31
0.0
  0
LINE
  5
395
100
AcDbEntity
  8
3
370
    25
100
AcDbLine
 10
-209.312038
 20
35.47118
 30
0.0
 11
-209.440689
 21
33.404629
 31
0.0
  0
ARC
  5
396
100
AcDbEntity
  8
3
370
    25
100
AcDbCircle
 10
-205.520125
 20
65.289921
 30
0.0
 40
31.092081
100
AcDbArc
 50
230.0
 51
270.0
  0
ENDBLK
  5
397
100
AcDbEntity
  8
3
100
AcDbBlockEnd
  0
BLOCK
  5
398
100
AcDbEntity
  8
3
100
AcDbBlockBegin
  2
*D4
 70
     1
 10
0.0
 20
0.0
 30
0.0
  3
*D4
  1

  0
TEXT
  5
399
100
AcDbEntity
  8
3
370
    25
100
AcDbText
 10
-161.033894
 20
-27.970689
 30
0.0
 40
7.0
  1
１１０
 72
     5
 11
-141.433894
 21
-27.970689
 31
0.0
100
AcDbText
  0
LINE
  5
39A
100
AcDbEntity
  8
3
370
    25
100
AcDbLine
 10
-118.547663
 20
-134.669725
 30
0.0
 11
-245.056898
 21
-134.669725
 31
0.0
  0
LINE
  5
39B
100
AcDbEntity
  8
3
370
    25
100
AcDbLine
 10
-243.056898
 20
-134.669725
 30
0.0
 11
-242.021622
 21
-130.806022
 31
0.0
  0
LINE
  5
39C
100
AcDbEntity
  8
3
370
    25
100
AcDbLine
 10
-243.056898
 20
-134.669725
 30
0.0
 11
-244.092174
 21
-130.806022
 31
0.0
  0
LINE
  5
39D
100
AcDbEntity
  8
3
370
    25
100
AcDbLine
 10
-242.021622
 20
-130.806022
 30
0.0
 11
-244.092174
 21
-130.806022
 31
0.0
  0
LINE
  5
39E
100
AcDbEntity
  8
3
370
    25
100
AcDbLine
 10
-243.056898
 20
-134.669725
 30
0.0
 11
-243.056898
 21
65.289921
 31
0.0
  0
LINE
  5
39F
100
AcDbEntity
  8
3
370
    25
100
AcDbLine
 10
-243.056898
 20
65.289921
 30
0.0
 11
-244.092174
 21
61.426218
 31
0.0
  0
LINE
  5
3A0
100
AcDbEntity
  8
3
370
    25
100
AcDbLine
 10
-243.056898
 20
65.289921
 30
0.0
 11
-242.021622
 21
61.426218
 31
0.0
  0
LINE
  5
3A1
100
AcDbEntity
  8
3
370
    25
100
AcDbLine
 10
-244.092174
 20
61.426218
 30
0.0
 11
-242.021622
 21
61.426218
 31
0.0
  0
LINE
  5
3A2
100
AcDbEntity
  8
3
370
    25
100
AcDbLine
 10
-207.520125
 20
65.289921
 30
0.0
 11
-245.056898
 21
65.289921
 31
0.0
  0
ENDBLK
  5
3A3
100
AcDbEntity
  8
3
100
AcDbBlockEnd
  0
BLOCK
  5
3A4
100
AcDbEntity
  8
3
100
AcDbBlockBegin
  2
*D5
 70
     1
 10
0.0
 20
0.0
 30
0.0
  3
*D5
  1

  0
LINE
  5
3A5
100
AcDbEntity
  8
3
370
    25
100
AcDbLine
 10
-205.520125
 20
63.289921
 30
0.0
 11
-205.520125
 21
-30.970689
 31
0.0
  0
LINE
  5
3A6
100
AcDbEntity
  8
3
370
    25
100
AcDbLine
 10
-205.520125
 20
-28.970689
 30
0.0
 11
-201.656422
 21
-30.005965
 31
0.0
  0
LINE
  5
3A7
100
AcDbEntity
  8
3
370
    25
100
AcDbLine
 10
-205.520125
 20
-28.970689
 30
0.0
 11
-201.656422
 21
-27.935413
 31
0.0
  0
LINE
  5
3A8
100
AcDbEntity
  8
3
370
    25
100
AcDbLine
 10
-201.656422
 20
-30.005965
 30
0.0
 11
-201.656422
 21
-27.935413
 31
0.0
  0
LINE
  5
3A9
100
AcDbEntity
  8
3
370
    25
100
AcDbLine
 10
-205.520125
 20
-28.970689
 30
0.0
 11
-95.547663
 21
-28.970689
 31
0.0
  0
LINE
  5
3AA
100
AcDbEntity
  8
3
370
    25
100
AcDbLine
 10
-95.547663
 20
-28.970689
 30
0.0
 11
-99.411366
 21
-27.935413
 31
0.0
  0
LINE
  5
3AB
100
AcDbEntity
  8
3
370
    25
100
AcDbLine
 10
-95.547663
 20
-28.970689
 30
0.0
 11
-99.411366
 21
-30.005965
 31
0.0
  0
LINE
  5
3AC
100
AcDbEntity
  8
3
370
    25
100
AcDbLine
 10
-99.411366
 20
-27.935413
 30
0.0
 11
-99.411366
 21
-30.005965
 31
0.0
  0
ENDBLK
  5
3AD
100
AcDbEntity
  8
3
100
AcDbBlockEnd
  0
BLOCK
  5
3AE
100
AcDbEntity
  8
3
100
AcDbBlockBegin
  2
*D6
 70
     1
 10
0.0
 20
0.0
 30
0.0
  3
*D6
  1

  0
TEXT
  5
3AF
100
AcDbEntity
  8
3
370
    25
100
AcDbText
 10
-16.111486
 20
0.380275
 30
0.0
 40
7.0
  1
２９１
 50
90.0
 72
     5
 11
-16.111486
 21
19.980275
 31
0.0
100
AcDbText
  0
LINE
  5
3B0
100
AcDbEntity
  8
3
370
    25
100
AcDbLine
 10
-72.547663
 20
-134.669725
 30
0.0
 11
-13.111486
 21
-134.669725
 31
0.0
  0
LINE
  5
3B1
100
AcDbEntity
  8
3
370
    25
100
AcDbLine
 10
-15.111486
 20
-134.669725
 30
0.0
 11
-14.07621
 21
-130.806022
 31
0.0
  0
LINE
  5
3B2
100
AcDbEntity
  8
3
370
    25
100
AcDbLine
 10
-15.111486
 20
-134.669725
 30
0.0
 11
-16.146763
 21
-130.806022
 31
0.0
  0
LINE
  5
3B3
100
AcDbEntity
  8
3
370
    25
100
AcDbLine
 10
-14.07621
 20
-130.806022
 30
0.0
 11
-16.146763
 21
-130.806022
 31
0.0
  0
LINE
  5
3B4
100
AcDbEntity
  8
3
370
    25
100
AcDbLine
 10
-15.111486
 20
-134.669725
 30
0.0
 11
-15.111486
 21
156.430275
 31
0.0
  0
LINE
  5
3B5
100
AcDbEntity
  8
3
370
    25
100
AcDbLine
 10
-15.111486
 20
156.430275
 30
0.0
 11
-16.146763
 21
152.566571
 31
0.0
  0
LINE
  5
3B6
100
AcDbEntity
  8
3
370
    25
100
AcDbLine
 10
-15.111486
 20
156.430275
 30
0.0
 11
-14.07621
 21
152.566571
 31
0.0
  0
LINE
  5
3B7
100
AcDbEntity
  8
3
370
    25
100
AcDbLine
 10
-16.146763
 20
152.566571
 30
0.0
 11
-14.07621
 21
152.566571
 31
0.0
  0
LINE
  5
3B8
100
AcDbEntity
  8
3
370
    25
100
AcDbLine
 10
-77.147663
 20
156.430275
 30
0.0
 11
-13.111486
 21
156.430275
 31
0.0
  0
ENDBLK
  5
3B9
100
AcDbEntity
  8
3
100
AcDbBlockEnd
  0
BLOCK
  5
3BA
100
AcDbEntity
  8
3
100
AcDbBlockBegin
  2
*D7
 70
     1
 10
0.0
 20
0.0
 30
0.0
  3
*D7
  1

  0
LINE
  5
3BB
100
AcDbEntity
  8
3
370
    25
100
AcDbLine
 10
-76.047663
 20
-149.669725
 30
0.0
 11
-37.155889
 21
-149.669725
 31
0.0
  0
LINE
  5
3BC
100
AcDbEntity
  8
3
370
    25
100
AcDbLine
 10
-39.155889
 20
-149.669725
 30
0.0
 11
-40.191166
 21
-153.533429
 31
0.0
  0
LINE
  5
3BD
100
AcDbEntity
  8
3
370
    25
100
AcDbLine
 10
-39.155889
 20
-149.669725
 30
0.0
 11
-38.120613
 21
-153.533429
 31
0.0
  0
LINE
  5
3BE
100
AcDbEntity
  8
3
370
    25
100
AcDbLine
 10
-40.191166
 20
-153.533429
 30
0.0
 11
-38.120613
 21
-153.533429
 31
0.0
  0
LINE
  5
3BF
100
AcDbEntity
  8
3
370
    25
100
AcDbLine
 10
-39.155889
 20
-159.669725
 30
0.0
 11
-39.155889
 21
-49.669725
 31
0.0
  0
LINE
  5
3C0
100
AcDbEntity
  8
3
370
    25
100
AcDbLine
 10
-39.155889
 20
-134.669725
 30
0.0
 11
-38.120613
 21
-130.806022
 31
0.0
  0
LINE
  5
3C1
100
AcDbEntity
  8
3
370
    25
100
AcDbLine
 10
-39.155889
 20
-134.669725
 30
0.0
 11
-40.191166
 21
-130.806022
 31
0.0
  0
LINE
  5
3C2
100
AcDbEntity
  8
3
370
    25
100
AcDbLine
 10
-38.120613
 20
-130.806022
 30
0.0
 11
-40.191166
 21
-130.806022
 31
0.0
  0
LINE
  5
3C3
100
AcDbEntity
  8
3
370
    25
100
AcDbLine
 10
-72.547663
 20
-134.669725
 30
0.0
 11
-37.155889
 21
-134.669725
 31
0.0
  0
ENDBLK
  5
3C4
100
AcDbEntity
  8
3
100
AcDbBlockEnd
  0
BLOCK
  5
3C5
100
AcDbEntity
  8
3
100
AcDbBlockBegin
  2
*D8
 70
     1
 10
0.0
 20
0.0
 30
0.0
  3
*D8
  1

  0
TEXT
  5
3C6
100
AcDbEntity
  8
3
370
    25
100
AcDbText
 10
-146.047663
 20
-89.635194
 30
0.0
 40
7.0
  1
φ４３
 72
     5
 11
-126.447663
 21
-89.635194
 31
0.0
100
AcDbText
  0
LINE
  5
3C7
100
AcDbEntity
  8
3
370
    25
100
AcDbLine
 10
-74.047663
 20
-127.669725
 30
0.0
 11
-74.047663
 21
-88.635194
 31
0.0
  0
LINE
  5
3C8
100
AcDbEntity
  8
3
370
    25
100
AcDbLine
 10
-74.047663
 20
-90.635194
 30
0.0
 11
-70.183959
 21
-91.67047
 31
0.0
  0
LINE
  5
3C9
100
AcDbEntity
  8
3
370
    25
100
AcDbLine
 10
-74.047663
 20
-90.635194
 30
0.0
 11
-70.183959
 21
-89.599918
 31
0.0
  0
LINE
  5
3CA
100
AcDbEntity
  8
3
370
    25
100
AcDbLine
 10
-70.183959
 20
-91.67047
 30
0.0
 11
-70.183959
 21
-89.599918
 31
0.0
  0
LINE
  5
3CB
100
AcDbEntity
  8
3
370
    25
100
AcDbLine
 10
-64.047663
 20
-90.635194
 30
0.0
 11
-146.047663
 21
-90.635194
 31
0.0
  0
LINE
  5
3CC
100
AcDbEntity
  8
3
370
    25
100
AcDbLine
 10
-117.047663
 20
-90.635194
 30
0.0
 11
-120.911366
 21
-89.599918
 31
0.0
  0
LINE
  5
3CD
100
AcDbEntity
  8
3
370
    25
100
AcDbLine
 10
-117.047663
 20
-90.635194
 30
0.0
 11
-120.911366
 21
-91.67047
 31
0.0
  0
LINE
  5
3CE
100
AcDbEntity
  8
3
370
    25
100
AcDbLine
 10
-120.911366
 20
-89.599918
 30
0.0
 11
-120.911366
 21
-91.67047
 31
0.0
  0
LINE
  5
3CF
100
AcDbEntity
  8
3
370
    25
100
AcDbLine
 10
-117.047663
 20
-127.669725
 30
0.0
 11
-117.047663
 21
-88.635194
 31
0.0
  0
ENDBLK
  5
3D0
100
AcDbEntity
  8
3
100
AcDbBlockEnd
  0
ENDSEC
  0
SECTION
  2
ENTITIES
  0
LINE
  5
2D
100
AcDbEntity
  8
1
370
   100
100
AcDbLine
 10
-373.02157
 20
275.028767
 30
0.0
 11
394.982385
 21
275.028767
 31
0.0
  0
LINE
  5
2E
100
AcDbEntity
  8
1
370
   100
100
AcDbLine
 10
-373.02157
 20
275.028767
 30
0.0
 11
-373.02157
 21
-277.971881
 31
0.0
  0
LINE
  5
2F
100
AcDbEntity
  8
1
370
   100
100
AcDbLine
 10
-373.02157
 20
-277.971881
 30
0.0
 11
394.982385
 21
-277.971881
 31
0.0
  0
LINE
  5
30
100
AcDbEntity
  8
1
370
   100
100
AcDbLine
 10
394.982385
 20
-277.971881
 30
0.0
 11
394.982385
 21
275.028767
 31
0.0
  0
TEXT
  5
31
100
AcDbEntity
  8
1
370
    50
100
AcDbText
 10
359.628442
 20
-226.252857
 30
0.0
 40
6.0
  1
設計
 72
     5
 11
370.428442
 21
-226.252857
 31
0.0
100
AcDbText
  0
TEXT
  5
32
100
AcDbEntity
  8
1
370
    50
100
AcDbText
 10
379.127478
 20
-226.099658
 30
0.0
 40
6.0
  1
製図
 72
     5
 11
389.927478
 21
-226.099658
 31
0.0
100
AcDbText
  0
TEXT
  5
33
100
AcDbEntity
  8
1
370
    50
100
AcDbText
 10
319.005745
 20
-226.252857
 30
0.0
 40
6.0
  1
承認
 72
     5
 11
329.805745
 21
-226.252857
 31
0.0
100
AcDbText
  0
TEXT
  5
34
100
AcDbEntity
  8
1
370
    50
100
AcDbText
 10
338.989679
 20
-226.19802
 30
0.0
 40
6.0
  1
検図
 72
     5
 11
349.789679
 21
-226.19802
 31
0.0
100
AcDbText
  0
LINE
  5
35
100
AcDbEntity
  8
1
370
    25
100
AcDbLine
 10
284.982385
 20
-227.971881
 30
0.0
 11
394.982385
 21
-227.971881
 31
0.0
  0
LINE
  5
36
100
AcDbEntity
  8
1
370
    25
100
AcDbLine
 10
342.482385
 20
-245.971881
 30
0.0
 11
342.482385
 21
-259.971881
 31
0.0
  0
TEXT
  5
37
100
AcDbEntity
  8
1
370
    50
100
AcDbText
 10
319.55159
 20
-256.012528
 30
0.0
 40
6.0
  1
日　付
 72
     5
 11
336.35159
 21
-256.012528
 31
0.0
100
AcDbText
  0
LINE
  5
38
100
AcDbEntity
  8
1
370
    50
100
AcDbLine
 10
40.982385
 20
-259.971881
 30
0.0
 11
394.982385
 21
-259.971881
 31
0.0
  0
TEXT
  5
39
100
AcDbEntity
  8
1
370
    50
100
AcDbText
 10
287.775011
 20
-256.322406
 30
0.0
 40
6.0
  1
第三角法
 72
     5
 11
310.575011
 21
-256.322406
 31
0.0
100
AcDbText
  0
TEXT
  5
3A
100
AcDbEntity
  8
1
370
    50
100
AcDbText
 10
291.087419
 20
-225.99802
 30
0.0
 40
6.0
  1
尺　度
 72
     5
 11
307.887419
 21
-225.99802
 31
0.0
100
AcDbText
  0
LINE
  5
3B
100
AcDbEntity
  8
1
370
   100
100
AcDbLine
 10
40.982385
 20
-217.971881
 30
0.0
 11
394.982385
 21
-217.971881
 31
0.0
  0
LINE
  5
3C
100
AcDbEntity
  8
1
370
    50
100
AcDbLine
 10
211.982385
 20
-217.971881
 30
0.0
 11
211.982385
 21
-277.971881
 31
0.0
  0
LINE
  5
3D
100
AcDbEntity
  8
1
370
    25
100
AcDbLine
 10
374.982385
 20
-245.971881
 30
0.0
 11
374.982385
 21
-217.971881
 31
0.0
  0
LINE
  5
3E
100
AcDbEntity
  8
1
370
    25
100
AcDbLine
 10
354.982385
 20
-245.971881
 30
0.0
 11
354.982385
 21
-217.971881
 31
0.0
  0
LINE
  5
3F
100
AcDbEntity
  8
1
370
    25
100
AcDbLine
 10
334.982385
 20
-245.971881
 30
0.0
 11
334.982385
 21
-217.971881
 31
0.0
  0
LINE
  5
40
100
AcDbEntity
  8
1
370
    50
100
AcDbLine
 10
284.982385
 20
-277.971881
 30
0.0
 11
284.982385
 21
-217.971881
 31
0.0
  0
LINE
  5
41
100
AcDbEntity
  8
1
370
    50
100
AcDbLine
 10
189.982385
 20
-217.971881
 30
0.0
 11
189.982385
 21
-277.971881
 31
0.0
  0
LINE
  5
42
100
AcDbEntity
  8
1
370
    50
100
AcDbLine
 10
62.982385
 20
-217.971881
 30
0.0
 11
62.982385
 21
-259.971881
 31
0.0
  0
LINE
  5
43
100
AcDbEntity
  8
1
370
    50
100
AcDbLine
 10
284.982385
 20
-245.971881
 30
0.0
 11
394.982385
 21
-245.971881
 31
0.0
  0
TEXT
  5
44
100
AcDbEntity
  8
1
370
    50
100
AcDbText
 10
287.101129
 20
-271.880939
 30
0.0
 40
6.0
  1
コードＮｏ
 41
0.9
 72
     5
 11
313.021129
 21
-271.880939
 31
0.0
100
AcDbText
  0
TEXT
  5
45
100
AcDbEntity
  8
1
370
   100
100
AcDbText
 10
52.886774
 20
-272.875659
 30
0.0
 40
8.0
  1
ミズタニバルブ工業株式会社
 41
1.2
 72
     5
 11
175.766774
 21
-272.875659
 31
0.0
100
AcDbText
  0
LINE
  5
46
100
AcDbEntity
  8
1
370
    50
100
AcDbLine
 10
40.982385
 20
-238.971881
 30
0.0
 11
284.982385
 21
-238.971881
 31
0.0
  0
LINE
  5
47
100
AcDbEntity
  8
1
370
    50
100
AcDbLine
 10
115.482385
 20
-238.971881
 30
0.0
 11
115.482385
 21
-259.971881
 31
0.0
  0
LINE
  5
48
100
AcDbEntity
  8
1
370
    50
100
AcDbLine
 10
137.482385
 20
-238.971881
 30
0.0
 11
137.482385
 21
-259.971881
 31
0.0
  0
LINE
  5
49
100
AcDbEntity
  8
1
370
    50
100
AcDbLine
 10
314.982385
 20
-277.971881
 30
0.0
 11
314.982385
 21
-217.971881
 31
0.0
  0
TEXT
  5
4A
100
AcDbEntity
  8
1
370
    50
100
AcDbText
 10
345.098131
 20
-256.100293
 30
0.0
 40
6.0
  1
　　・　　・
 72
     5
 11
379.898131
 21
-256.100293
 31
0.0
100
AcDbText
  0
LINE
  5
4B
100
AcDbEntity
  8
1
370
   100
100
AcDbLine
 10
161.482385
 20
218.028767
 30
0.0
 11
394.982385
 21
218.028767
 31
0.0
  0
LINE
  5
4C
100
AcDbEntity
  8
1
370
    25
100
AcDbLine
 10
161.482385
 20
233.028767
 30
0.0
 11
394.982385
 21
233.028767
 31
0.0
  0
LINE
  5
4D
100
AcDbEntity
  8
1
370
    25
100
AcDbLine
 10
161.482385
 20
248.028767
 30
0.0
 11
394.982385
 21
248.028767
 31
0.0
  0
LINE
  5
4E
100
AcDbEntity
  8
1
370
    50
100
AcDbLine
 10
161.482385
 20
263.028767
 30
0.0
 11
394.982385
 21
263.028767
 31
0.0
  0
TEXT
  5
4F
100
AcDbEntity
  8
1
370
    50
100
AcDbText
 10
165.052644
 20
265.950703
 30
0.0
 40
6.0
  1
記号
 72
     5
 11
175.852644
 21
265.950703
 31
0.0
100
AcDbText
  0
TEXT
  5
50
100
AcDbEntity
  8
1
370
    50
100
AcDbText
 10
316.856729
 20
265.859212
 30
0.0
 40
6.0
  1
訂 正 記 事
 72
     5
 11
357.656729
 21
265.859212
 31
0.0
100
AcDbText
  0
TEXT
  5
51
100
AcDbEntity
  8
1
370
    50
100
AcDbText
 10
380.887817
 20
265.835536
 30
0.0
 40
6.0
  1
印
 72
     5
 11
385.687817
 21
265.835536
 31
0.0
100
AcDbText
  0
LINE
  5
52
100
AcDbEntity
  8
1
370
   100
100
AcDbLine
 10
161.482385
 20
218.028767
 30
0.0
 11
161.482385
 21
275.028767
 31
0.0
  0
LINE
  5
53
100
AcDbEntity
  8
1
370
    25
100
AcDbLine
 10
180.482385
 20
218.028767
 30
0.0
 11
180.482385
 21
275.028767
 31
0.0
  0
LINE
  5
54
100
AcDbEntity
  8
1
370
    25
100
AcDbLine
 10
372.982385
 20
218.028767
 30
0.0
 11
372.982385
 21
275.028767
 31
0.0
  0
LINE
  5
55
100
AcDbEntity
  8
1
370
    25
100
AcDbLine
 10
302.982385
 20
218.028767
 30
0.0
 11
302.982385
 21
275.028767
 31
0.0
  0
LINE
  5
56
100
AcDbEntity
  8
1
370
    50
100
AcDbLine
 10
232.982385
 20
218.028767
 30
0.0
 11
232.982385
 21
275.028767
 31
0.0
  0
TEXT
  5
57
100
AcDbEntity
  8
1
370
    50
100
AcDbText
 10
246.91768
 20
265.924672
 30
0.0
 40
6.0
  1
変　更　理　由
 72
     5
 11
287.71768
 21
265.924672
 31
0.0
100
AcDbText
  0
TEXT
  5
58
100
AcDbEntity
  8
1
370
    50
100
AcDbText
 10
194.793748
 20
266.40334
 30
0.0
 40
6.0
  1
日　　付
 72
     5
 11
217.593748
 21
266.40334
 31
0.0
100
AcDbText
  0
TEXT
  5
59
100
AcDbEntity
  8
1
370
    50
100
AcDbText
 10
183.098131
 20
252.400355
 30
0.0
 40
6.0
  1
　　・　　・
 72
     5
 11
217.898131
 21
252.400355
 31
0.0
100
AcDbText
  0
TEXT
  5
5A
100
AcDbEntity
  8
1
370
    50
100
AcDbText
 10
183.098131
 20
237.400355
 30
0.0
 40
6.0
  1
　　・　　・
 72
     5
 11
217.898131
 21
237.400355
 31
0.0
100
AcDbText
  0
TEXT
  5
5B
100
AcDbEntity
  8
1
370
    50
100
AcDbText
 10
183.098131
 20
222.400355
 30
0.0
 40
6.0
  1
　　・　　・
 72
     5
 11
217.898131
 21
222.400355
 31
0.0
100
AcDbText
  0
LINE
  5
5C
100
AcDbEntity
  8
1
370
   100
100
AcDbLine
 10
40.982385
 20
-217.971881
 30
0.0
 11
40.982385
 21
-277.971881
 31
0.0
  0
TEXT
  5
5D
100
AcDbEntity
  8
1
370
    50
100
AcDbText
 10
290.832582
 20
-240.013492
 30
0.0
 40
6.0
  1
　／ 
 72
     5
 11
301.632582
 21
-240.013492
 31
0.0
100
AcDbText
  0
TEXT
  5
5E
100
AcDbEntity
  8
1
370
    50
100
AcDbText
 10
193.904123
 20
-272.024909
 30
0.0
 40
6.0
  1
備 考 
 72
     5
 11
207.704123
 21
-272.024909
 31
0.0
100
AcDbText
  0
TEXT
  5
5F
100
AcDbEntity
  8
1
370
    50
100
AcDbText
 10
193.512534
 20
-230.89184
 30
0.0
 40
6.0
  1
仕 上
 72
     5
 11
207.312534
 21
-230.89184
 31
0.0
100
AcDbText
  0
TEXT
  5
60
100
AcDbEntity
  8
1
370
    50
100
AcDbText
 10
193.447176
 20
-248.891666
 30
0.0
 40
6.0
  1
表 面
 72
     5
 11
207.247176
 21
-248.891666
 31
0.0
100
AcDbText
  0
TEXT
  5
61
100
AcDbEntity
  8
1
370
    50
100
AcDbText
 10
193.447176
 20
-255.891666
 30
0.0
 40
6.0
  1
処 理
 72
     5
 11
207.247176
 21
-255.891666
 31
0.0
100
AcDbText
  0
TEXT
  5
62
100
AcDbEntity
  8
1
370
    50
100
AcDbText
 10
44.79335
 20
-231.693399
 30
0.0
 40
6.0
  1
品 名
 72
     5
 11
58.59335
 21
-231.693399
 31
0.0
100
AcDbText
  0
TEXT
  5
63
100
AcDbEntity
  8
1
370
    50
100
AcDbText
 10
44.397766
 20
-252.462534
 30
0.0
 40
6.0
  1
材 質
 72
     5
 11
58.197766
 21
-252.462534
 31
0.0
100
AcDbText
  0
TEXT
  5
64
100
AcDbEntity
  8
1
370
    50
100
AcDbText
 10
118.897766
 20
-252.462534
 30
0.0
 40
6.0
  1
規 格
 72
     5
 11
132.697766
 21
-252.462534
 31
0.0
100
AcDbText
  0
LINE
  5
65
100
AcDbEntity
  8
2
370
    50
100
AcDbLine
 10
-78.047663
 20
-151.169725
 30
0.0
 11
-78.047663
 21
-149.669725
 31
0.0
  0
LINE
  5
66
100
AcDbEntity
  8
2
370
    50
100
AcDbLine
 10
-95.547663
 20
-151.169725
 30
0.0
 11
-78.047663
 21
-151.169725
 31
0.0
  0
LINE
  5
67
100
AcDbEntity
  8
2
370
    25
100
AcDbLine
 10
-86.297663
 20
-179.669725
 30
0.0
 11
-86.297663
 21
-159.869725
 31
0.0
  0
LINE
  5
68
100
AcDbEntity
  8
2
370
    25
100
AcDbLine
 10
-86.297663
 20
-149.669725
 30
0.0
 11
-86.297663
 21
-136.669333
 31
0.0
  0
LINE
  5
69
100
AcDbEntity
  8
2
370
    50
100
AcDbLine
 10
-85.297663
 20
-149.669725
 30
0.0
 11
-85.297663
 21
-136.669333
 31
0.0
  0
LINE
  5
6A
100
AcDbEntity
  8
2
370
    50
100
AcDbLine
 10
-83.547663
 20
-159.869725
 30
0.0
 11
-95.547663
 21
-159.869725
 31
0.0
  0
LINE
  5
6B
100
AcDbEntity
  8
2
370
    50
100
AcDbLine
 10
-81.797663
 20
-158.859362
 30
0.0
 11
-81.797663
 21
-153.369725
 31
0.0
  0
LINE
  5
6C
100
AcDbEntity
  8
2
370
    50
100
AcDbLine
 10
-83.547663
 20
-159.869725
 30
0.0
 11
-81.797663
 21
-158.859362
 31
0.0
  0
LINE
  5
6D
100
AcDbEntity
  8
2
370
    50
100
AcDbLine
 10
-75.547663
 20
-152.869725
 30
0.0
 11
-75.547663
 21
-151.669725
 31
0.0
  0
LINE
  5
6E
100
AcDbEntity
  8
2
370
    50
100
AcDbLine
 10
-95.547663
 20
-153.369725
 30
0.0
 11
-81.227112
 21
-153.369725
 31
0.0
  0
LINE
  5
6F
100
AcDbEntity
  8
2
370
    50
100
AcDbLine
 10
-75.547663
 20
-151.669725
 30
0.0
 11
-95.547663
 21
-151.669725
 31
0.0
  0
LINE
  5
70
100
AcDbEntity
  8
2
370
    50
100
AcDbLine
 10
-75.547663
 20
-152.869725
 30
0.0
 11
-95.547663
 21
-152.869725
 31
0.0
  0
ARC
  5
71
100
AcDbEntity
  8
2
370
    50
100
AcDbCircle
 10
-81.227112
 20
-148.369725
 30
0.0
 40
5.0
100
AcDbArc
 50
270.0
 51
293.556464
  0
ARC
  5
72
100
AcDbEntity
  8
2
370
    50
100
AcDbCircle
 10
-81.227112
 20
-156.169725
 30
0.0
 40
5.0
100
AcDbArc
 50
66.443536
 51
90.0
  0
ARC
  5
73
100
AcDbEntity
  8
2
370
    50
100
AcDbCircle
 10
-78.829196
 20
-153.869725
 30
0.0
 40
1.0
100
AcDbArc
 50
90.0
 51
113.556464
  0
ARC
  5
74
100
AcDbEntity
  8
2
370
    50
100
AcDbCircle
 10
-78.829196
 20
-150.669725
 30
0.0
 40
1.0
100
AcDbArc
 50
246.443536
 51
270.0
  0
LINE
  5
75
100
AcDbEntity
  8
2
370
    50
100
AcDbLine
 10
-88.547663
 20
-158.859362
 30
0.0
 11
-88.547663
 21
-153.369725
 31
0.0
  0
ARC
  5
76
100
AcDbEntity
  8
2
370
    50
100
AcDbCircle
 10
-95.547663
 20
-135.115832
 30
0.0
 40
24.753893
100
AcDbArc
 50
270.0
 51
286.426421
  0
ARC
  5
77
100
AcDbEntity
  8
2
370
    50
100
AcDbCircle
 10
-85.172663
 20
-153.727646
 30
0.0
 40
6.142079
100
AcDbArc
 50
236.668091
 51
303.331909
  0
ARC
  5
78
100
AcDbEntity
  8
2
370
    50
100
AcDbCircle
 10
-95.547663
 20
-137.119725
 30
0.0
 40
16.25
100
AcDbArc
 50
270.0
 51
284.250033
  0
ARC
  5
79
100
AcDbEntity
  8
2
370
    50
100
AcDbCircle
 10
-87.297663
 20
-137.119725
 30
0.0
 40
16.25
100
AcDbArc
 50
262.930286
 51
284.250033
  0
ARC
  5
7A
100
AcDbEntity
  8
2
370
    50
100
AcDbCircle
 10
-91.297663
 20
-137.119725
 30
0.0
 40
16.25
100
AcDbArc
 50
262.485955
 51
284.250033
  0
ARC
  5
7B
100
AcDbEntity
  8
2
370
    50
100
AcDbCircle
 10
-83.297663
 20
-137.119725
 30
0.0
 40
16.25
100
AcDbArc
 50
262.930286
 51
270.0
  0
ARC
  5
7C
100
AcDbEntity
  8
2
370
    50
100
AcDbCircle
 10
-95.547663
 20
-167.419725
 30
0.0
 40
16.25
100
AcDbArc
 50
75.749967
 51
90.0
  0
ARC
  5
7D
100
AcDbEntity
  8
2
370
    50
100
AcDbCircle
 10
-91.297663
 20
-167.419725
 30
0.0
 40
16.25
100
AcDbArc
 50
75.749967
 51
97.514045
  0
ARC
  5
7E
100
AcDbEntity
  8
2
370
    50
100
AcDbCircle
 10
-87.297663
 20
-167.419725
 30
0.0
 40
16.25
100
AcDbArc
 50
75.749967
 51
97.069714
  0
ARC
  5
7F
100
AcDbEntity
  8
2
370
    50
100
AcDbCircle
 10
-83.297663
 20
-167.419725
 30
0.0
 40
16.25
100
AcDbArc
 50
90.0
 51
97.069714
  0
LINE
  5
80
100
AcDbEntity
  8
2
370
    50
100
AcDbLine
 10
-84.047663
 20
-191.669725
 30
0.0
 11
-95.547663
 21
-191.669725
 31
0.0
  0
ARC
  5
81
100
AcDbEntity
  8
2
370
    50
100
AcDbCircle
 10
-97.822663
 20
-185.669725
 30
0.0
 40
15.025
100
AcDbArc
 50
336.463422
 51
23.536578
  0
LINE
  5
82
100
AcDbEntity
  8
2
370
    50
100
AcDbLine
 10
-84.047663
 20
-179.669725
 30
0.0
 11
-95.547663
 21
-179.669725
 31
0.0
  0
ELLIPSE
  5
83
100
AcDbEntity
  8
2
370
    50
100
AcDbEllipse
 10
-85.588371
 20
-185.669725
 30
0.0
 11
0.0
 21
6.0
 31
0.0
210
0.0
220
0.0
230
1.0
 40
0.458833
 41
0.0
 42
6.2831849999999996
  0
ELLIPSE
  5
84
100
AcDbEntity
  8
2
370
    50
100
AcDbEllipse
 10
-95.547663
 20
-185.669725
 30
0.0
 11
0.0
 21
6.0
 31
0.0
210
0.0
220
0.0
230
1.0
 40
0.926667
 41
0.0
 42
6.2831849999999996
  0
LINE
  5
85
100
AcDbEntity
  8
2
370
    50
100
AcDbLine
 10
-85.297663
 20
-179.669725
 30
0.0
 11
-85.297663
 21
-159.869725
 31
0.0
  0
LINE
  5
86
100
AcDbEntity
  8
2
370
    50
100
AcDbLine
 10
-113.047663
 20
-151.169725
 30
0.0
 11
-113.047663
 21
-149.669725
 31
0.0
  0
LINE
  5
87
100
AcDbEntity
  8
2
370
    50
100
AcDbLine
 10
-95.547663
 20
-151.169725
 30
0.0
 11
-113.047663
 21
-151.169725
 31
0.0
  0
LINE
  5
88
100
AcDbEntity
  8
2
370
    25
100
AcDbLine
 10
-104.797663
 20
-179.669725
 30
0.0
 11
-104.797663
 21
-159.869725
 31
0.0
  0
LINE
  5
89
100
AcDbEntity
  8
2
370
    25
100
AcDbLine
 10
-104.797663
 20
-149.669725
 30
0.0
 11
-104.797663
 21
-136.669333
 31
0.0
  0
LINE
  5
8A
100
AcDbEntity
  8
2
370
    50
100
AcDbLine
 10
-105.797663
 20
-149.669725
 30
0.0
 11
-105.797663
 21
-136.669333
 31
0.0
  0
LINE
  5
8B
100
AcDbEntity
  8
2
370
    50
100
AcDbLine
 10
-107.547663
 20
-159.869725
 30
0.0
 11
-95.547663
 21
-159.869725
 31
0.0
  0
LINE
  5
8C
100
AcDbEntity
  8
2
370
    50
100
AcDbLine
 10
-109.297663
 20
-158.859362
 30
0.0
 11
-109.297663
 21
-153.369725
 31
0.0
  0
LINE
  5
8D
100
AcDbEntity
  8
2
370
    50
100
AcDbLine
 10
-107.547663
 20
-159.869725
 30
0.0
 11
-109.297663
 21
-158.859362
 31
0.0
  0
LINE
  5
8E
100
AcDbEntity
  8
2
370
    50
100
AcDbLine
 10
-115.547663
 20
-152.869725
 30
0.0
 11
-115.547663
 21
-151.669725
 31
0.0
  0
LINE
  5
8F
100
AcDbEntity
  8
2
370
    50
100
AcDbLine
 10
-95.547663
 20
-153.369725
 30
0.0
 11
-109.868213
 21
-153.369725
 31
0.0
  0
LINE
  5
90
100
AcDbEntity
  8
2
370
    50
100
AcDbLine
 10
-115.547663
 20
-151.669725
 30
0.0
 11
-95.547663
 21
-151.669725
 31
0.0
  0
LINE
  5
91
100
AcDbEntity
  8
2
370
    50
100
AcDbLine
 10
-115.547663
 20
-152.869725
 30
0.0
 11
-95.547663
 21
-152.869725
 31
0.0
  0
ARC
  5
92
100
AcDbEntity
  8
2
370
    50
100
AcDbCircle
 10
-109.868213
 20
-148.369725
 30
0.0
 40
5.0
100
AcDbArc
 50
246.443536
 51
270.0
  0
ARC
  5
93
100
AcDbEntity
  8
2
370
    50
100
AcDbCircle
 10
-109.868213
 20
-156.169725
 30
0.0
 40
5.0
100
AcDbArc
 50
90.0
 51
113.556464
  0
ARC
  5
94
100
AcDbEntity
  8
2
370
    50
100
AcDbCircle
 10
-112.266129
 20
-153.869725
 30
0.0
 40
1.0
100
AcDbArc
 50
66.443536
 51
90.0
  0
ARC
  5
95
100
AcDbEntity
  8
2
370
    50
100
AcDbCircle
 10
-112.266129
 20
-150.669725
 30
0.0
 40
1.0
100
AcDbArc
 50
270.0
 51
293.556464
  0
LINE
  5
96
100
AcDbEntity
  8
2
370
    50
100
AcDbLine
 10
-102.547663
 20
-158.859362
 30
0.0
 11
-102.547663
 21
-153.369725
 31
0.0
  0
ARC
  5
97
100
AcDbEntity
  8
2
370
    50
100
AcDbCircle
 10
-95.547663
 20
-135.115832
 30
0.0
 40
24.753893
100
AcDbArc
 50
253.573579
 51
270.0
  0
ARC
  5
98
100
AcDbEntity
  8
2
370
    50
100
AcDbCircle
 10
-105.922663
 20
-153.727646
 30
0.0
 40
6.142079
100
AcDbArc
 50
236.668091
 51
303.331909
  0
ARC
  5
99
100
AcDbEntity
  8
2
370
    50
100
AcDbCircle
 10
-95.547663
 20
-137.119725
 30
0.0
 40
16.25
100
AcDbArc
 50
255.749967
 51
270.0
  0
ARC
  5
9A
100
AcDbEntity
  8
2
370
    50
100
AcDbCircle
 10
-103.797663
 20
-137.119725
 30
0.0
 40
16.25
100
AcDbArc
 50
255.749967
 51
277.069714
  0
ARC
  5
9B
100
AcDbEntity
  8
2
370
    50
100
AcDbCircle
 10
-99.797663
 20
-137.119725
 30
0.0
 40
16.25
100
AcDbArc
 50
255.749967
 51
277.514045
  0
ARC
  5
9C
100
AcDbEntity
  8
2
370
    50
100
AcDbCircle
 10
-107.797663
 20
-137.119725
 30
0.0
 40
16.25
100
AcDbArc
 50
270.0
 51
277.069714
  0
ARC
  5
9D
100
AcDbEntity
  8
2
370
    50
100
AcDbCircle
 10
-95.547663
 20
-167.419725
 30
0.0
 40
16.25
100
AcDbArc
 50
90.0
 51
104.250033
  0
ARC
  5
9E
100
AcDbEntity
  8
2
370
    50
100
AcDbCircle
 10
-99.797663
 20
-167.419725
 30
0.0
 40
16.25
100
AcDbArc
 50
82.485955
 51
104.250033
  0
ARC
  5
9F
100
AcDbEntity
  8
2
370
    50
100
AcDbCircle
 10
-103.797663
 20
-167.419725
 30
0.0
 40
16.25
100
AcDbArc
 50
82.930286
 51
104.250033
  0
ARC
  5
A0
100
AcDbEntity
  8
2
370
    50
100
AcDbCircle
 10
-107.797663
 20
-167.419725
 30
0.0
 40
16.25
100
AcDbArc
 50
82.930286
 51
90.0
  0
LINE
  5
A1
100
AcDbEntity
  8
2
370
    50
100
AcDbLine
 10
-107.047663
 20
-191.669725
 30
0.0
 11
-95.547663
 21
-191.669725
 31
0.0
  0
ARC
  5
A2
100
AcDbEntity
  8
2
370
    50
100
AcDbCircle
 10
-93.272663
 20
-185.669725
 30
0.0
 40
15.025
100
AcDbArc
 50
156.463422
 51
203.536578
  0
LINE
  5
A3
100
AcDbEntity
  8
2
370
    50
100
AcDbLine
 10
-107.047663
 20
-179.669725
 30
0.0
 11
-95.547663
 21
-179.669725
 31
0.0
  0
ELLIPSE
  5
A4
100
AcDbEntity
  8
2
370
    50
100
AcDbEllipse
 10
-105.506955
 20
-185.669725
 30
0.0
 11
0.0
 21
6.0
 31
0.0
210
0.0
220
0.0
230
1.0
 40
0.458833
 41
0.0
 42
6.2831849999999996
  0
LINE
  5
A5
100
AcDbEntity
  8
2
370
    50
100
AcDbLine
 10
-105.797663
 20
-179.669725
 30
0.0
 11
-105.797663
 21
-159.869725
 31
0.0
  0
LINE
  5
A6
100
AcDbEntity
  8
2
370
    50
100
AcDbLine
 10
-113.047663
 20
-149.669725
 30
0.0
 11
-78.047663
 21
-149.669725
 31
0.0
  0
LINE
  5
A7
100
AcDbEntity
  8
2
370
    50
100
AcDbLine
 10
-79.047663
 20
30.830275
 30
0.0
 11
-112.047663
 21
30.830275
 31
0.0
  0
LINE
  5
A8
100
AcDbEntity
  8
2
370
    50
100
AcDbLine
 10
-78.547663
 20
121.830275
 30
0.0
 11
-78.547663
 21
31.330275
 31
0.0
  0
LINE
  5
A9
100
AcDbEntity
  8
2
370
    50
100
AcDbLine
 10
-95.547663
 20
122.330275
 30
0.0
 11
-112.047663
 21
122.330275
 31
0.0
  0
LINE
  5
AA
100
AcDbEntity
  8
2
370
    50
100
AcDbLine
 10
-112.047663
 20
122.330275
 30
0.0
 11
-112.547663
 21
121.830275
 31
0.0
  0
LINE
  5
AB
100
AcDbEntity
  8
2
370
    50
100
AcDbLine
 10
-109.547663
 20
122.330275
 30
0.0
 11
-109.547663
 21
123.430275
 31
0.0
  0
LINE
  5
AC
100
AcDbEntity
  8
2
370
    50
100
AcDbLine
 10
-112.547663
 20
31.330275
 30
0.0
 11
-112.547663
 21
90.330275
 31
0.0
  0
LINE
  5
AD
100
AcDbEntity
  8
2
370
    50
100
AcDbLine
 10
-112.547663
 20
109.330275
 30
0.0
 11
-112.547663
 21
121.830275
 31
0.0
  0
LINE
  5
AE
100
AcDbEntity
  8
2
370
    50
100
AcDbLine
 10
-78.547663
 20
31.330275
 30
0.0
 11
-79.047663
 21
30.830275
 31
0.0
  0
LINE
  5
AF
100
AcDbEntity
  8
2
370
    50
100
AcDbLine
 10
-112.547663
 20
31.330275
 30
0.0
 11
-112.047663
 21
30.830275
 31
0.0
  0
LINE
  5
B0
100
AcDbEntity
  8
2
370
    50
100
AcDbLine
 10
-81.547663
 20
122.330275
 30
0.0
 11
-81.547663
 21
123.430275
 31
0.0
  0
LINE
  5
B1
100
AcDbEntity
  8
2
370
    50
100
AcDbLine
 10
-95.547663
 20
122.330275
 30
0.0
 11
-79.047663
 21
122.330275
 31
0.0
  0
LINE
  5
B2
100
AcDbEntity
  8
2
370
    50
100
AcDbLine
 10
-79.047663
 20
122.330275
 30
0.0
 11
-78.547663
 21
121.830275
 31
0.0
  0
LINE
  5
B3
100
AcDbEntity
  8
2
370
    50
100
AcDbLine
 10
-112.547663
 20
109.330275
 30
0.0
 11
-162.548097
 21
109.330275
 31
0.0
  0
LINE
  5
B4
100
AcDbEntity
  8
2
370
    50
100
AcDbLine
 10
-112.547663
 20
90.330275
 30
0.0
 11
-162.548097
 21
90.330275
 31
0.0
  0
LINE
  5
B5
100
AcDbEntity
  8
2
370
    50
100
AcDbLine
 10
-192.806853
 20
95.220385
 30
0.0
 11
-199.234729
 21
87.559941
 31
0.0
  0
LINE
  5
B6
100
AcDbEntity
  8
2
370
    50
100
AcDbLine
 10
-178.252009
 20
83.007421
 30
0.0
 11
-184.679885
 21
75.346976
 31
0.0
  0
LINE
  5
B7
100
AcDbEntity
  8
2
370
    25
  6
CENTER
100
AcDbLine
 10
-162.548097
 20
99.830275
 30
0.0
 11
-95.547663
 21
99.830275
 31
0.0
  0
ARC
  5
B8
100
AcDbEntity
  8
2
370
    25
  6
CENTER
100
AcDbCircle
 10
-162.548097
 20
69.830275
 30
0.0
 40
30.0
100
AcDbArc
 50
90.0
 51
140.0
  0
ARC
  5
B9
100
AcDbEntity
  8
2
370
    50
100
AcDbCircle
 10
-162.548097
 20
69.830275
 30
0.0
 40
39.5
100
AcDbArc
 50
90.0
 51
140.0
  0
ARC
  5
BA
100
AcDbEntity
  8
2
370
    50
100
AcDbCircle
 10
-162.548097
 20
69.830275
 30
0.0
 40
20.5
100
AcDbArc
 50
90.0
 51
140.0
  0
LINE
  5
BB
100
AcDbEntity
  8
2
370
    50
100
AcDbLine
 10
-184.679885
 20
75.346976
 30
0.0
 11
-191.957307
 21
81.453459
 31
0.0
  0
LINE
  5
BC
100
AcDbEntity
  8
2
370
    50
100
AcDbLine
 10
-191.957307
 20
81.453459
 30
0.0
 11
-199.234729
 21
87.559941
 31
0.0
  0
LINE
  5
BD
100
AcDbEntity
  8
2
370
    50
100
AcDbLine
 10
-198.688679
 20
59.818738
 30
0.0
 11
-212.094457
 21
71.067521
 31
0.0
  0
LINE
  5
BE
100
AcDbEntity
  8
2
370
    50
100
AcDbLine
 10
-185.449905
 20
74.818233
 30
0.0
 11
-197.984263
 21
59.880367
 31
0.0
  0
LINE
  5
BF
100
AcDbEntity
  8
2
370
    50
100
AcDbLine
 10
-199.621727
 20
86.709804
 30
0.0
 11
-212.156085
 21
71.771937
 31
0.0
  0
ARC
  5
C0
100
AcDbEntity
  8
2
370
    50
100
AcDbCircle
 10
-211.773063
 20
71.450544
 30
0.0
 40
0.5
100
AcDbArc
 50
140.0
 51
230.0
  0
LINE
  5
C1
100
AcDbEntity
  8
2
370
    50
100
AcDbLine
 10
-185.449905
 20
74.818233
 30
0.0
 11
-192.535816
 21
80.764019
 31
0.0
  0
LINE
  5
C2
100
AcDbEntity
  8
2
370
    50
100
AcDbLine
 10
-192.535816
 20
80.764019
 30
0.0
 11
-199.621727
 21
86.709804
 31
0.0
  0
LINE
  5
C3
100
AcDbEntity
  8
2
370
    50
100
AcDbLine
 10
-186.153899
 20
75.408955
 30
0.0
 11
-185.896784
 21
75.715373
 31
0.0
  0
LINE
  5
C4
100
AcDbEntity
  8
2
370
    50
100
AcDbLine
 10
-185.001278
 20
74.963954
 30
0.0
 11
-192.278701
 21
81.070436
 31
0.0
  0
LINE
  5
C5
100
AcDbEntity
  8
2
370
    50
100
AcDbLine
 10
-198.660617
 20
86.4255
 30
0.0
 11
-198.917732
 21
86.119082
 31
0.0
  0
LINE
  5
C6
100
AcDbEntity
  8
2
370
    50
100
AcDbLine
 10
-192.278701
 20
81.070436
 30
0.0
 11
-199.556123
 21
87.176919
 31
0.0
  0
LINE
  5
C7
100
AcDbEntity
  8
2
370
    50
100
AcDbLine
 10
-199.234729
 20
87.559941
 30
0.0
 11
-199.556123
 21
87.176919
 31
0.0
  0
LINE
  5
C8
100
AcDbEntity
  8
2
370
    50
100
AcDbLine
 10
-184.679885
 20
75.346976
 30
0.0
 11
-185.001278
 21
74.963954
 31
0.0
  0
LINE
  5
C9
100
AcDbEntity
  8
2
370
    50
100
AcDbLine
 10
-184.679885
 20
75.346976
 30
0.0
 11
-185.254418
 21
75.829067
 31
0.0
  0
LINE
  5
CA
100
AcDbEntity
  8
2
370
    50
100
AcDbLine
 10
-199.234729
 20
87.559941
 30
0.0
 11
-198.660196
 21
87.07785
 31
0.0
  0
LINE
  5
CB
100
AcDbEntity
  8
2
370
    25
  6
CENTER
100
AcDbLine
 10
-185.529431
 20
89.113903
 30
0.0
 11
-206.894629
 21
63.651852
 31
0.0
  0
ARC
  5
CC
100
AcDbEntity
  8
2
370
    25
100
AcDbCircle
 10
-119.072663
 20
99.830275
 30
0.0
 40
11.525
100
AcDbArc
 50
304.482919
 51
55.517081
  0
LINE
  5
CD
100
AcDbEntity
  8
2
370
    25
100
AcDbLine
 10
-112.547663
 20
121.830275
 30
0.0
 11
-78.547663
 21
121.830275
 31
0.0
  0
LINE
  5
CE
100
AcDbEntity
  8
2
370
    50
100
AcDbLine
 10
-115.047663
 20
-134.669725
 30
0.0
 11
-115.047663
 21
-136.669725
 31
0.0
  0
LINE
  5
CF
100
AcDbEntity
  8
2
370
    50
100
AcDbLine
 10
-115.047663
 20
-136.669725
 30
0.0
 11
-95.547663
 21
-136.669725
 31
0.0
  0
LINE
  5
D0
100
AcDbEntity
  8
2
370
    50
100
AcDbLine
 10
-116.547663
 20
-134.669725
 30
0.0
 11
-95.547663
 21
-134.669725
 31
0.0
  0
LINE
  5
D1
100
AcDbEntity
  8
2
370
    50
100
AcDbLine
 10
-117.047663
 20
-134.169725
 30
0.0
 11
-116.547663
 21
-134.669725
 31
0.0
  0
LINE
  5
D2
100
AcDbEntity
  8
2
370
    50
100
AcDbLine
 10
-117.047663
 20
-129.669725
 30
0.0
 11
-117.047663
 21
-134.169725
 31
0.0
  0
LINE
  5
D3
100
AcDbEntity
  8
2
370
    50
100
AcDbLine
 10
-116.547663
 20
-129.169725
 30
0.0
 11
-117.047663
 21
-129.669725
 31
0.0
  0
LINE
  5
D4
100
AcDbEntity
  8
2
370
    50
100
AcDbLine
 10
-95.547663
 20
-129.169725
 30
0.0
 11
-116.547663
 21
-129.169725
 31
0.0
  0
LINE
  5
D5
100
AcDbEntity
  8
2
370
    50
100
AcDbLine
 10
-95.547663
 20
-129.169725
 30
0.0
 11
-74.547663
 21
-129.169725
 31
0.0
  0
LINE
  5
D6
100
AcDbEntity
  8
2
370
    50
100
AcDbLine
 10
-74.547663
 20
-129.169725
 30
0.0
 11
-74.047663
 21
-129.669725
 31
0.0
  0
LINE
  5
D7
100
AcDbEntity
  8
2
370
    50
100
AcDbLine
 10
-74.047663
 20
-129.669725
 30
0.0
 11
-74.047663
 21
-134.169725
 31
0.0
  0
LINE
  5
D8
100
AcDbEntity
  8
2
370
    50
100
AcDbLine
 10
-74.047663
 20
-134.169725
 30
0.0
 11
-74.547663
 21
-134.669725
 31
0.0
  0
LINE
  5
D9
100
AcDbEntity
  8
2
370
    50
100
AcDbLine
 10
-74.547663
 20
-134.669725
 30
0.0
 11
-95.547663
 21
-134.669725
 31
0.0
  0
LINE
  5
DA
100
AcDbEntity
  8
2
370
    50
100
AcDbLine
 10
-76.047663
 20
-134.669725
 30
0.0
 11
-76.047663
 21
-136.669725
 31
0.0
  0
LINE
  5
DB
100
AcDbEntity
  8
2
370
    50
100
AcDbLine
 10
-76.047663
 20
-136.669725
 30
0.0
 11
-95.547663
 21
-136.669725
 31
0.0
  0
LINE
  5
DC
100
AcDbEntity
  8
2
370
    25
100
AcDbLine
 10
-112.547663
 20
31.330275
 30
0.0
 11
-78.547663
 21
31.330275
 31
0.0
  0
LINE
  5
DD
100
AcDbEntity
  8
2
370
    25
100
AcDbLine
 10
-74.047663
 20
-129.669725
 30
0.0
 11
-117.047663
 21
-129.669725
 31
0.0
  0
LINE
  5
DE
100
AcDbEntity
  8
2
370
    25
100
AcDbLine
 10
-117.047663
 20
-134.169725
 30
0.0
 11
-74.047663
 21
-134.169725
 31
0.0
  0
LINE
  5
DF
100
AcDbEntity
  8
2
370
    25
  6
CENTER
100
AcDbLine
 10
-76.688762
 20
211.084867
 30
0.0
 11
-213.928134
 21
211.084867
 31
0.0
  0
LINE
  5
E0
100
AcDbEntity
  8
2
370
    50
100
AcDbLine
 10
-109.524787
 20
220.584867
 30
0.0
 11
-205.391479
 21
220.584867
 31
0.0
  0
LINE
  5
E1
100
AcDbEntity
  8
2
370
    50
100
AcDbLine
 10
-109.524787
 20
201.584867
 30
0.0
 11
-205.391479
 21
201.584867
 31
0.0
  0
ELLIPSE
  5
E2
100
AcDbEntity
  8
2
370
    50
100
AcDbEllipse
 10
-205.391479
 20
211.084867
 30
0.0
 11
0.0
 21
9.5
 31
0.0
210
0.0
220
0.0
230
1.0
 40
0.745895
 41
0.0
 42
3.1415929999999999
  0
ELLIPSE
  5
E3
100
AcDbEntity
  8
2
370
    50
100
AcDbEllipse
 10
-192.535727
 20
211.084867
 30
0.0
 11
0.0
 21
9.5
 31
0.0
210
0.0
220
0.0
230
1.0
 40
0.745895
 41
0.0
 42
3.1415929999999999
  0
ELLIPSE
  5
E4
100
AcDbEntity
  8
2
370
    50
100
AcDbEllipse
 10
-192.278373
 20
211.084867
 30
0.0
 11
0.0
 21
9.5
 31
0.0
210
0.0
220
0.0
230
1.0
 40
0.745895
 41
0.0
 42
3.1415929999999999
  0
ELLIPSE
  5
E5
100
AcDbEntity
  8
2
370
    25
100
AcDbEllipse
 10
-191.957373
 20
211.084867
 30
0.0
 11
0.0
 21
9.5
 31
0.0
210
0.0
220
0.0
230
1.0
 40
0.745895
 41
0.0
 42
3.1415929999999999
  0
LINE
  5
E6
100
AcDbEntity
  8
2
370
    25
  6
CENTER
100
AcDbLine
 10
-95.547663
 20
-193.387749
 30
0.0
 11
-95.547663
 21
160.998046
 31
0.0
  0
ARC
  5
E7
100
AcDbEntity
  8
2
370
    50
100
AcDbCircle
 10
-198.367285
 20
60.20176
 30
0.0
 40
0.5
100
AcDbArc
 50
230.0
 51
320.0
  0
POINT
  5
E8
100
AcDbEntity
  8
2
370
    50
100
AcDbPoint
 10
-205.391568
 20
65.44313
 30
0.0
  0
HATCH
  5
E9
100
AcDbEntity
  8
2
370
    25
100
AcDbHatch
 10
0.0
 20
0.0
 30
0.0
210
0.0
220
0.0
230
1.0
  2
_U
 70
     0
 71
     1
 91
        1
 92
        1
 93
        6
 72
     1
 10
-76.047663
 20
-136.669725
 11
-76.047663
 21
-134.669725
 72
     1
 10
-76.047663
 20
-134.669725
 11
-95.547663
 21
-134.669725
 72
     1
 10
-95.547663
 20
-134.669725
 11
-115.047663
 21
-134.669725
 72
     1
 10
-115.047663
 20
-134.669725
 11
-115.047663
 21
-136.669725
 72
     1
 10
-115.047663
 20
-136.669725
 11
-95.547663
 21
-136.669725
 72
     1
 10
-95.547663
 20
-136.669725
 11
-76.047663
 21
-136.669725
 97
        6
330
0
330
0
330
0
330
0
330
0
330
0
 75
     0
 76
     0
 52
45.0
 41
1.0
 77
     0
 78
     1
 53
45.0
 43
0.0
 44
0.0
 45
-1.4142140000000001
 46
1.4142140000000001
 79
     0
 98
        1
 10
0.0
 20
0.0
  0
HATCH
  5
EA
100
AcDbEntity
  8
2
370
    25
100
AcDbHatch
 10
0.0
 20
0.0
 30
0.0
210
0.0
220
0.0
230
1.0
  2
_U
 70
     0
 71
     1
 91
        1
 92
        1
 93
        5
 72
     1
 10
-78.047663
 20
-149.669725
 11
-78.047663
 21
-151.169725
 72
     1
 10
-78.047663
 20
-151.169725
 11
-95.547663
 21
-151.169725
 72
     1
 10
-95.547663
 20
-151.169725
 11
-113.047663
 21
-151.169725
 72
     1
 10
-113.047663
 20
-151.169725
 11
-113.047663
 21
-149.669725
 72
     1
 10
-113.047663
 20
-149.669725
 11
-78.047663
 21
-149.669725
 97
        5
330
0
330
0
330
0
330
0
330
0
 75
     0
 76
     0
 52
45.0
 41
1.0
 77
     0
 78
     1
 53
45.0
 43
0.0
 44
0.0
 45
-1.4142140000000001
 46
1.4142140000000001
 79
     0
 98
        1
 10
0.0
 20
0.0
  0
LINE
  5
EB
100
AcDbEntity
  8
2
370
    50
100
AcDbLine
 10
-78.547663
 20
30.330275
 30
0.0
 11
-78.547663
 21
-128.669725
 31
0.0
  0
LINE
  5
EC
100
AcDbEntity
  8
2
370
    50
100
AcDbLine
 10
-112.547663
 20
30.330275
 30
0.0
 11
-112.547663
 21
-128.669725
 31
0.0
  0
LINE
  5
ED
100
AcDbEntity
  8
2
370
    50
100
AcDbLine
 10
-112.047663
 20
30.830275
 30
0.0
 11
-112.547663
 21
30.330275
 31
0.0
  0
LINE
  5
EE
100
AcDbEntity
  8
2
370
    50
100
AcDbLine
 10
-79.047663
 20
30.830275
 30
0.0
 11
-78.547663
 21
30.330275
 31
0.0
  0
LINE
  5
EF
100
AcDbEntity
  8
2
370
    25
100
AcDbLine
 10
-112.547663
 20
30.330275
 30
0.0
 11
-78.547663
 21
30.330275
 31
0.0
  0
LINE
  5
F0
100
AcDbEntity
  8
2
370
    50
100
AcDbLine
 10
-112.547663
 20
-128.669725
 30
0.0
 11
-112.047663
 21
-129.169725
 31
0.0
  0
LINE
  5
F1
100
AcDbEntity
  8
2
370
    50
100
AcDbLine
 10
-78.547663
 20
-128.669725
 30
0.0
 11
-79.047663
 21
-129.169725
 31
0.0
  0
LINE
  5
F2
100
AcDbEntity
  8
2
370
    50
100
AcDbLine
 10
-112.547663
 20
-128.669725
 30
0.0
 11
-78.547663
 21
-128.669725
 31
0.0
  0
POINT
  5
F3
100
AcDbEntity
  8
2
370
    50
100
AcDbPoint
 10
-95.547663
 20
-124.169725
 30
0.0
  0
POINT
  5
F4
100
AcDbEntity
  8
2
370
    50
100
AcDbPoint
 10
-95.547663
 20
-124.169725
 30
0.0
  0
POINT
  5
F5
100
AcDbEntity
  8
2
370
    50
100
AcDbPoint
 10
-95.547663
 20
-124.169725
 30
0.0
  0
POINT
  5
F6
100
AcDbEntity
  8
2
370
    50
100
AcDbPoint
 10
-95.547663
 20
211.084867
 30
0.0
  0
LINE
  5
F7
100
AcDbEntity
  8
2
370
    25
  6
DASHED
100
AcDbLine
 10
-99.047663
 20
194.449062
 30
0.0
 11
-99.047663
 21
170.584867
 31
0.0
  0
LINE
  5
F8
100
AcDbEntity
  8
2
370
    25
  6
DASHED
100
AcDbLine
 10
-99.047663
 20
170.584867
 30
0.0
 11
-92.047663
 21
170.584867
 31
0.0
  0
LINE
  5
F9
100
AcDbEntity
  8
2
370
    25
  6
DASHED
100
AcDbLine
 10
-92.047663
 20
194.449062
 30
0.0
 11
-92.047663
 21
170.584867
 31
0.0
  0
LINE
  5
FA
100
AcDbEntity
  8
2
370
    25
  6
DASHED
100
AcDbLine
 10
-92.547663
 20
170.084867
 30
0.0
 11
-98.547663
 21
170.084867
 31
0.0
  0
LINE
  5
FB
100
AcDbEntity
  8
2
370
    25
  6
DASHED
100
AcDbLine
 10
-99.047663
 20
170.584867
 30
0.0
 11
-98.547663
 21
170.084867
 31
0.0
  0
LINE
  5
FC
100
AcDbEntity
  8
2
370
    25
  6
DASHED
100
AcDbLine
 10
-92.047663
 20
170.584867
 30
0.0
 11
-92.547663
 21
170.084867
 31
0.0
  0
LINE
  5
FD
100
AcDbEntity
  8
2
370
    25
  6
CENTER
100
AcDbLine
 10
-95.547663
 20
210.79775
 30
0.0
 11
-95.547663
 21
167.4245
 31
0.0
  0
ARC
  5
FE
100
AcDbEntity
  8
2
370
    25
100
AcDbCircle
 10
-95.547663
 20
211.084867
 30
0.0
 40
21.0
100
AcDbArc
 50
206.896546
 51
153.103454
  0
ARC
  5
FF
100
AcDbEntity
  8
2
370
    50
100
AcDbCircle
 10
-95.547663
 20
211.084867
 30
0.0
 40
21.5
100
AcDbArc
 50
206.222647
 51
153.777353
  0
LINE
  5
100
100
AcDbEntity
  8
2
370
    25
  6
CENTER
100
AcDbLine
 10
-95.547663
 20
188.584867
 30
0.0
 11
-95.547663
 21
233.584867
 31
0.0
  0
LINE
  5
101
100
AcDbEntity
  8
2
370
    50
100
AcDbLine
 10
-112.081265
 20
214.584867
 30
0.0
 11
-135.947663
 21
214.584867
 31
0.0
  0
LINE
  5
102
100
AcDbEntity
  8
2
370
    50
100
AcDbLine
 10
-112.081265
 20
207.584867
 30
0.0
 11
-135.947663
 21
207.584867
 31
0.0
  0
LINE
  5
103
100
AcDbEntity
  8
2
370
    50
100
AcDbLine
 10
-136.447663
 20
208.084867
 30
0.0
 11
-136.447663
 21
214.084867
 31
0.0
  0
LINE
  5
104
100
AcDbEntity
  8
2
370
    50
100
AcDbLine
 10
-135.947663
 20
214.584867
 30
0.0
 11
-136.447663
 21
214.084867
 31
0.0
  0
LINE
  5
105
100
AcDbEntity
  8
2
370
    50
100
AcDbLine
 10
-135.947663
 20
207.584867
 30
0.0
 11
-136.447663
 21
208.084867
 31
0.0
  0
LINE
  5
106
100
AcDbEntity
  8
2
370
    25
100
AcDbLine
 10
-135.947663
 20
214.584867
 30
0.0
 11
-135.947663
 21
207.584867
 31
0.0
  0
POINT
  5
107
100
AcDbEntity
  8
2
370
    50
100
AcDbPoint
 10
-95.547663
 20
211.084867
 30
0.0
  0
LINE
  5
108
100
AcDbEntity
  8
2
370
    25
  6
DASHED
100
AcDbLine
 10
-99.047663
 20
194.449062
 30
0.0
 11
-99.047663
 21
170.584867
 31
0.0
  0
LINE
  5
109
100
AcDbEntity
  8
2
370
    25
  6
DASHED
100
AcDbLine
 10
-99.047663
 20
170.584867
 30
0.0
 11
-92.047663
 21
170.584867
 31
0.0
  0
LINE
  5
10A
100
AcDbEntity
  8
2
370
    25
  6
DASHED
100
AcDbLine
 10
-92.047663
 20
194.449062
 30
0.0
 11
-92.047663
 21
170.584867
 31
0.0
  0
LINE
  5
10B
100
AcDbEntity
  8
2
370
    25
  6
DASHED
100
AcDbLine
 10
-92.547663
 20
170.084867
 30
0.0
 11
-98.547663
 21
170.084867
 31
0.0
  0
LINE
  5
10C
100
AcDbEntity
  8
2
370
    25
  6
DASHED
100
AcDbLine
 10
-99.047663
 20
170.584867
 30
0.0
 11
-98.547663
 21
170.084867
 31
0.0
  0
LINE
  5
10D
100
AcDbEntity
  8
2
370
    25
  6
DASHED
100
AcDbLine
 10
-92.047663
 20
170.584867
 30
0.0
 11
-92.547663
 21
170.084867
 31
0.0
  0
CIRCLE
  5
10E
100
AcDbEntity
  8
2
370
    50
100
AcDbCircle
 10
-95.547663
 20
211.084867
 30
0.0
 40
16.9
  0
CIRCLE
  5
10F
100
AcDbEntity
  8
2
370
    50
100
AcDbCircle
 10
-95.547663
 20
211.084867
 30
0.0
 40
14.75
  0
CIRCLE
  5
110
100
AcDbEntity
  8
2
370
    50
100
AcDbCircle
 10
-95.547663
 20
211.084867
 30
0.0
 40
14.45
  0
LINE
  5
111
100
AcDbEntity
  8
2
370
    50
100
AcDbLine
 10
-80.850724
 20
214.084867
 30
0.0
 11
-78.916066
 21
214.084867
 31
0.0
  0
LINE
  5
112
100
AcDbEntity
  8
2
370
    50
100
AcDbLine
 10
-80.850724
 20
208.084867
 30
0.0
 11
-78.916066
 21
208.084867
 31
0.0
  0
ARC
  5
113
100
AcDbEntity
  8
2
370
    50
100
AcDbCircle
 10
-95.547663
 20
211.084867
 30
0.0
 40
16.4
100
AcDbArc
 50
10.540286
 51
349.459714
  0
ARC
  5
114
100
AcDbEntity
  8
2
370
    50
100
AcDbCircle
 10
-95.547663
 20
211.084867
 30
0.0
 40
15.3
100
AcDbArc
 50
11.307729
 51
348.692271
  0
ARC
  5
115
100
AcDbEntity
  8
2
370
    50
100
AcDbCircle
 10
-95.547663
 20
211.084867
 30
0.0
 40
15.0
100
AcDbArc
 50
11.536959
 51
348.463041
  0
LINE
  5
116
100
AcDbEntity
  8
2
370
    50
100
AcDbLine
 10
-78.647663
 20
123.930275
 30
0.0
 11
-79.147663
 21
123.430275
 31
0.0
  0
LINE
  5
117
100
AcDbEntity
  8
2
370
    50
100
AcDbLine
 10
-78.647663
 20
123.930275
 30
0.0
 11
-78.647663
 21
155.930275
 31
0.0
  0
LINE
  5
118
100
AcDbEntity
  8
2
370
    50
100
AcDbLine
 10
-111.947663
 20
123.430275
 30
0.0
 11
-79.147663
 21
123.430275
 31
0.0
  0
LINE
  5
119
100
AcDbEntity
  8
2
370
    50
100
AcDbLine
 10
-112.447663
 20
123.930275
 30
0.0
 11
-111.947663
 21
123.430275
 31
0.0
  0
LINE
  5
11A
100
AcDbEntity
  8
2
370
    50
100
AcDbLine
 10
-79.147663
 20
156.430275
 30
0.0
 11
-111.947663
 21
156.430275
 31
0.0
  0
LINE
  5
11B
100
AcDbEntity
  8
2
370
    50
100
AcDbLine
 10
-78.647663
 20
155.930275
 30
0.0
 11
-79.147663
 21
156.430275
 31
0.0
  0
LINE
  5
11C
100
AcDbEntity
  8
2
370
    50
100
AcDbLine
 10
-111.947663
 20
156.430275
 30
0.0
 11
-112.447663
 21
155.930275
 31
0.0
  0
LINE
  5
11D
100
AcDbEntity
  8
2
370
    50
100
AcDbLine
 10
-112.447663
 20
123.930275
 30
0.0
 11
-112.447663
 21
139.230275
 31
0.0
  0
LINE
  5
11E
100
AcDbEntity
  8
2
370
    50
100
AcDbLine
 10
-112.447663
 20
146.630275
 30
0.0
 11
-112.447663
 21
155.930275
 31
0.0
  0
LINE
  5
11F
100
AcDbEntity
  8
2
370
    50
100
AcDbLine
 10
-135.947663
 20
146.430275
 30
0.0
 11
-112.404058
 21
146.430275
 31
0.0
  0
LINE
  5
120
100
AcDbEntity
  8
2
370
    50
100
AcDbLine
 10
-135.947663
 20
139.430275
 30
0.0
 11
-112.404058
 21
139.430275
 31
0.0
  0
LINE
  5
121
100
AcDbEntity
  8
2
370
    50
100
AcDbLine
 10
-136.447663
 20
145.930275
 30
0.0
 11
-136.447663
 21
139.930275
 31
0.0
  0
LINE
  5
122
100
AcDbEntity
  8
2
370
    50
100
AcDbLine
 10
-135.947663
 20
146.430275
 30
0.0
 11
-136.447663
 21
145.930275
 31
0.0
  0
LINE
  5
123
100
AcDbEntity
  8
2
370
    50
100
AcDbLine
 10
-135.947663
 20
139.430275
 30
0.0
 11
-136.447663
 21
139.930275
 31
0.0
  0
LINE
  5
124
100
AcDbEntity
  8
2
370
    50
100
AcDbLine
 10
-78.647663
 20
155.930275
 30
0.0
 11
-112.447663
 21
155.930275
 31
0.0
  0
LINE
  5
125
100
AcDbEntity
  8
2
370
    50
100
AcDbLine
 10
-78.647663
 20
123.930275
 30
0.0
 11
-112.447663
 21
123.930275
 31
0.0
  0
ARC
  5
126
100
AcDbEntity
  8
2
370
    50
100
AcDbCircle
 10
-128.93766
 20
142.930275
 30
0.0
 40
16.9
100
AcDbArc
 50
347.353517
 51
12.646483
  0
LINE
  5
127
100
AcDbEntity
  8
2
370
    50
100
AcDbLine
 10
-135.947663
 20
146.430275
 30
0.0
 11
-135.947663
 21
139.430275
 31
0.0
  0
LINE
  5
128
100
AcDbEntity
  8
2
370
    50
100
AcDbLine
 10
110.598944
 20
-151.169725
 30
0.0
 11
110.598944
 21
-149.669725
 31
0.0
  0
LINE
  5
129
100
AcDbEntity
  8
2
370
    50
100
AcDbLine
 10
128.098944
 20
-151.169725
 30
0.0
 11
110.598944
 21
-151.169725
 31
0.0
  0
LINE
  5
12A
100
AcDbEntity
  8
2
370
    25
100
AcDbLine
 10
118.848944
 20
-179.669725
 30
0.0
 11
118.848944
 21
-159.869725
 31
0.0
  0
LINE
  5
12B
100
AcDbEntity
  8
2
370
    25
100
AcDbLine
 10
118.848944
 20
-149.669725
 30
0.0
 11
118.848944
 21
-136.669333
 31
0.0
  0
LINE
  5
12C
100
AcDbEntity
  8
2
370
    50
100
AcDbLine
 10
117.848944
 20
-149.669725
 30
0.0
 11
117.848944
 21
-136.669333
 31
0.0
  0
LINE
  5
12D
100
AcDbEntity
  8
2
370
    50
100
AcDbLine
 10
116.098944
 20
-159.869725
 30
0.0
 11
128.098944
 21
-159.869725
 31
0.0
  0
LINE
  5
12E
100
AcDbEntity
  8
2
370
    50
100
AcDbLine
 10
114.348944
 20
-158.859362
 30
0.0
 11
114.348944
 21
-153.369725
 31
0.0
  0
LINE
  5
12F
100
AcDbEntity
  8
2
370
    50
100
AcDbLine
 10
116.098944
 20
-159.869725
 30
0.0
 11
114.348944
 21
-158.859362
 31
0.0
  0
LINE
  5
130
100
AcDbEntity
  8
2
370
    50
100
AcDbLine
 10
108.098944
 20
-152.869725
 30
0.0
 11
108.098944
 21
-151.669725
 31
0.0
  0
LINE
  5
131
100
AcDbEntity
  8
2
370
    50
100
AcDbLine
 10
128.098944
 20
-153.369725
 30
0.0
 11
113.778393
 21
-153.369725
 31
0.0
  0
LINE
  5
132
100
AcDbEntity
  8
2
370
    50
100
AcDbLine
 10
108.098944
 20
-151.669725
 30
0.0
 11
128.098944
 21
-151.669725
 31
0.0
  0
LINE
  5
133
100
AcDbEntity
  8
2
370
    50
100
AcDbLine
 10
108.098944
 20
-152.869725
 30
0.0
 11
128.098944
 21
-152.869725
 31
0.0
  0
ARC
  5
134
100
AcDbEntity
  8
2
370
    50
100
AcDbCircle
 10
113.778393
 20
-148.369725
 30
0.0
 40
5.0
100
AcDbArc
 50
246.443536
 51
270.0
  0
ARC
  5
135
100
AcDbEntity
  8
2
370
    50
100
AcDbCircle
 10
113.778393
 20
-156.169725
 30
0.0
 40
5.0
100
AcDbArc
 50
90.0
 51
113.556464
  0
ARC
  5
136
100
AcDbEntity
  8
2
370
    50
100
AcDbCircle
 10
111.380477
 20
-153.869725
 30
0.0
 40
1.0
100
AcDbArc
 50
66.443536
 51
90.0
  0
ARC
  5
137
100
AcDbEntity
  8
2
370
    50
100
AcDbCircle
 10
111.380477
 20
-150.669725
 30
0.0
 40
1.0
100
AcDbArc
 50
270.0
 51
293.556464
  0
LINE
  5
138
100
AcDbEntity
  8
2
370
    50
100
AcDbLine
 10
121.098944
 20
-158.859362
 30
0.0
 11
121.098944
 21
-153.369725
 31
0.0
  0
ARC
  5
139
100
AcDbEntity
  8
2
370
    50
100
AcDbCircle
 10
128.098944
 20
-135.115832
 30
0.0
 40
24.753893
100
AcDbArc
 50
253.573579
 51
270.0
  0
ARC
  5
13A
100
AcDbEntity
  8
2
370
    50
100
AcDbCircle
 10
117.723944
 20
-153.727646
 30
0.0
 40
6.142079
100
AcDbArc
 50
236.668091
 51
303.331909
  0
ARC
  5
13B
100
AcDbEntity
  8
2
370
    50
100
AcDbCircle
 10
128.098944
 20
-137.119725
 30
0.0
 40
16.25
100
AcDbArc
 50
255.749967
 51
270.0
  0
ARC
  5
13C
100
AcDbEntity
  8
2
370
    50
100
AcDbCircle
 10
119.848944
 20
-137.119725
 30
0.0
 40
16.25
100
AcDbArc
 50
255.749967
 51
277.069714
  0
ARC
  5
13D
100
AcDbEntity
  8
2
370
    50
100
AcDbCircle
 10
123.848944
 20
-137.119725
 30
0.0
 40
16.25
100
AcDbArc
 50
255.749967
 51
277.514045
  0
ARC
  5
13E
100
AcDbEntity
  8
2
370
    50
100
AcDbCircle
 10
115.848944
 20
-137.119725
 30
0.0
 40
16.25
100
AcDbArc
 50
270.0
 51
277.069714
  0
ARC
  5
13F
100
AcDbEntity
  8
2
370
    50
100
AcDbCircle
 10
128.098944
 20
-167.419725
 30
0.0
 40
16.25
100
AcDbArc
 50
90.0
 51
104.250033
  0
ARC
  5
140
100
AcDbEntity
  8
2
370
    50
100
AcDbCircle
 10
123.848944
 20
-167.419725
 30
0.0
 40
16.25
100
AcDbArc
 50
82.485955
 51
104.250033
  0
ARC
  5
141
100
AcDbEntity
  8
2
370
    50
100
AcDbCircle
 10
119.848944
 20
-167.419725
 30
0.0
 40
16.25
100
AcDbArc
 50
82.930286
 51
104.250033
  0
ARC
  5
142
100
AcDbEntity
  8
2
370
    50
100
AcDbCircle
 10
115.848944
 20
-167.419725
 30
0.0
 40
16.25
100
AcDbArc
 50
82.930286
 51
90.0
  0
LINE
  5
143
100
AcDbEntity
  8
2
370
    50
100
AcDbLine
 10
116.598944
 20
-191.669725
 30
0.0
 11
128.098944
 21
-191.669725
 31
0.0
  0
ARC
  5
144
100
AcDbEntity
  8
2
370
    50
100
AcDbCircle
 10
130.373944
 20
-185.669725
 30
0.0
 40
15.025
100
AcDbArc
 50
156.463422
 51
203.536578
  0
LINE
  5
145
100
AcDbEntity
  8
2
370
    50
100
AcDbLine
 10
116.598944
 20
-179.669725
 30
0.0
 11
128.098944
 21
-179.669725
 31
0.0
  0
ELLIPSE
  5
146
100
AcDbEntity
  8
2
370
    50
100
AcDbEllipse
 10
118.139652
 20
-185.669725
 30
0.0
 11
0.0
 21
6.0
 31
0.0
210
0.0
220
0.0
230
1.0
 40
0.458833
 41
0.0
 42
6.2831849999999996
  0
ELLIPSE
  5
147
100
AcDbEntity
  8
2
370
    50
100
AcDbEllipse
 10
128.098944
 20
-185.669725
 30
0.0
 11
0.0
 21
6.0
 31
0.0
210
0.0
220
0.0
230
1.0
 40
0.926667
 41
0.0
 42
6.2831849999999996
  0
LINE
  5
148
100
AcDbEntity
  8
2
370
    50
100
AcDbLine
 10
117.848944
 20
-179.669725
 30
0.0
 11
117.848944
 21
-159.869725
 31
0.0
  0
LINE
  5
149
100
AcDbEntity
  8
2
370
    50
100
AcDbLine
 10
145.598944
 20
-151.169725
 30
0.0
 11
145.598944
 21
-149.669725
 31
0.0
  0
LINE
  5
14A
100
AcDbEntity
  8
2
370
    50
100
AcDbLine
 10
128.098944
 20
-151.169725
 30
0.0
 11
145.598944
 21
-151.169725
 31
0.0
  0
LINE
  5
14B
100
AcDbEntity
  8
2
370
    25
100
AcDbLine
 10
137.348944
 20
-179.669725
 30
0.0
 11
137.348944
 21
-159.869725
 31
0.0
  0
LINE
  5
14C
100
AcDbEntity
  8
2
370
    25
100
AcDbLine
 10
137.348944
 20
-149.669725
 30
0.0
 11
137.348944
 21
-136.669333
 31
0.0
  0
LINE
  5
14D
100
AcDbEntity
  8
2
370
    50
100
AcDbLine
 10
138.348944
 20
-149.669725
 30
0.0
 11
138.348944
 21
-136.669333
 31
0.0
  0
LINE
  5
14E
100
AcDbEntity
  8
2
370
    50
100
AcDbLine
 10
140.098944
 20
-159.869725
 30
0.0
 11
128.098944
 21
-159.869725
 31
0.0
  0
LINE
  5
14F
100
AcDbEntity
  8
2
370
    50
100
AcDbLine
 10
141.848944
 20
-158.859362
 30
0.0
 11
141.848944
 21
-153.369725
 31
0.0
  0
LINE
  5
150
100
AcDbEntity
  8
2
370
    50
100
AcDbLine
 10
140.098944
 20
-159.869725
 30
0.0
 11
141.848944
 21
-158.859362
 31
0.0
  0
LINE
  5
151
100
AcDbEntity
  8
2
370
    50
100
AcDbLine
 10
148.098944
 20
-152.869725
 30
0.0
 11
148.098944
 21
-151.669725
 31
0.0
  0
LINE
  5
152
100
AcDbEntity
  8
2
370
    50
100
AcDbLine
 10
128.098944
 20
-153.369725
 30
0.0
 11
142.419494
 21
-153.369725
 31
0.0
  0
LINE
  5
153
100
AcDbEntity
  8
2
370
    50
100
AcDbLine
 10
148.098944
 20
-151.669725
 30
0.0
 11
128.098944
 21
-151.669725
 31
0.0
  0
LINE
  5
154
100
AcDbEntity
  8
2
370
    50
100
AcDbLine
 10
148.098944
 20
-152.869725
 30
0.0
 11
128.098944
 21
-152.869725
 31
0.0
  0
ARC
  5
155
100
AcDbEntity
  8
2
370
    50
100
AcDbCircle
 10
142.419494
 20
-148.369725
 30
0.0
 40
5.0
100
AcDbArc
 50
270.0
 51
293.556464
  0
ARC
  5
156
100
AcDbEntity
  8
2
370
    50
100
AcDbCircle
 10
142.419494
 20
-156.169725
 30
0.0
 40
5.0
100
AcDbArc
 50
66.443536
 51
90.0
  0
ARC
  5
157
100
AcDbEntity
  8
2
370
    50
100
AcDbCircle
 10
144.81741
 20
-153.869725
 30
0.0
 40
1.0
100
AcDbArc
 50
90.0
 51
113.556464
  0
ARC
  5
158
100
AcDbEntity
  8
2
370
    50
100
AcDbCircle
 10
144.81741
 20
-150.669725
 30
0.0
 40
1.0
100
AcDbArc
 50
246.443536
 51
270.0
  0
LINE
  5
159
100
AcDbEntity
  8
2
370
    50
100
AcDbLine
 10
135.098944
 20
-158.859362
 30
0.0
 11
135.098944
 21
-153.369725
 31
0.0
  0
ARC
  5
15A
100
AcDbEntity
  8
2
370
    50
100
AcDbCircle
 10
128.098944
 20
-135.115832
 30
0.0
 40
24.753893
100
AcDbArc
 50
270.0
 51
286.426421
  0
ARC
  5
15B
100
AcDbEntity
  8
2
370
    50
100
AcDbCircle
 10
138.473944
 20
-153.727646
 30
0.0
 40
6.142079
100
AcDbArc
 50
236.668091
 51
303.331909
  0
ARC
  5
15C
100
AcDbEntity
  8
2
370
    50
100
AcDbCircle
 10
128.098944
 20
-137.119725
 30
0.0
 40
16.25
100
AcDbArc
 50
270.0
 51
284.250033
  0
ARC
  5
15D
100
AcDbEntity
  8
2
370
    50
100
AcDbCircle
 10
136.348944
 20
-137.119725
 30
0.0
 40
16.25
100
AcDbArc
 50
262.930286
 51
284.250033
  0
ARC
  5
15E
100
AcDbEntity
  8
2
370
    50
100
AcDbCircle
 10
132.348944
 20
-137.119725
 30
0.0
 40
16.25
100
AcDbArc
 50
262.485955
 51
284.250033
  0
ARC
  5
15F
100
AcDbEntity
  8
2
370
    50
100
AcDbCircle
 10
140.348944
 20
-137.119725
 30
0.0
 40
16.25
100
AcDbArc
 50
262.930286
 51
270.0
  0
ARC
  5
160
100
AcDbEntity
  8
2
370
    50
100
AcDbCircle
 10
128.098944
 20
-167.419725
 30
0.0
 40
16.25
100
AcDbArc
 50
75.749967
 51
90.0
  0
ARC
  5
161
100
AcDbEntity
  8
2
370
    50
100
AcDbCircle
 10
132.348944
 20
-167.419725
 30
0.0
 40
16.25
100
AcDbArc
 50
75.749967
 51
97.514045
  0
ARC
  5
162
100
AcDbEntity
  8
2
370
    50
100
AcDbCircle
 10
136.348944
 20
-167.419725
 30
0.0
 40
16.25
100
AcDbArc
 50
75.749967
 51
97.069714
  0
ARC
  5
163
100
AcDbEntity
  8
2
370
    50
100
AcDbCircle
 10
140.348944
 20
-167.419725
 30
0.0
 40
16.25
100
AcDbArc
 50
90.0
 51
97.069714
  0
LINE
  5
164
100
AcDbEntity
  8
2
370
    50
100
AcDbLine
 10
139.598944
 20
-191.669725
 30
0.0
 11
128.098944
 21
-191.669725
 31
0.0
  0
ARC
  5
165
100
AcDbEntity
  8
2
370
    50
100
AcDbCircle
 10
125.823944
 20
-185.669725
 30
0.0
 40
15.025
100
AcDbArc
 50
336.463422
 51
23.536578
  0
LINE
  5
166
100
AcDbEntity
  8
2
370
    50
100
AcDbLine
 10
139.598944
 20
-179.669725
 30
0.0
 11
128.098944
 21
-179.669725
 31
0.0
  0
ELLIPSE
  5
167
100
AcDbEntity
  8
2
370
    50
100
AcDbEllipse
 10
138.058236
 20
-185.669725
 30
0.0
 11
0.0
 21
6.0
 31
0.0
210
0.0
220
0.0
230
1.0
 40
0.458833
 41
0.0
 42
6.2831849999999996
  0
LINE
  5
168
100
AcDbEntity
  8
2
370
    50
100
AcDbLine
 10
138.348944
 20
-179.669725
 30
0.0
 11
138.348944
 21
-159.869725
 31
0.0
  0
LINE
  5
169
100
AcDbEntity
  8
2
370
    50
100
AcDbLine
 10
145.598944
 20
-149.669725
 30
0.0
 11
110.598944
 21
-149.669725
 31
0.0
  0
LINE
  5
16A
100
AcDbEntity
  8
2
370
    50
100
AcDbLine
 10
111.598944
 20
30.830275
 30
0.0
 11
144.598944
 21
30.830275
 31
0.0
  0
LINE
  5
16B
100
AcDbEntity
  8
2
370
    50
100
AcDbLine
 10
111.098944
 20
121.830275
 30
0.0
 11
111.098944
 21
31.330275
 31
0.0
  0
LINE
  5
16C
100
AcDbEntity
  8
2
370
    50
100
AcDbLine
 10
128.098944
 20
122.330275
 30
0.0
 11
144.598944
 21
122.330275
 31
0.0
  0
LINE
  5
16D
100
AcDbEntity
  8
2
370
    50
100
AcDbLine
 10
144.598944
 20
122.330275
 30
0.0
 11
145.098944
 21
121.830275
 31
0.0
  0
LINE
  5
16E
100
AcDbEntity
  8
2
370
    50
100
AcDbLine
 10
142.098944
 20
122.330275
 30
0.0
 11
142.098944
 21
123.430275
 31
0.0
  0
LINE
  5
16F
100
AcDbEntity
  8
2
370
    50
100
AcDbLine
 10
145.098944
 20
31.330275
 30
0.0
 11
145.098944
 21
90.330275
 31
0.0
  0
LINE
  5
170
100
AcDbEntity
  8
2
370
    50
100
AcDbLine
 10
145.098944
 20
109.330275
 30
0.0
 11
145.098944
 21
121.830275
 31
0.0
  0
LINE
  5
171
100
AcDbEntity
  8
2
370
    50
100
AcDbLine
 10
111.098944
 20
31.330275
 30
0.0
 11
111.598944
 21
30.830275
 31
0.0
  0
LINE
  5
172
100
AcDbEntity
  8
2
370
    50
100
AcDbLine
 10
145.098944
 20
31.330275
 30
0.0
 11
144.598944
 21
30.830275
 31
0.0
  0
LINE
  5
173
100
AcDbEntity
  8
2
370
    50
100
AcDbLine
 10
114.098944
 20
122.330275
 30
0.0
 11
114.098944
 21
123.430275
 31
0.0
  0
LINE
  5
174
100
AcDbEntity
  8
2
370
    50
100
AcDbLine
 10
128.098944
 20
122.330275
 30
0.0
 11
111.598944
 21
122.330275
 31
0.0
  0
LINE
  5
175
100
AcDbEntity
  8
2
370
    50
100
AcDbLine
 10
111.598944
 20
122.330275
 30
0.0
 11
111.098944
 21
121.830275
 31
0.0
  0
LINE
  5
176
100
AcDbEntity
  8
2
370
    50
100
AcDbLine
 10
145.098944
 20
109.330275
 30
0.0
 11
195.099378
 21
109.330275
 31
0.0
  0
LINE
  5
177
100
AcDbEntity
  8
2
370
    50
100
AcDbLine
 10
145.098944
 20
90.330275
 30
0.0
 11
195.099378
 21
90.330275
 31
0.0
  0
LINE
  5
178
100
AcDbEntity
  8
2
370
    50
100
AcDbLine
 10
225.358134
 20
95.220385
 30
0.0
 11
231.78601
 21
87.559941
 31
0.0
  0
LINE
  5
179
100
AcDbEntity
  8
2
370
    50
100
AcDbLine
 10
210.80329
 20
83.007421
 30
0.0
 11
217.231166
 21
75.346976
 31
0.0
  0
LINE
  5
17A
100
AcDbEntity
  8
2
370
    25
  6
CENTER
100
AcDbLine
 10
195.099378
 20
99.830275
 30
0.0
 11
128.098944
 21
99.830275
 31
0.0
  0
ARC
  5
17B
100
AcDbEntity
  8
2
370
    25
  6
CENTER
100
AcDbCircle
 10
195.099378
 20
69.830275
 30
0.0
 40
30.0
100
AcDbArc
 50
40.0
 51
90.0
  0
ARC
  5
17C
100
AcDbEntity
  8
2
370
    50
100
AcDbCircle
 10
195.099378
 20
69.830275
 30
0.0
 40
39.5
100
AcDbArc
 50
40.0
 51
90.0
  0
ARC
  5
17D
100
AcDbEntity
  8
2
370
    50
100
AcDbCircle
 10
195.099378
 20
69.830275
 30
0.0
 40
20.5
100
AcDbArc
 50
40.0
 51
90.0
  0
LINE
  5
17E
100
AcDbEntity
  8
2
370
    50
100
AcDbLine
 10
217.231166
 20
75.346976
 30
0.0
 11
224.508588
 21
81.453459
 31
0.0
  0
LINE
  5
17F
100
AcDbEntity
  8
2
370
    50
100
AcDbLine
 10
224.508588
 20
81.453459
 30
0.0
 11
231.78601
 21
87.559941
 31
0.0
  0
LINE
  5
180
100
AcDbEntity
  8
2
370
    50
100
AcDbLine
 10
231.23996
 20
59.818738
 30
0.0
 11
244.645738
 21
71.067521
 31
0.0
  0
LINE
  5
181
100
AcDbEntity
  8
2
370
    50
100
AcDbLine
 10
218.001186
 20
74.818233
 30
0.0
 11
230.535544
 21
59.880367
 31
0.0
  0
LINE
  5
182
100
AcDbEntity
  8
2
370
    50
100
AcDbLine
 10
232.173008
 20
86.709804
 30
0.0
 11
244.707366
 21
71.771937
 31
0.0
  0
ARC
  5
183
100
AcDbEntity
  8
2
370
    50
100
AcDbCircle
 10
244.324344
 20
71.450544
 30
0.0
 40
0.5
100
AcDbArc
 50
310.0
 51
40.0
  0
LINE
  5
184
100
AcDbEntity
  8
2
370
    50
100
AcDbLine
 10
218.001186
 20
74.818233
 30
0.0
 11
225.087097
 21
80.764019
 31
0.0
  0
LINE
  5
185
100
AcDbEntity
  8
2
370
    50
100
AcDbLine
 10
225.087097
 20
80.764019
 30
0.0
 11
232.173008
 21
86.709804
 31
0.0
  0
LINE
  5
186
100
AcDbEntity
  8
2
370
    50
100
AcDbLine
 10
218.70518
 20
75.408955
 30
0.0
 11
218.448065
 21
75.715373
 31
0.0
  0
LINE
  5
187
100
AcDbEntity
  8
2
370
    50
100
AcDbLine
 10
217.552559
 20
74.963954
 30
0.0
 11
224.829982
 21
81.070436
 31
0.0
  0
LINE
  5
188
100
AcDbEntity
  8
2
370
    50
100
AcDbLine
 10
231.211898
 20
86.4255
 30
0.0
 11
231.469013
 21
86.119082
 31
0.0
  0
LINE
  5
189
100
AcDbEntity
  8
2
370
    50
100
AcDbLine
 10
224.829982
 20
81.070436
 30
0.0
 11
232.107404
 21
87.176919
 31
0.0
  0
LINE
  5
18A
100
AcDbEntity
  8
2
370
    50
100
AcDbLine
 10
231.78601
 20
87.559941
 30
0.0
 11
232.107404
 21
87.176919
 31
0.0
  0
LINE
  5
18B
100
AcDbEntity
  8
2
370
    50
100
AcDbLine
 10
217.231166
 20
75.346976
 30
0.0
 11
217.552559
 21
74.963954
 31
0.0
  0
LINE
  5
18C
100
AcDbEntity
  8
2
370
    50
100
AcDbLine
 10
217.231166
 20
75.346976
 30
0.0
 11
217.805699
 21
75.829067
 31
0.0
  0
LINE
  5
18D
100
AcDbEntity
  8
2
370
    50
100
AcDbLine
 10
231.78601
 20
87.559941
 30
0.0
 11
231.211477
 21
87.07785
 31
0.0
  0
LINE
  5
18E
100
AcDbEntity
  8
2
370
    25
  6
CENTER
100
AcDbLine
 10
218.080712
 20
89.113903
 30
0.0
 11
239.44591
 21
63.651852
 31
0.0
  0
ARC
  5
18F
100
AcDbEntity
  8
2
370
    25
100
AcDbCircle
 10
151.623944
 20
99.830275
 30
0.0
 40
11.525
100
AcDbArc
 50
124.482919
 51
235.517081
  0
LINE
  5
190
100
AcDbEntity
  8
2
370
    25
100
AcDbLine
 10
145.098944
 20
121.830275
 30
0.0
 11
111.098944
 21
121.830275
 31
0.0
  0
LINE
  5
191
100
AcDbEntity
  8
2
370
    50
100
AcDbLine
 10
147.598944
 20
-134.669725
 30
0.0
 11
147.598944
 21
-136.669725
 31
0.0
  0
LINE
  5
192
100
AcDbEntity
  8
2
370
    50
100
AcDbLine
 10
147.598944
 20
-136.669725
 30
0.0
 11
128.098944
 21
-136.669725
 31
0.0
  0
LINE
  5
193
100
AcDbEntity
  8
2
370
    50
100
AcDbLine
 10
149.098944
 20
-134.669725
 30
0.0
 11
128.098944
 21
-134.669725
 31
0.0
  0
LINE
  5
194
100
AcDbEntity
  8
2
370
    50
100
AcDbLine
 10
149.598944
 20
-134.169725
 30
0.0
 11
149.098944
 21
-134.669725
 31
0.0
  0
LINE
  5
195
100
AcDbEntity
  8
2
370
    50
100
AcDbLine
 10
149.598944
 20
-129.669725
 30
0.0
 11
149.598944
 21
-134.169725
 31
0.0
  0
LINE
  5
196
100
AcDbEntity
  8
2
370
    50
100
AcDbLine
 10
149.098944
 20
-129.169725
 30
0.0
 11
149.598944
 21
-129.669725
 31
0.0
  0
LINE
  5
197
100
AcDbEntity
  8
2
370
    50
100
AcDbLine
 10
128.098944
 20
-129.169725
 30
0.0
 11
149.098944
 21
-129.169725
 31
0.0
  0
LINE
  5
198
100
AcDbEntity
  8
2
370
    50
100
AcDbLine
 10
128.098944
 20
-129.169725
 30
0.0
 11
107.098944
 21
-129.169725
 31
0.0
  0
LINE
  5
199
100
AcDbEntity
  8
2
370
    50
100
AcDbLine
 10
107.098944
 20
-129.169725
 30
0.0
 11
106.598944
 21
-129.669725
 31
0.0
  0
LINE
  5
19A
100
AcDbEntity
  8
2
370
    50
100
AcDbLine
 10
106.598944
 20
-129.669725
 30
0.0
 11
106.598944
 21
-134.169725
 31
0.0
  0
LINE
  5
19B
100
AcDbEntity
  8
2
370
    50
100
AcDbLine
 10
106.598944
 20
-134.169725
 30
0.0
 11
107.098944
 21
-134.669725
 31
0.0
  0
LINE
  5
19C
100
AcDbEntity
  8
2
370
    50
100
AcDbLine
 10
107.098944
 20
-134.669725
 30
0.0
 11
128.098944
 21
-134.669725
 31
0.0
  0
LINE
  5
19D
100
AcDbEntity
  8
2
370
    50
100
AcDbLine
 10
108.598944
 20
-134.669725
 30
0.0
 11
108.598944
 21
-136.669725
 31
0.0
  0
LINE
  5
19E
100
AcDbEntity
  8
2
370
    50
100
AcDbLine
 10
108.598944
 20
-136.669725
 30
0.0
 11
128.098944
 21
-136.669725
 31
0.0
  0
LINE
  5
19F
100
AcDbEntity
  8
2
370
    25
100
AcDbLine
 10
145.098944
 20
31.330275
 30
0.0
 11
111.098944
 21
31.330275
 31
0.0
  0
LINE
  5
1A0
100
AcDbEntity
  8
2
370
    25
100
AcDbLine
 10
106.598944
 20
-129.669725
 30
0.0
 11
149.598944
 21
-129.669725
 31
0.0
  0
LINE
  5
1A1
100
AcDbEntity
  8
2
370
    25
100
AcDbLine
 10
149.598944
 20
-134.169725
 30
0.0
 11
106.598944
 21
-134.169725
 31
0.0
  0
LINE
  5
1A2
100
AcDbEntity
  8
2
370
    25
  6
CENTER
100
AcDbLine
 10
128.098944
 20
-193.387749
 30
0.0
 11
128.098944
 21
160.998046
 31
0.0
  0
ARC
  5
1A3
100
AcDbEntity
  8
2
370
    50
100
AcDbCircle
 10
230.918566
 20
60.20176
 30
0.0
 40
0.5
100
AcDbArc
 50
220.0
 51
310.0
  0
POINT
  5
1A4
100
AcDbEntity
  8
2
370
    50
100
AcDbPoint
 10
237.942849
 20
65.44313
 30
0.0
  0
HATCH
  5
1A5
100
AcDbEntity
  8
2
370
    25
100
AcDbHatch
 10
0.0
 20
0.0
 30
0.0
210
0.0
220
0.0
230
1.0
  2
_U
 70
     0
 71
     1
 91
        1
 92
        1
 93
        6
 72
     1
 10
108.598944
 20
-136.669725
 11
108.598944
 21
-134.669725
 72
     1
 10
108.598944
 20
-134.669725
 11
128.09894399999999
 21
-134.669725
 72
     1
 10
128.09894399999999
 20
-134.669725
 11
147.59894399999999
 21
-134.669725
 72
     1
 10
147.59894399999999
 20
-134.669725
 11
147.59894399999999
 21
-136.669725
 72
     1
 10
147.59894399999999
 20
-136.669725
 11
128.09894399999999
 21
-136.669725
 72
     1
 10
128.09894399999999
 20
-136.669725
 11
108.598944
 21
-136.669725
 97
        6
330
0
330
0
330
0
330
0
330
0
330
0
 75
     0
 76
     0
 52
45.0
 41
1.0
 77
     0
 78
     1
 53
45.0
 43
0.0
 44
0.0
 45
-1.4142140000000001
 46
1.4142140000000001
 79
     0
 98
        1
 10
0.0
 20
0.0
  0
HATCH
  5
1A6
100
AcDbEntity
  8
2
370
    25
100
AcDbHatch
 10
0.0
 20
0.0
 30
0.0
210
0.0
220
0.0
230
1.0
  2
_U
 70
     0
 71
     1
 91
        1
 92
        1
 93
        5
 72
     1
 10
110.598944
 20
-149.669725
 11
110.598944
 21
-151.169725
 72
     1
 10
110.598944
 20
-151.169725
 11
128.09894399999999
 21
-151.169725
 72
     1
 10
128.09894399999999
 20
-151.169725
 11
145.59894399999999
 21
-151.169725
 72
     1
 10
145.59894399999999
 20
-151.169725
 11
145.59894399999999
 21
-149.669725
 72
     1
 10
145.59894399999999
 20
-149.669725
 11
110.598944
 21
-149.669725
 97
        5
330
0
330
0
330
0
330
0
330
0
 75
     0
 76
     0
 52
45.0
 41
1.0
 77
     0
 78
     1
 53
45.0
 43
0.0
 44
0.0
 45
-1.4142140000000001
 46
1.4142140000000001
 79
     0
 98
        1
 10
0.0
 20
0.0
  0
LINE
  5
1A7
100
AcDbEntity
  8
2
370
    50
100
AcDbLine
 10
111.098944
 20
30.330275
 30
0.0
 11
111.098944
 21
-128.669725
 31
0.0
  0
LINE
  5
1A8
100
AcDbEntity
  8
2
370
    50
100
AcDbLine
 10
145.098944
 20
30.330275
 30
0.0
 11
145.098944
 21
-128.669725
 31
0.0
  0
LINE
  5
1A9
100
AcDbEntity
  8
2
370
    50
100
AcDbLine
 10
144.598944
 20
30.830275
 30
0.0
 11
145.098944
 21
30.330275
 31
0.0
  0
LINE
  5
1AA
100
AcDbEntity
  8
2
370
    50
100
AcDbLine
 10
111.598944
 20
30.830275
 30
0.0
 11
111.098944
 21
30.330275
 31
0.0
  0
LINE
  5
1AB
100
AcDbEntity
  8
2
370
    25
100
AcDbLine
 10
145.098944
 20
30.330275
 30
0.0
 11
111.098944
 21
30.330275
 31
0.0
  0
LINE
  5
1AC
100
AcDbEntity
  8
2
370
    50
100
AcDbLine
 10
145.098944
 20
-128.669725
 30
0.0
 11
144.598944
 21
-129.169725
 31
0.0
  0
LINE
  5
1AD
100
AcDbEntity
  8
2
370
    50
100
AcDbLine
 10
111.098944
 20
-128.669725
 30
0.0
 11
111.598944
 21
-129.169725
 31
0.0
  0
LINE
  5
1AE
100
AcDbEntity
  8
2
370
    50
100
AcDbLine
 10
145.098944
 20
-128.669725
 30
0.0
 11
111.098944
 21
-128.669725
 31
0.0
  0
POINT
  5
1AF
100
AcDbEntity
  8
2
370
    50
100
AcDbPoint
 10
128.098944
 20
-124.169725
 30
0.0
  0
POINT
  5
1B0
100
AcDbEntity
  8
2
370
    50
100
AcDbPoint
 10
128.098944
 20
-124.169725
 30
0.0
  0
POINT
  5
1B1
100
AcDbEntity
  8
2
370
    50
100
AcDbPoint
 10
128.098944
 20
-124.169725
 30
0.0
  0
LINE
  5
1B2
100
AcDbEntity
  8
2
370
    50
100
AcDbLine
 10
111.198944
 20
123.930275
 30
0.0
 11
111.698944
 21
123.430275
 31
0.0
  0
LINE
  5
1B3
100
AcDbEntity
  8
2
370
    50
100
AcDbLine
 10
111.198944
 20
123.930275
 30
0.0
 11
111.198944
 21
155.930275
 31
0.0
  0
LINE
  5
1B4
100
AcDbEntity
  8
2
370
    50
100
AcDbLine
 10
144.498944
 20
123.430275
 30
0.0
 11
111.698944
 21
123.430275
 31
0.0
  0
LINE
  5
1B5
100
AcDbEntity
  8
2
370
    50
100
AcDbLine
 10
144.998944
 20
123.930275
 30
0.0
 11
144.498944
 21
123.430275
 31
0.0
  0
LINE
  5
1B6
100
AcDbEntity
  8
2
370
    50
100
AcDbLine
 10
111.698944
 20
156.430275
 30
0.0
 11
144.498944
 21
156.430275
 31
0.0
  0
LINE
  5
1B7
100
AcDbEntity
  8
2
370
    50
100
AcDbLine
 10
111.198944
 20
155.930275
 30
0.0
 11
111.698944
 21
156.430275
 31
0.0
  0
LINE
  5
1B8
100
AcDbEntity
  8
2
370
    50
100
AcDbLine
 10
144.498944
 20
156.430275
 30
0.0
 11
144.998944
 21
155.930275
 31
0.0
  0
LINE
  5
1B9
100
AcDbEntity
  8
2
370
    50
100
AcDbLine
 10
144.998944
 20
123.930275
 30
0.0
 11
144.998944
 21
139.230275
 31
0.0
  0
LINE
  5
1BA
100
AcDbEntity
  8
2
370
    50
100
AcDbLine
 10
144.998944
 20
146.630275
 30
0.0
 11
144.998944
 21
155.930275
 31
0.0
  0
LINE
  5
1BB
100
AcDbEntity
  8
2
370
    50
100
AcDbLine
 10
168.498944
 20
146.430275
 30
0.0
 11
144.955339
 21
146.430275
 31
0.0
  0
LINE
  5
1BC
100
AcDbEntity
  8
2
370
    50
100
AcDbLine
 10
168.498944
 20
139.430275
 30
0.0
 11
144.955339
 21
139.430275
 31
0.0
  0
LINE
  5
1BD
100
AcDbEntity
  8
2
370
    50
100
AcDbLine
 10
168.998944
 20
145.930275
 30
0.0
 11
168.998944
 21
139.930275
 31
0.0
  0
LINE
  5
1BE
100
AcDbEntity
  8
2
370
    50
100
AcDbLine
 10
168.498944
 20
146.430275
 30
0.0
 11
168.998944
 21
145.930275
 31
0.0
  0
LINE
  5
1BF
100
AcDbEntity
  8
2
370
    50
100
AcDbLine
 10
168.498944
 20
139.430275
 30
0.0
 11
168.998944
 21
139.930275
 31
0.0
  0
LINE
  5
1C0
100
AcDbEntity
  8
2
370
    50
100
AcDbLine
 10
111.198944
 20
155.930275
 30
0.0
 11
144.998944
 21
155.930275
 31
0.0
  0
LINE
  5
1C1
100
AcDbEntity
  8
2
370
    50
100
AcDbLine
 10
111.198944
 20
123.930275
 30
0.0
 11
144.998944
 21
123.930275
 31
0.0
  0
ARC
  5
1C2
100
AcDbEntity
  8
2
370
    50
100
AcDbCircle
 10
161.488941
 20
142.930275
 30
0.0
 40
16.9
100
AcDbArc
 50
167.353517
 51
192.646483
  0
LINE
  5
1C3
100
AcDbEntity
  8
2
370
    50
100
AcDbLine
 10
168.498944
 20
146.430275
 30
0.0
 11
168.498944
 21
139.430275
 31
0.0
  0
TEXT
  5
1C4
100
AcDbEntity
  8
3
370
    50
100
AcDbText
 10
65.574945
 20
-227.817829
 30
0.0
 40
7.0
  1
立水栓　
 72
     5
 11
85.174945
 21
-227.817829
 31
0.0
100
AcDbText
  0
TEXT
  5
1C5
100
AcDbEntity
  8
3
370
    50
100
AcDbText
 10
65.002039
 20
-235.834186
 30
0.0
 40
7.0
  1
ＭＬ０５０Ｌ
 72
     5
 11
105.602039
 21
-235.834186
 31
0.0
100
AcDbText
  0
TEXT
  5
1C6
100
AcDbEntity
  8
3
370
    50
100
AcDbText
 10
226.850147
 20
-272.76662
 30
0.0
 40
7.0
  1
外観寸法図
 72
     5
 11
260.450147
 21
-272.76662
 31
0.0
100
AcDbText
  0
TEXT
  5
1C7
100
AcDbEntity
  8
3
370
    50
100
AcDbText
 10
165.431879
 20
256.034291
 30
0.0
 40
4.0
  1
１
 72
     5
 11
168.631879
 21
256.034291
 31
0.0
100
AcDbText
  0
TEXT
  5
1C8
100
AcDbEntity
  8
3
370
    50
100
AcDbText
 10
161.299322
 20
253.58054
 30
0.0
 40
12.0
  1
△
 72
     5
 11
170.899322
 21
253.58054
 31
0.0
100
AcDbText
  0
TEXT
  5
1C9
100
AcDbEntity
  8
3
370
    50
100
AcDbText
 10
182.871204
 20
256.411076
 30
0.0
 40
6.0
  1
０８　　５　３０
 72
     5
 11
229.671204
 21
256.411076
 31
0.0
100
AcDbText
  0
TEXT
  5
1CA
100
AcDbEntity
  8
3
370
    50
100
AcDbText
 10
304.183347
 20
255.834126
 30
0.0
 40
5.7
  1
ハンドル位置の明記
 72
     5
 11
354.343347
 21
255.834126
 31
0.0
100
AcDbText
  0
TEXT
  5
1CB
100
AcDbEntity
  8
3
370
    50
100
AcDbText
 10
169.416489
 20
247.048077
 30
0.0
 40
12.0
  1
△
 72
     5
 11
179.016489
 21
247.048077
 31
0.0
100
AcDbText
  0
TEXT
  5
1CC
100
AcDbEntity
  8
3
370
    50
100
AcDbText
 10
183.048782
 20
248.830551
 30
0.0
 40
6.0
  1
０８　　６　２１
 72
     5
 11
229.848782
 21
248.830551
 31
0.0
100
AcDbText
  0
TEXT
  5
1CD
100
AcDbEntity
  8
3
370
    50
100
AcDbText
 10
235.248783
 20
248.830551
 30
0.0
 40
5.7
  1
新ＪＩＳへの移行の為
 72
     5
 11
291.108783
 21
248.830551
 31
0.0
100
AcDbText
  0
TEXT
  5
1CE
100
AcDbEntity
  8
3
370
    50
100
AcDbText
 10
305.248784
 20
248.830551
 30
0.0
 40
5.7
  1
新ＪＩＳミズタニシールへ変更
 41
0.75
 72
     5
 11
364.243784
 21
248.830551
 31
0.0
100
AcDbText
  0
TEXT
  5
1CF
100
AcDbEntity
  8
3
370
    50
100
AcDbText
 10
173.410721
 20
249.532018
 30
0.0
 40
4.0
  1
２
 72
     5
 11
176.610721
 21
249.532018
 31
0.0
100
AcDbText
  0
TEXT
  5
1D0
100
AcDbEntity
  8
3
370
    50
100
AcDbText
 10
290.832582
 20
-240.013492
 30
0.0
 40
6.0
  1
１　２
 72
     5
 11
307.632582
 21
-240.013492
 31
0.0
100
AcDbText
  0
TEXT
  5
1D1
100
AcDbEntity
  8
3
370
    50
100
AcDbText
 10
345.098131
 20
-256.100293
 30
0.0
 40
6.0
  1
０８　　２　１９
 72
     5
 11
391.898131
 21
-256.100293
 31
0.0
100
AcDbText
  0
TEXT
  5
1D2
100
AcDbEntity
  8
3
370
    50
100
AcDbText
 10
336.070276
 20
-271.880939
 30
0.0
 40
6.4
  1
５０２２１５
 72
     5
 11
373.190276
 21
-271.880939
 31
0.0
100
AcDbText
  0
TEXT
  5
1D3
100
AcDbEntity
  8
3
370
    50
100
AcDbText
 10
160.58296
 20
239.017801
 30
0.0
 40
12.0
  1
△
 72
     5
 11
170.18296
 21
239.017801
 31
0.0
100
AcDbText
  0
TEXT
  5
1D4
100
AcDbEntity
  8
3
370
    50
100
AcDbText
 10
304.264038
 20
241.897943
 30
0.0
 40
5.7
  1
ハンドル仕様変更
 72
     5
 11
348.724038
 21
241.897943
 31
0.0
100
AcDbText
  0
TEXT
  5
1D5
100
AcDbEntity
  8
3
370
    50
100
AcDbText
 10
234.963394
 20
241.633585
 30
0.0
 40
5.7
  1
不具合対策ノ為
 72
     5
 11
273.723394
 21
241.633585
 31
0.0
100
AcDbText
  0
TEXT
  5
1D6
100
AcDbEntity
  8
3
370
    50
100
AcDbText
 10
164.531202
 20
241.400522
 30
0.0
 40
4.0
  1
３
 72
     5
 11
167.731202
 21
241.400522
 31
0.0
100
AcDbText
  0
TEXT
  5
1D7
100
AcDbEntity
  8
3
370
    50
100
AcDbText
 10
234.943226
 20
234.186325
 30
0.0
 40
5.7
  1
外観品質向上の為
 72
     5
 11
279.403226
 21
234.186325
 31
0.0
100
AcDbText
  0
TEXT
  5
1D8
100
AcDbEntity
  8
3
370
    50
100
AcDbText
 10
304.24054
 20
237.671875
 30
0.0
 40
4.4
  1
Ｏリング　ＪＡＳＯ１０１２　ＥＰＤＭ
 41
0.75
 72
     5
 11
362.98054
 21
237.671875
 31
0.0
100
AcDbText
  0
TEXT
  5
1D9
100
AcDbEntity
  8
3
370
    50
100
AcDbText
 10
303.892426
 20
233.892746
 30
0.0
 40
4.4
  1
→Ｏリング Ｓ12.5 Ｅ7-512へ変更
 41
0.75
 72
     5
 11
354.382426
 21
233.892746
 31
0.0
100
AcDbText
  0
TEXT
  5
1DA
100
AcDbEntity
  8
3
370
    50
100
AcDbText
 10
182.52652
 20
234.743927
 30
0.0
 40
6.0
  1
１０　１１　２９
 72
     5
 11
229.32652
 21
234.743927
 31
0.0
100
AcDbText
  0
TEXT
  5
1DB
100
AcDbEntity
  8
3
370
    50
100
AcDbText
 10
173.028412
 20
234.829559
 30
0.0
 40
4.0
  1
４
 72
     5
 11
176.228412
 21
234.829559
 31
0.0
100
AcDbText
  0
POINT
  5
1DC
100
AcDbEntity
  8
3
370
    50
100
AcDbPoint
 10
394.982385
 20
-277.971881
 30
0.0
  0
POINT
  5
1DD
100
AcDbEntity
  8
3
370
    50
100
AcDbPoint
 10
394.982385
 20
218.028767
 30
0.0
  0
DIMENSION
  5
1DE
100
AcDbEntity
  8
3
370
    25
100
AcDbDimension
  2
*D0
 10
-95.547663
 20
170.220936
 30
0.0
 11
-161.601056
 21
145.73858
 31
0.0
 70
     2
 71
     0
 72
     0
 41
0.0
 42
0.0
  3
Standard
100
AcDb2LineAngularDimension
 13
-142.004465
 23
211.084867
 33
0.0
 14
-95.547663
 24
211.084867
 34
0.0
 15
-95.547663
 25
211.084867
 35
0.0
 16
-128.397583
 26
178.234947
 36
0.0
1001
ACAD
1000
DSTYLE
1002
{
1070
   275
1070
     0
1070
   179
1070
     0
1002
}
  0
DIMENSION
  5
1DF
100
AcDbEntity
  8
3
370
    25
100
AcDbDimension
  2
*D1
 10
-95.547663
 20
170.220936
 30
0.0
 11
-120.265855
 21
171.517432
 31
0.0
 70
     2
 71
     0
 72
     0
 41
0.0
 42
0.0
  3
Standard
100
AcDb2LineAngularDimension
 13
-142.004465
 23
211.084867
 33
0.0
 14
-95.547663
 24
211.084867
 34
0.0
 15
-95.547663
 25
211.084867
 35
0.0
 16
-128.397583
 26
178.234947
 36
0.0
1001
ACAD
1000
DSTYLE
1002
{
1070
   275
1070
     0
1070
   179
1070
     0
1002
}
  0
TEXT
  5
1E0
100
AcDbEntity
  8
3
370
    50
100
AcDbText
 10
-87.384218
 20
169.033706
 30
0.0
 40
6.999667
  1
吐水
 72
     5
 11
-74.784818
 21
169.033706
 31
0.0
100
AcDbText
  0
TEXT
  5
1E1
100
AcDbEntity
  8
3
370
    50
100
AcDbText
 10
-153.382219
 20
212.759032
 30
0.0
 40
6.999667
  1
止水
 72
     5
 11
-140.782819
 21
212.759032
 31
0.0
100
AcDbText
  0
TEXT
  5
1E2
100
AcDbEntity
  8
3
370
    50
100
AcDbText
 10
-141.547663
 20
64.383105
 30
0.0
 40
7.0
  1
φ３４
 72
     5
 11
-121.947663
 21
64.383105
 31
0.0
100
AcDbText
  0
TEXT
  5
1E3
100
AcDbEntity
  8
3
370
    50
100
AcDbText
 10
-185.577995
 20
63.198103
 30
0.0
 40
14.0
  1
△
 72
     5
 11
-174.377995
 21
63.198103
 31
0.0
100
AcDbText
  0
TEXT
  5
1E4
100
AcDbEntity
  8
3
370
    50
100
AcDbText
 10
-180.980247
 20
66.416045
 30
0.0
 40
4.0
  1
４
 72
     5
 11
-177.780247
 21
66.416045
 31
0.0
100
AcDbText
  0
DIMENSION
  5
1E5
100
AcDbEntity
  8
3
370
    25
100
AcDbDimension
  2
*D2
 10
-112.547663
 20
63.383105
 30
0.0
 11
-95.547663
 21
65.383105
 31
0.0
 70
     1
 71
     0
 72
     0
 41
0.0
 42
0.0
  3
Standard
100
AcDbAlignedDimension
 13
-78.547663
 23
63.383105
 33
0.0
 14
-112.547663
 24
63.383105
 34
0.0
  0
DIMENSION
  5
1E6
100
AcDbEntity
  8
3
370
    25
100
AcDbDimension
  2
*D3
 10
-205.520125
 20
65.286812
 30
0.0
 11
-205.945451
 21
33.421403
 31
0.0
 70
     2
 71
     0
 72
     0
 41
0.0
 42
0.0
  3
Standard
100
AcDb2LineAngularDimension
 13
-205.522124
 23
65.287539
 33
0.0
 14
-205.520125
 24
65.289921
 34
0.0
 15
-205.520125
 25
65.289921
 35
0.0
 16
-216.154243
 26
36.072922
 36
0.0
1001
ACAD
1000
DSTYLE
1002
{
1070
   275
1070
     0
1070
   179
1070
     0
1002
}
  0
TEXT
  5
1E7
100
AcDbEntity
  8
3
370
    50
100
AcDbText
 10
-244.056898
 20
-45.189902
 30
0.0
 40
7.0
  1
２００
 50
90.0
 72
     5
 11
-244.056898
 21
-25.589902
 31
0.0
100
AcDbText
  0
DIMENSION
  5
1E8
100
AcDbEntity
  8
3
370
    25
100
AcDbDimension
  2
*D4
 10
-243.056898
 20
65.289921
 30
0.0
 11
-150.533894
 21
-24.470689
 31
0.0
 71
     0
 72
     0
 41
0.0
 42
0.0
  3
Standard
100
AcDbAlignedDimension
 13
-116.547663
 23
-134.669725
 33
0.0
 14
-205.520125
 24
65.289921
 34
0.0
 50
90.0
100
AcDbRotatedDimension
  0
DIMENSION
  5
1E9
100
AcDbEntity
  8
3
370
    25
100
AcDbDimension
  2
*D5
 10
-95.547663
 20
-28.970689
 30
0.0
 11
-150.533894
 21
-26.970689
 31
0.0
 71
     0
 72
     0
 41
0.0
 42
0.0
  3
Standard
100
AcDbAlignedDimension
 13
-205.520125
 23
65.289921
 33
0.0
 14
-95.547663
 24
-28.970689
 34
0.0
100
AcDbRotatedDimension
  0
DIMENSION
  5
1EA
100
AcDbEntity
  8
3
370
    25
100
AcDbDimension
  2
*D6
 10
-15.111486
 20
156.430275
 30
0.0
 11
-26.611486
 21
7.380275
 31
0.0
 71
     0
 72
     0
 41
0.0
 42
0.0
  3
Standard
100
AcDbAlignedDimension
 13
-74.547663
 23
-134.669725
 33
0.0
 14
-79.147663
 24
156.430275
 34
0.0
 50
90.0
100
AcDbRotatedDimension
  0
TEXT
  5
1EB
100
AcDbEntity
  8
3
370
    50
100
AcDbText
 10
-30.378363
 20
-127.054414
 30
0.0
 40
6.999667
  1
取付穴径　φ２２～２６
 50
90.0
 72
     5
 11
-30.378363
 21
-51.458011
 31
0.0
100
AcDbText
  0
TEXT
  5
1EC
100
AcDbEntity
  8
3
370
    50
100
AcDbText
 10
-40.155889
 20
-126.669725
 30
0.0
 40
7.0
  1
天板厚さ　０～３０ｍｍ
 50
90.0
 72
     5
 11
-40.155889
 21
-51.069725
 31
0.0
100
AcDbText
  0
DIMENSION
  5
1ED
100
AcDbEntity
  8
3
370
    25
100
AcDbDimension
  2
*D7
 10
-39.155889
 20
-134.669725
 30
0.0
 11
-41.655889
 21
-92.169725
 31
0.0
 71
     0
 72
     0
 41
0.0
 42
0.0
  3
Standard
100
AcDbAlignedDimension
 13
-78.047663
 23
-149.669725
 33
0.0
 14
-74.547663
 24
-134.669725
 34
0.0
 50
90.0
100
AcDbRotatedDimension
  0
DIMENSION
  5
1EE
100
AcDbEntity
  8
3
370
    25
100
AcDbDimension
  2
*D8
 10
-117.047663
 20
-90.635194
 30
0.0
 11
-135.547663
 21
-86.135194
 31
0.0
 70
     1
 71
     0
 72
     0
 41
0.0
 42
0.0
  3
Standard
100
AcDbAlignedDimension
 13
-74.047663
 23
-129.669725
 33
0.0
 14
-117.047663
 24
-129.669725
 34
0.0
  0
TEXT
  5
1EF
100
AcDbEntity
  8
3
370
    50
100
AcDbText
 10
-175.459093
 20
-112.295756
 30
0.0
 40
4.0
  1
２
 72
     5
 11
-172.259093
 21
-112.295756
 31
0.0
100
AcDbText
  0
TEXT
  5
1F0
100
AcDbEntity
  8
3
370
    50
100
AcDbText
 10
-179.453325
 20
-114.779697
 30
0.0
 40
12.0
  1
△
 72
     5
 11
-169.853325
 21
-114.779697
 31
0.0
100
AcDbText
  0
TEXT
  5
1F1
100
AcDbEntity
  8
3
370
    50
100
AcDbText
 10
-168.917364
 20
-124.940686
 30
0.0
 40
7.0
  1
（商標表示）
 72
     5
 11
-128.317364
 21
-124.940686
 31
0.0
100
AcDbText
  0
LINE
  5
1F2
100
AcDbEntity
  8
3
370
    25
100
AcDbLine
 10
-149.899611
 20
-111.179746
 30
0.0
 11
-150.359001
 21
-111.639135
 31
0.0
  0
LINE
  5
1F3
100
AcDbEntity
  8
3
370
    25
100
AcDbLine
 10
-149.616769
 20
-111.179746
 30
0.0
 11
-150.359001
 21
-111.921978
 31
0.0
  0
LINE
  5
1F4
100
AcDbEntity
  8
3
370
    25
100
AcDbLine
 10
-150.252706
 20
-112.098525
 30
0.0
 11
-149.333926
 21
-111.179746
 31
0.0
  0
LINE
  5
1F5
100
AcDbEntity
  8
3
370
    25
100
AcDbLine
 10
-149.969863
 20
-112.098525
 30
0.0
 11
-149.051083
 21
-111.179746
 31
0.0
  0
LINE
  5
1F6
100
AcDbEntity
  8
3
370
    25
100
AcDbLine
 10
-149.68702
 20
-112.098525
 30
0.0
 11
-148.768241
 21
-111.179746
 31
0.0
  0
LINE
  5
1F7
100
AcDbEntity
  8
3
370
    25
100
AcDbLine
 10
-149.404178
 20
-112.098525
 30
0.0
 11
-148.485398
 21
-111.179746
 31
0.0
  0
LINE
  5
1F8
100
AcDbEntity
  8
3
370
    25
100
AcDbLine
 10
-149.121335
 20
-112.098525
 30
0.0
 11
-148.202555
 21
-111.179746
 31
0.0
  0
LINE
  5
1F9
100
AcDbEntity
  8
3
370
    25
100
AcDbLine
 10
-148.838492
 20
-112.098525
 30
0.0
 11
-147.919712
 21
-111.179746
 31
0.0
  0
LINE
  5
1FA
100
AcDbEntity
  8
3
370
    25
100
AcDbLine
 10
-148.555649
 20
-112.098525
 30
0.0
 11
-147.681267
 21
-111.224143
 31
0.0
  0
LINE
  5
1FB
100
AcDbEntity
  8
3
370
    25
100
AcDbLine
 10
-148.272807
 20
-112.098525
 30
0.0
 11
-147.522643
 21
-111.348361
 31
0.0
  0
LINE
  5
1FC
100
AcDbEntity
  8
3
370
    25
100
AcDbLine
 10
-147.989964
 20
-112.098525
 30
0.0
 11
-147.430042
 21
-111.538603
 31
0.0
  0
LINE
  5
1FD
100
AcDbEntity
  8
3
370
    25
100
AcDbLine
 10
-147.707121
 20
-112.098525
 30
0.0
 11
-147.418906
 21
-111.81031
 31
0.0
  0
LINE
  5
1FE
100
AcDbEntity
  8
3
370
    25
100
AcDbLine
 10
-147.424279
 20
-112.098525
 30
0.0
 11
-147.418906
 21
-112.093153
 31
0.0
  0
LINE
  5
1FF
100
AcDbEntity
  8
3
370
    25
100
AcDbLine
 10
-150.182454
 20
-111.179746
 30
0.0
 11
-150.359001
 21
-111.356293
 31
0.0
  0
LWPOLYLINE
  5
200
100
AcDbEntity
  8
3
370
    25
100
AcDbPolyline
 90
        2
 70
     0
 10
-128.582221
 20
-116.971488
 10
-105.288761
 20
-121.695041
  0
LINE
  5
204
100
AcDbEntity
  8
3
370
    25
100
AcDbLine
 10
-101.047663
 20
-124.169725
 30
0.0
 11
-95.547663
 21
-118.669725
 31
0.0
  0
LINE
  5
205
100
AcDbEntity
  8
3
370
    25
100
AcDbLine
 10
-99.633449
 20
-124.169725
 30
0.0
 11
-94.133449
 21
-118.669725
 31
0.0
  0
LINE
  5
206
100
AcDbEntity
  8
3
370
    25
100
AcDbLine
 10
-98.219236
 20
-124.169725
 30
0.0
 11
-92.719236
 21
-118.669725
 31
0.0
  0
LINE
  5
207
100
AcDbEntity
  8
3
370
    25
100
AcDbLine
 10
-96.805022
 20
-124.169725
 30
0.0
 11
-91.305022
 21
-118.669725
 31
0.0
  0
LINE
  5
208
100
AcDbEntity
  8
3
370
    25
100
AcDbLine
 10
-95.390808
 20
-124.169725
 30
0.0
 11
-89.890808
 21
-118.669725
 31
0.0
  0
LINE
  5
209
100
AcDbEntity
  8
3
370
    25
100
AcDbLine
 10
-93.976595
 20
-124.169725
 30
0.0
 11
-88.476595
 21
-118.669725
 31
0.0
  0
LINE
  5
20A
100
AcDbEntity
  8
3
370
    25
100
AcDbLine
 10
-92.562381
 20
-124.169725
 30
0.0
 11
-87.062381
 21
-118.669725
 31
0.0
  0
LINE
  5
20B
100
AcDbEntity
  8
3
370
    25
100
AcDbLine
 10
-91.148168
 20
-124.169725
 30
0.0
 11
-85.656198
 21
-118.677756
 31
0.0
  0
LINE
  5
20C
100
AcDbEntity
  8
3
370
    25
100
AcDbLine
 10
-89.733954
 20
-124.169725
 30
0.0
 11
-84.770954
 21
-119.206725
 31
0.0
  0
LINE
  5
20D
100
AcDbEntity
  8
3
370
    25
100
AcDbLine
 10
-88.319741
 20
-124.169725
 30
0.0
 11
-84.547663
 21
-120.397647
 31
0.0
  0
LINE
  5
20E
100
AcDbEntity
  8
3
370
    25
100
AcDbLine
 10
-86.905527
 20
-124.169725
 30
0.0
 11
-84.547663
 21
-121.811861
 31
0.0
  0
LINE
  5
20F
100
AcDbEntity
  8
3
370
    25
100
AcDbLine
 10
-85.438647
 20
-124.117059
 30
0.0
 11
-84.600329
 21
-123.278741
 31
0.0
  0
LINE
  5
210
100
AcDbEntity
  8
3
370
    25
100
AcDbLine
 10
-102.461876
 20
-124.169725
 30
0.0
 11
-96.961876
 21
-118.669725
 31
0.0
  0
LINE
  5
211
100
AcDbEntity
  8
3
370
    25
100
AcDbLine
 10
-103.87609
 20
-124.169725
 30
0.0
 11
-98.37609
 21
-118.669725
 31
0.0
  0
LINE
  5
212
100
AcDbEntity
  8
3
370
    25
100
AcDbLine
 10
-105.290303
 20
-124.169725
 30
0.0
 11
-99.790303
 21
-118.669725
 31
0.0
  0
LINE
  5
213
100
AcDbEntity
  8
3
370
    25
100
AcDbLine
 10
-106.256487
 20
-123.721695
 30
0.0
 11
-101.204517
 21
-118.669725
 31
0.0
  0
LINE
  5
214
100
AcDbEntity
  8
3
370
    25
100
AcDbLine
 10
-106.547663
 20
-122.598657
 30
0.0
 11
-102.618731
 21
-118.669725
 31
0.0
  0
LINE
  5
215
100
AcDbEntity
  8
3
370
    25
100
AcDbLine
 10
-106.547663
 20
-121.184444
 30
0.0
 11
-104.032944
 21
-118.669725
 31
0.0
  0
LINE
  5
216
100
AcDbEntity
  8
3
370
    25
100
AcDbLine
 10
-106.537413
 20
-119.759981
 30
0.0
 11
-105.457407
 21
-118.679975
 31
0.0
  0
ARC
  5
217
100
AcDbEntity
  8
3
370
    50
100
AcDbCircle
 10
-85.797663
 20
-119.919725
 30
0.0
 40
1.25
100
AcDbArc
 50
360.0
 51
90.0
  0
LINE
  5
218
100
AcDbEntity
  8
3
370
    50
100
AcDbLine
 10
-84.547663
 20
-119.919725
 30
0.0
 11
-84.547663
 21
-122.919725
 31
0.0
  0
ARC
  5
219
100
AcDbEntity
  8
3
370
    50
100
AcDbCircle
 10
-85.797663
 20
-122.919725
 30
0.0
 40
1.25
100
AcDbArc
 50
270.0
 51
360.0
  0
LINE
  5
21A
100
AcDbEntity
  8
3
370
    50
100
AcDbLine
 10
-85.797663
 20
-124.169725
 30
0.0
 11
-105.297663
 21
-124.169725
 31
0.0
  0
LINE
  5
21B
100
AcDbEntity
  8
3
370
    50
100
AcDbLine
 10
-106.547663
 20
-119.919725
 30
0.0
 11
-106.547663
 21
-122.919725
 31
0.0
  0
ARC
  5
21C
100
AcDbEntity
  8
3
370
    50
100
AcDbCircle
 10
-105.297663
 20
-122.919725
 30
0.0
 40
1.25
100
AcDbArc
 50
180.0
 51
270.0
  0
ARC
  5
21D
100
AcDbEntity
  8
3
370
    50
100
AcDbCircle
 10
-105.297663
 20
-119.919725
 30
0.0
 40
1.25
100
AcDbArc
 50
90.0
 51
180.0
  0
LINE
  5
21E
100
AcDbEntity
  8
3
370
    50
100
AcDbLine
 10
-85.797663
 20
-118.669725
 30
0.0
 11
-105.297663
 21
-118.669725
 31
0.0
  0
LINE
  5
21F
100
AcDbEntity
  8
3
370
    50
100
AcDbLine
 10
-150.359001
 20
-113.936085
 30
0.0
 11
-147.878296
 21
-113.936085
 31
0.0
  0
LINE
  5
220
100
AcDbEntity
  8
3
370
    50
100
AcDbLine
 10
-150.359001
 20
-113.274608
 30
0.0
 11
-147.418906
 21
-113.687811
 31
0.0
  0
LINE
  5
221
100
AcDbEntity
  8
3
370
    50
100
AcDbLine
 10
-147.814362
 20
-112.704425
 30
0.0
 11
-150.359001
 21
-112.346799
 31
0.0
  0
LINE
  5
222
100
AcDbEntity
  8
3
370
    50
100
AcDbLine
 10
-150.359001
 20
-112.098525
 30
0.0
 11
-147.418906
 21
-112.098525
 31
0.0
  0
ARC
  5
223
100
AcDbEntity
  8
3
370
    50
100
AcDbCircle
 10
-147.878296
 20
-111.639135
 30
0.0
 40
0.45939
100
AcDbArc
 50
0.0
 51
90.0
  0
ARC
  5
224
100
AcDbEntity
  8
3
370
    50
100
AcDbCircle
 10
-147.878296
 20
-113.159344
 30
0.0
 40
0.45939
100
AcDbArc
 50
360.0
 51
82.0
  0
ARC
  5
225
100
AcDbEntity
  8
3
370
    50
100
AcDbCircle
 10
-147.878296
 20
-114.395474
 30
0.0
 40
0.45939
100
AcDbArc
 50
0.0
 51
90.0
  0
LINE
  5
226
100
AcDbEntity
  8
3
370
    50
100
AcDbLine
 10
-146.500127
 20
-111.179746
 30
0.0
 11
-146.500127
 21
-112.098525
 31
0.0
  0
LINE
  5
227
100
AcDbEntity
  8
3
370
    50
100
AcDbLine
 10
-146.500127
 20
-112.098525
 30
0.0
 11
-145.213835
 21
-112.098525
 31
0.0
  0
LINE
  5
228
100
AcDbEntity
  8
3
370
    50
100
AcDbLine
 10
-144.295056
 20
-111.639135
 30
0.0
 11
-144.295056
 21
-112.833549
 31
0.0
  0
LINE
  5
229
100
AcDbEntity
  8
3
370
    50
100
AcDbLine
 10
-145.213835
 20
-112.098525
 30
0.0
 11
-145.213835
 21
-112.833549
 31
0.0
  0
LINE
  5
22A
100
AcDbEntity
  8
3
370
    50
100
AcDbLine
 10
-146.959517
 20
-113.936085
 30
0.0
 11
-146.316371
 21
-113.936085
 31
0.0
  0
ARC
  5
22B
100
AcDbEntity
  8
3
370
    50
100
AcDbCircle
 10
-146.316371
 20
-112.833549
 30
0.0
 40
1.102536
100
AcDbArc
 50
270.0
 51
360.0
  0
ARC
  5
22C
100
AcDbEntity
  8
3
370
    50
100
AcDbCircle
 10
-142.911252
 20
-111.732701
 30
0.0
 40
2.205071
100
AcDbArc
 50
228.524141
 51
272.241513
  0
ARC
  5
22D
100
AcDbEntity
  8
3
370
    50
100
AcDbCircle
 10
-142.911252
 20
-111.732701
 30
0.0
 40
3.123851
100
AcDbArc
 50
232.173442
 51
271.582042
  0
LINE
  5
22E
100
AcDbEntity
  8
3
370
    50
100
AcDbLine
 10
-143.214351
 20
-112.649793
 30
0.0
 11
-142.153435
 21
-112.649793
 31
0.0
  0
LINE
  5
22F
100
AcDbEntity
  8
3
370
    50
100
AcDbLine
 10
-142.365618
 20
-111.179746
 30
0.0
 11
-143.214351
 21
-112.649793
 31
0.0
  0
LINE
  5
230
100
AcDbEntity
  8
3
370
    50
100
AcDbLine
 10
-141.835161
 20
-112.098525
 30
0.0
 11
-142.153435
 21
-112.649793
 31
0.0
  0
LINE
  5
231
100
AcDbEntity
  8
3
370
    50
100
AcDbLine
 10
-141.835161
 20
-112.098525
 30
0.0
 11
-141.079327
 21
-112.098525
 31
0.0
  0
ARC
  5
232
100
AcDbEntity
  8
3
370
    50
100
AcDbCircle
 10
-140.619937
 20
-111.639135
 30
0.0
 40
0.45939
100
AcDbArc
 50
0.0
 51
90.0
  0
LINE
  5
233
100
AcDbEntity
  8
3
370
    50
100
AcDbLine
 10
-142.365618
 20
-113.936085
 30
0.0
 11
-142.181862
 21
-113.936085
 31
0.0
  0
ARC
  5
234
100
AcDbEntity
  8
3
370
    50
100
AcDbCircle
 10
-142.181862
 20
-112.833549
 30
0.0
 40
2.021315
100
AcDbArc
 50
270.0
 51
360.0
  0
LINE
  5
235
100
AcDbEntity
  8
3
370
    50
100
AcDbLine
 10
-141.630595
 20
-113.384817
 30
0.0
 11
-141.227038
 21
-113.384817
 31
0.0
  0
LINE
  5
236
100
AcDbEntity
  8
3
370
    50
100
AcDbLine
 10
-141.630595
 20
-112.466037
 30
0.0
 11
-141.079327
 21
-112.466037
 31
0.0
  0
LINE
  5
237
100
AcDbEntity
  8
3
370
    50
100
AcDbLine
 10
-141.630595
 20
-113.384817
 30
0.0
 11
-141.630595
 21
-112.466037
 31
0.0
  0
LINE
  5
238
100
AcDbEntity
  8
3
370
    50
100
AcDbLine
 10
-141.079327
 20
-112.098525
 30
0.0
 11
-141.079327
 21
-112.466037
 31
0.0
  0
ARC
  5
239
100
AcDbEntity
  8
3
370
    50
100
AcDbCircle
 10
-142.181862
 20
-112.833549
 30
0.0
 40
1.102536
100
AcDbArc
 50
270.0
 51
330.0
  0
LINE
  5
23A
100
AcDbEntity
  8
3
370
    50
100
AcDbLine
 10
-139.701157
 20
-112.098525
 30
0.0
 11
-137.496086
 21
-112.098525
 31
0.0
  0
LINE
  5
23B
100
AcDbEntity
  8
3
370
    50
100
AcDbLine
 10
-139.701157
 20
-113.936085
 30
0.0
 11
-137.955476
 21
-113.936085
 31
0.0
  0
ARC
  5
23C
100
AcDbEntity
  8
3
370
    50
100
AcDbCircle
 10
-137.955476
 20
-111.639135
 30
0.0
 40
0.45939
100
AcDbArc
 50
0.0
 51
90.0
  0
ARC
  5
23D
100
AcDbEntity
  8
3
370
    50
100
AcDbCircle
 10
-137.955476
 20
-114.395474
 30
0.0
 40
0.45939
100
AcDbArc
 50
0.0
 51
90.0
  0
ARC
  5
23E
100
AcDbEntity
  8
3
370
    50
100
AcDbCircle
 10
-146.316371
 20
-112.833549
 30
0.0
 40
2.021315
100
AcDbArc
 50
270.0
 51
317.461176
  0
ARC
  5
23F
100
AcDbEntity
  8
3
370
    50
100
AcDbCircle
 10
-146.316371
 20
-112.833549
 30
0.0
 40
2.021315
100
AcDbArc
 50
344.17338
 51
360.0
  0
CIRCLE
  5
240
100
AcDbEntity
  8
3
370
    50
100
AcDbCircle
 10
-143.468154
 20
-111.45538
 30
0.0
 40
0.275634
  0
CIRCLE
  5
241
100
AcDbEntity
  8
3
370
    50
100
AcDbCircle
 10
-144.019422
 20
-111.45538
 30
0.0
 40
0.275634
  0
LINE
  5
242
100
AcDbEntity
  8
3
370
    50
100
AcDbLine
 10
-146.959517
 20
-113.936085
 30
0.0
 11
-146.959517
 21
-114.854864
 31
0.0
  0
LINE
  5
243
100
AcDbEntity
  8
3
370
    50
100
AcDbLine
 10
-142.825008
 20
-113.936085
 30
0.0
 11
-142.825008
 21
-114.854864
 31
0.0
  0
LINE
  5
244
100
AcDbEntity
  8
3
370
    50
100
AcDbLine
 10
-142.365618
 20
-113.936085
 30
0.0
 11
-142.365618
 21
-114.854864
 31
0.0
  0
LINE
  5
245
100
AcDbEntity
  8
3
370
    50
100
AcDbLine
 10
-140.160547
 20
-111.639135
 30
0.0
 11
-140.160547
 21
-112.833549
 31
0.0
  0
LINE
  5
246
100
AcDbEntity
  8
3
370
    50
100
AcDbLine
 10
-150.359001
 20
-111.179746
 30
0.0
 11
-147.878296
 21
-111.179746
 31
0.0
  0
LINE
  5
247
100
AcDbEntity
  8
3
370
    50
100
AcDbLine
 10
-146.500127
 20
-111.179746
 30
0.0
 11
-144.754445
 21
-111.179746
 31
0.0
  0
LINE
  5
248
100
AcDbEntity
  8
3
370
    50
100
AcDbLine
 10
-142.365618
 20
-111.179746
 30
0.0
 11
-140.619937
 21
-111.179746
 31
0.0
  0
LINE
  5
249
100
AcDbEntity
  8
3
370
    50
100
AcDbLine
 10
-139.701157
 20
-111.179746
 30
0.0
 11
-137.955476
 21
-111.179746
 31
0.0
  0
LINE
  5
24A
100
AcDbEntity
  8
3
370
    50
100
AcDbLine
 10
-139.701157
 20
-114.854864
 30
0.0
 11
-137.496086
 21
-114.854864
 31
0.0
  0
LINE
  5
24B
100
AcDbEntity
  8
3
370
    50
100
AcDbLine
 10
-142.365618
 20
-114.854864
 30
0.0
 11
-142.181862
 21
-114.854864
 31
0.0
  0
LINE
  5
24C
100
AcDbEntity
  8
3
370
    50
100
AcDbLine
 10
-150.359001
 20
-114.854864
 30
0.0
 11
-147.418906
 21
-114.854864
 31
0.0
  0
LINE
  5
24D
100
AcDbEntity
  8
3
370
    50
100
AcDbLine
 10
-147.418906
 20
-112.098525
 30
0.0
 11
-147.418906
 21
-111.639135
 31
0.0
  0
LINE
  5
24E
100
AcDbEntity
  8
3
370
    50
100
AcDbLine
 10
-147.418906
 20
-114.854864
 30
0.0
 11
-147.418906
 21
-114.395474
 31
0.0
  0
LINE
  5
24F
100
AcDbEntity
  8
3
370
    50
100
AcDbLine
 10
-147.418906
 20
-113.687811
 30
0.0
 11
-147.418906
 21
-113.159344
 31
0.0
  0
LINE
  5
250
100
AcDbEntity
  8
3
370
    50
100
AcDbLine
 10
-150.359001
 20
-114.854864
 30
0.0
 11
-150.359001
 21
-113.936085
 31
0.0
  0
LINE
  5
251
100
AcDbEntity
  8
3
370
    50
100
AcDbLine
 10
-150.359001
 20
-113.274608
 30
0.0
 11
-150.359001
 21
-112.346799
 31
0.0
  0
LINE
  5
252
100
AcDbEntity
  8
3
370
    50
100
AcDbLine
 10
-150.359001
 20
-112.098525
 30
0.0
 11
-150.359001
 21
-111.179746
 31
0.0
  0
LINE
  5
253
100
AcDbEntity
  8
3
370
    50
100
AcDbLine
 10
-137.496086
 20
-112.098525
 30
0.0
 11
-137.496086
 21
-111.639135
 31
0.0
  0
LINE
  5
254
100
AcDbEntity
  8
3
370
    50
100
AcDbLine
 10
-139.701157
 20
-114.854864
 30
0.0
 11
-139.701157
 21
-113.936085
 31
0.0
  0
LINE
  5
255
100
AcDbEntity
  8
3
370
    50
100
AcDbLine
 10
-139.701157
 20
-112.098525
 30
0.0
 11
-139.701157
 21
-111.179746
 31
0.0
  0
LINE
  5
256
100
AcDbEntity
  8
3
370
    50
100
AcDbLine
 10
-146.959517
 20
-114.854864
 30
0.0
 11
-146.316371
 21
-114.854864
 31
0.0
  0
LINE
  5
257
100
AcDbEntity
  8
3
370
    50
100
AcDbLine
 10
-143.013909
 20
-114.854864
 30
0.0
 11
-142.825008
 21
-114.854864
 31
0.0
  0
ARC
  5
258
100
AcDbEntity
  8
3
370
    50
100
AcDbCircle
 10
-144.754445
 20
-111.639135
 30
0.0
 40
0.45939
100
AcDbArc
 50
0.0
 51
90.0
  0
LINE
  5
259
100
AcDbEntity
  8
3
370
    50
100
AcDbLine
 10
-158.627888
 20
-113.844207
 30
0.0
 11
-158.627888
 21
-112.190403
 31
0.0
  0
LINE
  5
25A
100
AcDbEntity
  8
3
370
    50
100
AcDbLine
 10
-158.260376
 20
-112.190403
 30
0.0
 11
-158.260376
 21
-113.844207
 31
0.0
  0
LINE
  5
25B
100
AcDbEntity
  8
3
370
    50
100
AcDbLine
 10
-158.260376
 20
-112.190403
 30
0.0
 11
-158.627888
 21
-112.190403
 31
0.0
  0
LINE
  5
25C
100
AcDbEntity
  8
3
370
    50
100
AcDbLine
 10
-158.260376
 20
-113.844207
 30
0.0
 11
-158.627888
 21
-113.844207
 31
0.0
  0
LINE
  5
25D
100
AcDbEntity
  8
3
370
    50
100
AcDbLine
 10
-159.561573
 20
-114.134747
 30
0.0
 11
-159.743482
 21
-114.316656
 31
0.0
  0
LINE
  5
25E
100
AcDbEntity
  8
3
370
    50
100
AcDbLine
 10
-157.525352
 20
-112.190403
 30
0.0
 11
-157.304845
 21
-112.190403
 31
0.0
  0
LINE
  5
25F
100
AcDbEntity
  8
3
370
    50
100
AcDbLine
 10
-157.984742
 20
-113.844207
 30
0.0
 11
-157.690732
 21
-113.844207
 31
0.0
  0
LINE
  5
260
100
AcDbEntity
  8
3
370
    50
100
AcDbLine
 10
-157.984742
 20
-113.844207
 30
0.0
 11
-157.984742
 21
-113.550197
 31
0.0
  0
LINE
  5
261
100
AcDbEntity
  8
3
370
    50
100
AcDbLine
 10
-157.304845
 20
-112.484413
 30
0.0
 11
-157.304845
 21
-112.190403
 31
0.0
  0
LINE
  5
262
100
AcDbEntity
  8
3
370
    50
100
AcDbLine
 10
-157.470225
 20
-112.484413
 30
0.0
 11
-157.304845
 21
-112.484413
 31
0.0
  0
LINE
  5
263
100
AcDbEntity
  8
3
370
    50
100
AcDbLine
 10
-157.838172
 20
-112.986219
 30
0.0
 11
-157.608218
 21
-113.200038
 31
0.0
  0
ARC
  5
264
100
AcDbEntity
  8
3
370
    50
100
AcDbCircle
 10
-157.470225
 20
-112.668169
 30
0.0
 40
0.183756
100
AcDbArc
 50
90.0
 51
227.082289
  0
LINE
  5
265
100
AcDbEntity
  8
3
370
    50
100
AcDbLine
 10
-157.595353
 20
-112.802739
 30
0.0
 11
-157.365399
 21
-113.016558
 31
0.0
  0
ARC
  5
266
100
AcDbEntity
  8
3
370
    50
100
AcDbCircle
 10
-157.690732
 20
-113.366441
 30
0.0
 40
0.477765
100
AcDbArc
 50
270.0
 51
47.082289
  0
ARC
  5
267
100
AcDbEntity
  8
3
370
    50
100
AcDbCircle
 10
-157.745859
 20
-113.348066
 30
0.0
 40
0.202132
100
AcDbArc
 50
270.0
 51
47.082289
  0
ARC
  5
268
100
AcDbEntity
  8
3
370
    50
100
AcDbCircle
 10
-157.525352
 20
-112.649793
 30
0.0
 40
0.45939
100
AcDbArc
 50
90.0
 51
227.082289
  0
LINE
  5
269
100
AcDbEntity
  8
3
370
    50
100
AcDbLine
 10
-157.745859
 20
-113.550197
 30
0.0
 11
-157.984742
 21
-113.550197
 31
0.0
  0
LINE
  5
26A
100
AcDbEntity
  8
3
370
    50
100
AcDbLine
 10
-159.289409
 20
-113.190036
 30
0.0
 11
-159.289409
 21
-112.190403
 31
0.0
  0
LINE
  5
26B
100
AcDbEntity
  8
3
370
    50
100
AcDbLine
 10
-158.958648
 20
-113.190036
 30
0.0
 11
-158.958648
 21
-112.190403
 31
0.0
  0
LINE
  5
26C
100
AcDbEntity
  8
3
370
    50
100
AcDbLine
 10
-158.958648
 20
-112.190403
 30
0.0
 11
-159.289409
 21
-112.190403
 31
0.0
  0
ARC
  5
26D
100
AcDbEntity
  8
3
370
    50
100
AcDbCircle
 10
-159.61282
 20
-113.190036
 30
0.0
 40
0.654171
100
AcDbArc
 50
190.22669
 51
360.0
  0
ARC
  5
26E
100
AcDbEntity
  8
3
370
    50
100
AcDbCircle
 10
-159.649571
 20
-113.190036
 30
0.0
 40
0.360162
100
AcDbArc
 50
190.573586
 51
360.0
  0
ARC
  5
26F
100
AcDbEntity
  8
3
370
    50
100
AcDbCircle
 10
-158.444132
 20
-113.017305
 30
0.0
 40
1.580301
100
AcDbArc
 50
225.0
 51
188.720397
  0
ARC
  5
270
100
AcDbEntity
  8
3
370
    50
100
AcDbCircle
 10
-158.444132
 20
-113.017305
 30
0.0
 40
1.837559
100
AcDbArc
 50
225.0
 51
189.066832
  0
LINE
  5
271
100
AcDbEntity
  8
3
370
    50
100
AcDbLine
 10
-134.923438
 20
-114.854864
 30
0.0
 11
-134.923438
 21
-112.404785
 31
0.0
  0
LINE
  5
272
100
AcDbEntity
  8
3
370
    50
100
AcDbLine
 10
-136.393485
 20
-114.854864
 30
0.0
 11
-136.393485
 21
-112.404785
 31
0.0
  0
LINE
  5
273
100
AcDbEntity
  8
3
370
    50
100
AcDbLine
 10
-136.760997
 20
-114.854864
 30
0.0
 11
-136.025973
 21
-114.854864
 31
0.0
  0
LINE
  5
274
100
AcDbEntity
  8
3
370
    50
100
AcDbLine
 10
-135.29095
 20
-114.854864
 30
0.0
 11
-134.555926
 21
-114.854864
 31
0.0
  0
LINE
  5
275
100
AcDbEntity
  8
3
370
    50
100
AcDbLine
 10
-160.006165
 20
-113.256899
 30
0.0
 11
-160.003617
 21
-113.256125
 31
0.0
  0
LINE
  5
276
100
AcDbEntity
  8
3
370
    50
100
AcDbLine
 10
-137.496086
 20
-114.395474
 30
0.0
 11
-137.496086
 21
-114.854864
 31
0.0
  0
LINE
  5
277
100
AcDbEntity
  8
3
370
    50
100
AcDbLine
 10
-154.401501
 20
-112.404785
 30
0.0
 11
-155.136525
 21
-112.404785
 31
0.0
  0
LINE
  5
278
100
AcDbEntity
  8
3
370
    50
100
AcDbLine
 10
-134.923438
 20
-112.404785
 30
0.0
 11
-135.658461
 21
-113.677884
 31
0.0
  0
LINE
  5
279
100
AcDbEntity
  8
3
370
    50
100
AcDbLine
 10
-136.393485
 20
-112.404785
 30
0.0
 11
-135.658461
 21
-113.677884
 31
0.0
  0
LINE
  5
27A
100
AcDbEntity
  8
3
370
    50
100
AcDbLine
 10
-154.769013
 20
-112.404785
 30
0.0
 11
-154.769013
 21
-114.119841
 31
0.0
  0
LINE
  5
27B
100
AcDbEntity
  8
3
370
    50
100
AcDbLine
 10
-151.828918
 20
-112.404785
 30
0.0
 11
-151.093895
 21
-112.404785
 31
0.0
  0
LINE
  5
27C
100
AcDbEntity
  8
3
370
    50
100
AcDbLine
 10
-153.298966
 20
-112.404785
 30
0.0
 11
-154.033989
 21
-112.404785
 31
0.0
  0
LINE
  5
27D
100
AcDbEntity
  8
3
370
    50
100
AcDbLine
 10
-153.666478
 20
-112.404785
 30
0.0
 11
-153.234463
 21
-114.854864
 31
0.0
  0
LINE
  5
27E
100
AcDbEntity
  8
3
370
    50
100
AcDbLine
 10
-153.234463
 20
-114.854864
 30
0.0
 11
-152.563942
 21
-113.012624
 31
0.0
  0
LINE
  5
27F
100
AcDbEntity
  8
3
370
    50
100
AcDbLine
 10
-151.893421
 20
-114.854864
 30
0.0
 11
-152.563942
 21
-113.012624
 31
0.0
  0
LINE
  5
280
100
AcDbEntity
  8
3
370
    50
100
AcDbLine
 10
-151.461406
 20
-112.404785
 30
0.0
 11
-151.893421
 21
-114.854864
 31
0.0
  0
ARC
  5
281
100
AcDbEntity
  8
3
370
    50
100
AcDbCircle
 10
-155.504037
 20
-114.119841
 30
0.0
 40
0.735024
100
AcDbArc
 50
180.0
 51
360.0
  0
LINE
  5
282
100
AcDbEntity
  8
3
370
    50
100
AcDbLine
 10
-160.281691
 20
-110.129712
 30
0.0
 11
-135.080878
 21
-110.129712
 31
0.0
  0
LINE
  5
283
100
AcDbEntity
  8
3
370
    50
100
AcDbLine
 10
-160.281691
 20
-115.904898
 30
0.0
 11
-135.080878
 21
-115.904898
 31
0.0
  0
LINE
  5
284
100
AcDbEntity
  8
3
370
    50
100
AcDbLine
 10
-161.331725
 20
-114.854864
 30
0.0
 11
-161.331725
 21
-111.179746
 31
0.0
  0
LINE
  5
285
100
AcDbEntity
  8
3
370
    50
100
AcDbLine
 10
-134.030844
 20
-114.854864
 30
0.0
 11
-134.030844
 21
-111.179746
 31
0.0
  0
ARC
  5
286
100
AcDbEntity
  8
3
370
    50
100
AcDbCircle
 10
-160.281691
 20
-111.179746
 30
0.0
 40
1.050034
100
AcDbArc
 50
90.0
 51
180.0
  0
ARC
  5
287
100
AcDbEntity
  8
3
370
    50
100
AcDbCircle
 10
-160.281691
 20
-114.854864
 30
0.0
 40
1.050034
100
AcDbArc
 50
180.0
 51
270.0
  0
ARC
  5
288
100
AcDbEntity
  8
3
370
    50
100
AcDbCircle
 10
-135.080878
 20
-111.179746
 30
0.0
 40
1.050034
100
AcDbArc
 50
0.0
 51
90.0
  0
ARC
  5
289
100
AcDbEntity
  8
3
370
    50
100
AcDbCircle
 10
-135.080878
 20
-114.854864
 30
0.0
 40
1.050034
100
AcDbArc
 50
270.0
 51
360.0
  0
LINE
  5
28A
100
AcDbEntity
  8
3
370
    25
100
AcDbLine
 10
-159.564585
 20
-113.858968
 30
0.0
 11
-158.960205
 21
-113.254588
 31
0.0
  0
LINE
  5
28B
100
AcDbEntity
  8
3
370
    25
100
AcDbLine
 10
-157.475219
 20
-111.769602
 30
0.0
 11
-157.291675
 21
-111.586058
 31
0.0
  0
LINE
  5
28C
100
AcDbEntity
  8
3
370
    25
100
AcDbLine
 10
-159.741454
 20
-114.31868
 30
0.0
 11
-159.559551
 21
-114.136777
 31
0.0
  0
LINE
  5
28D
100
AcDbEntity
  8
3
370
    25
100
AcDbLine
 10
-157.324669
 20
-111.901895
 30
0.0
 11
-157.142756
 21
-111.719982
 31
0.0
  0
LINE
  5
28E
100
AcDbEntity
  8
3
370
    25
100
AcDbLine
 10
-159.592092
 20
-114.452161
 30
0.0
 11
-159.409288
 21
-114.269356
 31
0.0
  0
LINE
  5
28F
100
AcDbEntity
  8
3
370
    25
100
AcDbLine
 10
-157.192089
 20
-112.052158
 30
0.0
 11
-157.009276
 21
-111.869345
 31
0.0
  0
LINE
  5
290
100
AcDbEntity
  8
3
370
    25
100
AcDbLine
 10
-159.427002
 20
-114.569913
 30
0.0
 11
-159.240613
 21
-114.383525
 31
0.0
  0
LINE
  5
291
100
AcDbEntity
  8
3
370
    25
100
AcDbLine
 10
-157.077921
 20
-112.220832
 30
0.0
 11
-156.891524
 21
-112.034435
 31
0.0
  0
LINE
  5
292
100
AcDbEntity
  8
3
370
    25
100
AcDbLine
 10
-159.245273
 20
-114.671027
 30
0.0
 11
-159.052074
 21
-114.477828
 31
0.0
  0
LINE
  5
293
100
AcDbEntity
  8
3
370
    25
100
AcDbLine
 10
-156.983618
 20
-112.409372
 30
0.0
 11
-156.79041
 21
-112.216164
 31
0.0
  0
LINE
  5
294
100
AcDbEntity
  8
3
370
    25
100
AcDbLine
 10
-159.045187
 20
-114.753783
 30
0.0
 11
-158.840761
 21
-114.549358
 31
0.0
  0
LINE
  5
295
100
AcDbEntity
  8
3
370
    25
100
AcDbLine
 10
-156.912088
 20
-112.620685
 30
0.0
 11
-156.707653
 21
-112.41625
 31
0.0
  0
LINE
  5
296
100
AcDbEntity
  8
3
370
    25
100
AcDbLine
 10
-158.823779
 20
-114.815218
 30
0.0
 11
-158.60118
 21
-114.59262
 31
0.0
  0
LINE
  5
297
100
AcDbEntity
  8
3
370
    25
100
AcDbLine
 10
-156.868826
 20
-112.860265
 30
0.0
 11
-156.646218
 21
-112.637658
 31
0.0
  0
LINE
  5
298
100
AcDbEntity
  8
3
370
    25
100
AcDbLine
 10
-158.575855
 20
-114.850137
 30
0.0
 11
-158.321991
 21
-114.596273
 31
0.0
  0
LINE
  5
299
100
AcDbEntity
  8
3
370
    25
100
AcDbLine
 10
-156.865172
 20
-113.139454
 30
0.0
 11
-156.6113
 21
-112.885582
 31
0.0
  0
LINE
  5
29A
100
AcDbEntity
  8
3
370
    25
100
AcDbLine
 10
-158.291379
 20
-114.848504
 30
0.0
 11
-157.972639
 21
-114.529764
 31
0.0
  0
LINE
  5
29B
100
AcDbEntity
  8
3
370
    25
100
AcDbLine
 10
-156.931682
 20
-113.488806
 30
0.0
 11
-156.612932
 21
-113.170057
 31
0.0
  0
LINE
  5
29C
100
AcDbEntity
  8
3
370
    25
100
AcDbLine
 10
-157.946126
 20
-114.786094
 30
0.0
 11
-156.675343
 21
-113.51531
 31
0.0
  0
LINE
  5
29D
100
AcDbEntity
  8
3
370
    25
100
AcDbLine
 10
-157.420609
 20
-114.543419
 30
0.0
 11
-156.918017
 21
-114.040828
 31
0.0
  0
LINE
  5
29E
100
AcDbEntity
  8
3
370
    25
100
AcDbLine
 10
-157.456305
 20
-111.467846
 30
0.0
 11
-157.644194
 21
-111.655735
 31
0.0
  0
LINE
  5
29F
100
AcDbEntity
  8
3
370
    25
100
AcDbLine
 10
-158.958648
 20
-112.970189
 30
0.0
 11
-159.317182
 21
-113.328722
 31
0.0
  0
LINE
  5
2A0
100
AcDbEntity
  8
3
370
    25
100
AcDbLine
 10
-159.510884
 20
-113.522424
 30
0.0
 11
-159.816581
 21
-113.828122
 31
0.0
  0
LINE
  5
2A1
100
AcDbEntity
  8
3
370
    25
100
AcDbLine
 10
-157.637538
 20
-111.366236
 30
0.0
 11
-157.833068
 21
-111.561766
 31
0.0
  0
LINE
  5
2A2
100
AcDbEntity
  8
3
370
    25
100
AcDbLine
 10
-158.958648
 20
-112.687346
 30
0.0
 11
-159.289409
 21
-113.018107
 31
0.0
  0
LINE
  5
2A3
100
AcDbEntity
  8
3
370
    25
100
AcDbLine
 10
-159.792098
 20
-113.520796
 30
0.0
 11
-160.002874
 21
-113.731572
 31
0.0
  0
LINE
  5
2A4
100
AcDbEntity
  8
3
370
    25
100
AcDbLine
 10
-157.837064
 20
-111.282919
 30
0.0
 11
-158.044777
 21
-111.490632
 31
0.0
  0
LINE
  5
2A5
100
AcDbEntity
  8
3
370
    25
100
AcDbLine
 10
-158.958648
 20
-112.404504
 30
0.0
 11
-159.289409
 21
-112.735264
 31
0.0
  0
LINE
  5
2A6
100
AcDbEntity
  8
3
370
    25
100
AcDbLine
 10
-159.947116
 20
-113.392971
 30
0.0
 11
-160.143263
 21
-113.589118
 31
0.0
  0
LINE
  5
2A7
100
AcDbEntity
  8
3
370
    25
100
AcDbLine
 10
-158.057803
 20
-111.220815
 30
0.0
 11
-158.284875
 21
-111.447888
 31
0.0
  0
LINE
  5
2A8
100
AcDbEntity
  8
3
370
    25
100
AcDbLine
 10
-159.027391
 20
-112.190403
 30
0.0
 11
-159.289409
 21
-112.452421
 31
0.0
  0
LINE
  5
2A9
100
AcDbEntity
  8
3
370
    25
100
AcDbLine
 10
-160.013558
 20
-113.17657
 30
0.0
 11
-160.2374
 21
-113.400413
 31
0.0
  0
LINE
  5
2AA
100
AcDbEntity
  8
3
370
    25
100
AcDbLine
 10
-160.276406
 20
-113.156575
 30
0.0
 11
-160.016426
 21
-112.896596
 31
0.0
  0
LINE
  5
2AB
100
AcDbEntity
  8
3
370
    25
100
AcDbLine
 10
-158.56485
 20
-111.44502
 30
0.0
 11
-158.304861
 21
-111.185031
 31
0.0
  0
LINE
  5
2AC
100
AcDbEntity
  8
3
370
    25
100
AcDbLine
 10
-160.276045
 20
-112.873372
 30
0.0
 11
-159.948248
 21
-112.545575
 31
0.0
  0
LINE
  5
2AD
100
AcDbEntity
  8
3
370
    25
100
AcDbLine
 10
-158.915871
 20
-111.513198
 30
0.0
 11
-158.588064
 21
-111.185391
 31
0.0
  0
LINE
  5
2AE
100
AcDbEntity
  8
3
370
    25
100
AcDbLine
 10
-160.216044
 20
-112.530528
 30
0.0
 11
-158.930909
 21
-111.245393
 31
0.0
  0
LINE
  5
2AF
100
AcDbEntity
  8
3
370
    25
100
AcDbLine
 10
-159.985945
 20
-112.017586
 30
0.0
 11
-159.443851
 21
-111.475492
 31
0.0
  0
HATCH
  5
2B0
100
AcDbEntity
  8
3
370
    25
100
AcDbHatch
 10
0.0
 20
0.0
 30
0.0
210
0.0
220
0.0
230
1.0
  2
_U
 70
     0
 71
     1
 91
        1
 92
        1
 93
        4
 72
     1
 10
-158.62788800000001
 20
-113.844207
 11
-158.62788800000001
 21
-112.190403
 72
     1
 10
-158.62788800000001
 20
-112.190403
 11
-158.26037600000001
 21
-112.190403
 72
     1
 10
-158.26037600000001
 20
-112.190403
 11
-158.26037600000001
 21
-113.844207
 72
     1
 10
-158.26037600000001
 20
-113.844207
 11
-158.62788800000001
 21
-113.844207
 97
        4
330
0
330
0
330
0
330
0
 75
     0
 76
     0
 52
45.0
 41
1.0
 77
     0
 78
     1
 53
45.0
 43
0.0
 44
0.0
 45
-0.141421
 46
0.141421
 79
     0
 98
        1
 10
0.0
 20
0.0
  0
LINE
  5
2B1
100
AcDbEntity
  8
3
370
    25
100
AcDbLine
 10
-157.952897
 20
-112.481733
 30
0.0
 11
-157.693412
 21
-112.222248
 31
0.0
  0
LINE
  5
2B2
100
AcDbEntity
  8
3
370
    25
100
AcDbLine
 10
-157.378725
 20
-112.190403
 30
0.0
 11
-157.966452
 21
-112.77813
 31
0.0
  0
LINE
  5
2B3
100
AcDbEntity
  8
3
370
    25
100
AcDbLine
 10
-157.304845
 20
-112.399366
 30
0.0
 11
-157.389892
 21
-112.484413
 31
0.0
  0
LINE
  5
2B4
100
AcDbEntity
  8
3
370
    25
100
AcDbLine
 10
-157.641138
 20
-112.73566
 30
0.0
 11
-157.864805
 21
-112.959326
 31
0.0
  0
LINE
  5
2B5
100
AcDbEntity
  8
3
370
    25
100
AcDbLine
 10
-157.719345
 20
-113.096709
 30
0.0
 11
-157.507274
 21
-112.884638
 31
0.0
  0
LINE
  5
2B6
100
AcDbEntity
  8
3
370
    25
100
AcDbLine
 10
-157.984742
 20
-113.644949
 30
0.0
 11
-157.88999
 21
-113.550197
 31
0.0
  0
LINE
  5
2B7
100
AcDbEntity
  8
3
370
    25
100
AcDbLine
 10
-157.576904
 20
-113.23711
 30
0.0
 11
-157.360741
 21
-113.020948
 31
0.0
  0
LINE
  5
2B8
100
AcDbEntity
  8
3
370
    25
100
AcDbLine
 10
-157.901157
 20
-113.844207
 30
0.0
 11
-157.246801
 21
-113.18985
 31
0.0
  0
LINE
  5
2B9
100
AcDbEntity
  8
3
370
    25
100
AcDbLine
 10
-157.611739
 20
-113.837631
 30
0.0
 11
-157.219543
 21
-113.445435
 31
0.0
  0
LINE
  5
2BA
100
AcDbEntity
  8
3
370
    25
100
AcDbLine
 10
-149.900163
 20
-113.339093
 30
0.0
 11
-149.086681
 21
-112.525612
 31
0.0
  0
LINE
  5
2BB
100
AcDbEntity
  8
3
370
    25
100
AcDbLine
 10
-149.652173
 20
-113.373946
 30
0.0
 11
-148.838691
 21
-112.560464
 31
0.0
  0
LINE
  5
2BC
100
AcDbEntity
  8
3
370
    25
100
AcDbLine
 10
-149.404183
 20
-113.408799
 30
0.0
 11
-148.590701
 21
-112.595317
 31
0.0
  0
LINE
  5
2BD
100
AcDbEntity
  8
3
370
    25
100
AcDbLine
 10
-149.156193
 20
-113.443651
 30
0.0
 11
-148.342711
 21
-112.63017
 31
0.0
  0
LINE
  5
2BE
100
AcDbEntity
  8
3
370
    25
100
AcDbLine
 10
-148.908203
 20
-113.478504
 30
0.0
 11
-148.094721
 21
-112.665023
 31
0.0
  0
LINE
  5
2BF
100
AcDbEntity
  8
3
370
    25
100
AcDbLine
 10
-148.660213
 20
-113.513357
 30
0.0
 11
-147.846731
 21
-112.699875
 31
0.0
  0
LINE
  5
2C0
100
AcDbEntity
  8
3
370
    25
100
AcDbLine
 10
-148.412223
 20
-113.54821
 30
0.0
 11
-147.63419
 21
-112.770176
 31
0.0
  0
LINE
  5
2C1
100
AcDbEntity
  8
3
370
    25
100
AcDbLine
 10
-148.164233
 20
-113.583062
 30
0.0
 11
-147.491957
 21
-112.910786
 31
0.0
  0
LINE
  5
2C2
100
AcDbEntity
  8
3
370
    25
100
AcDbLine
 10
-147.916243
 20
-113.617915
 30
0.0
 11
-147.420419
 21
-113.122091
 31
0.0
  0
LINE
  5
2C3
100
AcDbEntity
  8
3
370
    25
100
AcDbLine
 10
-147.668253
 20
-113.652768
 30
0.0
 11
-147.418906
 21
-113.403421
 31
0.0
  0
LINE
  5
2C4
100
AcDbEntity
  8
3
370
    25
100
AcDbLine
 10
-150.148153
 20
-113.304241
 30
0.0
 11
-149.334671
 21
-112.490759
 31
0.0
  0
LINE
  5
2C5
100
AcDbEntity
  8
3
370
    25
100
AcDbLine
 10
-150.359001
 20
-113.232246
 30
0.0
 11
-149.582661
 21
-112.455906
 31
0.0
  0
LINE
  5
2C6
100
AcDbEntity
  8
3
370
    25
100
AcDbLine
 10
-150.359001
 20
-112.949403
 30
0.0
 11
-149.830651
 21
-112.421053
 31
0.0
  0
LINE
  5
2C7
100
AcDbEntity
  8
3
370
    25
100
AcDbLine
 10
-150.359001
 20
-112.666561
 30
0.0
 11
-150.078641
 21
-112.386201
 31
0.0
  0
LINE
  5
2C8
100
AcDbEntity
  8
3
370
    25
100
AcDbLine
 10
-150.359001
 20
-112.383718
 30
0.0
 11
-150.326631
 21
-112.351348
 31
0.0
  0
LINE
  5
2C9
100
AcDbEntity
  8
3
370
    25
100
AcDbLine
 10
-150.037428
 20
-114.854864
 30
0.0
 11
-149.118649
 21
-113.936085
 31
0.0
  0
LINE
  5
2CA
100
AcDbEntity
  8
3
370
    25
100
AcDbLine
 10
-149.754586
 20
-114.854864
 30
0.0
 11
-148.835806
 21
-113.936085
 31
0.0
  0
LINE
  5
2CB
100
AcDbEntity
  8
3
370
    25
100
AcDbLine
 10
-149.471743
 20
-114.854864
 30
0.0
 11
-148.552963
 21
-113.936085
 31
0.0
  0
LINE
  5
2CC
100
AcDbEntity
  8
3
370
    25
100
AcDbLine
 10
-149.1889
 20
-114.854864
 30
0.0
 11
-148.270121
 21
-113.936085
 31
0.0
  0
LINE
  5
2CD
100
AcDbEntity
  8
3
370
    25
100
AcDbLine
 10
-148.906058
 20
-114.854864
 30
0.0
 11
-147.987278
 21
-113.936085
 31
0.0
  0
LINE
  5
2CE
100
AcDbEntity
  8
3
370
    25
100
AcDbLine
 10
-148.623215
 20
-114.854864
 30
0.0
 11
-147.729277
 21
-113.960926
 31
0.0
  0
LINE
  5
2CF
100
AcDbEntity
  8
3
370
    25
100
AcDbLine
 10
-148.340372
 20
-114.854864
 30
0.0
 11
-147.554804
 21
-114.069296
 31
0.0
  0
LINE
  5
2D0
100
AcDbEntity
  8
3
370
    25
100
AcDbLine
 10
-148.057529
 20
-114.854864
 30
0.0
 11
-147.445135
 21
-114.24247
 31
0.0
  0
LINE
  5
2D1
100
AcDbEntity
  8
3
370
    25
100
AcDbLine
 10
-147.774687
 20
-114.854864
 30
0.0
 11
-147.418906
 21
-114.499084
 31
0.0
  0
LINE
  5
2D2
100
AcDbEntity
  8
3
370
    25
100
AcDbLine
 10
-147.491844
 20
-114.854864
 30
0.0
 11
-147.418906
 21
-114.781927
 31
0.0
  0
LINE
  5
2D3
100
AcDbEntity
  8
3
370
    25
100
AcDbLine
 10
-150.320271
 20
-114.854864
 30
0.0
 11
-149.401491
 21
-113.936085
 31
0.0
  0
LINE
  5
2D4
100
AcDbEntity
  8
3
370
    25
100
AcDbLine
 10
-150.359001
 20
-114.610752
 30
0.0
 11
-149.684334
 21
-113.936085
 31
0.0
  0
LINE
  5
2D5
100
AcDbEntity
  8
3
370
    25
100
AcDbLine
 10
-150.359001
 20
-114.327909
 30
0.0
 11
-149.967177
 21
-113.936085
 31
0.0
  0
LINE
  5
2D6
100
AcDbEntity
  8
3
370
    25
100
AcDbLine
 10
-150.359001
 20
-114.045066
 30
0.0
 11
-150.25002
 21
-113.936085
 31
0.0
  0
LINE
  5
2D7
100
AcDbEntity
  8
3
370
    25
100
AcDbLine
 10
-146.959517
 20
-114.257657
 30
0.0
 11
-146.637944
 21
-113.936085
 31
0.0
  0
LINE
  5
2D8
100
AcDbEntity
  8
3
370
    25
100
AcDbLine
 10
-145.213835
 20
-112.511976
 30
0.0
 11
-144.297152
 21
-111.595293
 31
0.0
  0
LINE
  5
2D9
100
AcDbEntity
  8
3
370
    25
100
AcDbLine
 10
-146.959517
 20
-114.5405
 30
0.0
 11
-146.355101
 21
-113.936085
 31
0.0
  0
LINE
  5
2DA
100
AcDbEntity
  8
3
370
    25
100
AcDbLine
 10
-145.213835
 20
-112.794819
 30
0.0
 11
-144.295056
 21
-111.876039
 31
0.0
  0
LINE
  5
2DB
100
AcDbEntity
  8
3
370
    25
100
AcDbLine
 10
-144.295056
 20
-112.158882
 30
0.0
 11
-145.250075
 21
-113.113901
 31
0.0
  0
LINE
  5
2DC
100
AcDbEntity
  8
3
370
    25
100
AcDbLine
 10
-146.036019
 20
-113.899845
 30
0.0
 11
-146.959517
 21
-114.823343
 31
0.0
  0
LINE
  5
2DD
100
AcDbEntity
  8
3
370
    25
100
AcDbLine
 10
-144.295056
 20
-112.441725
 30
0.0
 11
-146.708195
 21
-114.854864
 31
0.0
  0
LINE
  5
2DE
100
AcDbEntity
  8
3
370
    25
100
AcDbLine
 10
-144.295056
 20
-112.724567
 30
0.0
 11
-146.425352
 21
-114.854864
 31
0.0
  0
LINE
  5
2DF
100
AcDbEntity
  8
3
370
    25
100
AcDbLine
 10
-144.303273
 20
-113.015627
 30
0.0
 11
-146.134292
 21
-114.846647
 31
0.0
  0
LINE
  5
2E0
100
AcDbEntity
  8
3
370
    25
100
AcDbLine
 10
-144.364821
 20
-113.360019
 30
0.0
 11
-145.789901
 21
-114.785098
 31
0.0
  0
LINE
  5
2E1
100
AcDbEntity
  8
3
370
    25
100
AcDbLine
 10
-144.225374
 20
-113.503414
 30
0.0
 11
-145.306437
 21
-114.584477
 31
0.0
  0
LINE
  5
2E2
100
AcDbEntity
  8
3
370
    25
100
AcDbLine
 10
-144.056289
 20
-113.617171
 30
0.0
 11
-144.719271
 21
-114.280153
 31
0.0
  0
LINE
  5
2E3
100
AcDbEntity
  8
3
370
    25
100
AcDbLine
 10
-143.873174
 20
-113.7169
 30
0.0
 11
-144.549058
 21
-114.392783
 31
0.0
  0
LINE
  5
2E4
100
AcDbEntity
  8
3
370
    25
100
AcDbLine
 10
-143.674791
 20
-113.801359
 30
0.0
 11
-144.368998
 21
-114.495566
 31
0.0
  0
LINE
  5
2E5
100
AcDbEntity
  8
3
370
    25
100
AcDbLine
 10
-143.459196
 20
-113.868607
 30
0.0
 11
-144.178537
 21
-114.587947
 31
0.0
  0
LINE
  5
2E6
100
AcDbEntity
  8
3
370
    25
100
AcDbLine
 10
-143.223324
 20
-113.915577
 30
0.0
 11
-143.976911
 21
-114.669164
 31
0.0
  0
LINE
  5
2E7
100
AcDbEntity
  8
3
370
    25
100
AcDbLine
 10
-142.96209
 20
-113.937186
 30
0.0
 11
-143.763074
 21
-114.73817
 31
0.0
  0
LINE
  5
2E8
100
AcDbEntity
  8
3
370
    25
100
AcDbLine
 10
-142.825008
 20
-114.082947
 30
0.0
 11
-143.535587
 21
-114.793526
 31
0.0
  0
LINE
  5
2E9
100
AcDbEntity
  8
3
370
    25
100
AcDbLine
 10
-142.825008
 20
-114.36579
 30
0.0
 11
-143.292427
 21
-114.833209
 31
0.0
  0
LINE
  5
2EA
100
AcDbEntity
  8
3
370
    25
100
AcDbLine
 10
-142.825008
 20
-114.648632
 30
0.0
 11
-143.030645
 21
-114.854269
 31
0.0
  0
LINE
  5
2EB
100
AcDbEntity
  8
3
370
    25
100
AcDbLine
 10
-146.959517
 20
-113.974815
 30
0.0
 11
-146.920786
 21
-113.936085
 31
0.0
  0
LINE
  5
2EC
100
AcDbEntity
  8
3
370
    25
100
AcDbLine
 10
-145.213835
 20
-112.229133
 30
0.0
 11
-144.370936
 21
-111.386234
 31
0.0
  0
LINE
  5
2ED
100
AcDbEntity
  8
3
370
    25
100
AcDbLine
 10
-145.36607
 20
-112.098525
 30
0.0
 11
-144.514769
 21
-111.247224
 31
0.0
  0
LINE
  5
2EE
100
AcDbEntity
  8
3
370
    25
100
AcDbLine
 10
-145.648912
 20
-112.098525
 30
0.0
 11
-144.730745
 21
-111.180357
 31
0.0
  0
LINE
  5
2EF
100
AcDbEntity
  8
3
370
    25
100
AcDbLine
 10
-145.931755
 20
-112.098525
 30
0.0
 11
-145.012976
 21
-111.179746
 31
0.0
  0
LINE
  5
2F0
100
AcDbEntity
  8
3
370
    25
100
AcDbLine
 10
-146.214598
 20
-112.098525
 30
0.0
 11
-145.295818
 21
-111.179746
 31
0.0
  0
LINE
  5
2F1
100
AcDbEntity
  8
3
370
    25
100
AcDbLine
 10
-146.500127
 20
-112.101211
 30
0.0
 11
-146.497441
 21
-112.098525
 31
0.0
  0
LINE
  5
2F2
100
AcDbEntity
  8
3
370
    25
100
AcDbLine
 10
-146.497441
 20
-112.098525
 30
0.0
 11
-145.578661
 21
-111.179746
 31
0.0
  0
LINE
  5
2F3
100
AcDbEntity
  8
3
370
    25
100
AcDbLine
 10
-146.500127
 20
-111.818369
 30
0.0
 11
-145.861504
 21
-111.179746
 31
0.0
  0
LINE
  5
2F4
100
AcDbEntity
  8
3
370
    25
100
AcDbLine
 10
-146.500127
 20
-111.535526
 30
0.0
 11
-146.144346
 21
-111.179746
 31
0.0
  0
LINE
  5
2F5
100
AcDbEntity
  8
3
370
    25
100
AcDbLine
 10
-146.500127
 20
-111.252683
 30
0.0
 11
-146.427189
 21
-111.179746
 31
0.0
  0
HATCH
  5
2F6
100
AcDbEntity
  8
3
370
    25
100
AcDbHatch
 10
0.0
 20
0.0
 30
0.0
210
0.0
220
0.0
230
1.0
  2
_U
 70
     0
 71
     1
 91
        1
 92
        1
 93
        1
 72
     2
 10
-144.01942199999999
 20
-111.45538000000001
 40
0.275634
 50
0.0
 51
360.0
 73
     1
 97
        1
330
0
 75
     0
 76
     0
 52
45.0
 41
1.0
 77
     0
 78
     1
 53
45.0
 43
0.0
 44
0.0
 45
-0.141421
 46
0.141421
 79
     0
 98
        1
 10
0.0
 20
0.0
  0
HATCH
  5
2F7
100
AcDbEntity
  8
3
370
    25
100
AcDbHatch
 10
0.0
 20
0.0
 30
0.0
210
0.0
220
0.0
230
1.0
  2
_U
 70
     0
 71
     1
 91
        1
 92
        1
 93
        1
 72
     2
 10
-143.468154
 20
-111.45538000000001
 40
0.275634
 50
0.0
 51
360.0
 73
     1
 97
        1
330
0
 75
     0
 76
     0
 52
45.0
 41
1.0
 77
     0
 78
     1
 53
45.0
 43
0.0
 44
0.0
 45
-0.141421
 46
0.141421
 79
     0
 98
        1
 10
0.0
 20
0.0
  0
LINE
  5
2F8
100
AcDbEntity
  8
3
370
    25
100
AcDbLine
 10
-142.054961
 20
-111.179746
 30
0.0
 11
-142.789984
 21
-111.914769
 31
0.0
  0
LINE
  5
2F9
100
AcDbEntity
  8
3
370
    25
100
AcDbLine
 10
-141.772118
 20
-111.179746
 30
0.0
 11
-143.176355
 21
-112.583982
 31
0.0
  0
LINE
  5
2FA
100
AcDbEntity
  8
3
370
    25
100
AcDbLine
 10
-141.489275
 20
-111.179746
 30
0.0
 11
-142.959323
 21
-112.649793
 31
0.0
  0
LINE
  5
2FB
100
AcDbEntity
  8
3
370
    25
100
AcDbLine
 10
-141.206433
 20
-111.179746
 30
0.0
 11
-142.67648
 21
-112.649793
 31
0.0
  0
LINE
  5
2FC
100
AcDbEntity
  8
3
370
    25
100
AcDbLine
 10
-140.92359
 20
-111.179746
 30
0.0
 11
-141.842369
 21
-112.098525
 31
0.0
  0
LINE
  5
2FD
100
AcDbEntity
  8
3
370
    25
100
AcDbLine
 10
-141.842369
 20
-112.098525
 30
0.0
 11
-142.393637
 21
-112.649793
 31
0.0
  0
LINE
  5
2FE
100
AcDbEntity
  8
3
370
    25
100
AcDbLine
 10
-140.640747
 20
-111.179746
 30
0.0
 11
-141.559527
 21
-112.098525
 31
0.0
  0
LINE
  5
2FF
100
AcDbEntity
  8
3
370
    25
100
AcDbLine
 10
-140.409129
 20
-111.23097
 30
0.0
 11
-141.276684
 21
-112.098525
 31
0.0
  0
LINE
  5
300
100
AcDbEntity
  8
3
370
    25
100
AcDbLine
 10
-141.630595
 20
-112.735278
 30
0.0
 11
-141.361353
 21
-112.466037
 31
0.0
  0
LINE
  5
301
100
AcDbEntity
  8
3
370
    25
100
AcDbLine
 10
-141.079327
 20
-112.184011
 30
0.0
 11
-140.255181
 21
-111.359865
 31
0.0
  0
LINE
  5
302
100
AcDbEntity
  8
3
370
    25
100
AcDbLine
 10
-141.630595
 20
-113.018121
 30
0.0
 11
-141.079327
 21
-112.466853
 31
0.0
  0
LINE
  5
303
100
AcDbEntity
  8
3
370
    25
100
AcDbLine
 10
-141.078511
 20
-112.466037
 30
0.0
 11
-140.168185
 21
-111.555712
 31
0.0
  0
LINE
  5
304
100
AcDbEntity
  8
3
370
    25
100
AcDbLine
 10
-142.365618
 20
-114.035988
 30
0.0
 11
-142.265715
 21
-113.936085
 31
0.0
  0
LINE
  5
305
100
AcDbEntity
  8
3
370
    25
100
AcDbLine
 10
-141.630595
 20
-113.300964
 30
0.0
 11
-140.160547
 21
-111.830916
 31
0.0
  0
LINE
  5
306
100
AcDbEntity
  8
3
370
    25
100
AcDbLine
 10
-142.365618
 20
-114.31883
 30
0.0
 11
-141.960402
 21
-113.913614
 31
0.0
  0
LINE
  5
307
100
AcDbEntity
  8
3
370
    25
100
AcDbLine
 10
-141.431605
 20
-113.384817
 30
0.0
 11
-140.160547
 21
-112.113759
 31
0.0
  0
LINE
  5
308
100
AcDbEntity
  8
3
370
    25
100
AcDbLine
 10
-140.160547
 20
-112.396602
 30
0.0
 11
-142.365618
 21
-114.601673
 31
0.0
  0
LINE
  5
309
100
AcDbEntity
  8
3
370
    25
100
AcDbLine
 10
-140.160547
 20
-112.679445
 30
0.0
 11
-142.335967
 21
-114.854864
 31
0.0
  0
LINE
  5
30A
100
AcDbEntity
  8
3
370
    25
100
AcDbLine
 10
-142.048735
 20
-114.850476
 30
0.0
 11
-140.164936
 21
-112.966676
 31
0.0
  0
LINE
  5
30B
100
AcDbEntity
  8
3
370
    25
100
AcDbLine
 10
-141.715822
 20
-114.800405
 30
0.0
 11
-140.215007
 21
-113.299589
 31
0.0
  0
LINE
  5
30C
100
AcDbEntity
  8
3
370
    25
100
AcDbLine
 10
-141.270141
 20
-114.637567
 30
0.0
 11
-140.377845
 21
-113.74527
 31
0.0
  0
LINE
  5
30D
100
AcDbEntity
  8
3
370
    25
100
AcDbLine
 10
-142.337803
 20
-111.179746
 30
0.0
 11
-142.403614
 21
-111.245556
 31
0.0
  0
LINE
  5
30E
100
AcDbEntity
  8
3
370
    25
100
AcDbLine
 10
-137.735781
 20
-111.235684
 30
0.0
 11
-138.598622
 21
-112.098525
 31
0.0
  0
LINE
  5
30F
100
AcDbEntity
  8
3
370
    25
100
AcDbLine
 10
-137.584895
 20
-111.367642
 30
0.0
 11
-138.315779
 21
-112.098525
 31
0.0
  0
LINE
  5
310
100
AcDbEntity
  8
3
370
    25
100
AcDbLine
 10
-137.501734
 20
-111.567323
 30
0.0
 11
-138.032936
 21
-112.098525
 31
0.0
  0
LINE
  5
311
100
AcDbEntity
  8
3
370
    25
100
AcDbLine
 10
-137.496086
 20
-111.844518
 30
0.0
 11
-137.750094
 21
-112.098525
 31
0.0
  0
LINE
  5
312
100
AcDbEntity
  8
3
370
    25
100
AcDbLine
 10
-137.962685
 20
-111.179746
 30
0.0
 11
-138.881464
 21
-112.098525
 31
0.0
  0
LINE
  5
313
100
AcDbEntity
  8
3
370
    25
100
AcDbLine
 10
-138.245527
 20
-111.179746
 30
0.0
 11
-139.164307
 21
-112.098525
 31
0.0
  0
LINE
  5
314
100
AcDbEntity
  8
3
370
    25
100
AcDbLine
 10
-138.52837
 20
-111.179746
 30
0.0
 11
-139.44715
 21
-112.098525
 31
0.0
  0
LINE
  5
315
100
AcDbEntity
  8
3
370
    25
100
AcDbLine
 10
-138.811213
 20
-111.179746
 30
0.0
 11
-139.701157
 21
-112.06969
 31
0.0
  0
LINE
  5
316
100
AcDbEntity
  8
3
370
    25
100
AcDbLine
 10
-139.094056
 20
-111.179746
 30
0.0
 11
-139.701157
 21
-111.786847
 31
0.0
  0
LINE
  5
317
100
AcDbEntity
  8
3
370
    25
100
AcDbLine
 10
-139.376898
 20
-111.179746
 30
0.0
 11
-139.701157
 21
-111.504005
 31
0.0
  0
LINE
  5
318
100
AcDbEntity
  8
3
370
    25
100
AcDbLine
 10
-139.659741
 20
-111.179746
 30
0.0
 11
-139.701157
 21
-111.221162
 31
0.0
  0
LINE
  5
319
100
AcDbEntity
  8
3
370
    25
100
AcDbLine
 10
-139.701157
 20
-114.808925
 30
0.0
 11
-138.828317
 21
-113.936085
 31
0.0
  0
LINE
  5
31A
100
AcDbEntity
  8
3
370
    25
100
AcDbLine
 10
-139.464254
 20
-114.854864
 30
0.0
 11
-138.545474
 21
-113.936085
 31
0.0
  0
LINE
  5
31B
100
AcDbEntity
  8
3
370
    25
100
AcDbLine
 10
-139.181411
 20
-114.854864
 30
0.0
 11
-138.262631
 21
-113.936085
 31
0.0
  0
LINE
  5
31C
100
AcDbEntity
  8
3
370
    25
100
AcDbLine
 10
-138.898568
 20
-114.854864
 30
0.0
 11
-137.979788
 21
-113.936085
 31
0.0
  0
LINE
  5
31D
100
AcDbEntity
  8
3
370
    25
100
AcDbLine
 10
-138.615725
 20
-114.854864
 30
0.0
 11
-137.746983
 21
-113.986122
 31
0.0
  0
LINE
  5
31E
100
AcDbEntity
  8
3
370
    25
100
AcDbLine
 10
-138.332883
 20
-114.854864
 30
0.0
 11
-137.592243
 21
-114.114225
 31
0.0
  0
LINE
  5
31F
100
AcDbEntity
  8
3
370
    25
100
AcDbLine
 10
-138.05004
 20
-114.854864
 30
0.0
 11
-137.504279
 21
-114.309103
 31
0.0
  0
LINE
  5
320
100
AcDbEntity
  8
3
370
    25
100
AcDbLine
 10
-137.767197
 20
-114.854864
 30
0.0
 11
-137.496086
 21
-114.583753
 31
0.0
  0
LINE
  5
321
100
AcDbEntity
  8
3
370
    25
100
AcDbLine
 10
-137.484355
 20
-114.854864
 30
0.0
 11
-137.496086
 21
-114.866596
 31
0.0
  0
LINE
  5
322
100
AcDbEntity
  8
3
370
    25
100
AcDbLine
 10
-139.701157
 20
-114.526083
 30
0.0
 11
-139.111159
 21
-113.936085
 31
0.0
  0
LINE
  5
323
100
AcDbEntity
  8
3
370
    25
100
AcDbLine
 10
-139.701157
 20
-114.24324
 30
0.0
 11
-139.394002
 21
-113.936085
 31
0.0
  0
LINE
  5
324
100
AcDbEntity
  8
3
370
    25
100
AcDbLine
 10
-139.701157
 20
-113.960397
 30
0.0
 11
-139.676845
 21
-113.936085
 31
0.0
  0
LWPOLYLINE
  5
325
100
AcDbEntity
  8
3
370
    25
100
AcDbPolyline
 90
        2
 70
     0
 10
-106.240585
 20
-156.598225
 10
-120.394821
 20
-162.007161
  0
LINE
  5
329
100
AcDbEntity
  8
3
370
    25
100
AcDbLine
 10
-109.849737
 20
-157.977436
 30
0.0
 11
-109.480179
 21
-158.944506
 31
0.0
  0
LINE
  5
32A
100
AcDbEntity
  8
3
370
    25
100
AcDbLine
 10
-109.480179
 20
-158.944506
 30
0.0
 11
-106.240585
 21
-156.598225
 31
0.0
  0
LINE
  5
32B
100
AcDbEntity
  8
3
370
    25
100
AcDbLine
 10
-106.240585
 20
-156.598225
 30
0.0
 11
-110.219296
 21
-157.010367
 31
0.0
  0
LINE
  5
32C
100
AcDbEntity
  8
3
370
    25
100
AcDbLine
 10
-110.219296
 20
-157.010367
 30
0.0
 11
-109.849737
 21
-157.977436
 31
0.0
  0
TEXT
  5
32D
100
AcDbEntity
  8
3
370
    50
100
AcDbText
 10
-150.581415
 20
-165.121842
 30
0.0
 40
6.999667
  1
２４六角
 72
     5
 11
-123.982681
 21
-165.121842
 31
0.0
100
AcDbText
  0
LWPOLYLINE
  5
32E
100
AcDbEntity
  8
3
370
    25
100
AcDbPolyline
 90
        2
 70
     0
 10
-106.963301
 20
-185.494935
 10
-119.237758
 20
-188.095323
  0
LINE
  5
332
100
AcDbEntity
  8
3
370
    25
100
AcDbLine
 10
-110.743112
 20
-186.295702
 30
0.0
 11
-110.528548
 21
-187.308499
 31
0.0
  0
LINE
  5
333
100
AcDbEntity
  8
3
370
    25
100
AcDbLine
 10
-110.528548
 20
-187.308499
 30
0.0
 11
-106.963301
 21
-185.494935
 31
0.0
  0
LINE
  5
334
100
AcDbEntity
  8
3
370
    25
100
AcDbLine
 10
-106.963301
 20
-185.494935
 30
0.0
 11
-110.957677
 21
-185.282904
 31
0.0
  0
LINE
  5
335
100
AcDbEntity
  8
3
370
    25
100
AcDbLine
 10
-110.957677
 20
-185.282904
 30
0.0
 11
-110.743112
 21
-186.295702
 31
0.0
  0
TEXT
  5
336
100
AcDbEntity
  8
3
370
    50
100
AcDbText
 10
-148.523901
 20
-191.123902
 30
0.0
 40
6.999667
  1
２３六角
 72
     5
 11
-121.925167
 21
-191.123902
 31
0.0
100
AcDbText
  0
LWPOLYLINE
  5
337
100
AcDbEntity
  8
3
370
    25
100
AcDbPolyline
 90
        3
 70
     0
 10
-85.217376
 20
-170.120484
 10
-60.655494
 20
-180.938344
 10
-26.302649
 20
-180.938344
  0
LINE
  5
33C
100
AcDbEntity
  8
3
370
    25
100
AcDbLine
 10
-81.681435
 20
-171.677829
 30
0.0
 11
-81.264146
 21
-170.730376
 31
0.0
  0
LINE
  5
33D
100
AcDbEntity
  8
3
370
    25
100
AcDbLine
 10
-81.264146
 20
-170.730376
 30
0.0
 11
-85.217376
 21
-170.120484
 31
0.0
  0
LINE
  5
33E
100
AcDbEntity
  8
3
370
    25
100
AcDbLine
 10
-85.217376
 20
-170.120484
 30
0.0
 11
-82.098724
 21
-172.625282
 31
0.0
  0
LINE
  5
33F
100
AcDbEntity
  8
3
370
    25
100
AcDbLine
 10
-82.098724
 20
-172.625282
 30
0.0
 11
-81.681435
 21
-171.677829
 31
0.0
  0
TEXT
  5
340
100
AcDbEntity
  8
3
370
    50
100
AcDbText
 10
-60.714918
 20
-179.14203
 30
0.0
 40
6.999667
  1
ＰＪ１／２
 72
     5
 11
-27.116517
 21
-179.14203
 31
0.0
100
AcDbText
  0
TEXT
  5
341
100
AcDbEntity
  8
3
370
    50
100
AcDbText
 10
-68.773981
 20
135.778177
 30
0.0
 40
12.0
  1
△
 72
     5
 11
-59.173981
 21
135.778177
 31
0.0
100
AcDbText
  0
TEXT
  5
342
100
AcDbEntity
  8
3
370
    50
100
AcDbText
 10
-64.825739
 20
138.160898
 30
0.0
 40
4.0
  1
３
 72
     5
 11
-61.625739
 21
138.160898
 31
0.0
100
AcDbText
  0
TEXT
  5
343
100
AcDbEntity
  8
3
370
    50
100
AcDbText
 10
-49.601806
 20
211.29805
 30
0.0
 40
7.0
  1
＊ハンドル位置ハ製造上ノ誤差ニヨリ
 72
     5
 11
67.998194
 21
211.29805
 31
0.0
100
AcDbText
  0
TEXT
  5
344
100
AcDbEntity
  8
3
370
    50
100
AcDbText
 10
-42.601806
 20
195.29805
 30
0.0
 40
7.0
  1
プノ真上ニコナイコトガアリマス
 72
     5
 11
60.998194
 21
195.29805
 31
0.0
100
AcDbText
  0
TEXT
  5
345
100
AcDbEntity
  8
3
370
    50
100
AcDbText
 10
-42.601806
 20
203.29805
 30
0.0
 40
7.0
  1
左図ニ示シタ止水位置ノヨウニパイ
 72
     5
 11
67.998194
 21
203.29805
 31
0.0
100
AcDbText
  0
TEXT
  5
346
100
AcDbEntity
  8
3
370
    50
100
AcDbText
 10
-49.601806
 20
211.29805
 30
0.0
 40
7.0
  1
＊ハンドル位置ハ製造上ノ誤差ニヨリ
 72
     5
 11
67.998194
 21
211.29805
 31
0.0
100
AcDbText
  0
TEXT
  5
347
100
AcDbEntity
  8
3
370
    50
100
AcDbText
 10
-42.601806
 20
195.29805
 30
0.0
 40
7.0
  1
プノ真上ニコナイコトガアリマス
 72
     5
 11
60.998194
 21
195.29805
 31
0.0
100
AcDbText
  0
TEXT
  5
348
100
AcDbEntity
  8
3
370
    50
100
AcDbText
 10
-42.601806
 20
203.29805
 30
0.0
 40
7.0
  1
左図ニ示シタ止水位置ノヨウニパイ
 72
     5
 11
67.998194
 21
203.29805
 31
0.0
100
AcDbText
  0
TEXT
  5
349
100
AcDbEntity
  8
3
370
    50
100
AcDbText
 10
-49.724036
 20
222.430333
 30
0.0
 40
4.0
  1
１
 72
     5
 11
-46.524036
 21
222.430333
 31
0.0
100
AcDbText
  0
TEXT
  5
34A
100
AcDbEntity
  8
3
370
    50
100
AcDbText
 10
-53.856593
 20
219.976582
 30
0.0
 40
12.0
  1
△
 72
     5
 11
-44.256593
 21
219.976582
 31
0.0
100
AcDbText
  0
TEXT
  5
34B
100
AcDbEntity
  8
3
370
    50
100
AcDbText
 10
169.458723
 20
231.949487
 30
0.0
 40
12.0
  1
△
 72
     5
 11
179.058723
 21
231.949487
 31
0.0
100
AcDbText
  0
TEXT
  5
34C
100
AcDbEntity
  8
3
370
    50
100
AcDbText
 10
182.707199
 20
242.148935
 30
0.0
 40
6.0
  1
０９　　６　２５
 72
     5
 11
229.507199
 21
242.148935
 31
0.0
100
AcDbText
  0
TEXT
  5
34D
100
AcDbEntity
  8
3
370
    50
100
AcDbText
 10
164.279516
 20
220.18166
 30
0.0
 40
12.0
  1
△
 72
     5
 11
173.879516
 21
220.18166
 31
0.0
100
AcDbText
  0
TEXT
  5
34E
100
AcDbEntity
  8
3
370
    50
100
AcDbText
 10
167.995309
 20
222.820653
 30
0.0
 40
4.0
  1
５
 72
     5
 11
171.195309
 21
222.820653
 31
0.0
100
AcDbText
  0
TEXT
  5
34F
100
AcDbEntity
  8
3
370
    50
100
AcDbText
 10
182.223923
 20
222.731949
 30
0.0
 40
6.0
  1
１２　１０　　４
 72
     5
 11
229.023923
 21
222.731949
 31
0.0
100
AcDbText
  0
TEXT
  5
350
100
AcDbEntity
  8
3
370
    50
100
AcDbText
 10
234.103153
 20
222.597534
 30
0.0
 40
5.7
  1
製造メーカー識別の為
 72
     5
 11
289.963153
 21
222.597534
 31
0.0
100
AcDbText
  0
LINE
  5
351
100
AcDbEntity
  8
3
370
    50
100
AcDbLine
 10
115.098944
 20
-114.169725
 30
0.0
 11
115.098944
 21
-122.169725
 31
0.0
  0
LINE
  5
352
100
AcDbEntity
  8
3
370
    50
100
AcDbLine
 10
141.098944
 20
-114.169725
 30
0.0
 11
141.098944
 21
-122.169725
 31
0.0
  0
LINE
  5
353
100
AcDbEntity
  8
3
370
    50
100
AcDbLine
 10
117.098944
 20
-112.169725
 30
0.0
 11
139.098944
 21
-112.169725
 31
0.0
  0
LINE
  5
354
100
AcDbEntity
  8
3
370
    50
100
AcDbLine
 10
117.098944
 20
-124.169725
 30
0.0
 11
139.098944
 21
-124.169725
 31
0.0
  0
TEXT
  5
355
100
AcDbEntity
  8
3
370
    50
100
AcDbText
 10
159.237211
 20
-129.501491
 30
0.0
 40
7.0
  1
（製品コードＮＯ及び
 72
     5
 11
227.837211
 21
-129.501491
 31
0.0
100
AcDbText
  0
TEXT
  5
356
100
AcDbEntity
  8
3
370
    50
100
AcDbText
 10
159.237211
 20
-140.601491
 30
0.0
 40
7.0
  1
　ロットＮＯの表示）
 72
     5
 11
227.837211
 21
-140.601491
 31
0.0
100
AcDbText
  0
TEXT
  5
357
100
AcDbEntity
  8
3
370
    50
100
AcDbText
 10
304.54372
 20
222.778351
 30
0.0
 40
4.4
  1
ロットシール（ネーマー銀）追加
 72
     5
 11
369.66372
 21
222.778351
 31
0.0
100
AcDbText
  0
TEXT
  5
358
100
AcDbEntity
  8
3
370
    50
100
AcDbText
 10
159.19956
 20
-100.62141
 30
0.0
 40
12.0
  1
△
 72
     5
 11
168.79956
 21
-100.62141
 31
0.0
100
AcDbText
  0
TEXT
  5
359
100
AcDbEntity
  8
3
370
    50
100
AcDbText
 10
162.915353
 20
-97.982417
 30
0.0
 40
4.0
  1
５
 72
     5
 11
166.115353
 21
-97.982417
 31
0.0
100
AcDbText
  0
ARC
  5
35A
100
AcDbEntity
  8
3
370
    50
100
AcDbCircle
 10
139.098944
 20
-114.169725
 30
0.0
 40
2.0
100
AcDbArc
 50
0.0
 51
90.0
  0
ARC
  5
35B
100
AcDbEntity
  8
3
370
    50
100
AcDbCircle
 10
139.098944
 20
-122.169725
 30
0.0
 40
2.0
100
AcDbArc
 50
270.0
 51
360.0
  0
ARC
  5
35C
100
AcDbEntity
  8
3
370
    50
100
AcDbCircle
 10
117.098944
 20
-122.169725
 30
0.0
 40
2.0
100
AcDbArc
 50
180.0
 51
270.0
  0
ARC
  5
35D
100
AcDbEntity
  8
3
370
    50
100
AcDbCircle
 10
117.098944
 20
-114.169725
 30
0.0
 40
2.0
100
AcDbArc
 50
90.0
 51
180.0
  0
HATCH
  5
35E
100
AcDbEntity
  8
3
370
    25
100
AcDbHatch
 10
0.0
 20
0.0
 30
0.0
210
0.0
220
0.0
230
1.0
  2
_U
 70
     0
 71
     1
 91
        1
 92
        1
 93
        8
 72
     1
 10
139.09894399999999
 20
-112.169725
 11
117.098944
 21
-112.169725
 72
     2
 10
117.098944
 20
-114.169725
 40
2.0
 50
90.0
 51
180.0
 73
     1
 72
     1
 10
115.098944
 20
-114.169725
 11
115.098944
 21
-122.169725
 72
     2
 10
117.098944
 20
-122.169725
 40
2.0
 50
180.0
 51
270.0
 73
     1
 72
     1
 10
117.098944
 20
-124.169725
 11
139.09894399999999
 21
-124.169725
 72
     2
 10
139.09894399999999
 20
-122.169725
 40
2.0
 50
270.0
 51
0.0
 73
     1
 72
     1
 10
141.09894399999999
 20
-122.169725
 11
141.09894399999999
 21
-114.169725
 72
     2
 10
139.09894399999999
 20
-114.169725
 40
2.0
 50
0.0
 51
90.0
 73
     1
 97
        8
330
0
330
0
330
0
330
0
330
0
330
0
330
0
330
0
 75
     0
 76
     0
 52
45.0
 41
1.0
 77
     0
 78
     1
 53
45.0
 43
0.0
 44
0.0
 45
-1.4142140000000001
 46
1.4142140000000001
 79
     0
 98
        1
 10
0.0
 20
0.0
  0
LINE
  5
35F
100
AcDbEntity
  8
3
370
    50
100
AcDbLine
 10
167.358664
 20
-104.235201
 30
0.0
 11
167.358664
 21
-112.235201
 31
0.0
  0
LINE
  5
360
100
AcDbEntity
  8
3
370
    50
100
AcDbLine
 10
193.358664
 20
-104.235201
 30
0.0
 11
193.358664
 21
-112.235201
 31
0.0
  0
LINE
  5
361
100
AcDbEntity
  8
3
370
    50
100
AcDbLine
 10
169.358664
 20
-102.235201
 30
0.0
 11
191.358664
 21
-102.235201
 31
0.0
  0
LINE
  5
362
100
AcDbEntity
  8
3
370
    50
100
AcDbLine
 10
169.358664
 20
-114.235201
 30
0.0
 11
191.358664
 21
-114.235201
 31
0.0
  0
ARC
  5
363
100
AcDbEntity
  8
3
370
    50
100
AcDbCircle
 10
191.358664
 20
-104.235201
 30
0.0
 40
2.0
100
AcDbArc
 50
0.0
 51
90.0
  0
ARC
  5
364
100
AcDbEntity
  8
3
370
    50
100
AcDbCircle
 10
191.358664
 20
-112.235201
 30
0.0
 40
2.0
100
AcDbArc
 50
270.0
 51
360.0
  0
ARC
  5
365
100
AcDbEntity
  8
3
370
    50
100
AcDbCircle
 10
169.358664
 20
-112.235201
 30
0.0
 40
2.0
100
AcDbArc
 50
180.0
 51
270.0
  0
ARC
  5
366
100
AcDbEntity
  8
3
370
    50
100
AcDbCircle
 10
169.358664
 20
-104.235201
 30
0.0
 40
2.0
100
AcDbArc
 50
90.0
 51
180.0
  0
LWPOLYLINE
  5
367
100
AcDbEntity
  8
3
370
    25
100
AcDbPolyline
 90
        2
 70
     0
 10
141.098944
 20
-117.479736
 10
167.563553
 20
-107.637581
  0
TEXT
  5
36B
100
AcDbEntity
  8
3
370
    50
100
AcDbText
 10
168.048004
 20
-107.305007
 30
0.0
 40
4.0
  1
５０２２１５
 72
     5
 11
191.248004
 21
-107.305007
 31
0.0
100
AcDbText
  0
TEXT
  5
36C
100
AcDbEntity
  8
3
370
    50
100
AcDbText
 10
358.222772
 20
-240.171024
 30
0.0
 40
7.0
  1
水谷　水谷
 72
     5
 11
391.822772
 21
-240.171024
 31
0.0
100
AcDbText
  0
TEXT
  5
36D
100
AcDbEntity
  8
3
370
    50
100
AcDbText
 10
168.104706
 20
-112.061717
 30
0.0
 40
4.0
  1
１２Ａ２６３
 72
     5
 11
191.304706
 21
-112.061717
 31
0.0
100
AcDbText
  0
ENDSEC
  0
SECTION
  2
OBJECTS
  0
DICTIONARY
  5
3D1
100
AcDbDictionary
280
     0
281
     1
  3
ACAD_GROUP
350
3D2
  3
ACAD_MLINESTYLE
350
3D3
  0
DICTIONARY
  5
3D2
102
{ACAD_REACTORS
330
3D1
102
}
100
AcDbDictionary
280
     0
281
     1
  0
DICTIONARY
  5
3D3
102
{ACAD_REACTORS
330
3D1
102
}
100
AcDbDictionary
280
     0
281
     1
  3
Standard
350
3D4
  0
MLINESTYLE
  5
3D4
102
{ACAD_REACTORS
330
3D3
102
}
100
AcDbMlineStyle
  2
Standard
 70
     0
  3

 62
     0
 51
90.0
 52
90.0
 71
     2
 49
0.5
 62
   256
  6
ByLayer
 49
-0.5
 62
   256
  6
ByLayer
  0
ENDSEC
  0
EOF
