  0
SECTION
  2
HEADER
  9
$ACADVER
  1
AC1015
  9
$ACADMAINTVER
 70
     6
  9
$DWGCODEPAGE
  3
ANSI_932
  9
$INSBASE
 10
0.0
 20
0.0
 30
0.0
  9
$EXTMIN
 10
-420.0
 20
-297.0
 30
1.000000E+20
  9
$EXTMAX
 10
420.0
 20
297.0
 30
-1.000000E+20
  9
$LIMMIN
 10
-420.0
 20
-297.0
  9
$LIMMAX
 10
420.0
 20
297.0
  9
$ORTHOMODE
 70
     0
  9
$REGENMODE
 70
     1
  9
$FILLMODE
 70
     1
  9
$QTEXTMODE
 70
     0
  9
$MIRRTEXT
 70
     1
  9
$LTSCALE
 40
1.0
  9
$ATTMODE
 70
     1
  9
$TEXTSIZE
 40
0.2
  9
$TRACEWID
 40
0.05
  9
$TEXTSTYLE
  7
STANDARD
  9
$CLAYER
  8
0
  9
$CELTYPE
  6
CONTINUOUS
  9
$CECOLOR
 62
   256
  9
$CELTSCALE
 40
1.0
  9
$DISPSILH
 70
     0
  9
$DIMSCALE
 40
2.0
  9
$DIMASZ
 40
2.0
  9
$DIMEXO
 40
1.0
  9
$DIMDLI
 40
0.38
  9
$DIMRND
 40
0.0
  9
$DIMDLE
 40
0.0
  9
$DIMEXE
 40
2.0
  9
$DIMTP
 40
0.0
  9
$DIMTM
 40
0.0
  9
$DIMTXT
 40
3.5
  9
$DIMCEN
 40
0.09
  9
$DIMTSZ
 40
0.0
  9
$DIMTOL
 70
     0
  9
$DIMLIM
 70
     0
  9
$DIMTIH
 70
     0
  9
$DIMTOH
 70
     0
  9
$DIMSE1
 70
     0
  9
$DIMSE2
 70
     0
  9
$DIMTAD
 70
     1
  9
$DIMZIN
 70
     0
  9
$DIMBLK
  1

  9
$DIMASO
 70
     1
  9
$DIMSHO
 70
     1
  9
$DIMPOST
  1

  9
$DIMAPOST
  1

  9
$DIMALT
 70
     0
  9
$DIMALTD
 70
     2
  9
$DIMALTF
 40
25.4
  9
$DIMLFAC
 40
1.0
  9
$DIMTOFL
 70
     0
  9
$DIMTVP
 40
0.0
  9
$DIMTIX
 70
     0
  9
$DIMSOXD
 70
     0
  9
$DIMSAH
 70
     0
  9
$DIMBLK1
  1

  9
$DIMBLK2
  1

  9
$DIMSTYLE
  2
Standard
  9
$DIMCLRD
 70
     0
  9
$DIMCLRE
 70
     0
  9
$DIMCLRT
 70
     0
  9
$DIMTFAC
 40
1.0
  9
$DIMGAP
 40
0.5
  9
$DIMJUST
 70
     0
  9
$DIMSD1
 70
     0
  9
$DIMSD2
 70
     0
  9
$DIMTOLJ
 70
     1
  9
$DIMTZIN
 70
     0
  9
$DIMALTZ
 70
     0
  9
$DIMALTTZ
 70
     0
  9
$DIMUPT
 70
     0
  9
$DIMDEC
 70
     3
  9
$DIMTDEC
 70
     4
  9
$DIMALTU
 70
     2
  9
$DIMALTTD
 70
     2
  9
$DIMTXSTY
  7
STANDARD
  9
$DIMAUNIT
 70
     0
  9
$DIMADEC
 70
     0
  9
$DIMALTRND
 40
0.0
  9
$DIMAZIN
 70
     0
  9
$DIMDSEP
 70
     0
  9
$DIMATFIT
 70
     3
  9
$DIMFRAC
 70
     0
  9
$DIMLDRBLK
  1

  9
$DIMLUNIT
 70
     2
  9
$DIMLWD
 70
     0
  9
$DIMLWE
 70
     0
  9
$DIMTMOVE
 70
     0
  9
$LUNITS
 70
     2
  9
$LUPREC
 70
     4
  9
$SKETCHINC
 40
0.1
  9
$FILLETRAD
 40
0.0
  9
$AUNITS
 70
     0
  9
$AUPREC
 70
     0
  9
$MENU
  1
acad
  9
$ELEVATION
 40
0.0
  9
$PELEVATION
 40
0.0
  9
$THICKNESS
 40
0.0
  9
$LIMCHECK
 70
     0
  9
$CHAMFERA
 40
0.0
  9
$CHAMFERB
 40
0.0
  9
$CHAMFERC
 40
0.0
  9
$CHAMFERD
 40
0.0
  9
$SKPOLY
 70
     0
  9
$TDCREATE
 40
2454289.000000000
  9
$TDUCREATE
 40
0.000000000
  9
$TDUPDATE
 40
0.000000000
  9
$TDUUPDATE
 40
2447892.625000000
  9
$TDINDWG
 40
0.0000000000
  9
$TDUSRTIMER
 40
0.0000000000
  9
$USRTIMER
 70
     1
  9
$ANGBASE
 50
0.0
  9
$ANGDIR
 70
     0
  9
$PDMODE
 70
     0
  9
$PDSIZE
 40
0.0
  9
$PLINEWID
 40
0.0
  9
$SPLFRAME
 70
     0
  9
$SPLINETYPE
 70
     6
  9
$SPLINESEGS
 70
     8
  9
$HANDSEED
  5
3B0
  9
$SURFTAB1
 70
     6
  9
$SURFTAB2
 70
     6
  9
$SURFTYPE
 70
     6
  9
$SURFU
 70
     6
  9
$SURFV
 70
     6
  9
$UCSBASE
  2

  9
$UCSNAME
  2

  9
$UCSORG
 10
0.0
 20
0.0
 30
0.0
  9
$UCSXDIR
 10
1.0
 20
0.0
 30
0.0
  9
$UCSYDIR
 10
0.0
 20
1.0
 30
0.0
  9
$UCSORTHOREF
  2

  9
$UCSORTHOVIEW
 70
     0
  9
$UCSORGTOP
 10
0.0
 20
0.0
 30
0.0
  9
$UCSORGBOTTOM
 10
0.0
 20
0.0
 30
0.0
  9
$UCSORGLEFT
 10
0.0
 20
0.0
 30
0.0
  9
$UCSORGRIGHT
 10
0.0
 20
0.0
 30
0.0
  9
$UCSORGFRONT
 10
0.0
 20
0.0
 30
0.0
  9
$UCSORGBACK
 10
0.0
 20
0.0
 30
0.0
  9
$PUCSBASE
  2

  9
$PUCSNAME
  2

  9
$PUCSORG
 10
0.0
 20
0.0
 30
0.0
  9
$PUCSXDIR
 10
1.0
 20
0.0
 30
0.0
  9
$PUCSYDIR
 10
0.0
 20
1.0
 30
0.0
  9
$PUCSORTHOREF
  2

  9
$PUCSORTHOVIEW
 70
     0
  9
$PUCSORGTOP
 10
0.0
 20
0.0
 30
0.0
  9
$PUCSORGBOTTOM
 10
0.0
 20
0.0
 30
0.0
  9
$PUCSORGLEFT
 10
0.0
 20
0.0
 30
0.0
  9
$PUCSORGRIGHT
 10
0.0
 20
0.0
 30
0.0
  9
$PUCSORGFRONT
 10
0.0
 20
0.0
 30
0.0
  9
$PUCSORGBACK
 10
0.0
 20
0.0
 30
0.0
  9
$USERI1
 70
     0
  9
$USERI2
 70
     0
  9
$USERI3
 70
     0
  9
$USERI4
 70
     0
  9
$USERI5
 70
     0
  9
$USERR1
 40
0.0
  9
$USERR2
 40
0.0
  9
$USERR3
 40
0.0
  9
$USERR4
 40
0.0
  9
$USERR5
 40
0.0
  9
$WORLDVIEW
 70
     1
  9
$SHADEDGE
 70
     3
  9
$SHADEDIF
 70
    70
  9
$TILEMODE
 70
     1
  9
$MAXACTVP
 70
    16
  9
$PINSBASE
 10
0.0
 20
0.0
 30
0.0
  9
$PLIMCHECK
 70
     0
  9
$PEXTMIN
 10
1.000000E+20
 20
1.000000E+20
 30
1.000000E+20
  9
$PEXTMAX
 10
-1.000000E+20
 20
-1.000000E+20
 30
-1.000000E+20
  9
$PLIMMIN
 10
0.0
 20
0.0
  9
$PLIMMAX
 10
12.0
 20
9.0
  9
$UNITMODE
 70
     0
  9
$VISRETAIN
 70
     0
  9
$PLINEGEN
 70
     1
  9
$PSLTSCALE
 70
     0
  9
$TREEDEPTH
 70
  3020
  9
$CMLSTYLE
  2
Standard
  9
$CMLJUST
 70
     0
  9
$CMLSCALE
 40
1.0
  9
$PROXYGRAPHICS
 70
     0
  9
$MEASUREMENT
 70
     0
  9
$CELWEIGHT
370
     0
  9
$ENDCAPS
280
     0
  9
$JOINSTYLE
280
     0
  9
$LWDISPLAY
290
     0
  9
$INSUNITS
 70
     0
  9
$HYPERLINKBASE
  1

  9
$STYLESHEET
  1

  9
$XEDIT
290
     1
  9
$CEPSNTYPE
380
     0
  9
$PSTYLEMODE
290
     1
  9
$FINGERPRINTGUID
  2

  9
$VERSIONGUID
  2

  9
$EXTNAMES
290
     1
  9
$PSVPSCALE
 40
0.0
  0
ENDSEC
  0
SECTION
  2
CLASSES
  0
CLASS
  1
LWPOLYLINE
  2
AcDbPolyline
  3
AutoCAD 2000
 90
        0
280
     0
281
     1
  0
CLASS
  1
IMAGE
  2
AcDbRasterImage
  3
ISM
 90
      127
280
     0
281
     1
  0
CLASS
  1
OLE2FRAME
  2
AcDbOle2Frame
  3
AutoCAD 2000
 90
        0
280
     0
281
     1
  0
CLASS
  1
HATCH
  2
AcDbHatch
  3
AutoCAD 2000
 90
        0
280
     0
281
     1
  0
CLASS
  1
DICTIONARYVAR
  2
AcDbDictionaryVar
  3
AutoCAD 2000
 90
        0
280
     0
281
     0
  0
CLASS
  1
RASTERVARIABLES
  2
AcDbRasterVariables
  3
ISM
 90
        0
280
     0
281
     0
  0
CLASS
  1
IMAGEDEF
  2
AcDbRasterImageDef
  3
ISM
 90
        0
280
     0
281
     0
  0
CLASS
  1
IMAGEDEF_REACTOR
  2
AcDbRasterImageDefReactor
  3
ISM
 90
        1
280
     0
281
     0
  0
CLASS
  1
IDBUFFER
  2
AcDbIdBuffer
  3
AutoCAD 2000
 90
        0
280
     0
281
     0
  0
CLASS
  1
SPATIAL_FILTER
  2
AcDbSpatialFilter
  3
AutoCAD 2000
 90
        0
280
     0
281
     0
  0
CLASS
  1
XRECORD
  2
AcDbXrecord
  3
AutoCAD 2000
 90
        0
280
     0
281
     0
  0
CLASS
  1
SORTENTSTABLE
  2
AcDbSortentsTable
  3
AutoCAD 2000
 90
        0
280
     0
281
     0
  0
CLASS
  1
LAYER_INDEX
  2
AcDbLayerIndex
  3
AutoCAD 2000
 90
        0
280
     0
281
     0
  0
CLASS
  1
SPATIAL_INDEX
  2
AcDbSpatialIndex
  3
AutoCAD 2000
 90
        0
280
     0
281
     0
  0
CLASS
  1
OBJECT_PTR
  2
CAseDLPNTableRecord
  3
"ASE-LPNTableRecord"
 90
        1
280
     0
281
     0
  0
CLASS
  1
LAYOUT
  2
AcDbLayout
  3
AutoCAD 2000
 90
        0
280
     0
281
     0
  0
CLASS
  1
PLOTSETTINGS
  2
AcDbPlotSettings
  3
AutoCAD 2000
 90
        0
280
     0
281
     0
  0
CLASS
  1
ACDBDICTIONARYWDFLT
  2
AcDbDictionaryWithDefault
  3
AutoCAD 2000
 90
        0
280
     0
281
     0
  0
CLASS
  1
ACDBPLACEHOLDER
  2
AcDbPlaceHolder
  3
AutoCAD 2000
 90
        0
280
     0
281
     0
  0
CLASS
  1
VBA_PROJECT
  2
AcDbVbaProject
  3
acadvba
 90
        0
280
     0
281
     0
  0
CLASS
  1
WIPEOUT
  2
AcDbWipeout
  3
WipeOut|AutoCAD Express Tool|expresstools@autodesk.com
 90
      127
280
     0
281
     1
  0
CLASS
  1
WIPEOUTVARIABLES
  2
AcDbWipeoutVariables
  3
WipeOut|AutoCAD Express Tool|expresstools@autodesk.com
 90
        0
280
     0
281
     0
  0
CLASS
  1
RTEXT
  2
RText
  3
RText|AutoCAD Express Tool|expresstools@autodesk.com
 90
        0
280
     0
281
     1
  0
CLASS
  1
ARCALIGNEDTEXT
  2
AcDbArcAlignedText
  3
ATEXT|AutoCAD Express Tool|expresstools@autodesk.com
 90
        0
280
     0
281
     1
  0
ENDSEC
  0
SECTION
  2
TABLES
  0
TABLE
  2
VPORT
  5
6
100
AcDbSymbolTable
 70
     1
  0
VPORT
  5
19
100
AcDbSymbolTableRecord
100
AcDbViewportTableRecord
  2
*ACTIVE
 70
     0
 10
0.0
 20
0.0
 11
1.0
 21
1.0
 12
0.0
 22
0.0
 13
0.0
 23
0.0
 14
1.0
 24
1.0
 15
0.0
 25
0.0
 16
0.0
 26
0.0
 36
1.0
 17
0.0
 27
0.0
 37
0.0
 40
594.0
 41
1.414141
 42
50.0
 43
0.0
 44
0.0
 50
0.0
 51
0.0
 71
     0
 72
   500
 73
     1
 74
     1
 75
     0
 76
     0
 77
     0
 78
     0
281
     0
 65
     0
110
0.0
120
0.0
130
0.0
111
1.0
121
0.0
131
0.0
112
0.0
122
1.0
132
0.0
345
0
346
0
 79
     0
146
0.0
  0
ENDTAB
  0
TABLE
  2
LTYPE
  5
3
100
AcDbSymbolTable
 70
     9
  0
LTYPE
  5
C
100
AcDbSymbolTableRecord
100
AcDbLinetypeTableRecord
  2
ByBlock
 70
    64
  3

 72
    65
 73
     0
 40
0.0
  0
LTYPE
  5
D
100
AcDbSymbolTableRecord
100
AcDbLinetypeTableRecord
  2
ByLayer
 70
    64
  3

 72
    65
 73
     0
 40
0.0
  0
LTYPE
  5
E
100
AcDbSymbolTableRecord
100
AcDbLinetypeTableRecord
  2
CONTINUOUS
 70
     0
  3
Solid line
 72
    65
 73
     0
 40
0.0
  0
LTYPE
  5
F
100
AcDbSymbolTableRecord
100
AcDbLinetypeTableRecord
  2
DASHED
 70
     0
  3
__ __ __ __ __ __ __ __ __ __ __ __ __ __ __
 72
    65
 73
     2
 40
2.0
 49
1.2
 74
     0
 49
-0.8
 74
     0
  0
LTYPE
  5
10
100
AcDbSymbolTableRecord
100
AcDbLinetypeTableRecord
  2
CENTER
 70
     0
  3
____ _ ____ _ ____ _ ____ _ ____ _ ____ _ ____
 72
    65
 73
     4
 40
12.0
 49
9.0
 74
     0
 49
-1.0
 74
     0
 49
1.0
 74
     0
 49
-1.0
 74
     0
  0
LTYPE
  5
11
100
AcDbSymbolTableRecord
100
AcDbLinetypeTableRecord
  2
HIDDEN
 70
     0
  3
_ _ _ _ _ _ _ _ _ _ _ _ _ _ _ _ _ _ _ _ _ _ _
 72
    65
 73
     2
 40
3.2
 49
2.4
 74
     0
 49
-0.8
 74
     0
  0
LTYPE
  5
12
100
AcDbSymbolTableRecord
100
AcDbLinetypeTableRecord
  2
PHANTOM
 70
     0
  3
_____ _ _ _____ _ _ _____ _ _ _____ _ _ _____
 72
    65
 73
     6
 40
13.5
 49
9.0
 74
     0
 49
-1.0
 74
     0
 49
1.0
 74
     0
 49
-0.5
 74
     0
 49
1.0
 74
     0
 49
-1.0
 74
     0
  0
LTYPE
  5
13
100
AcDbSymbolTableRecord
100
AcDbLinetypeTableRecord
  2
DOT
 70
     0
  3
...............................................
 72
    65
 73
     2
 40
1.0
 49
0.5
 74
     0
 49
-0.5
 74
     0
  0
LTYPE
  5
14
100
AcDbSymbolTableRecord
100
AcDbLinetypeTableRecord
  2
DASHDOT
 70
     0
  3
__ . __ . __ . __ . __ . __ . __ . __ . __ . __
 72
    65
 73
     4
 40
8.0
 49
5.0
 74
     0
 49
-1.0
 74
     0
 49
1.0
 74
     0
 49
-1.0
 74
     0
  0
ENDTAB
  0
TABLE
  2
LAYER
  5
1
100
AcDbSymbolTable
 70
     4
  0
LAYER
  5
15
100
AcDbSymbolTableRecord
100
AcDbLayerTableRecord
  2
0
 70
     0
 62
     7
  6
CONTINUOUS
290
     1
370
    -3
390
0
  0
LAYER
  5
16
100
AcDbSymbolTableRecord
100
AcDbLayerTableRecord
  2
1
 70
     0
 62
     7
  6
CONTINUOUS
290
     1
370
    -3
390
0
  0
LAYER
  5
17
100
AcDbSymbolTableRecord
100
AcDbLayerTableRecord
  2
2
 70
     0
 62
     7
  6
CONTINUOUS
290
     1
370
    -3
390
0
  0
LAYER
  5
18
100
AcDbSymbolTableRecord
100
AcDbLayerTableRecord
  2
3
 70
     0
 62
     7
  6
CONTINUOUS
290
     1
370
    -3
390
0
  0
ENDTAB
  0
TABLE
  2
STYLE
  5
2
100
AcDbSymbolTable
 70
     1
  0
STYLE
  5
1B
100
AcDbSymbolTableRecord
100
AcDbTextStyleTableRecord
  2
STANDARD
 70
    64
 40
0.0
 41
1.0
 50
0.0
 71
     0
 42
1.0
  3
txt
  4
BIGFONT
  0
ENDTAB
  0
TABLE
  2
VIEW
  5
4
100
AcDbSymbolTable
 70
     0
  0
ENDTAB
  0
TABLE
  2
UCS
  5
5
100
AcDbSymbolTable
 70
     0
  0
ENDTAB
  0
TABLE
  2
APPID
  5
7
100
AcDbSymbolTable
 70
     1
  0
APPID
  5
1A
100
AcDbSymbolTableRecord
100
AcDbRegAppTableRecord
  2
ACAD
 70
     0
  0
ENDTAB
  0
TABLE
  2
DIMSTYLE
  5
8
100
AcDbSymbolTable
 70
     1
100
AcDbDimStyleTable
 71
     0
  0
DIMSTYLE
105
2B
100
AcDbSymbolTableRecord
100
AcDbDimStyleTableRecord
  2
Standard
 70
     0
  3

  4

 40
2.0
 41
2.0
 42
1.0
 43
0.38
 44
2.0
 45
0.0
 46
0.0
 47
0.0
 48
0.0
 71
     0
 72
     0
 73
     0
 74
     0
 75
     0
 76
     0
 77
     1
 78
     0
 79
     0
140
3.5
141
0.09
142
0.0
143
25.4
144
1.0
145
0.0
146
1.0
147
0.5
148
0.0
170
     0
171
     2
172
     0
173
     0
174
     0
175
     0
176
     0
177
     0
178
     0
179
     0
271
     3
272
     4
273
     2
274
     2
275
     0
276
     0
277
     2
278
    46
279
     0
280
     0
281
     0
282
     0
283
     1
284
     0
285
     0
286
     0
288
     0
289
     3
340
1B
341
0
342
0
343
0
344
0
371
    -2
372
    -2
  0
ENDTAB
  0
TABLE
  2
BLOCK_RECORD
  5
26
100
AcDbSymbolTable
 70
     8
  0
BLOCK_RECORD
  5
24
100
AcDbSymbolTableRecord
100
AcDbBlockTableRecord
  2
*Model_Space
340
0
  0
BLOCK_RECORD
  5
25
100
AcDbSymbolTableRecord
100
AcDbBlockTableRecord
  2
*Paper_Space
340
0
  0
BLOCK_RECORD
  5
1C
100
AcDbSymbolTableRecord
100
AcDbBlockTableRecord
  2
*D0
340
0
  0
BLOCK_RECORD
  5
1D
100
AcDbSymbolTableRecord
100
AcDbBlockTableRecord
  2
*D1
340
0
  0
BLOCK_RECORD
  5
1E
100
AcDbSymbolTableRecord
100
AcDbBlockTableRecord
  2
*D2
340
0
  0
BLOCK_RECORD
  5
1F
100
AcDbSymbolTableRecord
100
AcDbBlockTableRecord
  2
*D3
340
0
  0
BLOCK_RECORD
  5
20
100
AcDbSymbolTableRecord
100
AcDbBlockTableRecord
  2
*D4
340
0
  0
BLOCK_RECORD
  5
21
100
AcDbSymbolTableRecord
100
AcDbBlockTableRecord
  2
*D5
340
0
  0
BLOCK_RECORD
  5
22
100
AcDbSymbolTableRecord
100
AcDbBlockTableRecord
  2
*D6
340
0
  0
BLOCK_RECORD
  5
23
100
AcDbSymbolTableRecord
100
AcDbBlockTableRecord
  2
*D7
340
0
  0
ENDTAB
  0
ENDSEC
  0
SECTION
  2
BLOCKS
  0
BLOCK
  5
27
100
AcDbEntity
  8
0
390
0
100
AcDbBlockBegin
  2
*Model_Space
 70
     0
 10
0.0
 20
0.0
 30
0.0
  3
*Model_Space
  1

  0
ENDBLK
  5
28
100
AcDbEntity
  8
0
390
0
100
AcDbBlockEnd
  0
BLOCK
  5
29
100
AcDbEntity
 67
     1
  8
0
390
0
100
AcDbBlockBegin
  2
*Paper_Space
 70
     0
 10
0.0
 20
0.0
 30
0.0
  3
*Paper_Space
  1

  0
ENDBLK
  5
2A
100
AcDbEntity
 67
     1
  8
0
390
0
100
AcDbBlockEnd
  0
BLOCK
  5
351
100
AcDbEntity
  8
3
100
AcDbBlockBegin
  2
*D0
 70
     1
 10
0.0
 20
0.0
 30
0.0
  3
*D0
  1

  0
TEXT
  5
352
100
AcDbEntity
  8
3
370
    25
100
AcDbText
 10
-74.021744
 20
25.984644
 30
0.0
 40
7.0
  1
１３１
 50
90.0
 72
     5
 11
-74.021744
 21
45.584644
 31
0.0
100
AcDbText
  0
LINE
  5
353
100
AcDbEntity
  8
3
370
    25
100
AcDbLine
 10
-102.868556
 20
-29.065356
 30
0.0
 11
-71.021744
 21
-29.065356
 31
0.0
  0
LINE
  5
354
100
AcDbEntity
  8
3
370
    25
100
AcDbLine
 10
-73.021744
 20
-29.065356
 30
0.0
 11
-71.986468
 21
-25.201653
 31
0.0
  0
LINE
  5
355
100
AcDbEntity
  8
3
370
    25
100
AcDbLine
 10
-73.021744
 20
-29.065356
 30
0.0
 11
-74.05702
 21
-25.201653
 31
0.0
  0
LINE
  5
356
100
AcDbEntity
  8
3
370
    25
100
AcDbLine
 10
-71.986468
 20
-25.201653
 30
0.0
 11
-74.05702
 21
-25.201653
 31
0.0
  0
LINE
  5
357
100
AcDbEntity
  8
3
370
    25
100
AcDbLine
 10
-73.021744
 20
-29.065356
 30
0.0
 11
-73.021744
 21
102.034644
 31
0.0
  0
LINE
  5
358
100
AcDbEntity
  8
3
370
    25
100
AcDbLine
 10
-73.021744
 20
102.034644
 30
0.0
 11
-74.05702
 21
98.170941
 31
0.0
  0
LINE
  5
359
100
AcDbEntity
  8
3
370
    25
100
AcDbLine
 10
-73.021744
 20
102.034644
 30
0.0
 11
-71.986468
 21
98.170941
 31
0.0
  0
LINE
  5
35A
100
AcDbEntity
  8
3
370
    25
100
AcDbLine
 10
-74.05702
 20
98.170941
 30
0.0
 11
-71.986468
 21
98.170941
 31
0.0
  0
LINE
  5
35B
100
AcDbEntity
  8
3
370
    25
100
AcDbLine
 10
-107.468556
 20
102.034644
 30
0.0
 11
-71.021744
 21
102.034644
 31
0.0
  0
ENDBLK
  5
35C
100
AcDbEntity
  8
3
100
AcDbBlockEnd
  0
BLOCK
  5
35D
100
AcDbEntity
  8
3
100
AcDbBlockBegin
  2
*D1
 70
     1
 10
0.0
 20
0.0
 30
0.0
  3
*D1
  1

  0
LINE
  5
35E
100
AcDbEntity
  8
3
370
    25
100
AcDbLine
 10
-106.368556
 20
-44.065356
 30
0.0
 11
-42.974586
 21
-44.065356
 31
0.0
  0
LINE
  5
35F
100
AcDbEntity
  8
3
370
    25
100
AcDbLine
 10
-44.974586
 20
-44.065356
 30
0.0
 11
-46.009863
 21
-47.929059
 31
0.0
  0
LINE
  5
360
100
AcDbEntity
  8
3
370
    25
100
AcDbLine
 10
-44.974586
 20
-44.065356
 30
0.0
 11
-43.93931
 21
-47.929059
 31
0.0
  0
LINE
  5
361
100
AcDbEntity
  8
3
370
    25
100
AcDbLine
 10
-46.009863
 20
-47.929059
 30
0.0
 11
-43.93931
 21
-47.929059
 31
0.0
  0
LINE
  5
362
100
AcDbEntity
  8
3
370
    25
100
AcDbLine
 10
-44.974586
 20
-54.065356
 30
0.0
 11
-44.974586
 21
53.934644
 31
0.0
  0
LINE
  5
363
100
AcDbEntity
  8
3
370
    25
100
AcDbLine
 10
-44.974586
 20
-31.065356
 30
0.0
 11
-43.93931
 21
-27.201653
 31
0.0
  0
LINE
  5
364
100
AcDbEntity
  8
3
370
    25
100
AcDbLine
 10
-44.974586
 20
-31.065356
 30
0.0
 11
-46.009863
 21
-27.201653
 31
0.0
  0
LINE
  5
365
100
AcDbEntity
  8
3
370
    25
100
AcDbLine
 10
-43.93931
 20
-27.201653
 30
0.0
 11
-46.009863
 21
-27.201653
 31
0.0
  0
LINE
  5
366
100
AcDbEntity
  8
3
370
    25
100
AcDbLine
 10
-104.368556
 20
-31.065356
 30
0.0
 11
-42.974586
 21
-31.065356
 31
0.0
  0
ENDBLK
  5
367
100
AcDbEntity
  8
3
100
AcDbBlockEnd
  0
BLOCK
  5
368
100
AcDbEntity
  8
3
100
AcDbBlockBegin
  2
*D2
 70
     1
 10
0.0
 20
0.0
 30
0.0
  3
*D2
  1

  0
TEXT
  5
369
100
AcDbEntity
  8
3
370
    25
100
AcDbText
 10
-191.354787
 20
-69.573978
 30
0.0
 40
7.0
  1
１１０
 72
     5
 11
-171.754787
 21
-69.573978
 31
0.0
100
AcDbText
  0
LINE
  5
36A
100
AcDbEntity
  8
3
370
    25
100
AcDbLine
 10
-235.841018
 20
8.89429
 30
0.0
 11
-235.841018
 21
-72.573978
 31
0.0
  0
LINE
  5
36B
100
AcDbEntity
  8
3
370
    25
100
AcDbLine
 10
-235.841018
 20
-70.573978
 30
0.0
 11
-231.977315
 21
-71.609255
 31
0.0
  0
LINE
  5
36C
100
AcDbEntity
  8
3
370
    25
100
AcDbLine
 10
-235.841018
 20
-70.573978
 30
0.0
 11
-231.977315
 21
-69.538702
 31
0.0
  0
LINE
  5
36D
100
AcDbEntity
  8
3
370
    25
100
AcDbLine
 10
-231.977315
 20
-71.609255
 30
0.0
 11
-231.977315
 21
-69.538702
 31
0.0
  0
LINE
  5
36E
100
AcDbEntity
  8
3
370
    25
100
AcDbLine
 10
-235.841018
 20
-70.573978
 30
0.0
 11
-125.868556
 21
-70.573978
 31
0.0
  0
LINE
  5
36F
100
AcDbEntity
  8
3
370
    25
100
AcDbLine
 10
-125.868556
 20
-70.573978
 30
0.0
 11
-129.732259
 21
-69.538702
 31
0.0
  0
LINE
  5
370
100
AcDbEntity
  8
3
370
    25
100
AcDbLine
 10
-125.868556
 20
-70.573978
 30
0.0
 11
-129.732259
 21
-71.609255
 31
0.0
  0
LINE
  5
371
100
AcDbEntity
  8
3
370
    25
100
AcDbLine
 10
-129.732259
 20
-69.538702
 30
0.0
 11
-129.732259
 21
-71.609255
 31
0.0
  0
ENDBLK
  5
372
100
AcDbEntity
  8
3
100
AcDbBlockEnd
  0
BLOCK
  5
373
100
AcDbEntity
  8
3
100
AcDbBlockBegin
  2
*D3
 70
     1
 10
0.0
 20
0.0
 30
0.0
  3
*D3
  1

  0
LINE
  5
374
100
AcDbEntity
  8
3
370
    25
100
AcDbLine
 10
-148.868556
 20
-29.065356
 30
0.0
 11
-268.811043
 21
-29.065356
 31
0.0
  0
LINE
  5
375
100
AcDbEntity
  8
3
370
    25
100
AcDbLine
 10
-266.811043
 20
-29.065356
 30
0.0
 11
-265.775767
 21
-25.201653
 31
0.0
  0
LINE
  5
376
100
AcDbEntity
  8
3
370
    25
100
AcDbLine
 10
-266.811043
 20
-29.065356
 30
0.0
 11
-267.846319
 21
-25.201653
 31
0.0
  0
LINE
  5
377
100
AcDbEntity
  8
3
370
    25
100
AcDbLine
 10
-265.775767
 20
-25.201653
 30
0.0
 11
-267.846319
 21
-25.201653
 31
0.0
  0
LINE
  5
378
100
AcDbEntity
  8
3
370
    25
100
AcDbLine
 10
-266.811043
 20
-29.065356
 30
0.0
 11
-266.811043
 21
10.89429
 31
0.0
  0
LINE
  5
379
100
AcDbEntity
  8
3
370
    25
100
AcDbLine
 10
-266.811043
 20
10.89429
 30
0.0
 11
-267.846319
 21
7.030587
 31
0.0
  0
LINE
  5
37A
100
AcDbEntity
  8
3
370
    25
100
AcDbLine
 10
-266.811043
 20
10.89429
 30
0.0
 11
-265.775767
 21
7.030587
 31
0.0
  0
LINE
  5
37B
100
AcDbEntity
  8
3
370
    25
100
AcDbLine
 10
-267.846319
 20
7.030587
 30
0.0
 11
-265.775767
 21
7.030587
 31
0.0
  0
LINE
  5
37C
100
AcDbEntity
  8
3
370
    25
100
AcDbLine
 10
-237.841018
 20
10.89429
 30
0.0
 11
-268.811043
 21
10.89429
 31
0.0
  0
ENDBLK
  5
37D
100
AcDbEntity
  8
3
100
AcDbBlockEnd
  0
BLOCK
  5
37E
100
AcDbEntity
  8
3
100
AcDbBlockBegin
  2
*D4
 70
     1
 10
0.0
 20
0.0
 30
0.0
  3
*D4
  1

  0
TEXT
  5
37F
100
AcDbEntity
  8
3
370
    25
100
AcDbText
 10
-255.999889
 20
-13.791805
 30
0.0
 40
7.0
  1
４０゜
 50
340.0
 72
     5
 11
-237.581913
 21
-20.4954
 31
0.0
100
AcDbText
  0
LINE
  5
380
100
AcDbEntity
  8
3
370
    25
100
AcDbLine
 10
-238.501097
 20
7.724132
 30
0.0
 11
-257.112198
 21
-14.455715
 31
0.0
  0
LINE
  5
381
100
AcDbEntity
  8
3
370
    25
100
AcDbLine
 10
-235.841018
 20
8.89429
 30
0.0
 11
-235.841018
 21
-22.197791
 31
0.0
  0
LINE
  5
382
100
AcDbEntity
  8
3
370
    25
100
AcDbLine
 10
-255.826623
 20
-12.923626
 30
0.0
 11
-253.333163
 21
-16.05135
 31
0.0
  0
LINE
  5
383
100
AcDbEntity
  8
3
370
    25
100
AcDbLine
 10
-255.826623
 20
-12.923626
 30
0.0
 11
-252.103361
 21
-14.385585
 31
0.0
  0
LINE
  5
384
100
AcDbEntity
  8
3
370
    25
100
AcDbLine
 10
-253.333163
 20
-16.05135
 30
0.0
 11
-252.103361
 21
-14.385585
 31
0.0
  0
LINE
  5
385
100
AcDbEntity
  8
3
370
    25
100
AcDbLine
 10
-235.841018
 20
-20.197791
 30
0.0
 11
-239.632931
 21
-18.92445
 31
0.0
  0
LINE
  5
386
100
AcDbEntity
  8
3
370
    25
100
AcDbLine
 10
-235.841018
 20
-20.197791
 30
0.0
 11
-239.761581
 21
-20.991002
 31
0.0
  0
LINE
  5
387
100
AcDbEntity
  8
3
370
    25
100
AcDbLine
 10
-239.632931
 20
-18.92445
 30
0.0
 11
-239.761581
 21
-20.991002
 31
0.0
  0
ARC
  5
388
100
AcDbEntity
  8
3
370
    25
100
AcDbCircle
 10
-235.841018
 20
10.89429
 30
0.0
 40
31.092081
100
AcDbArc
 50
230.0
 51
270.0
  0
ENDBLK
  5
389
100
AcDbEntity
  8
3
100
AcDbBlockEnd
  0
BLOCK
  5
38A
100
AcDbEntity
  8
3
100
AcDbBlockBegin
  2
*D5
 70
     1
 10
0.0
 20
0.0
 30
0.0
  3
*D5
  1

  0
TEXT
  5
38B
100
AcDbEntity
  8
3
370
    25
100
AcDbText
 10
-176.368556
 20
9.277107
 30
0.0
 40
7.0
  1
φ４３
 72
     5
 11
-156.768556
 21
9.277107
 31
0.0
100
AcDbText
  0
LINE
  5
38C
100
AcDbEntity
  8
3
370
    25
100
AcDbLine
 10
-104.368556
 20
-22.065356
 30
0.0
 11
-104.368556
 21
10.277107
 31
0.0
  0
LINE
  5
38D
100
AcDbEntity
  8
3
370
    25
100
AcDbLine
 10
-104.368556
 20
8.277107
 30
0.0
 11
-100.504852
 21
7.241831
 31
0.0
  0
LINE
  5
38E
100
AcDbEntity
  8
3
370
    25
100
AcDbLine
 10
-104.368556
 20
8.277107
 30
0.0
 11
-100.504852
 21
9.312383
 31
0.0
  0
LINE
  5
38F
100
AcDbEntity
  8
3
370
    25
100
AcDbLine
 10
-100.504852
 20
7.241831
 30
0.0
 11
-100.504852
 21
9.312383
 31
0.0
  0
LINE
  5
390
100
AcDbEntity
  8
3
370
    25
100
AcDbLine
 10
-94.368556
 20
8.277107
 30
0.0
 11
-176.368556
 21
8.277107
 31
0.0
  0
LINE
  5
391
100
AcDbEntity
  8
3
370
    25
100
AcDbLine
 10
-147.368556
 20
8.277107
 30
0.0
 11
-151.232259
 21
9.312383
 31
0.0
  0
LINE
  5
392
100
AcDbEntity
  8
3
370
    25
100
AcDbLine
 10
-147.368556
 20
8.277107
 30
0.0
 11
-151.232259
 21
7.241831
 31
0.0
  0
LINE
  5
393
100
AcDbEntity
  8
3
370
    25
100
AcDbLine
 10
-151.232259
 20
9.312383
 30
0.0
 11
-151.232259
 21
7.241831
 31
0.0
  0
LINE
  5
394
100
AcDbEntity
  8
3
370
    25
100
AcDbLine
 10
-147.368556
 20
-22.065356
 30
0.0
 11
-147.368556
 21
10.277107
 31
0.0
  0
ENDBLK
  5
395
100
AcDbEntity
  8
3
100
AcDbBlockEnd
  0
BLOCK
  5
396
100
AcDbEntity
  8
3
100
AcDbBlockBegin
  2
*D6
 70
     1
 10
0.0
 20
0.0
 30
0.0
  3
*D6
  1

  0
LINE
  5
397
100
AcDbEntity
  8
3
370
    25
100
AcDbLine
 10
-142.868556
 20
60.494926
 30
0.0
 11
-146.732259
 21
61.530203
 31
0.0
  0
LINE
  5
398
100
AcDbEntity
  8
3
370
    25
100
AcDbLine
 10
-142.868556
 20
60.494926
 30
0.0
 11
-146.732259
 21
59.45965
 31
0.0
  0
LINE
  5
399
100
AcDbEntity
  8
3
370
    25
100
AcDbLine
 10
-146.732259
 20
61.530203
 30
0.0
 11
-146.732259
 21
59.45965
 31
0.0
  0
LINE
  5
39A
100
AcDbEntity
  8
3
370
    25
100
AcDbLine
 10
-171.868556
 20
60.494926
 30
0.0
 11
-98.868556
 21
60.494926
 31
0.0
  0
LINE
  5
39B
100
AcDbEntity
  8
3
370
    25
100
AcDbLine
 10
-108.868556
 20
60.494926
 30
0.0
 11
-105.004852
 21
59.45965
 31
0.0
  0
LINE
  5
39C
100
AcDbEntity
  8
3
370
    25
100
AcDbLine
 10
-108.868556
 20
60.494926
 30
0.0
 11
-105.004852
 21
61.530203
 31
0.0
  0
LINE
  5
39D
100
AcDbEntity
  8
3
370
    25
100
AcDbLine
 10
-105.004852
 20
59.45965
 30
0.0
 11
-105.004852
 21
61.530203
 31
0.0
  0
ENDBLK
  5
39E
100
AcDbEntity
  8
3
100
AcDbBlockEnd
  0
BLOCK
  5
39F
100
AcDbEntity
  8
3
100
AcDbBlockBegin
  2
*D7
 70
     1
 10
0.0
 20
0.0
 30
0.0
  3
*D7
  1

  0
TEXT
  5
3A0
100
AcDbEntity
  8
3
370
    25
100
AcDbText
 10
-165.687527
 20
157.719507
 30
0.0
 40
7.0
  1
９０゜
 50
315.0
 72
     5
 11
-151.828234
 21
143.860214
 31
0.0
100
AcDbText
  0
LINE
  5
3A1
100
AcDbEntity
  8
3
370
    25
100
AcDbLine
 10
-170.900064
 20
182.689236
 30
0.0
 11
-170.681085
 21
182.689236
 31
0.0
  0
LINE
  5
3A2
100
AcDbEntity
  8
3
370
    25
100
AcDbLine
 10
-125.868556
 20
137.028869
 30
0.0
 11
-125.868556
 21
133.876706
 31
0.0
  0
LINE
  5
3A3
100
AcDbEntity
  8
3
370
    25
100
AcDbLine
 10
-172.681085
 20
182.689236
 30
0.0
 11
-173.556032
 21
178.7861
 31
0.0
  0
LINE
  5
3A4
100
AcDbEntity
  8
3
370
    25
100
AcDbLine
 10
-172.681085
 20
182.689236
 30
0.0
 11
-171.487244
 21
178.871547
 31
0.0
  0
LINE
  5
3A5
100
AcDbEntity
  8
3
370
    25
100
AcDbLine
 10
-173.556032
 20
178.7861
 30
0.0
 11
-171.487244
 21
178.871547
 31
0.0
  0
LINE
  5
3A6
100
AcDbEntity
  8
3
370
    25
100
AcDbLine
 10
-125.868556
 20
135.876706
 30
0.0
 11
-129.686244
 21
137.070547
 31
0.0
  0
LINE
  5
3A7
100
AcDbEntity
  8
3
370
    25
100
AcDbLine
 10
-125.868556
 20
135.876706
 30
0.0
 11
-129.771691
 21
135.001759
 31
0.0
  0
LINE
  5
3A8
100
AcDbEntity
  8
3
370
    25
100
AcDbLine
 10
-129.686244
 20
137.070547
 30
0.0
 11
-129.771691
 21
135.001759
 31
0.0
  0
ARC
  5
3A9
100
AcDbEntity
  8
3
370
    25
100
AcDbCircle
 10
-125.868556
 20
182.689236
 30
0.0
 40
46.812529
100
AcDbArc
 50
180.0
 51
270.0
  0
ENDBLK
  5
3AA
100
AcDbEntity
  8
3
100
AcDbBlockEnd
  0
ENDSEC
  0
SECTION
  2
ENTITIES
  0
LINE
  5
2C
100
AcDbEntity
  8
1
370
   100
100
AcDbLine
 10
-373.02157
 20
275.028767
 30
0.0
 11
394.982385
 21
275.028767
 31
0.0
  0
LINE
  5
2D
100
AcDbEntity
  8
1
370
   100
100
AcDbLine
 10
-373.02157
 20
275.028767
 30
0.0
 11
-373.02157
 21
-277.971881
 31
0.0
  0
LINE
  5
2E
100
AcDbEntity
  8
1
370
   100
100
AcDbLine
 10
-373.02157
 20
-277.971881
 30
0.0
 11
394.982385
 21
-277.971881
 31
0.0
  0
LINE
  5
2F
100
AcDbEntity
  8
1
370
   100
100
AcDbLine
 10
394.982385
 20
-277.971881
 30
0.0
 11
394.982385
 21
275.028767
 31
0.0
  0
TEXT
  5
30
100
AcDbEntity
  8
1
370
    50
100
AcDbText
 10
359.628442
 20
-226.252857
 30
0.0
 40
6.0
  1
設計
 72
     5
 11
370.428442
 21
-226.252857
 31
0.0
100
AcDbText
  0
TEXT
  5
31
100
AcDbEntity
  8
1
370
    50
100
AcDbText
 10
379.127478
 20
-226.099658
 30
0.0
 40
6.0
  1
製図
 72
     5
 11
389.927478
 21
-226.099658
 31
0.0
100
AcDbText
  0
TEXT
  5
32
100
AcDbEntity
  8
1
370
    50
100
AcDbText
 10
319.005745
 20
-226.252857
 30
0.0
 40
6.0
  1
承認
 72
     5
 11
329.805745
 21
-226.252857
 31
0.0
100
AcDbText
  0
TEXT
  5
33
100
AcDbEntity
  8
1
370
    50
100
AcDbText
 10
338.989679
 20
-226.19802
 30
0.0
 40
6.0
  1
検図
 72
     5
 11
349.789679
 21
-226.19802
 31
0.0
100
AcDbText
  0
LINE
  5
34
100
AcDbEntity
  8
1
370
    25
100
AcDbLine
 10
284.982385
 20
-227.971881
 30
0.0
 11
394.982385
 21
-227.971881
 31
0.0
  0
LINE
  5
35
100
AcDbEntity
  8
1
370
    25
100
AcDbLine
 10
342.482385
 20
-245.971881
 30
0.0
 11
342.482385
 21
-259.971881
 31
0.0
  0
TEXT
  5
36
100
AcDbEntity
  8
1
370
    50
100
AcDbText
 10
319.55159
 20
-256.012528
 30
0.0
 40
6.0
  1
日　付
 72
     5
 11
336.35159
 21
-256.012528
 31
0.0
100
AcDbText
  0
LINE
  5
37
100
AcDbEntity
  8
1
370
    50
100
AcDbLine
 10
40.982385
 20
-259.971881
 30
0.0
 11
394.982385
 21
-259.971881
 31
0.0
  0
TEXT
  5
38
100
AcDbEntity
  8
1
370
    50
100
AcDbText
 10
287.775011
 20
-256.322406
 30
0.0
 40
6.0
  1
第三角法
 72
     5
 11
310.575011
 21
-256.322406
 31
0.0
100
AcDbText
  0
TEXT
  5
39
100
AcDbEntity
  8
1
370
    50
100
AcDbText
 10
291.087419
 20
-225.99802
 30
0.0
 40
6.0
  1
尺　度
 72
     5
 11
307.887419
 21
-225.99802
 31
0.0
100
AcDbText
  0
LINE
  5
3A
100
AcDbEntity
  8
1
370
   100
100
AcDbLine
 10
40.982385
 20
-217.971881
 30
0.0
 11
394.982385
 21
-217.971881
 31
0.0
  0
LINE
  5
3B
100
AcDbEntity
  8
1
370
    50
100
AcDbLine
 10
211.982385
 20
-217.971881
 30
0.0
 11
211.982385
 21
-277.971881
 31
0.0
  0
LINE
  5
3C
100
AcDbEntity
  8
1
370
    25
100
AcDbLine
 10
374.982385
 20
-245.971881
 30
0.0
 11
374.982385
 21
-217.971881
 31
0.0
  0
LINE
  5
3D
100
AcDbEntity
  8
1
370
    25
100
AcDbLine
 10
354.982385
 20
-245.971881
 30
0.0
 11
354.982385
 21
-217.971881
 31
0.0
  0
LINE
  5
3E
100
AcDbEntity
  8
1
370
    25
100
AcDbLine
 10
334.982385
 20
-245.971881
 30
0.0
 11
334.982385
 21
-217.971881
 31
0.0
  0
LINE
  5
3F
100
AcDbEntity
  8
1
370
    50
100
AcDbLine
 10
284.982385
 20
-277.971881
 30
0.0
 11
284.982385
 21
-217.971881
 31
0.0
  0
LINE
  5
40
100
AcDbEntity
  8
1
370
    50
100
AcDbLine
 10
189.982385
 20
-217.971881
 30
0.0
 11
189.982385
 21
-277.971881
 31
0.0
  0
LINE
  5
41
100
AcDbEntity
  8
1
370
    50
100
AcDbLine
 10
62.982385
 20
-217.971881
 30
0.0
 11
62.982385
 21
-259.971881
 31
0.0
  0
LINE
  5
42
100
AcDbEntity
  8
1
370
    50
100
AcDbLine
 10
284.982385
 20
-245.971881
 30
0.0
 11
394.982385
 21
-245.971881
 31
0.0
  0
TEXT
  5
43
100
AcDbEntity
  8
1
370
    50
100
AcDbText
 10
287.101129
 20
-271.880939
 30
0.0
 40
6.0
  1
コードＮｏ
 41
0.9
 72
     5
 11
313.021129
 21
-271.880939
 31
0.0
100
AcDbText
  0
TEXT
  5
44
100
AcDbEntity
  8
1
370
   100
100
AcDbText
 10
52.886774
 20
-272.875659
 30
0.0
 40
8.0
  1
ミズタニバルブ工業株式会社
 41
1.2
 72
     5
 11
175.766774
 21
-272.875659
 31
0.0
100
AcDbText
  0
LINE
  5
45
100
AcDbEntity
  8
1
370
    50
100
AcDbLine
 10
40.982385
 20
-238.971881
 30
0.0
 11
284.982385
 21
-238.971881
 31
0.0
  0
LINE
  5
46
100
AcDbEntity
  8
1
370
    50
100
AcDbLine
 10
115.482385
 20
-238.971881
 30
0.0
 11
115.482385
 21
-259.971881
 31
0.0
  0
LINE
  5
47
100
AcDbEntity
  8
1
370
    50
100
AcDbLine
 10
137.482385
 20
-238.971881
 30
0.0
 11
137.482385
 21
-259.971881
 31
0.0
  0
LINE
  5
48
100
AcDbEntity
  8
1
370
    50
100
AcDbLine
 10
314.982385
 20
-277.971881
 30
0.0
 11
314.982385
 21
-217.971881
 31
0.0
  0
TEXT
  5
49
100
AcDbEntity
  8
1
370
    50
100
AcDbText
 10
345.098131
 20
-256.100293
 30
0.0
 40
6.0
  1
　　・　　・
 72
     5
 11
379.898131
 21
-256.100293
 31
0.0
100
AcDbText
  0
LINE
  5
4A
100
AcDbEntity
  8
1
370
   100
100
AcDbLine
 10
161.482385
 20
218.028767
 30
0.0
 11
394.982385
 21
218.028767
 31
0.0
  0
LINE
  5
4B
100
AcDbEntity
  8
1
370
    25
100
AcDbLine
 10
161.482385
 20
233.028767
 30
0.0
 11
394.982385
 21
233.028767
 31
0.0
  0
LINE
  5
4C
100
AcDbEntity
  8
1
370
    25
100
AcDbLine
 10
161.482385
 20
248.028767
 30
0.0
 11
394.982385
 21
248.028767
 31
0.0
  0
LINE
  5
4D
100
AcDbEntity
  8
1
370
    50
100
AcDbLine
 10
161.482385
 20
263.028767
 30
0.0
 11
394.982385
 21
263.028767
 31
0.0
  0
TEXT
  5
4E
100
AcDbEntity
  8
1
370
    50
100
AcDbText
 10
165.052644
 20
265.950703
 30
0.0
 40
6.0
  1
記号
 72
     5
 11
175.852644
 21
265.950703
 31
0.0
100
AcDbText
  0
TEXT
  5
4F
100
AcDbEntity
  8
1
370
    50
100
AcDbText
 10
316.856729
 20
265.859212
 30
0.0
 40
6.0
  1
訂 正 記 事
 72
     5
 11
357.656729
 21
265.859212
 31
0.0
100
AcDbText
  0
TEXT
  5
50
100
AcDbEntity
  8
1
370
    50
100
AcDbText
 10
380.887817
 20
265.835536
 30
0.0
 40
6.0
  1
印
 72
     5
 11
385.687817
 21
265.835536
 31
0.0
100
AcDbText
  0
LINE
  5
51
100
AcDbEntity
  8
1
370
   100
100
AcDbLine
 10
161.482385
 20
218.028767
 30
0.0
 11
161.482385
 21
275.028767
 31
0.0
  0
LINE
  5
52
100
AcDbEntity
  8
1
370
    25
100
AcDbLine
 10
180.482385
 20
218.028767
 30
0.0
 11
180.482385
 21
275.028767
 31
0.0
  0
LINE
  5
53
100
AcDbEntity
  8
1
370
    25
100
AcDbLine
 10
372.982385
 20
218.028767
 30
0.0
 11
372.982385
 21
275.028767
 31
0.0
  0
LINE
  5
54
100
AcDbEntity
  8
1
370
    25
100
AcDbLine
 10
302.982385
 20
218.028767
 30
0.0
 11
302.982385
 21
275.028767
 31
0.0
  0
LINE
  5
55
100
AcDbEntity
  8
1
370
    50
100
AcDbLine
 10
232.982385
 20
218.028767
 30
0.0
 11
232.982385
 21
275.028767
 31
0.0
  0
TEXT
  5
56
100
AcDbEntity
  8
1
370
    50
100
AcDbText
 10
246.91768
 20
265.924672
 30
0.0
 40
6.0
  1
変　更　理　由
 72
     5
 11
287.71768
 21
265.924672
 31
0.0
100
AcDbText
  0
TEXT
  5
57
100
AcDbEntity
  8
1
370
    50
100
AcDbText
 10
194.793748
 20
266.40334
 30
0.0
 40
6.0
  1
日　　付
 72
     5
 11
217.593748
 21
266.40334
 31
0.0
100
AcDbText
  0
TEXT
  5
58
100
AcDbEntity
  8
1
370
    50
100
AcDbText
 10
183.098131
 20
252.400355
 30
0.0
 40
6.0
  1
　　・　　・
 72
     5
 11
217.898131
 21
252.400355
 31
0.0
100
AcDbText
  0
TEXT
  5
59
100
AcDbEntity
  8
1
370
    50
100
AcDbText
 10
183.098131
 20
237.400355
 30
0.0
 40
6.0
  1
　　・　　・
 72
     5
 11
217.898131
 21
237.400355
 31
0.0
100
AcDbText
  0
TEXT
  5
5A
100
AcDbEntity
  8
1
370
    50
100
AcDbText
 10
183.098131
 20
222.400355
 30
0.0
 40
6.0
  1
　　・　　・
 72
     5
 11
217.898131
 21
222.400355
 31
0.0
100
AcDbText
  0
LINE
  5
5B
100
AcDbEntity
  8
1
370
   100
100
AcDbLine
 10
40.982385
 20
-217.971881
 30
0.0
 11
40.982385
 21
-277.971881
 31
0.0
  0
TEXT
  5
5C
100
AcDbEntity
  8
1
370
    50
100
AcDbText
 10
290.832582
 20
-240.013492
 30
0.0
 40
6.0
  1
　／ 
 72
     5
 11
301.632582
 21
-240.013492
 31
0.0
100
AcDbText
  0
TEXT
  5
5D
100
AcDbEntity
  8
1
370
    50
100
AcDbText
 10
193.904123
 20
-272.024909
 30
0.0
 40
6.0
  1
備 考 
 72
     5
 11
207.704123
 21
-272.024909
 31
0.0
100
AcDbText
  0
TEXT
  5
5E
100
AcDbEntity
  8
1
370
    50
100
AcDbText
 10
193.512534
 20
-230.89184
 30
0.0
 40
6.0
  1
仕 上
 72
     5
 11
207.312534
 21
-230.89184
 31
0.0
100
AcDbText
  0
TEXT
  5
5F
100
AcDbEntity
  8
1
370
    50
100
AcDbText
 10
193.447176
 20
-248.891666
 30
0.0
 40
6.0
  1
表 面
 72
     5
 11
207.247176
 21
-248.891666
 31
0.0
100
AcDbText
  0
TEXT
  5
60
100
AcDbEntity
  8
1
370
    50
100
AcDbText
 10
193.447176
 20
-255.891666
 30
0.0
 40
6.0
  1
処 理
 72
     5
 11
207.247176
 21
-255.891666
 31
0.0
100
AcDbText
  0
TEXT
  5
61
100
AcDbEntity
  8
1
370
    50
100
AcDbText
 10
44.79335
 20
-231.693399
 30
0.0
 40
6.0
  1
品 名
 72
     5
 11
58.59335
 21
-231.693399
 31
0.0
100
AcDbText
  0
TEXT
  5
62
100
AcDbEntity
  8
1
370
    50
100
AcDbText
 10
44.397766
 20
-252.462534
 30
0.0
 40
6.0
  1
材 質
 72
     5
 11
58.197766
 21
-252.462534
 31
0.0
100
AcDbText
  0
TEXT
  5
63
100
AcDbEntity
  8
1
370
    50
100
AcDbText
 10
118.897766
 20
-252.462534
 30
0.0
 40
6.0
  1
規 格
 72
     5
 11
132.697766
 21
-252.462534
 31
0.0
100
AcDbText
  0
POINT
  5
64
100
AcDbEntity
  8
2
370
    50
100
AcDbPoint
 10
119.710204
 20
-18.065356
 30
0.0
  0
POINT
  5
65
100
AcDbEntity
  8
2
370
    50
100
AcDbPoint
 10
119.710204
 20
-18.065356
 30
0.0
  0
POINT
  5
66
100
AcDbEntity
  8
2
370
    50
100
AcDbPoint
 10
119.710204
 20
-18.065356
 30
0.0
  0
LINE
  5
67
100
AcDbEntity
  8
2
370
    50
100
AcDbLine
 10
-108.368556
 20
-45.565356
 30
0.0
 11
-108.368556
 21
-44.065356
 31
0.0
  0
LINE
  5
68
100
AcDbEntity
  8
2
370
    50
100
AcDbLine
 10
-125.868556
 20
-45.565356
 30
0.0
 11
-108.368556
 21
-45.565356
 31
0.0
  0
LINE
  5
69
100
AcDbEntity
  8
2
370
    25
100
AcDbLine
 10
-116.618556
 20
-74.065356
 30
0.0
 11
-116.618556
 21
-54.265356
 31
0.0
  0
LINE
  5
6A
100
AcDbEntity
  8
2
370
    25
100
AcDbLine
 10
-116.618556
 20
-44.065356
 30
0.0
 11
-116.618556
 21
-31.064964
 31
0.0
  0
LINE
  5
6B
100
AcDbEntity
  8
2
370
    50
100
AcDbLine
 10
-115.618556
 20
-44.065356
 30
0.0
 11
-115.618556
 21
-31.064964
 31
0.0
  0
LINE
  5
6C
100
AcDbEntity
  8
2
370
    50
100
AcDbLine
 10
-113.868556
 20
-54.265356
 30
0.0
 11
-125.868556
 21
-54.265356
 31
0.0
  0
LINE
  5
6D
100
AcDbEntity
  8
2
370
    50
100
AcDbLine
 10
-112.118556
 20
-53.254993
 30
0.0
 11
-112.118556
 21
-47.765356
 31
0.0
  0
LINE
  5
6E
100
AcDbEntity
  8
2
370
    50
100
AcDbLine
 10
-113.868556
 20
-54.265356
 30
0.0
 11
-112.118556
 21
-53.254993
 31
0.0
  0
LINE
  5
6F
100
AcDbEntity
  8
2
370
    50
100
AcDbLine
 10
-105.868556
 20
-47.265356
 30
0.0
 11
-105.868556
 21
-46.065356
 31
0.0
  0
LINE
  5
70
100
AcDbEntity
  8
2
370
    50
100
AcDbLine
 10
-125.868556
 20
-47.765356
 30
0.0
 11
-111.548005
 21
-47.765356
 31
0.0
  0
LINE
  5
71
100
AcDbEntity
  8
2
370
    50
100
AcDbLine
 10
-105.868556
 20
-46.065356
 30
0.0
 11
-125.868556
 21
-46.065356
 31
0.0
  0
LINE
  5
72
100
AcDbEntity
  8
2
370
    50
100
AcDbLine
 10
-105.868556
 20
-47.265356
 30
0.0
 11
-125.868556
 21
-47.265356
 31
0.0
  0
ARC
  5
73
100
AcDbEntity
  8
2
370
    50
100
AcDbCircle
 10
-111.548005
 20
-42.765356
 30
0.0
 40
5.0
100
AcDbArc
 50
270.0
 51
293.556464
  0
ARC
  5
74
100
AcDbEntity
  8
2
370
    50
100
AcDbCircle
 10
-111.548005
 20
-50.565356
 30
0.0
 40
5.0
100
AcDbArc
 50
66.443536
 51
90.0
  0
ARC
  5
75
100
AcDbEntity
  8
2
370
    50
100
AcDbCircle
 10
-109.150089
 20
-48.265356
 30
0.0
 40
1.0
100
AcDbArc
 50
90.0
 51
113.556464
  0
ARC
  5
76
100
AcDbEntity
  8
2
370
    50
100
AcDbCircle
 10
-109.150089
 20
-45.065356
 30
0.0
 40
1.0
100
AcDbArc
 50
246.443536
 51
270.0
  0
LINE
  5
77
100
AcDbEntity
  8
2
370
    50
100
AcDbLine
 10
-118.868556
 20
-53.254993
 30
0.0
 11
-118.868556
 21
-47.765356
 31
0.0
  0
ARC
  5
78
100
AcDbEntity
  8
2
370
    50
100
AcDbCircle
 10
-125.868556
 20
-29.511463
 30
0.0
 40
24.753893
100
AcDbArc
 50
270.0
 51
286.426421
  0
ARC
  5
79
100
AcDbEntity
  8
2
370
    50
100
AcDbCircle
 10
-115.493556
 20
-48.123277
 30
0.0
 40
6.142079
100
AcDbArc
 50
236.668091
 51
303.331909
  0
ARC
  5
7A
100
AcDbEntity
  8
2
370
    50
100
AcDbCircle
 10
-125.868556
 20
-31.515356
 30
0.0
 40
16.25
100
AcDbArc
 50
270.0
 51
284.250033
  0
ARC
  5
7B
100
AcDbEntity
  8
2
370
    50
100
AcDbCircle
 10
-117.618556
 20
-31.515356
 30
0.0
 40
16.25
100
AcDbArc
 50
262.930286
 51
284.250033
  0
ARC
  5
7C
100
AcDbEntity
  8
2
370
    50
100
AcDbCircle
 10
-121.618556
 20
-31.515356
 30
0.0
 40
16.25
100
AcDbArc
 50
262.485955
 51
284.250033
  0
ARC
  5
7D
100
AcDbEntity
  8
2
370
    50
100
AcDbCircle
 10
-113.618556
 20
-31.515356
 30
0.0
 40
16.25
100
AcDbArc
 50
262.930286
 51
270.0
  0
ARC
  5
7E
100
AcDbEntity
  8
2
370
    50
100
AcDbCircle
 10
-125.868556
 20
-61.815356
 30
0.0
 40
16.25
100
AcDbArc
 50
75.749967
 51
90.0
  0
ARC
  5
7F
100
AcDbEntity
  8
2
370
    50
100
AcDbCircle
 10
-121.618556
 20
-61.815356
 30
0.0
 40
16.25
100
AcDbArc
 50
75.749967
 51
97.514045
  0
ARC
  5
80
100
AcDbEntity
  8
2
370
    50
100
AcDbCircle
 10
-117.618556
 20
-61.815356
 30
0.0
 40
16.25
100
AcDbArc
 50
75.749967
 51
97.069714
  0
ARC
  5
81
100
AcDbEntity
  8
2
370
    50
100
AcDbCircle
 10
-113.618556
 20
-61.815356
 30
0.0
 40
16.25
100
AcDbArc
 50
90.0
 51
97.069714
  0
LINE
  5
82
100
AcDbEntity
  8
2
370
    50
100
AcDbLine
 10
-114.368556
 20
-86.065356
 30
0.0
 11
-125.868556
 21
-86.065356
 31
0.0
  0
ARC
  5
83
100
AcDbEntity
  8
2
370
    50
100
AcDbCircle
 10
-128.143556
 20
-80.065356
 30
0.0
 40
15.025
100
AcDbArc
 50
336.463422
 51
23.536578
  0
LINE
  5
84
100
AcDbEntity
  8
2
370
    50
100
AcDbLine
 10
-114.368556
 20
-74.065356
 30
0.0
 11
-125.868556
 21
-74.065356
 31
0.0
  0
ELLIPSE
  5
85
100
AcDbEntity
  8
2
370
    50
100
AcDbEllipse
 10
-115.909263
 20
-80.065356
 30
0.0
 11
0.0
 21
6.0
 31
0.0
210
0.0
220
0.0
230
1.0
 40
0.458833
 41
0.0
 42
6.2831849999999996
  0
ELLIPSE
  5
86
100
AcDbEntity
  8
2
370
    50
100
AcDbEllipse
 10
-125.868556
 20
-80.065356
 30
0.0
 11
0.0
 21
6.0
 31
0.0
210
0.0
220
0.0
230
1.0
 40
0.926667
 41
0.0
 42
6.2831849999999996
  0
LINE
  5
87
100
AcDbEntity
  8
2
370
    50
100
AcDbLine
 10
-115.618556
 20
-74.065356
 30
0.0
 11
-115.618556
 21
-54.265356
 31
0.0
  0
LINE
  5
88
100
AcDbEntity
  8
2
370
    50
100
AcDbLine
 10
-143.368556
 20
-45.565356
 30
0.0
 11
-143.368556
 21
-44.065356
 31
0.0
  0
LINE
  5
89
100
AcDbEntity
  8
2
370
    50
100
AcDbLine
 10
-125.868556
 20
-45.565356
 30
0.0
 11
-143.368556
 21
-45.565356
 31
0.0
  0
LINE
  5
8A
100
AcDbEntity
  8
2
370
    25
100
AcDbLine
 10
-135.118556
 20
-74.065356
 30
0.0
 11
-135.118556
 21
-54.265356
 31
0.0
  0
LINE
  5
8B
100
AcDbEntity
  8
2
370
    25
100
AcDbLine
 10
-135.118556
 20
-44.065356
 30
0.0
 11
-135.118556
 21
-31.064964
 31
0.0
  0
LINE
  5
8C
100
AcDbEntity
  8
2
370
    50
100
AcDbLine
 10
-136.118556
 20
-44.065356
 30
0.0
 11
-136.118556
 21
-31.064964
 31
0.0
  0
LINE
  5
8D
100
AcDbEntity
  8
2
370
    50
100
AcDbLine
 10
-137.868556
 20
-54.265356
 30
0.0
 11
-125.868556
 21
-54.265356
 31
0.0
  0
LINE
  5
8E
100
AcDbEntity
  8
2
370
    50
100
AcDbLine
 10
-139.618556
 20
-53.254993
 30
0.0
 11
-139.618556
 21
-47.765356
 31
0.0
  0
LINE
  5
8F
100
AcDbEntity
  8
2
370
    50
100
AcDbLine
 10
-137.868556
 20
-54.265356
 30
0.0
 11
-139.618556
 21
-53.254993
 31
0.0
  0
LINE
  5
90
100
AcDbEntity
  8
2
370
    50
100
AcDbLine
 10
-145.868556
 20
-47.265356
 30
0.0
 11
-145.868556
 21
-46.065356
 31
0.0
  0
LINE
  5
91
100
AcDbEntity
  8
2
370
    50
100
AcDbLine
 10
-125.868556
 20
-47.765356
 30
0.0
 11
-140.189106
 21
-47.765356
 31
0.0
  0
LINE
  5
92
100
AcDbEntity
  8
2
370
    50
100
AcDbLine
 10
-145.868556
 20
-46.065356
 30
0.0
 11
-125.868556
 21
-46.065356
 31
0.0
  0
LINE
  5
93
100
AcDbEntity
  8
2
370
    50
100
AcDbLine
 10
-145.868556
 20
-47.265356
 30
0.0
 11
-125.868556
 21
-47.265356
 31
0.0
  0
ARC
  5
94
100
AcDbEntity
  8
2
370
    50
100
AcDbCircle
 10
-140.189106
 20
-42.765356
 30
0.0
 40
5.0
100
AcDbArc
 50
246.443536
 51
270.0
  0
ARC
  5
95
100
AcDbEntity
  8
2
370
    50
100
AcDbCircle
 10
-140.189106
 20
-50.565356
 30
0.0
 40
5.0
100
AcDbArc
 50
90.0
 51
113.556464
  0
ARC
  5
96
100
AcDbEntity
  8
2
370
    50
100
AcDbCircle
 10
-142.587022
 20
-48.265356
 30
0.0
 40
1.0
100
AcDbArc
 50
66.443536
 51
90.0
  0
ARC
  5
97
100
AcDbEntity
  8
2
370
    50
100
AcDbCircle
 10
-142.587022
 20
-45.065356
 30
0.0
 40
1.0
100
AcDbArc
 50
270.0
 51
293.556464
  0
LINE
  5
98
100
AcDbEntity
  8
2
370
    50
100
AcDbLine
 10
-132.868556
 20
-53.254993
 30
0.0
 11
-132.868556
 21
-47.765356
 31
0.0
  0
ARC
  5
99
100
AcDbEntity
  8
2
370
    50
100
AcDbCircle
 10
-125.868556
 20
-29.511463
 30
0.0
 40
24.753893
100
AcDbArc
 50
253.573579
 51
270.0
  0
ARC
  5
9A
100
AcDbEntity
  8
2
370
    50
100
AcDbCircle
 10
-136.243556
 20
-48.123277
 30
0.0
 40
6.142079
100
AcDbArc
 50
236.668091
 51
303.331909
  0
ARC
  5
9B
100
AcDbEntity
  8
2
370
    50
100
AcDbCircle
 10
-125.868556
 20
-31.515356
 30
0.0
 40
16.25
100
AcDbArc
 50
255.749967
 51
270.0
  0
ARC
  5
9C
100
AcDbEntity
  8
2
370
    50
100
AcDbCircle
 10
-134.118556
 20
-31.515356
 30
0.0
 40
16.25
100
AcDbArc
 50
255.749967
 51
277.069714
  0
ARC
  5
9D
100
AcDbEntity
  8
2
370
    50
100
AcDbCircle
 10
-130.118556
 20
-31.515356
 30
0.0
 40
16.25
100
AcDbArc
 50
255.749967
 51
277.514045
  0
ARC
  5
9E
100
AcDbEntity
  8
2
370
    50
100
AcDbCircle
 10
-138.118556
 20
-31.515356
 30
0.0
 40
16.25
100
AcDbArc
 50
270.0
 51
277.069714
  0
ARC
  5
9F
100
AcDbEntity
  8
2
370
    50
100
AcDbCircle
 10
-125.868556
 20
-61.815356
 30
0.0
 40
16.25
100
AcDbArc
 50
90.0
 51
104.250033
  0
ARC
  5
A0
100
AcDbEntity
  8
2
370
    50
100
AcDbCircle
 10
-130.118556
 20
-61.815356
 30
0.0
 40
16.25
100
AcDbArc
 50
82.485955
 51
104.250033
  0
ARC
  5
A1
100
AcDbEntity
  8
2
370
    50
100
AcDbCircle
 10
-134.118556
 20
-61.815356
 30
0.0
 40
16.25
100
AcDbArc
 50
82.930286
 51
104.250033
  0
ARC
  5
A2
100
AcDbEntity
  8
2
370
    50
100
AcDbCircle
 10
-138.118556
 20
-61.815356
 30
0.0
 40
16.25
100
AcDbArc
 50
82.930286
 51
90.0
  0
LINE
  5
A3
100
AcDbEntity
  8
2
370
    50
100
AcDbLine
 10
-137.368556
 20
-86.065356
 30
0.0
 11
-125.868556
 21
-86.065356
 31
0.0
  0
ARC
  5
A4
100
AcDbEntity
  8
2
370
    50
100
AcDbCircle
 10
-123.593556
 20
-80.065356
 30
0.0
 40
15.025
100
AcDbArc
 50
156.463422
 51
203.536578
  0
LINE
  5
A5
100
AcDbEntity
  8
2
370
    50
100
AcDbLine
 10
-137.368556
 20
-74.065356
 30
0.0
 11
-125.868556
 21
-74.065356
 31
0.0
  0
ELLIPSE
  5
A6
100
AcDbEntity
  8
2
370
    50
100
AcDbEllipse
 10
-135.827848
 20
-80.065356
 30
0.0
 11
0.0
 21
6.0
 31
0.0
210
0.0
220
0.0
230
1.0
 40
0.458833
 41
0.0
 42
6.2831849999999996
  0
LINE
  5
A7
100
AcDbEntity
  8
2
370
    50
100
AcDbLine
 10
-136.118556
 20
-74.065356
 30
0.0
 11
-136.118556
 21
-54.265356
 31
0.0
  0
LINE
  5
A8
100
AcDbEntity
  8
2
370
    50
100
AcDbLine
 10
-143.368556
 20
-44.065356
 30
0.0
 11
-108.368556
 21
-44.065356
 31
0.0
  0
LINE
  5
A9
100
AcDbEntity
  8
2
370
    50
100
AcDbLine
 10
-104.868556
 20
-23.565356
 30
0.0
 11
-146.868556
 21
-23.565356
 31
0.0
  0
LINE
  5
AA
100
AcDbEntity
  8
2
370
    50
100
AcDbLine
 10
-108.868556
 20
67.434644
 30
0.0
 11
-108.868556
 21
-23.065356
 31
0.0
  0
LINE
  5
AB
100
AcDbEntity
  8
2
370
    50
100
AcDbLine
 10
-125.868556
 20
67.934644
 30
0.0
 11
-142.368556
 21
67.934644
 31
0.0
  0
LINE
  5
AC
100
AcDbEntity
  8
2
370
    50
100
AcDbLine
 10
-142.368556
 20
67.934644
 30
0.0
 11
-142.868556
 21
67.434644
 31
0.0
  0
LINE
  5
AD
100
AcDbEntity
  8
2
370
    50
100
AcDbLine
 10
-139.868556
 20
67.934644
 30
0.0
 11
-139.868556
 21
69.034644
 31
0.0
  0
LINE
  5
AE
100
AcDbEntity
  8
2
370
    50
100
AcDbLine
 10
-142.868556
 20
-23.065356
 30
0.0
 11
-142.868556
 21
35.934644
 31
0.0
  0
LINE
  5
AF
100
AcDbEntity
  8
2
370
    50
100
AcDbLine
 10
-142.868556
 20
54.934644
 30
0.0
 11
-142.868556
 21
67.434644
 31
0.0
  0
LINE
  5
B0
100
AcDbEntity
  8
2
370
    50
100
AcDbLine
 10
-108.868556
 20
-23.065356
 30
0.0
 11
-109.368556
 21
-23.565356
 31
0.0
  0
LINE
  5
B1
100
AcDbEntity
  8
2
370
    50
100
AcDbLine
 10
-142.868556
 20
-23.065356
 30
0.0
 11
-142.368556
 21
-23.565356
 31
0.0
  0
LINE
  5
B2
100
AcDbEntity
  8
2
370
    50
100
AcDbLine
 10
-111.868556
 20
67.934644
 30
0.0
 11
-111.868556
 21
69.034644
 31
0.0
  0
LINE
  5
B3
100
AcDbEntity
  8
2
370
    50
100
AcDbLine
 10
-125.868556
 20
67.934644
 30
0.0
 11
-109.368556
 21
67.934644
 31
0.0
  0
LINE
  5
B4
100
AcDbEntity
  8
2
370
    50
100
AcDbLine
 10
-109.368556
 20
67.934644
 30
0.0
 11
-108.868556
 21
67.434644
 31
0.0
  0
LINE
  5
B5
100
AcDbEntity
  8
2
370
    50
100
AcDbLine
 10
-142.868556
 20
54.934644
 30
0.0
 11
-192.86899
 21
54.934644
 31
0.0
  0
LINE
  5
B6
100
AcDbEntity
  8
2
370
    50
100
AcDbLine
 10
-142.868556
 20
35.934644
 30
0.0
 11
-192.86899
 21
35.934644
 31
0.0
  0
LINE
  5
B7
100
AcDbEntity
  8
2
370
    50
100
AcDbLine
 10
-223.127746
 20
40.824754
 30
0.0
 11
-229.555622
 21
33.16431
 31
0.0
  0
LINE
  5
B8
100
AcDbEntity
  8
2
370
    50
100
AcDbLine
 10
-208.572901
 20
28.61179
 30
0.0
 11
-215.000778
 21
20.951345
 31
0.0
  0
LINE
  5
B9
100
AcDbEntity
  8
2
370
    25
  6
CENTER
100
AcDbLine
 10
-192.86899
 20
45.434644
 30
0.0
 11
-125.868556
 21
45.434644
 31
0.0
  0
ARC
  5
BA
100
AcDbEntity
  8
2
370
    25
  6
CENTER
100
AcDbCircle
 10
-192.86899
 20
15.434644
 30
0.0
 40
30.0
100
AcDbArc
 50
90.0
 51
140.0
  0
ARC
  5
BB
100
AcDbEntity
  8
2
370
    50
100
AcDbCircle
 10
-192.86899
 20
15.434644
 30
0.0
 40
39.5
100
AcDbArc
 50
90.0
 51
140.0
  0
ARC
  5
BC
100
AcDbEntity
  8
2
370
    50
100
AcDbCircle
 10
-192.86899
 20
15.434644
 30
0.0
 40
20.5
100
AcDbArc
 50
90.0
 51
140.0
  0
LINE
  5
BD
100
AcDbEntity
  8
2
370
    50
100
AcDbLine
 10
-215.000778
 20
20.951345
 30
0.0
 11
-222.2782
 21
27.057828
 31
0.0
  0
LINE
  5
BE
100
AcDbEntity
  8
2
370
    50
100
AcDbLine
 10
-222.2782
 20
27.057828
 30
0.0
 11
-229.555622
 21
33.16431
 31
0.0
  0
LINE
  5
BF
100
AcDbEntity
  8
2
370
    50
100
AcDbLine
 10
-229.009572
 20
5.423107
 30
0.0
 11
-242.41535
 21
16.67189
 31
0.0
  0
LINE
  5
C0
100
AcDbEntity
  8
2
370
    50
100
AcDbLine
 10
-215.770797
 20
20.422602
 30
0.0
 11
-228.305156
 21
5.484736
 31
0.0
  0
LINE
  5
C1
100
AcDbEntity
  8
2
370
    50
100
AcDbLine
 10
-229.94262
 20
32.314173
 30
0.0
 11
-242.476978
 21
17.376306
 31
0.0
  0
ARC
  5
C2
100
AcDbEntity
  8
2
370
    50
100
AcDbCircle
 10
-242.093956
 20
17.054913
 30
0.0
 40
0.5
100
AcDbArc
 50
140.0
 51
230.0
  0
LINE
  5
C3
100
AcDbEntity
  8
2
370
    50
100
AcDbLine
 10
-215.770797
 20
20.422602
 30
0.0
 11
-222.856709
 21
26.368388
 31
0.0
  0
LINE
  5
C4
100
AcDbEntity
  8
2
370
    50
100
AcDbLine
 10
-222.856709
 20
26.368388
 30
0.0
 11
-229.94262
 21
32.314173
 31
0.0
  0
LINE
  5
C5
100
AcDbEntity
  8
2
370
    50
100
AcDbLine
 10
-216.474792
 20
21.013324
 30
0.0
 11
-216.217677
 21
21.319742
 31
0.0
  0
LINE
  5
C6
100
AcDbEntity
  8
2
370
    50
100
AcDbLine
 10
-215.322171
 20
20.568323
 30
0.0
 11
-222.599594
 21
26.674805
 31
0.0
  0
LINE
  5
C7
100
AcDbEntity
  8
2
370
    50
100
AcDbLine
 10
-228.98151
 20
32.029869
 30
0.0
 11
-229.238625
 21
31.723451
 31
0.0
  0
LINE
  5
C8
100
AcDbEntity
  8
2
370
    50
100
AcDbLine
 10
-222.599594
 20
26.674805
 30
0.0
 11
-229.877016
 21
32.781288
 31
0.0
  0
LINE
  5
C9
100
AcDbEntity
  8
2
370
    50
100
AcDbLine
 10
-229.555622
 20
33.16431
 30
0.0
 11
-229.877016
 21
32.781288
 31
0.0
  0
LINE
  5
CA
100
AcDbEntity
  8
2
370
    50
100
AcDbLine
 10
-215.000778
 20
20.951345
 30
0.0
 11
-215.322171
 21
20.568323
 31
0.0
  0
LINE
  5
CB
100
AcDbEntity
  8
2
370
    50
100
AcDbLine
 10
-215.000778
 20
20.951345
 30
0.0
 11
-215.575311
 21
21.433436
 31
0.0
  0
LINE
  5
CC
100
AcDbEntity
  8
2
370
    50
100
AcDbLine
 10
-229.555622
 20
33.16431
 30
0.0
 11
-228.981089
 21
32.682219
 31
0.0
  0
LINE
  5
CD
100
AcDbEntity
  8
2
370
    25
  6
CENTER
100
AcDbLine
 10
-215.850324
 20
34.718272
 30
0.0
 11
-237.215522
 21
9.256221
 31
0.0
  0
ARC
  5
CE
100
AcDbEntity
  8
2
370
    25
100
AcDbCircle
 10
-149.393556
 20
45.434644
 30
0.0
 40
11.525
100
AcDbArc
 50
304.482919
 51
55.517081
  0
LINE
  5
CF
100
AcDbEntity
  8
2
370
    25
100
AcDbLine
 10
-142.868556
 20
67.434644
 30
0.0
 11
-108.868556
 21
67.434644
 31
0.0
  0
LINE
  5
D0
100
AcDbEntity
  8
2
370
    50
100
AcDbLine
 10
-145.368556
 20
-29.065356
 30
0.0
 11
-145.368556
 21
-31.065356
 31
0.0
  0
LINE
  5
D1
100
AcDbEntity
  8
2
370
    50
100
AcDbLine
 10
-145.368556
 20
-31.065356
 30
0.0
 11
-125.868556
 21
-31.065356
 31
0.0
  0
LINE
  5
D2
100
AcDbEntity
  8
2
370
    50
100
AcDbLine
 10
-146.868556
 20
-29.065356
 30
0.0
 11
-125.868556
 21
-29.065356
 31
0.0
  0
LINE
  5
D3
100
AcDbEntity
  8
2
370
    50
100
AcDbLine
 10
-147.368556
 20
-28.565356
 30
0.0
 11
-146.868556
 21
-29.065356
 31
0.0
  0
LINE
  5
D4
100
AcDbEntity
  8
2
370
    50
100
AcDbLine
 10
-147.368556
 20
-24.065356
 30
0.0
 11
-147.368556
 21
-28.565356
 31
0.0
  0
LINE
  5
D5
100
AcDbEntity
  8
2
370
    50
100
AcDbLine
 10
-146.868556
 20
-23.565356
 30
0.0
 11
-147.368556
 21
-24.065356
 31
0.0
  0
LINE
  5
D6
100
AcDbEntity
  8
2
370
    50
100
AcDbLine
 10
-104.868556
 20
-23.565356
 30
0.0
 11
-104.368556
 21
-24.065356
 31
0.0
  0
LINE
  5
D7
100
AcDbEntity
  8
2
370
    50
100
AcDbLine
 10
-104.368556
 20
-24.065356
 30
0.0
 11
-104.368556
 21
-28.565356
 31
0.0
  0
LINE
  5
D8
100
AcDbEntity
  8
2
370
    50
100
AcDbLine
 10
-104.368556
 20
-28.565356
 30
0.0
 11
-104.868556
 21
-29.065356
 31
0.0
  0
LINE
  5
D9
100
AcDbEntity
  8
2
370
    50
100
AcDbLine
 10
-104.868556
 20
-29.065356
 30
0.0
 11
-125.868556
 21
-29.065356
 31
0.0
  0
LINE
  5
DA
100
AcDbEntity
  8
2
370
    50
100
AcDbLine
 10
-106.368556
 20
-29.065356
 30
0.0
 11
-106.368556
 21
-31.065356
 31
0.0
  0
LINE
  5
DB
100
AcDbEntity
  8
2
370
    50
100
AcDbLine
 10
-106.368556
 20
-31.065356
 30
0.0
 11
-125.868556
 21
-31.065356
 31
0.0
  0
LINE
  5
DC
100
AcDbEntity
  8
2
370
    25
100
AcDbLine
 10
-142.868556
 20
-23.065356
 30
0.0
 11
-108.868556
 21
-23.065356
 31
0.0
  0
LINE
  5
DD
100
AcDbEntity
  8
2
370
    25
100
AcDbLine
 10
-104.368556
 20
-24.065356
 30
0.0
 11
-147.368556
 21
-24.065356
 31
0.0
  0
LINE
  5
DE
100
AcDbEntity
  8
2
370
    25
100
AcDbLine
 10
-147.368556
 20
-28.565356
 30
0.0
 11
-104.368556
 21
-28.565356
 31
0.0
  0
LINE
  5
DF
100
AcDbEntity
  8
2
370
    25
  6
CENTER
100
AcDbLine
 10
-125.868556
 20
-87.78338
 30
0.0
 11
-125.868556
 21
105.428276
 31
0.0
  0
ARC
  5
E0
100
AcDbEntity
  8
2
370
    50
100
AcDbCircle
 10
-228.688178
 20
5.806129
 30
0.0
 40
0.5
100
AcDbArc
 50
230.0
 51
320.0
  0
HATCH
  5
E1
100
AcDbEntity
  8
2
370
    25
100
AcDbHatch
 10
0.0
 20
0.0
 30
0.0
210
0.0
220
0.0
230
1.0
  2
_U
 70
     0
 71
     1
 91
        1
 92
        1
 93
        6
 72
     1
 10
-106.368556
 20
-31.065356000000001
 11
-106.368556
 21
-29.065356000000001
 72
     1
 10
-106.368556
 20
-29.065356000000001
 11
-125.868556
 21
-29.065356000000001
 72
     1
 10
-125.868556
 20
-29.065356000000001
 11
-145.36855600000001
 21
-29.065356000000001
 72
     1
 10
-145.36855600000001
 20
-29.065356000000001
 11
-145.36855600000001
 21
-31.065356000000001
 72
     1
 10
-145.36855600000001
 20
-31.065356000000001
 11
-125.868556
 21
-31.065356000000001
 72
     1
 10
-125.868556
 20
-31.065356000000001
 11
-106.368556
 21
-31.065356000000001
 97
        6
330
0
330
0
330
0
330
0
330
0
330
0
 75
     0
 76
     0
 52
45.0
 41
1.0
 77
     0
 78
     1
 53
45.0
 43
0.0
 44
0.0
 45
-1.4142140000000001
 46
1.4142140000000001
 79
     0
 98
        1
 10
0.0
 20
0.0
  0
HATCH
  5
E2
100
AcDbEntity
  8
2
370
    25
100
AcDbHatch
 10
0.0
 20
0.0
 30
0.0
210
0.0
220
0.0
230
1.0
  2
_U
 70
     0
 71
     1
 91
        1
 92
        1
 93
        5
 72
     1
 10
-108.368556
 20
-44.065356000000001
 11
-108.368556
 21
-45.565356000000001
 72
     1
 10
-108.368556
 20
-45.565356000000001
 11
-125.868556
 21
-45.565356000000001
 72
     1
 10
-125.868556
 20
-45.565356000000001
 11
-143.36855600000001
 21
-45.565356000000001
 72
     1
 10
-143.36855600000001
 20
-45.565356000000001
 11
-143.36855600000001
 21
-44.065356000000001
 72
     1
 10
-143.36855600000001
 20
-44.065356000000001
 11
-108.368556
 21
-44.065356000000001
 97
        5
330
0
330
0
330
0
330
0
330
0
 75
     0
 76
     0
 52
45.0
 41
1.0
 77
     0
 78
     1
 53
45.0
 43
0.0
 44
0.0
 45
-1.4142140000000001
 46
1.4142140000000001
 79
     0
 98
        1
 10
0.0
 20
0.0
  0
LINE
  5
E3
100
AcDbEntity
  8
2
370
    50
100
AcDbLine
 10
-139.966428
 20
192.189236
 30
0.0
 11
-235.712372
 21
192.189236
 31
0.0
  0
LINE
  5
E4
100
AcDbEntity
  8
2
370
    50
100
AcDbLine
 10
-139.966428
 20
173.189236
 30
0.0
 11
-235.712372
 21
173.189236
 31
0.0
  0
ELLIPSE
  5
E5
100
AcDbEntity
  8
2
370
    50
100
AcDbEllipse
 10
-235.712372
 20
182.689236
 30
0.0
 11
0.0
 21
9.5
 31
0.0
210
0.0
220
0.0
230
1.0
 40
0.745895
 41
0.0
 42
3.1415929999999999
  0
ELLIPSE
  5
E6
100
AcDbEntity
  8
2
370
    50
100
AcDbEllipse
 10
-222.85662
 20
182.689236
 30
0.0
 11
0.0
 21
9.5
 31
0.0
210
0.0
220
0.0
230
1.0
 40
0.745895
 41
0.0
 42
3.1415929999999999
  0
ELLIPSE
  5
E7
100
AcDbEntity
  8
2
370
    50
100
AcDbEllipse
 10
-222.599266
 20
182.689236
 30
0.0
 11
0.0
 21
9.5
 31
0.0
210
0.0
220
0.0
230
1.0
 40
0.745895
 41
0.0
 42
3.1415929999999999
  0
ELLIPSE
  5
E8
100
AcDbEntity
  8
2
370
    25
100
AcDbEllipse
 10
-222.278266
 20
182.689236
 30
0.0
 11
0.0
 21
9.5
 31
0.0
210
0.0
220
0.0
230
1.0
 40
0.745895
 41
0.0
 42
3.1415929999999999
  0
LINE
  5
E9
100
AcDbEntity
  8
2
370
    50
100
AcDbLine
 10
-142.402158
 20
186.189236
 30
0.0
 11
-166.268556
 21
186.189236
 31
0.0
  0
LINE
  5
EA
100
AcDbEntity
  8
2
370
    50
100
AcDbLine
 10
-142.402158
 20
179.189236
 30
0.0
 11
-166.268556
 21
179.189236
 31
0.0
  0
LINE
  5
EB
100
AcDbEntity
  8
2
370
    50
100
AcDbLine
 10
-166.768556
 20
179.689236
 30
0.0
 11
-166.768556
 21
185.689236
 31
0.0
  0
LINE
  5
EC
100
AcDbEntity
  8
2
370
    50
100
AcDbLine
 10
-166.268556
 20
186.189236
 30
0.0
 11
-166.768556
 21
185.689236
 31
0.0
  0
LINE
  5
ED
100
AcDbEntity
  8
2
370
    50
100
AcDbLine
 10
-166.268556
 20
179.189236
 30
0.0
 11
-166.768556
 21
179.689236
 31
0.0
  0
LINE
  5
EE
100
AcDbEntity
  8
2
370
    25
100
AcDbLine
 10
-166.268556
 20
186.189236
 30
0.0
 11
-166.268556
 21
179.189236
 31
0.0
  0
POINT
  5
EF
100
AcDbEntity
  8
2
370
    50
100
AcDbPoint
 10
-125.868556
 20
182.689236
 30
0.0
  0
LINE
  5
F0
100
AcDbEntity
  8
2
370
    25
  6
DASHED
100
AcDbLine
 10
-129.368556
 20
166.053431
 30
0.0
 11
-129.368556
 21
142.189236
 31
0.0
  0
LINE
  5
F1
100
AcDbEntity
  8
2
370
    25
  6
DASHED
100
AcDbLine
 10
-129.368556
 20
142.189236
 30
0.0
 11
-122.368556
 21
142.189236
 31
0.0
  0
LINE
  5
F2
100
AcDbEntity
  8
2
370
    25
  6
DASHED
100
AcDbLine
 10
-122.368556
 20
166.053431
 30
0.0
 11
-122.368556
 21
142.189236
 31
0.0
  0
LINE
  5
F3
100
AcDbEntity
  8
2
370
    25
  6
DASHED
100
AcDbLine
 10
-122.868556
 20
141.689236
 30
0.0
 11
-128.868556
 21
141.689236
 31
0.0
  0
LINE
  5
F4
100
AcDbEntity
  8
2
370
    25
  6
DASHED
100
AcDbLine
 10
-129.368556
 20
142.189236
 30
0.0
 11
-128.868556
 21
141.689236
 31
0.0
  0
LINE
  5
F5
100
AcDbEntity
  8
2
370
    25
  6
DASHED
100
AcDbLine
 10
-122.368556
 20
142.189236
 30
0.0
 11
-122.868556
 21
141.689236
 31
0.0
  0
ARC
  5
F6
100
AcDbEntity
  8
2
370
    25
100
AcDbCircle
 10
-125.868556
 20
182.689236
 30
0.0
 40
21.0
100
AcDbArc
 50
206.896546
 51
153.103454
  0
ARC
  5
F7
100
AcDbEntity
  8
2
370
    50
100
AcDbCircle
 10
-125.868556
 20
182.689236
 30
0.0
 40
21.5
100
AcDbArc
 50
206.222647
 51
153.777353
  0
LINE
  5
F8
100
AcDbEntity
  8
2
370
    25
  6
CENTER
100
AcDbLine
 10
-249.08535
 20
182.689236
 30
0.0
 11
-103.368556
 21
182.689236
 31
0.0
  0
LINE
  5
F9
100
AcDbEntity
  8
2
370
    25
  6
CENTER
100
AcDbLine
 10
-125.868556
 20
137.542126
 30
0.0
 11
-125.868556
 21
205.189236
 31
0.0
  0
CIRCLE
  5
FA
100
AcDbEntity
  8
2
370
    50
100
AcDbCircle
 10
-125.868556
 20
182.689236
 30
0.0
 40
16.9
  0
CIRCLE
  5
FB
100
AcDbEntity
  8
2
370
    50
100
AcDbCircle
 10
-125.868556
 20
182.689236
 30
0.0
 40
14.75
  0
CIRCLE
  5
FC
100
AcDbEntity
  8
2
370
    50
100
AcDbCircle
 10
-125.868556
 20
182.689236
 30
0.0
 40
14.45
  0
LINE
  5
FD
100
AcDbEntity
  8
2
370
    50
100
AcDbLine
 10
-111.171617
 20
185.689236
 30
0.0
 11
-109.236959
 21
185.689236
 31
0.0
  0
LINE
  5
FE
100
AcDbEntity
  8
2
370
    50
100
AcDbLine
 10
-111.171617
 20
179.689236
 30
0.0
 11
-109.236959
 21
179.689236
 31
0.0
  0
ARC
  5
FF
100
AcDbEntity
  8
2
370
    50
100
AcDbCircle
 10
-125.868556
 20
182.689236
 30
0.0
 40
16.4
100
AcDbArc
 50
10.540286
 51
349.459714
  0
ARC
  5
100
100
AcDbEntity
  8
2
370
    50
100
AcDbCircle
 10
-125.868556
 20
182.689236
 30
0.0
 40
15.3
100
AcDbArc
 50
11.307729
 51
348.692271
  0
ARC
  5
101
100
AcDbEntity
  8
2
370
    50
100
AcDbCircle
 10
-125.868556
 20
182.689236
 30
0.0
 40
15.0
100
AcDbArc
 50
11.536959
 51
348.463041
  0
LINE
  5
102
100
AcDbEntity
  8
2
370
    50
100
AcDbLine
 10
-108.968556
 20
69.534644
 30
0.0
 11
-109.468556
 21
69.034644
 31
0.0
  0
LINE
  5
103
100
AcDbEntity
  8
2
370
    50
100
AcDbLine
 10
-108.968556
 20
69.534644
 30
0.0
 11
-108.968556
 21
101.534644
 31
0.0
  0
LINE
  5
104
100
AcDbEntity
  8
2
370
    50
100
AcDbLine
 10
-142.268556
 20
69.034644
 30
0.0
 11
-109.468556
 21
69.034644
 31
0.0
  0
LINE
  5
105
100
AcDbEntity
  8
2
370
    50
100
AcDbLine
 10
-142.768556
 20
69.534644
 30
0.0
 11
-142.268556
 21
69.034644
 31
0.0
  0
LINE
  5
106
100
AcDbEntity
  8
2
370
    50
100
AcDbLine
 10
-109.468556
 20
102.034644
 30
0.0
 11
-142.268556
 21
102.034644
 31
0.0
  0
LINE
  5
107
100
AcDbEntity
  8
2
370
    50
100
AcDbLine
 10
-108.968556
 20
101.534644
 30
0.0
 11
-109.468556
 21
102.034644
 31
0.0
  0
LINE
  5
108
100
AcDbEntity
  8
2
370
    50
100
AcDbLine
 10
-142.268556
 20
102.034644
 30
0.0
 11
-142.768556
 21
101.534644
 31
0.0
  0
LINE
  5
109
100
AcDbEntity
  8
2
370
    50
100
AcDbLine
 10
-142.768556
 20
69.534644
 30
0.0
 11
-142.768556
 21
84.834644
 31
0.0
  0
LINE
  5
10A
100
AcDbEntity
  8
2
370
    50
100
AcDbLine
 10
-142.768556
 20
92.234644
 30
0.0
 11
-142.768556
 21
101.534644
 31
0.0
  0
LINE
  5
10B
100
AcDbEntity
  8
2
370
    50
100
AcDbLine
 10
-166.268556
 20
92.034644
 30
0.0
 11
-142.72495
 21
92.034644
 31
0.0
  0
LINE
  5
10C
100
AcDbEntity
  8
2
370
    50
100
AcDbLine
 10
-166.268556
 20
85.034644
 30
0.0
 11
-142.72495
 21
85.034644
 31
0.0
  0
LINE
  5
10D
100
AcDbEntity
  8
2
370
    50
100
AcDbLine
 10
-166.768556
 20
91.534644
 30
0.0
 11
-166.768556
 21
85.534644
 31
0.0
  0
LINE
  5
10E
100
AcDbEntity
  8
2
370
    50
100
AcDbLine
 10
-166.268556
 20
92.034644
 30
0.0
 11
-166.768556
 21
91.534644
 31
0.0
  0
LINE
  5
10F
100
AcDbEntity
  8
2
370
    50
100
AcDbLine
 10
-166.268556
 20
85.034644
 30
0.0
 11
-166.768556
 21
85.534644
 31
0.0
  0
LINE
  5
110
100
AcDbEntity
  8
2
370
    50
100
AcDbLine
 10
-108.968556
 20
101.534644
 30
0.0
 11
-142.768556
 21
101.534644
 31
0.0
  0
LINE
  5
111
100
AcDbEntity
  8
2
370
    50
100
AcDbLine
 10
-108.968556
 20
69.534644
 30
0.0
 11
-142.768556
 21
69.534644
 31
0.0
  0
ARC
  5
112
100
AcDbEntity
  8
2
370
    50
100
AcDbCircle
 10
-159.258553
 20
88.534644
 30
0.0
 40
16.9
100
AcDbArc
 50
347.353517
 51
12.646483
  0
LINE
  5
113
100
AcDbEntity
  8
2
370
    50
100
AcDbLine
 10
-166.268556
 20
92.034644
 30
0.0
 11
-166.268556
 21
85.034644
 31
0.0
  0
POINT
  5
114
100
AcDbEntity
  8
2
370
    50
100
AcDbPoint
 10
-235.712461
 20
11.047499
 30
0.0
  0
POINT
  5
115
100
AcDbEntity
  8
2
370
    50
100
AcDbPoint
 10
-125.868556
 20
-18.065356
 30
0.0
  0
POINT
  5
116
100
AcDbEntity
  8
2
370
    50
100
AcDbPoint
 10
-125.868556
 20
-18.065356
 30
0.0
  0
POINT
  5
117
100
AcDbEntity
  8
2
370
    50
100
AcDbPoint
 10
-222.856709
 20
26.368388
 30
0.0
  0
LINE
  5
118
100
AcDbEntity
  8
2
370
    50
100
AcDbLine
 10
102.210204
 20
-45.565356
 30
0.0
 11
102.210204
 21
-44.065356
 31
0.0
  0
LINE
  5
119
100
AcDbEntity
  8
2
370
    50
100
AcDbLine
 10
119.710204
 20
-45.565356
 30
0.0
 11
102.210204
 21
-45.565356
 31
0.0
  0
LINE
  5
11A
100
AcDbEntity
  8
2
370
    25
100
AcDbLine
 10
110.460204
 20
-74.065356
 30
0.0
 11
110.460204
 21
-54.265356
 31
0.0
  0
LINE
  5
11B
100
AcDbEntity
  8
2
370
    25
100
AcDbLine
 10
110.460204
 20
-44.065356
 30
0.0
 11
110.460204
 21
-31.064964
 31
0.0
  0
LINE
  5
11C
100
AcDbEntity
  8
2
370
    50
100
AcDbLine
 10
109.460204
 20
-44.065356
 30
0.0
 11
109.460204
 21
-31.064964
 31
0.0
  0
LINE
  5
11D
100
AcDbEntity
  8
2
370
    50
100
AcDbLine
 10
107.710204
 20
-54.265356
 30
0.0
 11
119.710204
 21
-54.265356
 31
0.0
  0
LINE
  5
11E
100
AcDbEntity
  8
2
370
    50
100
AcDbLine
 10
105.960204
 20
-53.254993
 30
0.0
 11
105.960204
 21
-47.765356
 31
0.0
  0
LINE
  5
11F
100
AcDbEntity
  8
2
370
    50
100
AcDbLine
 10
107.710204
 20
-54.265356
 30
0.0
 11
105.960204
 21
-53.254993
 31
0.0
  0
LINE
  5
120
100
AcDbEntity
  8
2
370
    50
100
AcDbLine
 10
99.710204
 20
-47.265356
 30
0.0
 11
99.710204
 21
-46.065356
 31
0.0
  0
LINE
  5
121
100
AcDbEntity
  8
2
370
    50
100
AcDbLine
 10
119.710204
 20
-47.765356
 30
0.0
 11
105.389653
 21
-47.765356
 31
0.0
  0
LINE
  5
122
100
AcDbEntity
  8
2
370
    50
100
AcDbLine
 10
99.710204
 20
-46.065356
 30
0.0
 11
119.710204
 21
-46.065356
 31
0.0
  0
LINE
  5
123
100
AcDbEntity
  8
2
370
    50
100
AcDbLine
 10
99.710204
 20
-47.265356
 30
0.0
 11
119.710204
 21
-47.265356
 31
0.0
  0
ARC
  5
124
100
AcDbEntity
  8
2
370
    50
100
AcDbCircle
 10
105.389653
 20
-42.765356
 30
0.0
 40
5.0
100
AcDbArc
 50
246.443536
 51
270.0
  0
ARC
  5
125
100
AcDbEntity
  8
2
370
    50
100
AcDbCircle
 10
105.389653
 20
-50.565356
 30
0.0
 40
5.0
100
AcDbArc
 50
90.0
 51
113.556464
  0
ARC
  5
126
100
AcDbEntity
  8
2
370
    50
100
AcDbCircle
 10
102.991737
 20
-48.265356
 30
0.0
 40
1.0
100
AcDbArc
 50
66.443536
 51
90.0
  0
ARC
  5
127
100
AcDbEntity
  8
2
370
    50
100
AcDbCircle
 10
102.991737
 20
-45.065356
 30
0.0
 40
1.0
100
AcDbArc
 50
270.0
 51
293.556464
  0
LINE
  5
128
100
AcDbEntity
  8
2
370
    50
100
AcDbLine
 10
112.710204
 20
-53.254993
 30
0.0
 11
112.710204
 21
-47.765356
 31
0.0
  0
ARC
  5
129
100
AcDbEntity
  8
2
370
    50
100
AcDbCircle
 10
119.710204
 20
-29.511463
 30
0.0
 40
24.753893
100
AcDbArc
 50
253.573579
 51
270.0
  0
ARC
  5
12A
100
AcDbEntity
  8
2
370
    50
100
AcDbCircle
 10
109.335204
 20
-48.123277
 30
0.0
 40
6.142079
100
AcDbArc
 50
236.668091
 51
303.331909
  0
ARC
  5
12B
100
AcDbEntity
  8
2
370
    50
100
AcDbCircle
 10
119.710204
 20
-31.515356
 30
0.0
 40
16.25
100
AcDbArc
 50
255.749967
 51
270.0
  0
ARC
  5
12C
100
AcDbEntity
  8
2
370
    50
100
AcDbCircle
 10
111.460204
 20
-31.515356
 30
0.0
 40
16.25
100
AcDbArc
 50
255.749967
 51
277.069714
  0
ARC
  5
12D
100
AcDbEntity
  8
2
370
    50
100
AcDbCircle
 10
115.460204
 20
-31.515356
 30
0.0
 40
16.25
100
AcDbArc
 50
255.749967
 51
277.514045
  0
ARC
  5
12E
100
AcDbEntity
  8
2
370
    50
100
AcDbCircle
 10
107.460204
 20
-31.515356
 30
0.0
 40
16.25
100
AcDbArc
 50
270.0
 51
277.069714
  0
ARC
  5
12F
100
AcDbEntity
  8
2
370
    50
100
AcDbCircle
 10
119.710204
 20
-61.815356
 30
0.0
 40
16.25
100
AcDbArc
 50
90.0
 51
104.250033
  0
ARC
  5
130
100
AcDbEntity
  8
2
370
    50
100
AcDbCircle
 10
115.460204
 20
-61.815356
 30
0.0
 40
16.25
100
AcDbArc
 50
82.485955
 51
104.250033
  0
ARC
  5
131
100
AcDbEntity
  8
2
370
    50
100
AcDbCircle
 10
111.460204
 20
-61.815356
 30
0.0
 40
16.25
100
AcDbArc
 50
82.930286
 51
104.250033
  0
ARC
  5
132
100
AcDbEntity
  8
2
370
    50
100
AcDbCircle
 10
107.460204
 20
-61.815356
 30
0.0
 40
16.25
100
AcDbArc
 50
82.930286
 51
90.0
  0
LINE
  5
133
100
AcDbEntity
  8
2
370
    50
100
AcDbLine
 10
108.210204
 20
-86.065356
 30
0.0
 11
119.710204
 21
-86.065356
 31
0.0
  0
ARC
  5
134
100
AcDbEntity
  8
2
370
    50
100
AcDbCircle
 10
121.985204
 20
-80.065356
 30
0.0
 40
15.025
100
AcDbArc
 50
156.463422
 51
203.536578
  0
LINE
  5
135
100
AcDbEntity
  8
2
370
    50
100
AcDbLine
 10
108.210204
 20
-74.065356
 30
0.0
 11
119.710204
 21
-74.065356
 31
0.0
  0
ELLIPSE
  5
136
100
AcDbEntity
  8
2
370
    50
100
AcDbEllipse
 10
109.750911
 20
-80.065356
 30
0.0
 11
0.0
 21
6.0
 31
0.0
210
0.0
220
0.0
230
1.0
 40
0.458833
 41
0.0
 42
6.2831849999999996
  0
ELLIPSE
  5
137
100
AcDbEntity
  8
2
370
    50
100
AcDbEllipse
 10
119.710204
 20
-80.065356
 30
0.0
 11
0.0
 21
6.0
 31
0.0
210
0.0
220
0.0
230
1.0
 40
0.926667
 41
0.0
 42
6.2831849999999996
  0
LINE
  5
138
100
AcDbEntity
  8
2
370
    50
100
AcDbLine
 10
109.460204
 20
-74.065356
 30
0.0
 11
109.460204
 21
-54.265356
 31
0.0
  0
LINE
  5
139
100
AcDbEntity
  8
2
370
    50
100
AcDbLine
 10
137.210204
 20
-45.565356
 30
0.0
 11
137.210204
 21
-44.065356
 31
0.0
  0
LINE
  5
13A
100
AcDbEntity
  8
2
370
    50
100
AcDbLine
 10
119.710204
 20
-45.565356
 30
0.0
 11
137.210204
 21
-45.565356
 31
0.0
  0
LINE
  5
13B
100
AcDbEntity
  8
2
370
    25
100
AcDbLine
 10
128.960204
 20
-74.065356
 30
0.0
 11
128.960204
 21
-54.265356
 31
0.0
  0
LINE
  5
13C
100
AcDbEntity
  8
2
370
    25
100
AcDbLine
 10
128.960204
 20
-44.065356
 30
0.0
 11
128.960204
 21
-31.064964
 31
0.0
  0
LINE
  5
13D
100
AcDbEntity
  8
2
370
    50
100
AcDbLine
 10
129.960204
 20
-44.065356
 30
0.0
 11
129.960204
 21
-31.064964
 31
0.0
  0
LINE
  5
13E
100
AcDbEntity
  8
2
370
    50
100
AcDbLine
 10
131.710204
 20
-54.265356
 30
0.0
 11
119.710204
 21
-54.265356
 31
0.0
  0
LINE
  5
13F
100
AcDbEntity
  8
2
370
    50
100
AcDbLine
 10
133.460204
 20
-53.254993
 30
0.0
 11
133.460204
 21
-47.765356
 31
0.0
  0
LINE
  5
140
100
AcDbEntity
  8
2
370
    50
100
AcDbLine
 10
131.710204
 20
-54.265356
 30
0.0
 11
133.460204
 21
-53.254993
 31
0.0
  0
LINE
  5
141
100
AcDbEntity
  8
2
370
    50
100
AcDbLine
 10
139.710204
 20
-47.265356
 30
0.0
 11
139.710204
 21
-46.065356
 31
0.0
  0
LINE
  5
142
100
AcDbEntity
  8
2
370
    50
100
AcDbLine
 10
119.710204
 20
-47.765356
 30
0.0
 11
134.030754
 21
-47.765356
 31
0.0
  0
LINE
  5
143
100
AcDbEntity
  8
2
370
    50
100
AcDbLine
 10
139.710204
 20
-46.065356
 30
0.0
 11
119.710204
 21
-46.065356
 31
0.0
  0
LINE
  5
144
100
AcDbEntity
  8
2
370
    50
100
AcDbLine
 10
139.710204
 20
-47.265356
 30
0.0
 11
119.710204
 21
-47.265356
 31
0.0
  0
ARC
  5
145
100
AcDbEntity
  8
2
370
    50
100
AcDbCircle
 10
134.030754
 20
-42.765356
 30
0.0
 40
5.0
100
AcDbArc
 50
270.0
 51
293.556464
  0
ARC
  5
146
100
AcDbEntity
  8
2
370
    50
100
AcDbCircle
 10
134.030754
 20
-50.565356
 30
0.0
 40
5.0
100
AcDbArc
 50
66.443536
 51
90.0
  0
ARC
  5
147
100
AcDbEntity
  8
2
370
    50
100
AcDbCircle
 10
136.42867
 20
-48.265356
 30
0.0
 40
1.0
100
AcDbArc
 50
90.0
 51
113.556464
  0
ARC
  5
148
100
AcDbEntity
  8
2
370
    50
100
AcDbCircle
 10
136.42867
 20
-45.065356
 30
0.0
 40
1.0
100
AcDbArc
 50
246.443536
 51
270.0
  0
LINE
  5
149
100
AcDbEntity
  8
2
370
    50
100
AcDbLine
 10
126.710204
 20
-53.254993
 30
0.0
 11
126.710204
 21
-47.765356
 31
0.0
  0
ARC
  5
14A
100
AcDbEntity
  8
2
370
    50
100
AcDbCircle
 10
119.710204
 20
-29.511463
 30
0.0
 40
24.753893
100
AcDbArc
 50
270.0
 51
286.426421
  0
ARC
  5
14B
100
AcDbEntity
  8
2
370
    50
100
AcDbCircle
 10
130.085204
 20
-48.123277
 30
0.0
 40
6.142079
100
AcDbArc
 50
236.668091
 51
303.331909
  0
ARC
  5
14C
100
AcDbEntity
  8
2
370
    50
100
AcDbCircle
 10
119.710204
 20
-31.515356
 30
0.0
 40
16.25
100
AcDbArc
 50
270.0
 51
284.250033
  0
ARC
  5
14D
100
AcDbEntity
  8
2
370
    50
100
AcDbCircle
 10
127.960204
 20
-31.515356
 30
0.0
 40
16.25
100
AcDbArc
 50
262.930286
 51
284.250033
  0
ARC
  5
14E
100
AcDbEntity
  8
2
370
    50
100
AcDbCircle
 10
123.960204
 20
-31.515356
 30
0.0
 40
16.25
100
AcDbArc
 50
262.485955
 51
284.250033
  0
ARC
  5
14F
100
AcDbEntity
  8
2
370
    50
100
AcDbCircle
 10
131.960204
 20
-31.515356
 30
0.0
 40
16.25
100
AcDbArc
 50
262.930286
 51
270.0
  0
ARC
  5
150
100
AcDbEntity
  8
2
370
    50
100
AcDbCircle
 10
119.710204
 20
-61.815356
 30
0.0
 40
16.25
100
AcDbArc
 50
75.749967
 51
90.0
  0
ARC
  5
151
100
AcDbEntity
  8
2
370
    50
100
AcDbCircle
 10
123.960204
 20
-61.815356
 30
0.0
 40
16.25
100
AcDbArc
 50
75.749967
 51
97.514045
  0
ARC
  5
152
100
AcDbEntity
  8
2
370
    50
100
AcDbCircle
 10
127.960204
 20
-61.815356
 30
0.0
 40
16.25
100
AcDbArc
 50
75.749967
 51
97.069714
  0
ARC
  5
153
100
AcDbEntity
  8
2
370
    50
100
AcDbCircle
 10
131.960204
 20
-61.815356
 30
0.0
 40
16.25
100
AcDbArc
 50
90.0
 51
97.069714
  0
LINE
  5
154
100
AcDbEntity
  8
2
370
    50
100
AcDbLine
 10
131.210204
 20
-86.065356
 30
0.0
 11
119.710204
 21
-86.065356
 31
0.0
  0
ARC
  5
155
100
AcDbEntity
  8
2
370
    50
100
AcDbCircle
 10
117.435204
 20
-80.065356
 30
0.0
 40
15.025
100
AcDbArc
 50
336.463422
 51
23.536578
  0
LINE
  5
156
100
AcDbEntity
  8
2
370
    50
100
AcDbLine
 10
131.210204
 20
-74.065356
 30
0.0
 11
119.710204
 21
-74.065356
 31
0.0
  0
ELLIPSE
  5
157
100
AcDbEntity
  8
2
370
    50
100
AcDbEllipse
 10
129.669496
 20
-80.065356
 30
0.0
 11
0.0
 21
6.0
 31
0.0
210
0.0
220
0.0
230
1.0
 40
0.458833
 41
0.0
 42
6.2831849999999996
  0
LINE
  5
158
100
AcDbEntity
  8
2
370
    50
100
AcDbLine
 10
129.960204
 20
-74.065356
 30
0.0
 11
129.960204
 21
-54.265356
 31
0.0
  0
LINE
  5
159
100
AcDbEntity
  8
2
370
    50
100
AcDbLine
 10
137.210204
 20
-44.065356
 30
0.0
 11
102.210204
 21
-44.065356
 31
0.0
  0
LINE
  5
15A
100
AcDbEntity
  8
2
370
    50
100
AcDbLine
 10
98.710204
 20
-23.565356
 30
0.0
 11
140.710204
 21
-23.565356
 31
0.0
  0
LINE
  5
15B
100
AcDbEntity
  8
2
370
    50
100
AcDbLine
 10
102.710204
 20
67.434644
 30
0.0
 11
102.710204
 21
-23.065356
 31
0.0
  0
LINE
  5
15C
100
AcDbEntity
  8
2
370
    50
100
AcDbLine
 10
119.710204
 20
67.934644
 30
0.0
 11
136.210204
 21
67.934644
 31
0.0
  0
LINE
  5
15D
100
AcDbEntity
  8
2
370
    50
100
AcDbLine
 10
136.210204
 20
67.934644
 30
0.0
 11
136.710204
 21
67.434644
 31
0.0
  0
LINE
  5
15E
100
AcDbEntity
  8
2
370
    50
100
AcDbLine
 10
133.710204
 20
67.934644
 30
0.0
 11
133.710204
 21
69.034644
 31
0.0
  0
LINE
  5
15F
100
AcDbEntity
  8
2
370
    50
100
AcDbLine
 10
136.710204
 20
-23.065356
 30
0.0
 11
136.710204
 21
35.934644
 31
0.0
  0
LINE
  5
160
100
AcDbEntity
  8
2
370
    50
100
AcDbLine
 10
136.710204
 20
54.934644
 30
0.0
 11
136.710204
 21
67.434644
 31
0.0
  0
LINE
  5
161
100
AcDbEntity
  8
2
370
    50
100
AcDbLine
 10
102.710204
 20
-23.065356
 30
0.0
 11
103.210204
 21
-23.565356
 31
0.0
  0
LINE
  5
162
100
AcDbEntity
  8
2
370
    50
100
AcDbLine
 10
136.710204
 20
-23.065356
 30
0.0
 11
136.210204
 21
-23.565356
 31
0.0
  0
LINE
  5
163
100
AcDbEntity
  8
2
370
    50
100
AcDbLine
 10
105.710204
 20
67.934644
 30
0.0
 11
105.710204
 21
69.034644
 31
0.0
  0
LINE
  5
164
100
AcDbEntity
  8
2
370
    50
100
AcDbLine
 10
119.710204
 20
67.934644
 30
0.0
 11
103.210204
 21
67.934644
 31
0.0
  0
LINE
  5
165
100
AcDbEntity
  8
2
370
    50
100
AcDbLine
 10
103.210204
 20
67.934644
 30
0.0
 11
102.710204
 21
67.434644
 31
0.0
  0
LINE
  5
166
100
AcDbEntity
  8
2
370
    50
100
AcDbLine
 10
136.710204
 20
54.934644
 30
0.0
 11
186.710638
 21
54.934644
 31
0.0
  0
LINE
  5
167
100
AcDbEntity
  8
2
370
    50
100
AcDbLine
 10
136.710204
 20
35.934644
 30
0.0
 11
186.710638
 21
35.934644
 31
0.0
  0
LINE
  5
168
100
AcDbEntity
  8
2
370
    50
100
AcDbLine
 10
216.969394
 20
40.824754
 30
0.0
 11
223.39727
 21
33.16431
 31
0.0
  0
LINE
  5
169
100
AcDbEntity
  8
2
370
    50
100
AcDbLine
 10
202.41455
 20
28.61179
 30
0.0
 11
208.842426
 21
20.951345
 31
0.0
  0
LINE
  5
16A
100
AcDbEntity
  8
2
370
    25
  6
CENTER
100
AcDbLine
 10
186.710638
 20
45.434644
 30
0.0
 11
119.710204
 21
45.434644
 31
0.0
  0
ARC
  5
16B
100
AcDbEntity
  8
2
370
    25
  6
CENTER
100
AcDbCircle
 10
186.710638
 20
15.434644
 30
0.0
 40
30.0
100
AcDbArc
 50
40.0
 51
90.0
  0
ARC
  5
16C
100
AcDbEntity
  8
2
370
    50
100
AcDbCircle
 10
186.710638
 20
15.434644
 30
0.0
 40
39.5
100
AcDbArc
 50
40.0
 51
90.0
  0
ARC
  5
16D
100
AcDbEntity
  8
2
370
    50
100
AcDbCircle
 10
186.710638
 20
15.434644
 30
0.0
 40
20.5
100
AcDbArc
 50
40.0
 51
90.0
  0
LINE
  5
16E
100
AcDbEntity
  8
2
370
    50
100
AcDbLine
 10
208.842426
 20
20.951345
 30
0.0
 11
216.119848
 21
27.057828
 31
0.0
  0
LINE
  5
16F
100
AcDbEntity
  8
2
370
    50
100
AcDbLine
 10
216.119848
 20
27.057828
 30
0.0
 11
223.39727
 21
33.16431
 31
0.0
  0
LINE
  5
170
100
AcDbEntity
  8
2
370
    50
100
AcDbLine
 10
222.85122
 20
5.423107
 30
0.0
 11
236.256998
 21
16.67189
 31
0.0
  0
LINE
  5
171
100
AcDbEntity
  8
2
370
    50
100
AcDbLine
 10
209.612446
 20
20.422602
 30
0.0
 11
222.146804
 21
5.484736
 31
0.0
  0
LINE
  5
172
100
AcDbEntity
  8
2
370
    50
100
AcDbLine
 10
223.784268
 20
32.314173
 30
0.0
 11
236.318626
 21
17.376306
 31
0.0
  0
ARC
  5
173
100
AcDbEntity
  8
2
370
    50
100
AcDbCircle
 10
235.935604
 20
17.054913
 30
0.0
 40
0.5
100
AcDbArc
 50
310.0
 51
40.0
  0
LINE
  5
174
100
AcDbEntity
  8
2
370
    50
100
AcDbLine
 10
209.612446
 20
20.422602
 30
0.0
 11
216.698357
 21
26.368388
 31
0.0
  0
LINE
  5
175
100
AcDbEntity
  8
2
370
    50
100
AcDbLine
 10
216.698357
 20
26.368388
 30
0.0
 11
223.784268
 21
32.314173
 31
0.0
  0
LINE
  5
176
100
AcDbEntity
  8
2
370
    50
100
AcDbLine
 10
210.31644
 20
21.013324
 30
0.0
 11
210.059325
 21
21.319742
 31
0.0
  0
LINE
  5
177
100
AcDbEntity
  8
2
370
    50
100
AcDbLine
 10
209.163819
 20
20.568323
 30
0.0
 11
216.441242
 21
26.674805
 31
0.0
  0
LINE
  5
178
100
AcDbEntity
  8
2
370
    50
100
AcDbLine
 10
222.823158
 20
32.029869
 30
0.0
 11
223.080273
 21
31.723451
 31
0.0
  0
LINE
  5
179
100
AcDbEntity
  8
2
370
    50
100
AcDbLine
 10
216.441242
 20
26.674805
 30
0.0
 11
223.718664
 21
32.781288
 31
0.0
  0
LINE
  5
17A
100
AcDbEntity
  8
2
370
    50
100
AcDbLine
 10
223.39727
 20
33.16431
 30
0.0
 11
223.718664
 21
32.781288
 31
0.0
  0
LINE
  5
17B
100
AcDbEntity
  8
2
370
    50
100
AcDbLine
 10
208.842426
 20
20.951345
 30
0.0
 11
209.163819
 21
20.568323
 31
0.0
  0
LINE
  5
17C
100
AcDbEntity
  8
2
370
    50
100
AcDbLine
 10
208.842426
 20
20.951345
 30
0.0
 11
209.416959
 21
21.433436
 31
0.0
  0
LINE
  5
17D
100
AcDbEntity
  8
2
370
    50
100
AcDbLine
 10
223.39727
 20
33.16431
 30
0.0
 11
222.822737
 21
32.682219
 31
0.0
  0
LINE
  5
17E
100
AcDbEntity
  8
2
370
    25
  6
CENTER
100
AcDbLine
 10
209.691972
 20
34.718272
 30
0.0
 11
231.05717
 21
9.256221
 31
0.0
  0
ARC
  5
17F
100
AcDbEntity
  8
2
370
    25
100
AcDbCircle
 10
143.235204
 20
45.434644
 30
0.0
 40
11.525
100
AcDbArc
 50
124.482919
 51
235.517081
  0
LINE
  5
180
100
AcDbEntity
  8
2
370
    25
100
AcDbLine
 10
136.710204
 20
67.434644
 30
0.0
 11
102.710204
 21
67.434644
 31
0.0
  0
LINE
  5
181
100
AcDbEntity
  8
2
370
    50
100
AcDbLine
 10
139.210204
 20
-29.065356
 30
0.0
 11
139.210204
 21
-31.065356
 31
0.0
  0
LINE
  5
182
100
AcDbEntity
  8
2
370
    50
100
AcDbLine
 10
139.210204
 20
-31.065356
 30
0.0
 11
119.710204
 21
-31.065356
 31
0.0
  0
LINE
  5
183
100
AcDbEntity
  8
2
370
    50
100
AcDbLine
 10
140.710204
 20
-29.065356
 30
0.0
 11
119.710204
 21
-29.065356
 31
0.0
  0
LINE
  5
184
100
AcDbEntity
  8
2
370
    50
100
AcDbLine
 10
141.210204
 20
-28.565356
 30
0.0
 11
140.710204
 21
-29.065356
 31
0.0
  0
LINE
  5
185
100
AcDbEntity
  8
2
370
    50
100
AcDbLine
 10
141.210204
 20
-24.065356
 30
0.0
 11
141.210204
 21
-28.565356
 31
0.0
  0
LINE
  5
186
100
AcDbEntity
  8
2
370
    50
100
AcDbLine
 10
140.710204
 20
-23.565356
 30
0.0
 11
141.210204
 21
-24.065356
 31
0.0
  0
LINE
  5
187
100
AcDbEntity
  8
2
370
    50
100
AcDbLine
 10
98.710204
 20
-23.565356
 30
0.0
 11
98.210204
 21
-24.065356
 31
0.0
  0
LINE
  5
188
100
AcDbEntity
  8
2
370
    50
100
AcDbLine
 10
98.210204
 20
-24.065356
 30
0.0
 11
98.210204
 21
-28.565356
 31
0.0
  0
LINE
  5
189
100
AcDbEntity
  8
2
370
    50
100
AcDbLine
 10
98.210204
 20
-28.565356
 30
0.0
 11
98.710204
 21
-29.065356
 31
0.0
  0
LINE
  5
18A
100
AcDbEntity
  8
2
370
    50
100
AcDbLine
 10
98.710204
 20
-29.065356
 30
0.0
 11
119.710204
 21
-29.065356
 31
0.0
  0
LINE
  5
18B
100
AcDbEntity
  8
2
370
    50
100
AcDbLine
 10
100.210204
 20
-29.065356
 30
0.0
 11
100.210204
 21
-31.065356
 31
0.0
  0
LINE
  5
18C
100
AcDbEntity
  8
2
370
    50
100
AcDbLine
 10
100.210204
 20
-31.065356
 30
0.0
 11
119.710204
 21
-31.065356
 31
0.0
  0
LINE
  5
18D
100
AcDbEntity
  8
2
370
    25
100
AcDbLine
 10
136.710204
 20
-23.065356
 30
0.0
 11
102.710204
 21
-23.065356
 31
0.0
  0
LINE
  5
18E
100
AcDbEntity
  8
2
370
    25
100
AcDbLine
 10
98.210204
 20
-24.065356
 30
0.0
 11
141.210204
 21
-24.065356
 31
0.0
  0
LINE
  5
18F
100
AcDbEntity
  8
2
370
    25
100
AcDbLine
 10
141.210204
 20
-28.565356
 30
0.0
 11
98.210204
 21
-28.565356
 31
0.0
  0
LINE
  5
190
100
AcDbEntity
  8
2
370
    25
  6
CENTER
100
AcDbLine
 10
119.710204
 20
-87.78338
 30
0.0
 11
119.710204
 21
105.428276
 31
0.0
  0
ARC
  5
191
100
AcDbEntity
  8
2
370
    50
100
AcDbCircle
 10
222.529826
 20
5.806129
 30
0.0
 40
0.5
100
AcDbArc
 50
220.0
 51
310.0
  0
HATCH
  5
192
100
AcDbEntity
  8
2
370
    25
100
AcDbHatch
 10
0.0
 20
0.0
 30
0.0
210
0.0
220
0.0
230
1.0
  2
_U
 70
     0
 71
     1
 91
        1
 92
        1
 93
        6
 72
     1
 10
100.210204
 20
-31.065356000000001
 11
100.210204
 21
-29.065356000000001
 72
     1
 10
100.210204
 20
-29.065356000000001
 11
119.710204
 21
-29.065356000000001
 72
     1
 10
119.710204
 20
-29.065356000000001
 11
139.210204
 21
-29.065356000000001
 72
     1
 10
139.210204
 20
-29.065356000000001
 11
139.210204
 21
-31.065356000000001
 72
     1
 10
139.210204
 20
-31.065356000000001
 11
119.710204
 21
-31.065356000000001
 72
     1
 10
119.710204
 20
-31.065356000000001
 11
100.210204
 21
-31.065356000000001
 97
        6
330
0
330
0
330
0
330
0
330
0
330
0
 75
     0
 76
     0
 52
45.0
 41
1.0
 77
     0
 78
     1
 53
45.0
 43
0.0
 44
0.0
 45
-1.4142140000000001
 46
1.4142140000000001
 79
     0
 98
        1
 10
0.0
 20
0.0
  0
HATCH
  5
193
100
AcDbEntity
  8
2
370
    25
100
AcDbHatch
 10
0.0
 20
0.0
 30
0.0
210
0.0
220
0.0
230
1.0
  2
_U
 70
     0
 71
     1
 91
        1
 92
        1
 93
        5
 72
     1
 10
102.210204
 20
-44.065356000000001
 11
102.210204
 21
-45.565356000000001
 72
     1
 10
102.210204
 20
-45.565356000000001
 11
119.710204
 21
-45.565356000000001
 72
     1
 10
119.710204
 20
-45.565356000000001
 11
137.210204
 21
-45.565356000000001
 72
     1
 10
137.210204
 20
-45.565356000000001
 11
137.210204
 21
-44.065356000000001
 72
     1
 10
137.210204
 20
-44.065356000000001
 11
102.210204
 21
-44.065356000000001
 97
        5
330
0
330
0
330
0
330
0
330
0
 75
     0
 76
     0
 52
45.0
 41
1.0
 77
     0
 78
     1
 53
45.0
 43
0.0
 44
0.0
 45
-1.4142140000000001
 46
1.4142140000000001
 79
     0
 98
        1
 10
0.0
 20
0.0
  0
LINE
  5
194
100
AcDbEntity
  8
2
370
    50
100
AcDbLine
 10
102.810204
 20
69.534644
 30
0.0
 11
103.310204
 21
69.034644
 31
0.0
  0
LINE
  5
195
100
AcDbEntity
  8
2
370
    50
100
AcDbLine
 10
102.810204
 20
69.534644
 30
0.0
 11
102.810204
 21
101.534644
 31
0.0
  0
LINE
  5
196
100
AcDbEntity
  8
2
370
    50
100
AcDbLine
 10
136.110204
 20
69.034644
 30
0.0
 11
103.310204
 21
69.034644
 31
0.0
  0
LINE
  5
197
100
AcDbEntity
  8
2
370
    50
100
AcDbLine
 10
136.610204
 20
69.534644
 30
0.0
 11
136.110204
 21
69.034644
 31
0.0
  0
LINE
  5
198
100
AcDbEntity
  8
2
370
    50
100
AcDbLine
 10
103.310204
 20
102.034644
 30
0.0
 11
136.110204
 21
102.034644
 31
0.0
  0
LINE
  5
199
100
AcDbEntity
  8
2
370
    50
100
AcDbLine
 10
102.810204
 20
101.534644
 30
0.0
 11
103.310204
 21
102.034644
 31
0.0
  0
LINE
  5
19A
100
AcDbEntity
  8
2
370
    50
100
AcDbLine
 10
136.110204
 20
102.034644
 30
0.0
 11
136.610204
 21
101.534644
 31
0.0
  0
LINE
  5
19B
100
AcDbEntity
  8
2
370
    50
100
AcDbLine
 10
136.610204
 20
69.534644
 30
0.0
 11
136.610204
 21
84.834644
 31
0.0
  0
LINE
  5
19C
100
AcDbEntity
  8
2
370
    50
100
AcDbLine
 10
136.610204
 20
92.234644
 30
0.0
 11
136.610204
 21
101.534644
 31
0.0
  0
LINE
  5
19D
100
AcDbEntity
  8
2
370
    50
100
AcDbLine
 10
160.110204
 20
92.034644
 30
0.0
 11
136.566598
 21
92.034644
 31
0.0
  0
LINE
  5
19E
100
AcDbEntity
  8
2
370
    50
100
AcDbLine
 10
160.110204
 20
85.034644
 30
0.0
 11
136.566598
 21
85.034644
 31
0.0
  0
LINE
  5
19F
100
AcDbEntity
  8
2
370
    50
100
AcDbLine
 10
160.610204
 20
91.534644
 30
0.0
 11
160.610204
 21
85.534644
 31
0.0
  0
LINE
  5
1A0
100
AcDbEntity
  8
2
370
    50
100
AcDbLine
 10
160.110204
 20
92.034644
 30
0.0
 11
160.610204
 21
91.534644
 31
0.0
  0
LINE
  5
1A1
100
AcDbEntity
  8
2
370
    50
100
AcDbLine
 10
160.110204
 20
85.034644
 30
0.0
 11
160.610204
 21
85.534644
 31
0.0
  0
LINE
  5
1A2
100
AcDbEntity
  8
2
370
    50
100
AcDbLine
 10
102.810204
 20
101.534644
 30
0.0
 11
136.610204
 21
101.534644
 31
0.0
  0
LINE
  5
1A3
100
AcDbEntity
  8
2
370
    50
100
AcDbLine
 10
102.810204
 20
69.534644
 30
0.0
 11
136.610204
 21
69.534644
 31
0.0
  0
ARC
  5
1A4
100
AcDbEntity
  8
2
370
    50
100
AcDbCircle
 10
153.100201
 20
88.534644
 30
0.0
 40
16.9
100
AcDbArc
 50
167.353517
 51
192.646483
  0
LINE
  5
1A5
100
AcDbEntity
  8
2
370
    50
100
AcDbLine
 10
160.110204
 20
92.034644
 30
0.0
 11
160.110204
 21
85.034644
 31
0.0
  0
POINT
  5
1A6
100
AcDbEntity
  8
2
370
    50
100
AcDbPoint
 10
229.554109
 20
11.047499
 30
0.0
  0
POINT
  5
1A7
100
AcDbEntity
  8
2
370
    50
100
AcDbPoint
 10
119.710204
 20
-18.065356
 30
0.0
  0
POINT
  5
1A8
100
AcDbEntity
  8
2
370
    50
100
AcDbPoint
 10
216.698357
 20
26.368388
 30
0.0
  0
TEXT
  5
1A9
100
AcDbEntity
  8
3
370
    50
100
AcDbText
 10
65.574945
 20
-227.817829
 30
0.0
 40
7.0
  1
立水栓　
 72
     5
 11
85.174945
 21
-227.817829
 31
0.0
100
AcDbText
  0
TEXT
  5
1AA
100
AcDbEntity
  8
3
370
    50
100
AcDbText
 10
226.850147
 20
-272.76662
 30
0.0
 40
7.0
  1
外観寸法図
 72
     5
 11
260.450147
 21
-272.76662
 31
0.0
100
AcDbText
  0
TEXT
  5
1AB
100
AcDbEntity
  8
3
370
    50
100
AcDbText
 10
165.431879
 20
256.034291
 30
0.0
 40
4.0
  1
１
 72
     5
 11
168.631879
 21
256.034291
 31
0.0
100
AcDbText
  0
TEXT
  5
1AC
100
AcDbEntity
  8
3
370
    50
100
AcDbText
 10
161.299322
 20
253.58054
 30
0.0
 40
12.0
  1
△
 72
     5
 11
170.899322
 21
253.58054
 31
0.0
100
AcDbText
  0
TEXT
  5
1AD
100
AcDbEntity
  8
3
370
    50
100
AcDbText
 10
182.871204
 20
256.411076
 30
0.0
 40
6.0
  1
０８　　５　３０
 72
     5
 11
229.671204
 21
256.411076
 31
0.0
100
AcDbText
  0
TEXT
  5
1AE
100
AcDbEntity
  8
3
370
    50
100
AcDbText
 10
304.183347
 20
255.834126
 30
0.0
 40
5.7
  1
ハンドル位置の明記
 72
     5
 11
354.343347
 21
255.834126
 31
0.0
100
AcDbText
  0
TEXT
  5
1AF
100
AcDbEntity
  8
3
370
    50
100
AcDbText
 10
169.416489
 20
247.048077
 30
0.0
 40
12.0
  1
△
 72
     5
 11
179.016489
 21
247.048077
 31
0.0
100
AcDbText
  0
TEXT
  5
1B0
100
AcDbEntity
  8
3
370
    50
100
AcDbText
 10
183.048782
 20
248.830551
 30
0.0
 40
6.0
  1
０８　　６　２１
 72
     5
 11
229.848782
 21
248.830551
 31
0.0
100
AcDbText
  0
TEXT
  5
1B1
100
AcDbEntity
  8
3
370
    50
100
AcDbText
 10
235.248783
 20
248.830551
 30
0.0
 40
5.7
  1
新ＪＩＳへの移行の為
 72
     5
 11
291.108783
 21
248.830551
 31
0.0
100
AcDbText
  0
TEXT
  5
1B2
100
AcDbEntity
  8
3
370
    50
100
AcDbText
 10
305.248784
 20
248.830551
 30
0.0
 40
5.7
  1
新ＪＩＳミズタニシールへ変更
 41
0.75
 72
     5
 11
364.243784
 21
248.830551
 31
0.0
100
AcDbText
  0
TEXT
  5
1B3
100
AcDbEntity
  8
3
370
    50
100
AcDbText
 10
173.410721
 20
249.532018
 30
0.0
 40
4.0
  1
２
 72
     5
 11
176.610721
 21
249.532018
 31
0.0
100
AcDbText
  0
TEXT
  5
1B4
100
AcDbEntity
  8
3
370
    50
100
AcDbText
 10
290.832582
 20
-240.013492
 30
0.0
 40
6.0
  1
１　２
 72
     5
 11
307.632582
 21
-240.013492
 31
0.0
100
AcDbText
  0
TEXT
  5
1B5
100
AcDbEntity
  8
3
370
    50
100
AcDbText
 10
345.098131
 20
-256.100293
 30
0.0
 40
6.0
  1
０８　　２　１９
 72
     5
 11
391.898131
 21
-256.100293
 31
0.0
100
AcDbText
  0
TEXT
  5
1B6
100
AcDbEntity
  8
3
370
    50
100
AcDbText
 10
160.58296
 20
239.017801
 30
0.0
 40
12.0
  1
△
 72
     5
 11
170.18296
 21
239.017801
 31
0.0
100
AcDbText
  0
TEXT
  5
1B7
100
AcDbEntity
  8
3
370
    50
100
AcDbText
 10
304.264038
 20
241.897943
 30
0.0
 40
5.7
  1
ハンドル仕様変更
 72
     5
 11
348.724038
 21
241.897943
 31
0.0
100
AcDbText
  0
TEXT
  5
1B8
100
AcDbEntity
  8
3
370
    50
100
AcDbText
 10
234.963394
 20
241.633585
 30
0.0
 40
5.7
  1
不具合対策ノ為
 72
     5
 11
273.723394
 21
241.633585
 31
0.0
100
AcDbText
  0
TEXT
  5
1B9
100
AcDbEntity
  8
3
370
    50
100
AcDbText
 10
164.531202
 20
241.400522
 30
0.0
 40
4.0
  1
３
 72
     5
 11
167.731202
 21
241.400522
 31
0.0
100
AcDbText
  0
TEXT
  5
1BA
100
AcDbEntity
  8
3
370
    50
100
AcDbText
 10
234.943226
 20
234.186325
 30
0.0
 40
5.7
  1
外観品質向上の為
 72
     5
 11
279.403226
 21
234.186325
 31
0.0
100
AcDbText
  0
TEXT
  5
1BB
100
AcDbEntity
  8
3
370
    50
100
AcDbText
 10
304.24054
 20
237.671875
 30
0.0
 40
4.4
  1
Ｏリング　ＪＡＳＯ１０１２　ＥＰＤＭ
 41
0.75
 72
     5
 11
362.98054
 21
237.671875
 31
0.0
100
AcDbText
  0
TEXT
  5
1BC
100
AcDbEntity
  8
3
370
    50
100
AcDbText
 10
303.892426
 20
233.892746
 30
0.0
 40
4.4
  1
→Ｏリング Ｓ12.5 Ｅ7-512へ変更
 41
0.75
 72
     5
 11
354.382426
 21
233.892746
 31
0.0
100
AcDbText
  0
TEXT
  5
1BD
100
AcDbEntity
  8
3
370
    50
100
AcDbText
 10
182.52652
 20
234.743927
 30
0.0
 40
6.0
  1
１０　１１　２９
 72
     5
 11
229.32652
 21
234.743927
 31
0.0
100
AcDbText
  0
TEXT
  5
1BE
100
AcDbEntity
  8
3
370
    50
100
AcDbText
 10
173.028412
 20
234.829559
 30
0.0
 40
4.0
  1
４
 72
     5
 11
176.228412
 21
234.829559
 31
0.0
100
AcDbText
  0
POINT
  5
1BF
100
AcDbEntity
  8
3
370
    50
100
AcDbPoint
 10
394.982385
 20
-277.971881
 30
0.0
  0
TEXT
  5
1C0
100
AcDbEntity
  8
3
370
    50
100
AcDbText
 10
169.458723
 20
231.949487
 30
0.0
 40
12.0
  1
△
 72
     5
 11
179.058723
 21
231.949487
 31
0.0
100
AcDbText
  0
TEXT
  5
1C1
100
AcDbEntity
  8
3
370
    50
100
AcDbText
 10
182.707199
 20
242.148935
 30
0.0
 40
6.0
  1
０９　　６　２５
 72
     5
 11
229.507199
 21
242.148935
 31
0.0
100
AcDbText
  0
TEXT
  5
1C2
100
AcDbEntity
  8
3
370
    50
100
AcDbText
 10
164.315069
 20
220.460667
 30
0.0
 40
12.0
  1
△
 72
     5
 11
173.915069
 21
220.460667
 31
0.0
100
AcDbText
  0
TEXT
  5
1C3
100
AcDbEntity
  8
3
370
    50
100
AcDbText
 10
168.030862
 20
223.09966
 30
0.0
 40
4.0
  1
５
 72
     5
 11
171.230862
 21
223.09966
 31
0.0
100
AcDbText
  0
TEXT
  5
1C4
100
AcDbEntity
  8
3
370
    50
100
AcDbText
 10
183.044373
 20
222.974976
 30
0.0
 40
6.0
  1
１２　１０　　４
 72
     5
 11
229.844373
 21
222.974976
 31
0.0
100
AcDbText
  0
TEXT
  5
1C5
100
AcDbEntity
  8
3
370
    50
100
AcDbText
 10
234.625599
 20
222.591461
 30
0.0
 40
5.7
  1
製造メーカー識別の為
 72
     5
 11
290.485599
 21
222.591461
 31
0.0
100
AcDbText
  0
LINE
  5
1C6
100
AcDbEntity
  8
3
370
    50
100
AcDbLine
 10
106.710204
 20
-8.065356
 30
0.0
 11
106.710204
 21
-16.065356
 31
0.0
  0
LINE
  5
1C7
100
AcDbEntity
  8
3
370
    50
100
AcDbLine
 10
132.710204
 20
-8.065356
 30
0.0
 11
132.710204
 21
-16.065356
 31
0.0
  0
LINE
  5
1C8
100
AcDbEntity
  8
3
370
    50
100
AcDbLine
 10
108.710204
 20
-6.065356
 30
0.0
 11
130.710204
 21
-6.065356
 31
0.0
  0
LINE
  5
1C9
100
AcDbEntity
  8
3
370
    50
100
AcDbLine
 10
108.710204
 20
-18.065356
 30
0.0
 11
130.710204
 21
-18.065356
 31
0.0
  0
TEXT
  5
1CA
100
AcDbEntity
  8
3
370
    50
100
AcDbText
 10
150.848471
 20
-23.397122
 30
0.0
 40
7.0
  1
（製品コードＮＯ及び
 72
     5
 11
219.448471
 21
-23.397122
 31
0.0
100
AcDbText
  0
TEXT
  5
1CB
100
AcDbEntity
  8
3
370
    50
100
AcDbText
 10
150.848471
 20
-34.497122
 30
0.0
 40
7.0
  1
　ロットＮＯの表示）
 72
     5
 11
219.448471
 21
-34.497122
 31
0.0
100
AcDbText
  0
TEXT
  5
1CC
100
AcDbEntity
  8
3
370
    50
100
AcDbText
 10
-112.466175
 20
107.38881
 30
0.0
 40
12.0
  1
△
 72
     5
 11
-102.866175
 21
107.38881
 31
0.0
100
AcDbText
  0
TEXT
  5
1CD
100
AcDbEntity
  8
3
370
    50
100
AcDbText
 10
-108.517933
 20
109.771531
 30
0.0
 40
4.0
  1
３
 72
     5
 11
-105.317933
 21
109.771531
 31
0.0
100
AcDbText
  0
DIMENSION
  5
1CE
100
AcDbEntity
  8
3
370
    25
100
AcDbDimension
  2
*D0
 10
-73.021744
 20
102.034644
 30
0.0
 11
-84.521744
 21
32.984644
 31
0.0
 71
     0
 72
     0
 41
0.0
 42
0.0
  3
Standard
100
AcDbAlignedDimension
 13
-104.868556
 23
-29.065356
 33
0.0
 14
-109.468556
 24
102.034644
 34
0.0
 50
90.0
100
AcDbRotatedDimension
  0
TEXT
  5
1CF
100
AcDbEntity
  8
3
370
    50
100
AcDbText
 10
-36.401024
 20
-22.757145
 30
0.0
 40
7.0
  1
取付穴径　φ２２～２６
 50
90.0
 72
     5
 11
-36.401024
 21
52.842855
 31
0.0
100
AcDbText
  0
TEXT
  5
1D0
100
AcDbEntity
  8
3
370
    50
100
AcDbText
 10
-45.974586
 20
-23.065356
 30
0.0
 40
7.0
  1
天板厚サ　０～３０ｍｍ
 50
90.0
 72
     5
 11
-45.974586
 21
52.534644
 31
0.0
100
AcDbText
  0
DIMENSION
  5
1D1
100
AcDbEntity
  8
3
370
    25
100
AcDbDimension
  2
*D1
 10
-44.974586
 20
-31.065356
 30
0.0
 11
-47.474586
 21
11.434644
 31
0.0
 71
     0
 72
     0
 41
0.0
 42
0.0
  3
Standard
100
AcDbAlignedDimension
 13
-108.368556
 23
-44.065356
 33
0.0
 14
-106.368556
 24
-31.065356
 34
0.0
 50
90.0
100
AcDbRotatedDimension
  0
TEXT
  5
1D2
100
AcDbEntity
  8
3
370
    50
100
AcDbText
 10
-95.889746
 20
-71.362767
 30
0.0
 40
7.0
  1
ＰＪ１／２
 72
     5
 11
-62.289746
 21
-71.362767
 31
0.0
100
AcDbText
  0
LWPOLYLINE
  5
1D3
100
AcDbEntity
  8
3
370
    25
100
AcDbPolyline
 90
        3
 70
     0
 10
-115.618556
 20
-64.058438
 10
-96.542296
 20
-72.145367
 10
-62.218886
 20
-72.145367
  0
LINE
  5
1D8
100
AcDbEntity
  8
3
370
    25
100
AcDbLine
 10
-112.061297
 20
-65.566454
 30
0.0
 11
-111.657225
 21
-64.613289
 31
0.0
  0
LINE
  5
1D9
100
AcDbEntity
  8
3
370
    25
100
AcDbLine
 10
-111.657225
 20
-64.613289
 30
0.0
 11
-115.618556
 21
-64.058438
 31
0.0
  0
LINE
  5
1DA
100
AcDbEntity
  8
3
370
    25
100
AcDbLine
 10
-115.618556
 20
-64.058438
 30
0.0
 11
-112.465368
 21
-66.519619
 31
0.0
  0
LINE
  5
1DB
100
AcDbEntity
  8
3
370
    25
100
AcDbLine
 10
-112.465368
 20
-66.519619
 30
0.0
 11
-112.061297
 21
-65.566454
 31
0.0
  0
DIMENSION
  5
1DC
100
AcDbEntity
  8
3
370
    25
100
AcDbDimension
  2
*D2
 10
-125.868556
 20
-70.573978
 30
0.0
 11
-180.854787
 21
-66.073978
 31
0.0
 71
     0
 72
     0
 41
0.0
 42
0.0
  3
Standard
100
AcDbAlignedDimension
 13
-235.841018
 23
10.89429
 33
0.0
 14
-125.868556
 24
-68.686451
 34
0.0
100
AcDbRotatedDimension
  0
TEXT
  5
1DD
100
AcDbEntity
  8
3
370
    50
100
AcDbText
 10
-183.173392
 20
-59.054669
 30
0.0
 40
7.0
  1
２４六角
 72
     5
 11
-156.573392
 21
-59.054669
 31
0.0
100
AcDbText
  0
LWPOLYLINE
  5
1DE
100
AcDbEntity
  8
3
370
    25
100
AcDbPolyline
 90
        2
 70
     0
 10
-138.034041
 20
-50.747906
 10
-153.940291
 20
-55.330914
  0
LINE
  5
1E2
100
AcDbEntity
  8
3
370
    25
100
AcDbLine
 10
-141.746709
 20
-51.817624
 30
0.0
 11
-141.460079
 21
-52.81243
 31
0.0
  0
LINE
  5
1E3
100
AcDbEntity
  8
3
370
    25
100
AcDbLine
 10
-141.460079
 20
-52.81243
 30
0.0
 11
-138.034041
 21
-50.747906
 31
0.0
  0
LINE
  5
1E4
100
AcDbEntity
  8
3
370
    25
100
AcDbLine
 10
-138.034041
 20
-50.747906
 30
0.0
 11
-142.033339
 21
-50.822817
 31
0.0
  0
LINE
  5
1E5
100
AcDbEntity
  8
3
370
    25
100
AcDbLine
 10
-142.033339
 20
-50.822817
 30
0.0
 11
-141.746709
 21
-51.817624
 31
0.0
  0
TEXT
  5
1E6
100
AcDbEntity
  8
3
370
    50
100
AcDbText
 10
-177.871306
 20
-93.925778
 30
0.0
 40
7.0
  1
２３六角
 72
     5
 11
-151.271306
 21
-93.925778
 31
0.0
100
AcDbText
  0
LWPOLYLINE
  5
1E7
100
AcDbEntity
  8
3
370
    25
100
AcDbPolyline
 90
        2
 70
     0
 10
-136.314406
 20
-80.60629
 10
-149.068144
 20
-90.345257
  0
LINE
  5
1EB
100
AcDbEntity
  8
3
370
    25
100
AcDbLine
 10
-139.385182
 20
-82.951186
 30
0.0
 11
-138.756869
 21
-83.773998
 31
0.0
  0
LINE
  5
1EC
100
AcDbEntity
  8
3
370
    25
100
AcDbLine
 10
-138.756869
 20
-83.773998
 30
0.0
 11
-136.314406
 21
-80.60629
 31
0.0
  0
LINE
  5
1ED
100
AcDbEntity
  8
3
370
    25
100
AcDbLine
 10
-136.314406
 20
-80.60629
 30
0.0
 11
-140.013495
 21
-82.128374
 31
0.0
  0
LINE
  5
1EE
100
AcDbEntity
  8
3
370
    25
100
AcDbLine
 10
-140.013495
 20
-82.128374
 30
0.0
 11
-139.385182
 21
-82.951186
 31
0.0
  0
DIMENSION
  5
1EF
100
AcDbEntity
  8
3
370
    25
100
AcDbDimension
  2
*D3
 10
-266.811043
 20
10.89429
 30
0.0
 11
-269.311043
 21
-9.085533
 31
0.0
 71
     0
 72
     0
 41
0.0
 42
0.0
  3
Standard
100
AcDbAlignedDimension
 13
-146.868556
 23
-29.065356
 33
0.0
 14
-235.841018
 24
10.89429
 34
0.0
 50
90.0
100
AcDbRotatedDimension
  0
TEXT
  5
1F0
100
AcDbEntity
  8
3
370
    50
100
AcDbText
 10
-267.811043
 20
-16.085533
 30
0.0
 40
7.0
  1
４０
 50
90.0
 72
     5
 11
-267.811043
 21
-3.485533
 31
0.0
100
AcDbText
  0
DIMENSION
  5
1F1
100
AcDbEntity
  8
3
370
    25
100
AcDbDimension
  2
*D4
 10
-235.841018
 20
10.891181
 30
0.0
 11
-236.266344
 21
-20.974228
 31
0.0
 70
     2
 71
     0
 72
     0
 41
0.0
 42
0.0
  3
Standard
100
AcDb2LineAngularDimension
 13
-235.843017
 23
10.891908
 33
0.0
 14
-235.841018
 24
10.89429
 34
0.0
 15
-235.841018
 25
10.89429
 35
0.0
 16
-246.475136
 26
-18.322709
 36
0.0
1001
ACAD
1000
DSTYLE
1002
{
1070
   275
1070
     0
1070
   179
1070
     0
1002
}
  0
TEXT
  5
1F2
100
AcDbEntity
  8
3
370
    50
100
AcDbText
 10
-198.672588
 20
-19.114399
 30
0.0
 40
7.0
  1
（商標表示）
 72
     5
 11
-158.072588
 21
-19.114399
 31
0.0
100
AcDbText
  0
TEXT
  5
1F3
100
AcDbEntity
  8
3
370
    50
100
AcDbText
 10
-204.178438
 20
-10.343745
 30
0.0
 40
12.0
  1
△
 72
     5
 11
-194.578438
 21
-10.343745
 31
0.0
100
AcDbText
  0
TEXT
  5
1F4
100
AcDbEntity
  8
3
370
    50
100
AcDbText
 10
-200.184206
 20
-7.859804
 30
0.0
 40
4.0
  1
２
 72
     5
 11
-196.984206
 21
-7.859804
 31
0.0
100
AcDbText
  0
TEXT
  5
1F5
100
AcDbEntity
  8
3
370
    50
100
AcDbText
 10
-216.851072
 20
9.687671
 30
0.0
 40
14.0
  1
△
 72
     5
 11
-205.651072
 21
9.687671
 31
0.0
100
AcDbText
  0
TEXT
  5
1F6
100
AcDbEntity
  8
3
370
    50
100
AcDbText
 10
-212.253324
 20
12.905612
 30
0.0
 40
4.0
  1
４
 72
     5
 11
-209.053324
 21
12.905612
 31
0.0
100
AcDbText
  0
DIMENSION
  5
1F7
100
AcDbEntity
  8
3
370
    25
100
AcDbDimension
  2
*D5
 10
-147.368556
 20
8.277107
 30
0.0
 11
-165.868556
 21
12.777107
 31
0.0
 70
     1
 71
     0
 72
     0
 41
0.0
 42
0.0
  3
Standard
100
AcDbAlignedDimension
 13
-104.368556
 23
-24.065356
 33
0.0
 14
-147.368556
 24
-24.065356
 34
0.0
  0
LINE
  5
1F8
100
AcDbEntity
  8
3
370
    25
100
AcDbLine
 10
-131.368556
 20
-18.065356
 30
0.0
 11
-125.868556
 21
-12.565356
 31
0.0
  0
LINE
  5
1F9
100
AcDbEntity
  8
3
370
    25
100
AcDbLine
 10
-129.954342
 20
-18.065356
 30
0.0
 11
-124.454342
 21
-12.565356
 31
0.0
  0
LINE
  5
1FA
100
AcDbEntity
  8
3
370
    25
100
AcDbLine
 10
-128.540128
 20
-18.065356
 30
0.0
 11
-123.040128
 21
-12.565356
 31
0.0
  0
LINE
  5
1FB
100
AcDbEntity
  8
3
370
    25
100
AcDbLine
 10
-127.125915
 20
-18.065356
 30
0.0
 11
-121.625915
 21
-12.565356
 31
0.0
  0
LINE
  5
1FC
100
AcDbEntity
  8
3
370
    25
100
AcDbLine
 10
-125.711701
 20
-18.065356
 30
0.0
 11
-120.211701
 21
-12.565356
 31
0.0
  0
LINE
  5
1FD
100
AcDbEntity
  8
3
370
    25
100
AcDbLine
 10
-124.297488
 20
-18.065356
 30
0.0
 11
-118.797488
 21
-12.565356
 31
0.0
  0
LINE
  5
1FE
100
AcDbEntity
  8
3
370
    25
100
AcDbLine
 10
-122.883274
 20
-18.065356
 30
0.0
 11
-117.383274
 21
-12.565356
 31
0.0
  0
LINE
  5
1FF
100
AcDbEntity
  8
3
370
    25
100
AcDbLine
 10
-121.469061
 20
-18.065356
 30
0.0
 11
-115.977091
 21
-12.573387
 31
0.0
  0
LINE
  5
200
100
AcDbEntity
  8
3
370
    25
100
AcDbLine
 10
-120.054847
 20
-18.065356
 30
0.0
 11
-115.091847
 21
-13.102356
 31
0.0
  0
LINE
  5
201
100
AcDbEntity
  8
3
370
    25
100
AcDbLine
 10
-118.640633
 20
-18.065356
 30
0.0
 11
-114.868556
 21
-14.293278
 31
0.0
  0
LINE
  5
202
100
AcDbEntity
  8
3
370
    25
100
AcDbLine
 10
-117.22642
 20
-18.065356
 30
0.0
 11
-114.868556
 21
-15.707492
 31
0.0
  0
LINE
  5
203
100
AcDbEntity
  8
3
370
    25
100
AcDbLine
 10
-115.75954
 20
-18.01269
 30
0.0
 11
-114.921222
 21
-17.174372
 31
0.0
  0
LINE
  5
204
100
AcDbEntity
  8
3
370
    25
100
AcDbLine
 10
-132.782769
 20
-18.065356
 30
0.0
 11
-127.282769
 21
-12.565356
 31
0.0
  0
LINE
  5
205
100
AcDbEntity
  8
3
370
    25
100
AcDbLine
 10
-134.196983
 20
-18.065356
 30
0.0
 11
-128.696983
 21
-12.565356
 31
0.0
  0
LINE
  5
206
100
AcDbEntity
  8
3
370
    25
100
AcDbLine
 10
-135.611196
 20
-18.065356
 30
0.0
 11
-130.111196
 21
-12.565356
 31
0.0
  0
LINE
  5
207
100
AcDbEntity
  8
3
370
    25
100
AcDbLine
 10
-136.57738
 20
-17.617326
 30
0.0
 11
-131.52541
 21
-12.565356
 31
0.0
  0
LINE
  5
208
100
AcDbEntity
  8
3
370
    25
100
AcDbLine
 10
-136.868556
 20
-16.494288
 30
0.0
 11
-132.939623
 21
-12.565356
 31
0.0
  0
LINE
  5
209
100
AcDbEntity
  8
3
370
    25
100
AcDbLine
 10
-136.868556
 20
-15.080075
 30
0.0
 11
-134.353837
 21
-12.565356
 31
0.0
  0
LINE
  5
20A
100
AcDbEntity
  8
3
370
    25
100
AcDbLine
 10
-136.858306
 20
-13.655612
 30
0.0
 11
-135.7783
 21
-12.575605
 31
0.0
  0
ARC
  5
20B
100
AcDbEntity
  8
3
370
    50
100
AcDbCircle
 10
-116.118556
 20
-13.815356
 30
0.0
 40
1.25
100
AcDbArc
 50
360.0
 51
90.0
  0
LINE
  5
20C
100
AcDbEntity
  8
3
370
    50
100
AcDbLine
 10
-116.118556
 20
-12.565356
 30
0.0
 11
-135.618556
 21
-12.565356
 31
0.0
  0
ARC
  5
20D
100
AcDbEntity
  8
3
370
    50
100
AcDbCircle
 10
-135.618556
 20
-13.815356
 30
0.0
 40
1.25
100
AcDbArc
 50
90.0
 51
180.0
  0
LINE
  5
20E
100
AcDbEntity
  8
3
370
    50
100
AcDbLine
 10
-136.868556
 20
-13.815356
 30
0.0
 11
-136.868556
 21
-16.815356
 31
0.0
  0
ARC
  5
20F
100
AcDbEntity
  8
3
370
    50
100
AcDbCircle
 10
-135.618556
 20
-16.815356
 30
0.0
 40
1.25
100
AcDbArc
 50
180.0
 51
270.0
  0
LINE
  5
210
100
AcDbEntity
  8
3
370
    50
100
AcDbLine
 10
-116.118556
 20
-18.065356
 30
0.0
 11
-135.618556
 21
-18.065356
 31
0.0
  0
LINE
  5
211
100
AcDbEntity
  8
3
370
    50
100
AcDbLine
 10
-114.868556
 20
-13.815356
 30
0.0
 11
-114.868556
 21
-16.815356
 31
0.0
  0
ARC
  5
212
100
AcDbEntity
  8
3
370
    50
100
AcDbCircle
 10
-116.118556
 20
-16.815356
 30
0.0
 40
1.25
100
AcDbArc
 50
270.0
 51
360.0
  0
LWPOLYLINE
  5
213
100
AcDbEntity
  8
3
370
    25
100
AcDbPolyline
 90
        2
 70
     0
 10
-158.903114
 20
-10.867119
 10
-135.609653
 20
-15.590672
  0
LINE
  5
217
100
AcDbEntity
  8
3
370
    50
100
AcDbLine
 10
-180.232029
 20
-9.147468
 30
0.0
 11
-177.751324
 21
-9.147468
 31
0.0
  0
LINE
  5
218
100
AcDbEntity
  8
3
370
    50
100
AcDbLine
 10
-180.232029
 20
-8.485991
 30
0.0
 11
-177.291934
 21
-8.899194
 31
0.0
  0
LINE
  5
219
100
AcDbEntity
  8
3
370
    50
100
AcDbLine
 10
-177.687389
 20
-7.915807
 30
0.0
 11
-180.232029
 21
-7.558182
 31
0.0
  0
LINE
  5
21A
100
AcDbEntity
  8
3
370
    50
100
AcDbLine
 10
-180.232029
 20
-7.309908
 30
0.0
 11
-177.291934
 21
-7.309908
 31
0.0
  0
ARC
  5
21B
100
AcDbEntity
  8
3
370
    50
100
AcDbCircle
 10
-177.751324
 20
-6.850518
 30
0.0
 40
0.45939
100
AcDbArc
 50
0.0
 51
90.0
  0
ARC
  5
21C
100
AcDbEntity
  8
3
370
    50
100
AcDbCircle
 10
-177.751324
 20
-8.370727
 30
0.0
 40
0.45939
100
AcDbArc
 50
360.0
 51
82.0
  0
ARC
  5
21D
100
AcDbEntity
  8
3
370
    50
100
AcDbCircle
 10
-177.751324
 20
-9.606857
 30
0.0
 40
0.45939
100
AcDbArc
 50
0.0
 51
90.0
  0
LINE
  5
21E
100
AcDbEntity
  8
3
370
    50
100
AcDbLine
 10
-176.373154
 20
-6.391129
 30
0.0
 11
-176.373154
 21
-7.309908
 31
0.0
  0
LINE
  5
21F
100
AcDbEntity
  8
3
370
    50
100
AcDbLine
 10
-176.373154
 20
-7.309908
 30
0.0
 11
-175.086863
 21
-7.309908
 31
0.0
  0
LINE
  5
220
100
AcDbEntity
  8
3
370
    50
100
AcDbLine
 10
-174.168083
 20
-6.850518
 30
0.0
 11
-174.168083
 21
-8.044932
 31
0.0
  0
LINE
  5
221
100
AcDbEntity
  8
3
370
    50
100
AcDbLine
 10
-175.086863
 20
-7.309908
 30
0.0
 11
-175.086863
 21
-8.044932
 31
0.0
  0
LINE
  5
222
100
AcDbEntity
  8
3
370
    50
100
AcDbLine
 10
-176.832544
 20
-9.147468
 30
0.0
 11
-176.189398
 21
-9.147468
 31
0.0
  0
ARC
  5
223
100
AcDbEntity
  8
3
370
    50
100
AcDbCircle
 10
-176.189398
 20
-8.044932
 30
0.0
 40
1.102536
100
AcDbArc
 50
270.0
 51
360.0
  0
ARC
  5
224
100
AcDbEntity
  8
3
370
    50
100
AcDbCircle
 10
-172.78428
 20
-6.944084
 30
0.0
 40
2.205071
100
AcDbArc
 50
228.524141
 51
272.241513
  0
ARC
  5
225
100
AcDbEntity
  8
3
370
    50
100
AcDbCircle
 10
-172.78428
 20
-6.944084
 30
0.0
 40
3.123851
100
AcDbArc
 50
232.173442
 51
271.582042
  0
LINE
  5
226
100
AcDbEntity
  8
3
370
    50
100
AcDbLine
 10
-173.087378
 20
-7.861176
 30
0.0
 11
-172.026463
 21
-7.861176
 31
0.0
  0
LINE
  5
227
100
AcDbEntity
  8
3
370
    50
100
AcDbLine
 10
-172.238646
 20
-6.391129
 30
0.0
 11
-173.087378
 21
-7.861176
 31
0.0
  0
LINE
  5
228
100
AcDbEntity
  8
3
370
    50
100
AcDbLine
 10
-171.708188
 20
-7.309908
 30
0.0
 11
-172.026463
 21
-7.861176
 31
0.0
  0
LINE
  5
229
100
AcDbEntity
  8
3
370
    50
100
AcDbLine
 10
-171.708188
 20
-7.309908
 30
0.0
 11
-170.952354
 21
-7.309908
 31
0.0
  0
ARC
  5
22A
100
AcDbEntity
  8
3
370
    50
100
AcDbCircle
 10
-170.492964
 20
-6.850518
 30
0.0
 40
0.45939
100
AcDbArc
 50
0.0
 51
90.0
  0
LINE
  5
22B
100
AcDbEntity
  8
3
370
    50
100
AcDbLine
 10
-172.238646
 20
-9.147468
 30
0.0
 11
-172.05489
 21
-9.147468
 31
0.0
  0
ARC
  5
22C
100
AcDbEntity
  8
3
370
    50
100
AcDbCircle
 10
-172.05489
 20
-8.044932
 30
0.0
 40
2.021315
100
AcDbArc
 50
270.0
 51
360.0
  0
LINE
  5
22D
100
AcDbEntity
  8
3
370
    50
100
AcDbLine
 10
-171.503622
 20
-8.5962
 30
0.0
 11
-171.100066
 21
-8.5962
 31
0.0
  0
LINE
  5
22E
100
AcDbEntity
  8
3
370
    50
100
AcDbLine
 10
-171.503622
 20
-7.67742
 30
0.0
 11
-170.952354
 21
-7.67742
 31
0.0
  0
LINE
  5
22F
100
AcDbEntity
  8
3
370
    50
100
AcDbLine
 10
-171.503622
 20
-8.5962
 30
0.0
 11
-171.503622
 21
-7.67742
 31
0.0
  0
LINE
  5
230
100
AcDbEntity
  8
3
370
    50
100
AcDbLine
 10
-170.952354
 20
-7.309908
 30
0.0
 11
-170.952354
 21
-7.67742
 31
0.0
  0
ARC
  5
231
100
AcDbEntity
  8
3
370
    50
100
AcDbCircle
 10
-172.05489
 20
-8.044932
 30
0.0
 40
1.102536
100
AcDbArc
 50
270.0
 51
330.0
  0
LINE
  5
232
100
AcDbEntity
  8
3
370
    50
100
AcDbLine
 10
-169.574185
 20
-7.309908
 30
0.0
 11
-167.369114
 21
-7.309908
 31
0.0
  0
LINE
  5
233
100
AcDbEntity
  8
3
370
    50
100
AcDbLine
 10
-169.574185
 20
-9.147468
 30
0.0
 11
-167.828503
 21
-9.147468
 31
0.0
  0
ARC
  5
234
100
AcDbEntity
  8
3
370
    50
100
AcDbCircle
 10
-167.828503
 20
-6.850518
 30
0.0
 40
0.45939
100
AcDbArc
 50
0.0
 51
90.0
  0
ARC
  5
235
100
AcDbEntity
  8
3
370
    50
100
AcDbCircle
 10
-167.828503
 20
-9.606857
 30
0.0
 40
0.45939
100
AcDbArc
 50
0.0
 51
90.0
  0
ARC
  5
236
100
AcDbEntity
  8
3
370
    50
100
AcDbCircle
 10
-176.189398
 20
-8.044932
 30
0.0
 40
2.021315
100
AcDbArc
 50
270.0
 51
317.461176
  0
ARC
  5
237
100
AcDbEntity
  8
3
370
    50
100
AcDbCircle
 10
-176.189398
 20
-8.044932
 30
0.0
 40
2.021315
100
AcDbArc
 50
344.17338
 51
360.0
  0
CIRCLE
  5
238
100
AcDbEntity
  8
3
370
    50
100
AcDbCircle
 10
-173.341181
 20
-6.666762
 30
0.0
 40
0.275634
  0
CIRCLE
  5
239
100
AcDbEntity
  8
3
370
    50
100
AcDbCircle
 10
-173.892449
 20
-6.666762
 30
0.0
 40
0.275634
  0
LINE
  5
23A
100
AcDbEntity
  8
3
370
    50
100
AcDbLine
 10
-176.832544
 20
-9.147468
 30
0.0
 11
-176.832544
 21
-10.066247
 31
0.0
  0
LINE
  5
23B
100
AcDbEntity
  8
3
370
    50
100
AcDbLine
 10
-172.698036
 20
-9.147468
 30
0.0
 11
-172.698036
 21
-10.066247
 31
0.0
  0
LINE
  5
23C
100
AcDbEntity
  8
3
370
    50
100
AcDbLine
 10
-172.238646
 20
-9.147468
 30
0.0
 11
-172.238646
 21
-10.066247
 31
0.0
  0
LINE
  5
23D
100
AcDbEntity
  8
3
370
    50
100
AcDbLine
 10
-170.033575
 20
-6.850518
 30
0.0
 11
-170.033575
 21
-8.044932
 31
0.0
  0
LINE
  5
23E
100
AcDbEntity
  8
3
370
    50
100
AcDbLine
 10
-180.232029
 20
-6.391129
 30
0.0
 11
-177.751324
 21
-6.391129
 31
0.0
  0
LINE
  5
23F
100
AcDbEntity
  8
3
370
    50
100
AcDbLine
 10
-176.373154
 20
-6.391129
 30
0.0
 11
-174.627473
 21
-6.391129
 31
0.0
  0
LINE
  5
240
100
AcDbEntity
  8
3
370
    50
100
AcDbLine
 10
-172.238646
 20
-6.391129
 30
0.0
 11
-170.492964
 21
-6.391129
 31
0.0
  0
LINE
  5
241
100
AcDbEntity
  8
3
370
    50
100
AcDbLine
 10
-169.574185
 20
-6.391129
 30
0.0
 11
-167.828503
 21
-6.391129
 31
0.0
  0
LINE
  5
242
100
AcDbEntity
  8
3
370
    50
100
AcDbLine
 10
-169.574185
 20
-10.066247
 30
0.0
 11
-167.369114
 21
-10.066247
 31
0.0
  0
LINE
  5
243
100
AcDbEntity
  8
3
370
    50
100
AcDbLine
 10
-172.238646
 20
-10.066247
 30
0.0
 11
-172.05489
 21
-10.066247
 31
0.0
  0
LINE
  5
244
100
AcDbEntity
  8
3
370
    50
100
AcDbLine
 10
-180.232029
 20
-10.066247
 30
0.0
 11
-177.291934
 21
-10.066247
 31
0.0
  0
LINE
  5
245
100
AcDbEntity
  8
3
370
    50
100
AcDbLine
 10
-177.291934
 20
-7.309908
 30
0.0
 11
-177.291934
 21
-6.850518
 31
0.0
  0
LINE
  5
246
100
AcDbEntity
  8
3
370
    50
100
AcDbLine
 10
-177.291934
 20
-10.066247
 30
0.0
 11
-177.291934
 21
-9.606857
 31
0.0
  0
LINE
  5
247
100
AcDbEntity
  8
3
370
    50
100
AcDbLine
 10
-177.291934
 20
-8.899194
 30
0.0
 11
-177.291934
 21
-8.370727
 31
0.0
  0
LINE
  5
248
100
AcDbEntity
  8
3
370
    50
100
AcDbLine
 10
-180.232029
 20
-10.066247
 30
0.0
 11
-180.232029
 21
-9.147468
 31
0.0
  0
LINE
  5
249
100
AcDbEntity
  8
3
370
    50
100
AcDbLine
 10
-180.232029
 20
-8.485991
 30
0.0
 11
-180.232029
 21
-7.558182
 31
0.0
  0
LINE
  5
24A
100
AcDbEntity
  8
3
370
    50
100
AcDbLine
 10
-180.232029
 20
-7.309908
 30
0.0
 11
-180.232029
 21
-6.391129
 31
0.0
  0
LINE
  5
24B
100
AcDbEntity
  8
3
370
    50
100
AcDbLine
 10
-167.369114
 20
-7.309908
 30
0.0
 11
-167.369114
 21
-6.850518
 31
0.0
  0
LINE
  5
24C
100
AcDbEntity
  8
3
370
    50
100
AcDbLine
 10
-169.574185
 20
-10.066247
 30
0.0
 11
-169.574185
 21
-9.147468
 31
0.0
  0
LINE
  5
24D
100
AcDbEntity
  8
3
370
    50
100
AcDbLine
 10
-169.574185
 20
-7.309908
 30
0.0
 11
-169.574185
 21
-6.391129
 31
0.0
  0
LINE
  5
24E
100
AcDbEntity
  8
3
370
    50
100
AcDbLine
 10
-176.832544
 20
-10.066247
 30
0.0
 11
-176.189398
 21
-10.066247
 31
0.0
  0
LINE
  5
24F
100
AcDbEntity
  8
3
370
    50
100
AcDbLine
 10
-172.886937
 20
-10.066247
 30
0.0
 11
-172.698036
 21
-10.066247
 31
0.0
  0
ARC
  5
250
100
AcDbEntity
  8
3
370
    50
100
AcDbCircle
 10
-174.627473
 20
-6.850518
 30
0.0
 40
0.45939
100
AcDbArc
 50
0.0
 51
90.0
  0
LINE
  5
251
100
AcDbEntity
  8
3
370
    50
100
AcDbLine
 10
-188.500915
 20
-9.05559
 30
0.0
 11
-188.500915
 21
-7.401786
 31
0.0
  0
LINE
  5
252
100
AcDbEntity
  8
3
370
    50
100
AcDbLine
 10
-188.133403
 20
-7.401786
 30
0.0
 11
-188.133403
 21
-9.05559
 31
0.0
  0
LINE
  5
253
100
AcDbEntity
  8
3
370
    50
100
AcDbLine
 10
-188.133403
 20
-7.401786
 30
0.0
 11
-188.500915
 21
-7.401786
 31
0.0
  0
LINE
  5
254
100
AcDbEntity
  8
3
370
    50
100
AcDbLine
 10
-188.133403
 20
-9.05559
 30
0.0
 11
-188.500915
 21
-9.05559
 31
0.0
  0
LINE
  5
255
100
AcDbEntity
  8
3
370
    50
100
AcDbLine
 10
-189.434601
 20
-9.346129
 30
0.0
 11
-189.61651
 21
-9.528039
 31
0.0
  0
LINE
  5
256
100
AcDbEntity
  8
3
370
    50
100
AcDbLine
 10
-187.39838
 20
-7.401786
 30
0.0
 11
-187.177873
 21
-7.401786
 31
0.0
  0
LINE
  5
257
100
AcDbEntity
  8
3
370
    50
100
AcDbLine
 10
-187.85777
 20
-9.05559
 30
0.0
 11
-187.56376
 21
-9.05559
 31
0.0
  0
LINE
  5
258
100
AcDbEntity
  8
3
370
    50
100
AcDbLine
 10
-187.85777
 20
-9.05559
 30
0.0
 11
-187.85777
 21
-8.76158
 31
0.0
  0
LINE
  5
259
100
AcDbEntity
  8
3
370
    50
100
AcDbLine
 10
-187.177873
 20
-7.695796
 30
0.0
 11
-187.177873
 21
-7.401786
 31
0.0
  0
LINE
  5
25A
100
AcDbEntity
  8
3
370
    50
100
AcDbLine
 10
-187.343253
 20
-7.695796
 30
0.0
 11
-187.177873
 21
-7.695796
 31
0.0
  0
LINE
  5
25B
100
AcDbEntity
  8
3
370
    50
100
AcDbLine
 10
-187.7112
 20
-8.197602
 30
0.0
 11
-187.481246
 21
-8.411421
 31
0.0
  0
ARC
  5
25C
100
AcDbEntity
  8
3
370
    50
100
AcDbCircle
 10
-187.343253
 20
-7.879552
 30
0.0
 40
0.183756
100
AcDbArc
 50
90.0
 51
227.082289
  0
LINE
  5
25D
100
AcDbEntity
  8
3
370
    50
100
AcDbLine
 10
-187.468381
 20
-8.014122
 30
0.0
 11
-187.238427
 21
-8.227941
 31
0.0
  0
ARC
  5
25E
100
AcDbEntity
  8
3
370
    50
100
AcDbCircle
 10
-187.56376
 20
-8.577824
 30
0.0
 40
0.477765
100
AcDbArc
 50
270.0
 51
47.082289
  0
ARC
  5
25F
100
AcDbEntity
  8
3
370
    50
100
AcDbCircle
 10
-187.618887
 20
-8.559449
 30
0.0
 40
0.202132
100
AcDbArc
 50
270.0
 51
47.082289
  0
ARC
  5
260
100
AcDbEntity
  8
3
370
    50
100
AcDbCircle
 10
-187.39838
 20
-7.861176
 30
0.0
 40
0.45939
100
AcDbArc
 50
90.0
 51
227.082289
  0
LINE
  5
261
100
AcDbEntity
  8
3
370
    50
100
AcDbLine
 10
-187.618887
 20
-8.76158
 30
0.0
 11
-187.85777
 21
-8.76158
 31
0.0
  0
LINE
  5
262
100
AcDbEntity
  8
3
370
    50
100
AcDbLine
 10
-189.162437
 20
-8.401418
 30
0.0
 11
-189.162437
 21
-7.401786
 31
0.0
  0
LINE
  5
263
100
AcDbEntity
  8
3
370
    50
100
AcDbLine
 10
-188.831676
 20
-8.401418
 30
0.0
 11
-188.831676
 21
-7.401786
 31
0.0
  0
LINE
  5
264
100
AcDbEntity
  8
3
370
    50
100
AcDbLine
 10
-188.831676
 20
-7.401786
 30
0.0
 11
-189.162437
 21
-7.401786
 31
0.0
  0
ARC
  5
265
100
AcDbEntity
  8
3
370
    50
100
AcDbCircle
 10
-189.485847
 20
-8.401418
 30
0.0
 40
0.654171
100
AcDbArc
 50
190.22669
 51
360.0
  0
ARC
  5
266
100
AcDbEntity
  8
3
370
    50
100
AcDbCircle
 10
-189.522598
 20
-8.401418
 30
0.0
 40
0.360162
100
AcDbArc
 50
190.573586
 51
360.0
  0
ARC
  5
267
100
AcDbEntity
  8
3
370
    50
100
AcDbCircle
 10
-188.317159
 20
-8.228688
 30
0.0
 40
1.580301
100
AcDbArc
 50
225.0
 51
188.720397
  0
ARC
  5
268
100
AcDbEntity
  8
3
370
    50
100
AcDbCircle
 10
-188.317159
 20
-8.228688
 30
0.0
 40
1.837559
100
AcDbArc
 50
225.0
 51
189.066832
  0
LINE
  5
269
100
AcDbEntity
  8
3
370
    50
100
AcDbLine
 10
-164.796465
 20
-10.066247
 30
0.0
 11
-164.796465
 21
-7.616168
 31
0.0
  0
LINE
  5
26A
100
AcDbEntity
  8
3
370
    50
100
AcDbLine
 10
-166.266513
 20
-10.066247
 30
0.0
 11
-166.266513
 21
-7.616168
 31
0.0
  0
LINE
  5
26B
100
AcDbEntity
  8
3
370
    50
100
AcDbLine
 10
-166.634025
 20
-10.066247
 30
0.0
 11
-165.899001
 21
-10.066247
 31
0.0
  0
LINE
  5
26C
100
AcDbEntity
  8
3
370
    50
100
AcDbLine
 10
-165.163977
 20
-10.066247
 30
0.0
 11
-164.428953
 21
-10.066247
 31
0.0
  0
LINE
  5
26D
100
AcDbEntity
  8
3
370
    50
100
AcDbLine
 10
-189.879192
 20
-8.468282
 30
0.0
 11
-189.876644
 21
-8.467507
 31
0.0
  0
LINE
  5
26E
100
AcDbEntity
  8
3
370
    50
100
AcDbLine
 10
-167.369114
 20
-9.606857
 30
0.0
 11
-167.369114
 21
-10.066247
 31
0.0
  0
LINE
  5
26F
100
AcDbEntity
  8
3
370
    50
100
AcDbLine
 10
-184.274529
 20
-7.616168
 30
0.0
 11
-185.009553
 21
-7.616168
 31
0.0
  0
LINE
  5
270
100
AcDbEntity
  8
3
370
    50
100
AcDbLine
 10
-164.796465
 20
-7.616168
 30
0.0
 11
-165.531489
 21
-8.889267
 31
0.0
  0
LINE
  5
271
100
AcDbEntity
  8
3
370
    50
100
AcDbLine
 10
-166.266513
 20
-7.616168
 30
0.0
 11
-165.531489
 21
-8.889267
 31
0.0
  0
LINE
  5
272
100
AcDbEntity
  8
3
370
    50
100
AcDbLine
 10
-184.642041
 20
-7.616168
 30
0.0
 11
-184.642041
 21
-9.331224
 31
0.0
  0
LINE
  5
273
100
AcDbEntity
  8
3
370
    50
100
AcDbLine
 10
-181.701946
 20
-7.616168
 30
0.0
 11
-180.966922
 21
-7.616168
 31
0.0
  0
LINE
  5
274
100
AcDbEntity
  8
3
370
    50
100
AcDbLine
 10
-183.171993
 20
-7.616168
 30
0.0
 11
-183.907017
 21
-7.616168
 31
0.0
  0
LINE
  5
275
100
AcDbEntity
  8
3
370
    50
100
AcDbLine
 10
-183.539505
 20
-7.616168
 30
0.0
 11
-183.10749
 21
-10.066247
 31
0.0
  0
LINE
  5
276
100
AcDbEntity
  8
3
370
    50
100
AcDbLine
 10
-183.10749
 20
-10.066247
 30
0.0
 11
-182.43697
 21
-8.224007
 31
0.0
  0
LINE
  5
277
100
AcDbEntity
  8
3
370
    50
100
AcDbLine
 10
-181.766449
 20
-10.066247
 30
0.0
 11
-182.43697
 21
-8.224007
 31
0.0
  0
LINE
  5
278
100
AcDbEntity
  8
3
370
    50
100
AcDbLine
 10
-181.334434
 20
-7.616168
 30
0.0
 11
-181.766449
 21
-10.066247
 31
0.0
  0
ARC
  5
279
100
AcDbEntity
  8
3
370
    50
100
AcDbCircle
 10
-185.377064
 20
-9.331224
 30
0.0
 40
0.735024
100
AcDbArc
 50
180.0
 51
360.0
  0
LINE
  5
27A
100
AcDbEntity
  8
3
370
    50
100
AcDbLine
 10
-190.154719
 20
-5.341095
 30
0.0
 11
-164.953905
 21
-5.341095
 31
0.0
  0
LINE
  5
27B
100
AcDbEntity
  8
3
370
    50
100
AcDbLine
 10
-190.154719
 20
-11.116281
 30
0.0
 11
-164.953905
 21
-11.116281
 31
0.0
  0
LINE
  5
27C
100
AcDbEntity
  8
3
370
    50
100
AcDbLine
 10
-191.204753
 20
-10.066247
 30
0.0
 11
-191.204753
 21
-6.391129
 31
0.0
  0
LINE
  5
27D
100
AcDbEntity
  8
3
370
    50
100
AcDbLine
 10
-163.903871
 20
-10.066247
 30
0.0
 11
-163.903871
 21
-6.391129
 31
0.0
  0
ARC
  5
27E
100
AcDbEntity
  8
3
370
    50
100
AcDbCircle
 10
-190.154719
 20
-6.391129
 30
0.0
 40
1.050034
100
AcDbArc
 50
90.0
 51
180.0
  0
ARC
  5
27F
100
AcDbEntity
  8
3
370
    50
100
AcDbCircle
 10
-190.154719
 20
-10.066247
 30
0.0
 40
1.050034
100
AcDbArc
 50
180.0
 51
270.0
  0
ARC
  5
280
100
AcDbEntity
  8
3
370
    50
100
AcDbCircle
 10
-164.953905
 20
-6.391129
 30
0.0
 40
1.050034
100
AcDbArc
 50
0.0
 51
90.0
  0
ARC
  5
281
100
AcDbEntity
  8
3
370
    50
100
AcDbCircle
 10
-164.953905
 20
-10.066247
 30
0.0
 40
1.050034
100
AcDbArc
 50
270.0
 51
360.0
  0
LINE
  5
282
100
AcDbEntity
  8
3
370
    25
100
AcDbLine
 10
-189.437613
 20
-9.070351
 30
0.0
 11
-188.833232
 21
-8.465971
 31
0.0
  0
LINE
  5
283
100
AcDbEntity
  8
3
370
    25
100
AcDbLine
 10
-187.348246
 20
-6.980985
 30
0.0
 11
-187.164702
 21
-6.797441
 31
0.0
  0
LINE
  5
284
100
AcDbEntity
  8
3
370
    25
100
AcDbLine
 10
-189.614482
 20
-9.530063
 30
0.0
 11
-189.432578
 21
-9.34816
 31
0.0
  0
LINE
  5
285
100
AcDbEntity
  8
3
370
    25
100
AcDbLine
 10
-187.197696
 20
-7.113278
 30
0.0
 11
-187.015784
 21
-6.931365
 31
0.0
  0
LINE
  5
286
100
AcDbEntity
  8
3
370
    25
100
AcDbLine
 10
-189.46512
 20
-9.663544
 30
0.0
 11
-189.282315
 21
-9.480739
 31
0.0
  0
LINE
  5
287
100
AcDbEntity
  8
3
370
    25
100
AcDbLine
 10
-187.065117
 20
-7.263541
 30
0.0
 11
-186.882304
 21
-7.080728
 31
0.0
  0
LINE
  5
288
100
AcDbEntity
  8
3
370
    25
100
AcDbLine
 10
-189.300029
 20
-9.781296
 30
0.0
 11
-189.113641
 21
-9.594908
 31
0.0
  0
LINE
  5
289
100
AcDbEntity
  8
3
370
    25
100
AcDbLine
 10
-186.950948
 20
-7.432215
 30
0.0
 11
-186.764551
 21
-7.245818
 31
0.0
  0
LINE
  5
28A
100
AcDbEntity
  8
3
370
    25
100
AcDbLine
 10
-189.118301
 20
-9.88241
 30
0.0
 11
-188.925101
 21
-9.689211
 31
0.0
  0
LINE
  5
28B
100
AcDbEntity
  8
3
370
    25
100
AcDbLine
 10
-186.856645
 20
-7.620755
 30
0.0
 11
-186.663437
 21
-7.427547
 31
0.0
  0
LINE
  5
28C
100
AcDbEntity
  8
3
370
    25
100
AcDbLine
 10
-188.918214
 20
-9.965166
 30
0.0
 11
-188.713789
 21
-9.760741
 31
0.0
  0
LINE
  5
28D
100
AcDbEntity
  8
3
370
    25
100
AcDbLine
 10
-186.785115
 20
-7.832068
 30
0.0
 11
-186.580681
 21
-7.627633
 31
0.0
  0
LINE
  5
28E
100
AcDbEntity
  8
3
370
    25
100
AcDbLine
 10
-188.696806
 20
-10.026601
 30
0.0
 11
-188.474208
 21
-9.804003
 31
0.0
  0
LINE
  5
28F
100
AcDbEntity
  8
3
370
    25
100
AcDbLine
 10
-186.741854
 20
-8.071648
 30
0.0
 11
-186.519246
 21
-7.849041
 31
0.0
  0
LINE
  5
290
100
AcDbEntity
  8
3
370
    25
100
AcDbLine
 10
-188.448882
 20
-10.06152
 30
0.0
 11
-188.195019
 21
-9.807656
 31
0.0
  0
LINE
  5
291
100
AcDbEntity
  8
3
370
    25
100
AcDbLine
 10
-186.7382
 20
-8.350837
 30
0.0
 11
-186.484327
 21
-8.096965
 31
0.0
  0
LINE
  5
292
100
AcDbEntity
  8
3
370
    25
100
AcDbLine
 10
-188.164407
 20
-10.059887
 30
0.0
 11
-187.845667
 21
-9.741147
 31
0.0
  0
LINE
  5
293
100
AcDbEntity
  8
3
370
    25
100
AcDbLine
 10
-186.804709
 20
-8.700189
 30
0.0
 11
-186.48596
 21
-8.38144
 31
0.0
  0
LINE
  5
294
100
AcDbEntity
  8
3
370
    25
100
AcDbLine
 10
-187.819154
 20
-9.997477
 30
0.0
 11
-186.54837
 21
-8.726693
 31
0.0
  0
LINE
  5
295
100
AcDbEntity
  8
3
370
    25
100
AcDbLine
 10
-187.293637
 20
-9.754802
 30
0.0
 11
-186.791045
 21
-9.252211
 31
0.0
  0
LINE
  5
296
100
AcDbEntity
  8
3
370
    25
100
AcDbLine
 10
-187.329333
 20
-6.679229
 30
0.0
 11
-187.517222
 21
-6.867118
 31
0.0
  0
LINE
  5
297
100
AcDbEntity
  8
3
370
    25
100
AcDbLine
 10
-188.831676
 20
-8.181572
 30
0.0
 11
-189.190209
 21
-8.540105
 31
0.0
  0
LINE
  5
298
100
AcDbEntity
  8
3
370
    25
100
AcDbLine
 10
-189.383911
 20
-8.733807
 30
0.0
 11
-189.689609
 21
-9.039505
 31
0.0
  0
LINE
  5
299
100
AcDbEntity
  8
3
370
    25
100
AcDbLine
 10
-187.510565
 20
-6.577618
 30
0.0
 11
-187.706095
 21
-6.773149
 31
0.0
  0
LINE
  5
29A
100
AcDbEntity
  8
3
370
    25
100
AcDbLine
 10
-188.831676
 20
-7.898729
 30
0.0
 11
-189.162437
 21
-8.22949
 31
0.0
  0
LINE
  5
29B
100
AcDbEntity
  8
3
370
    25
100
AcDbLine
 10
-189.665126
 20
-8.732179
 30
0.0
 11
-189.875901
 21
-8.942955
 31
0.0
  0
LINE
  5
29C
100
AcDbEntity
  8
3
370
    25
100
AcDbLine
 10
-187.710092
 20
-6.494302
 30
0.0
 11
-187.917805
 21
-6.702015
 31
0.0
  0
LINE
  5
29D
100
AcDbEntity
  8
3
370
    25
100
AcDbLine
 10
-188.831676
 20
-7.615886
 30
0.0
 11
-189.162437
 21
-7.946647
 31
0.0
  0
LINE
  5
29E
100
AcDbEntity
  8
3
370
    25
100
AcDbLine
 10
-189.820144
 20
-8.604354
 30
0.0
 11
-190.01629
 21
-8.800501
 31
0.0
  0
LINE
  5
29F
100
AcDbEntity
  8
3
370
    25
100
AcDbLine
 10
-187.930831
 20
-6.432198
 30
0.0
 11
-188.157903
 21
-6.659271
 31
0.0
  0
LINE
  5
2A0
100
AcDbEntity
  8
3
370
    25
100
AcDbLine
 10
-188.900418
 20
-7.401786
 30
0.0
 11
-189.162437
 21
-7.663804
 31
0.0
  0
LINE
  5
2A1
100
AcDbEntity
  8
3
370
    25
100
AcDbLine
 10
-189.886586
 20
-8.387953
 30
0.0
 11
-190.110428
 21
-8.611796
 31
0.0
  0
LINE
  5
2A2
100
AcDbEntity
  8
3
370
    25
100
AcDbLine
 10
-190.149433
 20
-8.367958
 30
0.0
 11
-189.889454
 21
-8.107979
 31
0.0
  0
LINE
  5
2A3
100
AcDbEntity
  8
3
370
    25
100
AcDbLine
 10
-188.437878
 20
-6.656403
 30
0.0
 11
-188.177889
 21
-6.396414
 31
0.0
  0
LINE
  5
2A4
100
AcDbEntity
  8
3
370
    25
100
AcDbLine
 10
-190.149073
 20
-8.084755
 30
0.0
 11
-189.821275
 21
-7.756958
 31
0.0
  0
LINE
  5
2A5
100
AcDbEntity
  8
3
370
    25
100
AcDbLine
 10
-188.788898
 20
-6.724581
 30
0.0
 11
-188.461092
 21
-6.396774
 31
0.0
  0
LINE
  5
2A6
100
AcDbEntity
  8
3
370
    25
100
AcDbLine
 10
-190.089072
 20
-7.741911
 30
0.0
 11
-188.803936
 21
-6.456776
 31
0.0
  0
LINE
  5
2A7
100
AcDbEntity
  8
3
370
    25
100
AcDbLine
 10
-189.858972
 20
-7.228969
 30
0.0
 11
-189.316878
 21
-6.686875
 31
0.0
  0
HATCH
  5
2A8
100
AcDbEntity
  8
3
370
    25
100
AcDbHatch
 10
0.0
 20
0.0
 30
0.0
210
0.0
220
0.0
230
1.0
  2
_U
 70
     0
 71
     1
 91
        1
 92
        1
 93
        4
 72
     1
 10
-188.50091499999999
 20
-9.0555900000000005
 11
-188.50091499999999
 21
-7.4017860000000004
 72
     1
 10
-188.50091499999999
 20
-7.4017860000000004
 11
-188.13340299999999
 21
-7.4017860000000004
 72
     1
 10
-188.13340299999999
 20
-7.4017860000000004
 11
-188.13340299999999
 21
-9.0555900000000005
 72
     1
 10
-188.13340299999999
 20
-9.0555900000000005
 11
-188.50091499999999
 21
-9.0555900000000005
 97
        4
330
0
330
0
330
0
330
0
 75
     0
 76
     0
 52
45.0
 41
1.0
 77
     0
 78
     1
 53
45.0
 43
0.0
 44
0.0
 45
-0.141421
 46
0.141421
 79
     0
 98
        1
 10
0.0
 20
0.0
  0
LINE
  5
2A9
100
AcDbEntity
  8
3
370
    25
100
AcDbLine
 10
-187.825925
 20
-7.693116
 30
0.0
 11
-187.56644
 21
-7.433631
 31
0.0
  0
LINE
  5
2AA
100
AcDbEntity
  8
3
370
    25
100
AcDbLine
 10
-187.251752
 20
-7.401786
 30
0.0
 11
-187.839479
 21
-7.989513
 31
0.0
  0
LINE
  5
2AB
100
AcDbEntity
  8
3
370
    25
100
AcDbLine
 10
-187.177873
 20
-7.610749
 30
0.0
 11
-187.262919
 21
-7.695796
 31
0.0
  0
LINE
  5
2AC
100
AcDbEntity
  8
3
370
    25
100
AcDbLine
 10
-187.514166
 20
-7.947042
 30
0.0
 11
-187.737833
 21
-8.170709
 31
0.0
  0
LINE
  5
2AD
100
AcDbEntity
  8
3
370
    25
100
AcDbLine
 10
-187.592373
 20
-8.308092
 30
0.0
 11
-187.380302
 21
-8.096021
 31
0.0
  0
LINE
  5
2AE
100
AcDbEntity
  8
3
370
    25
100
AcDbLine
 10
-187.85777
 20
-8.856332
 30
0.0
 11
-187.763018
 21
-8.76158
 31
0.0
  0
LINE
  5
2AF
100
AcDbEntity
  8
3
370
    25
100
AcDbLine
 10
-187.449931
 20
-8.448493
 30
0.0
 11
-187.233769
 21
-8.232331
 31
0.0
  0
LINE
  5
2B0
100
AcDbEntity
  8
3
370
    25
100
AcDbLine
 10
-187.774185
 20
-9.05559
 30
0.0
 11
-187.119828
 21
-8.401233
 31
0.0
  0
LINE
  5
2B1
100
AcDbEntity
  8
3
370
    25
100
AcDbLine
 10
-187.484767
 20
-9.049014
 30
0.0
 11
-187.09257
 21
-8.656818
 31
0.0
  0
LINE
  5
2B2
100
AcDbEntity
  8
3
370
    25
100
AcDbLine
 10
-179.772639
 20
-6.391129
 30
0.0
 11
-180.232029
 21
-6.850518
 31
0.0
  0
LINE
  5
2B3
100
AcDbEntity
  8
3
370
    25
100
AcDbLine
 10
-179.489796
 20
-6.391129
 30
0.0
 11
-180.232029
 21
-7.133361
 31
0.0
  0
LINE
  5
2B4
100
AcDbEntity
  8
3
370
    25
100
AcDbLine
 10
-180.125733
 20
-7.309908
 30
0.0
 11
-179.206954
 21
-6.391129
 31
0.0
  0
LINE
  5
2B5
100
AcDbEntity
  8
3
370
    25
100
AcDbLine
 10
-179.842891
 20
-7.309908
 30
0.0
 11
-178.924111
 21
-6.391129
 31
0.0
  0
LINE
  5
2B6
100
AcDbEntity
  8
3
370
    25
100
AcDbLine
 10
-179.560048
 20
-7.309908
 30
0.0
 11
-178.641268
 21
-6.391129
 31
0.0
  0
LINE
  5
2B7
100
AcDbEntity
  8
3
370
    25
100
AcDbLine
 10
-179.277205
 20
-7.309908
 30
0.0
 11
-178.358425
 21
-6.391129
 31
0.0
  0
LINE
  5
2B8
100
AcDbEntity
  8
3
370
    25
100
AcDbLine
 10
-178.994362
 20
-7.309908
 30
0.0
 11
-178.075583
 21
-6.391129
 31
0.0
  0
LINE
  5
2B9
100
AcDbEntity
  8
3
370
    25
100
AcDbLine
 10
-178.71152
 20
-7.309908
 30
0.0
 11
-177.79274
 21
-6.391129
 31
0.0
  0
LINE
  5
2BA
100
AcDbEntity
  8
3
370
    25
100
AcDbLine
 10
-178.428677
 20
-7.309908
 30
0.0
 11
-177.554295
 21
-6.435526
 31
0.0
  0
LINE
  5
2BB
100
AcDbEntity
  8
3
370
    25
100
AcDbLine
 10
-178.145834
 20
-7.309908
 30
0.0
 11
-177.39567
 21
-6.559744
 31
0.0
  0
LINE
  5
2BC
100
AcDbEntity
  8
3
370
    25
100
AcDbLine
 10
-177.862992
 20
-7.309908
 30
0.0
 11
-177.303069
 21
-6.749986
 31
0.0
  0
LINE
  5
2BD
100
AcDbEntity
  8
3
370
    25
100
AcDbLine
 10
-177.580149
 20
-7.309908
 30
0.0
 11
-177.291934
 21
-7.021693
 31
0.0
  0
LINE
  5
2BE
100
AcDbEntity
  8
3
370
    25
100
AcDbLine
 10
-177.297306
 20
-7.309908
 30
0.0
 11
-177.291934
 21
-7.304536
 31
0.0
  0
LINE
  5
2BF
100
AcDbEntity
  8
3
370
    25
100
AcDbLine
 10
-180.055482
 20
-6.391129
 30
0.0
 11
-180.232029
 21
-6.567676
 31
0.0
  0
LINE
  5
2C0
100
AcDbEntity
  8
3
370
    25
100
AcDbLine
 10
-179.773191
 20
-8.550476
 30
0.0
 11
-178.959709
 21
-7.736995
 31
0.0
  0
LINE
  5
2C1
100
AcDbEntity
  8
3
370
    25
100
AcDbLine
 10
-179.525201
 20
-8.585329
 30
0.0
 11
-178.711719
 21
-7.771847
 31
0.0
  0
LINE
  5
2C2
100
AcDbEntity
  8
3
370
    25
100
AcDbLine
 10
-179.277211
 20
-8.620182
 30
0.0
 11
-178.463729
 21
-7.8067
 31
0.0
  0
LINE
  5
2C3
100
AcDbEntity
  8
3
370
    25
100
AcDbLine
 10
-179.029221
 20
-8.655034
 30
0.0
 11
-178.215739
 21
-7.841553
 31
0.0
  0
LINE
  5
2C4
100
AcDbEntity
  8
3
370
    25
100
AcDbLine
 10
-178.781231
 20
-8.689887
 30
0.0
 11
-177.967749
 21
-7.876405
 31
0.0
  0
LINE
  5
2C5
100
AcDbEntity
  8
3
370
    25
100
AcDbLine
 10
-178.533241
 20
-8.72474
 30
0.0
 11
-177.719759
 21
-7.911258
 31
0.0
  0
LINE
  5
2C6
100
AcDbEntity
  8
3
370
    25
100
AcDbLine
 10
-178.285251
 20
-8.759593
 30
0.0
 11
-177.507217
 21
-7.981559
 31
0.0
  0
LINE
  5
2C7
100
AcDbEntity
  8
3
370
    25
100
AcDbLine
 10
-178.037261
 20
-8.794445
 30
0.0
 11
-177.364984
 21
-8.122169
 31
0.0
  0
LINE
  5
2C8
100
AcDbEntity
  8
3
370
    25
100
AcDbLine
 10
-177.789271
 20
-8.829298
 30
0.0
 11
-177.293447
 21
-8.333474
 31
0.0
  0
LINE
  5
2C9
100
AcDbEntity
  8
3
370
    25
100
AcDbLine
 10
-177.541281
 20
-8.864151
 30
0.0
 11
-177.291934
 21
-8.614804
 31
0.0
  0
LINE
  5
2CA
100
AcDbEntity
  8
3
370
    25
100
AcDbLine
 10
-180.021181
 20
-8.515624
 30
0.0
 11
-179.207699
 21
-7.702142
 31
0.0
  0
LINE
  5
2CB
100
AcDbEntity
  8
3
370
    25
100
AcDbLine
 10
-180.232029
 20
-8.443629
 30
0.0
 11
-179.455689
 21
-7.667289
 31
0.0
  0
LINE
  5
2CC
100
AcDbEntity
  8
3
370
    25
100
AcDbLine
 10
-180.232029
 20
-8.160786
 30
0.0
 11
-179.703679
 21
-7.632436
 31
0.0
  0
LINE
  5
2CD
100
AcDbEntity
  8
3
370
    25
100
AcDbLine
 10
-180.232029
 20
-7.877944
 30
0.0
 11
-179.951669
 21
-7.597584
 31
0.0
  0
LINE
  5
2CE
100
AcDbEntity
  8
3
370
    25
100
AcDbLine
 10
-180.232029
 20
-7.595101
 30
0.0
 11
-180.199659
 21
-7.562731
 31
0.0
  0
LINE
  5
2CF
100
AcDbEntity
  8
3
370
    25
100
AcDbLine
 10
-179.910456
 20
-10.066247
 30
0.0
 11
-178.991676
 21
-9.147468
 31
0.0
  0
LINE
  5
2D0
100
AcDbEntity
  8
3
370
    25
100
AcDbLine
 10
-179.627613
 20
-10.066247
 30
0.0
 11
-178.708834
 21
-9.147468
 31
0.0
  0
LINE
  5
2D1
100
AcDbEntity
  8
3
370
    25
100
AcDbLine
 10
-179.344771
 20
-10.066247
 30
0.0
 11
-178.425991
 21
-9.147468
 31
0.0
  0
LINE
  5
2D2
100
AcDbEntity
  8
3
370
    25
100
AcDbLine
 10
-179.061928
 20
-10.066247
 30
0.0
 11
-178.143148
 21
-9.147468
 31
0.0
  0
LINE
  5
2D3
100
AcDbEntity
  8
3
370
    25
100
AcDbLine
 10
-178.779085
 20
-10.066247
 30
0.0
 11
-177.860305
 21
-9.147468
 31
0.0
  0
LINE
  5
2D4
100
AcDbEntity
  8
3
370
    25
100
AcDbLine
 10
-178.496242
 20
-10.066247
 30
0.0
 11
-177.602304
 21
-9.172309
 31
0.0
  0
LINE
  5
2D5
100
AcDbEntity
  8
3
370
    25
100
AcDbLine
 10
-178.2134
 20
-10.066247
 30
0.0
 11
-177.427832
 21
-9.280679
 31
0.0
  0
LINE
  5
2D6
100
AcDbEntity
  8
3
370
    25
100
AcDbLine
 10
-177.930557
 20
-10.066247
 30
0.0
 11
-177.318163
 21
-9.453853
 31
0.0
  0
LINE
  5
2D7
100
AcDbEntity
  8
3
370
    25
100
AcDbLine
 10
-177.647714
 20
-10.066247
 30
0.0
 11
-177.291934
 21
-9.710467
 31
0.0
  0
LINE
  5
2D8
100
AcDbEntity
  8
3
370
    25
100
AcDbLine
 10
-177.364872
 20
-10.066247
 30
0.0
 11
-177.291934
 21
-9.99331
 31
0.0
  0
LINE
  5
2D9
100
AcDbEntity
  8
3
370
    25
100
AcDbLine
 10
-180.193299
 20
-10.066247
 30
0.0
 11
-179.274519
 21
-9.147468
 31
0.0
  0
LINE
  5
2DA
100
AcDbEntity
  8
3
370
    25
100
AcDbLine
 10
-180.232029
 20
-9.822135
 30
0.0
 11
-179.557362
 21
-9.147468
 31
0.0
  0
LINE
  5
2DB
100
AcDbEntity
  8
3
370
    25
100
AcDbLine
 10
-180.232029
 20
-9.539292
 30
0.0
 11
-179.840204
 21
-9.147468
 31
0.0
  0
LINE
  5
2DC
100
AcDbEntity
  8
3
370
    25
100
AcDbLine
 10
-180.232029
 20
-9.256449
 30
0.0
 11
-180.123047
 21
-9.147468
 31
0.0
  0
LINE
  5
2DD
100
AcDbEntity
  8
3
370
    25
100
AcDbLine
 10
-176.832544
 20
-9.46904
 30
0.0
 11
-176.510971
 21
-9.147468
 31
0.0
  0
LINE
  5
2DE
100
AcDbEntity
  8
3
370
    25
100
AcDbLine
 10
-175.086863
 20
-7.723359
 30
0.0
 11
-174.17018
 21
-6.806676
 31
0.0
  0
LINE
  5
2DF
100
AcDbEntity
  8
3
370
    25
100
AcDbLine
 10
-176.832544
 20
-9.751883
 30
0.0
 11
-176.228129
 21
-9.147468
 31
0.0
  0
LINE
  5
2E0
100
AcDbEntity
  8
3
370
    25
100
AcDbLine
 10
-175.086863
 20
-8.006202
 30
0.0
 11
-174.168083
 21
-7.087422
 31
0.0
  0
LINE
  5
2E1
100
AcDbEntity
  8
3
370
    25
100
AcDbLine
 10
-174.168083
 20
-7.370265
 30
0.0
 11
-175.123102
 21
-8.325284
 31
0.0
  0
LINE
  5
2E2
100
AcDbEntity
  8
3
370
    25
100
AcDbLine
 10
-175.909046
 20
-9.111228
 30
0.0
 11
-176.832544
 21
-10.034726
 31
0.0
  0
LINE
  5
2E3
100
AcDbEntity
  8
3
370
    25
100
AcDbLine
 10
-174.168083
 20
-7.653108
 30
0.0
 11
-176.581223
 21
-10.066247
 31
0.0
  0
LINE
  5
2E4
100
AcDbEntity
  8
3
370
    25
100
AcDbLine
 10
-174.168083
 20
-7.93595
 30
0.0
 11
-176.29838
 21
-10.066247
 31
0.0
  0
LINE
  5
2E5
100
AcDbEntity
  8
3
370
    25
100
AcDbLine
 10
-174.176301
 20
-8.22701
 30
0.0
 11
-176.00732
 21
-10.05803
 31
0.0
  0
LINE
  5
2E6
100
AcDbEntity
  8
3
370
    25
100
AcDbLine
 10
-174.237849
 20
-8.571402
 30
0.0
 11
-175.662929
 21
-9.996481
 31
0.0
  0
LINE
  5
2E7
100
AcDbEntity
  8
3
370
    25
100
AcDbLine
 10
-174.098401
 20
-8.714797
 30
0.0
 11
-175.179465
 21
-9.79586
 31
0.0
  0
LINE
  5
2E8
100
AcDbEntity
  8
3
370
    25
100
AcDbLine
 10
-173.929316
 20
-8.828554
 30
0.0
 11
-174.592298
 21
-9.491536
 31
0.0
  0
LINE
  5
2E9
100
AcDbEntity
  8
3
370
    25
100
AcDbLine
 10
-173.746202
 20
-8.928283
 30
0.0
 11
-174.422085
 21
-9.604166
 31
0.0
  0
LINE
  5
2EA
100
AcDbEntity
  8
3
370
    25
100
AcDbLine
 10
-173.547819
 20
-9.012742
 30
0.0
 11
-174.242025
 21
-9.706949
 31
0.0
  0
LINE
  5
2EB
100
AcDbEntity
  8
3
370
    25
100
AcDbLine
 10
-173.332224
 20
-9.07999
 30
0.0
 11
-174.051564
 21
-9.79933
 31
0.0
  0
LINE
  5
2EC
100
AcDbEntity
  8
3
370
    25
100
AcDbLine
 10
-173.096351
 20
-9.12696
 30
0.0
 11
-173.849938
 21
-9.880547
 31
0.0
  0
LINE
  5
2ED
100
AcDbEntity
  8
3
370
    25
100
AcDbLine
 10
-172.835117
 20
-9.148569
 30
0.0
 11
-173.636101
 21
-9.949553
 31
0.0
  0
LINE
  5
2EE
100
AcDbEntity
  8
3
370
    25
100
AcDbLine
 10
-172.698036
 20
-9.29433
 30
0.0
 11
-173.408614
 21
-10.004909
 31
0.0
  0
LINE
  5
2EF
100
AcDbEntity
  8
3
370
    25
100
AcDbLine
 10
-172.698036
 20
-9.577173
 30
0.0
 11
-173.165455
 21
-10.044592
 31
0.0
  0
LINE
  5
2F0
100
AcDbEntity
  8
3
370
    25
100
AcDbLine
 10
-172.698036
 20
-9.860015
 30
0.0
 11
-172.903672
 21
-10.065652
 31
0.0
  0
LINE
  5
2F1
100
AcDbEntity
  8
3
370
    25
100
AcDbLine
 10
-176.832544
 20
-9.186198
 30
0.0
 11
-176.793814
 21
-9.147468
 31
0.0
  0
LINE
  5
2F2
100
AcDbEntity
  8
3
370
    25
100
AcDbLine
 10
-175.086863
 20
-7.440516
 30
0.0
 11
-174.243963
 21
-6.597617
 31
0.0
  0
LINE
  5
2F3
100
AcDbEntity
  8
3
370
    25
100
AcDbLine
 10
-175.239097
 20
-7.309908
 30
0.0
 11
-174.387797
 21
-6.458607
 31
0.0
  0
LINE
  5
2F4
100
AcDbEntity
  8
3
370
    25
100
AcDbLine
 10
-175.52194
 20
-7.309908
 30
0.0
 11
-174.603772
 21
-6.39174
 31
0.0
  0
LINE
  5
2F5
100
AcDbEntity
  8
3
370
    25
100
AcDbLine
 10
-175.804783
 20
-7.309908
 30
0.0
 11
-174.886003
 21
-6.391129
 31
0.0
  0
LINE
  5
2F6
100
AcDbEntity
  8
3
370
    25
100
AcDbLine
 10
-176.087625
 20
-7.309908
 30
0.0
 11
-175.168846
 21
-6.391129
 31
0.0
  0
LINE
  5
2F7
100
AcDbEntity
  8
3
370
    25
100
AcDbLine
 10
-176.373154
 20
-7.312594
 30
0.0
 11
-176.370468
 21
-7.309908
 31
0.0
  0
LINE
  5
2F8
100
AcDbEntity
  8
3
370
    25
100
AcDbLine
 10
-176.370468
 20
-7.309908
 30
0.0
 11
-175.451689
 21
-6.391129
 31
0.0
  0
LINE
  5
2F9
100
AcDbEntity
  8
3
370
    25
100
AcDbLine
 10
-176.373154
 20
-7.029752
 30
0.0
 11
-175.734531
 21
-6.391129
 31
0.0
  0
LINE
  5
2FA
100
AcDbEntity
  8
3
370
    25
100
AcDbLine
 10
-176.373154
 20
-6.746909
 30
0.0
 11
-176.017374
 21
-6.391129
 31
0.0
  0
LINE
  5
2FB
100
AcDbEntity
  8
3
370
    25
100
AcDbLine
 10
-176.373154
 20
-6.464066
 30
0.0
 11
-176.300217
 21
-6.391129
 31
0.0
  0
HATCH
  5
2FC
100
AcDbEntity
  8
3
370
    25
100
AcDbHatch
 10
0.0
 20
0.0
 30
0.0
210
0.0
220
0.0
230
1.0
  2
_U
 70
     0
 71
     1
 91
        1
 92
        1
 93
        1
 72
     2
 10
-173.892449
 20
-6.6667620000000003
 40
0.275634
 50
0.0
 51
360.0
 73
     1
 97
        1
330
0
 75
     0
 76
     0
 52
45.0
 41
1.0
 77
     0
 78
     1
 53
45.0
 43
0.0
 44
0.0
 45
-0.141421
 46
0.141421
 79
     0
 98
        1
 10
0.0
 20
0.0
  0
HATCH
  5
2FD
100
AcDbEntity
  8
3
370
    25
100
AcDbHatch
 10
0.0
 20
0.0
 30
0.0
210
0.0
220
0.0
230
1.0
  2
_U
 70
     0
 71
     1
 91
        1
 92
        1
 93
        1
 72
     2
 10
-173.34118100000001
 20
-6.6667620000000003
 40
0.275634
 50
0.0
 51
360.0
 73
     1
 97
        1
330
0
 75
     0
 76
     0
 52
45.0
 41
1.0
 77
     0
 78
     1
 53
45.0
 43
0.0
 44
0.0
 45
-0.141421
 46
0.141421
 79
     0
 98
        1
 10
0.0
 20
0.0
  0
LINE
  5
2FE
100
AcDbEntity
  8
3
370
    25
100
AcDbLine
 10
-171.927988
 20
-6.391129
 30
0.0
 11
-172.663012
 21
-7.126152
 31
0.0
  0
LINE
  5
2FF
100
AcDbEntity
  8
3
370
    25
100
AcDbLine
 10
-171.645146
 20
-6.391129
 30
0.0
 11
-173.049382
 21
-7.795365
 31
0.0
  0
LINE
  5
300
100
AcDbEntity
  8
3
370
    25
100
AcDbLine
 10
-171.362303
 20
-6.391129
 30
0.0
 11
-172.83235
 21
-7.861176
 31
0.0
  0
LINE
  5
301
100
AcDbEntity
  8
3
370
    25
100
AcDbLine
 10
-171.07946
 20
-6.391129
 30
0.0
 11
-172.549508
 21
-7.861176
 31
0.0
  0
LINE
  5
302
100
AcDbEntity
  8
3
370
    25
100
AcDbLine
 10
-170.796617
 20
-6.391129
 30
0.0
 11
-171.715397
 21
-7.309908
 31
0.0
  0
LINE
  5
303
100
AcDbEntity
  8
3
370
    25
100
AcDbLine
 10
-171.715397
 20
-7.309908
 30
0.0
 11
-172.266665
 21
-7.861176
 31
0.0
  0
LINE
  5
304
100
AcDbEntity
  8
3
370
    25
100
AcDbLine
 10
-170.513775
 20
-6.391129
 30
0.0
 11
-171.432554
 21
-7.309908
 31
0.0
  0
LINE
  5
305
100
AcDbEntity
  8
3
370
    25
100
AcDbLine
 10
-170.282156
 20
-6.442353
 30
0.0
 11
-171.149712
 21
-7.309908
 31
0.0
  0
LINE
  5
306
100
AcDbEntity
  8
3
370
    25
100
AcDbLine
 10
-171.503622
 20
-7.946661
 30
0.0
 11
-171.234381
 21
-7.67742
 31
0.0
  0
LINE
  5
307
100
AcDbEntity
  8
3
370
    25
100
AcDbLine
 10
-170.952354
 20
-7.395394
 30
0.0
 11
-170.128208
 21
-6.571248
 31
0.0
  0
LINE
  5
308
100
AcDbEntity
  8
3
370
    25
100
AcDbLine
 10
-171.503622
 20
-8.229504
 30
0.0
 11
-170.952354
 21
-7.678236
 31
0.0
  0
LINE
  5
309
100
AcDbEntity
  8
3
370
    25
100
AcDbLine
 10
-170.951538
 20
-7.67742
 30
0.0
 11
-170.041213
 21
-6.767095
 31
0.0
  0
LINE
  5
30A
100
AcDbEntity
  8
3
370
    25
100
AcDbLine
 10
-172.238646
 20
-9.247371
 30
0.0
 11
-172.138743
 21
-9.147468
 31
0.0
  0
LINE
  5
30B
100
AcDbEntity
  8
3
370
    25
100
AcDbLine
 10
-171.503622
 20
-8.512347
 30
0.0
 11
-170.033575
 21
-7.042299
 31
0.0
  0
LINE
  5
30C
100
AcDbEntity
  8
3
370
    25
100
AcDbLine
 10
-172.238646
 20
-9.530213
 30
0.0
 11
-171.833429
 21
-9.124997
 31
0.0
  0
LINE
  5
30D
100
AcDbEntity
  8
3
370
    25
100
AcDbLine
 10
-171.304632
 20
-8.5962
 30
0.0
 11
-170.033575
 21
-7.325142
 31
0.0
  0
LINE
  5
30E
100
AcDbEntity
  8
3
370
    25
100
AcDbLine
 10
-170.033575
 20
-7.607985
 30
0.0
 11
-172.238646
 21
-9.813056
 31
0.0
  0
LINE
  5
30F
100
AcDbEntity
  8
3
370
    25
100
AcDbLine
 10
-170.033575
 20
-7.890828
 30
0.0
 11
-172.208994
 21
-10.066247
 31
0.0
  0
LINE
  5
310
100
AcDbEntity
  8
3
370
    25
100
AcDbLine
 10
-171.921763
 20
-10.061858
 30
0.0
 11
-170.037963
 21
-8.178059
 31
0.0
  0
LINE
  5
311
100
AcDbEntity
  8
3
370
    25
100
AcDbLine
 10
-171.588849
 20
-10.011788
 30
0.0
 11
-170.088034
 21
-8.510972
 31
0.0
  0
LINE
  5
312
100
AcDbEntity
  8
3
370
    25
100
AcDbLine
 10
-171.143169
 20
-9.84895
 30
0.0
 11
-170.250872
 21
-8.956653
 31
0.0
  0
LINE
  5
313
100
AcDbEntity
  8
3
370
    25
100
AcDbLine
 10
-172.210831
 20
-6.391129
 30
0.0
 11
-172.276642
 21
-6.456939
 31
0.0
  0
LINE
  5
314
100
AcDbEntity
  8
3
370
    25
100
AcDbLine
 10
-167.608808
 20
-6.447067
 30
0.0
 11
-168.471649
 21
-7.309908
 31
0.0
  0
LINE
  5
315
100
AcDbEntity
  8
3
370
    25
100
AcDbLine
 10
-167.457923
 20
-6.579024
 30
0.0
 11
-168.188807
 21
-7.309908
 31
0.0
  0
LINE
  5
316
100
AcDbEntity
  8
3
370
    25
100
AcDbLine
 10
-167.374761
 20
-6.778706
 30
0.0
 11
-167.905964
 21
-7.309908
 31
0.0
  0
LINE
  5
317
100
AcDbEntity
  8
3
370
    25
100
AcDbLine
 10
-167.369114
 20
-7.055901
 30
0.0
 11
-167.623121
 21
-7.309908
 31
0.0
  0
LINE
  5
318
100
AcDbEntity
  8
3
370
    25
100
AcDbLine
 10
-167.835712
 20
-6.391129
 30
0.0
 11
-168.754492
 21
-7.309908
 31
0.0
  0
LINE
  5
319
100
AcDbEntity
  8
3
370
    25
100
AcDbLine
 10
-168.118555
 20
-6.391129
 30
0.0
 11
-169.037335
 21
-7.309908
 31
0.0
  0
LINE
  5
31A
100
AcDbEntity
  8
3
370
    25
100
AcDbLine
 10
-168.401398
 20
-6.391129
 30
0.0
 11
-169.320177
 21
-7.309908
 31
0.0
  0
LINE
  5
31B
100
AcDbEntity
  8
3
370
    25
100
AcDbLine
 10
-168.68424
 20
-6.391129
 30
0.0
 11
-169.574185
 21
-7.281073
 31
0.0
  0
LINE
  5
31C
100
AcDbEntity
  8
3
370
    25
100
AcDbLine
 10
-168.967083
 20
-6.391129
 30
0.0
 11
-169.574185
 21
-6.99823
 31
0.0
  0
LINE
  5
31D
100
AcDbEntity
  8
3
370
    25
100
AcDbLine
 10
-169.249926
 20
-6.391129
 30
0.0
 11
-169.574185
 21
-6.715388
 31
0.0
  0
LINE
  5
31E
100
AcDbEntity
  8
3
370
    25
100
AcDbLine
 10
-169.532769
 20
-6.391129
 30
0.0
 11
-169.574185
 21
-6.432545
 31
0.0
  0
LINE
  5
31F
100
AcDbEntity
  8
3
370
    25
100
AcDbLine
 10
-169.574185
 20
-10.020308
 30
0.0
 11
-168.701344
 21
-9.147468
 31
0.0
  0
LINE
  5
320
100
AcDbEntity
  8
3
370
    25
100
AcDbLine
 10
-169.337281
 20
-10.066247
 30
0.0
 11
-168.418501
 21
-9.147468
 31
0.0
  0
LINE
  5
321
100
AcDbEntity
  8
3
370
    25
100
AcDbLine
 10
-169.054438
 20
-10.066247
 30
0.0
 11
-168.135659
 21
-9.147468
 31
0.0
  0
LINE
  5
322
100
AcDbEntity
  8
3
370
    25
100
AcDbLine
 10
-168.771596
 20
-10.066247
 30
0.0
 11
-167.852816
 21
-9.147468
 31
0.0
  0
LINE
  5
323
100
AcDbEntity
  8
3
370
    25
100
AcDbLine
 10
-168.488753
 20
-10.066247
 30
0.0
 11
-167.62001
 21
-9.197505
 31
0.0
  0
LINE
  5
324
100
AcDbEntity
  8
3
370
    25
100
AcDbLine
 10
-168.20591
 20
-10.066247
 30
0.0
 11
-167.465271
 21
-9.325608
 31
0.0
  0
LINE
  5
325
100
AcDbEntity
  8
3
370
    25
100
AcDbLine
 10
-167.923068
 20
-10.066247
 30
0.0
 11
-167.377306
 21
-9.520486
 31
0.0
  0
LINE
  5
326
100
AcDbEntity
  8
3
370
    25
100
AcDbLine
 10
-167.640225
 20
-10.066247
 30
0.0
 11
-167.369114
 21
-9.795136
 31
0.0
  0
LINE
  5
327
100
AcDbEntity
  8
3
370
    25
100
AcDbLine
 10
-167.357382
 20
-10.066247
 30
0.0
 11
-167.369114
 21
-10.077979
 31
0.0
  0
LINE
  5
328
100
AcDbEntity
  8
3
370
    25
100
AcDbLine
 10
-169.574185
 20
-9.737466
 30
0.0
 11
-168.984187
 21
-9.147468
 31
0.0
  0
LINE
  5
329
100
AcDbEntity
  8
3
370
    25
100
AcDbLine
 10
-169.574185
 20
-9.454623
 30
0.0
 11
-169.26703
 21
-9.147468
 31
0.0
  0
LINE
  5
32A
100
AcDbEntity
  8
3
370
    25
100
AcDbLine
 10
-169.574185
 20
-9.17178
 30
0.0
 11
-169.549872
 21
-9.147468
 31
0.0
  0
TEXT
  5
32B
100
AcDbEntity
  8
3
370
    50
100
AcDbText
 10
-171.868556
 20
61.494926
 30
0.0
 40
7.0
  1
φ３４
 72
     5
 11
-152.268556
 21
61.494926
 31
0.0
100
AcDbText
  0
DIMENSION
  5
32C
100
AcDbEntity
  8
3
370
    25
100
AcDbDimension
  2
*D6
 10
-108.868556
 20
60.494926
 30
0.0
 11
-125.868556
 21
62.494926
 31
0.0
 70
     1
 71
     0
 72
     0
 41
0.0
 42
0.0
  3
Standard
100
AcDbAlignedDimension
 13
-142.868556
 23
60.494926
 33
0.0
 14
-108.868556
 24
60.494926
 34
0.0
  0
TEXT
  5
32D
100
AcDbEntity
  8
3
370
    50
100
AcDbText
 10
-117.186722
 20
138.711857
 30
0.0
 40
6.999667
  1
吐水
 72
     5
 11
-104.587321
 21
138.711857
 31
0.0
100
AcDbText
  0
DIMENSION
  5
32E
100
AcDbEntity
  8
3
370
    25
100
AcDbDimension
  2
*D7
 10
-125.868556
 20
142.181032
 30
0.0
 11
-150.838284
 21
142.870264
 31
0.0
 70
     2
 71
     0
 72
     0
 41
0.0
 42
0.0
  3
Standard
100
AcDb2LineAngularDimension
 13
-173.119042
 23
182.689236
 33
0.0
 14
-125.868556
 24
182.689236
 34
0.0
 15
-125.868556
 25
182.689236
 35
0.0
 16
-158.970012
 26
149.587779
 36
0.0
1001
ACAD
1000
DSTYLE
1002
{
1070
   275
1070
     0
1070
   179
1070
     0
1002
}
  0
TEXT
  5
32F
100
AcDbEntity
  8
3
370
    50
100
AcDbText
 10
-183.670894
 20
184.655132
 30
0.0
 40
6.999667
  1
止水
 72
     5
 11
-171.071494
 21
184.655132
 31
0.0
100
AcDbText
  0
TEXT
  5
330
100
AcDbEntity
  8
3
370
    50
100
AcDbText
 10
-127.482544
 20
236.048779
 30
0.0
 40
7.0
  1
＊ハンドル位置ハ製造上ノ誤差ニヨリ
 72
     5
 11
-9.882544
 21
236.048779
 31
0.0
100
AcDbText
  0
TEXT
  5
331
100
AcDbEntity
  8
3
370
    50
100
AcDbText
 10
-132.482544
 20
242.048779
 30
0.0
 40
12.0
  1
△
 72
     5
 11
-122.882544
 21
242.048779
 31
0.0
100
AcDbText
  0
TEXT
  5
332
100
AcDbEntity
  8
3
370
    50
100
AcDbText
 10
-128.654535
 20
244.687252
 30
0.0
 40
4.0
  1
１
 72
     5
 11
-125.454535
 21
244.687252
 31
0.0
100
AcDbText
  0
TEXT
  5
333
100
AcDbEntity
  8
3
370
    50
100
AcDbText
 10
-127.482544
 20
236.048779
 30
0.0
 40
7.0
  1
＊ハンドル位置ハ製造上ノ誤差ニヨリ
 72
     5
 11
-9.882544
 21
236.048779
 31
0.0
100
AcDbText
  0
TEXT
  5
334
100
AcDbEntity
  8
3
370
    50
100
AcDbText
 10
-120.482544
 20
228.048779
 30
0.0
 40
7.0
  1
左図ニ示シタ止水位置ノヨウニパイ
 72
     5
 11
-9.882544
 21
228.048779
 31
0.0
100
AcDbText
  0
TEXT
  5
335
100
AcDbEntity
  8
3
370
    50
100
AcDbText
 10
-120.482544
 20
220.048779
 30
0.0
 40
7.0
  1
プノ真上ニコナイコトガアリマス
 72
     5
 11
-16.882544
 21
220.048779
 31
0.0
100
AcDbText
  0
TEXT
  5
336
100
AcDbEntity
  8
3
370
    50
100
AcDbText
 10
-120.482544
 20
228.048779
 30
0.0
 40
7.0
  1
左図ニ示シタ止水位置ノヨウニパイ
 72
     5
 11
-9.882544
 21
228.048779
 31
0.0
100
AcDbText
  0
TEXT
  5
337
100
AcDbEntity
  8
3
370
    50
100
AcDbText
 10
-120.482544
 20
220.048779
 30
0.0
 40
7.0
  1
プノ真上ニコナイコトガアリマス
 72
     5
 11
-16.882544
 21
220.048779
 31
0.0
100
AcDbText
  0
TEXT
  5
338
100
AcDbEntity
  8
3
370
    50
100
AcDbText
 10
65.002039
 20
-235.834186
 30
0.0
 40
7.0
  1
ＭＬ０５０
 72
     5
 11
98.602039
 21
-235.834186
 31
0.0
100
AcDbText
  0
TEXT
  5
339
100
AcDbEntity
  8
3
370
    50
100
AcDbText
 10
336.070276
 20
-271.880939
 30
0.0
 40
6.4
  1
５０２２１４
 72
     5
 11
373.190276
 21
-271.880939
 31
0.0
100
AcDbText
  0
ARC
  5
33A
100
AcDbEntity
  8
3
370
    50
100
AcDbCircle
 10
130.710204
 20
-8.065356
 30
0.0
 40
2.0
100
AcDbArc
 50
0.0
 51
90.0
  0
ARC
  5
33B
100
AcDbEntity
  8
3
370
    50
100
AcDbCircle
 10
130.710204
 20
-16.065356
 30
0.0
 40
2.0
100
AcDbArc
 50
270.0
 51
360.0
  0
ARC
  5
33C
100
AcDbEntity
  8
3
370
    50
100
AcDbCircle
 10
108.710204
 20
-16.065356
 30
0.0
 40
2.0
100
AcDbArc
 50
180.0
 51
270.0
  0
ARC
  5
33D
100
AcDbEntity
  8
3
370
    50
100
AcDbCircle
 10
108.710204
 20
-8.065356
 30
0.0
 40
2.0
100
AcDbArc
 50
90.0
 51
180.0
  0
HATCH
  5
33E
100
AcDbEntity
  8
3
370
    25
100
AcDbHatch
 10
0.0
 20
0.0
 30
0.0
210
0.0
220
0.0
230
1.0
  2
_U
 70
     0
 71
     1
 91
        1
 92
        1
 93
        8
 72
     1
 10
130.710204
 20
-6.0653560000000004
 11
108.710204
 21
-6.0653560000000004
 72
     2
 10
108.710204
 20
-8.0653559999999995
 40
2.0
 50
90.0
 51
180.0
 73
     1
 72
     1
 10
106.710204
 20
-8.0653559999999995
 11
106.710204
 21
-16.065356000000001
 72
     2
 10
108.710204
 20
-16.065356000000001
 40
2.0
 50
180.0
 51
270.0
 73
     1
 72
     1
 10
108.710204
 20
-18.065356000000001
 11
130.710204
 21
-18.065356000000001
 72
     2
 10
130.710204
 20
-16.065356000000001
 40
2.0
 50
270.0
 51
0.0
 73
     1
 72
     1
 10
132.710204
 20
-16.065356000000001
 11
132.710204
 21
-8.0653559999999995
 72
     2
 10
130.710204
 20
-8.0653559999999995
 40
2.0
 50
0.0
 51
90.0
 73
     1
 97
        8
330
0
330
0
330
0
330
0
330
0
330
0
330
0
330
0
 75
     0
 76
     0
 52
45.0
 41
1.0
 77
     0
 78
     1
 53
45.0
 43
0.0
 44
0.0
 45
-1.4142140000000001
 46
1.4142140000000001
 79
     0
 98
        1
 10
0.0
 20
0.0
  0
TEXT
  5
33F
100
AcDbEntity
  8
3
370
    50
100
AcDbText
 10
148.131796
 20
2.25505
 30
0.0
 40
12.0
  1
△
 72
     5
 11
157.731796
 21
2.25505
 31
0.0
100
AcDbText
  0
TEXT
  5
340
100
AcDbEntity
  8
3
370
    50
100
AcDbText
 10
151.847589
 20
4.894042
 30
0.0
 40
4.0
  1
５
 72
     5
 11
155.047589
 21
4.894042
 31
0.0
100
AcDbText
  0
TEXT
  5
341
100
AcDbEntity
  8
3
370
    50
100
AcDbText
 10
304.010761
 20
223.161331
 30
0.0
 40
4.4
  1
ロットシール（ネーマー銀）追加
 72
     5
 11
369.130761
 21
223.161331
 31
0.0
100
AcDbText
  0
LINE
  5
342
100
AcDbEntity
  8
3
370
    50
100
AcDbLine
 10
155.443358
 20
-0.280511
 30
0.0
 11
155.443358
 21
-8.280511
 31
0.0
  0
LINE
  5
343
100
AcDbEntity
  8
3
370
    50
100
AcDbLine
 10
181.443358
 20
-0.280511
 30
0.0
 11
181.443358
 21
-8.280511
 31
0.0
  0
LINE
  5
344
100
AcDbEntity
  8
3
370
    50
100
AcDbLine
 10
157.443358
 20
1.719489
 30
0.0
 11
179.443358
 21
1.719489
 31
0.0
  0
LINE
  5
345
100
AcDbEntity
  8
3
370
    50
100
AcDbLine
 10
157.443358
 20
-10.280511
 30
0.0
 11
179.443358
 21
-10.280511
 31
0.0
  0
ARC
  5
346
100
AcDbEntity
  8
3
370
    50
100
AcDbCircle
 10
179.443358
 20
-0.280511
 30
0.0
 40
2.0
100
AcDbArc
 50
0.0
 51
90.0
  0
ARC
  5
347
100
AcDbEntity
  8
3
370
    50
100
AcDbCircle
 10
179.443358
 20
-8.280511
 30
0.0
 40
2.0
100
AcDbArc
 50
270.0
 51
360.0
  0
ARC
  5
348
100
AcDbEntity
  8
3
370
    50
100
AcDbCircle
 10
157.443358
 20
-8.280511
 30
0.0
 40
2.0
100
AcDbArc
 50
180.0
 51
270.0
  0
ARC
  5
349
100
AcDbEntity
  8
3
370
    50
100
AcDbCircle
 10
157.443358
 20
-0.280511
 30
0.0
 40
2.0
100
AcDbArc
 50
90.0
 51
180.0
  0
LWPOLYLINE
  5
34A
100
AcDbEntity
  8
3
370
    25
100
AcDbPolyline
 90
        2
 70
     0
 10
132.710204
 20
-9.459051
 10
155.598969
 20
-3.670201
  0
TEXT
  5
34E
100
AcDbEntity
  8
3
370
    50
100
AcDbText
 10
156.69812
 20
-3.408927
 30
0.0
 40
4.0
  1
５０２２１４
 72
     5
 11
179.89812
 21
-3.408927
 31
0.0
100
AcDbText
  0
TEXT
  5
34F
100
AcDbEntity
  8
3
370
    50
100
AcDbText
 10
358.222772
 20
-240.171024
 30
0.0
 40
7.0
  1
水谷　水谷
 72
     5
 11
391.822772
 21
-240.171024
 31
0.0
100
AcDbText
  0
TEXT
  5
350
100
AcDbEntity
  8
3
370
    50
100
AcDbText
 10
156.754822
 20
-8.165637
 30
0.0
 40
4.0
  1
１２Ａ２６３Ｍ
 41
0.85
 72
     5
 11
179.874822
 21
-8.165637
 31
0.0
100
AcDbText
  0
ENDSEC
  0
SECTION
  2
OBJECTS
  0
DICTIONARY
  5
3AB
100
AcDbDictionary
280
     0
281
     1
  3
ACAD_GROUP
350
3AC
  3
ACAD_MLINESTYLE
350
3AD
  0
DICTIONARY
  5
3AC
102
{ACAD_REACTORS
330
3AB
102
}
100
AcDbDictionary
280
     0
281
     1
  0
DICTIONARY
  5
3AD
102
{ACAD_REACTORS
330
3AB
102
}
100
AcDbDictionary
280
     0
281
     1
  3
Standard
350
3AE
  0
MLINESTYLE
  5
3AE
102
{ACAD_REACTORS
330
3AD
102
}
100
AcDbMlineStyle
  2
Standard
 70
     0
  3

 62
     0
 51
90.0
 52
90.0
 71
     2
 49
0.5
 62
   256
  6
ByLayer
 49
-0.5
 62
   256
  6
ByLayer
  0
ENDSEC
  0
EOF
