  0
SECTION
  2
HEADER
  9
$ACADVER
  1
AC1015
  9
$ACADMAINTVER
 70
     6
  9
$DWGCODEPAGE
  3
ANSI_932
  9
$INSBASE
 10
0.0
 20
0.0
 30
0.0
  9
$EXTMIN
 10
-420.0
 20
-297.0
 30
1.000000E+20
  9
$EXTMAX
 10
420.0
 20
297.0
 30
-1.000000E+20
  9
$LIMMIN
 10
-420.0
 20
-297.0
  9
$LIMMAX
 10
420.0
 20
297.0
  9
$ORTHOMODE
 70
     0
  9
$REGENMODE
 70
     1
  9
$FILLMODE
 70
     1
  9
$QTEXTMODE
 70
     0
  9
$MIRRTEXT
 70
     1
  9
$LTSCALE
 40
1.0
  9
$ATTMODE
 70
     1
  9
$TEXTSIZE
 40
0.2
  9
$TRACEWID
 40
0.05
  9
$TEXTSTYLE
  7
STANDARD
  9
$CLAYER
  8
0
  9
$CELTYPE
  6
CONTINUOUS
  9
$CECOLOR
 62
   256
  9
$CELTSCALE
 40
1.0
  9
$DISPSILH
 70
     0
  9
$DIMSCALE
 40
2.0
  9
$DIMASZ
 40
2.0
  9
$DIMEXO
 40
1.0
  9
$DIMDLI
 40
0.38
  9
$DIMRND
 40
0.0
  9
$DIMDLE
 40
0.0
  9
$DIMEXE
 40
2.0
  9
$DIMTP
 40
0.0
  9
$DIMTM
 40
0.0
  9
$DIMTXT
 40
3.5
  9
$DIMCEN
 40
0.09
  9
$DIMTSZ
 40
0.0
  9
$DIMTOL
 70
     0
  9
$DIMLIM
 70
     0
  9
$DIMTIH
 70
     0
  9
$DIMTOH
 70
     0
  9
$DIMSE1
 70
     0
  9
$DIMSE2
 70
     0
  9
$DIMTAD
 70
     1
  9
$DIMZIN
 70
     0
  9
$DIMBLK
  1

  9
$DIMASO
 70
     1
  9
$DIMSHO
 70
     1
  9
$DIMPOST
  1

  9
$DIMAPOST
  1

  9
$DIMALT
 70
     0
  9
$DIMALTD
 70
     2
  9
$DIMALTF
 40
25.4
  9
$DIMLFAC
 40
1.0
  9
$DIMTOFL
 70
     0
  9
$DIMTVP
 40
0.0
  9
$DIMTIX
 70
     0
  9
$DIMSOXD
 70
     0
  9
$DIMSAH
 70
     0
  9
$DIMBLK1
  1

  9
$DIMBLK2
  1

  9
$DIMSTYLE
  2
Standard
  9
$DIMCLRD
 70
     0
  9
$DIMCLRE
 70
     0
  9
$DIMCLRT
 70
     0
  9
$DIMTFAC
 40
1.0
  9
$DIMGAP
 40
0.5
  9
$DIMJUST
 70
     0
  9
$DIMSD1
 70
     0
  9
$DIMSD2
 70
     0
  9
$DIMTOLJ
 70
     1
  9
$DIMTZIN
 70
     0
  9
$DIMALTZ
 70
     0
  9
$DIMALTTZ
 70
     0
  9
$DIMUPT
 70
     0
  9
$DIMDEC
 70
     3
  9
$DIMTDEC
 70
     4
  9
$DIMALTU
 70
     2
  9
$DIMALTTD
 70
     2
  9
$DIMTXSTY
  7
STANDARD
  9
$DIMAUNIT
 70
     0
  9
$DIMADEC
 70
     0
  9
$DIMALTRND
 40
0.0
  9
$DIMAZIN
 70
     0
  9
$DIMDSEP
 70
     0
  9
$DIMATFIT
 70
     3
  9
$DIMFRAC
 70
     0
  9
$DIMLDRBLK
  1

  9
$DIMLUNIT
 70
     2
  9
$DIMLWD
 70
     0
  9
$DIMLWE
 70
     0
  9
$DIMTMOVE
 70
     0
  9
$LUNITS
 70
     2
  9
$LUPREC
 70
     4
  9
$SKETCHINC
 40
0.1
  9
$FILLETRAD
 40
0.0
  9
$AUNITS
 70
     0
  9
$AUPREC
 70
     0
  9
$MENU
  1
acad
  9
$ELEVATION
 40
0.0
  9
$PELEVATION
 40
0.0
  9
$THICKNESS
 40
0.0
  9
$LIMCHECK
 70
     0
  9
$CHAMFERA
 40
0.0
  9
$CHAMFERB
 40
0.0
  9
$CHAMFERC
 40
0.0
  9
$CHAMFERD
 40
0.0
  9
$SKPOLY
 70
     0
  9
$TDCREATE
 40
2454289.000000000
  9
$TDUCREATE
 40
0.000000000
  9
$TDUPDATE
 40
0.000000000
  9
$TDUUPDATE
 40
2447892.625000000
  9
$TDINDWG
 40
0.0000000000
  9
$TDUSRTIMER
 40
0.0000000000
  9
$USRTIMER
 70
     1
  9
$ANGBASE
 50
0.0
  9
$ANGDIR
 70
     0
  9
$PDMODE
 70
     0
  9
$PDSIZE
 40
0.0
  9
$PLINEWID
 40
0.0
  9
$SPLFRAME
 70
     0
  9
$SPLINETYPE
 70
     6
  9
$SPLINESEGS
 70
     8
  9
$HANDSEED
  5
753
  9
$SURFTAB1
 70
     6
  9
$SURFTAB2
 70
     6
  9
$SURFTYPE
 70
     6
  9
$SURFU
 70
     6
  9
$SURFV
 70
     6
  9
$UCSBASE
  2

  9
$UCSNAME
  2

  9
$UCSORG
 10
0.0
 20
0.0
 30
0.0
  9
$UCSXDIR
 10
1.0
 20
0.0
 30
0.0
  9
$UCSYDIR
 10
0.0
 20
1.0
 30
0.0
  9
$UCSORTHOREF
  2

  9
$UCSORTHOVIEW
 70
     0
  9
$UCSORGTOP
 10
0.0
 20
0.0
 30
0.0
  9
$UCSORGBOTTOM
 10
0.0
 20
0.0
 30
0.0
  9
$UCSORGLEFT
 10
0.0
 20
0.0
 30
0.0
  9
$UCSORGRIGHT
 10
0.0
 20
0.0
 30
0.0
  9
$UCSORGFRONT
 10
0.0
 20
0.0
 30
0.0
  9
$UCSORGBACK
 10
0.0
 20
0.0
 30
0.0
  9
$PUCSBASE
  2

  9
$PUCSNAME
  2

  9
$PUCSORG
 10
0.0
 20
0.0
 30
0.0
  9
$PUCSXDIR
 10
1.0
 20
0.0
 30
0.0
  9
$PUCSYDIR
 10
0.0
 20
1.0
 30
0.0
  9
$PUCSORTHOREF
  2

  9
$PUCSORTHOVIEW
 70
     0
  9
$PUCSORGTOP
 10
0.0
 20
0.0
 30
0.0
  9
$PUCSORGBOTTOM
 10
0.0
 20
0.0
 30
0.0
  9
$PUCSORGLEFT
 10
0.0
 20
0.0
 30
0.0
  9
$PUCSORGRIGHT
 10
0.0
 20
0.0
 30
0.0
  9
$PUCSORGFRONT
 10
0.0
 20
0.0
 30
0.0
  9
$PUCSORGBACK
 10
0.0
 20
0.0
 30
0.0
  9
$USERI1
 70
     0
  9
$USERI2
 70
     0
  9
$USERI3
 70
     0
  9
$USERI4
 70
     0
  9
$USERI5
 70
     0
  9
$USERR1
 40
0.0
  9
$USERR2
 40
0.0
  9
$USERR3
 40
0.0
  9
$USERR4
 40
0.0
  9
$USERR5
 40
0.0
  9
$WORLDVIEW
 70
     1
  9
$SHADEDGE
 70
     3
  9
$SHADEDIF
 70
    70
  9
$TILEMODE
 70
     1
  9
$MAXACTVP
 70
    16
  9
$PINSBASE
 10
0.0
 20
0.0
 30
0.0
  9
$PLIMCHECK
 70
     0
  9
$PEXTMIN
 10
1.000000E+20
 20
1.000000E+20
 30
1.000000E+20
  9
$PEXTMAX
 10
-1.000000E+20
 20
-1.000000E+20
 30
-1.000000E+20
  9
$PLIMMIN
 10
0.0
 20
0.0
  9
$PLIMMAX
 10
12.0
 20
9.0
  9
$UNITMODE
 70
     0
  9
$VISRETAIN
 70
     0
  9
$PLINEGEN
 70
     1
  9
$PSLTSCALE
 70
     0
  9
$TREEDEPTH
 70
  3020
  9
$CMLSTYLE
  2
Standard
  9
$CMLJUST
 70
     0
  9
$CMLSCALE
 40
1.0
  9
$PROXYGRAPHICS
 70
     0
  9
$MEASUREMENT
 70
     0
  9
$CELWEIGHT
370
     0
  9
$ENDCAPS
280
     0
  9
$JOINSTYLE
280
     0
  9
$LWDISPLAY
290
     0
  9
$INSUNITS
 70
     0
  9
$HYPERLINKBASE
  1

  9
$STYLESHEET
  1

  9
$XEDIT
290
     1
  9
$CEPSNTYPE
380
     0
  9
$PSTYLEMODE
290
     1
  9
$FINGERPRINTGUID
  2

  9
$VERSIONGUID
  2

  9
$EXTNAMES
290
     1
  9
$PSVPSCALE
 40
0.0
  0
ENDSEC
  0
SECTION
  2
CLASSES
  0
CLASS
  1
LWPOLYLINE
  2
AcDbPolyline
  3
AutoCAD 2000
 90
        0
280
     0
281
     1
  0
CLASS
  1
IMAGE
  2
AcDbRasterImage
  3
ISM
 90
      127
280
     0
281
     1
  0
CLASS
  1
OLE2FRAME
  2
AcDbOle2Frame
  3
AutoCAD 2000
 90
        0
280
     0
281
     1
  0
CLASS
  1
HATCH
  2
AcDbHatch
  3
AutoCAD 2000
 90
        0
280
     0
281
     1
  0
CLASS
  1
DICTIONARYVAR
  2
AcDbDictionaryVar
  3
AutoCAD 2000
 90
        0
280
     0
281
     0
  0
CLASS
  1
RASTERVARIABLES
  2
AcDbRasterVariables
  3
ISM
 90
        0
280
     0
281
     0
  0
CLASS
  1
IMAGEDEF
  2
AcDbRasterImageDef
  3
ISM
 90
        0
280
     0
281
     0
  0
CLASS
  1
IMAGEDEF_REACTOR
  2
AcDbRasterImageDefReactor
  3
ISM
 90
        1
280
     0
281
     0
  0
CLASS
  1
IDBUFFER
  2
AcDbIdBuffer
  3
AutoCAD 2000
 90
        0
280
     0
281
     0
  0
CLASS
  1
SPATIAL_FILTER
  2
AcDbSpatialFilter
  3
AutoCAD 2000
 90
        0
280
     0
281
     0
  0
CLASS
  1
XRECORD
  2
AcDbXrecord
  3
AutoCAD 2000
 90
        0
280
     0
281
     0
  0
CLASS
  1
SORTENTSTABLE
  2
AcDbSortentsTable
  3
AutoCAD 2000
 90
        0
280
     0
281
     0
  0
CLASS
  1
LAYER_INDEX
  2
AcDbLayerIndex
  3
AutoCAD 2000
 90
        0
280
     0
281
     0
  0
CLASS
  1
SPATIAL_INDEX
  2
AcDbSpatialIndex
  3
AutoCAD 2000
 90
        0
280
     0
281
     0
  0
CLASS
  1
OBJECT_PTR
  2
CAseDLPNTableRecord
  3
"ASE-LPNTableRecord"
 90
        1
280
     0
281
     0
  0
CLASS
  1
LAYOUT
  2
AcDbLayout
  3
AutoCAD 2000
 90
        0
280
     0
281
     0
  0
CLASS
  1
PLOTSETTINGS
  2
AcDbPlotSettings
  3
AutoCAD 2000
 90
        0
280
     0
281
     0
  0
CLASS
  1
ACDBDICTIONARYWDFLT
  2
AcDbDictionaryWithDefault
  3
AutoCAD 2000
 90
        0
280
     0
281
     0
  0
CLASS
  1
ACDBPLACEHOLDER
  2
AcDbPlaceHolder
  3
AutoCAD 2000
 90
        0
280
     0
281
     0
  0
CLASS
  1
VBA_PROJECT
  2
AcDbVbaProject
  3
acadvba
 90
        0
280
     0
281
     0
  0
CLASS
  1
WIPEOUT
  2
AcDbWipeout
  3
WipeOut|AutoCAD Express Tool|expresstools@autodesk.com
 90
      127
280
     0
281
     1
  0
CLASS
  1
WIPEOUTVARIABLES
  2
AcDbWipeoutVariables
  3
WipeOut|AutoCAD Express Tool|expresstools@autodesk.com
 90
        0
280
     0
281
     0
  0
CLASS
  1
RTEXT
  2
RText
  3
RText|AutoCAD Express Tool|expresstools@autodesk.com
 90
        0
280
     0
281
     1
  0
CLASS
  1
ARCALIGNEDTEXT
  2
AcDbArcAlignedText
  3
ATEXT|AutoCAD Express Tool|expresstools@autodesk.com
 90
        0
280
     0
281
     1
  0
ENDSEC
  0
SECTION
  2
TABLES
  0
TABLE
  2
VPORT
  5
6
100
AcDbSymbolTable
 70
     1
  0
VPORT
  5
19
100
AcDbSymbolTableRecord
100
AcDbViewportTableRecord
  2
*ACTIVE
 70
     0
 10
0.0
 20
0.0
 11
1.0
 21
1.0
 12
0.0
 22
0.0
 13
0.0
 23
0.0
 14
1.0
 24
1.0
 15
0.0
 25
0.0
 16
0.0
 26
0.0
 36
1.0
 17
0.0
 27
0.0
 37
0.0
 40
594.0
 41
1.414141
 42
50.0
 43
0.0
 44
0.0
 50
0.0
 51
0.0
 71
     0
 72
   500
 73
     1
 74
     1
 75
     0
 76
     0
 77
     0
 78
     0
281
     0
 65
     0
110
0.0
120
0.0
130
0.0
111
1.0
121
0.0
131
0.0
112
0.0
122
1.0
132
0.0
345
0
346
0
 79
     0
146
0.0
  0
ENDTAB
  0
TABLE
  2
LTYPE
  5
3
100
AcDbSymbolTable
 70
     9
  0
LTYPE
  5
C
100
AcDbSymbolTableRecord
100
AcDbLinetypeTableRecord
  2
ByBlock
 70
    64
  3

 72
    65
 73
     0
 40
0.0
  0
LTYPE
  5
D
100
AcDbSymbolTableRecord
100
AcDbLinetypeTableRecord
  2
ByLayer
 70
    64
  3

 72
    65
 73
     0
 40
0.0
  0
LTYPE
  5
E
100
AcDbSymbolTableRecord
100
AcDbLinetypeTableRecord
  2
CONTINUOUS
 70
     0
  3
Solid line
 72
    65
 73
     0
 40
0.0
  0
LTYPE
  5
F
100
AcDbSymbolTableRecord
100
AcDbLinetypeTableRecord
  2
DASHED
 70
     0
  3
__ __ __ __ __ __ __ __ __ __ __ __ __ __ __
 72
    65
 73
     2
 40
2.0
 49
1.2
 74
     0
 49
-0.8
 74
     0
  0
LTYPE
  5
10
100
AcDbSymbolTableRecord
100
AcDbLinetypeTableRecord
  2
CENTER
 70
     0
  3
____ _ ____ _ ____ _ ____ _ ____ _ ____ _ ____
 72
    65
 73
     4
 40
12.0
 49
9.0
 74
     0
 49
-1.0
 74
     0
 49
1.0
 74
     0
 49
-1.0
 74
     0
  0
LTYPE
  5
11
100
AcDbSymbolTableRecord
100
AcDbLinetypeTableRecord
  2
HIDDEN
 70
     0
  3
_ _ _ _ _ _ _ _ _ _ _ _ _ _ _ _ _ _ _ _ _ _ _
 72
    65
 73
     2
 40
3.2
 49
2.4
 74
     0
 49
-0.8
 74
     0
  0
LTYPE
  5
12
100
AcDbSymbolTableRecord
100
AcDbLinetypeTableRecord
  2
PHANTOM
 70
     0
  3
_____ _ _ _____ _ _ _____ _ _ _____ _ _ _____
 72
    65
 73
     6
 40
13.5
 49
9.0
 74
     0
 49
-1.0
 74
     0
 49
1.0
 74
     0
 49
-0.5
 74
     0
 49
1.0
 74
     0
 49
-1.0
 74
     0
  0
LTYPE
  5
13
100
AcDbSymbolTableRecord
100
AcDbLinetypeTableRecord
  2
DOT
 70
     0
  3
...............................................
 72
    65
 73
     2
 40
1.0
 49
0.5
 74
     0
 49
-0.5
 74
     0
  0
LTYPE
  5
14
100
AcDbSymbolTableRecord
100
AcDbLinetypeTableRecord
  2
DASHDOT
 70
     0
  3
__ . __ . __ . __ . __ . __ . __ . __ . __ . __
 72
    65
 73
     4
 40
8.0
 49
5.0
 74
     0
 49
-1.0
 74
     0
 49
1.0
 74
     0
 49
-1.0
 74
     0
  0
ENDTAB
  0
TABLE
  2
LAYER
  5
1
100
AcDbSymbolTable
 70
     4
  0
LAYER
  5
15
100
AcDbSymbolTableRecord
100
AcDbLayerTableRecord
  2
0
 70
     0
 62
     7
  6
CONTINUOUS
290
     1
370
    -3
390
0
  0
LAYER
  5
16
100
AcDbSymbolTableRecord
100
AcDbLayerTableRecord
  2
1
 70
     0
 62
     7
  6
CONTINUOUS
290
     1
370
    -3
390
0
  0
LAYER
  5
17
100
AcDbSymbolTableRecord
100
AcDbLayerTableRecord
  2
2
 70
     0
 62
     7
  6
CONTINUOUS
290
     1
370
    -3
390
0
  0
LAYER
  5
18
100
AcDbSymbolTableRecord
100
AcDbLayerTableRecord
  2
3
 70
     0
 62
     7
  6
CONTINUOUS
290
     1
370
    -3
390
0
  0
ENDTAB
  0
TABLE
  2
STYLE
  5
2
100
AcDbSymbolTable
 70
     1
  0
STYLE
  5
1B
100
AcDbSymbolTableRecord
100
AcDbTextStyleTableRecord
  2
STANDARD
 70
    64
 40
0.0
 41
1.0
 50
0.0
 71
     0
 42
1.0
  3
txt
  4
BIGFONT
  0
ENDTAB
  0
TABLE
  2
VIEW
  5
4
100
AcDbSymbolTable
 70
     0
  0
ENDTAB
  0
TABLE
  2
UCS
  5
5
100
AcDbSymbolTable
 70
     0
  0
ENDTAB
  0
TABLE
  2
APPID
  5
7
100
AcDbSymbolTable
 70
     1
  0
APPID
  5
1A
100
AcDbSymbolTableRecord
100
AcDbRegAppTableRecord
  2
ACAD
 70
     0
  0
ENDTAB
  0
TABLE
  2
DIMSTYLE
  5
8
100
AcDbSymbolTable
 70
     1
100
AcDbDimStyleTable
 71
     0
  0
DIMSTYLE
105
30
100
AcDbSymbolTableRecord
100
AcDbDimStyleTableRecord
  2
Standard
 70
     0
  3

  4

 40
2.0
 41
2.0
 42
1.0
 43
0.38
 44
2.0
 45
0.0
 46
0.0
 47
0.0
 48
0.0
 71
     0
 72
     0
 73
     0
 74
     0
 75
     0
 76
     0
 77
     1
 78
     0
 79
     0
140
3.5
141
0.09
142
0.0
143
25.4
144
1.0
145
0.0
146
1.0
147
0.5
148
0.0
170
     0
171
     2
172
     0
173
     0
174
     0
175
     0
176
     0
177
     0
178
     0
179
     0
271
     3
272
     4
273
     2
274
     2
275
     0
276
     0
277
     2
278
    46
279
     0
280
     0
281
     0
282
     0
283
     1
284
     0
285
     0
286
     0
288
     0
289
     3
340
1B
341
0
342
0
343
0
344
0
371
    -2
372
    -2
  0
ENDTAB
  0
TABLE
  2
BLOCK_RECORD
  5
2B
100
AcDbSymbolTable
 70
    13
  0
BLOCK_RECORD
  5
29
100
AcDbSymbolTableRecord
100
AcDbBlockTableRecord
  2
*Model_Space
340
0
  0
BLOCK_RECORD
  5
2A
100
AcDbSymbolTableRecord
100
AcDbBlockTableRecord
  2
*Paper_Space
340
0
  0
BLOCK_RECORD
  5
1C
100
AcDbSymbolTableRecord
100
AcDbBlockTableRecord
  2
*D0
340
0
  0
BLOCK_RECORD
  5
1D
100
AcDbSymbolTableRecord
100
AcDbBlockTableRecord
  2
*D1
340
0
  0
BLOCK_RECORD
  5
1E
100
AcDbSymbolTableRecord
100
AcDbBlockTableRecord
  2
*D2
340
0
  0
BLOCK_RECORD
  5
1F
100
AcDbSymbolTableRecord
100
AcDbBlockTableRecord
  2
*D3
340
0
  0
BLOCK_RECORD
  5
20
100
AcDbSymbolTableRecord
100
AcDbBlockTableRecord
  2
*D4
340
0
  0
BLOCK_RECORD
  5
21
100
AcDbSymbolTableRecord
100
AcDbBlockTableRecord
  2
*D5
340
0
  0
BLOCK_RECORD
  5
22
100
AcDbSymbolTableRecord
100
AcDbBlockTableRecord
  2
*D6
340
0
  0
BLOCK_RECORD
  5
23
100
AcDbSymbolTableRecord
100
AcDbBlockTableRecord
  2
*D7
340
0
  0
BLOCK_RECORD
  5
24
100
AcDbSymbolTableRecord
100
AcDbBlockTableRecord
  2
*D8
340
0
  0
BLOCK_RECORD
  5
25
100
AcDbSymbolTableRecord
100
AcDbBlockTableRecord
  2
*D9
340
0
  0
BLOCK_RECORD
  5
26
100
AcDbSymbolTableRecord
100
AcDbBlockTableRecord
  2
*D10
340
0
  0
BLOCK_RECORD
  5
27
100
AcDbSymbolTableRecord
100
AcDbBlockTableRecord
  2
*D11
340
0
  0
BLOCK_RECORD
  5
28
100
AcDbSymbolTableRecord
100
AcDbBlockTableRecord
  2
*D12
340
0
  0
ENDTAB
  0
ENDSEC
  0
SECTION
  2
BLOCKS
  0
BLOCK
  5
2C
100
AcDbEntity
  8
0
390
0
100
AcDbBlockBegin
  2
*Model_Space
 70
     0
 10
0.0
 20
0.0
 30
0.0
  3
*Model_Space
  1

  0
ENDBLK
  5
2D
100
AcDbEntity
  8
0
390
0
100
AcDbBlockEnd
  0
BLOCK
  5
2E
100
AcDbEntity
 67
     1
  8
0
390
0
100
AcDbBlockBegin
  2
*Paper_Space
 70
     0
 10
0.0
 20
0.0
 30
0.0
  3
*Paper_Space
  1

  0
ENDBLK
  5
2F
100
AcDbEntity
 67
     1
  8
0
390
0
100
AcDbBlockEnd
  0
BLOCK
  5
6BD
100
AcDbEntity
  8
3
100
AcDbBlockBegin
  2
*D0
 70
     1
 10
0.0
 20
0.0
 30
0.0
  3
*D0
  1

  0
LINE
  5
6BE
100
AcDbEntity
  8
3
370
    25
100
AcDbLine
 10
-216.136154
 20
-51.039161
 30
0.0
 11
-216.136154
 21
-38.122861
 31
0.0
  0
LINE
  5
6BF
100
AcDbEntity
  8
3
370
    25
100
AcDbLine
 10
-216.136154
 20
-40.122861
 30
0.0
 11
-212.272451
 21
-41.158137
 31
0.0
  0
LINE
  5
6C0
100
AcDbEntity
  8
3
370
    25
100
AcDbLine
 10
-216.136154
 20
-40.122861
 30
0.0
 11
-212.272451
 21
-39.087585
 31
0.0
  0
LINE
  5
6C1
100
AcDbEntity
  8
3
370
    25
100
AcDbLine
 10
-212.272451
 20
-41.158137
 30
0.0
 11
-212.272451
 21
-39.087585
 31
0.0
  0
LINE
  5
6C2
100
AcDbEntity
  8
3
370
    25
100
AcDbLine
 10
-187.136154
 20
-40.122861
 30
0.0
 11
-274.136154
 21
-40.122861
 31
0.0
  0
LINE
  5
6C3
100
AcDbEntity
  8
3
370
    25
100
AcDbLine
 10
-264.136154
 20
-40.122861
 30
0.0
 11
-267.999857
 21
-39.087585
 31
0.0
  0
LINE
  5
6C4
100
AcDbEntity
  8
3
370
    25
100
AcDbLine
 10
-264.136154
 20
-40.122861
 30
0.0
 11
-267.999857
 21
-41.158137
 31
0.0
  0
LINE
  5
6C5
100
AcDbEntity
  8
3
370
    25
100
AcDbLine
 10
-267.999857
 20
-39.087585
 30
0.0
 11
-267.999857
 21
-41.158137
 31
0.0
  0
LINE
  5
6C6
100
AcDbEntity
  8
3
370
    25
100
AcDbLine
 10
-264.136154
 20
-51.039161
 30
0.0
 11
-264.136154
 21
-38.122861
 31
0.0
  0
ENDBLK
  5
6C7
100
AcDbEntity
  8
3
100
AcDbBlockEnd
  0
BLOCK
  5
6C8
100
AcDbEntity
  8
3
100
AcDbBlockBegin
  2
*D1
 70
     1
 10
0.0
 20
0.0
 30
0.0
  3
*D1
  1

  0
LINE
  5
6C9
100
AcDbEntity
  8
3
370
    25
100
AcDbLine
 10
-6.700051
 20
-18.079515
 30
0.0
 11
-6.700051
 21
-71.97451
 31
0.0
  0
LINE
  5
6CA
100
AcDbEntity
  8
3
370
    25
100
AcDbLine
 10
-6.700051
 20
-69.97451
 30
0.0
 11
-2.836348
 21
-71.009786
 31
0.0
  0
LINE
  5
6CB
100
AcDbEntity
  8
3
370
    25
100
AcDbLine
 10
-6.700051
 20
-69.97451
 30
0.0
 11
-2.836348
 21
-68.939234
 31
0.0
  0
LINE
  5
6CC
100
AcDbEntity
  8
3
370
    25
100
AcDbLine
 10
-2.836348
 20
-71.009786
 30
0.0
 11
-2.836348
 21
-68.939234
 31
0.0
  0
LINE
  5
6CD
100
AcDbEntity
  8
3
370
    25
100
AcDbLine
 10
-6.700051
 20
-69.97451
 30
0.0
 11
103.771976
 21
-69.97451
 31
0.0
  0
LINE
  5
6CE
100
AcDbEntity
  8
3
370
    25
100
AcDbLine
 10
103.771976
 20
-69.97451
 30
0.0
 11
99.908273
 21
-68.939234
 31
0.0
  0
LINE
  5
6CF
100
AcDbEntity
  8
3
370
    25
100
AcDbLine
 10
103.771976
 20
-69.97451
 30
0.0
 11
99.908273
 21
-71.009786
 31
0.0
  0
LINE
  5
6D0
100
AcDbEntity
  8
3
370
    25
100
AcDbLine
 10
99.908273
 20
-68.939234
 30
0.0
 11
99.908273
 21
-71.009786
 31
0.0
  0
LINE
  5
6D1
100
AcDbEntity
  8
3
370
    25
100
AcDbLine
 10
103.771976
 20
-64.642476
 30
0.0
 11
103.771976
 21
-71.97451
 31
0.0
  0
ENDBLK
  5
6D2
100
AcDbEntity
  8
3
100
AcDbBlockEnd
  0
BLOCK
  5
6D3
100
AcDbEntity
  8
3
100
AcDbBlockBegin
  2
*D2
 70
     1
 10
0.0
 20
0.0
 30
0.0
  3
*D2
  1

  0
LINE
  5
6D4
100
AcDbEntity
  8
3
370
    25
100
AcDbLine
 10
78.271976
 20
-56.539161
 30
0.0
 11
-38.277054
 21
-56.539161
 31
0.0
  0
LINE
  5
6D5
100
AcDbEntity
  8
3
370
    25
100
AcDbLine
 10
-36.277054
 20
-56.539161
 30
0.0
 11
-35.241778
 21
-52.675458
 31
0.0
  0
LINE
  5
6D6
100
AcDbEntity
  8
3
370
    25
100
AcDbLine
 10
-36.277054
 20
-56.539161
 30
0.0
 11
-37.31233
 21
-52.675458
 31
0.0
  0
LINE
  5
6D7
100
AcDbEntity
  8
3
370
    25
100
AcDbLine
 10
-35.241778
 20
-52.675458
 30
0.0
 11
-37.31233
 21
-52.675458
 31
0.0
  0
LINE
  5
6D8
100
AcDbEntity
  8
3
370
    25
100
AcDbLine
 10
-36.277054
 20
-56.539161
 30
0.0
 11
-36.277054
 21
-16.079515
 31
0.0
  0
LINE
  5
6D9
100
AcDbEntity
  8
3
370
    25
100
AcDbLine
 10
-36.277054
 20
-16.079515
 30
0.0
 11
-37.31233
 21
-19.943219
 31
0.0
  0
LINE
  5
6DA
100
AcDbEntity
  8
3
370
    25
100
AcDbLine
 10
-36.277054
 20
-16.079515
 30
0.0
 11
-35.241778
 21
-19.943219
 31
0.0
  0
LINE
  5
6DB
100
AcDbEntity
  8
3
370
    25
100
AcDbLine
 10
-37.31233
 20
-19.943219
 30
0.0
 11
-35.241778
 21
-19.943219
 31
0.0
  0
LINE
  5
6DC
100
AcDbEntity
  8
3
370
    25
100
AcDbLine
 10
-8.700051
 20
-16.079515
 30
0.0
 11
-38.277054
 21
-16.079515
 31
0.0
  0
ENDBLK
  5
6DD
100
AcDbEntity
  8
3
100
AcDbBlockEnd
  0
BLOCK
  5
6DE
100
AcDbEntity
  8
3
100
AcDbBlockBegin
  2
*D3
 70
     1
 10
0.0
 20
0.0
 30
0.0
  3
*D3
  1

  0
TEXT
  5
6DF
100
AcDbEntity
  8
3
370
    25
100
AcDbText
 10
-27.487222
 20
-42.491851
 30
0.0
 40
7.0
  1
４０゜
 50
340.0
 72
     5
 11
-9.069247
 21
-49.195445
 31
0.0
100
AcDbText
  0
LINE
  5
6E0
100
AcDbEntity
  8
3
370
    25
100
AcDbLine
 10
-7.985627
 20
-17.611604
 30
0.0
 11
-29.152049
 21
-42.836764
 31
0.0
  0
LINE
  5
6E1
100
AcDbEntity
  8
3
370
    25
100
AcDbLine
 10
-6.700051
 20
-18.079515
 30
0.0
 11
-6.700051
 21
-51.008623
 31
0.0
  0
LINE
  5
6E2
100
AcDbEntity
  8
3
370
    25
100
AcDbLine
 10
-27.866474
 20
-41.304675
 30
0.0
 11
-25.383891
 21
-44.44104
 31
0.0
  0
LINE
  5
6E3
100
AcDbEntity
  8
3
370
    25
100
AcDbLine
 10
-27.866474
 20
-41.304675
 30
0.0
 11
-24.148312
 21
-42.779555
 31
0.0
  0
LINE
  5
6E4
100
AcDbEntity
  8
3
370
    25
100
AcDbLine
 10
-25.383891
 20
-44.44104
 30
0.0
 11
-24.148312
 21
-42.779555
 31
0.0
  0
LINE
  5
6E5
100
AcDbEntity
  8
3
370
    25
100
AcDbLine
 10
-6.700051
 20
-49.008623
 30
0.0
 11
-10.496363
 21
-47.748458
 31
0.0
  0
LINE
  5
6E6
100
AcDbEntity
  8
3
370
    25
100
AcDbLine
 10
-6.700051
 20
-49.008623
 30
0.0
 11
-10.617837
 21
-49.815444
 31
0.0
  0
LINE
  5
6E7
100
AcDbEntity
  8
3
370
    25
100
AcDbLine
 10
-10.496363
 20
-47.748458
 30
0.0
 11
-10.617837
 21
-49.815444
 31
0.0
  0
ARC
  5
6E8
100
AcDbEntity
  8
3
370
    25
100
AcDbCircle
 10
-6.700051
 20
-16.079515
 30
0.0
 40
32.929107
100
AcDbArc
 50
230.0
 51
270.0
  0
ENDBLK
  5
6E9
100
AcDbEntity
  8
3
100
AcDbBlockEnd
  0
BLOCK
  5
6EA
100
AcDbEntity
  8
3
100
AcDbBlockBegin
  2
*D4
 70
     1
 10
0.0
 20
0.0
 30
0.0
  3
*D4
  1

  0
LINE
  5
6EB
100
AcDbEntity
  8
3
370
    25
100
AcDbLine
 10
78.271976
 20
-56.539161
 30
0.0
 11
-66.017494
 21
-56.539161
 31
0.0
  0
LINE
  5
6EC
100
AcDbEntity
  8
3
370
    25
100
AcDbLine
 10
-64.017494
 20
-56.539161
 30
0.0
 11
-62.982218
 21
-52.675458
 31
0.0
  0
LINE
  5
6ED
100
AcDbEntity
  8
3
370
    25
100
AcDbLine
 10
-64.017494
 20
-56.539161
 30
0.0
 11
-65.05277
 21
-52.675458
 31
0.0
  0
LINE
  5
6EE
100
AcDbEntity
  8
3
370
    25
100
AcDbLine
 10
-62.982218
 20
-52.675458
 30
0.0
 11
-65.05277
 21
-52.675458
 31
0.0
  0
LINE
  5
6EF
100
AcDbEntity
  8
3
370
    25
100
AcDbLine
 10
-64.017494
 20
-56.539161
 30
0.0
 11
-64.017494
 21
107.189038
 31
0.0
  0
LINE
  5
6F0
100
AcDbEntity
  8
3
370
    25
100
AcDbLine
 10
-64.017494
 20
107.189038
 30
0.0
 11
-65.05277
 21
103.325334
 31
0.0
  0
LINE
  5
6F1
100
AcDbEntity
  8
3
370
    25
100
AcDbLine
 10
-64.017494
 20
107.189038
 30
0.0
 11
-62.982218
 21
103.325334
 31
0.0
  0
LINE
  5
6F2
100
AcDbEntity
  8
3
370
    25
100
AcDbLine
 10
-65.05277
 20
103.325334
 30
0.0
 11
-62.982218
 21
103.325334
 31
0.0
  0
LINE
  5
6F3
100
AcDbEntity
  8
3
370
    25
100
AcDbLine
 10
38.709314
 20
107.189038
 30
0.0
 11
-66.017494
 21
107.189038
 31
0.0
  0
ENDBLK
  5
6F4
100
AcDbEntity
  8
3
100
AcDbBlockEnd
  0
BLOCK
  5
6F5
100
AcDbEntity
  8
3
100
AcDbBlockBegin
  2
*D5
 70
     1
 10
0.0
 20
0.0
 30
0.0
  3
*D5
  1

  0
LINE
  5
6F6
100
AcDbEntity
  8
3
370
    25
100
AcDbLine
 10
103.771976
 20
87.695892
 30
0.0
 11
103.771976
 21
101.76532
 31
0.0
  0
LINE
  5
6F7
100
AcDbEntity
  8
3
370
    25
100
AcDbLine
 10
103.771976
 20
99.76532
 30
0.0
 11
107.63568
 21
98.730044
 31
0.0
  0
LINE
  5
6F8
100
AcDbEntity
  8
3
370
    25
100
AcDbLine
 10
103.771976
 20
99.76532
 30
0.0
 11
107.63568
 21
100.800596
 31
0.0
  0
LINE
  5
6F9
100
AcDbEntity
  8
3
370
    25
100
AcDbLine
 10
107.63568
 20
98.730044
 30
0.0
 11
107.63568
 21
100.800596
 31
0.0
  0
LINE
  5
6FA
100
AcDbEntity
  8
3
370
    25
100
AcDbLine
 10
103.771976
 20
99.76532
 30
0.0
 11
129.362859
 21
99.76532
 31
0.0
  0
LINE
  5
6FB
100
AcDbEntity
  8
3
370
    25
100
AcDbLine
 10
129.362859
 20
99.76532
 30
0.0
 11
125.499155
 21
100.800596
 31
0.0
  0
LINE
  5
6FC
100
AcDbEntity
  8
3
370
    25
100
AcDbLine
 10
129.362859
 20
99.76532
 30
0.0
 11
125.499155
 21
98.730044
 31
0.0
  0
LINE
  5
6FD
100
AcDbEntity
  8
3
370
    25
100
AcDbLine
 10
125.499155
 20
100.800596
 30
0.0
 11
125.499155
 21
98.730044
 31
0.0
  0
LINE
  5
6FE
100
AcDbEntity
  8
3
370
    25
100
AcDbLine
 10
129.362859
 20
77.68482
 30
0.0
 11
129.362859
 21
101.76532
 31
0.0
  0
ENDBLK
  5
6FF
100
AcDbEntity
  8
3
100
AcDbBlockEnd
  0
BLOCK
  5
700
100
AcDbEntity
  8
3
100
AcDbBlockBegin
  2
*D6
 70
     1
 10
0.0
 20
0.0
 30
0.0
  3
*D6
  1

  0
TEXT
  5
701
100
AcDbEntity
  8
3
370
    25
100
AcDbText
 10
12.988411
 20
87.804309
 30
0.0
 40
7.0
  1
２２゜
 50
79.0
 72
     5
 11
16.728268
 21
107.044201
 31
0.0
100
AcDbText
  0
LINE
  5
702
100
AcDbEntity
  8
3
370
    25
100
AcDbLine
 10
39.318538
 20
107.750947
 30
0.0
 11
19.215068
 21
115.873277
 31
0.0
  0
LINE
  5
703
100
AcDbEntity
  8
3
370
    25
100
AcDbLine
 10
25.772154
 20
80.060839
 30
0.0
 11
12.253835
 21
80.060839
 31
0.0
  0
LINE
  5
704
100
AcDbEntity
  8
3
370
    25
100
AcDbLine
 10
21.069435
 20
115.124064
 30
0.0
 11
18.728622
 21
111.880518
 31
0.0
  0
LINE
  5
705
100
AcDbEntity
  8
3
370
    25
100
AcDbLine
 10
21.069435
 20
115.124064
 30
0.0
 11
20.664004
 21
111.144664
 31
0.0
  0
LINE
  5
706
100
AcDbEntity
  8
3
370
    25
100
AcDbLine
 10
18.728622
 20
111.880518
 30
0.0
 11
20.664004
 21
111.144664
 31
0.0
  0
LINE
  5
707
100
AcDbEntity
  8
3
370
    25
100
AcDbLine
 10
14.253835
 20
80.060839
 30
0.0
 11
15.368635
 21
83.902351
 31
0.0
  0
LINE
  5
708
100
AcDbEntity
  8
3
370
    25
100
AcDbLine
 10
14.253835
 20
80.060839
 30
0.0
 11
13.298524
 21
83.945086
 31
0.0
  0
LINE
  5
709
100
AcDbEntity
  8
3
370
    25
100
AcDbLine
 10
15.368635
 20
83.902351
 30
0.0
 11
13.298524
 21
83.945086
 31
0.0
  0
ARC
  5
70A
100
AcDbEntity
  8
3
370
    25
100
AcDbCircle
 10
107.853963
 20
80.060839
 30
0.0
 40
93.600128
100
AcDbArc
 50
158.0
 51
180.0
  0
ENDBLK
  5
70B
100
AcDbEntity
  8
3
100
AcDbBlockEnd
  0
BLOCK
  5
70C
100
AcDbEntity
  8
3
100
AcDbBlockBegin
  2
*D7
 70
     1
 10
0.0
 20
0.0
 30
0.0
  3
*D7
  1

  0
TEXT
  5
70D
100
AcDbEntity
  8
3
370
    25
100
AcDbText
 10
129.271976
 20
42.181076
 30
0.0
 40
7.0
  1
φ３５
 72
     5
 11
148.871976
 21
42.181076
 31
0.0
100
AcDbText
  0
LINE
  5
70E
100
AcDbEntity
  8
3
370
    25
100
AcDbLine
 10
86.271976
 20
41.181076
 30
0.0
 11
82.408273
 21
42.216352
 31
0.0
  0
LINE
  5
70F
100
AcDbEntity
  8
3
370
    25
100
AcDbLine
 10
86.271976
 20
41.181076
 30
0.0
 11
82.408273
 21
40.1458
 31
0.0
  0
LINE
  5
710
100
AcDbEntity
  8
3
370
    25
100
AcDbLine
 10
82.408273
 20
42.216352
 30
0.0
 11
82.408273
 21
40.1458
 31
0.0
  0
LINE
  5
711
100
AcDbEntity
  8
3
370
    25
100
AcDbLine
 10
76.271976
 20
41.181076
 30
0.0
 11
150.271976
 21
41.181076
 31
0.0
  0
LINE
  5
712
100
AcDbEntity
  8
3
370
    25
100
AcDbLine
 10
121.271976
 20
41.181076
 30
0.0
 11
125.13568
 21
40.1458
 31
0.0
  0
LINE
  5
713
100
AcDbEntity
  8
3
370
    25
100
AcDbLine
 10
121.271976
 20
41.181076
 30
0.0
 11
125.13568
 21
42.216352
 31
0.0
  0
LINE
  5
714
100
AcDbEntity
  8
3
370
    25
100
AcDbLine
 10
125.13568
 20
40.1458
 30
0.0
 11
125.13568
 21
42.216352
 31
0.0
  0
ENDBLK
  5
715
100
AcDbEntity
  8
3
100
AcDbBlockEnd
  0
BLOCK
  5
716
100
AcDbEntity
  8
3
100
AcDbBlockBegin
  2
*D8
 70
     1
 10
0.0
 20
0.0
 30
0.0
  3
*D8
  1

  0
TEXT
  5
717
100
AcDbEntity
  8
3
370
    25
100
AcDbText
 10
45.521736
 20
-20.039161
 30
0.0
 40
7.0
  1
φ１９
 50
90.0
 72
     5
 11
45.521736
 21
-0.439161
 31
0.0
100
AcDbText
  0
LINE
  5
718
100
AcDbEntity
  8
3
370
    25
100
AcDbLine
 10
46.521736
 20
27.960839
 30
0.0
 11
47.557012
 21
31.824542
 31
0.0
  0
LINE
  5
719
100
AcDbEntity
  8
3
370
    25
100
AcDbLine
 10
46.521736
 20
27.960839
 30
0.0
 11
45.48646
 21
31.824542
 31
0.0
  0
LINE
  5
71A
100
AcDbEntity
  8
3
370
    25
100
AcDbLine
 10
47.557012
 20
31.824542
 30
0.0
 11
45.48646
 21
31.824542
 31
0.0
  0
LINE
  5
71B
100
AcDbEntity
  8
3
370
    25
100
AcDbLine
 10
46.521736
 20
37.960839
 30
0.0
 11
46.521736
 21
-20.039161
 31
0.0
  0
LINE
  5
71C
100
AcDbEntity
  8
3
370
    25
100
AcDbLine
 10
46.521736
 20
8.960839
 30
0.0
 11
45.48646
 21
5.097135
 31
0.0
  0
LINE
  5
71D
100
AcDbEntity
  8
3
370
    25
100
AcDbLine
 10
46.521736
 20
8.960839
 30
0.0
 11
47.557012
 21
5.097135
 31
0.0
  0
LINE
  5
71E
100
AcDbEntity
  8
3
370
    25
100
AcDbLine
 10
45.48646
 20
5.097135
 30
0.0
 11
47.557012
 21
5.097135
 31
0.0
  0
ENDBLK
  5
71F
100
AcDbEntity
  8
3
100
AcDbBlockEnd
  0
BLOCK
  5
720
100
AcDbEntity
  8
3
100
AcDbBlockBegin
  2
*D9
 70
     1
 10
0.0
 20
0.0
 30
0.0
  3
*D9
  1

  0
LINE
  5
721
100
AcDbEntity
  8
3
370
    25
100
AcDbLine
 10
-195.448311
 20
-218.435465
 30
0.0
 11
-109.92794
 21
-218.435465
 31
0.0
  0
LINE
  5
722
100
AcDbEntity
  8
3
370
    25
100
AcDbLine
 10
-111.92794
 20
-218.435465
 30
0.0
 11
-110.892664
 21
-214.571761
 31
0.0
  0
LINE
  5
723
100
AcDbEntity
  8
3
370
    25
100
AcDbLine
 10
-111.92794
 20
-218.435465
 30
0.0
 11
-112.963217
 21
-214.571761
 31
0.0
  0
LINE
  5
724
100
AcDbEntity
  8
3
370
    25
100
AcDbLine
 10
-110.892664
 20
-214.571761
 30
0.0
 11
-112.963217
 21
-214.571761
 31
0.0
  0
LINE
  5
725
100
AcDbEntity
  8
3
370
    25
100
AcDbLine
 10
-111.92794
 20
-218.435465
 30
0.0
 11
-111.92794
 21
-56.539161
 31
0.0
  0
LINE
  5
726
100
AcDbEntity
  8
3
370
    25
100
AcDbLine
 10
-111.92794
 20
-56.539161
 30
0.0
 11
-112.963217
 21
-60.402865
 31
0.0
  0
LINE
  5
727
100
AcDbEntity
  8
3
370
    25
100
AcDbLine
 10
-111.92794
 20
-56.539161
 30
0.0
 11
-110.892664
 21
-60.402865
 31
0.0
  0
LINE
  5
728
100
AcDbEntity
  8
3
370
    25
100
AcDbLine
 10
-112.963217
 20
-60.402865
 30
0.0
 11
-110.892664
 21
-60.402865
 31
0.0
  0
LINE
  5
729
100
AcDbEntity
  8
3
370
    25
100
AcDbLine
 10
-214.636154
 20
-56.539161
 30
0.0
 11
-109.92794
 21
-56.539161
 31
0.0
  0
ENDBLK
  5
72A
100
AcDbEntity
  8
3
100
AcDbBlockEnd
  0
BLOCK
  5
72B
100
AcDbEntity
  8
3
100
AcDbBlockBegin
  2
*D10
 70
     1
 10
0.0
 20
0.0
 30
0.0
  3
*D10
  1

  0
LINE
  5
72C
100
AcDbEntity
  8
3
370
    25
100
AcDbLine
 10
78.271976
 20
-56.539161
 30
0.0
 11
-51.753769
 21
-56.539161
 31
0.0
  0
LINE
  5
72D
100
AcDbEntity
  8
3
370
    25
100
AcDbLine
 10
-49.753769
 20
-56.539161
 30
0.0
 11
-48.718493
 21
-52.675458
 31
0.0
  0
LINE
  5
72E
100
AcDbEntity
  8
3
370
    25
100
AcDbLine
 10
-49.753769
 20
-56.539161
 30
0.0
 11
-50.789045
 21
-52.675458
 31
0.0
  0
LINE
  5
72F
100
AcDbEntity
  8
3
370
    25
100
AcDbLine
 10
-48.718493
 20
-52.675458
 30
0.0
 11
-50.789045
 21
-52.675458
 31
0.0
  0
LINE
  5
730
100
AcDbEntity
  8
3
370
    25
100
AcDbLine
 10
-49.753769
 20
-56.539161
 30
0.0
 11
-49.753769
 21
80.060839
 31
0.0
  0
LINE
  5
731
100
AcDbEntity
  8
3
370
    25
100
AcDbLine
 10
-49.753769
 20
80.060839
 30
0.0
 11
-50.789045
 21
76.197135
 31
0.0
  0
LINE
  5
732
100
AcDbEntity
  8
3
370
    25
100
AcDbLine
 10
-49.753769
 20
80.060839
 30
0.0
 11
-48.718493
 21
76.197135
 31
0.0
  0
LINE
  5
733
100
AcDbEntity
  8
3
370
    25
100
AcDbLine
 10
-50.789045
 20
76.197135
 30
0.0
 11
-48.718493
 21
76.197135
 31
0.0
  0
LINE
  5
734
100
AcDbEntity
  8
3
370
    25
100
AcDbLine
 10
25.772154
 20
80.060839
 30
0.0
 11
-51.753769
 21
80.060839
 31
0.0
  0
ENDBLK
  5
735
100
AcDbEntity
  8
3
100
AcDbBlockEnd
  0
BLOCK
  5
736
100
AcDbEntity
  8
3
100
AcDbBlockBegin
  2
*D11
 70
     1
 10
0.0
 20
0.0
 30
0.0
  3
*D11
  1

  0
TEXT
  5
737
100
AcDbEntity
  8
3
370
    25
100
AcDbText
 10
24.226766
 20
230.362311
 30
0.0
 40
7.0
  1
６０゜
 50
60.0
 72
     5
 11
34.026766
 21
247.336409
 31
0.0
100
AcDbText
  0
LINE
  5
738
100
AcDbEntity
  8
3
370
    25
100
AcDbLine
 10
63.395262
 20
266.49574
 30
0.0
 11
59.877617
 21
272.58848
 31
0.0
  0
LINE
  5
739
100
AcDbEntity
  8
3
370
    25
100
AcDbLine
 10
22.51716
 20
196.561218
 30
0.0
 11
15.983257
 21
196.561218
 31
0.0
  0
LINE
  5
73A
100
AcDbEntity
  8
3
370
    25
100
AcDbLine
 10
60.877617
 20
270.856429
 30
0.0
 11
57.038206
 21
269.734409
 31
0.0
  0
LINE
  5
73B
100
AcDbEntity
  8
3
370
    25
100
AcDbLine
 10
60.877617
 20
270.856429
 30
0.0
 11
58.113599
 21
267.965026
 31
0.0
  0
LINE
  5
73C
100
AcDbEntity
  8
3
370
    25
100
AcDbLine
 10
57.038206
 20
269.734409
 30
0.0
 11
58.113599
 21
267.965026
 31
0.0
  0
LINE
  5
73D
100
AcDbEntity
  8
3
370
    25
100
AcDbLine
 10
17.983257
 20
196.561218
 30
0.0
 11
19.105276
 21
200.400629
 31
0.0
  0
LINE
  5
73E
100
AcDbEntity
  8
3
370
    25
100
AcDbLine
 10
17.983257
 20
196.561218
 30
0.0
 11
17.035249
 21
200.447255
 31
0.0
  0
LINE
  5
73F
100
AcDbEntity
  8
3
370
    25
100
AcDbLine
 10
19.105276
 20
200.400629
 30
0.0
 11
17.035249
 21
200.447255
 31
0.0
  0
ARC
  5
740
100
AcDbEntity
  8
3
370
    25
100
AcDbCircle
 10
103.771976
 20
196.561218
 30
0.0
 40
85.78872
100
AcDbArc
 50
120.0
 51
180.0
  0
ENDBLK
  5
741
100
AcDbEntity
  8
3
100
AcDbBlockEnd
  0
BLOCK
  5
742
100
AcDbEntity
  8
3
100
AcDbBlockBegin
  2
*D12
 70
     1
 10
0.0
 20
0.0
 30
0.0
  3
*D12
  1

  0
TEXT
  5
743
100
AcDbEntity
  8
3
370
    25
100
AcDbText
 10
17.464269
 20
192.00482
 30
0.0
 40
7.0
  1
２０゜
 50
280.0
 72
     5
 11
20.867773
 21
172.702588
 31
0.0
100
AcDbText
  0
LINE
  5
744
100
AcDbEntity
  8
3
370
    25
100
AcDbLine
 10
16.891038
 20
196.561218
 30
0.0
 11
19.984267
 21
196.561218
 31
0.0
  0
LINE
  5
745
100
AcDbEntity
  8
3
370
    25
100
AcDbLine
 10
27.417425
 20
168.770434
 30
0.0
 11
21.278514
 21
166.536053
 31
0.0
  0
LINE
  5
746
100
AcDbEntity
  8
3
370
    25
100
AcDbLine
 10
17.984267
 20
196.561218
 30
0.0
 11
17.03626
 21
192.675181
 31
0.0
  0
LINE
  5
747
100
AcDbEntity
  8
3
370
    25
100
AcDbLine
 10
17.984267
 20
196.561218
 30
0.0
 11
19.106287
 21
192.721808
 31
0.0
  0
LINE
  5
748
100
AcDbEntity
  8
3
370
    25
100
AcDbLine
 10
17.03626
 20
192.675181
 30
0.0
 11
19.106287
 21
192.721808
 31
0.0
  0
LINE
  5
749
100
AcDbEntity
  8
3
370
    25
100
AcDbLine
 10
23.157899
 20
167.220094
 30
0.0
 11
22.899097
 21
171.211713
 31
0.0
  0
LINE
  5
74A
100
AcDbEntity
  8
3
370
    25
100
AcDbLine
 10
23.157899
 20
167.220094
 30
0.0
 11
20.937961
 21
170.547536
 31
0.0
  0
LINE
  5
74B
100
AcDbEntity
  8
3
370
    25
100
AcDbLine
 10
22.899097
 20
171.211713
 30
0.0
 11
20.937961
 21
170.547536
 31
0.0
  0
ARC
  5
74C
100
AcDbEntity
  8
3
370
    25
100
AcDbCircle
 10
103.771976
 20
196.561218
 30
0.0
 40
85.78771
100
AcDbArc
 50
180.0
 51
200.0
  0
ENDBLK
  5
74D
100
AcDbEntity
  8
3
100
AcDbBlockEnd
  0
ENDSEC
  0
SECTION
  2
ENTITIES
  0
LINE
  5
31
100
AcDbEntity
  8
1
370
   100
100
AcDbLine
 10
-373.02157
 20
275.028767
 30
0.0
 11
394.982385
 21
275.028767
 31
0.0
  0
LINE
  5
32
100
AcDbEntity
  8
1
370
   100
100
AcDbLine
 10
-373.02157
 20
275.028767
 30
0.0
 11
-373.02157
 21
-277.971881
 31
0.0
  0
LINE
  5
33
100
AcDbEntity
  8
1
370
   100
100
AcDbLine
 10
-373.02157
 20
-277.971881
 30
0.0
 11
394.982385
 21
-277.971881
 31
0.0
  0
LINE
  5
34
100
AcDbEntity
  8
1
370
   100
100
AcDbLine
 10
394.982385
 20
-277.971881
 30
0.0
 11
394.982385
 21
275.028767
 31
0.0
  0
TEXT
  5
35
100
AcDbEntity
  8
1
370
    50
100
AcDbText
 10
359.628442
 20
-226.252857
 30
0.0
 40
6.0
  1
設計
 72
     5
 11
370.428442
 21
-226.252857
 31
0.0
100
AcDbText
  0
TEXT
  5
36
100
AcDbEntity
  8
1
370
    50
100
AcDbText
 10
379.127478
 20
-226.099658
 30
0.0
 40
6.0
  1
製図
 72
     5
 11
389.927478
 21
-226.099658
 31
0.0
100
AcDbText
  0
TEXT
  5
37
100
AcDbEntity
  8
1
370
    50
100
AcDbText
 10
319.005745
 20
-226.252857
 30
0.0
 40
6.0
  1
承認
 72
     5
 11
329.805745
 21
-226.252857
 31
0.0
100
AcDbText
  0
TEXT
  5
38
100
AcDbEntity
  8
1
370
    50
100
AcDbText
 10
338.989679
 20
-226.19802
 30
0.0
 40
6.0
  1
検図
 72
     5
 11
349.789679
 21
-226.19802
 31
0.0
100
AcDbText
  0
LINE
  5
39
100
AcDbEntity
  8
1
370
    25
100
AcDbLine
 10
284.982385
 20
-227.971881
 30
0.0
 11
394.982385
 21
-227.971881
 31
0.0
  0
LINE
  5
3A
100
AcDbEntity
  8
1
370
    25
100
AcDbLine
 10
342.482385
 20
-245.971881
 30
0.0
 11
342.482385
 21
-259.971881
 31
0.0
  0
TEXT
  5
3B
100
AcDbEntity
  8
1
370
    50
100
AcDbText
 10
319.55159
 20
-256.012528
 30
0.0
 40
6.0
  1
日　付
 72
     5
 11
336.35159
 21
-256.012528
 31
0.0
100
AcDbText
  0
LINE
  5
3C
100
AcDbEntity
  8
1
370
    50
100
AcDbLine
 10
40.982385
 20
-259.971881
 30
0.0
 11
394.982385
 21
-259.971881
 31
0.0
  0
TEXT
  5
3D
100
AcDbEntity
  8
1
370
    50
100
AcDbText
 10
287.775011
 20
-256.322406
 30
0.0
 40
6.0
  1
第三角法
 72
     5
 11
310.575011
 21
-256.322406
 31
0.0
100
AcDbText
  0
TEXT
  5
3E
100
AcDbEntity
  8
1
370
    50
100
AcDbText
 10
291.087419
 20
-225.99802
 30
0.0
 40
6.0
  1
尺　度
 72
     5
 11
307.887419
 21
-225.99802
 31
0.0
100
AcDbText
  0
LINE
  5
3F
100
AcDbEntity
  8
1
370
   100
100
AcDbLine
 10
40.982385
 20
-217.971881
 30
0.0
 11
394.982385
 21
-217.971881
 31
0.0
  0
LINE
  5
40
100
AcDbEntity
  8
1
370
    50
100
AcDbLine
 10
211.982385
 20
-217.971881
 30
0.0
 11
211.982385
 21
-277.971881
 31
0.0
  0
LINE
  5
41
100
AcDbEntity
  8
1
370
    25
100
AcDbLine
 10
374.982385
 20
-245.971881
 30
0.0
 11
374.982385
 21
-217.971881
 31
0.0
  0
LINE
  5
42
100
AcDbEntity
  8
1
370
    25
100
AcDbLine
 10
354.982385
 20
-245.971881
 30
0.0
 11
354.982385
 21
-217.971881
 31
0.0
  0
LINE
  5
43
100
AcDbEntity
  8
1
370
    25
100
AcDbLine
 10
334.982385
 20
-245.971881
 30
0.0
 11
334.982385
 21
-217.971881
 31
0.0
  0
LINE
  5
44
100
AcDbEntity
  8
1
370
    50
100
AcDbLine
 10
284.982385
 20
-277.971881
 30
0.0
 11
284.982385
 21
-217.971881
 31
0.0
  0
LINE
  5
45
100
AcDbEntity
  8
1
370
    50
100
AcDbLine
 10
189.982385
 20
-217.971881
 30
0.0
 11
189.982385
 21
-277.971881
 31
0.0
  0
LINE
  5
46
100
AcDbEntity
  8
1
370
    50
100
AcDbLine
 10
62.982385
 20
-217.971881
 30
0.0
 11
62.982385
 21
-259.971881
 31
0.0
  0
LINE
  5
47
100
AcDbEntity
  8
1
370
    50
100
AcDbLine
 10
284.982385
 20
-245.971881
 30
0.0
 11
394.982385
 21
-245.971881
 31
0.0
  0
TEXT
  5
48
100
AcDbEntity
  8
1
370
    50
100
AcDbText
 10
287.101129
 20
-271.880939
 30
0.0
 40
6.0
  1
コードＮｏ
 41
0.9
 72
     5
 11
313.021129
 21
-271.880939
 31
0.0
100
AcDbText
  0
TEXT
  5
49
100
AcDbEntity
  8
1
370
   100
100
AcDbText
 10
52.886774
 20
-272.875659
 30
0.0
 40
8.0
  1
ミズタニバルブ工業株式会社
 41
1.2
 72
     5
 11
175.766774
 21
-272.875659
 31
0.0
100
AcDbText
  0
LINE
  5
4A
100
AcDbEntity
  8
1
370
    50
100
AcDbLine
 10
40.982385
 20
-238.971881
 30
0.0
 11
284.982385
 21
-238.971881
 31
0.0
  0
LINE
  5
4B
100
AcDbEntity
  8
1
370
    50
100
AcDbLine
 10
115.482385
 20
-238.971881
 30
0.0
 11
115.482385
 21
-259.971881
 31
0.0
  0
LINE
  5
4C
100
AcDbEntity
  8
1
370
    50
100
AcDbLine
 10
137.482385
 20
-238.971881
 30
0.0
 11
137.482385
 21
-259.971881
 31
0.0
  0
LINE
  5
4D
100
AcDbEntity
  8
1
370
    50
100
AcDbLine
 10
314.982385
 20
-277.971881
 30
0.0
 11
314.982385
 21
-217.971881
 31
0.0
  0
TEXT
  5
4E
100
AcDbEntity
  8
1
370
    50
100
AcDbText
 10
345.098131
 20
-256.100293
 30
0.0
 40
6.0
  1
　　・　　・
 72
     5
 11
379.898131
 21
-256.100293
 31
0.0
100
AcDbText
  0
LINE
  5
4F
100
AcDbEntity
  8
1
370
   100
100
AcDbLine
 10
161.482385
 20
218.028767
 30
0.0
 11
394.982385
 21
218.028767
 31
0.0
  0
LINE
  5
50
100
AcDbEntity
  8
1
370
    25
100
AcDbLine
 10
161.482385
 20
233.028767
 30
0.0
 11
394.982385
 21
233.028767
 31
0.0
  0
LINE
  5
51
100
AcDbEntity
  8
1
370
    25
100
AcDbLine
 10
161.482385
 20
248.028767
 30
0.0
 11
394.982385
 21
248.028767
 31
0.0
  0
LINE
  5
52
100
AcDbEntity
  8
1
370
    50
100
AcDbLine
 10
161.482385
 20
263.028767
 30
0.0
 11
394.982385
 21
263.028767
 31
0.0
  0
TEXT
  5
53
100
AcDbEntity
  8
1
370
    50
100
AcDbText
 10
165.052644
 20
265.950703
 30
0.0
 40
6.0
  1
記号
 72
     5
 11
175.852644
 21
265.950703
 31
0.0
100
AcDbText
  0
TEXT
  5
54
100
AcDbEntity
  8
1
370
    50
100
AcDbText
 10
316.856729
 20
265.859212
 30
0.0
 40
6.0
  1
訂 正 記 事
 72
     5
 11
357.656729
 21
265.859212
 31
0.0
100
AcDbText
  0
TEXT
  5
55
100
AcDbEntity
  8
1
370
    50
100
AcDbText
 10
380.887817
 20
265.835536
 30
0.0
 40
6.0
  1
印
 72
     5
 11
385.687817
 21
265.835536
 31
0.0
100
AcDbText
  0
LINE
  5
56
100
AcDbEntity
  8
1
370
   100
100
AcDbLine
 10
161.482385
 20
218.028767
 30
0.0
 11
161.482385
 21
275.028767
 31
0.0
  0
LINE
  5
57
100
AcDbEntity
  8
1
370
    25
100
AcDbLine
 10
180.482385
 20
218.028767
 30
0.0
 11
180.482385
 21
275.028767
 31
0.0
  0
LINE
  5
58
100
AcDbEntity
  8
1
370
    25
100
AcDbLine
 10
372.982385
 20
218.028767
 30
0.0
 11
372.982385
 21
275.028767
 31
0.0
  0
LINE
  5
59
100
AcDbEntity
  8
1
370
    25
100
AcDbLine
 10
302.982385
 20
218.028767
 30
0.0
 11
302.982385
 21
275.028767
 31
0.0
  0
LINE
  5
5A
100
AcDbEntity
  8
1
370
    50
100
AcDbLine
 10
232.982385
 20
218.028767
 30
0.0
 11
232.982385
 21
275.028767
 31
0.0
  0
TEXT
  5
5B
100
AcDbEntity
  8
1
370
    50
100
AcDbText
 10
246.91768
 20
265.924672
 30
0.0
 40
6.0
  1
変　更　理　由
 72
     5
 11
287.71768
 21
265.924672
 31
0.0
100
AcDbText
  0
TEXT
  5
5C
100
AcDbEntity
  8
1
370
    50
100
AcDbText
 10
194.793748
 20
266.40334
 30
0.0
 40
6.0
  1
日　　付
 72
     5
 11
217.593748
 21
266.40334
 31
0.0
100
AcDbText
  0
TEXT
  5
5D
100
AcDbEntity
  8
1
370
    50
100
AcDbText
 10
183.098131
 20
252.400355
 30
0.0
 40
6.0
  1
　　・　　・
 72
     5
 11
217.898131
 21
252.400355
 31
0.0
100
AcDbText
  0
TEXT
  5
5E
100
AcDbEntity
  8
1
370
    50
100
AcDbText
 10
183.098131
 20
237.400355
 30
0.0
 40
6.0
  1
　　・　　・
 72
     5
 11
217.898131
 21
237.400355
 31
0.0
100
AcDbText
  0
LINE
  5
5F
100
AcDbEntity
  8
1
370
   100
100
AcDbLine
 10
40.982385
 20
-217.971881
 30
0.0
 11
40.982385
 21
-277.971881
 31
0.0
  0
TEXT
  5
60
100
AcDbEntity
  8
1
370
    50
100
AcDbText
 10
290.832582
 20
-240.013492
 30
0.0
 40
6.0
  1
　／ 
 72
     5
 11
301.632582
 21
-240.013492
 31
0.0
100
AcDbText
  0
TEXT
  5
61
100
AcDbEntity
  8
1
370
    50
100
AcDbText
 10
193.904123
 20
-272.024909
 30
0.0
 40
6.0
  1
備 考 
 72
     5
 11
207.704123
 21
-272.024909
 31
0.0
100
AcDbText
  0
TEXT
  5
62
100
AcDbEntity
  8
1
370
    50
100
AcDbText
 10
193.512534
 20
-230.89184
 30
0.0
 40
6.0
  1
仕 上
 72
     5
 11
207.312534
 21
-230.89184
 31
0.0
100
AcDbText
  0
TEXT
  5
63
100
AcDbEntity
  8
1
370
    50
100
AcDbText
 10
193.447176
 20
-248.891666
 30
0.0
 40
6.0
  1
表 面
 72
     5
 11
207.247176
 21
-248.891666
 31
0.0
100
AcDbText
  0
TEXT
  5
64
100
AcDbEntity
  8
1
370
    50
100
AcDbText
 10
193.447176
 20
-255.891666
 30
0.0
 40
6.0
  1
処 理
 72
     5
 11
207.247176
 21
-255.891666
 31
0.0
100
AcDbText
  0
TEXT
  5
65
100
AcDbEntity
  8
1
370
    50
100
AcDbText
 10
44.79335
 20
-231.693399
 30
0.0
 40
6.0
  1
品 名
 72
     5
 11
58.59335
 21
-231.693399
 31
0.0
100
AcDbText
  0
TEXT
  5
66
100
AcDbEntity
  8
1
370
    50
100
AcDbText
 10
44.397766
 20
-252.462534
 30
0.0
 40
6.0
  1
材 質
 72
     5
 11
58.197766
 21
-252.462534
 31
0.0
100
AcDbText
  0
TEXT
  5
67
100
AcDbEntity
  8
1
370
    50
100
AcDbText
 10
118.897766
 20
-252.462534
 30
0.0
 40
6.0
  1
規 格
 72
     5
 11
132.697766
 21
-252.462534
 31
0.0
100
AcDbText
  0
TEXT
  5
68
100
AcDbEntity
  8
1
370
    50
100
AcDbText
 10
183.098131
 20
222.400355
 30
0.0
 40
6.0
  1
　　・　　・
 72
     5
 11
217.898131
 21
222.400355
 31
0.0
100
AcDbText
  0
LINE
  5
69
100
AcDbEntity
  8
2
370
    50
100
AcDbLine
 10
-223.636154
 20
83.860839
 30
0.0
 11
-256.636154
 21
83.860839
 31
0.0
  0
LINE
  5
6A
100
AcDbEntity
  8
2
370
    50
100
AcDbLine
 10
-257.636154
 20
82.860839
 30
0.0
 11
-257.636154
 21
58.360839
 31
0.0
  0
LINE
  5
6B
100
AcDbEntity
  8
2
370
    50
100
AcDbLine
 10
-222.636154
 20
82.860839
 30
0.0
 11
-222.636154
 21
58.360839
 31
0.0
  0
ARC
  5
6C
100
AcDbEntity
  8
2
370
    50
100
AcDbCircle
 10
-256.636154
 20
82.860839
 30
0.0
 40
1.0
100
AcDbArc
 50
90.0
 51
180.0
  0
ARC
  5
6D
100
AcDbEntity
  8
2
370
    50
100
AcDbCircle
 10
-223.636154
 20
82.860839
 30
0.0
 40
1.0
100
AcDbArc
 50
0.0
 51
90.0
  0
LINE
  5
6E
100
AcDbEntity
  8
2
370
    50
100
AcDbLine
 10
-222.636154
 20
58.360839
 30
0.0
 11
-257.636154
 21
58.360839
 31
0.0
  0
CIRCLE
  5
6F
100
AcDbEntity
  8
2
370
    50
100
AcDbCircle
 10
-240.136154
 20
75.860839
 30
0.0
 40
4.0
  0
CIRCLE
  5
70
100
AcDbEntity
  8
2
370
    25
100
AcDbCircle
 10
-240.136154
 20
75.860839
 30
0.0
 40
3.5
  0
LINE
  5
71
100
AcDbEntity
  8
2
370
    50
100
AcDbLine
 10
-223.136154
 20
57.460839
 30
0.0
 11
-257.136154
 21
57.460839
 31
0.0
  0
LINE
  5
72
100
AcDbEntity
  8
2
370
    50
100
AcDbLine
 10
-222.636154
 20
56.960839
 30
0.0
 11
-222.636154
 21
-52.239161
 31
0.0
  0
LINE
  5
73
100
AcDbEntity
  8
2
370
    50
100
AcDbLine
 10
-222.636154
 20
56.960839
 30
0.0
 11
-223.136154
 21
57.460839
 31
0.0
  0
LINE
  5
74
100
AcDbEntity
  8
2
370
    50
100
AcDbLine
 10
-257.136154
 20
57.460839
 30
0.0
 11
-257.636154
 21
56.960839
 31
0.0
  0
LINE
  5
75
100
AcDbEntity
  8
2
370
    25
100
AcDbLine
 10
-222.636154
 20
56.960839
 30
0.0
 11
-257.636154
 21
56.960839
 31
0.0
  0
LINE
  5
76
100
AcDbEntity
  8
2
370
    50
100
AcDbLine
 10
-257.636154
 20
-52.239161
 30
0.0
 11
-257.336154
 21
-52.539161
 31
0.0
  0
LINE
  5
77
100
AcDbEntity
  8
2
370
    50
100
AcDbLine
 10
-222.636154
 20
-52.239161
 30
0.0
 11
-222.936154
 21
-52.539161
 31
0.0
  0
LINE
  5
78
100
AcDbEntity
  8
2
370
    50
100
AcDbLine
 10
-257.636154
 20
-52.239161
 30
0.0
 11
-257.636154
 21
56.960839
 31
0.0
  0
LINE
  5
79
100
AcDbEntity
  8
2
370
    50
100
AcDbLine
 10
-264.136154
 20
-53.039161
 30
0.0
 11
-264.136154
 21
-56.039161
 31
0.0
  0
LINE
  5
7A
100
AcDbEntity
  8
2
370
    50
100
AcDbLine
 10
-263.636154
 20
-56.539161
 30
0.0
 11
-240.136154
 21
-56.539161
 31
0.0
  0
LINE
  5
7B
100
AcDbEntity
  8
2
370
    50
100
AcDbLine
 10
-258.136154
 20
-52.539161
 30
0.0
 11
-257.386154
 21
-52.539161
 31
0.0
  0
LINE
  5
7C
100
AcDbEntity
  8
2
370
    50
100
AcDbLine
 10
-240.136154
 20
-52.539161
 30
0.0
 11
-263.636154
 21
-52.539161
 31
0.0
  0
LINE
  5
7D
100
AcDbEntity
  8
2
370
    50
100
AcDbLine
 10
-257.636154
 20
-59.539161
 30
0.0
 11
-257.636154
 21
-61.039161
 31
0.0
  0
LINE
  5
7E
100
AcDbEntity
  8
2
370
    50
100
AcDbLine
 10
-263.636154
 20
-52.539161
 30
0.0
 11
-264.136154
 21
-53.039161
 31
0.0
  0
LINE
  5
7F
100
AcDbEntity
  8
2
370
    50
100
AcDbLine
 10
-263.636154
 20
-56.539161
 30
0.0
 11
-264.136154
 21
-56.039161
 31
0.0
  0
LINE
  5
80
100
AcDbEntity
  8
2
370
    50
100
AcDbLine
 10
-257.636154
 20
-61.039161
 30
0.0
 11
-257.136154
 21
-61.539161
 31
0.0
  0
LINE
  5
81
100
AcDbEntity
  8
2
370
    50
100
AcDbLine
 10
-257.136154
 20
-61.539161
 30
0.0
 11
-240.136154
 21
-61.539161
 31
0.0
  0
LINE
  5
82
100
AcDbEntity
  8
2
370
    50
100
AcDbLine
 10
-216.136154
 20
-53.039161
 30
0.0
 11
-216.136154
 21
-56.039161
 31
0.0
  0
LINE
  5
83
100
AcDbEntity
  8
2
370
    50
100
AcDbLine
 10
-216.636154
 20
-56.539161
 30
0.0
 11
-240.136154
 21
-56.539161
 31
0.0
  0
LINE
  5
84
100
AcDbEntity
  8
2
370
    50
100
AcDbLine
 10
-222.136154
 20
-52.539161
 30
0.0
 11
-222.886154
 21
-52.539161
 31
0.0
  0
LINE
  5
85
100
AcDbEntity
  8
2
370
    50
100
AcDbLine
 10
-240.136154
 20
-52.539161
 30
0.0
 11
-216.636154
 21
-52.539161
 31
0.0
  0
LINE
  5
86
100
AcDbEntity
  8
2
370
    50
100
AcDbLine
 10
-222.636154
 20
-59.539161
 30
0.0
 11
-222.636154
 21
-61.039161
 31
0.0
  0
LINE
  5
87
100
AcDbEntity
  8
2
370
    50
100
AcDbLine
 10
-216.636154
 20
-52.539161
 30
0.0
 11
-216.136154
 21
-53.039161
 31
0.0
  0
LINE
  5
88
100
AcDbEntity
  8
2
370
    50
100
AcDbLine
 10
-216.636154
 20
-56.539161
 30
0.0
 11
-216.136154
 21
-56.039161
 31
0.0
  0
LINE
  5
89
100
AcDbEntity
  8
2
370
    50
100
AcDbLine
 10
-222.636154
 20
-61.039161
 30
0.0
 11
-223.136154
 21
-61.539161
 31
0.0
  0
LINE
  5
8A
100
AcDbEntity
  8
2
370
    50
100
AcDbLine
 10
-240.136154
 20
-61.539161
 30
0.0
 11
-223.136154
 21
-61.539161
 31
0.0
  0
LINE
  5
8B
100
AcDbEntity
  8
2
370
    25
100
AcDbLine
 10
-257.636154
 20
-52.239161
 30
0.0
 11
-222.636154
 21
-52.239161
 31
0.0
  0
LINE
  5
8C
100
AcDbEntity
  8
2
370
    25
100
AcDbLine
 10
-216.136154
 20
-53.039161
 30
0.0
 11
-264.136154
 21
-53.039161
 31
0.0
  0
LINE
  5
8D
100
AcDbEntity
  8
2
370
    25
100
AcDbLine
 10
-264.136154
 20
-56.039161
 30
0.0
 11
-216.136154
 21
-56.039161
 31
0.0
  0
LINE
  5
8E
100
AcDbEntity
  8
2
370
    25
100
AcDbLine
 10
-222.636154
 20
-61.039161
 30
0.0
 11
-257.636154
 21
-61.039161
 31
0.0
  0
LINE
  5
8F
100
AcDbEntity
  8
2
370
    50
100
AcDbLine
 10
-216.636154
 20
-59.539161
 30
0.0
 11
-263.636154
 21
-59.539161
 31
0.0
  0
LINE
  5
90
100
AcDbEntity
  8
2
370
    50
100
AcDbLine
 10
-263.636154
 20
-56.539161
 30
0.0
 11
-263.636154
 21
-59.539161
 31
0.0
  0
LINE
  5
91
100
AcDbEntity
  8
2
370
    50
100
AcDbLine
 10
-216.636154
 20
-56.539161
 30
0.0
 11
-216.636154
 21
-59.539161
 31
0.0
  0
ELLIPSE
  5
92
100
AcDbEntity
  8
2
370
    50
100
AcDbEllipse
 10
-240.136154
 20
-16.019515
 30
0.0
 11
9.5
 21
0.0
 31
0.0
210
0.0
220
0.0
230
1.0
 40
0.642789
 41
0.0
 42
6.2831849999999996
  0
LINE
  5
93
100
AcDbEntity
  8
2
370
    50
100
AcDbLine
 10
-249.636154
 20
18.460839
 30
0.0
 11
-249.636154
 21
-0.299
 31
0.0
  0
LINE
  5
94
100
AcDbEntity
  8
2
370
    50
100
AcDbLine
 10
-230.636154
 20
18.460839
 30
0.0
 11
-230.636154
 21
-0.299
 31
0.0
  0
ELLIPSE
  5
95
100
AcDbEntity
  8
2
370
    50
100
AcDbEllipse
 10
-240.136154
 20
-0.299
 30
0.0
 11
9.5
 21
0.0
 31
0.0
210
0.0
220
0.0
230
1.0
 40
0.642789
 41
0.0
 42
3.1415929999999999
  0
LINE
  5
96
100
AcDbEntity
  8
2
370
    50
100
AcDbLine
 10
-230.636154
 20
-0.698626
 30
0.0
 11
-230.636154
 21
-16.019515
 31
0.0
  0
LINE
  5
97
100
AcDbEntity
  8
2
370
    50
100
AcDbLine
 10
-249.636154
 20
-0.698626
 30
0.0
 11
-249.636154
 21
-16.019515
 31
0.0
  0
ELLIPSE
  5
98
100
AcDbEntity
  8
2
370
    50
100
AcDbEllipse
 10
-240.136154
 20
-0.698626
 30
0.0
 11
9.5
 21
0.0
 31
0.0
210
0.0
220
0.0
230
1.0
 40
0.642789
 41
0.0
 42
3.1415929999999999
  0
ARC
  5
99
100
AcDbEntity
  8
2
370
    50
100
AcDbCircle
 10
-240.136154
 20
18.460839
 30
0.0
 40
9.5
100
AcDbArc
 50
0.0
 51
180.0
  0
ELLIPSE
  5
9A
100
AcDbEntity
  8
2
370
    50
100
AcDbEllipse
 10
-240.136154
 20
-16.019515
 30
0.0
 11
7.75
 21
0.0
 31
0.0
210
0.0
220
0.0
230
1.0
 40
0.642774
 41
0.0
 42
6.2831849999999996
  0
LINE
  5
9B
100
AcDbEntity
  8
2
370
    25
  6
CENTER
100
AcDbLine
 10
-248.136154
 20
-118.036819
 30
0.0
 11
-248.136154
 21
-137.505645
 31
0.0
  0
LINE
  5
9C
100
AcDbEntity
  8
2
370
    50
100
AcDbLine
 10
-241.286154
 20
-117.539161
 30
0.0
 11
-238.986154
 21
-117.539161
 31
0.0
  0
LINE
  5
9D
100
AcDbEntity
  8
2
370
    50
100
AcDbLine
 10
-241.286154
 20
-111.350976
 30
0.0
 11
-238.986154
 21
-111.350976
 31
0.0
  0
ARC
  5
9E
100
AcDbEntity
  8
2
370
    50
100
AcDbCircle
 10
-240.136154
 20
-104.350976
 30
0.0
 40
7.0
100
AcDbArc
 50
270.0
 51
279.455743
  0
ARC
  5
9F
100
AcDbEntity
  8
2
370
    50
100
AcDbCircle
 10
-240.136154
 20
-104.350976
 30
0.0
 40
7.0
100
AcDbArc
 50
260.544257
 51
270.0
  0
LINE
  5
A0
100
AcDbEntity
  8
2
370
    50
100
AcDbLine
 10
-264.636154
 20
-75.550976
 30
0.0
 11
-264.636154
 21
-81.350976
 31
0.0
  0
LINE
  5
A1
100
AcDbEntity
  8
2
370
    50
100
AcDbLine
 10
-215.636154
 20
-75.550976
 30
0.0
 11
-215.636154
 21
-81.350976
 31
0.0
  0
LINE
  5
A2
100
AcDbEntity
  8
2
370
    50
100
AcDbLine
 10
-225.886154
 20
-75.550976
 30
0.0
 11
-215.636154
 21
-75.550976
 31
0.0
  0
LINE
  5
A3
100
AcDbEntity
  8
2
370
    50
100
AcDbLine
 10
-264.636154
 20
-75.550976
 30
0.0
 11
-254.386154
 21
-75.550976
 31
0.0
  0
LINE
  5
A4
100
AcDbEntity
  8
2
370
    50
100
AcDbLine
 10
-241.886154
 20
-75.550976
 30
0.0
 11
-238.386154
 21
-75.550976
 31
0.0
  0
LINE
  5
A5
100
AcDbEntity
  8
2
370
    50
100
AcDbLine
 10
-264.636154
 20
-77.350976
 30
0.0
 11
-254.074339
 21
-77.350976
 31
0.0
  0
LINE
  5
A6
100
AcDbEntity
  8
2
370
    50
100
AcDbLine
 10
-242.197969
 20
-77.350976
 30
0.0
 11
-238.074339
 21
-77.350976
 31
0.0
  0
LINE
  5
A7
100
AcDbEntity
  8
2
370
    50
100
AcDbLine
 10
-226.197969
 20
-77.350976
 30
0.0
 11
-215.636154
 21
-77.350976
 31
0.0
  0
LINE
  5
A8
100
AcDbEntity
  8
2
370
    50
100
AcDbLine
 10
-226.136154
 20
-81.350976
 30
0.0
 11
-215.636154
 21
-81.350976
 31
0.0
  0
LINE
  5
A9
100
AcDbEntity
  8
2
370
    50
100
AcDbLine
 10
-264.636154
 20
-81.350976
 30
0.0
 11
-254.136154
 21
-81.350976
 31
0.0
  0
LINE
  5
AA
100
AcDbEntity
  8
2
370
    50
100
AcDbLine
 10
-242.136154
 20
-81.350976
 30
0.0
 11
-238.136154
 21
-81.350976
 31
0.0
  0
ARC
  5
AB
100
AcDbEntity
  8
2
370
    50
100
AcDbCircle
 10
-240.136154
 20
-88.350976
 30
0.0
 40
7.0
100
AcDbArc
 50
73.39845
 51
90.0
  0
ARC
  5
AC
100
AcDbEntity
  8
2
370
    50
100
AcDbCircle
 10
-240.136154
 20
-88.350976
 30
0.0
 40
7.0
100
AcDbArc
 50
90.0
 51
106.60155
  0
LINE
  5
AD
100
AcDbEntity
  8
2
370
    25
  6
CENTER
100
AcDbLine
 10
-282.823997
 20
-129.194644
 30
0.0
 11
-282.823997
 21
-141.025879
 31
0.0
  0
HATCH
  5
AE
100
AcDbEntity
  8
2
370
    25
100
AcDbHatch
 10
0.0
 20
0.0
 30
0.0
210
0.0
220
0.0
230
1.0
  2
_U
 70
     0
 71
     1
 91
        1
 92
        1
 93
        5
 72
     1
 10
-216.636154
 20
-59.539161
 11
-216.636154
 21
-56.539161
 72
     1
 10
-216.636154
 20
-56.539161
 11
-240.136154
 21
-56.539161
 72
     1
 10
-240.136154
 20
-56.539161
 11
-263.63615399999998
 21
-56.539161
 72
     1
 10
-263.63615399999998
 20
-56.539161
 11
-263.63615399999998
 21
-59.539161
 72
     1
 10
-263.63615399999998
 20
-59.539161
 11
-216.636154
 21
-59.539161
 97
        5
330
0
330
0
330
0
330
0
330
0
 75
     0
 76
     0
 52
45.0
 41
1.0
 77
     0
 78
     1
 53
45.0
 43
0.0
 44
0.0
 45
-1.4142140000000001
 46
1.4142140000000001
 79
     0
 98
        1
 10
0.0
 20
0.0
  0
LINE
  5
AF
100
AcDbEntity
  8
2
370
    25
  6
CENTER
100
AcDbLine
 10
-248.136154
 20
-137.505645
 30
0.0
 11
-282.823997
 21
-129.194644
 31
0.0
  0
LINE
  5
B0
100
AcDbEntity
  8
2
370
    25
  6
CENTER
100
AcDbLine
 10
-197.448311
 20
-129.194644
 30
0.0
 11
-197.448311
 21
-141.025879
 31
0.0
  0
LINE
  5
B1
100
AcDbEntity
  8
2
370
    25
  6
CENTER
100
AcDbLine
 10
-232.136154
 20
-137.505645
 30
0.0
 11
-197.448311
 21
-129.194644
 31
0.0
  0
LINE
  5
B2
100
AcDbEntity
  8
2
370
    50
100
AcDbLine
 10
120.771976
 20
57.460839
 30
0.0
 11
86.771976
 21
57.460839
 31
0.0
  0
LINE
  5
B3
100
AcDbEntity
  8
2
370
    50
100
AcDbLine
 10
121.271976
 20
56.960839
 30
0.0
 11
121.271976
 21
-52.239161
 31
0.0
  0
LINE
  5
B4
100
AcDbEntity
  8
2
370
    50
100
AcDbLine
 10
121.271976
 20
56.960839
 30
0.0
 11
120.771976
 21
57.460839
 31
0.0
  0
LINE
  5
B5
100
AcDbEntity
  8
2
370
    50
100
AcDbLine
 10
86.771976
 20
57.460839
 30
0.0
 11
86.271976
 21
56.960839
 31
0.0
  0
LINE
  5
B6
100
AcDbEntity
  8
2
370
    50
100
AcDbLine
 10
86.271976
 20
-52.239161
 30
0.0
 11
86.571976
 21
-52.539161
 31
0.0
  0
LINE
  5
B7
100
AcDbEntity
  8
2
370
    50
100
AcDbLine
 10
121.271976
 20
-52.239161
 30
0.0
 11
120.971976
 21
-52.539161
 31
0.0
  0
LINE
  5
B8
100
AcDbEntity
  8
2
370
    50
100
AcDbLine
 10
86.271976
 20
-52.239161
 30
0.0
 11
86.271976
 21
8.960839
 31
0.0
  0
LINE
  5
B9
100
AcDbEntity
  8
2
370
    50
100
AcDbLine
 10
86.271976
 20
27.960839
 30
0.0
 11
86.271976
 21
56.960839
 31
0.0
  0
LINE
  5
BA
100
AcDbEntity
  8
2
370
    50
100
AcDbLine
 10
86.271976
 20
27.960839
 30
0.0
 11
33.940438
 21
27.960839
 31
0.0
  0
LINE
  5
BB
100
AcDbEntity
  8
2
370
    50
100
AcDbLine
 10
86.271976
 20
8.960839
 30
0.0
 11
33.940438
 21
8.960839
 31
0.0
  0
ARC
  5
BC
100
AcDbEntity
  8
2
370
    50
100
AcDbCircle
 10
33.940438
 20
-6.539161
 30
0.0
 40
34.5
100
AcDbArc
 50
90.0
 51
140.0
  0
ARC
  5
BD
100
AcDbEntity
  8
2
370
    50
100
AcDbCircle
 10
33.940438
 20
-6.539161
 30
0.0
 40
15.5
100
AcDbArc
 50
90.0
 51
140.0
  0
LINE
  5
BE
100
AcDbEntity
  8
2
370
    50
100
AcDbLine
 10
7.511905
 20
15.637011
 30
0.0
 11
-0.414655
 21
6.190505
 31
0.0
  0
LINE
  5
BF
100
AcDbEntity
  8
2
370
    50
100
AcDbLine
 10
22.066749
 20
3.424046
 30
0.0
 11
14.140189
 21
-6.02246
 31
0.0
  0
LINE
  5
C0
100
AcDbEntity
  8
2
370
    50
100
AcDbLine
 10
-0.414655
 20
6.190505
 30
0.0
 11
-0.736049
 21
5.807482
 31
0.0
  0
LINE
  5
C1
100
AcDbEntity
  8
2
370
    50
100
AcDbLine
 10
-0.097658
 20
4.749646
 30
0.0
 11
0.159457
 21
5.056064
 31
0.0
  0
LINE
  5
C2
100
AcDbEntity
  8
2
370
    50
100
AcDbLine
 10
-0.736049
 20
5.807482
 30
0.0
 11
6.541373
 21
-0.299
 31
0.0
  0
LINE
  5
C3
100
AcDbEntity
  8
2
370
    50
100
AcDbLine
 10
0.159457
 20
5.056064
 30
0.0
 11
0.079252
 21
4.601201
 31
0.0
  0
LINE
  5
C4
100
AcDbEntity
  8
2
370
    50
100
AcDbLine
 10
-0.414655
 20
6.190505
 30
0.0
 11
6.862767
 21
0.084022
 31
0.0
  0
LINE
  5
C5
100
AcDbEntity
  8
2
370
    50
100
AcDbLine
 10
14.140189
 20
-6.02246
 30
0.0
 11
13.818795
 21
-6.405482
 31
0.0
  0
LINE
  5
C6
100
AcDbEntity
  8
2
370
    50
100
AcDbLine
 10
12.666174
 20
-5.960481
 30
0.0
 11
12.92329
 21
-5.654063
 31
0.0
  0
LINE
  5
C7
100
AcDbEntity
  8
2
370
    50
100
AcDbLine
 10
13.818795
 20
-6.405482
 30
0.0
 11
6.541373
 21
-0.299
 31
0.0
  0
LINE
  5
C8
100
AcDbEntity
  8
2
370
    50
100
AcDbLine
 10
12.92329
 20
-5.654063
 30
0.0
 11
12.489264
 21
-5.812036
 31
0.0
  0
LINE
  5
C9
100
AcDbEntity
  8
2
370
    50
100
AcDbLine
 10
14.140189
 20
-6.02246
 30
0.0
 11
6.862767
 21
0.084022
 31
0.0
  0
LINE
  5
CA
100
AcDbEntity
  8
2
370
    50
100
AcDbLine
 10
-1.314558
 20
5.118042
 30
0.0
 11
-13.527522
 21
-9.436802
 31
0.0
  0
LINE
  5
CB
100
AcDbEntity
  8
2
370
    50
100
AcDbLine
 10
13.240287
 20
-7.094922
 30
0.0
 11
1.027322
 21
-21.649767
 31
0.0
  0
ARC
  5
CC
100
AcDbEntity
  8
2
370
    50
100
AcDbCircle
 10
-13.1445
 20
-9.758196
 30
0.0
 40
0.5
100
AcDbArc
 50
140.0
 51
230.0
  0
ARC
  5
CD
100
AcDbEntity
  8
2
370
    50
100
AcDbCircle
 10
0.6443
 20
-21.328373
 30
0.0
 40
0.5
100
AcDbArc
 50
230.0
 51
320.0
  0
ARC
  5
CE
100
AcDbEntity
  8
2
370
    50
100
AcDbCircle
 10
12.857264
 20
-6.773528
 30
0.0
 40
0.5
100
AcDbArc
 50
320.0
 51
50.0
  0
ARC
  5
CF
100
AcDbEntity
  8
2
370
    50
100
AcDbCircle
 10
-0.931536
 20
4.796649
 30
0.0
 40
0.5
100
AcDbArc
 50
50.0
 51
140.0
  0
LINE
  5
D0
100
AcDbEntity
  8
2
370
    50
100
AcDbLine
 10
-0.610142
 20
5.179671
 30
0.0
 11
6.284258
 21
-0.605418
 31
0.0
  0
LINE
  5
D1
100
AcDbEntity
  8
2
370
    50
100
AcDbLine
 10
6.284258
 20
-0.605418
 30
0.0
 11
13.178658
 21
-6.390506
 31
0.0
  0
LINE
  5
D2
100
AcDbEntity
  8
2
370
    50
100
AcDbLine
 10
79.771976
 20
-53.039161
 30
0.0
 11
79.771976
 21
-56.039161
 31
0.0
  0
LINE
  5
D3
100
AcDbEntity
  8
2
370
    50
100
AcDbLine
 10
80.271976
 20
-56.539161
 30
0.0
 11
103.771976
 21
-56.539161
 31
0.0
  0
LINE
  5
D4
100
AcDbEntity
  8
2
370
    50
100
AcDbLine
 10
85.771976
 20
-52.539161
 30
0.0
 11
86.521976
 21
-52.539161
 31
0.0
  0
LINE
  5
D5
100
AcDbEntity
  8
2
370
    50
100
AcDbLine
 10
103.771976
 20
-52.539161
 30
0.0
 11
80.271976
 21
-52.539161
 31
0.0
  0
LINE
  5
D6
100
AcDbEntity
  8
2
370
    50
100
AcDbLine
 10
86.271976
 20
-59.539161
 30
0.0
 11
86.271976
 21
-61.039161
 31
0.0
  0
LINE
  5
D7
100
AcDbEntity
  8
2
370
    50
100
AcDbLine
 10
80.271976
 20
-52.539161
 30
0.0
 11
79.771976
 21
-53.039161
 31
0.0
  0
LINE
  5
D8
100
AcDbEntity
  8
2
370
    50
100
AcDbLine
 10
80.271976
 20
-56.539161
 30
0.0
 11
79.771976
 21
-56.039161
 31
0.0
  0
LINE
  5
D9
100
AcDbEntity
  8
2
370
    50
100
AcDbLine
 10
86.271976
 20
-61.039161
 30
0.0
 11
86.771976
 21
-61.539161
 31
0.0
  0
LINE
  5
DA
100
AcDbEntity
  8
2
370
    50
100
AcDbLine
 10
86.771976
 20
-61.539161
 30
0.0
 11
103.771976
 21
-61.539161
 31
0.0
  0
LINE
  5
DB
100
AcDbEntity
  8
2
370
    50
100
AcDbLine
 10
127.771976
 20
-53.039161
 30
0.0
 11
127.771976
 21
-56.039161
 31
0.0
  0
LINE
  5
DC
100
AcDbEntity
  8
2
370
    50
100
AcDbLine
 10
127.271976
 20
-56.539161
 30
0.0
 11
103.771976
 21
-56.539161
 31
0.0
  0
LINE
  5
DD
100
AcDbEntity
  8
2
370
    50
100
AcDbLine
 10
121.771976
 20
-52.539161
 30
0.0
 11
121.021976
 21
-52.539161
 31
0.0
  0
LINE
  5
DE
100
AcDbEntity
  8
2
370
    50
100
AcDbLine
 10
103.771976
 20
-52.539161
 30
0.0
 11
127.271976
 21
-52.539161
 31
0.0
  0
LINE
  5
DF
100
AcDbEntity
  8
2
370
    50
100
AcDbLine
 10
121.271976
 20
-59.539161
 30
0.0
 11
121.271976
 21
-61.039161
 31
0.0
  0
LINE
  5
E0
100
AcDbEntity
  8
2
370
    50
100
AcDbLine
 10
127.271976
 20
-52.539161
 30
0.0
 11
127.771976
 21
-53.039161
 31
0.0
  0
LINE
  5
E1
100
AcDbEntity
  8
2
370
    50
100
AcDbLine
 10
127.271976
 20
-56.539161
 30
0.0
 11
127.771976
 21
-56.039161
 31
0.0
  0
LINE
  5
E2
100
AcDbEntity
  8
2
370
    50
100
AcDbLine
 10
121.271976
 20
-61.039161
 30
0.0
 11
120.771976
 21
-61.539161
 31
0.0
  0
LINE
  5
E3
100
AcDbEntity
  8
2
370
    50
100
AcDbLine
 10
103.771976
 20
-61.539161
 30
0.0
 11
120.771976
 21
-61.539161
 31
0.0
  0
LINE
  5
E4
100
AcDbEntity
  8
2
370
    50
100
AcDbLine
 10
103.771976
 20
58.360839
 30
0.0
 11
86.271976
 21
58.360839
 31
0.0
  0
LINE
  5
E5
100
AcDbEntity
  8
2
370
    50
100
AcDbLine
 10
120.271976
 20
83.860839
 30
0.0
 11
87.271976
 21
83.860839
 31
0.0
  0
LINE
  5
E6
100
AcDbEntity
  8
2
370
    50
100
AcDbLine
 10
103.771976
 20
58.360839
 30
0.0
 11
121.271976
 21
65.431297
 31
0.0
  0
LINE
  5
E7
100
AcDbEntity
  8
2
370
    50
100
AcDbLine
 10
86.271976
 20
58.360839
 30
0.0
 11
86.271976
 21
71.660839
 31
0.0
  0
ARC
  5
E8
100
AcDbEntity
  8
2
370
    50
100
AcDbCircle
 10
120.271976
 20
82.860839
 30
0.0
 40
1.0
100
AcDbArc
 50
0.0
 51
90.0
  0
ARC
  5
E9
100
AcDbEntity
  8
2
370
    50
100
AcDbCircle
 10
87.271976
 20
82.860839
 30
0.0
 40
1.0
100
AcDbArc
 50
90.0
 51
180.0
  0
LINE
  5
EA
100
AcDbEntity
  8
2
370
    50
100
AcDbLine
 10
86.271976
 20
82.860839
 30
0.0
 11
86.271976
 21
80.060839
 31
0.0
  0
ARC
  5
EB
100
AcDbEntity
  8
2
370
    50
100
AcDbCircle
 10
69.283451
 20
75.860839
 30
0.0
 40
17.5
100
AcDbArc
 50
346.11346
 51
360.0
  0
ARC
  5
EC
100
AcDbEntity
  8
2
370
    50
100
AcDbCircle
 10
69.283451
 20
75.860839
 30
0.0
 40
17.5
100
AcDbArc
 50
0.0
 51
13.88654
  0
ARC
  5
ED
100
AcDbEntity
  8
2
370
    50
100
AcDbCircle
 10
115.343773
 20
75.860839
 30
0.0
 40
8.0
100
AcDbArc
 50
0.0
 51
30.0
  0
LINE
  5
EE
100
AcDbEntity
  8
2
370
    50
100
AcDbLine
 10
122.271976
 20
79.860839
 30
0.0
 11
121.271976
 21
79.860839
 31
0.0
  0
LINE
  5
EF
100
AcDbEntity
  8
2
370
    50
100
AcDbLine
 10
121.271976
 20
79.110839
 30
0.0
 11
121.271976
 21
79.860839
 31
0.0
  0
ARC
  5
F0
100
AcDbEntity
  8
2
370
    50
100
AcDbCircle
 10
115.343773
 20
75.860839
 30
0.0
 40
8.0
100
AcDbArc
 50
330.0
 51
360.0
  0
LINE
  5
F1
100
AcDbEntity
  8
2
370
    50
100
AcDbLine
 10
122.271976
 20
71.860839
 30
0.0
 11
121.271976
 21
71.860839
 31
0.0
  0
LINE
  5
F2
100
AcDbEntity
  8
2
370
    50
100
AcDbLine
 10
121.271976
 20
72.610839
 30
0.0
 11
121.271976
 21
71.860839
 31
0.0
  0
LINE
  5
F3
100
AcDbEntity
  8
2
370
    50
100
AcDbLine
 10
121.271976
 20
65.431297
 30
0.0
 11
121.271976
 21
75.860839
 31
0.0
  0
LINE
  5
F4
100
AcDbEntity
  8
2
370
    50
100
AcDbLine
 10
121.271976
 20
75.860839
 30
0.0
 11
121.271976
 21
82.860839
 31
0.0
  0
LINE
  5
F5
100
AcDbEntity
  8
2
370
    50
100
AcDbLine
 10
27.772154
 20
71.860839
 30
0.0
 11
86.320176
 21
71.860839
 31
0.0
  0
LINE
  5
F6
100
AcDbEntity
  8
2
370
    50
100
AcDbLine
 10
27.772154
 20
79.860839
 30
0.0
 11
86.320176
 21
79.860839
 31
0.0
  0
LINE
  5
F7
100
AcDbEntity
  8
2
370
    50
100
AcDbLine
 10
27.272154
 20
72.360839
 30
0.0
 11
27.272154
 21
79.360839
 31
0.0
  0
LINE
  5
F8
100
AcDbEntity
  8
2
370
    50
100
AcDbLine
 10
27.772154
 20
79.860839
 30
0.0
 11
27.272154
 21
79.360839
 31
0.0
  0
LINE
  5
F9
100
AcDbEntity
  8
2
370
    50
100
AcDbLine
 10
27.272154
 20
72.360839
 30
0.0
 11
27.772154
 21
71.860839
 31
0.0
  0
LINE
  5
FA
100
AcDbEntity
  8
2
370
    25
100
AcDbLine
 10
122.271976
 20
79.860839
 30
0.0
 11
122.271976
 21
71.860839
 31
0.0
  0
POINT
  5
FB
100
AcDbEntity
  8
2
370
    50
100
AcDbPoint
 10
103.771976
 20
59.060839
 30
0.0
  0
ARC
  5
FC
100
AcDbEntity
  8
2
370
    25
100
AcDbCircle
 10
71.575038
 20
18.460839
 30
0.0
 40
17.5
100
AcDbArc
 50
327.12165
 51
32.87835
  0
LINE
  5
FD
100
AcDbEntity
  8
2
370
    50
100
AcDbLine
 10
-13.465894
 20
-10.141218
 30
0.0
 11
0.322906
 21
-21.711395
 31
0.0
  0
LINE
  5
FE
100
AcDbEntity
  8
2
370
    50
100
AcDbLine
 10
110.896976
 20
-117.539161
 30
0.0
 11
110.271976
 21
-116.914161
 31
0.0
  0
LINE
  5
FF
100
AcDbEntity
  8
2
370
    50
100
AcDbLine
 10
117.646976
 20
-117.539161
 30
0.0
 11
118.271976
 21
-116.914161
 31
0.0
  0
LINE
  5
100
100
AcDbEntity
  8
2
370
    50
100
AcDbLine
 10
110.896976
 20
-117.539161
 30
0.0
 11
117.646976
 21
-117.539161
 31
0.0
  0
LINE
  5
101
100
AcDbEntity
  8
2
370
    50
100
AcDbLine
 10
121.271976
 20
-81.850976
 30
0.0
 11
121.271976
 21
-110.850976
 31
0.0
  0
LINE
  5
102
100
AcDbEntity
  8
2
370
    50
100
AcDbLine
 10
120.771976
 20
-81.350976
 30
0.0
 11
121.271976
 21
-81.850976
 31
0.0
  0
LINE
  5
103
100
AcDbEntity
  8
2
370
    50
100
AcDbLine
 10
120.771976
 20
-111.350976
 30
0.0
 11
121.271976
 21
-110.850976
 31
0.0
  0
LINE
  5
104
100
AcDbEntity
  8
2
370
    50
100
AcDbLine
 10
107.771976
 20
-81.350976
 30
0.0
 11
107.271976
 21
-81.850976
 31
0.0
  0
LINE
  5
105
100
AcDbEntity
  8
2
370
    50
100
AcDbLine
 10
107.271976
 20
-81.850976
 30
0.0
 11
107.271976
 21
-110.850976
 31
0.0
  0
LINE
  5
106
100
AcDbEntity
  8
2
370
    50
100
AcDbLine
 10
107.771976
 20
-111.350976
 30
0.0
 11
107.271976
 21
-110.850976
 31
0.0
  0
LINE
  5
107
100
AcDbEntity
  8
2
370
    50
100
AcDbLine
 10
107.771976
 20
-111.350976
 30
0.0
 11
118.271976
 21
-111.350976
 31
0.0
  0
LINE
  5
108
100
AcDbEntity
  8
2
370
    50
100
AcDbLine
 10
118.271976
 20
-111.350976
 30
0.0
 11
120.771976
 21
-111.350976
 31
0.0
  0
LINE
  5
109
100
AcDbEntity
  8
2
370
    50
100
AcDbLine
 10
87.571976
 20
-77.350976
 30
0.0
 11
127.571976
 21
-77.350976
 31
0.0
  0
LINE
  5
10A
100
AcDbEntity
  8
2
370
    50
100
AcDbLine
 10
87.571976
 20
-75.550976
 30
0.0
 11
127.571976
 21
-75.550976
 31
0.0
  0
LINE
  5
10B
100
AcDbEntity
  8
2
370
    50
100
AcDbLine
 10
87.571976
 20
-75.550976
 30
0.0
 11
87.571976
 21
-81.350976
 31
0.0
  0
LINE
  5
10C
100
AcDbEntity
  8
2
370
    50
100
AcDbLine
 10
127.571976
 20
-81.350976
 30
0.0
 11
127.571976
 21
-75.550976
 31
0.0
  0
LINE
  5
10D
100
AcDbEntity
  8
2
370
    50
100
AcDbLine
 10
118.271976
 20
-116.914161
 30
0.0
 11
118.271976
 21
-111.350976
 31
0.0
  0
LINE
  5
10E
100
AcDbEntity
  8
2
370
    50
100
AcDbLine
 10
118.271976
 20
-75.550976
 30
0.0
 11
118.271976
 21
-61.539161
 31
0.0
  0
LINE
  5
10F
100
AcDbEntity
  8
2
370
    50
100
AcDbLine
 10
117.646976
 20
-117.539161
 30
0.0
 11
117.646976
 21
-111.350976
 31
0.0
  0
LINE
  5
110
100
AcDbEntity
  8
2
370
    50
100
AcDbLine
 10
117.646976
 20
-75.550976
 30
0.0
 11
117.646976
 21
-61.539161
 31
0.0
  0
LINE
  5
111
100
AcDbEntity
  8
2
370
    50
100
AcDbLine
 10
110.896976
 20
-117.539161
 30
0.0
 11
110.896976
 21
-111.350976
 31
0.0
  0
LINE
  5
112
100
AcDbEntity
  8
2
370
    50
100
AcDbLine
 10
110.896976
 20
-75.550976
 30
0.0
 11
110.896976
 21
-61.539161
 31
0.0
  0
LINE
  5
113
100
AcDbEntity
  8
2
370
    50
100
AcDbLine
 10
110.271976
 20
-116.914161
 30
0.0
 11
110.271976
 21
-111.350976
 31
0.0
  0
LINE
  5
114
100
AcDbEntity
  8
2
370
    50
100
AcDbLine
 10
110.271976
 20
-75.550976
 30
0.0
 11
110.271976
 21
-61.539161
 31
0.0
  0
LINE
  5
115
100
AcDbEntity
  8
2
370
    50
100
AcDbLine
 10
118.602103
 20
-81.850976
 30
0.0
 11
118.602103
 21
-110.850976
 31
0.0
  0
LINE
  5
116
100
AcDbEntity
  8
2
370
    50
100
AcDbLine
 10
116.870053
 20
-81.850976
 30
0.0
 11
116.870053
 21
-110.850976
 31
0.0
  0
LINE
  5
117
100
AcDbEntity
  8
2
370
    50
100
AcDbLine
 10
118.602103
 20
-81.850976
 30
0.0
 11
116.870053
 21
-81.850976
 31
0.0
  0
LINE
  5
118
100
AcDbEntity
  8
2
370
    50
100
AcDbLine
 10
118.602103
 20
-110.850976
 30
0.0
 11
116.870053
 21
-110.850976
 31
0.0
  0
ARC
  5
119
100
AcDbEntity
  8
2
370
    50
100
AcDbCircle
 10
114.271976
 20
-88.350976
 30
0.0
 40
7.0
100
AcDbArc
 50
68.213211
 51
90.0
  0
ARC
  5
11A
100
AcDbEntity
  8
2
370
    50
100
AcDbCircle
 10
119.93704
 20
-83.383032
 30
0.0
 40
2.032055
100
AcDbArc
 50
48.93316
 51
131.06684
  0
ARC
  5
11B
100
AcDbEntity
  8
2
370
    50
100
AcDbCircle
 10
119.93704
 20
-109.318921
 30
0.0
 40
2.032055
100
AcDbArc
 50
228.93316
 51
311.06684
  0
ARC
  5
11C
100
AcDbEntity
  8
2
370
    50
100
AcDbCircle
 10
114.271976
 20
-104.350976
 30
0.0
 40
7.0
100
AcDbArc
 50
270.0
 51
291.786789
  0
ARC
  5
11D
100
AcDbEntity
  8
2
370
    50
100
AcDbCircle
 10
114.271976
 20
-88.350976
 30
0.0
 40
7.0
100
AcDbArc
 50
90.0
 51
111.786789
  0
LINE
  5
11E
100
AcDbEntity
  8
2
370
    50
100
AcDbLine
 10
111.6739
 20
-81.850976
 30
0.0
 11
111.6739
 21
-110.850976
 31
0.0
  0
LINE
  5
11F
100
AcDbEntity
  8
2
370
    50
100
AcDbLine
 10
109.941849
 20
-81.850976
 30
0.0
 11
111.6739
 21
-81.850976
 31
0.0
  0
LINE
  5
120
100
AcDbEntity
  8
2
370
    50
100
AcDbLine
 10
109.941849
 20
-81.850976
 30
0.0
 11
109.941849
 21
-110.850976
 31
0.0
  0
ARC
  5
121
100
AcDbEntity
  8
2
370
    50
100
AcDbCircle
 10
108.606913
 20
-83.383032
 30
0.0
 40
2.032055
100
AcDbArc
 50
48.93316
 51
131.06684
  0
ARC
  5
122
100
AcDbEntity
  8
2
370
    50
100
AcDbCircle
 10
108.606913
 20
-109.318921
 30
0.0
 40
2.032055
100
AcDbArc
 50
228.93316
 51
311.06684
  0
LINE
  5
123
100
AcDbEntity
  8
2
370
    50
100
AcDbLine
 10
109.941849
 20
-110.850976
 30
0.0
 11
111.6739
 21
-110.850976
 31
0.0
  0
ARC
  5
124
100
AcDbEntity
  8
2
370
    50
100
AcDbCircle
 10
114.271976
 20
-104.350976
 30
0.0
 40
7.0
100
AcDbArc
 50
248.213211
 51
270.0
  0
POINT
  5
125
100
AcDbEntity
  8
2
370
    50
100
AcDbPoint
 10
114.271976
 20
-117.539161
 30
0.0
  0
LINE
  5
126
100
AcDbEntity
  8
2
370
    25
100
AcDbLine
 10
121.271976
 20
56.960839
 30
0.0
 11
86.271976
 21
56.960839
 31
0.0
  0
LINE
  5
127
100
AcDbEntity
  8
2
370
    25
100
AcDbLine
 10
86.271976
 20
-52.239161
 30
0.0
 11
121.271976
 21
-52.239161
 31
0.0
  0
LINE
  5
128
100
AcDbEntity
  8
2
370
    25
100
AcDbLine
 10
127.771976
 20
-53.039161
 30
0.0
 11
79.771976
 21
-53.039161
 31
0.0
  0
LINE
  5
129
100
AcDbEntity
  8
2
370
    25
100
AcDbLine
 10
79.771976
 20
-56.039161
 30
0.0
 11
127.771976
 21
-56.039161
 31
0.0
  0
LINE
  5
12A
100
AcDbEntity
  8
2
370
    25
100
AcDbLine
 10
121.271976
 20
-61.039161
 30
0.0
 11
86.271976
 21
-61.039161
 31
0.0
  0
LINE
  5
12B
100
AcDbEntity
  8
2
370
    50
100
AcDbLine
 10
127.271976
 20
-59.539161
 30
0.0
 11
80.271976
 21
-59.539161
 31
0.0
  0
LINE
  5
12C
100
AcDbEntity
  8
2
370
    50
100
AcDbLine
 10
80.271976
 20
-56.539161
 30
0.0
 11
80.271976
 21
-59.539161
 31
0.0
  0
LINE
  5
12D
100
AcDbEntity
  8
2
370
    50
100
AcDbLine
 10
127.271976
 20
-56.539161
 30
0.0
 11
127.271976
 21
-59.539161
 31
0.0
  0
HATCH
  5
12E
100
AcDbEntity
  8
2
370
    25
100
AcDbHatch
 10
0.0
 20
0.0
 30
0.0
210
0.0
220
0.0
230
1.0
  2
_U
 70
     0
 71
     1
 91
        1
 92
        1
 93
        5
 72
     1
 10
127.271976
 20
-56.539161
 11
103.771976
 21
-56.539161
 72
     1
 10
103.771976
 20
-56.539161
 11
80.271975999999995
 21
-56.539161
 72
     1
 10
80.271975999999995
 20
-56.539161
 11
80.271975999999995
 21
-59.539161
 72
     1
 10
80.271975999999995
 20
-59.539161
 11
127.271976
 21
-59.539161
 72
     1
 10
127.271976
 20
-59.539161
 11
127.271976
 21
-56.539161
 97
        5
330
0
330
0
330
0
330
0
330
0
 75
     0
 76
     0
 52
45.0
 41
1.0
 77
     0
 78
     1
 53
45.0
 43
0.0
 44
0.0
 45
-1.4142140000000001
 46
1.4142140000000001
 79
     0
 98
        1
 10
0.0
 20
0.0
  0
LINE
  5
12F
100
AcDbEntity
  8
2
370
    50
100
AcDbLine
 10
238.438168
 20
57.460839
 30
0.0
 11
255.438168
 21
57.460839
 31
0.0
  0
LINE
  5
130
100
AcDbEntity
  8
2
370
    50
100
AcDbLine
 10
238.438168
 20
57.460839
 30
0.0
 11
221.438168
 21
57.460839
 31
0.0
  0
LINE
  5
131
100
AcDbEntity
  8
2
370
    50
100
AcDbLine
 10
220.938168
 20
56.960839
 30
0.0
 11
220.938168
 21
-52.239161
 31
0.0
  0
LINE
  5
132
100
AcDbEntity
  8
2
370
    50
100
AcDbLine
 10
220.938168
 20
56.960839
 30
0.0
 11
221.438168
 21
57.460839
 31
0.0
  0
LINE
  5
133
100
AcDbEntity
  8
2
370
    50
100
AcDbLine
 10
255.438168
 20
57.460839
 30
0.0
 11
255.938168
 21
56.960839
 31
0.0
  0
LINE
  5
134
100
AcDbEntity
  8
2
370
    50
100
AcDbLine
 10
255.938168
 20
-52.239161
 30
0.0
 11
255.638168
 21
-52.539161
 31
0.0
  0
LINE
  5
135
100
AcDbEntity
  8
2
370
    50
100
AcDbLine
 10
220.938168
 20
-52.239161
 30
0.0
 11
221.238168
 21
-52.539161
 31
0.0
  0
LINE
  5
136
100
AcDbEntity
  8
2
370
    50
100
AcDbLine
 10
255.938168
 20
-52.239161
 30
0.0
 11
255.938168
 21
8.960839
 31
0.0
  0
LINE
  5
137
100
AcDbEntity
  8
2
370
    50
100
AcDbLine
 10
255.938168
 20
27.960839
 30
0.0
 11
255.938168
 21
56.960839
 31
0.0
  0
LINE
  5
138
100
AcDbEntity
  8
2
370
    50
100
AcDbLine
 10
255.938168
 20
27.960839
 30
0.0
 11
308.269706
 21
27.960839
 31
0.0
  0
LINE
  5
139
100
AcDbEntity
  8
2
370
    50
100
AcDbLine
 10
255.938168
 20
8.960839
 30
0.0
 11
308.269706
 21
8.960839
 31
0.0
  0
ARC
  5
13A
100
AcDbEntity
  8
2
370
    50
100
AcDbCircle
 10
308.269706
 20
-6.539161
 30
0.0
 40
34.5
100
AcDbArc
 50
40.0
 51
90.0
  0
ARC
  5
13B
100
AcDbEntity
  8
2
370
    50
100
AcDbCircle
 10
308.269706
 20
-6.539161
 30
0.0
 40
15.5
100
AcDbArc
 50
40.0
 51
90.0
  0
LINE
  5
13C
100
AcDbEntity
  8
2
370
    50
100
AcDbLine
 10
334.698239
 20
15.637011
 30
0.0
 11
342.624799
 21
6.190505
 31
0.0
  0
LINE
  5
13D
100
AcDbEntity
  8
2
370
    50
100
AcDbLine
 10
320.143395
 20
3.424046
 30
0.0
 11
328.069955
 21
-6.02246
 31
0.0
  0
LINE
  5
13E
100
AcDbEntity
  8
2
370
    50
100
AcDbLine
 10
342.624799
 20
6.190505
 30
0.0
 11
342.946193
 21
5.807482
 31
0.0
  0
LINE
  5
13F
100
AcDbEntity
  8
2
370
    50
100
AcDbLine
 10
342.307802
 20
4.749646
 30
0.0
 11
342.050687
 21
5.056064
 31
0.0
  0
LINE
  5
140
100
AcDbEntity
  8
2
370
    50
100
AcDbLine
 10
342.946193
 20
5.807482
 30
0.0
 11
335.668771
 21
-0.299
 31
0.0
  0
LINE
  5
141
100
AcDbEntity
  8
2
370
    50
100
AcDbLine
 10
342.050687
 20
5.056064
 30
0.0
 11
342.130892
 21
4.601201
 31
0.0
  0
LINE
  5
142
100
AcDbEntity
  8
2
370
    50
100
AcDbLine
 10
342.624799
 20
6.190505
 30
0.0
 11
335.347377
 21
0.084022
 31
0.0
  0
LINE
  5
143
100
AcDbEntity
  8
2
370
    50
100
AcDbLine
 10
328.069955
 20
-6.02246
 30
0.0
 11
328.391349
 21
-6.405482
 31
0.0
  0
LINE
  5
144
100
AcDbEntity
  8
2
370
    50
100
AcDbLine
 10
329.54397
 20
-5.960481
 30
0.0
 11
329.286855
 21
-5.654063
 31
0.0
  0
LINE
  5
145
100
AcDbEntity
  8
2
370
    50
100
AcDbLine
 10
328.391349
 20
-6.405482
 30
0.0
 11
335.668771
 21
-0.299
 31
0.0
  0
LINE
  5
146
100
AcDbEntity
  8
2
370
    50
100
AcDbLine
 10
329.286855
 20
-5.654063
 30
0.0
 11
329.72088
 21
-5.812036
 31
0.0
  0
LINE
  5
147
100
AcDbEntity
  8
2
370
    50
100
AcDbLine
 10
328.069955
 20
-6.02246
 30
0.0
 11
335.347377
 21
0.084022
 31
0.0
  0
LINE
  5
148
100
AcDbEntity
  8
2
370
    50
100
AcDbLine
 10
343.524702
 20
5.118042
 30
0.0
 11
355.737666
 21
-9.436802
 31
0.0
  0
LINE
  5
149
100
AcDbEntity
  8
2
370
    50
100
AcDbLine
 10
328.969857
 20
-7.094922
 30
0.0
 11
341.182822
 21
-21.649767
 31
0.0
  0
ARC
  5
14A
100
AcDbEntity
  8
2
370
    50
100
AcDbCircle
 10
355.354644
 20
-9.758196
 30
0.0
 40
0.5
100
AcDbArc
 50
310.0
 51
40.0
  0
ARC
  5
14B
100
AcDbEntity
  8
2
370
    50
100
AcDbCircle
 10
341.565844
 20
-21.328373
 30
0.0
 40
0.5
100
AcDbArc
 50
220.0
 51
310.0
  0
ARC
  5
14C
100
AcDbEntity
  8
2
370
    50
100
AcDbCircle
 10
329.35288
 20
-6.773528
 30
0.0
 40
0.5
100
AcDbArc
 50
130.0
 51
220.0
  0
ARC
  5
14D
100
AcDbEntity
  8
2
370
    50
100
AcDbCircle
 10
343.14168
 20
4.796649
 30
0.0
 40
0.5
100
AcDbArc
 50
40.0
 51
130.0
  0
LINE
  5
14E
100
AcDbEntity
  8
2
370
    50
100
AcDbLine
 10
342.820286
 20
5.179671
 30
0.0
 11
335.925886
 21
-0.605418
 31
0.0
  0
LINE
  5
14F
100
AcDbEntity
  8
2
370
    50
100
AcDbLine
 10
335.925886
 20
-0.605418
 30
0.0
 11
329.031486
 21
-6.390506
 31
0.0
  0
LINE
  5
150
100
AcDbEntity
  8
2
370
    50
100
AcDbLine
 10
262.438168
 20
-53.039161
 30
0.0
 11
262.438168
 21
-56.039161
 31
0.0
  0
LINE
  5
151
100
AcDbEntity
  8
2
370
    50
100
AcDbLine
 10
261.938168
 20
-56.539161
 30
0.0
 11
238.438168
 21
-56.539161
 31
0.0
  0
LINE
  5
152
100
AcDbEntity
  8
2
370
    50
100
AcDbLine
 10
256.438168
 20
-52.539161
 30
0.0
 11
255.688168
 21
-52.539161
 31
0.0
  0
LINE
  5
153
100
AcDbEntity
  8
2
370
    50
100
AcDbLine
 10
238.438168
 20
-52.539161
 30
0.0
 11
261.938168
 21
-52.539161
 31
0.0
  0
LINE
  5
154
100
AcDbEntity
  8
2
370
    50
100
AcDbLine
 10
255.938168
 20
-59.539161
 30
0.0
 11
255.938168
 21
-61.039161
 31
0.0
  0
LINE
  5
155
100
AcDbEntity
  8
2
370
    50
100
AcDbLine
 10
261.938168
 20
-52.539161
 30
0.0
 11
262.438168
 21
-53.039161
 31
0.0
  0
LINE
  5
156
100
AcDbEntity
  8
2
370
    50
100
AcDbLine
 10
261.938168
 20
-56.539161
 30
0.0
 11
262.438168
 21
-56.039161
 31
0.0
  0
LINE
  5
157
100
AcDbEntity
  8
2
370
    50
100
AcDbLine
 10
255.938168
 20
-61.039161
 30
0.0
 11
255.438168
 21
-61.539161
 31
0.0
  0
LINE
  5
158
100
AcDbEntity
  8
2
370
    50
100
AcDbLine
 10
255.438168
 20
-61.539161
 30
0.0
 11
238.438168
 21
-61.539161
 31
0.0
  0
LINE
  5
159
100
AcDbEntity
  8
2
370
    50
100
AcDbLine
 10
214.438168
 20
-53.039161
 30
0.0
 11
214.438168
 21
-56.039161
 31
0.0
  0
LINE
  5
15A
100
AcDbEntity
  8
2
370
    50
100
AcDbLine
 10
214.938168
 20
-56.539161
 30
0.0
 11
238.438168
 21
-56.539161
 31
0.0
  0
LINE
  5
15B
100
AcDbEntity
  8
2
370
    50
100
AcDbLine
 10
220.438168
 20
-52.539161
 30
0.0
 11
221.188168
 21
-52.539161
 31
0.0
  0
LINE
  5
15C
100
AcDbEntity
  8
2
370
    50
100
AcDbLine
 10
238.438168
 20
-52.539161
 30
0.0
 11
214.938168
 21
-52.539161
 31
0.0
  0
LINE
  5
15D
100
AcDbEntity
  8
2
370
    50
100
AcDbLine
 10
220.938168
 20
-59.539161
 30
0.0
 11
220.938168
 21
-61.039161
 31
0.0
  0
LINE
  5
15E
100
AcDbEntity
  8
2
370
    50
100
AcDbLine
 10
214.938168
 20
-52.539161
 30
0.0
 11
214.438168
 21
-53.039161
 31
0.0
  0
LINE
  5
15F
100
AcDbEntity
  8
2
370
    50
100
AcDbLine
 10
214.938168
 20
-56.539161
 30
0.0
 11
214.438168
 21
-56.039161
 31
0.0
  0
LINE
  5
160
100
AcDbEntity
  8
2
370
    50
100
AcDbLine
 10
220.938168
 20
-61.039161
 30
0.0
 11
221.438168
 21
-61.539161
 31
0.0
  0
LINE
  5
161
100
AcDbEntity
  8
2
370
    50
100
AcDbLine
 10
238.438168
 20
-61.539161
 30
0.0
 11
221.438168
 21
-61.539161
 31
0.0
  0
LINE
  5
162
100
AcDbEntity
  8
2
370
    50
100
AcDbLine
 10
238.438168
 20
58.360839
 30
0.0
 11
255.938168
 21
58.360839
 31
0.0
  0
LINE
  5
163
100
AcDbEntity
  8
2
370
    50
100
AcDbLine
 10
221.938168
 20
83.860839
 30
0.0
 11
254.938168
 21
83.860839
 31
0.0
  0
LINE
  5
164
100
AcDbEntity
  8
2
370
    50
100
AcDbLine
 10
238.438168
 20
58.360839
 30
0.0
 11
220.938168
 21
65.431297
 31
0.0
  0
LINE
  5
165
100
AcDbEntity
  8
2
370
    50
100
AcDbLine
 10
255.938168
 20
58.360839
 30
0.0
 11
255.938168
 21
71.660839
 31
0.0
  0
ARC
  5
166
100
AcDbEntity
  8
2
370
    50
100
AcDbCircle
 10
221.938168
 20
82.860839
 30
0.0
 40
1.0
100
AcDbArc
 50
90.0
 51
180.0
  0
ARC
  5
167
100
AcDbEntity
  8
2
370
    50
100
AcDbCircle
 10
254.938168
 20
82.860839
 30
0.0
 40
1.0
100
AcDbArc
 50
0.0
 51
90.0
  0
LINE
  5
168
100
AcDbEntity
  8
2
370
    50
100
AcDbLine
 10
255.938168
 20
82.860839
 30
0.0
 11
255.938168
 21
80.060839
 31
0.0
  0
ARC
  5
169
100
AcDbEntity
  8
2
370
    50
100
AcDbCircle
 10
272.926693
 20
75.860839
 30
0.0
 40
17.5
100
AcDbArc
 50
180.0
 51
193.88654
  0
ARC
  5
16A
100
AcDbEntity
  8
2
370
    50
100
AcDbCircle
 10
272.926693
 20
75.860839
 30
0.0
 40
17.5
100
AcDbArc
 50
166.11346
 51
180.0
  0
ARC
  5
16B
100
AcDbEntity
  8
2
370
    50
100
AcDbCircle
 10
226.866371
 20
75.860839
 30
0.0
 40
8.0
100
AcDbArc
 50
150.0
 51
180.0
  0
LINE
  5
16C
100
AcDbEntity
  8
2
370
    50
100
AcDbLine
 10
219.938168
 20
79.860839
 30
0.0
 11
220.938168
 21
79.860839
 31
0.0
  0
LINE
  5
16D
100
AcDbEntity
  8
2
370
    50
100
AcDbLine
 10
220.938168
 20
79.110839
 30
0.0
 11
220.938168
 21
79.860839
 31
0.0
  0
ARC
  5
16E
100
AcDbEntity
  8
2
370
    50
100
AcDbCircle
 10
226.866371
 20
75.860839
 30
0.0
 40
8.0
100
AcDbArc
 50
180.0
 51
210.0
  0
LINE
  5
16F
100
AcDbEntity
  8
2
370
    50
100
AcDbLine
 10
219.938168
 20
71.860839
 30
0.0
 11
220.938168
 21
71.860839
 31
0.0
  0
LINE
  5
170
100
AcDbEntity
  8
2
370
    50
100
AcDbLine
 10
220.938168
 20
72.610839
 30
0.0
 11
220.938168
 21
71.860839
 31
0.0
  0
LINE
  5
171
100
AcDbEntity
  8
2
370
    50
100
AcDbLine
 10
220.938168
 20
65.431297
 30
0.0
 11
220.938168
 21
75.860839
 31
0.0
  0
LINE
  5
172
100
AcDbEntity
  8
2
370
    50
100
AcDbLine
 10
220.938168
 20
75.860839
 30
0.0
 11
220.938168
 21
82.860839
 31
0.0
  0
LINE
  5
173
100
AcDbEntity
  8
2
370
    50
100
AcDbLine
 10
314.437991
 20
71.860839
 30
0.0
 11
255.889968
 21
71.860839
 31
0.0
  0
LINE
  5
174
100
AcDbEntity
  8
2
370
    50
100
AcDbLine
 10
314.437991
 20
79.860839
 30
0.0
 11
255.889968
 21
79.860839
 31
0.0
  0
LINE
  5
175
100
AcDbEntity
  8
2
370
    50
100
AcDbLine
 10
314.937991
 20
72.360839
 30
0.0
 11
314.937991
 21
79.360839
 31
0.0
  0
LINE
  5
176
100
AcDbEntity
  8
2
370
    50
100
AcDbLine
 10
314.437991
 20
79.860839
 30
0.0
 11
314.937991
 21
79.360839
 31
0.0
  0
LINE
  5
177
100
AcDbEntity
  8
2
370
    50
100
AcDbLine
 10
314.937991
 20
72.360839
 30
0.0
 11
314.437991
 21
71.860839
 31
0.0
  0
LINE
  5
178
100
AcDbEntity
  8
2
370
    25
100
AcDbLine
 10
219.938168
 20
79.860839
 30
0.0
 11
219.938168
 21
71.860839
 31
0.0
  0
ARC
  5
179
100
AcDbEntity
  8
2
370
    25
100
AcDbCircle
 10
270.635106
 20
18.460839
 30
0.0
 40
17.5
100
AcDbArc
 50
147.12165
 51
212.87835
  0
LINE
  5
17A
100
AcDbEntity
  8
2
370
    50
100
AcDbLine
 10
355.676038
 20
-10.141218
 30
0.0
 11
341.887238
 21
-21.711395
 31
0.0
  0
LINE
  5
17B
100
AcDbEntity
  8
2
370
    25
100
AcDbLine
 10
220.938168
 20
56.960839
 30
0.0
 11
255.938168
 21
56.960839
 31
0.0
  0
LINE
  5
17C
100
AcDbEntity
  8
2
370
    25
100
AcDbLine
 10
255.938168
 20
-52.239161
 30
0.0
 11
220.938168
 21
-52.239161
 31
0.0
  0
LINE
  5
17D
100
AcDbEntity
  8
2
370
    25
100
AcDbLine
 10
214.438168
 20
-53.039161
 30
0.0
 11
262.438168
 21
-53.039161
 31
0.0
  0
LINE
  5
17E
100
AcDbEntity
  8
2
370
    25
100
AcDbLine
 10
262.438168
 20
-56.039161
 30
0.0
 11
214.438168
 21
-56.039161
 31
0.0
  0
LINE
  5
17F
100
AcDbEntity
  8
2
370
    25
100
AcDbLine
 10
220.938168
 20
-61.039161
 30
0.0
 11
255.938168
 21
-61.039161
 31
0.0
  0
LINE
  5
180
100
AcDbEntity
  8
2
370
    50
100
AcDbLine
 10
214.938168
 20
-59.539161
 30
0.0
 11
261.938168
 21
-59.539161
 31
0.0
  0
LINE
  5
181
100
AcDbEntity
  8
2
370
    50
100
AcDbLine
 10
261.938168
 20
-56.539161
 30
0.0
 11
261.938168
 21
-59.539161
 31
0.0
  0
LINE
  5
182
100
AcDbEntity
  8
2
370
    50
100
AcDbLine
 10
214.938168
 20
-56.539161
 30
0.0
 11
214.938168
 21
-59.539161
 31
0.0
  0
HATCH
  5
183
100
AcDbEntity
  8
2
370
    25
100
AcDbHatch
 10
0.0
 20
0.0
 30
0.0
210
0.0
220
0.0
230
1.0
  2
_U
 70
     0
 71
     1
 91
        1
 92
        1
 93
        5
 72
     1
 10
214.93816799999999
 20
-56.539161
 11
238.43816799999999
 21
-56.539161
 72
     1
 10
238.43816799999999
 20
-56.539161
 11
261.93816800000002
 21
-56.539161
 72
     1
 10
261.93816800000002
 20
-56.539161
 11
261.93816800000002
 21
-59.539161
 72
     1
 10
261.93816800000002
 20
-59.539161
 11
214.93816799999999
 21
-59.539161
 72
     1
 10
214.93816799999999
 20
-59.539161
 11
214.93816799999999
 21
-56.539161
 97
        5
330
0
330
0
330
0
330
0
330
0
 75
     0
 76
     0
 52
45.0
 41
1.0
 77
     0
 78
     1
 53
45.0
 43
0.0
 44
0.0
 45
-1.4142140000000001
 46
1.4142140000000001
 79
     0
 98
        1
 10
0.0
 20
0.0
  0
LINE
  5
184
100
AcDbEntity
  8
2
370
    25
100
AcDbLine
 10
27.772154
 20
79.860839
 30
0.0
 11
27.772154
 21
71.860839
 31
0.0
  0
POINT
  5
185
100
AcDbEntity
  8
2
370
    50
100
AcDbPoint
 10
-6.700051
 20
-16.079515
 30
0.0
  0
LINE
  5
186
100
AcDbEntity
  8
2
370
    25
  6
CENTER
100
AcDbLine
 10
103.771976
 20
-62.642476
 30
0.0
 11
103.771976
 21
85.695892
 31
0.0
  0
LINE
  5
187
100
AcDbEntity
  8
2
370
    25
  6
DASHED
100
AcDbLine
 10
38.176053
 20
99.384263
 30
0.0
 11
82.89398
 21
81.317048
 31
0.0
  0
LINE
  5
188
100
AcDbEntity
  8
2
370
    25
  6
DASHED
100
AcDbLine
 10
41.172906
 20
106.801734
 30
0.0
 11
92.348682
 21
86.125379
 31
0.0
  0
LINE
  5
189
100
AcDbEntity
  8
2
370
    25
  6
DASHED
100
AcDbLine
 10
37.899765
 20
100.035159
 30
0.0
 11
40.522011
 21
106.525446
 31
0.0
  0
LINE
  5
18A
100
AcDbEntity
  8
2
370
    25
  6
DASHED
100
AcDbLine
 10
41.172906
 20
106.801734
 30
0.0
 11
40.522011
 21
106.525446
 31
0.0
  0
LINE
  5
18B
100
AcDbEntity
  8
2
370
    25
  6
DASHED
100
AcDbLine
 10
37.899765
 20
100.035159
 30
0.0
 11
38.176053
 21
99.384263
 31
0.0
  0
LINE
  5
18C
100
AcDbEntity
  8
2
370
    25
  6
DASHED
100
AcDbLine
 10
41.172906
 20
106.801734
 30
0.0
 11
38.176053
 21
99.384263
 31
0.0
  0
LINE
  5
18D
100
AcDbEntity
  8
2
370
    25
  6
DASHED
100
AcDbLine
 10
128.435675
 20
75.859426
 30
0.0
 11
125.185074
 21
77.172754
 31
0.0
  0
LINE
  5
18E
100
AcDbEntity
  8
2
370
    25
  6
DASHED
100
AcDbLine
 10
119.937325
 20
58.360839
 30
0.0
 11
122.444321
 21
58.360839
 31
0.0
  0
ARC
  5
18F
100
AcDbEntity
  8
2
370
    25
  6
DASHED
100
AcDbCircle
 10
128.061068
 20
74.932242
 30
0.0
 40
1.0
100
AcDbArc
 50
338.0
 51
68.0
  0
ARC
  5
190
100
AcDbEntity
  8
2
370
    25
  6
DASHED
100
AcDbCircle
 10
120.869472
 20
70.288093
 30
0.0
 40
8.0
100
AcDbArc
 50
338.0
 51
8.0
  0
LINE
  5
191
100
AcDbEntity
  8
2
370
    25
  6
DASHED
100
AcDbLine
 10
128.791616
 20
71.401478
 30
0.0
 11
127.864432
 21
71.776084
 31
0.0
  0
LINE
  5
192
100
AcDbEntity
  8
2
370
    25
  6
DASHED
100
AcDbLine
 10
127.583477
 20
71.080696
 30
0.0
 11
127.864432
 21
71.776084
 31
0.0
  0
ARC
  5
193
100
AcDbEntity
  8
2
370
    25
  6
DASHED
100
AcDbCircle
 10
120.869472
 20
70.288093
 30
0.0
 40
8.0
100
AcDbArc
 50
308.0
 51
338.0
  0
LINE
  5
194
100
AcDbEntity
  8
2
370
    25
  6
DASHED
100
AcDbLine
 10
125.794763
 20
63.984007
 30
0.0
 11
124.86758
 21
64.358613
 31
0.0
  0
LINE
  5
195
100
AcDbEntity
  8
2
370
    25
  6
DASHED
100
AcDbLine
 10
125.148535
 20
65.054001
 30
0.0
 11
124.86758
 21
64.358613
 31
0.0
  0
LINE
  5
196
100
AcDbEntity
  8
2
370
    25
  6
DASHED
100
AcDbLine
 10
122.444321
 20
58.360839
 30
0.0
 11
126.366006
 21
68.067349
 31
0.0
  0
LINE
  5
197
100
AcDbEntity
  8
2
370
    25
  6
DASHED
100
AcDbLine
 10
126.366006
 20
68.067349
 30
0.0
 11
128.988252
 21
74.557636
 31
0.0
  0
LINE
  5
198
100
AcDbEntity
  8
2
370
    25
  6
DASHED
100
AcDbLine
 10
128.791616
 20
71.401478
 30
0.0
 11
125.794763
 21
63.984007
 31
0.0
  0
LINE
  5
199
100
AcDbEntity
  8
2
370
    25
  6
CENTER
100
AcDbLine
 10
129.958351
 20
196.561218
 30
0.0
 11
-15.398544
 21
196.561218
 31
0.0
  0
LINE
  5
19A
100
AcDbEntity
  8
2
370
    50
100
AcDbLine
 10
89.075038
 20
206.061218
 30
0.0
 11
-6.700051
 21
206.061218
 31
0.0
  0
LINE
  5
19B
100
AcDbEntity
  8
2
370
    50
100
AcDbLine
 10
89.075038
 20
187.061218
 30
0.0
 11
-6.700051
 21
187.061218
 31
0.0
  0
ELLIPSE
  5
19C
100
AcDbEntity
  8
2
370
    50
100
AcDbEllipse
 10
-6.700051
 20
196.561218
 30
0.0
 11
0.0
 21
9.5
 31
0.0
210
0.0
220
0.0
230
1.0
 40
0.766053
 41
0.0
 42
3.1415929999999999
  0
ELLIPSE
  5
19D
100
AcDbEntity
  8
2
370
    50
100
AcDbEllipse
 10
6.155701
 20
196.561218
 30
0.0
 11
0.0
 21
9.5
 31
0.0
210
0.0
220
0.0
230
1.0
 40
0.766053
 41
0.0
 42
3.1415929999999999
  0
ELLIPSE
  5
19E
100
AcDbEntity
  8
2
370
    50
100
AcDbEllipse
 10
6.541373
 20
196.561218
 30
0.0
 11
0.0
 21
9.5
 31
0.0
210
0.0
220
0.0
230
1.0
 40
0.766053
 41
0.0
 42
3.1415929999999999
  0
LINE
  5
19F
100
AcDbEntity
  8
2
370
    25
  6
CENTER
100
AcDbLine
 10
103.771976
 20
171.409912
 30
0.0
 11
103.771976
 21
221.814362
 31
0.0
  0
LINE
  5
1A0
100
AcDbEntity
  8
2
370
    50
100
AcDbLine
 10
-254.136154
 20
-83.150486
 30
0.0
 11
-254.136154
 21
-77.827837
 31
0.0
  0
LINE
  5
1A1
100
AcDbEntity
  8
2
370
    50
100
AcDbLine
 10
-242.136154
 20
-83.150486
 30
0.0
 11
-242.136154
 21
-77.827837
 31
0.0
  0
LINE
  5
1A2
100
AcDbEntity
  8
2
370
    50
100
AcDbLine
 10
-245.738238
 20
-77.827837
 30
0.0
 11
-245.738238
 21
-83.150486
 31
0.0
  0
LINE
  5
1A3
100
AcDbEntity
  8
2
370
    50
100
AcDbLine
 10
-244.571972
 20
-77.827837
 30
0.0
 11
-244.571972
 21
-83.150486
 31
0.0
  0
LINE
  5
1A4
100
AcDbEntity
  8
2
370
    50
100
AcDbLine
 10
-242.174057
 20
-77.827837
 30
0.0
 11
-242.174057
 21
-83.150486
 31
0.0
  0
LINE
  5
1A5
100
AcDbEntity
  8
2
370
    50
100
AcDbLine
 10
-242.636154
 20
-83.439161
 30
0.0
 11
-242.136154
 21
-83.150486
 31
0.0
  0
LINE
  5
1A6
100
AcDbEntity
  8
2
370
    50
100
AcDbLine
 10
-244.571972
 20
-83.150486
 30
0.0
 11
-245.738238
 21
-83.150486
 31
0.0
  0
LINE
  5
1A7
100
AcDbEntity
  8
2
370
    50
100
AcDbLine
 10
-254.136154
 20
-83.150486
 30
0.0
 11
-253.636154
 21
-83.439161
 31
0.0
  0
LINE
  5
1A8
100
AcDbEntity
  8
2
370
    50
100
AcDbLine
 10
-254.136154
 20
-77.827837
 30
0.0
 11
-253.636154
 21
-77.539161
 31
0.0
  0
ARC
  5
1A9
100
AcDbEntity
  8
2
370
    50
100
AcDbCircle
 10
-248.136154
 20
-73.335532
 30
0.0
 40
10.10363
100
AcDbArc
 50
270.0
 51
283.729133
  0
ARC
  5
1AA
100
AcDbEntity
  8
2
370
    50
100
AcDbCircle
 10
-248.136154
 20
-87.642791
 30
0.0
 40
10.10363
100
AcDbArc
 50
76.270867
 51
90.0
  0
LINE
  5
1AB
100
AcDbEntity
  8
2
370
    50
100
AcDbLine
 10
-244.571972
 20
-77.827837
 30
0.0
 11
-245.738238
 21
-77.827837
 31
0.0
  0
LINE
  5
1AC
100
AcDbEntity
  8
2
370
    50
100
AcDbLine
 10
-242.136154
 20
-81.150486
 30
0.0
 11
-242.174057
 21
-81.150486
 31
0.0
  0
ARC
  5
1AD
100
AcDbEntity
  8
2
370
    50
100
AcDbCircle
 10
-243.373014
 20
-80.805001
 30
0.0
 40
2.634161
100
AcDbArc
 50
242.924933
 51
297.075067
  0
ARC
  5
1AE
100
AcDbEntity
  8
2
370
    50
100
AcDbCircle
 10
-243.373014
 20
-80.173322
 30
0.0
 40
2.634161
100
AcDbArc
 50
62.924933
 51
117.075067
  0
LINE
  5
1AF
100
AcDbEntity
  8
2
370
    50
100
AcDbLine
 10
-242.636154
 20
-77.539161
 30
0.0
 11
-242.136154
 21
-77.827837
 31
0.0
  0
LINE
  5
1B0
100
AcDbEntity
  8
2
370
    50
100
AcDbLine
 10
-242.136154
 20
-77.827837
 30
0.0
 11
-242.174057
 21
-77.827837
 31
0.0
  0
ARC
  5
1B1
100
AcDbEntity
  8
2
370
    50
100
AcDbCircle
 10
-248.136154
 20
-73.335532
 30
0.0
 40
10.10363
100
AcDbArc
 50
256.270867
 51
270.0
  0
LINE
  5
1B2
100
AcDbEntity
  8
2
370
    50
100
AcDbLine
 10
-251.700336
 20
-83.150486
 30
0.0
 11
-250.53407
 21
-83.150486
 31
0.0
  0
LINE
  5
1B3
100
AcDbEntity
  8
2
370
    50
100
AcDbLine
 10
-250.53407
 20
-77.827837
 30
0.0
 11
-250.53407
 21
-83.150486
 31
0.0
  0
LINE
  5
1B4
100
AcDbEntity
  8
2
370
    50
100
AcDbLine
 10
-251.700336
 20
-77.827837
 30
0.0
 11
-251.700336
 21
-83.150486
 31
0.0
  0
ARC
  5
1B5
100
AcDbEntity
  8
2
370
    50
100
AcDbCircle
 10
-252.899294
 20
-80.805001
 30
0.0
 40
2.634161
100
AcDbArc
 50
242.924933
 51
297.075067
  0
LINE
  5
1B6
100
AcDbEntity
  8
2
370
    50
100
AcDbLine
 10
-254.098252
 20
-77.827837
 30
0.0
 11
-254.098252
 21
-83.150486
 31
0.0
  0
LINE
  5
1B7
100
AcDbEntity
  8
2
370
    50
100
AcDbLine
 10
-254.098252
 20
-81.150486
 30
0.0
 11
-254.136154
 21
-81.150486
 31
0.0
  0
LINE
  5
1B8
100
AcDbEntity
  8
2
370
    50
100
AcDbLine
 10
-255.086154
 20
-83.439161
 30
0.0
 11
-241.186154
 21
-83.439161
 31
0.0
  0
LINE
  5
1B9
100
AcDbEntity
  8
2
370
    50
100
AcDbLine
 10
-255.086154
 20
-112.439161
 30
0.0
 11
-248.136154
 21
-112.439161
 31
0.0
  0
LINE
  5
1BA
100
AcDbEntity
  8
2
370
    50
100
AcDbLine
 10
-255.086154
 20
-106.939161
 30
0.0
 11
-248.136154
 21
-106.939161
 31
0.0
  0
LINE
  5
1BB
100
AcDbEntity
  8
2
370
    50
100
AcDbLine
 10
-255.086154
 20
-104.939161
 30
0.0
 11
-248.136154
 21
-104.939161
 31
0.0
  0
LINE
  5
1BC
100
AcDbEntity
  8
2
370
    50
100
AcDbLine
 10
-255.086154
 20
-99.939161
 30
0.0
 11
-248.136154
 21
-99.939161
 31
0.0
  0
LINE
  5
1BD
100
AcDbEntity
  8
2
370
    50
100
AcDbLine
 10
-255.086154
 20
-97.939161
 30
0.0
 11
-248.136154
 21
-97.939161
 31
0.0
  0
LINE
  5
1BE
100
AcDbEntity
  8
2
370
    50
100
AcDbLine
 10
-255.086154
 20
-92.939161
 30
0.0
 11
-248.136154
 21
-92.939161
 31
0.0
  0
LINE
  5
1BF
100
AcDbEntity
  8
2
370
    50
100
AcDbLine
 10
-255.086154
 20
-90.939161
 30
0.0
 11
-248.136154
 21
-90.939161
 31
0.0
  0
LINE
  5
1C0
100
AcDbEntity
  8
2
370
    50
100
AcDbLine
 10
-255.486154
 20
-111.639161
 30
0.0
 11
-255.486154
 21
-107.739161
 31
0.0
  0
LINE
  5
1C1
100
AcDbEntity
  8
2
370
    50
100
AcDbLine
 10
-255.486154
 20
-104.139161
 30
0.0
 11
-255.486154
 21
-100.739161
 31
0.0
  0
LINE
  5
1C2
100
AcDbEntity
  8
2
370
    50
100
AcDbLine
 10
-255.486154
 20
-97.139161
 30
0.0
 11
-255.486154
 21
-93.739161
 31
0.0
  0
LINE
  5
1C3
100
AcDbEntity
  8
2
370
    50
100
AcDbLine
 10
-255.486154
 20
-90.139161
 30
0.0
 11
-255.486154
 21
-84.239161
 31
0.0
  0
LINE
  5
1C4
100
AcDbEntity
  8
2
370
    50
100
AcDbLine
 10
-255.086154
 20
-92.939161
 30
0.0
 11
-255.086154
 21
-90.939161
 31
0.0
  0
LINE
  5
1C5
100
AcDbEntity
  8
2
370
    50
100
AcDbLine
 10
-255.086154
 20
-106.939161
 30
0.0
 11
-255.086154
 21
-104.939161
 31
0.0
  0
LINE
  5
1C6
100
AcDbEntity
  8
2
370
    50
100
AcDbLine
 10
-255.086154
 20
-99.939161
 30
0.0
 11
-255.086154
 21
-97.939161
 31
0.0
  0
ARC
  5
1C7
100
AcDbEntity
  8
2
370
    50
100
AcDbCircle
 10
-254.486154
 20
-90.139161
 30
0.0
 40
1.0
100
AcDbArc
 50
180.0
 51
233.130102
  0
ARC
  5
1C8
100
AcDbEntity
  8
2
370
    50
100
AcDbCircle
 10
-254.486154
 20
-93.739161
 30
0.0
 40
1.0
100
AcDbArc
 50
126.869898
 51
180.0
  0
ARC
  5
1C9
100
AcDbEntity
  8
2
370
    50
100
AcDbCircle
 10
-254.486154
 20
-97.139161
 30
0.0
 40
1.0
100
AcDbArc
 50
180.0
 51
233.130102
  0
ARC
  5
1CA
100
AcDbEntity
  8
2
370
    50
100
AcDbCircle
 10
-254.486154
 20
-100.739161
 30
0.0
 40
1.0
100
AcDbArc
 50
126.869898
 51
180.0
  0
ARC
  5
1CB
100
AcDbEntity
  8
2
370
    50
100
AcDbCircle
 10
-254.486154
 20
-104.139161
 30
0.0
 40
1.0
100
AcDbArc
 50
180.0
 51
233.130102
  0
ARC
  5
1CC
100
AcDbEntity
  8
2
370
    50
100
AcDbCircle
 10
-254.486154
 20
-107.739161
 30
0.0
 40
1.0
100
AcDbArc
 50
126.869898
 51
180.0
  0
ARC
  5
1CD
100
AcDbEntity
  8
2
370
    50
100
AcDbCircle
 10
-254.486154
 20
-111.639161
 30
0.0
 40
1.0
100
AcDbArc
 50
180.0
 51
233.130102
  0
ARC
  5
1CE
100
AcDbEntity
  8
2
370
    50
100
AcDbCircle
 10
-254.486154
 20
-84.239161
 30
0.0
 40
1.0
100
AcDbArc
 50
126.869898
 51
180.0
  0
LINE
  5
1CF
100
AcDbEntity
  8
2
370
    50
100
AcDbLine
 10
-241.186154
 20
-112.439161
 30
0.0
 11
-248.136154
 21
-112.439161
 31
0.0
  0
ARC
  5
1D0
100
AcDbEntity
  8
2
370
    50
100
AcDbCircle
 10
-241.786154
 20
-111.639161
 30
0.0
 40
1.0
100
AcDbArc
 50
306.869898
 51
360.0
  0
LINE
  5
1D1
100
AcDbEntity
  8
2
370
    50
100
AcDbLine
 10
-240.786154
 20
-111.639161
 30
0.0
 11
-240.786154
 21
-107.739161
 31
0.0
  0
ARC
  5
1D2
100
AcDbEntity
  8
2
370
    50
100
AcDbCircle
 10
-241.786154
 20
-107.739161
 30
0.0
 40
1.0
100
AcDbArc
 50
360.0
 51
53.130102
  0
LINE
  5
1D3
100
AcDbEntity
  8
2
370
    50
100
AcDbLine
 10
-241.186154
 20
-106.939161
 30
0.0
 11
-241.186154
 21
-104.939161
 31
0.0
  0
LINE
  5
1D4
100
AcDbEntity
  8
2
370
    50
100
AcDbLine
 10
-241.186154
 20
-106.939161
 30
0.0
 11
-248.136154
 21
-106.939161
 31
0.0
  0
LINE
  5
1D5
100
AcDbEntity
  8
2
370
    50
100
AcDbLine
 10
-241.186154
 20
-104.939161
 30
0.0
 11
-248.136154
 21
-104.939161
 31
0.0
  0
ARC
  5
1D6
100
AcDbEntity
  8
2
370
    50
100
AcDbCircle
 10
-241.786154
 20
-104.139161
 30
0.0
 40
1.0
100
AcDbArc
 50
306.869898
 51
360.0
  0
LINE
  5
1D7
100
AcDbEntity
  8
2
370
    50
100
AcDbLine
 10
-240.786154
 20
-104.139161
 30
0.0
 11
-240.786154
 21
-100.739161
 31
0.0
  0
ARC
  5
1D8
100
AcDbEntity
  8
2
370
    50
100
AcDbCircle
 10
-241.786154
 20
-100.739161
 30
0.0
 40
1.0
100
AcDbArc
 50
360.0
 51
53.130102
  0
LINE
  5
1D9
100
AcDbEntity
  8
2
370
    50
100
AcDbLine
 10
-241.186154
 20
-99.939161
 30
0.0
 11
-248.136154
 21
-99.939161
 31
0.0
  0
LINE
  5
1DA
100
AcDbEntity
  8
2
370
    50
100
AcDbLine
 10
-241.186154
 20
-99.939161
 30
0.0
 11
-241.186154
 21
-97.939161
 31
0.0
  0
LINE
  5
1DB
100
AcDbEntity
  8
2
370
    50
100
AcDbLine
 10
-241.186154
 20
-97.939161
 30
0.0
 11
-248.136154
 21
-97.939161
 31
0.0
  0
ARC
  5
1DC
100
AcDbEntity
  8
2
370
    50
100
AcDbCircle
 10
-241.786154
 20
-97.139161
 30
0.0
 40
1.0
100
AcDbArc
 50
306.869898
 51
360.0
  0
ARC
  5
1DD
100
AcDbEntity
  8
2
370
    50
100
AcDbCircle
 10
-241.786154
 20
-97.139161
 30
0.0
 40
1.0
100
AcDbArc
 50
306.869898
 51
360.0
  0
LINE
  5
1DE
100
AcDbEntity
  8
2
370
    50
100
AcDbLine
 10
-240.786154
 20
-97.139161
 30
0.0
 11
-240.786154
 21
-93.739161
 31
0.0
  0
ARC
  5
1DF
100
AcDbEntity
  8
2
370
    50
100
AcDbCircle
 10
-241.786154
 20
-93.739161
 30
0.0
 40
1.0
100
AcDbArc
 50
360.0
 51
53.130102
  0
LINE
  5
1E0
100
AcDbEntity
  8
2
370
    50
100
AcDbLine
 10
-241.186154
 20
-92.939161
 30
0.0
 11
-248.136154
 21
-92.939161
 31
0.0
  0
LINE
  5
1E1
100
AcDbEntity
  8
2
370
    50
100
AcDbLine
 10
-241.186154
 20
-92.939161
 30
0.0
 11
-241.186154
 21
-90.939161
 31
0.0
  0
LINE
  5
1E2
100
AcDbEntity
  8
2
370
    50
100
AcDbLine
 10
-241.186154
 20
-90.939161
 30
0.0
 11
-248.136154
 21
-90.939161
 31
0.0
  0
ARC
  5
1E3
100
AcDbEntity
  8
2
370
    50
100
AcDbCircle
 10
-241.786154
 20
-90.139161
 30
0.0
 40
1.0
100
AcDbArc
 50
306.869898
 51
360.0
  0
LINE
  5
1E4
100
AcDbEntity
  8
2
370
    50
100
AcDbLine
 10
-240.786154
 20
-90.139161
 30
0.0
 11
-240.786154
 21
-84.239161
 31
0.0
  0
ARC
  5
1E5
100
AcDbEntity
  8
2
370
    50
100
AcDbCircle
 10
-241.786154
 20
-84.239161
 30
0.0
 40
1.0
100
AcDbArc
 50
360.0
 51
53.130102
  0
LINE
  5
1E6
100
AcDbEntity
  8
2
370
    50
100
AcDbLine
 10
-254.986154
 20
-128.61721
 30
0.0
 11
-254.986154
 21
-112.439161
 31
0.0
  0
LINE
  5
1E7
100
AcDbEntity
  8
2
370
    50
100
AcDbLine
 10
-241.286154
 20
-128.55687
 30
0.0
 11
-241.286154
 21
-112.439161
 31
0.0
  0
ARC
  5
1E8
100
AcDbEntity
  8
2
370
    50
100
AcDbCircle
 10
-248.136154
 20
-87.642791
 30
0.0
 40
10.10363
100
AcDbArc
 50
90.0
 51
103.729133
  0
LINE
  5
1E9
100
AcDbEntity
  8
2
370
    50
100
AcDbLine
 10
-251.700336
 20
-77.827837
 30
0.0
 11
-250.53407
 21
-77.827837
 31
0.0
  0
ARC
  5
1EA
100
AcDbEntity
  8
2
370
    50
100
AcDbCircle
 10
-252.899294
 20
-80.173322
 30
0.0
 40
2.634161
100
AcDbArc
 50
62.924933
 51
117.075067
  0
POINT
  5
1EB
100
AcDbEntity
  8
2
370
    50
100
AcDbPoint
 10
-248.136154
 20
-61.539161
 30
0.0
  0
POINT
  5
1EC
100
AcDbEntity
  8
2
370
    50
100
AcDbPoint
 10
-232.136154
 20
-61.539161
 30
0.0
  0
POINT
  5
1ED
100
AcDbEntity
  8
2
370
    50
100
AcDbPoint
 10
-248.136154
 20
-61.539161
 30
0.0
  0
LINE
  5
1EE
100
AcDbEntity
  8
2
370
    50
100
AcDbLine
 10
-238.136154
 20
-83.150486
 30
0.0
 11
-238.136154
 21
-77.827837
 31
0.0
  0
LINE
  5
1EF
100
AcDbEntity
  8
2
370
    50
100
AcDbLine
 10
-226.136154
 20
-83.150486
 30
0.0
 11
-226.136154
 21
-77.827837
 31
0.0
  0
LINE
  5
1F0
100
AcDbEntity
  8
2
370
    50
100
AcDbLine
 10
-229.738238
 20
-77.827837
 30
0.0
 11
-229.738238
 21
-83.150486
 31
0.0
  0
LINE
  5
1F1
100
AcDbEntity
  8
2
370
    50
100
AcDbLine
 10
-228.571972
 20
-77.827837
 30
0.0
 11
-228.571972
 21
-83.150486
 31
0.0
  0
LINE
  5
1F2
100
AcDbEntity
  8
2
370
    50
100
AcDbLine
 10
-226.174057
 20
-77.827837
 30
0.0
 11
-226.174057
 21
-83.150486
 31
0.0
  0
LINE
  5
1F3
100
AcDbEntity
  8
2
370
    50
100
AcDbLine
 10
-226.636154
 20
-83.439161
 30
0.0
 11
-226.136154
 21
-83.150486
 31
0.0
  0
LINE
  5
1F4
100
AcDbEntity
  8
2
370
    50
100
AcDbLine
 10
-228.571972
 20
-83.150486
 30
0.0
 11
-229.738238
 21
-83.150486
 31
0.0
  0
LINE
  5
1F5
100
AcDbEntity
  8
2
370
    50
100
AcDbLine
 10
-238.136154
 20
-83.150486
 30
0.0
 11
-237.636154
 21
-83.439161
 31
0.0
  0
LINE
  5
1F6
100
AcDbEntity
  8
2
370
    50
100
AcDbLine
 10
-238.136154
 20
-77.827837
 30
0.0
 11
-237.636154
 21
-77.539161
 31
0.0
  0
ARC
  5
1F7
100
AcDbEntity
  8
2
370
    50
100
AcDbCircle
 10
-232.136154
 20
-73.335532
 30
0.0
 40
10.10363
100
AcDbArc
 50
270.0
 51
283.729133
  0
ARC
  5
1F8
100
AcDbEntity
  8
2
370
    50
100
AcDbCircle
 10
-232.136154
 20
-87.642791
 30
0.0
 40
10.10363
100
AcDbArc
 50
76.270867
 51
90.0
  0
LINE
  5
1F9
100
AcDbEntity
  8
2
370
    50
100
AcDbLine
 10
-228.571972
 20
-77.827837
 30
0.0
 11
-229.738238
 21
-77.827837
 31
0.0
  0
LINE
  5
1FA
100
AcDbEntity
  8
2
370
    50
100
AcDbLine
 10
-226.136154
 20
-81.150486
 30
0.0
 11
-226.174057
 21
-81.150486
 31
0.0
  0
ARC
  5
1FB
100
AcDbEntity
  8
2
370
    50
100
AcDbCircle
 10
-227.373014
 20
-80.805001
 30
0.0
 40
2.634161
100
AcDbArc
 50
242.924933
 51
297.075067
  0
ARC
  5
1FC
100
AcDbEntity
  8
2
370
    50
100
AcDbCircle
 10
-227.373014
 20
-80.173322
 30
0.0
 40
2.634161
100
AcDbArc
 50
62.924933
 51
117.075067
  0
LINE
  5
1FD
100
AcDbEntity
  8
2
370
    50
100
AcDbLine
 10
-226.636154
 20
-77.539161
 30
0.0
 11
-226.136154
 21
-77.827837
 31
0.0
  0
ARC
  5
1FE
100
AcDbEntity
  8
2
370
    50
100
AcDbCircle
 10
-232.136154
 20
-73.335532
 30
0.0
 40
10.10363
100
AcDbArc
 50
256.270867
 51
270.0
  0
LINE
  5
1FF
100
AcDbEntity
  8
2
370
    50
100
AcDbLine
 10
-235.700336
 20
-83.150486
 30
0.0
 11
-234.53407
 21
-83.150486
 31
0.0
  0
LINE
  5
200
100
AcDbEntity
  8
2
370
    50
100
AcDbLine
 10
-234.53407
 20
-77.827837
 30
0.0
 11
-234.53407
 21
-83.150486
 31
0.0
  0
LINE
  5
201
100
AcDbEntity
  8
2
370
    50
100
AcDbLine
 10
-235.700336
 20
-77.827837
 30
0.0
 11
-235.700336
 21
-83.150486
 31
0.0
  0
ARC
  5
202
100
AcDbEntity
  8
2
370
    50
100
AcDbCircle
 10
-236.899294
 20
-80.805001
 30
0.0
 40
2.634161
100
AcDbArc
 50
242.924933
 51
297.075067
  0
LINE
  5
203
100
AcDbEntity
  8
2
370
    50
100
AcDbLine
 10
-238.098252
 20
-77.827837
 30
0.0
 11
-238.098252
 21
-83.150486
 31
0.0
  0
LINE
  5
204
100
AcDbEntity
  8
2
370
    50
100
AcDbLine
 10
-238.098252
 20
-81.150486
 30
0.0
 11
-238.136154
 21
-81.150486
 31
0.0
  0
LINE
  5
205
100
AcDbEntity
  8
2
370
    25
  6
CENTER
100
AcDbLine
 10
-232.136154
 20
-117.800316
 30
0.0
 11
-232.136154
 21
-137.505645
 31
0.0
  0
LINE
  5
206
100
AcDbEntity
  8
2
370
    50
100
AcDbLine
 10
-239.086154
 20
-83.439161
 30
0.0
 11
-225.186154
 21
-83.439161
 31
0.0
  0
LINE
  5
207
100
AcDbEntity
  8
2
370
    50
100
AcDbLine
 10
-239.086154
 20
-112.439161
 30
0.0
 11
-232.136154
 21
-112.439161
 31
0.0
  0
LINE
  5
208
100
AcDbEntity
  8
2
370
    50
100
AcDbLine
 10
-239.086154
 20
-106.939161
 30
0.0
 11
-232.136154
 21
-106.939161
 31
0.0
  0
LINE
  5
209
100
AcDbEntity
  8
2
370
    50
100
AcDbLine
 10
-239.086154
 20
-104.939161
 30
0.0
 11
-232.136154
 21
-104.939161
 31
0.0
  0
LINE
  5
20A
100
AcDbEntity
  8
2
370
    50
100
AcDbLine
 10
-239.086154
 20
-99.939161
 30
0.0
 11
-232.136154
 21
-99.939161
 31
0.0
  0
LINE
  5
20B
100
AcDbEntity
  8
2
370
    50
100
AcDbLine
 10
-239.086154
 20
-97.939161
 30
0.0
 11
-232.136154
 21
-97.939161
 31
0.0
  0
LINE
  5
20C
100
AcDbEntity
  8
2
370
    50
100
AcDbLine
 10
-239.086154
 20
-92.939161
 30
0.0
 11
-232.136154
 21
-92.939161
 31
0.0
  0
LINE
  5
20D
100
AcDbEntity
  8
2
370
    50
100
AcDbLine
 10
-239.086154
 20
-90.939161
 30
0.0
 11
-232.136154
 21
-90.939161
 31
0.0
  0
LINE
  5
20E
100
AcDbEntity
  8
2
370
    50
100
AcDbLine
 10
-239.486154
 20
-111.639161
 30
0.0
 11
-239.486154
 21
-107.739161
 31
0.0
  0
LINE
  5
20F
100
AcDbEntity
  8
2
370
    50
100
AcDbLine
 10
-239.486154
 20
-104.139161
 30
0.0
 11
-239.486154
 21
-100.739161
 31
0.0
  0
LINE
  5
210
100
AcDbEntity
  8
2
370
    50
100
AcDbLine
 10
-239.486154
 20
-97.139161
 30
0.0
 11
-239.486154
 21
-93.739161
 31
0.0
  0
LINE
  5
211
100
AcDbEntity
  8
2
370
    50
100
AcDbLine
 10
-239.486154
 20
-90.139161
 30
0.0
 11
-239.486154
 21
-84.239161
 31
0.0
  0
LINE
  5
212
100
AcDbEntity
  8
2
370
    50
100
AcDbLine
 10
-239.086154
 20
-92.939161
 30
0.0
 11
-239.086154
 21
-90.939161
 31
0.0
  0
LINE
  5
213
100
AcDbEntity
  8
2
370
    50
100
AcDbLine
 10
-239.086154
 20
-106.939161
 30
0.0
 11
-239.086154
 21
-104.939161
 31
0.0
  0
LINE
  5
214
100
AcDbEntity
  8
2
370
    50
100
AcDbLine
 10
-239.086154
 20
-99.939161
 30
0.0
 11
-239.086154
 21
-97.939161
 31
0.0
  0
ARC
  5
215
100
AcDbEntity
  8
2
370
    50
100
AcDbCircle
 10
-238.486154
 20
-90.139161
 30
0.0
 40
1.0
100
AcDbArc
 50
180.0
 51
233.130102
  0
ARC
  5
216
100
AcDbEntity
  8
2
370
    50
100
AcDbCircle
 10
-238.486154
 20
-93.739161
 30
0.0
 40
1.0
100
AcDbArc
 50
126.869898
 51
180.0
  0
ARC
  5
217
100
AcDbEntity
  8
2
370
    50
100
AcDbCircle
 10
-238.486154
 20
-97.139161
 30
0.0
 40
1.0
100
AcDbArc
 50
180.0
 51
233.130102
  0
ARC
  5
218
100
AcDbEntity
  8
2
370
    50
100
AcDbCircle
 10
-238.486154
 20
-100.739161
 30
0.0
 40
1.0
100
AcDbArc
 50
126.869898
 51
180.0
  0
ARC
  5
219
100
AcDbEntity
  8
2
370
    50
100
AcDbCircle
 10
-238.486154
 20
-104.139161
 30
0.0
 40
1.0
100
AcDbArc
 50
180.0
 51
233.130102
  0
ARC
  5
21A
100
AcDbEntity
  8
2
370
    50
100
AcDbCircle
 10
-238.486154
 20
-107.739161
 30
0.0
 40
1.0
100
AcDbArc
 50
126.869898
 51
180.0
  0
ARC
  5
21B
100
AcDbEntity
  8
2
370
    50
100
AcDbCircle
 10
-238.486154
 20
-111.639161
 30
0.0
 40
1.0
100
AcDbArc
 50
180.0
 51
233.130102
  0
ARC
  5
21C
100
AcDbEntity
  8
2
370
    50
100
AcDbCircle
 10
-238.486154
 20
-84.239161
 30
0.0
 40
1.0
100
AcDbArc
 50
126.869898
 51
180.0
  0
LINE
  5
21D
100
AcDbEntity
  8
2
370
    50
100
AcDbLine
 10
-225.186154
 20
-112.439161
 30
0.0
 11
-232.136154
 21
-112.439161
 31
0.0
  0
ARC
  5
21E
100
AcDbEntity
  8
2
370
    50
100
AcDbCircle
 10
-225.786154
 20
-111.639161
 30
0.0
 40
1.0
100
AcDbArc
 50
306.869898
 51
360.0
  0
LINE
  5
21F
100
AcDbEntity
  8
2
370
    50
100
AcDbLine
 10
-224.786154
 20
-111.639161
 30
0.0
 11
-224.786154
 21
-107.739161
 31
0.0
  0
ARC
  5
220
100
AcDbEntity
  8
2
370
    50
100
AcDbCircle
 10
-225.786154
 20
-107.739161
 30
0.0
 40
1.0
100
AcDbArc
 50
360.0
 51
53.130102
  0
LINE
  5
221
100
AcDbEntity
  8
2
370
    50
100
AcDbLine
 10
-225.186154
 20
-106.939161
 30
0.0
 11
-225.186154
 21
-104.939161
 31
0.0
  0
LINE
  5
222
100
AcDbEntity
  8
2
370
    50
100
AcDbLine
 10
-225.186154
 20
-106.939161
 30
0.0
 11
-232.136154
 21
-106.939161
 31
0.0
  0
LINE
  5
223
100
AcDbEntity
  8
2
370
    50
100
AcDbLine
 10
-225.186154
 20
-104.939161
 30
0.0
 11
-232.136154
 21
-104.939161
 31
0.0
  0
ARC
  5
224
100
AcDbEntity
  8
2
370
    50
100
AcDbCircle
 10
-225.786154
 20
-104.139161
 30
0.0
 40
1.0
100
AcDbArc
 50
306.869898
 51
360.0
  0
LINE
  5
225
100
AcDbEntity
  8
2
370
    50
100
AcDbLine
 10
-224.786154
 20
-104.139161
 30
0.0
 11
-224.786154
 21
-100.739161
 31
0.0
  0
ARC
  5
226
100
AcDbEntity
  8
2
370
    50
100
AcDbCircle
 10
-225.786154
 20
-100.739161
 30
0.0
 40
1.0
100
AcDbArc
 50
360.0
 51
53.130102
  0
LINE
  5
227
100
AcDbEntity
  8
2
370
    50
100
AcDbLine
 10
-225.186154
 20
-99.939161
 30
0.0
 11
-232.136154
 21
-99.939161
 31
0.0
  0
LINE
  5
228
100
AcDbEntity
  8
2
370
    50
100
AcDbLine
 10
-225.186154
 20
-99.939161
 30
0.0
 11
-225.186154
 21
-97.939161
 31
0.0
  0
LINE
  5
229
100
AcDbEntity
  8
2
370
    50
100
AcDbLine
 10
-225.186154
 20
-97.939161
 30
0.0
 11
-232.136154
 21
-97.939161
 31
0.0
  0
ARC
  5
22A
100
AcDbEntity
  8
2
370
    50
100
AcDbCircle
 10
-225.786154
 20
-97.139161
 30
0.0
 40
1.0
100
AcDbArc
 50
306.869898
 51
360.0
  0
ARC
  5
22B
100
AcDbEntity
  8
2
370
    50
100
AcDbCircle
 10
-225.786154
 20
-97.139161
 30
0.0
 40
1.0
100
AcDbArc
 50
306.869898
 51
360.0
  0
LINE
  5
22C
100
AcDbEntity
  8
2
370
    50
100
AcDbLine
 10
-224.786154
 20
-97.139161
 30
0.0
 11
-224.786154
 21
-93.739161
 31
0.0
  0
ARC
  5
22D
100
AcDbEntity
  8
2
370
    50
100
AcDbCircle
 10
-225.786154
 20
-93.739161
 30
0.0
 40
1.0
100
AcDbArc
 50
360.0
 51
53.130102
  0
LINE
  5
22E
100
AcDbEntity
  8
2
370
    50
100
AcDbLine
 10
-225.186154
 20
-92.939161
 30
0.0
 11
-232.136154
 21
-92.939161
 31
0.0
  0
LINE
  5
22F
100
AcDbEntity
  8
2
370
    50
100
AcDbLine
 10
-225.186154
 20
-92.939161
 30
0.0
 11
-225.186154
 21
-90.939161
 31
0.0
  0
LINE
  5
230
100
AcDbEntity
  8
2
370
    50
100
AcDbLine
 10
-225.186154
 20
-90.939161
 30
0.0
 11
-232.136154
 21
-90.939161
 31
0.0
  0
ARC
  5
231
100
AcDbEntity
  8
2
370
    50
100
AcDbCircle
 10
-225.786154
 20
-90.139161
 30
0.0
 40
1.0
100
AcDbArc
 50
306.869898
 51
360.0
  0
LINE
  5
232
100
AcDbEntity
  8
2
370
    50
100
AcDbLine
 10
-224.786154
 20
-90.139161
 30
0.0
 11
-224.786154
 21
-84.239161
 31
0.0
  0
ARC
  5
233
100
AcDbEntity
  8
2
370
    50
100
AcDbCircle
 10
-225.786154
 20
-84.239161
 30
0.0
 40
1.0
100
AcDbArc
 50
360.0
 51
53.130102
  0
LINE
  5
234
100
AcDbEntity
  8
2
370
    50
100
AcDbLine
 10
-238.986154
 20
-128.677498
 30
0.0
 11
-238.986154
 21
-112.439161
 31
0.0
  0
LINE
  5
235
100
AcDbEntity
  8
2
370
    50
100
AcDbLine
 10
-225.286154
 20
-128.691177
 30
0.0
 11
-225.286154
 21
-112.439161
 31
0.0
  0
ARC
  5
236
100
AcDbEntity
  8
2
370
    50
100
AcDbCircle
 10
-232.136154
 20
-87.642791
 30
0.0
 40
10.10363
100
AcDbArc
 50
90.0
 51
103.729133
  0
LINE
  5
237
100
AcDbEntity
  8
2
370
    50
100
AcDbLine
 10
-235.700336
 20
-77.827837
 30
0.0
 11
-234.53407
 21
-77.827837
 31
0.0
  0
ARC
  5
238
100
AcDbEntity
  8
2
370
    50
100
AcDbCircle
 10
-236.899294
 20
-80.173322
 30
0.0
 40
2.634161
100
AcDbArc
 50
62.924933
 51
117.075067
  0
POINT
  5
239
100
AcDbEntity
  8
2
370
    50
100
AcDbPoint
 10
-232.136154
 20
-61.539161
 30
0.0
  0
HATCH
  5
23A
100
AcDbEntity
  8
2
370
    25
100
AcDbHatch
 10
0.0
 20
0.0
 30
0.0
210
0.0
220
0.0
230
1.0
  2
_U
 70
     0
 71
     1
 91
        1
 92
        1
 93
        5
 72
     1
 10
-226.61569
 20
-75.550976000000006
 11
-215.636154
 21
-75.550976000000006
 72
     1
 10
-215.636154
 20
-75.550976000000006
 11
-215.636154
 21
-77.350976000000003
 72
     1
 10
-215.636154
 20
-77.350976000000003
 11
-226.136154
 21
-77.350976000000003
 72
     1
 10
-226.136154
 20
-77.350976000000003
 11
-226.136154
 21
-75.827837000000002
 72
     1
 10
-226.136154
 20
-75.827837000000002
 11
-226.61569
 21
-75.550976000000006
 97
        5
330
0
330
0
330
0
330
0
330
0
 75
     0
 76
     0
 52
45.0
 41
1.0
 77
     0
 78
     1
 53
45.0
 43
0.0
 44
0.0
 45
-1.4142140000000001
 46
1.4142140000000001
 79
     0
 98
        1
 10
0.0
 20
0.0
  0
ARC
  5
23B
100
AcDbEntity
  8
2
370
    50
100
AcDbCircle
 10
-235.561154
 20
-124.048064
 30
0.0
 40
5.708333
100
AcDbArc
 50
233.130102
 51
306.869898
  0
ARC
  5
23C
100
AcDbEntity
  8
2
370
    50
100
AcDbCircle
 10
-228.711154
 20
-133.181398
 30
0.0
 40
5.708333
100
AcDbArc
 50
53.130102
 51
126.869898
  0
ARC
  5
23D
100
AcDbEntity
  8
2
370
    50
100
AcDbCircle
 10
-228.711154
 20
-124.048064
 30
0.0
 40
5.708333
100
AcDbArc
 50
233.130102
 51
306.869898
  0
ARC
  5
23E
100
AcDbEntity
  8
2
370
    50
100
AcDbCircle
 10
-251.561154
 20
-124.048064
 30
0.0
 40
5.708333
100
AcDbArc
 50
233.130102
 51
306.869898
  0
ARC
  5
23F
100
AcDbEntity
  8
2
370
    50
100
AcDbCircle
 10
-244.711154
 20
-133.181398
 30
0.0
 40
5.708333
100
AcDbArc
 50
53.130102
 51
126.869898
  0
ARC
  5
240
100
AcDbEntity
  8
2
370
    50
100
AcDbCircle
 10
-244.711154
 20
-124.048064
 30
0.0
 40
5.708333
100
AcDbArc
 50
233.130102
 51
306.869898
  0
LINE
  5
241
100
AcDbEntity
  8
2
370
    50
100
AcDbLine
 10
-276.823997
 20
-198.435657
 30
0.0
 11
-276.823997
 21
-197.935349
 31
0.0
  0
LINE
  5
242
100
AcDbEntity
  8
2
370
    50
100
AcDbLine
 10
-288.823997
 20
-197.935349
 30
0.0
 11
-288.823997
 21
-198.435657
 31
0.0
  0
LINE
  5
243
100
AcDbEntity
  8
2
370
    50
100
AcDbLine
 10
-276.823997
 20
-197.935349
 30
0.0
 11
-277.323997
 21
-197.435349
 31
0.0
  0
LINE
  5
244
100
AcDbEntity
  8
2
370
    50
100
AcDbLine
 10
-288.323997
 20
-197.435349
 30
0.0
 11
-288.823997
 21
-197.935349
 31
0.0
  0
LINE
  5
245
100
AcDbEntity
  8
2
370
    50
100
AcDbLine
 10
-276.823997
 20
-197.935349
 30
0.0
 11
-288.823997
 21
-197.935349
 31
0.0
  0
POINT
  5
246
100
AcDbEntity
  8
2
370
    50
100
AcDbPoint
 10
-282.823997
 20
-218.435657
 30
0.0
  0
LINE
  5
247
100
AcDbEntity
  8
2
370
    50
100
AcDbLine
 10
-290.074251
 20
-169.435349
 30
0.0
 11
-275.574251
 21
-169.435349
 31
0.0
  0
LINE
  5
248
100
AcDbEntity
  8
2
370
    50
100
AcDbLine
 10
-289.724251
 20
-175.435349
 30
0.0
 11
-275.924251
 21
-175.435349
 31
0.0
  0
LINE
  5
249
100
AcDbEntity
  8
2
370
    50
100
AcDbLine
 10
-289.724251
 20
-177.935349
 30
0.0
 11
-275.924251
 21
-177.935349
 31
0.0
  0
LINE
  5
24A
100
AcDbEntity
  8
2
370
    50
100
AcDbLine
 10
-289.724251
 20
-182.935349
 30
0.0
 11
-275.924251
 21
-182.935349
 31
0.0
  0
LINE
  5
24B
100
AcDbEntity
  8
2
370
    50
100
AcDbLine
 10
-289.724251
 20
-185.435349
 30
0.0
 11
-275.924251
 21
-185.435349
 31
0.0
  0
LINE
  5
24C
100
AcDbEntity
  8
2
370
    50
100
AcDbLine
 10
-289.724251
 20
-190.435349
 30
0.0
 11
-275.924251
 21
-190.435349
 31
0.0
  0
LINE
  5
24D
100
AcDbEntity
  8
2
370
    50
100
AcDbLine
 10
-289.724251
 20
-192.935349
 30
0.0
 11
-275.924251
 21
-192.935349
 31
0.0
  0
LINE
  5
24E
100
AcDbEntity
  8
2
370
    50
100
AcDbLine
 10
-290.074251
 20
-193.695283
 30
0.0
 11
-290.074251
 21
-196.435349
 31
0.0
  0
LINE
  5
24F
100
AcDbEntity
  8
2
370
    50
100
AcDbLine
 10
-290.074251
 20
-186.195283
 30
0.0
 11
-290.074251
 21
-189.675414
 31
0.0
  0
LINE
  5
250
100
AcDbEntity
  8
2
370
    50
100
AcDbLine
 10
-290.074251
 20
-169.435349
 30
0.0
 11
-290.074251
 21
-174.675414
 31
0.0
  0
LINE
  5
251
100
AcDbEntity
  8
2
370
    50
100
AcDbLine
 10
-290.074251
 20
-178.695283
 30
0.0
 11
-290.074251
 21
-182.175414
 31
0.0
  0
LINE
  5
252
100
AcDbEntity
  8
2
370
    50
100
AcDbLine
 10
-275.574251
 20
-193.695283
 30
0.0
 11
-275.574251
 21
-196.435349
 31
0.0
  0
LINE
  5
253
100
AcDbEntity
  8
2
370
    50
100
AcDbLine
 10
-275.574251
 20
-186.195283
 30
0.0
 11
-275.574251
 21
-189.675414
 31
0.0
  0
LINE
  5
254
100
AcDbEntity
  8
2
370
    50
100
AcDbLine
 10
-275.574251
 20
-169.435349
 30
0.0
 11
-275.574251
 21
-174.675414
 31
0.0
  0
LINE
  5
255
100
AcDbEntity
  8
2
370
    50
100
AcDbLine
 10
-275.574251
 20
-178.695283
 30
0.0
 11
-275.574251
 21
-182.175414
 31
0.0
  0
LINE
  5
256
100
AcDbEntity
  8
2
370
    50
100
AcDbLine
 10
-289.724251
 20
-190.435349
 30
0.0
 11
-289.724251
 21
-192.935349
 31
0.0
  0
LINE
  5
257
100
AcDbEntity
  8
2
370
    50
100
AcDbLine
 10
-275.924251
 20
-190.435349
 30
0.0
 11
-275.924251
 21
-192.935349
 31
0.0
  0
LINE
  5
258
100
AcDbEntity
  8
2
370
    50
100
AcDbLine
 10
-289.724251
 20
-175.435349
 30
0.0
 11
-289.724251
 21
-177.935349
 31
0.0
  0
LINE
  5
259
100
AcDbEntity
  8
2
370
    50
100
AcDbLine
 10
-289.724251
 20
-182.935349
 30
0.0
 11
-289.724251
 21
-185.435349
 31
0.0
  0
LINE
  5
25A
100
AcDbEntity
  8
2
370
    50
100
AcDbLine
 10
-275.924251
 20
-175.435349
 30
0.0
 11
-275.924251
 21
-177.935349
 31
0.0
  0
LINE
  5
25B
100
AcDbEntity
  8
2
370
    50
100
AcDbLine
 10
-275.924251
 20
-182.935349
 30
0.0
 11
-275.924251
 21
-185.435349
 31
0.0
  0
LINE
  5
25C
100
AcDbEntity
  8
2
370
    50
100
AcDbLine
 10
-275.924251
 20
-169.435349
 30
0.0
 11
-275.924251
 21
-137.357422
 31
0.0
  0
LINE
  5
25D
100
AcDbEntity
  8
2
370
    50
100
AcDbLine
 10
-289.724251
 20
-169.435349
 30
0.0
 11
-289.724251
 21
-137.357422
 31
0.0
  0
ARC
  5
25E
100
AcDbEntity
  8
2
370
    50
100
AcDbCircle
 10
-276.574251
 20
-193.695283
 30
0.0
 40
1.0
100
AcDbArc
 50
0.0
 51
49.458398
  0
ARC
  5
25F
100
AcDbEntity
  8
2
370
    50
100
AcDbCircle
 10
-276.574251
 20
-189.675414
 30
0.0
 40
1.0
100
AcDbArc
 50
310.541602
 51
360.0
  0
ARC
  5
260
100
AcDbEntity
  8
2
370
    50
100
AcDbCircle
 10
-276.574251
 20
-186.195283
 30
0.0
 40
1.0
100
AcDbArc
 50
0.0
 51
49.458398
  0
ARC
  5
261
100
AcDbEntity
  8
2
370
    50
100
AcDbCircle
 10
-276.574251
 20
-182.175414
 30
0.0
 40
1.0
100
AcDbArc
 50
310.541602
 51
360.0
  0
ARC
  5
262
100
AcDbEntity
  8
2
370
    50
100
AcDbCircle
 10
-276.574251
 20
-178.695283
 30
0.0
 40
1.0
100
AcDbArc
 50
0.0
 51
49.458398
  0
ARC
  5
263
100
AcDbEntity
  8
2
370
    50
100
AcDbCircle
 10
-276.574251
 20
-174.675414
 30
0.0
 40
1.0
100
AcDbArc
 50
310.541602
 51
360.0
  0
ARC
  5
264
100
AcDbEntity
  8
2
370
    50
100
AcDbCircle
 10
-289.074251
 20
-193.695283
 30
0.0
 40
1.0
100
AcDbArc
 50
130.541602
 51
180.0
  0
ARC
  5
265
100
AcDbEntity
  8
2
370
    50
100
AcDbCircle
 10
-289.074251
 20
-189.675414
 30
0.0
 40
1.0
100
AcDbArc
 50
180.0
 51
229.458398
  0
ARC
  5
266
100
AcDbEntity
  8
2
370
    50
100
AcDbCircle
 10
-289.074251
 20
-186.195283
 30
0.0
 40
1.0
100
AcDbArc
 50
130.541602
 51
180.0
  0
ARC
  5
267
100
AcDbEntity
  8
2
370
    50
100
AcDbCircle
 10
-289.074251
 20
-182.175414
 30
0.0
 40
1.0
100
AcDbArc
 50
180.0
 51
229.458398
  0
ARC
  5
268
100
AcDbEntity
  8
2
370
    50
100
AcDbCircle
 10
-289.074251
 20
-178.695283
 30
0.0
 40
1.0
100
AcDbArc
 50
130.541602
 51
180.0
  0
ARC
  5
269
100
AcDbEntity
  8
2
370
    50
100
AcDbCircle
 10
-289.074251
 20
-174.675414
 30
0.0
 40
1.0
100
AcDbArc
 50
180.0
 51
229.458398
  0
ARC
  5
26A
100
AcDbEntity
  8
2
370
    50
100
AcDbCircle
 10
-276.574251
 20
-196.435349
 30
0.0
 40
1.0
100
AcDbArc
 50
270.0
 51
360.0
  0
ARC
  5
26B
100
AcDbEntity
  8
2
370
    50
100
AcDbCircle
 10
-289.074251
 20
-196.435349
 30
0.0
 40
1.0
100
AcDbArc
 50
180.0
 51
270.0
  0
LINE
  5
26C
100
AcDbEntity
  8
2
370
    50
100
AcDbLine
 10
-289.074251
 20
-197.435349
 30
0.0
 11
-276.574251
 21
-197.435349
 31
0.0
  0
ARC
  5
26D
100
AcDbEntity
  8
2
370
    50
100
AcDbCircle
 10
-286.274124
 20
-132.914705
 30
0.0
 40
5.750212
100
AcDbArc
 50
233.130102
 51
306.869898
  0
ARC
  5
26E
100
AcDbEntity
  8
2
370
    50
100
AcDbCircle
 10
-279.37387
 20
-142.115044
 30
0.0
 40
5.750212
100
AcDbArc
 50
53.130102
 51
126.869898
  0
ARC
  5
26F
100
AcDbEntity
  8
2
370
    50
100
AcDbCircle
 10
-286.274124
 20
-142.115044
 30
0.0
 40
5.750212
100
AcDbArc
 50
53.130102
 51
126.869898
  0
LINE
  5
270
100
AcDbEntity
  8
2
370
    50
100
AcDbLine
 10
-292.824251
 20
-210.435657
 30
0.0
 11
-272.824251
 21
-210.435657
 31
0.0
  0
LINE
  5
271
100
AcDbEntity
  8
2
370
    50
100
AcDbLine
 10
-272.824251
 20
-198.435657
 30
0.0
 11
-282.823997
 21
-198.435657
 31
0.0
  0
LINE
  5
272
100
AcDbEntity
  8
2
370
    50
100
AcDbLine
 10
-282.823997
 20
-198.435657
 30
0.0
 11
-292.824251
 21
-198.435657
 31
0.0
  0
POINT
  5
273
100
AcDbEntity
  8
2
370
    50
100
AcDbPoint
 10
-282.823997
 20
-198.435657
 30
0.0
  0
LINE
  5
274
100
AcDbEntity
  8
2
370
    50
100
AcDbLine
 10
-271.824251
 20
-199.013007
 30
0.0
 11
-271.824251
 21
-209.858306
 31
0.0
  0
LINE
  5
275
100
AcDbEntity
  8
2
370
    50
100
AcDbLine
 10
-272.824251
 20
-198.435657
 30
0.0
 11
-271.824251
 21
-199.013007
 31
0.0
  0
LINE
  5
276
100
AcDbEntity
  8
2
370
    50
100
AcDbLine
 10
-272.824251
 20
-210.435657
 30
0.0
 11
-271.824251
 21
-209.858306
 31
0.0
  0
LINE
  5
277
100
AcDbEntity
  8
2
370
    50
100
AcDbLine
 10
-276.455285
 20
-199.013007
 30
0.0
 11
-276.455285
 21
-209.858306
 31
0.0
  0
LINE
  5
278
100
AcDbEntity
  8
2
370
    50
100
AcDbLine
 10
-278.241675
 20
-199.013007
 30
0.0
 11
-278.241675
 21
-209.858306
 31
0.0
  0
LINE
  5
279
100
AcDbEntity
  8
2
370
    50
100
AcDbLine
 10
-276.455285
 20
-199.013007
 30
0.0
 11
-278.241675
 21
-199.013007
 31
0.0
  0
ARC
  5
27A
100
AcDbEntity
  8
2
370
    50
100
AcDbCircle
 10
-282.823997
 20
-216.90885
 30
0.0
 40
18.473194
100
AcDbArc
 50
75.637701
 51
90.000787
  0
ARC
  5
27B
100
AcDbEntity
  8
2
370
    50
100
AcDbCircle
 10
-274.139768
 20
-203.36763
 30
0.0
 40
4.931973
100
AcDbArc
 50
61.998739
 51
118.001261
  0
ARC
  5
27C
100
AcDbEntity
  8
2
370
    50
100
AcDbCircle
 10
-274.139768
 20
-205.503684
 30
0.0
 40
4.931973
100
AcDbArc
 50
241.998739
 51
298.001261
  0
ARC
  5
27D
100
AcDbEntity
  8
2
370
    50
100
AcDbCircle
 10
-282.823997
 20
-191.962463
 30
0.0
 40
18.473194
100
AcDbArc
 50
269.999213
 51
284.362299
  0
LINE
  5
27E
100
AcDbEntity
  8
2
370
    50
100
AcDbLine
 10
-276.455285
 20
-209.858306
 30
0.0
 11
-278.241675
 21
-209.858306
 31
0.0
  0
LINE
  5
27F
100
AcDbEntity
  8
2
370
    50
100
AcDbLine
 10
-287.406826
 20
-199.013007
 30
0.0
 11
-287.406826
 21
-209.858306
 31
0.0
  0
LINE
  5
280
100
AcDbEntity
  8
2
370
    50
100
AcDbLine
 10
-289.193217
 20
-199.013007
 30
0.0
 11
-289.193217
 21
-209.858306
 31
0.0
  0
LINE
  5
281
100
AcDbEntity
  8
2
370
    50
100
AcDbLine
 10
-289.193217
 20
-199.013007
 30
0.0
 11
-287.406826
 21
-199.013007
 31
0.0
  0
ARC
  5
282
100
AcDbEntity
  8
2
370
    50
100
AcDbCircle
 10
-282.824505
 20
-216.90885
 30
0.0
 40
18.473194
100
AcDbArc
 50
89.999213
 51
104.362299
  0
ARC
  5
283
100
AcDbEntity
  8
2
370
    50
100
AcDbCircle
 10
-291.508734
 20
-203.36763
 30
0.0
 40
4.931973
100
AcDbArc
 50
61.998739
 51
118.001261
  0
LINE
  5
284
100
AcDbEntity
  8
2
370
    50
100
AcDbLine
 10
-289.193217
 20
-209.858306
 30
0.0
 11
-287.406826
 21
-209.858306
 31
0.0
  0
ARC
  5
285
100
AcDbEntity
  8
2
370
    50
100
AcDbCircle
 10
-282.824505
 20
-191.962463
 30
0.0
 40
18.473194
100
AcDbArc
 50
255.637701
 51
270.000787
  0
ARC
  5
286
100
AcDbEntity
  8
2
370
    50
100
AcDbCircle
 10
-291.508734
 20
-205.503684
 30
0.0
 40
4.931973
100
AcDbArc
 50
241.998739
 51
298.001261
  0
LINE
  5
287
100
AcDbEntity
  8
2
370
    50
100
AcDbLine
 10
-292.824251
 20
-210.435657
 30
0.0
 11
-293.824251
 21
-209.858306
 31
0.0
  0
LINE
  5
288
100
AcDbEntity
  8
2
370
    50
100
AcDbLine
 10
-292.824251
 20
-198.435657
 30
0.0
 11
-293.824251
 21
-199.013007
 31
0.0
  0
LINE
  5
289
100
AcDbEntity
  8
2
370
    50
100
AcDbLine
 10
-293.824251
 20
-199.013007
 30
0.0
 11
-293.824251
 21
-209.858306
 31
0.0
  0
POINT
  5
28A
100
AcDbEntity
  8
2
370
    50
100
AcDbPoint
 10
-197.448311
 20
-218.435465
 30
0.0
  0
LINE
  5
28B
100
AcDbEntity
  8
2
370
    50
100
AcDbLine
 10
104.79244
 20
-75.550976
 30
0.0
 11
115.771976
 21
-75.550976
 31
0.0
  0
LINE
  5
28C
100
AcDbEntity
  8
2
370
    50
100
AcDbLine
 10
88.79244
 20
-75.550976
 30
0.0
 11
93.751513
 21
-75.550976
 31
0.0
  0
LINE
  5
28D
100
AcDbEntity
  8
2
370
    50
100
AcDbLine
 10
89.271976
 20
-77.350976
 30
0.0
 11
93.271976
 21
-77.350976
 31
0.0
  0
LINE
  5
28E
100
AcDbEntity
  8
2
370
    50
100
AcDbLine
 10
105.271976
 20
-77.350976
 30
0.0
 11
115.771976
 21
-77.350976
 31
0.0
  0
LINE
  5
28F
100
AcDbEntity
  8
2
370
    50
100
AcDbLine
 10
87.571976
 20
-81.350976
 30
0.0
 11
127.571976
 21
-81.350976
 31
0.0
  0
LINE
  5
290
100
AcDbEntity
  8
2
370
    50
100
AcDbLine
 10
93.071976
 20
-75.539161
 30
0.0
 11
105.471976
 21
-75.539161
 31
0.0
  0
LINE
  5
291
100
AcDbEntity
  8
2
370
    50
100
AcDbLine
 10
104.771976
 20
-75.539161
 30
0.0
 11
99.271976
 21
-75.539161
 31
0.0
  0
LINE
  5
292
100
AcDbEntity
  8
2
370
    50
100
AcDbLine
 10
94.271976
 20
-75.539161
 30
0.0
 11
93.771976
 21
-75.539161
 31
0.0
  0
LINE
  5
293
100
AcDbEntity
  8
2
370
    50
100
AcDbLine
 10
92.321976
 20
-83.439161
 30
0.0
 11
106.221976
 21
-83.439161
 31
0.0
  0
LINE
  5
294
100
AcDbEntity
  8
2
370
    50
100
AcDbLine
 10
92.321976
 20
-112.439161
 30
0.0
 11
99.271976
 21
-112.439161
 31
0.0
  0
LINE
  5
295
100
AcDbEntity
  8
2
370
    50
100
AcDbLine
 10
92.321976
 20
-106.939161
 30
0.0
 11
99.271976
 21
-106.939161
 31
0.0
  0
LINE
  5
296
100
AcDbEntity
  8
2
370
    50
100
AcDbLine
 10
92.321976
 20
-104.939161
 30
0.0
 11
99.271976
 21
-104.939161
 31
0.0
  0
LINE
  5
297
100
AcDbEntity
  8
2
370
    50
100
AcDbLine
 10
92.321976
 20
-99.939161
 30
0.0
 11
99.271976
 21
-99.939161
 31
0.0
  0
LINE
  5
298
100
AcDbEntity
  8
2
370
    50
100
AcDbLine
 10
92.321976
 20
-97.939161
 30
0.0
 11
99.271976
 21
-97.939161
 31
0.0
  0
LINE
  5
299
100
AcDbEntity
  8
2
370
    50
100
AcDbLine
 10
92.321976
 20
-92.939161
 30
0.0
 11
99.271976
 21
-92.939161
 31
0.0
  0
LINE
  5
29A
100
AcDbEntity
  8
2
370
    50
100
AcDbLine
 10
92.321976
 20
-90.939161
 30
0.0
 11
99.271976
 21
-90.939161
 31
0.0
  0
LINE
  5
29B
100
AcDbEntity
  8
2
370
    50
100
AcDbLine
 10
91.921976
 20
-111.639161
 30
0.0
 11
91.921976
 21
-107.739161
 31
0.0
  0
LINE
  5
29C
100
AcDbEntity
  8
2
370
    50
100
AcDbLine
 10
91.921976
 20
-104.139161
 30
0.0
 11
91.921976
 21
-100.739161
 31
0.0
  0
LINE
  5
29D
100
AcDbEntity
  8
2
370
    50
100
AcDbLine
 10
91.921976
 20
-97.139161
 30
0.0
 11
91.921976
 21
-93.739161
 31
0.0
  0
LINE
  5
29E
100
AcDbEntity
  8
2
370
    50
100
AcDbLine
 10
91.921976
 20
-90.139161
 30
0.0
 11
91.921976
 21
-84.239161
 31
0.0
  0
LINE
  5
29F
100
AcDbEntity
  8
2
370
    50
100
AcDbLine
 10
92.321976
 20
-92.939161
 30
0.0
 11
92.321976
 21
-90.939161
 31
0.0
  0
LINE
  5
2A0
100
AcDbEntity
  8
2
370
    50
100
AcDbLine
 10
92.321976
 20
-106.939161
 30
0.0
 11
92.321976
 21
-104.939161
 31
0.0
  0
LINE
  5
2A1
100
AcDbEntity
  8
2
370
    50
100
AcDbLine
 10
92.321976
 20
-99.939161
 30
0.0
 11
92.321976
 21
-97.939161
 31
0.0
  0
ARC
  5
2A2
100
AcDbEntity
  8
2
370
    50
100
AcDbCircle
 10
92.921976
 20
-90.139161
 30
0.0
 40
1.0
100
AcDbArc
 50
180.0
 51
233.130102
  0
ARC
  5
2A3
100
AcDbEntity
  8
2
370
    50
100
AcDbCircle
 10
92.921976
 20
-93.739161
 30
0.0
 40
1.0
100
AcDbArc
 50
126.869898
 51
180.0
  0
ARC
  5
2A4
100
AcDbEntity
  8
2
370
    50
100
AcDbCircle
 10
92.921976
 20
-97.139161
 30
0.0
 40
1.0
100
AcDbArc
 50
180.0
 51
233.130102
  0
ARC
  5
2A5
100
AcDbEntity
  8
2
370
    50
100
AcDbCircle
 10
92.921976
 20
-100.739161
 30
0.0
 40
1.0
100
AcDbArc
 50
126.869898
 51
180.0
  0
ARC
  5
2A6
100
AcDbEntity
  8
2
370
    50
100
AcDbCircle
 10
92.921976
 20
-104.139161
 30
0.0
 40
1.0
100
AcDbArc
 50
180.0
 51
233.130102
  0
ARC
  5
2A7
100
AcDbEntity
  8
2
370
    50
100
AcDbCircle
 10
92.921976
 20
-107.739161
 30
0.0
 40
1.0
100
AcDbArc
 50
126.869898
 51
180.0
  0
ARC
  5
2A8
100
AcDbEntity
  8
2
370
    50
100
AcDbCircle
 10
92.921976
 20
-111.639161
 30
0.0
 40
1.0
100
AcDbArc
 50
180.0
 51
233.130102
  0
ARC
  5
2A9
100
AcDbEntity
  8
2
370
    50
100
AcDbCircle
 10
92.921976
 20
-84.239161
 30
0.0
 40
1.0
100
AcDbArc
 50
126.869898
 51
180.0
  0
LINE
  5
2AA
100
AcDbEntity
  8
2
370
    50
100
AcDbLine
 10
106.221976
 20
-112.439161
 30
0.0
 11
99.271976
 21
-112.439161
 31
0.0
  0
ARC
  5
2AB
100
AcDbEntity
  8
2
370
    50
100
AcDbCircle
 10
105.621976
 20
-111.639161
 30
0.0
 40
1.0
100
AcDbArc
 50
306.869898
 51
360.0
  0
LINE
  5
2AC
100
AcDbEntity
  8
2
370
    50
100
AcDbLine
 10
106.621976
 20
-111.639161
 30
0.0
 11
106.621976
 21
-107.739161
 31
0.0
  0
ARC
  5
2AD
100
AcDbEntity
  8
2
370
    50
100
AcDbCircle
 10
105.621976
 20
-107.739161
 30
0.0
 40
1.0
100
AcDbArc
 50
360.0
 51
53.130102
  0
LINE
  5
2AE
100
AcDbEntity
  8
2
370
    50
100
AcDbLine
 10
106.221976
 20
-106.939161
 30
0.0
 11
106.221976
 21
-104.939161
 31
0.0
  0
LINE
  5
2AF
100
AcDbEntity
  8
2
370
    50
100
AcDbLine
 10
106.221976
 20
-106.939161
 30
0.0
 11
99.271976
 21
-106.939161
 31
0.0
  0
LINE
  5
2B0
100
AcDbEntity
  8
2
370
    50
100
AcDbLine
 10
106.221976
 20
-104.939161
 30
0.0
 11
99.271976
 21
-104.939161
 31
0.0
  0
ARC
  5
2B1
100
AcDbEntity
  8
2
370
    50
100
AcDbCircle
 10
105.621976
 20
-104.139161
 30
0.0
 40
1.0
100
AcDbArc
 50
306.869898
 51
360.0
  0
LINE
  5
2B2
100
AcDbEntity
  8
2
370
    50
100
AcDbLine
 10
106.621976
 20
-104.139161
 30
0.0
 11
106.621976
 21
-100.739161
 31
0.0
  0
ARC
  5
2B3
100
AcDbEntity
  8
2
370
    50
100
AcDbCircle
 10
105.621976
 20
-100.739161
 30
0.0
 40
1.0
100
AcDbArc
 50
360.0
 51
53.130102
  0
LINE
  5
2B4
100
AcDbEntity
  8
2
370
    50
100
AcDbLine
 10
106.221976
 20
-99.939161
 30
0.0
 11
99.271976
 21
-99.939161
 31
0.0
  0
LINE
  5
2B5
100
AcDbEntity
  8
2
370
    50
100
AcDbLine
 10
106.221976
 20
-99.939161
 30
0.0
 11
106.221976
 21
-97.939161
 31
0.0
  0
LINE
  5
2B6
100
AcDbEntity
  8
2
370
    50
100
AcDbLine
 10
106.221976
 20
-97.939161
 30
0.0
 11
99.271976
 21
-97.939161
 31
0.0
  0
ARC
  5
2B7
100
AcDbEntity
  8
2
370
    50
100
AcDbCircle
 10
105.621976
 20
-97.139161
 30
0.0
 40
1.0
100
AcDbArc
 50
306.869898
 51
360.0
  0
ARC
  5
2B8
100
AcDbEntity
  8
2
370
    50
100
AcDbCircle
 10
105.621976
 20
-97.139161
 30
0.0
 40
1.0
100
AcDbArc
 50
306.869898
 51
360.0
  0
LINE
  5
2B9
100
AcDbEntity
  8
2
370
    50
100
AcDbLine
 10
106.621976
 20
-97.139161
 30
0.0
 11
106.621976
 21
-93.739161
 31
0.0
  0
ARC
  5
2BA
100
AcDbEntity
  8
2
370
    50
100
AcDbCircle
 10
105.621976
 20
-93.739161
 30
0.0
 40
1.0
100
AcDbArc
 50
360.0
 51
53.130102
  0
LINE
  5
2BB
100
AcDbEntity
  8
2
370
    50
100
AcDbLine
 10
106.221976
 20
-92.939161
 30
0.0
 11
99.271976
 21
-92.939161
 31
0.0
  0
LINE
  5
2BC
100
AcDbEntity
  8
2
370
    50
100
AcDbLine
 10
106.221976
 20
-92.939161
 30
0.0
 11
106.221976
 21
-90.939161
 31
0.0
  0
LINE
  5
2BD
100
AcDbEntity
  8
2
370
    50
100
AcDbLine
 10
106.221976
 20
-90.939161
 30
0.0
 11
99.271976
 21
-90.939161
 31
0.0
  0
ARC
  5
2BE
100
AcDbEntity
  8
2
370
    50
100
AcDbCircle
 10
105.621976
 20
-90.139161
 30
0.0
 40
1.0
100
AcDbArc
 50
306.869898
 51
360.0
  0
LINE
  5
2BF
100
AcDbEntity
  8
2
370
    50
100
AcDbLine
 10
106.621976
 20
-90.139161
 30
0.0
 11
106.621976
 21
-84.239161
 31
0.0
  0
ARC
  5
2C0
100
AcDbEntity
  8
2
370
    50
100
AcDbCircle
 10
105.621976
 20
-84.239161
 30
0.0
 40
1.0
100
AcDbArc
 50
360.0
 51
53.130102
  0
LINE
  5
2C1
100
AcDbEntity
  8
2
370
    50
100
AcDbLine
 10
92.421976
 20
-143.578735
 30
0.0
 11
92.421976
 21
-112.439161
 31
0.0
  0
LINE
  5
2C2
100
AcDbEntity
  8
2
370
    50
100
AcDbLine
 10
106.121976
 20
-143.642105
 30
0.0
 11
106.121976
 21
-112.439161
 31
0.0
  0
ARC
  5
2C3
100
AcDbEntity
  8
2
370
    50
100
AcDbCircle
 10
95.846976
 20
-139.048064
 30
0.0
 40
5.708333
100
AcDbArc
 50
233.130102
 51
306.869898
  0
ARC
  5
2C4
100
AcDbEntity
  8
2
370
    50
100
AcDbCircle
 10
102.696976
 20
-148.181398
 30
0.0
 40
5.708333
100
AcDbArc
 50
53.130102
 51
126.869898
  0
ARC
  5
2C5
100
AcDbEntity
  8
2
370
    50
100
AcDbCircle
 10
102.696976
 20
-139.048064
 30
0.0
 40
5.708333
100
AcDbArc
 50
233.130102
 51
306.869898
  0
HATCH
  5
2C6
100
AcDbEntity
  8
2
370
    25
100
AcDbHatch
 10
0.0
 20
0.0
 30
0.0
210
0.0
220
0.0
230
1.0
  2
_U
 70
     0
 71
     1
 91
        1
 92
        1
 93
        4
 72
     1
 10
127.57197600000001
 20
-75.550976000000006
 11
127.57197600000001
 21
-77.350976000000003
 72
     1
 10
127.57197600000001
 20
-77.350976000000003
 11
87.571976000000006
 21
-77.350976000000003
 72
     1
 10
87.571976000000006
 20
-77.350976000000003
 11
87.571976000000006
 21
-75.550976000000006
 72
     1
 10
87.571976000000006
 20
-75.550976000000006
 11
127.57197600000001
 21
-75.550976000000006
 97
        4
330
0
330
0
330
0
330
0
 75
     0
 76
     0
 52
45.0
 41
1.0
 77
     0
 78
     1
 53
45.0
 43
0.0
 44
0.0
 45
-1.4142140000000001
 46
1.4142140000000001
 79
     0
 98
        1
 10
0.0
 20
0.0
  0
LINE
  5
2C7
100
AcDbEntity
  8
2
370
    50
100
AcDbLine
 10
93.271976
 20
-83.150486
 30
0.0
 11
93.271976
 21
-81.350976
 31
0.0
  0
LINE
  5
2C8
100
AcDbEntity
  8
2
370
    50
100
AcDbLine
 10
105.271976
 20
-83.150486
 30
0.0
 11
105.271976
 21
-81.350976
 31
0.0
  0
LINE
  5
2C9
100
AcDbEntity
  8
2
370
    50
100
AcDbLine
 10
101.669892
 20
-81.350976
 30
0.0
 11
101.669892
 21
-83.150486
 31
0.0
  0
LINE
  5
2CA
100
AcDbEntity
  8
2
370
    50
100
AcDbLine
 10
102.836158
 20
-81.350976
 30
0.0
 11
102.836158
 21
-83.150486
 31
0.0
  0
LINE
  5
2CB
100
AcDbEntity
  8
2
370
    50
100
AcDbLine
 10
105.234074
 20
-81.350976
 30
0.0
 11
105.234074
 21
-83.150486
 31
0.0
  0
LINE
  5
2CC
100
AcDbEntity
  8
2
370
    50
100
AcDbLine
 10
104.771976
 20
-83.439161
 30
0.0
 11
105.271976
 21
-83.150486
 31
0.0
  0
LINE
  5
2CD
100
AcDbEntity
  8
2
370
    50
100
AcDbLine
 10
102.836158
 20
-83.150486
 30
0.0
 11
101.669892
 21
-83.150486
 31
0.0
  0
LINE
  5
2CE
100
AcDbEntity
  8
2
370
    50
100
AcDbLine
 10
93.271976
 20
-83.150486
 30
0.0
 11
93.771976
 21
-83.439161
 31
0.0
  0
ARC
  5
2CF
100
AcDbEntity
  8
2
370
    50
100
AcDbCircle
 10
99.271976
 20
-73.335532
 30
0.0
 40
10.10363
100
AcDbArc
 50
270.0
 51
283.729133
  0
LINE
  5
2D0
100
AcDbEntity
  8
2
370
    50
100
AcDbLine
 10
105.271976
 20
-83.150486
 30
0.0
 11
105.234074
 21
-83.150486
 31
0.0
  0
ARC
  5
2D1
100
AcDbEntity
  8
2
370
    50
100
AcDbCircle
 10
104.035116
 20
-80.805001
 30
0.0
 40
2.634161
100
AcDbArc
 50
242.924933
 51
297.075067
  0
ARC
  5
2D2
100
AcDbEntity
  8
2
370
    50
100
AcDbCircle
 10
99.271976
 20
-73.335532
 30
0.0
 40
10.10363
100
AcDbArc
 50
256.270867
 51
270.0
  0
LINE
  5
2D3
100
AcDbEntity
  8
2
370
    50
100
AcDbLine
 10
95.707795
 20
-83.150486
 30
0.0
 11
96.874061
 21
-83.150486
 31
0.0
  0
LINE
  5
2D4
100
AcDbEntity
  8
2
370
    50
100
AcDbLine
 10
96.874061
 20
-81.350976
 30
0.0
 11
96.874061
 21
-83.150486
 31
0.0
  0
LINE
  5
2D5
100
AcDbEntity
  8
2
370
    50
100
AcDbLine
 10
95.707794
 20
-81.350976
 30
0.0
 11
95.707795
 21
-83.150486
 31
0.0
  0
ARC
  5
2D6
100
AcDbEntity
  8
2
370
    50
100
AcDbCircle
 10
94.508837
 20
-80.805001
 30
0.0
 40
2.634161
100
AcDbArc
 50
242.924933
 51
297.075067
  0
LINE
  5
2D7
100
AcDbEntity
  8
2
370
    50
100
AcDbLine
 10
93.309879
 20
-81.350976
 30
0.0
 11
93.309879
 21
-83.150486
 31
0.0
  0
LINE
  5
2D8
100
AcDbEntity
  8
2
370
    50
100
AcDbLine
 10
93.309879
 20
-83.150486
 30
0.0
 11
93.271976
 21
-83.150486
 31
0.0
  0
HATCH
  5
2D9
100
AcDbEntity
  8
2
370
    25
100
AcDbHatch
 10
0.0
 20
0.0
 30
0.0
210
0.0
220
0.0
230
1.0
  2
_U
 70
     0
 71
     1
 91
        1
 92
        1
 93
        5
 72
     1
 10
-254.636154
 20
-75.550976000000006
 11
-264.63615399999998
 21
-75.550976000000006
 72
     1
 10
-264.63615399999998
 20
-75.550976000000006
 11
-264.63615399999998
 21
-77.350976000000003
 72
     1
 10
-264.63615399999998
 20
-77.350976000000003
 11
-254.524339
 21
-77.350976000000003
 72
     1
 10
-254.524339
 20
-77.350976000000003
 11
-254.636154
 21
-77.239160999999996
 72
     1
 10
-254.636154
 20
-77.239160999999996
 11
-254.636154
 21
-75.550976000000006
 97
        5
330
0
330
0
330
0
330
0
330
0
 75
     0
 76
     0
 52
45.0
 41
1.0
 77
     0
 78
     1
 53
45.0
 43
0.0
 44
0.0
 45
-1.4142140000000001
 46
1.4142140000000001
 79
     0
 98
        1
 10
0.0
 20
0.0
  0
HATCH
  5
2DA
100
AcDbEntity
  8
2
370
    25
100
AcDbHatch
 10
0.0
 20
0.0
 30
0.0
210
0.0
220
0.0
230
1.0
  2
_U
 70
     0
 71
     1
 91
        1
 92
        1
 93
        6
 72
     1
 10
-238.636154
 20
-75.550976000000006
 11
-241.636154
 21
-75.550976000000006
 72
     1
 10
-241.636154
 20
-75.550976000000006
 11
-241.636154
 21
-77.239160999999996
 72
     1
 10
-241.636154
 20
-77.239160999999996
 11
-241.74796900000001
 21
-77.350976000000003
 72
     1
 10
-241.74796900000001
 20
-77.350976000000003
 11
-238.524339
 21
-77.350976000000003
 72
     1
 10
-238.524339
 20
-77.350976000000003
 11
-238.636154
 21
-77.239160999999996
 72
     1
 10
-238.636154
 20
-77.239160999999996
 11
-238.636154
 21
-75.550976000000006
 97
        6
330
0
330
0
330
0
330
0
330
0
330
0
 75
     0
 76
     0
 52
45.0
 41
1.0
 77
     0
 78
     1
 53
45.0
 43
0.0
 44
0.0
 45
-1.4142140000000001
 46
1.4142140000000001
 79
     0
 98
        1
 10
0.0
 20
0.0
  0
POINT
  5
2DB
100
AcDbEntity
  8
2
370
    50
100
AcDbPoint
 10
-232.136154
 20
-77.539161
 30
0.0
  0
LINE
  5
2DC
100
AcDbEntity
  8
2
370
    50
100
AcDbLine
 10
-237.136154
 20
-61.539161
 30
0.0
 11
-237.136154
 21
-62.039161
 31
0.0
  0
LINE
  5
2DD
100
AcDbEntity
  8
2
370
    50
100
AcDbLine
 10
-227.136154
 20
-61.539161
 30
0.0
 11
-227.136154
 21
-62.039161
 31
0.0
  0
LINE
  5
2DE
100
AcDbEntity
  8
2
370
    50
100
AcDbLine
 10
-232.136154
 20
-62.039161
 30
0.0
 11
-226.386154
 21
-62.039161
 31
0.0
  0
LINE
  5
2DF
100
AcDbEntity
  8
2
370
    50
100
AcDbLine
 10
-232.136154
 20
-77.539161
 30
0.0
 11
-226.386154
 21
-77.539161
 31
0.0
  0
LINE
  5
2E0
100
AcDbEntity
  8
2
370
    50
100
AcDbLine
 10
-225.886154
 20
-62.539161
 30
0.0
 11
-225.886154
 21
-77.039161
 31
0.0
  0
LINE
  5
2E1
100
AcDbEntity
  8
2
370
    50
100
AcDbLine
 10
-225.886154
 20
-62.539161
 30
0.0
 11
-226.386154
 21
-62.039161
 31
0.0
  0
LINE
  5
2E2
100
AcDbEntity
  8
2
370
    50
100
AcDbLine
 10
-225.886154
 20
-77.039161
 30
0.0
 11
-226.386154
 21
-77.539161
 31
0.0
  0
LINE
  5
2E3
100
AcDbEntity
  8
2
370
    50
100
AcDbLine
 10
-227.815002
 20
-77.039161
 30
0.0
 11
-230.386154
 21
-77.039161
 31
0.0
  0
LINE
  5
2E4
100
AcDbEntity
  8
2
370
    50
100
AcDbLine
 10
-227.815002
 20
-62.539161
 30
0.0
 11
-230.386154
 21
-62.539161
 31
0.0
  0
LINE
  5
2E5
100
AcDbEntity
  8
2
370
    50
100
AcDbLine
 10
-226.065002
 20
-62.539161
 30
0.0
 11
-226.065002
 21
-77.039161
 31
0.0
  0
LINE
  5
2E6
100
AcDbEntity
  8
2
370
    50
100
AcDbLine
 10
-227.815002
 20
-62.539161
 30
0.0
 11
-227.815002
 21
-77.039161
 31
0.0
  0
LINE
  5
2E7
100
AcDbEntity
  8
2
370
    50
100
AcDbLine
 10
-230.386154
 20
-62.539161
 30
0.0
 11
-230.386154
 21
-77.039161
 31
0.0
  0
LINE
  5
2E8
100
AcDbEntity
  8
2
370
    50
100
AcDbLine
 10
-225.886154
 20
-77.039161
 30
0.0
 11
-226.065002
 21
-77.039161
 31
0.0
  0
LINE
  5
2E9
100
AcDbEntity
  8
2
370
    50
100
AcDbLine
 10
-225.886154
 20
-62.539161
 30
0.0
 11
-226.065002
 21
-62.539161
 31
0.0
  0
ARC
  5
2EA
100
AcDbEntity
  8
2
370
    50
100
AcDbCircle
 10
-232.136154
 20
-68.539161
 30
0.0
 40
6.25
100
AcDbArc
 50
73.739795
 51
90.0
  0
ARC
  5
2EB
100
AcDbEntity
  8
2
370
    50
100
AcDbCircle
 10
-226.940002
 20
-63.945411
 30
0.0
 40
1.65625
100
AcDbArc
 50
58.109208
 51
121.890792
  0
ARC
  5
2EC
100
AcDbEntity
  8
2
370
    50
100
AcDbCircle
 10
-226.940002
 20
-75.632911
 30
0.0
 40
1.65625
100
AcDbArc
 50
238.109208
 51
301.890792
  0
ARC
  5
2ED
100
AcDbEntity
  8
2
370
    50
100
AcDbCircle
 10
-232.136154
 20
-71.039161
 30
0.0
 40
6.25
100
AcDbArc
 50
270.0
 51
286.260205
  0
LINE
  5
2EE
100
AcDbEntity
  8
2
370
    50
100
AcDbLine
 10
-232.136154
 20
-62.039161
 30
0.0
 11
-237.886154
 21
-62.039161
 31
0.0
  0
LINE
  5
2EF
100
AcDbEntity
  8
2
370
    50
100
AcDbLine
 10
-238.386154
 20
-62.539161
 30
0.0
 11
-238.386154
 21
-77.039161
 31
0.0
  0
LINE
  5
2F0
100
AcDbEntity
  8
2
370
    50
100
AcDbLine
 10
-238.386154
 20
-62.539161
 30
0.0
 11
-237.886154
 21
-62.039161
 31
0.0
  0
LINE
  5
2F1
100
AcDbEntity
  8
2
370
    50
100
AcDbLine
 10
-238.386154
 20
-77.039161
 30
0.0
 11
-237.886154
 21
-77.539161
 31
0.0
  0
LINE
  5
2F2
100
AcDbEntity
  8
2
370
    50
100
AcDbLine
 10
-236.457307
 20
-77.039161
 30
0.0
 11
-233.886154
 21
-77.039161
 31
0.0
  0
LINE
  5
2F3
100
AcDbEntity
  8
2
370
    50
100
AcDbLine
 10
-236.457307
 20
-62.539161
 30
0.0
 11
-233.886154
 21
-62.539161
 31
0.0
  0
LINE
  5
2F4
100
AcDbEntity
  8
2
370
    50
100
AcDbLine
 10
-238.207307
 20
-62.539161
 30
0.0
 11
-238.207307
 21
-77.039161
 31
0.0
  0
LINE
  5
2F5
100
AcDbEntity
  8
2
370
    50
100
AcDbLine
 10
-236.457307
 20
-62.539161
 30
0.0
 11
-236.457307
 21
-77.039161
 31
0.0
  0
LINE
  5
2F6
100
AcDbEntity
  8
2
370
    50
100
AcDbLine
 10
-233.886154
 20
-62.539161
 30
0.0
 11
-233.886154
 21
-77.039161
 31
0.0
  0
LINE
  5
2F7
100
AcDbEntity
  8
2
370
    50
100
AcDbLine
 10
-238.386154
 20
-77.039161
 30
0.0
 11
-238.207307
 21
-77.039161
 31
0.0
  0
LINE
  5
2F8
100
AcDbEntity
  8
2
370
    50
100
AcDbLine
 10
-238.386154
 20
-62.539161
 30
0.0
 11
-238.207307
 21
-62.539161
 31
0.0
  0
ARC
  5
2F9
100
AcDbEntity
  8
2
370
    50
100
AcDbCircle
 10
-232.136154
 20
-68.539161
 30
0.0
 40
6.25
100
AcDbArc
 50
90.0
 51
106.260205
  0
ARC
  5
2FA
100
AcDbEntity
  8
2
370
    50
100
AcDbCircle
 10
-237.332307
 20
-63.945411
 30
0.0
 40
1.65625
100
AcDbArc
 50
58.109208
 51
121.890792
  0
ARC
  5
2FB
100
AcDbEntity
  8
2
370
    50
100
AcDbCircle
 10
-237.332307
 20
-75.632911
 30
0.0
 40
1.65625
100
AcDbArc
 50
238.109208
 51
301.890792
  0
ARC
  5
2FC
100
AcDbEntity
  8
2
370
    50
100
AcDbCircle
 10
-232.136154
 20
-71.039161
 30
0.0
 40
6.25
100
AcDbArc
 50
253.739795
 51
270.0
  0
LINE
  5
2FD
100
AcDbEntity
  8
2
370
    50
100
AcDbLine
 10
-253.136154
 20
-61.539161
 30
0.0
 11
-253.136154
 21
-62.039161
 31
0.0
  0
LINE
  5
2FE
100
AcDbEntity
  8
2
370
    50
100
AcDbLine
 10
-243.136154
 20
-61.539161
 30
0.0
 11
-243.136154
 21
-62.039161
 31
0.0
  0
LINE
  5
2FF
100
AcDbEntity
  8
2
370
    50
100
AcDbLine
 10
-248.136154
 20
-62.039161
 30
0.0
 11
-242.386154
 21
-62.039161
 31
0.0
  0
LINE
  5
300
100
AcDbEntity
  8
2
370
    50
100
AcDbLine
 10
-241.886154
 20
-62.539161
 30
0.0
 11
-241.886154
 21
-77.039161
 31
0.0
  0
LINE
  5
301
100
AcDbEntity
  8
2
370
    50
100
AcDbLine
 10
-241.886154
 20
-62.539161
 30
0.0
 11
-242.386154
 21
-62.039161
 31
0.0
  0
LINE
  5
302
100
AcDbEntity
  8
2
370
    50
100
AcDbLine
 10
-241.886154
 20
-77.039161
 30
0.0
 11
-242.386154
 21
-77.539161
 31
0.0
  0
LINE
  5
303
100
AcDbEntity
  8
2
370
    50
100
AcDbLine
 10
-243.815002
 20
-77.039161
 30
0.0
 11
-246.386154
 21
-77.039161
 31
0.0
  0
LINE
  5
304
100
AcDbEntity
  8
2
370
    50
100
AcDbLine
 10
-243.815002
 20
-62.539161
 30
0.0
 11
-246.386154
 21
-62.539161
 31
0.0
  0
LINE
  5
305
100
AcDbEntity
  8
2
370
    50
100
AcDbLine
 10
-242.065002
 20
-62.539161
 30
0.0
 11
-242.065002
 21
-77.039161
 31
0.0
  0
LINE
  5
306
100
AcDbEntity
  8
2
370
    50
100
AcDbLine
 10
-243.815002
 20
-62.539161
 30
0.0
 11
-243.815002
 21
-77.039161
 31
0.0
  0
LINE
  5
307
100
AcDbEntity
  8
2
370
    50
100
AcDbLine
 10
-246.386154
 20
-62.539161
 30
0.0
 11
-246.386154
 21
-77.039161
 31
0.0
  0
LINE
  5
308
100
AcDbEntity
  8
2
370
    50
100
AcDbLine
 10
-241.886154
 20
-77.039161
 30
0.0
 11
-242.065002
 21
-77.039161
 31
0.0
  0
LINE
  5
309
100
AcDbEntity
  8
2
370
    50
100
AcDbLine
 10
-241.886154
 20
-62.539161
 30
0.0
 11
-242.065002
 21
-62.539161
 31
0.0
  0
ARC
  5
30A
100
AcDbEntity
  8
2
370
    50
100
AcDbCircle
 10
-248.136154
 20
-68.539161
 30
0.0
 40
6.25
100
AcDbArc
 50
73.739795
 51
90.0
  0
ARC
  5
30B
100
AcDbEntity
  8
2
370
    50
100
AcDbCircle
 10
-242.940002
 20
-63.945411
 30
0.0
 40
1.65625
100
AcDbArc
 50
58.109208
 51
121.890792
  0
ARC
  5
30C
100
AcDbEntity
  8
2
370
    50
100
AcDbCircle
 10
-242.940002
 20
-75.632911
 30
0.0
 40
1.65625
100
AcDbArc
 50
238.109208
 51
301.890792
  0
ARC
  5
30D
100
AcDbEntity
  8
2
370
    50
100
AcDbCircle
 10
-248.136154
 20
-71.039161
 30
0.0
 40
6.25
100
AcDbArc
 50
270.0
 51
286.260205
  0
LINE
  5
30E
100
AcDbEntity
  8
2
370
    50
100
AcDbLine
 10
-248.136154
 20
-62.039161
 30
0.0
 11
-253.886154
 21
-62.039161
 31
0.0
  0
LINE
  5
30F
100
AcDbEntity
  8
2
370
    50
100
AcDbLine
 10
-248.136154
 20
-77.539161
 30
0.0
 11
-253.886154
 21
-77.539161
 31
0.0
  0
LINE
  5
310
100
AcDbEntity
  8
2
370
    50
100
AcDbLine
 10
-254.386154
 20
-62.539161
 30
0.0
 11
-254.386154
 21
-77.039161
 31
0.0
  0
LINE
  5
311
100
AcDbEntity
  8
2
370
    50
100
AcDbLine
 10
-254.386154
 20
-62.539161
 30
0.0
 11
-253.886154
 21
-62.039161
 31
0.0
  0
LINE
  5
312
100
AcDbEntity
  8
2
370
    50
100
AcDbLine
 10
-254.386154
 20
-77.039161
 30
0.0
 11
-253.886154
 21
-77.539161
 31
0.0
  0
LINE
  5
313
100
AcDbEntity
  8
2
370
    50
100
AcDbLine
 10
-252.457307
 20
-77.039161
 30
0.0
 11
-249.886154
 21
-77.039161
 31
0.0
  0
LINE
  5
314
100
AcDbEntity
  8
2
370
    50
100
AcDbLine
 10
-252.457307
 20
-62.539161
 30
0.0
 11
-249.886154
 21
-62.539161
 31
0.0
  0
LINE
  5
315
100
AcDbEntity
  8
2
370
    50
100
AcDbLine
 10
-254.207307
 20
-62.539161
 30
0.0
 11
-254.207307
 21
-77.039161
 31
0.0
  0
LINE
  5
316
100
AcDbEntity
  8
2
370
    50
100
AcDbLine
 10
-252.457307
 20
-62.539161
 30
0.0
 11
-252.457307
 21
-77.039161
 31
0.0
  0
LINE
  5
317
100
AcDbEntity
  8
2
370
    50
100
AcDbLine
 10
-249.886154
 20
-62.539161
 30
0.0
 11
-249.886154
 21
-77.039161
 31
0.0
  0
LINE
  5
318
100
AcDbEntity
  8
2
370
    50
100
AcDbLine
 10
-254.386154
 20
-77.039161
 30
0.0
 11
-254.207307
 21
-77.039161
 31
0.0
  0
LINE
  5
319
100
AcDbEntity
  8
2
370
    50
100
AcDbLine
 10
-254.386154
 20
-62.539161
 30
0.0
 11
-254.207307
 21
-62.539161
 31
0.0
  0
ARC
  5
31A
100
AcDbEntity
  8
2
370
    50
100
AcDbCircle
 10
-248.136154
 20
-68.539161
 30
0.0
 40
6.25
100
AcDbArc
 50
90.0
 51
106.260205
  0
ARC
  5
31B
100
AcDbEntity
  8
2
370
    50
100
AcDbCircle
 10
-253.332307
 20
-63.945411
 30
0.0
 40
1.65625
100
AcDbArc
 50
58.109208
 51
121.890792
  0
ARC
  5
31C
100
AcDbEntity
  8
2
370
    50
100
AcDbCircle
 10
-253.332307
 20
-75.632911
 30
0.0
 40
1.65625
100
AcDbArc
 50
238.109208
 51
301.890792
  0
ARC
  5
31D
100
AcDbEntity
  8
2
370
    50
100
AcDbCircle
 10
-248.136154
 20
-71.039161
 30
0.0
 40
6.25
100
AcDbArc
 50
253.739795
 51
270.0
  0
LINE
  5
31E
100
AcDbEntity
  8
2
370
    50
100
AcDbLine
 10
-242.386154
 20
-77.539161
 30
0.0
 11
-252.899294
 21
-77.539161
 31
0.0
  0
LINE
  5
31F
100
AcDbEntity
  8
2
370
    50
100
AcDbLine
 10
-226.636154
 20
-77.539161
 30
0.0
 11
-237.886154
 21
-77.539161
 31
0.0
  0
POINT
  5
320
100
AcDbEntity
  8
2
370
    50
100
AcDbPoint
 10
99.271976
 20
-77.539161
 30
0.0
  0
LINE
  5
321
100
AcDbEntity
  8
2
370
    50
100
AcDbLine
 10
94.271976
 20
-61.539161
 30
0.0
 11
94.271976
 21
-62.039161
 31
0.0
  0
LINE
  5
322
100
AcDbEntity
  8
2
370
    50
100
AcDbLine
 10
104.271976
 20
-61.539161
 30
0.0
 11
104.271976
 21
-62.039161
 31
0.0
  0
LINE
  5
323
100
AcDbEntity
  8
2
370
    50
100
AcDbLine
 10
99.271976
 20
-62.039161
 30
0.0
 11
105.021976
 21
-62.039161
 31
0.0
  0
LINE
  5
324
100
AcDbEntity
  8
2
370
    50
100
AcDbLine
 10
105.521976
 20
-62.539161
 30
0.0
 11
105.521976
 21
-75.539161
 31
0.0
  0
LINE
  5
325
100
AcDbEntity
  8
2
370
    50
100
AcDbLine
 10
105.521976
 20
-62.539161
 30
0.0
 11
105.021976
 21
-62.039161
 31
0.0
  0
LINE
  5
326
100
AcDbEntity
  8
2
370
    50
100
AcDbLine
 10
103.593129
 20
-62.539161
 30
0.0
 11
101.021976
 21
-62.539161
 31
0.0
  0
LINE
  5
327
100
AcDbEntity
  8
2
370
    50
100
AcDbLine
 10
105.343129
 20
-62.539161
 30
0.0
 11
105.343129
 21
-75.539161
 31
0.0
  0
LINE
  5
328
100
AcDbEntity
  8
2
370
    50
100
AcDbLine
 10
103.593129
 20
-62.539161
 30
0.0
 11
103.593129
 21
-75.539161
 31
0.0
  0
LINE
  5
329
100
AcDbEntity
  8
2
370
    50
100
AcDbLine
 10
101.021976
 20
-62.539161
 30
0.0
 11
101.021976
 21
-75.539161
 31
0.0
  0
LINE
  5
32A
100
AcDbEntity
  8
2
370
    50
100
AcDbLine
 10
105.521976
 20
-62.539161
 30
0.0
 11
105.343129
 21
-62.539161
 31
0.0
  0
ARC
  5
32B
100
AcDbEntity
  8
2
370
    50
100
AcDbCircle
 10
99.271976
 20
-68.539161
 30
0.0
 40
6.25
100
AcDbArc
 50
73.739795
 51
90.0
  0
ARC
  5
32C
100
AcDbEntity
  8
2
370
    50
100
AcDbCircle
 10
104.468129
 20
-63.945411
 30
0.0
 40
1.65625
100
AcDbArc
 50
58.109208
 51
121.890792
  0
LINE
  5
32D
100
AcDbEntity
  8
2
370
    50
100
AcDbLine
 10
99.271976
 20
-62.039161
 30
0.0
 11
93.521976
 21
-62.039161
 31
0.0
  0
LINE
  5
32E
100
AcDbEntity
  8
2
370
    50
100
AcDbLine
 10
93.021976
 20
-62.539161
 30
0.0
 11
93.021976
 21
-75.539161
 31
0.0
  0
LINE
  5
32F
100
AcDbEntity
  8
2
370
    50
100
AcDbLine
 10
93.021976
 20
-62.539161
 30
0.0
 11
93.521976
 21
-62.039161
 31
0.0
  0
LINE
  5
330
100
AcDbEntity
  8
2
370
    50
100
AcDbLine
 10
94.950824
 20
-62.539161
 30
0.0
 11
97.521976
 21
-62.539161
 31
0.0
  0
LINE
  5
331
100
AcDbEntity
  8
2
370
    50
100
AcDbLine
 10
93.200824
 20
-62.539161
 30
0.0
 11
93.200824
 21
-75.539161
 31
0.0
  0
LINE
  5
332
100
AcDbEntity
  8
2
370
    50
100
AcDbLine
 10
94.950824
 20
-62.539161
 30
0.0
 11
94.950824
 21
-75.539161
 31
0.0
  0
LINE
  5
333
100
AcDbEntity
  8
2
370
    50
100
AcDbLine
 10
97.521976
 20
-62.539161
 30
0.0
 11
97.521976
 21
-75.539161
 31
0.0
  0
LINE
  5
334
100
AcDbEntity
  8
2
370
    50
100
AcDbLine
 10
93.021976
 20
-62.539161
 30
0.0
 11
93.200824
 21
-62.539161
 31
0.0
  0
ARC
  5
335
100
AcDbEntity
  8
2
370
    50
100
AcDbCircle
 10
99.271976
 20
-68.539161
 30
0.0
 40
6.25
100
AcDbArc
 50
90.0
 51
106.260205
  0
ARC
  5
336
100
AcDbEntity
  8
2
370
    50
100
AcDbCircle
 10
94.075824
 20
-63.945411
 30
0.0
 40
1.65625
100
AcDbArc
 50
58.109208
 51
121.890792
  0
LINE
  5
337
100
AcDbEntity
  8
2
370
    50
100
AcDbLine
 10
-282.823997
 20
-225.435657
 30
0.0
 11
-270.823997
 21
-225.435657
 31
0.0
  0
LINE
  5
338
100
AcDbEntity
  8
2
370
    50
100
AcDbLine
 10
-282.823997
 20
-214.435657
 30
0.0
 11
-270.823997
 21
-214.435657
 31
0.0
  0
LINE
  5
339
100
AcDbEntity
  8
2
370
    50
100
AcDbLine
 10
-270.823997
 20
-214.435657
 30
0.0
 11
-269.823997
 21
-215.435657
 31
0.0
  0
LINE
  5
33A
100
AcDbEntity
  8
2
370
    50
100
AcDbLine
 10
-274.931692
 20
-215.435657
 30
0.0
 11
-277.823997
 21
-215.435657
 31
0.0
  0
ARC
  5
33B
100
AcDbEntity
  8
2
370
    50
100
AcDbCircle
 10
-272.377844
 20
-218.196725
 30
0.0
 40
3.761069
100
AcDbArc
 50
47.232751
 51
132.767249
  0
ARC
  5
33C
100
AcDbEntity
  8
2
370
    50
100
AcDbCircle
 10
-282.823997
 20
-227.435657
 30
0.0
 40
13.0
100
AcDbArc
 50
67.380135
 51
90.0
  0
ARC
  5
33D
100
AcDbEntity
  8
2
370
    50
100
AcDbCircle
 10
-272.377844
 20
-221.674588
 30
0.0
 40
3.761069
100
AcDbArc
 50
227.232751
 51
312.767249
  0
ARC
  5
33E
100
AcDbEntity
  8
2
370
    50
100
AcDbCircle
 10
-282.823997
 20
-212.435657
 30
0.0
 40
13.0
100
AcDbArc
 50
270.0
 51
292.619865
  0
LINE
  5
33F
100
AcDbEntity
  8
2
370
    50
100
AcDbLine
 10
-270.823997
 20
-225.435657
 30
0.0
 11
-269.823997
 21
-224.435657
 31
0.0
  0
LINE
  5
340
100
AcDbEntity
  8
2
370
    50
100
AcDbLine
 10
-277.823997
 20
-224.435657
 30
0.0
 11
-274.931692
 21
-224.435657
 31
0.0
  0
LINE
  5
341
100
AcDbEntity
  8
2
370
    50
100
AcDbLine
 10
-274.473997
 20
-214.435657
 30
0.0
 11
-274.473997
 21
-210.435657
 31
0.0
  0
LINE
  5
342
100
AcDbEntity
  8
2
370
    25
100
AcDbLine
 10
-275.323997
 20
-212.435657
 30
0.0
 11
-275.323997
 21
-210.435657
 31
0.0
  0
LINE
  5
343
100
AcDbEntity
  8
2
370
    50
100
AcDbLine
 10
-275.323997
 20
-212.435657
 30
0.0
 11
-274.473997
 21
-213.285657
 31
0.0
  0
LINE
  5
344
100
AcDbEntity
  8
2
370
    25
100
AcDbLine
 10
-274.473997
 20
-212.435657
 30
0.0
 11
-282.823997
 21
-212.435657
 31
0.0
  0
LINE
  5
345
100
AcDbEntity
  8
2
370
    50
100
AcDbLine
 10
-274.181692
 20
-219.935657
 30
0.0
 11
-279.323997
 21
-219.935657
 31
0.0
  0
LINE
  5
346
100
AcDbEntity
  8
2
370
    50
100
AcDbLine
 10
-270.323997
 20
-219.935657
 30
0.0
 11
-269.823997
 21
-219.435657
 31
0.0
  0
LINE
  5
347
100
AcDbEntity
  8
2
370
    50
100
AcDbLine
 10
-270.323997
 20
-219.935657
 30
0.0
 11
-269.823997
 21
-220.435657
 31
0.0
  0
LINE
  5
348
100
AcDbEntity
  8
2
370
    50
100
AcDbLine
 10
-274.931692
 20
-219.435657
 30
0.0
 11
-277.823997
 21
-219.435657
 31
0.0
  0
LINE
  5
349
100
AcDbEntity
  8
2
370
    50
100
AcDbLine
 10
-269.823997
 20
-224.435657
 30
0.0
 11
-269.823997
 21
-220.435657
 31
0.0
  0
LINE
  5
34A
100
AcDbEntity
  8
2
370
    50
100
AcDbLine
 10
-269.823997
 20
-219.435657
 30
0.0
 11
-269.823997
 21
-215.435657
 31
0.0
  0
LINE
  5
34B
100
AcDbEntity
  8
2
370
    50
100
AcDbLine
 10
-274.931692
 20
-220.435657
 30
0.0
 11
-277.823997
 21
-220.435657
 31
0.0
  0
LINE
  5
34C
100
AcDbEntity
  8
2
370
    50
100
AcDbLine
 10
-277.823997
 20
-219.435657
 30
0.0
 11
-279.323997
 21
-219.935657
 31
0.0
  0
LINE
  5
34D
100
AcDbEntity
  8
2
370
    50
100
AcDbLine
 10
-274.931692
 20
-219.435657
 30
0.0
 11
-274.181692
 21
-219.935657
 31
0.0
  0
LINE
  5
34E
100
AcDbEntity
  8
2
370
    50
100
AcDbLine
 10
-274.931692
 20
-220.435657
 30
0.0
 11
-274.181692
 21
-219.935657
 31
0.0
  0
LINE
  5
34F
100
AcDbEntity
  8
2
370
    50
100
AcDbLine
 10
-277.823997
 20
-220.435657
 30
0.0
 11
-279.323997
 21
-219.935657
 31
0.0
  0
LINE
  5
350
100
AcDbEntity
  8
2
370
    50
100
AcDbLine
 10
-277.823997
 20
-224.435657
 30
0.0
 11
-277.823997
 21
-220.435657
 31
0.0
  0
LINE
  5
351
100
AcDbEntity
  8
2
370
    50
100
AcDbLine
 10
-277.823997
 20
-219.435657
 30
0.0
 11
-277.823997
 21
-215.435657
 31
0.0
  0
LINE
  5
352
100
AcDbEntity
  8
2
370
    50
100
AcDbLine
 10
-274.931692
 20
-224.435657
 30
0.0
 11
-274.931692
 21
-220.435657
 31
0.0
  0
LINE
  5
353
100
AcDbEntity
  8
2
370
    50
100
AcDbLine
 10
-274.931692
 20
-219.435657
 30
0.0
 11
-274.931692
 21
-215.435657
 31
0.0
  0
LINE
  5
354
100
AcDbEntity
  8
2
370
    50
100
AcDbLine
 10
-270.323997
 20
-219.935657
 30
0.0
 11
-270.681692
 21
-219.935657
 31
0.0
  0
LINE
  5
355
100
AcDbEntity
  8
2
370
    50
100
AcDbLine
 10
-269.823997
 20
-219.435657
 30
0.0
 11
-270.681692
 21
-219.935657
 31
0.0
  0
LINE
  5
356
100
AcDbEntity
  8
2
370
    50
100
AcDbLine
 10
-269.823997
 20
-220.435657
 30
0.0
 11
-270.681692
 21
-219.935657
 31
0.0
  0
POINT
  5
357
100
AcDbEntity
  8
2
370
    50
100
AcDbPoint
 10
-282.823997
 20
-218.435657
 30
0.0
  0
LINE
  5
358
100
AcDbEntity
  8
2
370
    50
100
AcDbLine
 10
-282.823997
 20
-225.435657
 30
0.0
 11
-294.823997
 21
-225.435657
 31
0.0
  0
LINE
  5
359
100
AcDbEntity
  8
2
370
    50
100
AcDbLine
 10
-282.823997
 20
-214.435657
 30
0.0
 11
-294.823997
 21
-214.435657
 31
0.0
  0
LINE
  5
35A
100
AcDbEntity
  8
2
370
    50
100
AcDbLine
 10
-294.823997
 20
-214.435657
 30
0.0
 11
-295.823997
 21
-215.435657
 31
0.0
  0
LINE
  5
35B
100
AcDbEntity
  8
2
370
    50
100
AcDbLine
 10
-290.716302
 20
-215.435657
 30
0.0
 11
-287.823997
 21
-215.435657
 31
0.0
  0
ARC
  5
35C
100
AcDbEntity
  8
2
370
    50
100
AcDbCircle
 10
-293.270149
 20
-218.196725
 30
0.0
 40
3.761069
100
AcDbArc
 50
47.232751
 51
132.767249
  0
ARC
  5
35D
100
AcDbEntity
  8
2
370
    50
100
AcDbCircle
 10
-282.823997
 20
-227.435657
 30
0.0
 40
13.0
100
AcDbArc
 50
90.0
 51
112.619865
  0
ARC
  5
35E
100
AcDbEntity
  8
2
370
    50
100
AcDbCircle
 10
-293.270149
 20
-221.674588
 30
0.0
 40
3.761069
100
AcDbArc
 50
227.232751
 51
312.767249
  0
ARC
  5
35F
100
AcDbEntity
  8
2
370
    50
100
AcDbCircle
 10
-282.823997
 20
-212.435657
 30
0.0
 40
13.0
100
AcDbArc
 50
247.380135
 51
270.0
  0
LINE
  5
360
100
AcDbEntity
  8
2
370
    50
100
AcDbLine
 10
-294.823997
 20
-225.435657
 30
0.0
 11
-295.823997
 21
-224.435657
 31
0.0
  0
LINE
  5
361
100
AcDbEntity
  8
2
370
    50
100
AcDbLine
 10
-287.823997
 20
-224.435657
 30
0.0
 11
-290.716302
 21
-224.435657
 31
0.0
  0
LINE
  5
362
100
AcDbEntity
  8
2
370
    50
100
AcDbLine
 10
-291.173997
 20
-214.435657
 30
0.0
 11
-291.173997
 21
-210.435657
 31
0.0
  0
LINE
  5
363
100
AcDbEntity
  8
2
370
    25
100
AcDbLine
 10
-290.323997
 20
-212.435657
 30
0.0
 11
-290.323997
 21
-210.435657
 31
0.0
  0
LINE
  5
364
100
AcDbEntity
  8
2
370
    50
100
AcDbLine
 10
-290.323997
 20
-212.435657
 30
0.0
 11
-291.173997
 21
-213.285657
 31
0.0
  0
LINE
  5
365
100
AcDbEntity
  8
2
370
    25
100
AcDbLine
 10
-291.173997
 20
-212.435657
 30
0.0
 11
-282.823997
 21
-212.435657
 31
0.0
  0
LINE
  5
366
100
AcDbEntity
  8
2
370
    50
100
AcDbLine
 10
-291.466302
 20
-219.935657
 30
0.0
 11
-286.323997
 21
-219.935657
 31
0.0
  0
LINE
  5
367
100
AcDbEntity
  8
2
370
    50
100
AcDbLine
 10
-295.323997
 20
-219.935657
 30
0.0
 11
-295.823997
 21
-219.435657
 31
0.0
  0
LINE
  5
368
100
AcDbEntity
  8
2
370
    50
100
AcDbLine
 10
-295.323997
 20
-219.935657
 30
0.0
 11
-295.823997
 21
-220.435657
 31
0.0
  0
LINE
  5
369
100
AcDbEntity
  8
2
370
    50
100
AcDbLine
 10
-290.716302
 20
-219.435657
 30
0.0
 11
-287.823997
 21
-219.435657
 31
0.0
  0
LINE
  5
36A
100
AcDbEntity
  8
2
370
    50
100
AcDbLine
 10
-295.823997
 20
-224.435657
 30
0.0
 11
-295.823997
 21
-220.435657
 31
0.0
  0
LINE
  5
36B
100
AcDbEntity
  8
2
370
    50
100
AcDbLine
 10
-295.823997
 20
-219.435657
 30
0.0
 11
-295.823997
 21
-215.435657
 31
0.0
  0
LINE
  5
36C
100
AcDbEntity
  8
2
370
    50
100
AcDbLine
 10
-290.716302
 20
-220.435657
 30
0.0
 11
-287.823997
 21
-220.435657
 31
0.0
  0
LINE
  5
36D
100
AcDbEntity
  8
2
370
    50
100
AcDbLine
 10
-287.823997
 20
-219.435657
 30
0.0
 11
-286.323997
 21
-219.935657
 31
0.0
  0
LINE
  5
36E
100
AcDbEntity
  8
2
370
    50
100
AcDbLine
 10
-290.716302
 20
-219.435657
 30
0.0
 11
-291.466302
 21
-219.935657
 31
0.0
  0
LINE
  5
36F
100
AcDbEntity
  8
2
370
    50
100
AcDbLine
 10
-290.716302
 20
-220.435657
 30
0.0
 11
-291.466302
 21
-219.935657
 31
0.0
  0
LINE
  5
370
100
AcDbEntity
  8
2
370
    50
100
AcDbLine
 10
-287.823997
 20
-220.435657
 30
0.0
 11
-286.323997
 21
-219.935657
 31
0.0
  0
LINE
  5
371
100
AcDbEntity
  8
2
370
    50
100
AcDbLine
 10
-287.823997
 20
-224.435657
 30
0.0
 11
-287.823997
 21
-220.435657
 31
0.0
  0
LINE
  5
372
100
AcDbEntity
  8
2
370
    50
100
AcDbLine
 10
-287.823997
 20
-219.435657
 30
0.0
 11
-287.823997
 21
-215.435657
 31
0.0
  0
LINE
  5
373
100
AcDbEntity
  8
2
370
    50
100
AcDbLine
 10
-290.716302
 20
-224.435657
 30
0.0
 11
-290.716302
 21
-220.435657
 31
0.0
  0
LINE
  5
374
100
AcDbEntity
  8
2
370
    50
100
AcDbLine
 10
-290.716302
 20
-219.435657
 30
0.0
 11
-290.716302
 21
-215.435657
 31
0.0
  0
LINE
  5
375
100
AcDbEntity
  8
2
370
    50
100
AcDbLine
 10
-295.323997
 20
-219.935657
 30
0.0
 11
-294.966302
 21
-219.935657
 31
0.0
  0
LINE
  5
376
100
AcDbEntity
  8
2
370
    50
100
AcDbLine
 10
-295.823997
 20
-219.435657
 30
0.0
 11
-294.966302
 21
-219.935657
 31
0.0
  0
LINE
  5
377
100
AcDbEntity
  8
2
370
    50
100
AcDbLine
 10
-295.823997
 20
-220.435657
 30
0.0
 11
-294.966302
 21
-219.935657
 31
0.0
  0
LINE
  5
378
100
AcDbEntity
  8
2
370
    50
100
AcDbLine
 10
-191.448311
 20
-198.435465
 30
0.0
 11
-191.448311
 21
-197.935157
 31
0.0
  0
LINE
  5
379
100
AcDbEntity
  8
2
370
    50
100
AcDbLine
 10
-203.448311
 20
-197.935157
 30
0.0
 11
-203.448311
 21
-198.435465
 31
0.0
  0
LINE
  5
37A
100
AcDbEntity
  8
2
370
    50
100
AcDbLine
 10
-191.448311
 20
-197.935157
 30
0.0
 11
-191.948311
 21
-197.435157
 31
0.0
  0
LINE
  5
37B
100
AcDbEntity
  8
2
370
    50
100
AcDbLine
 10
-202.948311
 20
-197.435157
 30
0.0
 11
-203.448311
 21
-197.935157
 31
0.0
  0
LINE
  5
37C
100
AcDbEntity
  8
2
370
    50
100
AcDbLine
 10
-191.448311
 20
-197.935157
 30
0.0
 11
-203.448311
 21
-197.935157
 31
0.0
  0
LINE
  5
37D
100
AcDbEntity
  8
2
370
    50
100
AcDbLine
 10
-204.698565
 20
-169.435157
 30
0.0
 11
-190.198565
 21
-169.435157
 31
0.0
  0
LINE
  5
37E
100
AcDbEntity
  8
2
370
    50
100
AcDbLine
 10
-204.348565
 20
-175.435157
 30
0.0
 11
-190.548565
 21
-175.435157
 31
0.0
  0
LINE
  5
37F
100
AcDbEntity
  8
2
370
    50
100
AcDbLine
 10
-204.348565
 20
-177.935157
 30
0.0
 11
-190.548565
 21
-177.935157
 31
0.0
  0
LINE
  5
380
100
AcDbEntity
  8
2
370
    50
100
AcDbLine
 10
-204.348565
 20
-182.935157
 30
0.0
 11
-190.548565
 21
-182.935157
 31
0.0
  0
LINE
  5
381
100
AcDbEntity
  8
2
370
    50
100
AcDbLine
 10
-204.348565
 20
-185.435157
 30
0.0
 11
-190.548565
 21
-185.435157
 31
0.0
  0
LINE
  5
382
100
AcDbEntity
  8
2
370
    50
100
AcDbLine
 10
-204.348565
 20
-190.435157
 30
0.0
 11
-190.548565
 21
-190.435157
 31
0.0
  0
LINE
  5
383
100
AcDbEntity
  8
2
370
    50
100
AcDbLine
 10
-204.348565
 20
-192.935157
 30
0.0
 11
-190.548565
 21
-192.935157
 31
0.0
  0
LINE
  5
384
100
AcDbEntity
  8
2
370
    50
100
AcDbLine
 10
-204.698565
 20
-193.695091
 30
0.0
 11
-204.698565
 21
-196.435157
 31
0.0
  0
LINE
  5
385
100
AcDbEntity
  8
2
370
    50
100
AcDbLine
 10
-204.698565
 20
-186.195091
 30
0.0
 11
-204.698565
 21
-189.675223
 31
0.0
  0
LINE
  5
386
100
AcDbEntity
  8
2
370
    50
100
AcDbLine
 10
-204.698565
 20
-169.435157
 30
0.0
 11
-204.698565
 21
-174.675223
 31
0.0
  0
LINE
  5
387
100
AcDbEntity
  8
2
370
    50
100
AcDbLine
 10
-204.698565
 20
-178.695091
 30
0.0
 11
-204.698565
 21
-182.175223
 31
0.0
  0
LINE
  5
388
100
AcDbEntity
  8
2
370
    50
100
AcDbLine
 10
-190.198565
 20
-193.695091
 30
0.0
 11
-190.198565
 21
-196.435157
 31
0.0
  0
LINE
  5
389
100
AcDbEntity
  8
2
370
    50
100
AcDbLine
 10
-190.198565
 20
-186.195091
 30
0.0
 11
-190.198565
 21
-189.675223
 31
0.0
  0
LINE
  5
38A
100
AcDbEntity
  8
2
370
    50
100
AcDbLine
 10
-190.198565
 20
-169.435157
 30
0.0
 11
-190.198565
 21
-174.675223
 31
0.0
  0
LINE
  5
38B
100
AcDbEntity
  8
2
370
    50
100
AcDbLine
 10
-190.198565
 20
-178.695091
 30
0.0
 11
-190.198565
 21
-182.175223
 31
0.0
  0
LINE
  5
38C
100
AcDbEntity
  8
2
370
    50
100
AcDbLine
 10
-204.348565
 20
-190.435157
 30
0.0
 11
-204.348565
 21
-192.935157
 31
0.0
  0
LINE
  5
38D
100
AcDbEntity
  8
2
370
    50
100
AcDbLine
 10
-190.548565
 20
-190.435157
 30
0.0
 11
-190.548565
 21
-192.935157
 31
0.0
  0
LINE
  5
38E
100
AcDbEntity
  8
2
370
    50
100
AcDbLine
 10
-204.348565
 20
-175.435157
 30
0.0
 11
-204.348565
 21
-177.935157
 31
0.0
  0
LINE
  5
38F
100
AcDbEntity
  8
2
370
    50
100
AcDbLine
 10
-204.348565
 20
-182.935157
 30
0.0
 11
-204.348565
 21
-185.435157
 31
0.0
  0
LINE
  5
390
100
AcDbEntity
  8
2
370
    50
100
AcDbLine
 10
-190.548565
 20
-175.435157
 30
0.0
 11
-190.548565
 21
-177.935157
 31
0.0
  0
LINE
  5
391
100
AcDbEntity
  8
2
370
    50
100
AcDbLine
 10
-190.548565
 20
-182.935157
 30
0.0
 11
-190.548565
 21
-185.435157
 31
0.0
  0
LINE
  5
392
100
AcDbEntity
  8
2
370
    50
100
AcDbLine
 10
-190.548565
 20
-169.435157
 30
0.0
 11
-190.548565
 21
-137.357422
 31
0.0
  0
LINE
  5
393
100
AcDbEntity
  8
2
370
    50
100
AcDbLine
 10
-204.348565
 20
-169.435157
 30
0.0
 11
-204.348565
 21
-137.357422
 31
0.0
  0
ARC
  5
394
100
AcDbEntity
  8
2
370
    50
100
AcDbCircle
 10
-191.198565
 20
-193.695091
 30
0.0
 40
1.0
100
AcDbArc
 50
0.0
 51
49.458398
  0
ARC
  5
395
100
AcDbEntity
  8
2
370
    50
100
AcDbCircle
 10
-191.198565
 20
-189.675223
 30
0.0
 40
1.0
100
AcDbArc
 50
310.541602
 51
360.0
  0
ARC
  5
396
100
AcDbEntity
  8
2
370
    50
100
AcDbCircle
 10
-191.198565
 20
-186.195091
 30
0.0
 40
1.0
100
AcDbArc
 50
0.0
 51
49.458398
  0
ARC
  5
397
100
AcDbEntity
  8
2
370
    50
100
AcDbCircle
 10
-191.198565
 20
-182.175223
 30
0.0
 40
1.0
100
AcDbArc
 50
310.541602
 51
360.0
  0
ARC
  5
398
100
AcDbEntity
  8
2
370
    50
100
AcDbCircle
 10
-191.198565
 20
-178.695091
 30
0.0
 40
1.0
100
AcDbArc
 50
0.0
 51
49.458398
  0
ARC
  5
399
100
AcDbEntity
  8
2
370
    50
100
AcDbCircle
 10
-191.198565
 20
-174.675223
 30
0.0
 40
1.0
100
AcDbArc
 50
310.541602
 51
360.0
  0
ARC
  5
39A
100
AcDbEntity
  8
2
370
    50
100
AcDbCircle
 10
-203.698565
 20
-193.695091
 30
0.0
 40
1.0
100
AcDbArc
 50
130.541602
 51
180.0
  0
ARC
  5
39B
100
AcDbEntity
  8
2
370
    50
100
AcDbCircle
 10
-203.698565
 20
-189.675223
 30
0.0
 40
1.0
100
AcDbArc
 50
180.0
 51
229.458398
  0
ARC
  5
39C
100
AcDbEntity
  8
2
370
    50
100
AcDbCircle
 10
-203.698565
 20
-186.195091
 30
0.0
 40
1.0
100
AcDbArc
 50
130.541602
 51
180.0
  0
ARC
  5
39D
100
AcDbEntity
  8
2
370
    50
100
AcDbCircle
 10
-203.698565
 20
-182.175223
 30
0.0
 40
1.0
100
AcDbArc
 50
180.0
 51
229.458398
  0
ARC
  5
39E
100
AcDbEntity
  8
2
370
    50
100
AcDbCircle
 10
-203.698565
 20
-178.695091
 30
0.0
 40
1.0
100
AcDbArc
 50
130.541602
 51
180.0
  0
ARC
  5
39F
100
AcDbEntity
  8
2
370
    50
100
AcDbCircle
 10
-203.698565
 20
-174.675223
 30
0.0
 40
1.0
100
AcDbArc
 50
180.0
 51
229.458398
  0
ARC
  5
3A0
100
AcDbEntity
  8
2
370
    50
100
AcDbCircle
 10
-191.198565
 20
-196.435157
 30
0.0
 40
1.0
100
AcDbArc
 50
270.0
 51
360.0
  0
ARC
  5
3A1
100
AcDbEntity
  8
2
370
    50
100
AcDbCircle
 10
-203.698565
 20
-196.435157
 30
0.0
 40
1.0
100
AcDbArc
 50
180.0
 51
270.0
  0
LINE
  5
3A2
100
AcDbEntity
  8
2
370
    50
100
AcDbLine
 10
-203.698565
 20
-197.435157
 30
0.0
 11
-191.198565
 21
-197.435157
 31
0.0
  0
ARC
  5
3A3
100
AcDbEntity
  8
2
370
    50
100
AcDbCircle
 10
-200.898438
 20
-132.914513
 30
0.0
 40
5.750212
100
AcDbArc
 50
233.130102
 51
306.869898
  0
ARC
  5
3A4
100
AcDbEntity
  8
2
370
    50
100
AcDbCircle
 10
-193.998185
 20
-142.114852
 30
0.0
 40
5.750212
100
AcDbArc
 50
53.130102
 51
126.869898
  0
ARC
  5
3A5
100
AcDbEntity
  8
2
370
    50
100
AcDbCircle
 10
-200.898438
 20
-142.114852
 30
0.0
 40
5.750212
100
AcDbArc
 50
53.130102
 51
126.869898
  0
LINE
  5
3A6
100
AcDbEntity
  8
2
370
    50
100
AcDbLine
 10
-207.448565
 20
-210.435465
 30
0.0
 11
-187.448565
 21
-210.435465
 31
0.0
  0
LINE
  5
3A7
100
AcDbEntity
  8
2
370
    50
100
AcDbLine
 10
-187.448565
 20
-198.435465
 30
0.0
 11
-197.448311
 21
-198.435465
 31
0.0
  0
LINE
  5
3A8
100
AcDbEntity
  8
2
370
    50
100
AcDbLine
 10
-197.448311
 20
-198.435465
 30
0.0
 11
-207.448565
 21
-198.435465
 31
0.0
  0
POINT
  5
3A9
100
AcDbEntity
  8
2
370
    50
100
AcDbPoint
 10
-197.448311
 20
-198.435465
 30
0.0
  0
LINE
  5
3AA
100
AcDbEntity
  8
2
370
    50
100
AcDbLine
 10
-186.448565
 20
-199.012815
 30
0.0
 11
-186.448565
 21
-209.858114
 31
0.0
  0
LINE
  5
3AB
100
AcDbEntity
  8
2
370
    50
100
AcDbLine
 10
-187.448565
 20
-198.435465
 30
0.0
 11
-186.448565
 21
-199.012815
 31
0.0
  0
LINE
  5
3AC
100
AcDbEntity
  8
2
370
    50
100
AcDbLine
 10
-187.448565
 20
-210.435465
 30
0.0
 11
-186.448565
 21
-209.858114
 31
0.0
  0
LINE
  5
3AD
100
AcDbEntity
  8
2
370
    50
100
AcDbLine
 10
-191.079599
 20
-199.012815
 30
0.0
 11
-191.079599
 21
-209.858114
 31
0.0
  0
LINE
  5
3AE
100
AcDbEntity
  8
2
370
    50
100
AcDbLine
 10
-192.86599
 20
-199.012815
 30
0.0
 11
-192.86599
 21
-209.858114
 31
0.0
  0
LINE
  5
3AF
100
AcDbEntity
  8
2
370
    50
100
AcDbLine
 10
-191.079599
 20
-199.012815
 30
0.0
 11
-192.86599
 21
-199.012815
 31
0.0
  0
ARC
  5
3B0
100
AcDbEntity
  8
2
370
    50
100
AcDbCircle
 10
-197.448311
 20
-216.908658
 30
0.0
 40
18.473194
100
AcDbArc
 50
75.637701
 51
90.000787
  0
ARC
  5
3B1
100
AcDbEntity
  8
2
370
    50
100
AcDbCircle
 10
-188.764082
 20
-203.367438
 30
0.0
 40
4.931973
100
AcDbArc
 50
61.998739
 51
118.001261
  0
ARC
  5
3B2
100
AcDbEntity
  8
2
370
    50
100
AcDbCircle
 10
-188.764082
 20
-205.503492
 30
0.0
 40
4.931973
100
AcDbArc
 50
241.998739
 51
298.001261
  0
ARC
  5
3B3
100
AcDbEntity
  8
2
370
    50
100
AcDbCircle
 10
-197.448311
 20
-191.962271
 30
0.0
 40
18.473194
100
AcDbArc
 50
269.999213
 51
284.362299
  0
LINE
  5
3B4
100
AcDbEntity
  8
2
370
    50
100
AcDbLine
 10
-191.079599
 20
-209.858114
 30
0.0
 11
-192.86599
 21
-209.858114
 31
0.0
  0
LINE
  5
3B5
100
AcDbEntity
  8
2
370
    50
100
AcDbLine
 10
-202.031141
 20
-199.012815
 30
0.0
 11
-202.031141
 21
-209.858114
 31
0.0
  0
LINE
  5
3B6
100
AcDbEntity
  8
2
370
    50
100
AcDbLine
 10
-203.817532
 20
-199.012815
 30
0.0
 11
-203.817532
 21
-209.858114
 31
0.0
  0
LINE
  5
3B7
100
AcDbEntity
  8
2
370
    50
100
AcDbLine
 10
-203.817532
 20
-199.012815
 30
0.0
 11
-202.031141
 21
-199.012815
 31
0.0
  0
ARC
  5
3B8
100
AcDbEntity
  8
2
370
    50
100
AcDbCircle
 10
-197.448819
 20
-216.908658
 30
0.0
 40
18.473194
100
AcDbArc
 50
89.999213
 51
104.362299
  0
ARC
  5
3B9
100
AcDbEntity
  8
2
370
    50
100
AcDbCircle
 10
-206.133048
 20
-203.367438
 30
0.0
 40
4.931973
100
AcDbArc
 50
61.998739
 51
118.001261
  0
LINE
  5
3BA
100
AcDbEntity
  8
2
370
    50
100
AcDbLine
 10
-203.817532
 20
-209.858114
 30
0.0
 11
-202.031141
 21
-209.858114
 31
0.0
  0
ARC
  5
3BB
100
AcDbEntity
  8
2
370
    50
100
AcDbCircle
 10
-197.448819
 20
-191.962271
 30
0.0
 40
18.473194
100
AcDbArc
 50
255.637701
 51
270.000787
  0
ARC
  5
3BC
100
AcDbEntity
  8
2
370
    50
100
AcDbCircle
 10
-206.133048
 20
-205.503492
 30
0.0
 40
4.931973
100
AcDbArc
 50
241.998739
 51
298.001261
  0
LINE
  5
3BD
100
AcDbEntity
  8
2
370
    50
100
AcDbLine
 10
-207.448565
 20
-210.435465
 30
0.0
 11
-208.448565
 21
-209.858114
 31
0.0
  0
LINE
  5
3BE
100
AcDbEntity
  8
2
370
    50
100
AcDbLine
 10
-207.448565
 20
-198.435465
 30
0.0
 11
-208.448565
 21
-199.012815
 31
0.0
  0
LINE
  5
3BF
100
AcDbEntity
  8
2
370
    50
100
AcDbLine
 10
-208.448565
 20
-199.012815
 30
0.0
 11
-208.448565
 21
-209.858114
 31
0.0
  0
LINE
  5
3C0
100
AcDbEntity
  8
2
370
    50
100
AcDbLine
 10
-197.448311
 20
-225.435465
 30
0.0
 11
-185.448311
 21
-225.435465
 31
0.0
  0
LINE
  5
3C1
100
AcDbEntity
  8
2
370
    50
100
AcDbLine
 10
-197.448311
 20
-214.435465
 30
0.0
 11
-185.448311
 21
-214.435465
 31
0.0
  0
LINE
  5
3C2
100
AcDbEntity
  8
2
370
    50
100
AcDbLine
 10
-185.448311
 20
-214.435465
 30
0.0
 11
-184.448311
 21
-215.435465
 31
0.0
  0
LINE
  5
3C3
100
AcDbEntity
  8
2
370
    50
100
AcDbLine
 10
-189.556007
 20
-215.435465
 30
0.0
 11
-192.448311
 21
-215.435465
 31
0.0
  0
ARC
  5
3C4
100
AcDbEntity
  8
2
370
    50
100
AcDbCircle
 10
-187.002159
 20
-218.196533
 30
0.0
 40
3.761069
100
AcDbArc
 50
47.232751
 51
132.767249
  0
ARC
  5
3C5
100
AcDbEntity
  8
2
370
    50
100
AcDbCircle
 10
-197.448311
 20
-227.435465
 30
0.0
 40
13.0
100
AcDbArc
 50
67.380135
 51
90.0
  0
ARC
  5
3C6
100
AcDbEntity
  8
2
370
    50
100
AcDbCircle
 10
-187.002159
 20
-221.674396
 30
0.0
 40
3.761069
100
AcDbArc
 50
227.232751
 51
312.767249
  0
ARC
  5
3C7
100
AcDbEntity
  8
2
370
    50
100
AcDbCircle
 10
-197.448311
 20
-212.435465
 30
0.0
 40
13.0
100
AcDbArc
 50
270.0
 51
292.619865
  0
LINE
  5
3C8
100
AcDbEntity
  8
2
370
    50
100
AcDbLine
 10
-185.448311
 20
-225.435465
 30
0.0
 11
-184.448311
 21
-224.435465
 31
0.0
  0
LINE
  5
3C9
100
AcDbEntity
  8
2
370
    50
100
AcDbLine
 10
-192.448311
 20
-224.435465
 30
0.0
 11
-189.556007
 21
-224.435465
 31
0.0
  0
LINE
  5
3CA
100
AcDbEntity
  8
2
370
    50
100
AcDbLine
 10
-189.098311
 20
-214.435465
 30
0.0
 11
-189.098311
 21
-210.435465
 31
0.0
  0
LINE
  5
3CB
100
AcDbEntity
  8
2
370
    25
100
AcDbLine
 10
-189.948311
 20
-212.435465
 30
0.0
 11
-189.948311
 21
-210.435465
 31
0.0
  0
LINE
  5
3CC
100
AcDbEntity
  8
2
370
    50
100
AcDbLine
 10
-189.948311
 20
-212.435465
 30
0.0
 11
-189.098311
 21
-213.285465
 31
0.0
  0
LINE
  5
3CD
100
AcDbEntity
  8
2
370
    25
100
AcDbLine
 10
-189.098311
 20
-212.435465
 30
0.0
 11
-197.448311
 21
-212.435465
 31
0.0
  0
LINE
  5
3CE
100
AcDbEntity
  8
2
370
    50
100
AcDbLine
 10
-188.806007
 20
-219.935465
 30
0.0
 11
-193.948311
 21
-219.935465
 31
0.0
  0
LINE
  5
3CF
100
AcDbEntity
  8
2
370
    50
100
AcDbLine
 10
-184.948311
 20
-219.935465
 30
0.0
 11
-184.448311
 21
-219.435465
 31
0.0
  0
LINE
  5
3D0
100
AcDbEntity
  8
2
370
    50
100
AcDbLine
 10
-184.948311
 20
-219.935465
 30
0.0
 11
-184.448311
 21
-220.435465
 31
0.0
  0
LINE
  5
3D1
100
AcDbEntity
  8
2
370
    50
100
AcDbLine
 10
-189.556007
 20
-219.435465
 30
0.0
 11
-192.448311
 21
-219.435465
 31
0.0
  0
LINE
  5
3D2
100
AcDbEntity
  8
2
370
    50
100
AcDbLine
 10
-184.448311
 20
-224.435465
 30
0.0
 11
-184.448311
 21
-220.435465
 31
0.0
  0
LINE
  5
3D3
100
AcDbEntity
  8
2
370
    50
100
AcDbLine
 10
-184.448311
 20
-219.435465
 30
0.0
 11
-184.448311
 21
-215.435465
 31
0.0
  0
LINE
  5
3D4
100
AcDbEntity
  8
2
370
    50
100
AcDbLine
 10
-189.556007
 20
-220.435465
 30
0.0
 11
-192.448311
 21
-220.435465
 31
0.0
  0
LINE
  5
3D5
100
AcDbEntity
  8
2
370
    50
100
AcDbLine
 10
-192.448311
 20
-219.435465
 30
0.0
 11
-193.948311
 21
-219.935465
 31
0.0
  0
LINE
  5
3D6
100
AcDbEntity
  8
2
370
    50
100
AcDbLine
 10
-189.556007
 20
-219.435465
 30
0.0
 11
-188.806007
 21
-219.935465
 31
0.0
  0
LINE
  5
3D7
100
AcDbEntity
  8
2
370
    50
100
AcDbLine
 10
-189.556007
 20
-220.435465
 30
0.0
 11
-188.806007
 21
-219.935465
 31
0.0
  0
LINE
  5
3D8
100
AcDbEntity
  8
2
370
    50
100
AcDbLine
 10
-192.448311
 20
-220.435465
 30
0.0
 11
-193.948311
 21
-219.935465
 31
0.0
  0
LINE
  5
3D9
100
AcDbEntity
  8
2
370
    50
100
AcDbLine
 10
-192.448311
 20
-224.435465
 30
0.0
 11
-192.448311
 21
-220.435465
 31
0.0
  0
LINE
  5
3DA
100
AcDbEntity
  8
2
370
    50
100
AcDbLine
 10
-192.448311
 20
-219.435465
 30
0.0
 11
-192.448311
 21
-215.435465
 31
0.0
  0
LINE
  5
3DB
100
AcDbEntity
  8
2
370
    50
100
AcDbLine
 10
-189.556007
 20
-224.435465
 30
0.0
 11
-189.556007
 21
-220.435465
 31
0.0
  0
LINE
  5
3DC
100
AcDbEntity
  8
2
370
    50
100
AcDbLine
 10
-189.556007
 20
-219.435465
 30
0.0
 11
-189.556007
 21
-215.435465
 31
0.0
  0
LINE
  5
3DD
100
AcDbEntity
  8
2
370
    50
100
AcDbLine
 10
-184.948311
 20
-219.935465
 30
0.0
 11
-185.306007
 21
-219.935465
 31
0.0
  0
LINE
  5
3DE
100
AcDbEntity
  8
2
370
    50
100
AcDbLine
 10
-184.448311
 20
-219.435465
 30
0.0
 11
-185.306007
 21
-219.935465
 31
0.0
  0
LINE
  5
3DF
100
AcDbEntity
  8
2
370
    50
100
AcDbLine
 10
-184.448311
 20
-220.435465
 30
0.0
 11
-185.306007
 21
-219.935465
 31
0.0
  0
POINT
  5
3E0
100
AcDbEntity
  8
2
370
    50
100
AcDbPoint
 10
-197.448311
 20
-218.435465
 30
0.0
  0
LINE
  5
3E1
100
AcDbEntity
  8
2
370
    50
100
AcDbLine
 10
-197.448311
 20
-225.435465
 30
0.0
 11
-209.448311
 21
-225.435465
 31
0.0
  0
LINE
  5
3E2
100
AcDbEntity
  8
2
370
    50
100
AcDbLine
 10
-197.448311
 20
-214.435465
 30
0.0
 11
-209.448311
 21
-214.435465
 31
0.0
  0
LINE
  5
3E3
100
AcDbEntity
  8
2
370
    50
100
AcDbLine
 10
-209.448311
 20
-214.435465
 30
0.0
 11
-210.448311
 21
-215.435465
 31
0.0
  0
LINE
  5
3E4
100
AcDbEntity
  8
2
370
    50
100
AcDbLine
 10
-205.340616
 20
-215.435465
 30
0.0
 11
-202.448311
 21
-215.435465
 31
0.0
  0
ARC
  5
3E5
100
AcDbEntity
  8
2
370
    50
100
AcDbCircle
 10
-207.894464
 20
-218.196533
 30
0.0
 40
3.761069
100
AcDbArc
 50
47.232751
 51
132.767249
  0
ARC
  5
3E6
100
AcDbEntity
  8
2
370
    50
100
AcDbCircle
 10
-197.448311
 20
-227.435465
 30
0.0
 40
13.0
100
AcDbArc
 50
90.0
 51
112.619865
  0
ARC
  5
3E7
100
AcDbEntity
  8
2
370
    50
100
AcDbCircle
 10
-207.894464
 20
-221.674396
 30
0.0
 40
3.761069
100
AcDbArc
 50
227.232751
 51
312.767249
  0
ARC
  5
3E8
100
AcDbEntity
  8
2
370
    50
100
AcDbCircle
 10
-197.448311
 20
-212.435465
 30
0.0
 40
13.0
100
AcDbArc
 50
247.380135
 51
270.0
  0
LINE
  5
3E9
100
AcDbEntity
  8
2
370
    50
100
AcDbLine
 10
-209.448311
 20
-225.435465
 30
0.0
 11
-210.448311
 21
-224.435465
 31
0.0
  0
LINE
  5
3EA
100
AcDbEntity
  8
2
370
    50
100
AcDbLine
 10
-202.448311
 20
-224.435465
 30
0.0
 11
-205.340616
 21
-224.435465
 31
0.0
  0
LINE
  5
3EB
100
AcDbEntity
  8
2
370
    50
100
AcDbLine
 10
-205.798311
 20
-214.435465
 30
0.0
 11
-205.798311
 21
-210.435465
 31
0.0
  0
LINE
  5
3EC
100
AcDbEntity
  8
2
370
    25
100
AcDbLine
 10
-204.948311
 20
-212.435465
 30
0.0
 11
-204.948311
 21
-210.435465
 31
0.0
  0
LINE
  5
3ED
100
AcDbEntity
  8
2
370
    50
100
AcDbLine
 10
-204.948311
 20
-212.435465
 30
0.0
 11
-205.798311
 21
-213.285465
 31
0.0
  0
LINE
  5
3EE
100
AcDbEntity
  8
2
370
    25
100
AcDbLine
 10
-205.798311
 20
-212.435465
 30
0.0
 11
-197.448311
 21
-212.435465
 31
0.0
  0
LINE
  5
3EF
100
AcDbEntity
  8
2
370
    50
100
AcDbLine
 10
-206.090616
 20
-219.935465
 30
0.0
 11
-200.948311
 21
-219.935465
 31
0.0
  0
LINE
  5
3F0
100
AcDbEntity
  8
2
370
    50
100
AcDbLine
 10
-209.948311
 20
-219.935465
 30
0.0
 11
-210.448311
 21
-219.435465
 31
0.0
  0
LINE
  5
3F1
100
AcDbEntity
  8
2
370
    50
100
AcDbLine
 10
-209.948311
 20
-219.935465
 30
0.0
 11
-210.448311
 21
-220.435465
 31
0.0
  0
LINE
  5
3F2
100
AcDbEntity
  8
2
370
    50
100
AcDbLine
 10
-205.340616
 20
-219.435465
 30
0.0
 11
-202.448311
 21
-219.435465
 31
0.0
  0
LINE
  5
3F3
100
AcDbEntity
  8
2
370
    50
100
AcDbLine
 10
-210.448311
 20
-224.435465
 30
0.0
 11
-210.448311
 21
-220.435465
 31
0.0
  0
LINE
  5
3F4
100
AcDbEntity
  8
2
370
    50
100
AcDbLine
 10
-210.448311
 20
-219.435465
 30
0.0
 11
-210.448311
 21
-215.435465
 31
0.0
  0
LINE
  5
3F5
100
AcDbEntity
  8
2
370
    50
100
AcDbLine
 10
-205.340616
 20
-220.435465
 30
0.0
 11
-202.448311
 21
-220.435465
 31
0.0
  0
LINE
  5
3F6
100
AcDbEntity
  8
2
370
    50
100
AcDbLine
 10
-202.448311
 20
-219.435465
 30
0.0
 11
-200.948311
 21
-219.935465
 31
0.0
  0
LINE
  5
3F7
100
AcDbEntity
  8
2
370
    50
100
AcDbLine
 10
-205.340616
 20
-219.435465
 30
0.0
 11
-206.090616
 21
-219.935465
 31
0.0
  0
LINE
  5
3F8
100
AcDbEntity
  8
2
370
    50
100
AcDbLine
 10
-205.340616
 20
-220.435465
 30
0.0
 11
-206.090616
 21
-219.935465
 31
0.0
  0
LINE
  5
3F9
100
AcDbEntity
  8
2
370
    50
100
AcDbLine
 10
-202.448311
 20
-220.435465
 30
0.0
 11
-200.948311
 21
-219.935465
 31
0.0
  0
LINE
  5
3FA
100
AcDbEntity
  8
2
370
    50
100
AcDbLine
 10
-202.448311
 20
-224.435465
 30
0.0
 11
-202.448311
 21
-220.435465
 31
0.0
  0
LINE
  5
3FB
100
AcDbEntity
  8
2
370
    50
100
AcDbLine
 10
-202.448311
 20
-219.435465
 30
0.0
 11
-202.448311
 21
-215.435465
 31
0.0
  0
LINE
  5
3FC
100
AcDbEntity
  8
2
370
    50
100
AcDbLine
 10
-205.340616
 20
-224.435465
 30
0.0
 11
-205.340616
 21
-220.435465
 31
0.0
  0
LINE
  5
3FD
100
AcDbEntity
  8
2
370
    50
100
AcDbLine
 10
-205.340616
 20
-219.435465
 30
0.0
 11
-205.340616
 21
-215.435465
 31
0.0
  0
LINE
  5
3FE
100
AcDbEntity
  8
2
370
    50
100
AcDbLine
 10
-209.948311
 20
-219.935465
 30
0.0
 11
-209.590616
 21
-219.935465
 31
0.0
  0
LINE
  5
3FF
100
AcDbEntity
  8
2
370
    50
100
AcDbLine
 10
-210.448311
 20
-219.435465
 30
0.0
 11
-209.590616
 21
-219.935465
 31
0.0
  0
LINE
  5
400
100
AcDbEntity
  8
2
370
    50
100
AcDbLine
 10
-210.448311
 20
-220.435465
 30
0.0
 11
-209.590616
 21
-219.935465
 31
0.0
  0
LINE
  5
401
100
AcDbEntity
  8
2
370
    50
  6
DASHED
100
AcDbLine
 10
-204.348565
 20
-159.435157
 30
0.0
 11
-190.548565
 21
-159.435157
 31
0.0
  0
LINE
  5
402
100
AcDbEntity
  8
2
370
    50
  6
DASHED
100
AcDbLine
 10
-204.348565
 20
-149.435157
 30
0.0
 11
-190.548565
 21
-149.435157
 31
0.0
  0
LINE
  5
403
100
AcDbEntity
  8
2
370
    50
  6
DASHED
100
AcDbLine
 10
-289.724251
 20
-159.435349
 30
0.0
 11
-275.924251
 21
-159.435349
 31
0.0
  0
LINE
  5
404
100
AcDbEntity
  8
2
370
    50
  6
DASHED
100
AcDbLine
 10
-289.724251
 20
-149.435349
 30
0.0
 11
-275.924251
 21
-149.435349
 31
0.0
  0
ARC
  5
405
100
AcDbEntity
  8
2
370
    50
100
AcDbCircle
 10
145.273033
 20
57.202101
 30
0.0
 40
56.0
100
AcDbArc
 50
178.814366
 51
179.735275
  0
ARC
  5
406
100
AcDbEntity
  8
2
370
    50
100
AcDbCircle
 10
62.27092
 20
57.202101
 30
0.0
 40
56.0
100
AcDbArc
 50
0.264725
 51
7.022942
  0
ARC
  5
407
100
AcDbEntity
  8
2
370
    50
100
AcDbCircle
 10
-198.635098
 20
57.202101
 30
0.0
 40
56.0
100
AcDbArc
 50
178.814366
 51
179.735275
  0
ARC
  5
408
100
AcDbEntity
  8
2
370
    50
100
AcDbCircle
 10
-281.63721
 20
57.202101
 30
0.0
 40
56.0
100
AcDbArc
 50
0.264725
 51
1.185634
  0
ARC
  5
409
100
AcDbEntity
  8
2
370
    50
100
AcDbCircle
 10
279.939224
 20
57.202101
 30
0.0
 40
56.0
100
AcDbArc
 50
172.977058
 51
179.735275
  0
ARC
  5
40A
100
AcDbEntity
  8
2
370
    50
100
AcDbCircle
 10
196.937111
 20
57.202101
 30
0.0
 40
56.0
100
AcDbArc
 50
0.264725
 51
1.185634
  0
ARC
  5
40B
100
AcDbEntity
  8
2
370
    25
100
AcDbCircle
 10
103.771976
 20
196.561218
 30
0.0
 40
23.5
100
AcDbArc
 50
206.53799
 51
153.45978
  0
ARC
  5
40C
100
AcDbEntity
  8
2
370
    50
100
AcDbCircle
 10
103.771976
 20
196.561218
 30
0.0
 40
24.0
100
AcDbArc
 50
205.943394
 51
154.054434
  0
CIRCLE
  5
40D
100
AcDbEntity
  8
2
370
    50
100
AcDbCircle
 10
103.771976
 20
196.561218
 30
0.0
 40
17.5
  0
LINE
  5
40E
100
AcDbEntity
  8
2
370
    50
100
AcDbLine
 10
86.735251
 20
192.561218
 30
0.0
 11
27.772154
 21
192.561218
 31
0.0
  0
LINE
  5
40F
100
AcDbEntity
  8
2
370
    50
100
AcDbLine
 10
86.735251
 20
200.561218
 30
0.0
 11
27.772154
 21
200.561218
 31
0.0
  0
LINE
  5
410
100
AcDbEntity
  8
2
370
    50
100
AcDbLine
 10
27.272154
 20
193.061218
 30
0.0
 11
27.272154
 21
200.061218
 31
0.0
  0
LINE
  5
411
100
AcDbEntity
  8
2
370
    50
100
AcDbLine
 10
27.772154
 20
200.561218
 30
0.0
 11
27.272154
 21
200.061218
 31
0.0
  0
LINE
  5
412
100
AcDbEntity
  8
2
370
    50
100
AcDbLine
 10
27.772154
 20
192.561218
 30
0.0
 11
27.272154
 21
193.061218
 31
0.0
  0
LINE
  5
413
100
AcDbEntity
  8
2
370
    50
100
AcDbLine
 10
27.772154
 20
200.561218
 30
0.0
 11
27.772154
 21
192.561218
 31
0.0
  0
ARC
  5
414
100
AcDbEntity
  8
2
370
    25
100
AcDbCircle
 10
103.771976
 20
196.561218
 30
0.0
 40
23.5
100
AcDbArc
 50
206.53799
 51
153.45978
  0
ARC
  5
415
100
AcDbEntity
  8
2
370
    50
100
AcDbCircle
 10
103.771976
 20
196.561218
 30
0.0
 40
24.0
100
AcDbArc
 50
205.943394
 51
154.054434
  0
TEXT
  5
416
100
AcDbEntity
  8
2
370
    50
100
AcDbText
 10
100.730011
 20
212.182739
 30
0.0
 40
7.0
  1
Ｈ
 50
270.0
 72
     5
 11
100.730011
 21
206.582739
 31
0.0
100
AcDbText
  0
TEXT
  5
417
100
AcDbEntity
  8
2
370
    50
100
AcDbText
 10
100.894875
 20
188.396835
 30
0.0
 40
7.0
  1
Ｃ
 50
270.0
 72
     5
 11
100.894875
 21
182.796835
 31
0.0
100
AcDbText
  0
POINT
  5
418
100
AcDbEntity
  8
2
370
    50
100
AcDbPoint
 10
103.771976
 20
196.561218
 30
0.0
  0
LINE
  5
419
100
AcDbEntity
  8
2
370
    50
100
AcDbLine
 10
122.271976
 20
200.561218
 30
0.0
 11
120.808702
 21
200.561218
 31
0.0
  0
LINE
  5
41A
100
AcDbEntity
  8
2
370
    25
100
AcDbLine
 10
122.271976
 20
200.561218
 30
0.0
 11
122.271976
 21
192.561218
 31
0.0
  0
ARC
  5
41B
100
AcDbEntity
  8
2
370
    50
100
AcDbCircle
 10
115.343773
 20
196.561218
 30
0.0
 40
8.0
100
AcDbArc
 50
0.0
 51
30.0
  0
ARC
  5
41C
100
AcDbEntity
  8
2
370
    50
100
AcDbCircle
 10
115.343773
 20
196.561218
 30
0.0
 40
8.0
100
AcDbArc
 50
330.0
 51
360.0
  0
LINE
  5
41D
100
AcDbEntity
  8
2
370
    50
100
AcDbLine
 10
122.271976
 20
192.561218
 30
0.0
 11
120.808702
 21
192.561218
 31
0.0
  0
LINE
  5
41E
100
AcDbEntity
  8
2
370
    25
  6
DASHED
100
AcDbLine
 10
73.572342
 20
189.826161
 30
0.0
 11
30.987423
 21
174.326518
 31
0.0
  0
LINE
  5
41F
100
AcDbEntity
  8
2
370
    25
  6
DASHED
100
AcDbLine
 10
80.546117
 20
183.850986
 30
0.0
 11
33.723584
 21
166.808977
 31
0.0
  0
LINE
  5
420
100
AcDbEntity
  8
2
370
    25
  6
DASHED
100
AcDbLine
 10
30.688587
 20
173.685662
 30
0.0
 11
33.082728
 21
167.107814
 31
0.0
  0
LINE
  5
421
100
AcDbEntity
  8
2
370
    25
  6
DASHED
100
AcDbLine
 10
33.723584
 20
166.808977
 30
0.0
 11
33.082728
 21
167.107814
 31
0.0
  0
LINE
  5
422
100
AcDbEntity
  8
2
370
    25
  6
DASHED
100
AcDbLine
 10
30.987423
 20
174.326518
 30
0.0
 11
30.688587
 21
173.685662
 31
0.0
  0
LINE
  5
423
100
AcDbEntity
  8
2
370
    25
  6
DASHED
100
AcDbLine
 10
33.723584
 20
166.808977
 30
0.0
 11
30.987423
 21
174.326518
 31
0.0
  0
LINE
  5
424
100
AcDbEntity
  8
2
370
    25
  6
CENTER
100
AcDbLine
 10
103.771976
 20
196.561218
 30
0.0
 11
29.29681
 21
169.454474
 31
0.0
  0
LINE
  5
425
100
AcDbEntity
  8
2
370
    25
  6
DASHED
100
AcDbLine
 10
86.388392
 20
218.67047
 30
0.0
 11
62.307963
 21
260.378996
 31
0.0
  0
LINE
  5
426
100
AcDbEntity
  8
2
370
    25
  6
DASHED
100
AcDbLine
 10
94.149916
 20
221.227116
 30
0.0
 11
69.236167
 21
264.378996
 31
0.0
  0
LINE
  5
427
100
AcDbEntity
  8
2
370
    25
  6
DASHED
100
AcDbLine
 10
62.490976
 20
261.062008
 30
0.0
 11
68.553154
 21
264.562008
 31
0.0
  0
LINE
  5
428
100
AcDbEntity
  8
2
370
    25
  6
DASHED
100
AcDbLine
 10
69.236167
 20
264.378996
 30
0.0
 11
68.553154
 21
264.562008
 31
0.0
  0
LINE
  5
429
100
AcDbEntity
  8
2
370
    25
  6
DASHED
100
AcDbLine
 10
62.307963
 20
260.378996
 30
0.0
 11
62.490976
 21
261.062008
 31
0.0
  0
LINE
  5
42A
100
AcDbEntity
  8
2
370
    25
  6
DASHED
100
AcDbLine
 10
69.236167
 20
264.378996
 30
0.0
 11
62.307963
 21
260.378996
 31
0.0
  0
LINE
  5
42B
100
AcDbEntity
  8
2
370
    25
  6
CENTER
100
AcDbLine
 10
64.395262
 20
264.763689
 30
0.0
 11
103.771976
 21
196.561218
 31
0.0
  0
TEXT
  5
42C
100
AcDbEntity
  8
3
370
    50
100
AcDbText
 10
226.627838
 20
-272.447357
 30
0.0
 40
7.0
  1
外観寸法図
 72
     5
 11
260.227838
 21
-272.447357
 31
0.0
100
AcDbText
  0
TEXT
  5
42D
100
AcDbEntity
  8
3
370
    50
100
AcDbText
 10
288.787354
 20
-240.051102
 30
0.0
 40
7.0
  1
１
 72
     5
 11
294.387354
 21
-240.051102
 31
0.0
100
AcDbText
  0
TEXT
  5
42E
100
AcDbEntity
  8
3
370
    50
100
AcDbText
 10
303.428314
 20
-240.051102
 30
0.0
 40
7.0
  1
２
 72
     5
 11
309.028314
 21
-240.051102
 31
0.0
100
AcDbText
  0
TEXT
  5
42F
100
AcDbEntity
  8
3
370
    50
100
AcDbText
 10
-208.136154
 20
-39.122861
 30
0.0
 40
7.0
  1
φ４８
 72
     5
 11
-188.536154
 21
-39.122861
 31
0.0
100
AcDbText
  0
DIMENSION
  5
430
100
AcDbEntity
  8
3
370
    25
100
AcDbDimension
  2
*D0
 10
-264.136154
 20
-40.122861
 30
0.0
 11
-240.136154
 21
-38.122861
 31
0.0
 70
     1
 71
     0
 72
     0
 41
0.0
 42
0.0
  3
Standard
100
AcDbAlignedDimension
 13
-216.136154
 23
-53.039161
 33
0.0
 14
-264.136154
 24
-53.039161
 34
0.0
  0
TEXT
  5
431
100
AcDbEntity
  8
3
370
    50
100
AcDbText
 10
-291.844818
 20
-47.54746
 30
0.0
 40
7.0
  1
５～３０
 50
90.0
 72
     5
 11
-291.844818
 21
-20.94746
 31
0.0
100
AcDbText
  0
TEXT
  5
432
100
AcDbEntity
  8
3
370
    50
100
AcDbText
 10
-348.278534
 20
-132.476387
 30
0.0
 40
7.0
  1
（給湯接続の表示）
 72
     5
 11
-286.678534
 21
-132.476387
 31
0.0
100
AcDbText
  0
TEXT
  5
433
100
AcDbEntity
  8
3
370
    50
100
AcDbText
 10
-341.253387
 20
-124.284889
 30
0.0
 40
7.0
  1
赤色
 72
     5
 11
-328.653387
 21
-124.284889
 31
0.0
100
AcDbText
  0
TEXT
  5
434
100
AcDbEntity
  8
3
370
    50
100
AcDbText
 10
-254.330078
 20
-239.108688
 30
0.0
 40
7.0
  1
Ｇ１／２
 72
     5
 11
-227.730078
 21
-239.108688
 31
0.0
100
AcDbText
  0
LWPOLYLINE
  5
435
100
AcDbEntity
  8
3
370
    25
100
AcDbPolyline
 90
        3
 70
     0
 10
-204.257339
 20
-225.753836
 10
-225.77269
 20
-239.752991
 10
-252.507706
 20
-239.752991
  0
LINE
  5
43A
100
AcDbEntity
  8
3
370
    25
100
AcDbLine
 10
-207.495861
 20
-227.861009
 30
0.0
 11
-206.931246
 21
-228.728769
 31
0.0
  0
LINE
  5
43B
100
AcDbEntity
  8
3
370
    25
100
AcDbLine
 10
-206.931246
 20
-228.728769
 30
0.0
 11
-204.257339
 21
-225.753836
 31
0.0
  0
LINE
  5
43C
100
AcDbEntity
  8
3
370
    25
100
AcDbLine
 10
-204.257339
 20
-225.753836
 30
0.0
 11
-208.060477
 21
-226.99325
 31
0.0
  0
LINE
  5
43D
100
AcDbEntity
  8
3
370
    25
100
AcDbLine
 10
-208.060477
 20
-226.99325
 30
0.0
 11
-207.495861
 21
-227.861009
 31
0.0
  0
LWPOLYLINE
  5
43E
100
AcDbEntity
  8
3
370
    25
100
AcDbPolyline
 90
        2
 70
     0
 10
-275.368134
 20
-225.753836
 10
-252.516968
 20
-239.843262
  0
LINE
  5
442
100
AcDbEntity
  8
3
370
    25
100
AcDbLine
 10
-272.079325
 20
-227.781629
 30
0.0
 11
-271.53598
 21
-226.900395
 31
0.0
  0
LINE
  5
443
100
AcDbEntity
  8
3
370
    25
100
AcDbLine
 10
-271.53598
 20
-226.900395
 30
0.0
 11
-275.368134
 21
-225.753836
 31
0.0
  0
LINE
  5
444
100
AcDbEntity
  8
3
370
    25
100
AcDbLine
 10
-275.368134
 20
-225.753836
 30
0.0
 11
-272.62267
 21
-228.662862
 31
0.0
  0
LINE
  5
445
100
AcDbEntity
  8
3
370
    25
100
AcDbLine
 10
-272.62267
 20
-228.662862
 30
0.0
 11
-272.079325
 21
-227.781629
 31
0.0
  0
LINE
  5
446
100
AcDbEntity
  8
3
370
    25
100
AcDbLine
 10
-266.636154
 20
-75.550976
 30
0.0
 11
-292.634048
 21
-75.550976
 31
0.0
  0
LINE
  5
447
100
AcDbEntity
  8
3
370
    25
100
AcDbLine
 10
-290.634048
 20
-75.550976
 30
0.0
 11
-291.669325
 21
-79.41468
 31
0.0
  0
LINE
  5
448
100
AcDbEntity
  8
3
370
    25
100
AcDbLine
 10
-290.634048
 20
-75.550976
 30
0.0
 11
-289.598772
 21
-79.41468
 31
0.0
  0
LINE
  5
449
100
AcDbEntity
  8
3
370
    25
100
AcDbLine
 10
-291.669325
 20
-79.41468
 30
0.0
 11
-289.598772
 21
-79.41468
 31
0.0
  0
LINE
  5
44A
100
AcDbEntity
  8
3
370
    25
100
AcDbLine
 10
-290.634048
 20
-85.550976
 30
0.0
 11
-290.634048
 21
20.881195
 31
0.0
  0
LINE
  5
44B
100
AcDbEntity
  8
3
370
    25
100
AcDbLine
 10
-290.634048
 20
-56.539161
 30
0.0
 11
-289.598772
 21
-52.675458
 31
0.0
  0
LINE
  5
44C
100
AcDbEntity
  8
3
370
    25
100
AcDbLine
 10
-290.634048
 20
-56.539161
 30
0.0
 11
-291.669325
 21
-52.675458
 31
0.0
  0
LINE
  5
44D
100
AcDbEntity
  8
3
370
    25
100
AcDbLine
 10
-289.598772
 20
-52.675458
 30
0.0
 11
-291.669325
 21
-52.675458
 31
0.0
  0
LINE
  5
44E
100
AcDbEntity
  8
3
370
    25
100
AcDbLine
 10
-265.636154
 20
-56.539161
 30
0.0
 11
-292.634048
 21
-56.539161
 31
0.0
  0
LINE
  5
44F
100
AcDbEntity
  8
3
370
    50
100
AcDbLine
 10
-247.636154
 20
49.960839
 30
0.0
 11
-247.636154
 21
33.960839
 31
0.0
  0
ARC
  5
450
100
AcDbEntity
  8
3
370
    50
100
AcDbCircle
 10
-249.636154
 20
49.960839
 30
0.0
 40
2.0
100
AcDbArc
 50
0.0
 51
90.0
  0
LINE
  5
451
100
AcDbEntity
  8
3
370
    50
100
AcDbLine
 10
-257.636154
 20
51.960839
 30
0.0
 11
-249.636154
 21
51.960839
 31
0.0
  0
LINE
  5
452
100
AcDbEntity
  8
3
370
    50
100
AcDbLine
 10
-257.636154
 20
31.960839
 30
0.0
 11
-249.736154
 21
31.960839
 31
0.0
  0
LINE
  5
453
100
AcDbEntity
  8
3
370
    50
100
AcDbLine
 10
-313.687186
 20
78.831146
 30
0.0
 11
-313.687186
 21
65.831146
 31
0.0
  0
LINE
  5
454
100
AcDbEntity
  8
3
370
    50
100
AcDbLine
 10
-333.687186
 20
78.831146
 30
0.0
 11
-333.687186
 21
65.831146
 31
0.0
  0
LINE
  5
455
100
AcDbEntity
  8
3
370
    50
100
AcDbLine
 10
-312.687186
 20
78.831146
 30
0.0
 11
-312.687186
 21
65.831146
 31
0.0
  0
LINE
  5
456
100
AcDbEntity
  8
3
370
    50
100
AcDbLine
 10
-334.687186
 20
78.831146
 30
0.0
 11
-334.687186
 21
65.831146
 31
0.0
  0
LINE
  5
457
100
AcDbEntity
  8
3
370
    50
100
AcDbLine
 10
-315.687186
 20
81.831146
 30
0.0
 11
-331.687186
 21
81.831146
 31
0.0
  0
LINE
  5
458
100
AcDbEntity
  8
3
370
    50
100
AcDbLine
 10
-315.687186
 20
80.831146
 30
0.0
 11
-331.687186
 21
80.831146
 31
0.0
  0
LINE
  5
459
100
AcDbEntity
  8
3
370
    50
100
AcDbLine
 10
-315.687186
 20
63.831146
 30
0.0
 11
-331.687186
 21
63.831146
 31
0.0
  0
LINE
  5
45A
100
AcDbEntity
  8
3
370
    50
100
AcDbLine
 10
-315.687186
 20
62.831146
 30
0.0
 11
-331.687186
 21
62.831146
 31
0.0
  0
LINE
  5
45B
100
AcDbEntity
  8
3
370
    50
100
AcDbLine
 10
-313.687186
 20
74.831146
 30
0.0
 11
-333.687186
 21
74.831146
 31
0.0
  0
ARC
  5
45C
100
AcDbEntity
  8
3
370
    50
100
AcDbCircle
 10
-331.687186
 20
78.831146
 30
0.0
 40
3.0
100
AcDbArc
 50
90.0
 51
180.0
  0
ARC
  5
45D
100
AcDbEntity
  8
3
370
    50
100
AcDbCircle
 10
-315.687186
 20
78.831146
 30
0.0
 40
3.0
100
AcDbArc
 50
0.0
 51
90.0
  0
ARC
  5
45E
100
AcDbEntity
  8
3
370
    50
100
AcDbCircle
 10
-315.687186
 20
65.831146
 30
0.0
 40
3.0
100
AcDbArc
 50
270.0
 51
0.0
  0
ARC
  5
45F
100
AcDbEntity
  8
3
370
    50
100
AcDbCircle
 10
-331.687186
 20
65.831146
 30
0.0
 40
3.0
100
AcDbArc
 50
180.0
 51
270.0
  0
ARC
  5
460
100
AcDbEntity
  8
3
370
    50
100
AcDbCircle
 10
-331.687186
 20
78.831146
 30
0.0
 40
2.0
100
AcDbArc
 50
90.0
 51
180.0
  0
ARC
  5
461
100
AcDbEntity
  8
3
370
    50
100
AcDbCircle
 10
-315.687186
 20
78.831146
 30
0.0
 40
2.0
100
AcDbArc
 50
360.0
 51
90.0
  0
ARC
  5
462
100
AcDbEntity
  8
3
370
    50
100
AcDbCircle
 10
-315.687186
 20
65.831146
 30
0.0
 40
2.0
100
AcDbArc
 50
270.0
 51
360.0
  0
ARC
  5
463
100
AcDbEntity
  8
3
370
    50
100
AcDbCircle
 10
-331.687186
 20
65.831146
 30
0.0
 40
2.0
100
AcDbArc
 50
180.0
 51
270.0
  0
CIRCLE
  5
464
100
AcDbEntity
  8
3
370
    50
100
AcDbCircle
 10
-329.187186
 20
69.331146
 30
0.0
 40
4.0
  0
LINE
  5
465
100
AcDbEntity
  8
3
370
    50
100
AcDbLine
 10
-331.478961
 20
71.976475
 30
0.0
 11
-326.541857
 21
67.039371
 31
0.0
  0
LINE
  5
466
100
AcDbEntity
  8
3
370
    50
100
AcDbLine
 10
-331.832515
 20
71.622922
 30
0.0
 11
-326.89541
 21
66.685817
 31
0.0
  0
ARC
  5
467
100
AcDbEntity
  8
3
370
    50
100
AcDbCircle
 10
-329.187186
 20
69.331146
 30
0.0
 40
3.5
100
AcDbArc
 50
319.096044
 51
130.903956
  0
ARC
  5
468
100
AcDbEntity
  8
3
370
    50
100
AcDbCircle
 10
-329.187186
 20
69.331146
 30
0.0
 40
3.5
100
AcDbArc
 50
139.096044
 51
310.903956
  0
LINE
  5
469
100
AcDbEntity
  8
3
370
    50
100
AcDbLine
 10
-327.187186
 20
67.684699
 30
0.0
 11
-327.187186
 21
70.981146
 31
0.0
  0
LINE
  5
46A
100
AcDbEntity
  8
3
370
    50
100
AcDbLine
 10
-327.887186
 20
68.831146
 30
0.0
 11
-327.887186
 21
71.481146
 31
0.0
  0
LINE
  5
46B
100
AcDbEntity
  8
3
370
    50
100
AcDbLine
 10
-328.587186
 20
69.331146
 30
0.0
 11
-328.587186
 21
71.981146
 31
0.0
  0
LINE
  5
46C
100
AcDbEntity
  8
3
370
    50
100
AcDbLine
 10
-329.287186
 20
69.331146
 30
0.0
 11
-329.287186
 21
71.981146
 31
0.0
  0
LINE
  5
46D
100
AcDbEntity
  8
3
370
    50
100
AcDbLine
 10
-329.460774
 20
66.331146
 30
0.0
 11
-328.187186
 21
66.331146
 31
0.0
  0
ARC
  5
46E
100
AcDbEntity
  8
3
370
    50
100
AcDbCircle
 10
-328.937186
 20
71.981146
 30
0.0
 40
0.35
100
AcDbArc
 50
0.0
 51
180.0
  0
ARC
  5
46F
100
AcDbEntity
  8
3
370
    50
100
AcDbCircle
 10
-329.637186
 20
71.481146
 30
0.0
 40
0.35
100
AcDbArc
 50
0.0
 51
180.0
  0
ARC
  5
470
100
AcDbEntity
  8
3
370
    50
100
AcDbCircle
 10
-328.237186
 20
71.481146
 30
0.0
 40
0.35
100
AcDbArc
 50
0.0
 51
180.0
  0
ARC
  5
471
100
AcDbEntity
  8
3
370
    50
100
AcDbCircle
 10
-327.537186
 20
70.981146
 30
0.0
 40
0.35
100
AcDbArc
 50
0.0
 51
180.0
  0
ARC
  5
472
100
AcDbEntity
  8
3
370
    50
100
AcDbCircle
 10
-328.187186
 20
67.331146
 30
0.0
 40
1.0
100
AcDbArc
 50
270.0
 51
342.20057
  0
LINE
  5
473
100
AcDbEntity
  8
3
370
    50
100
AcDbLine
 10
-329.987186
 20
68.331146
 30
0.0
 11
-329.987186
 21
69.777593
 31
0.0
  0
LINE
  5
474
100
AcDbEntity
  8
3
370
    50
100
AcDbLine
 10
-329.987186
 20
70.484699
 30
0.0
 11
-329.987186
 21
71.481146
 31
0.0
  0
LINE
  5
475
100
AcDbEntity
  8
3
370
    50
100
AcDbLine
 10
-331.024773
 20
69.23304
 30
0.0
 11
-329.987186
 21
68.331146
 31
0.0
  0
LINE
  5
476
100
AcDbEntity
  8
3
370
    50
100
AcDbLine
 10
-331.616938
 20
68.704732
 30
0.0
 11
-330.285154
 21
66.76511
 31
0.0
  0
ARC
  5
477
100
AcDbEntity
  8
3
370
    50
100
AcDbCircle
 10
-331.287186
 20
68.931146
 30
0.0
 40
0.4
100
AcDbArc
 50
49.002125
 51
214.474285
  0
ARC
  5
478
100
AcDbEntity
  8
3
370
    50
100
AcDbCircle
 10
-329.460774
 20
67.331146
 30
0.0
 40
1.0
100
AcDbArc
 50
214.474285
 51
270.0
  0
TEXT
  5
479
100
AcDbEntity
  8
3
370
    50
100
AcDbText
 10
-323.052402
 20
71.68561
 30
0.0
 40
2.2
  1
やけどの
 72
     5
 11
-314.692402
 21
71.68561
 31
0.0
100
AcDbText
  0
TEXT
  5
47A
100
AcDbEntity
  8
3
370
    50
100
AcDbText
 10
-323.052402
 20
68.48561
 30
0.0
 40
2.2
  1
恐れあり
 72
     5
 11
-314.692402
 21
68.48561
 31
0.0
100
AcDbText
  0
TEXT
  5
47B
100
AcDbEntity
  8
3
370
    50
100
AcDbText
 10
-323.052402
 20
65.28561
 30
0.0
 40
2.2
  1
さわるな
 72
     5
 11
-314.692402
 21
65.28561
 31
0.0
100
AcDbText
  0
TEXT
  5
47C
100
AcDbEntity
  8
3
370
    50
100
AcDbText
 10
-324.833291
 20
75.662353
 30
0.0
 40
4.0
  1
注 意
 72
     5
 11
-315.633291
 21
75.662353
 31
0.0
100
AcDbText
  0
LINE
  5
47D
100
AcDbEntity
  8
3
370
    50
100
AcDbLine
 10
-325.913683
 20
75.331146
 30
0.0
 11
-331.687186
 21
75.331146
 31
0.0
  0
LINE
  5
47E
100
AcDbEntity
  8
3
370
    50
100
AcDbLine
 10
-331.687186
 20
75.331146
 30
0.0
 11
-328.800434
 21
80.331146
 31
0.0
  0
LINE
  5
47F
100
AcDbEntity
  8
3
370
    50
100
AcDbLine
 10
-328.800434
 20
80.331146
 30
0.0
 11
-325.913683
 21
75.331146
 31
0.0
  0
TEXT
  5
480
100
AcDbEntity
  8
3
370
    50
100
AcDbText
 10
-330.766559
 20
75.606623
 30
0.0
 40
4.0
  1
！
 72
     5
 11
-327.566559
 21
75.606623
 31
0.0
100
AcDbText
  0
LINE
  5
481
100
AcDbEntity
  8
3
370
    25
100
AcDbLine
 10
-333.187186
 20
69.331146
 30
0.0
 11
-332.644924
 21
69.873408
 31
0.0
  0
LINE
  5
482
100
AcDbEntity
  8
3
370
    25
100
AcDbLine
 10
-331.363962
 20
71.154369
 30
0.0
 11
-331.010409
 21
71.507923
 31
0.0
  0
LINE
  5
483
100
AcDbEntity
  8
3
370
    25
100
AcDbLine
 10
-329.729448
 20
72.788884
 30
0.0
 11
-329.187186
 21
73.331146
 31
0.0
  0
LINE
  5
484
100
AcDbEntity
  8
3
370
    25
100
AcDbLine
 10
-333.177826
 20
69.057663
 30
0.0
 11
-332.679988
 21
69.555502
 31
0.0
  0
LINE
  5
485
100
AcDbEntity
  8
3
370
    25
100
AcDbLine
 10
-331.222541
 20
71.012948
 30
0.0
 11
-330.868988
 21
71.366501
 31
0.0
  0
LINE
  5
486
100
AcDbEntity
  8
3
370
    25
100
AcDbLine
 10
-329.411541
 20
72.823948
 30
0.0
 11
-328.913703
 21
73.321786
 31
0.0
  0
LINE
  5
487
100
AcDbEntity
  8
3
370
    25
100
AcDbLine
 10
-333.151869
 20
68.800778
 30
0.0
 11
-332.686581
 21
69.266066
 31
0.0
  0
LINE
  5
488
100
AcDbEntity
  8
3
370
    25
100
AcDbLine
 10
-331.08112
 20
70.871527
 30
0.0
 11
-330.727566
 21
71.22508
 31
0.0
  0
LINE
  5
489
100
AcDbEntity
  8
3
370
    25
100
AcDbLine
 10
-329.122105
 20
72.830541
 30
0.0
 11
-328.656818
 21
73.295829
 31
0.0
  0
LINE
  5
48A
100
AcDbEntity
  8
3
370
    25
100
AcDbLine
 10
-333.111763
 20
68.558041
 30
0.0
 11
-332.671339
 21
68.998465
 31
0.0
  0
LINE
  5
48B
100
AcDbEntity
  8
3
370
    25
100
AcDbLine
 10
-330.939698
 20
70.730105
 30
0.0
 11
-330.586145
 21
71.083659
 31
0.0
  0
LINE
  5
48C
100
AcDbEntity
  8
3
370
    25
100
AcDbLine
 10
-328.854504
 20
72.815299
 30
0.0
 11
-328.41408
 21
73.255723
 31
0.0
  0
LINE
  5
48D
100
AcDbEntity
  8
3
370
    25
100
AcDbLine
 10
-333.059274
 20
68.327687
 30
0.0
 11
-332.638365
 21
68.748596
 31
0.0
  0
LINE
  5
48E
100
AcDbEntity
  8
3
370
    25
100
AcDbLine
 10
-330.798277
 20
70.588684
 30
0.0
 11
-330.444724
 21
70.942237
 31
0.0
  0
LINE
  5
48F
100
AcDbEntity
  8
3
370
    25
100
AcDbLine
 10
-328.604636
 20
72.782325
 30
0.0
 11
-328.183726
 21
73.203235
 31
0.0
  0
LINE
  5
490
100
AcDbEntity
  8
3
370
    25
100
AcDbLine
 10
-332.995716
 20
68.108403
 30
0.0
 11
-332.590393
 21
68.513725
 31
0.0
  0
LINE
  5
491
100
AcDbEntity
  8
3
370
    25
100
AcDbLine
 10
-330.656856
 20
70.447263
 30
0.0
 11
-330.303302
 21
70.800816
 31
0.0
  0
LINE
  5
492
100
AcDbEntity
  8
3
370
    25
100
AcDbLine
 10
-328.369765
 20
72.734354
 30
0.0
 11
-327.964442
 21
73.139676
 31
0.0
  0
LINE
  5
493
100
AcDbEntity
  8
3
370
    25
100
AcDbLine
 10
-332.922088
 20
67.899188
 30
0.0
 11
-332.529345
 21
68.29193
 31
0.0
  0
LINE
  5
494
100
AcDbEntity
  8
3
370
    25
100
AcDbLine
 10
-330.515434
 20
70.305841
 30
0.0
 11
-330.161881
 21
70.659395
 31
0.0
  0
LINE
  5
495
100
AcDbEntity
  8
3
370
    25
100
AcDbLine
 10
-328.14797
 20
72.673306
 30
0.0
 11
-327.755227
 21
73.066048
 31
0.0
  0
LINE
  5
496
100
AcDbEntity
  8
3
370
    25
100
AcDbLine
 10
-332.839167
 20
67.699266
 30
0.0
 11
-332.456616
 21
68.081817
 31
0.0
  0
LINE
  5
497
100
AcDbEntity
  8
3
370
    25
100
AcDbLine
 10
-330.374013
 20
70.16442
 30
0.0
 11
-330.02046
 21
70.517973
 31
0.0
  0
LINE
  5
498
100
AcDbEntity
  8
3
370
    25
100
AcDbLine
 10
-327.937856
 20
72.600577
 30
0.0
 11
-327.555306
 21
72.983127
 31
0.0
  0
LINE
  5
499
100
AcDbEntity
  8
3
370
    25
100
AcDbLine
 10
-332.747558
 20
67.508032
 30
0.0
 11
-332.373245
 21
67.882345
 31
0.0
  0
LINE
  5
49A
100
AcDbEntity
  8
3
370
    25
100
AcDbLine
 10
-330.232592
 20
70.022999
 30
0.0
 11
-329.879038
 21
70.376552
 31
0.0
  0
LINE
  5
49B
100
AcDbEntity
  8
3
370
    25
100
AcDbLine
 10
-327.738385
 20
72.517206
 30
0.0
 11
-327.364071
 21
72.891519
 31
0.0
  0
LINE
  5
49C
100
AcDbEntity
  8
3
370
    25
100
AcDbLine
 10
-332.647737
 20
67.32501
 30
0.0
 11
-332.280016
 21
67.692732
 31
0.0
  0
LINE
  5
49D
100
AcDbEntity
  8
3
370
    25
100
AcDbLine
 10
-330.09117
 20
69.881577
 30
0.0
 11
-329.737617
 21
70.235131
 31
0.0
  0
LINE
  5
49E
100
AcDbEntity
  8
3
370
    25
100
AcDbLine
 10
-327.548771
 20
72.423976
 30
0.0
 11
-327.18105
 21
72.791698
 31
0.0
  0
LINE
  5
49F
100
AcDbEntity
  8
3
370
    25
100
AcDbLine
 10
-332.540074
 20
67.14983
 30
0.0
 11
-332.177521
 21
67.512384
 31
0.0
  0
LINE
  5
4A0
100
AcDbEntity
  8
3
370
    25
100
AcDbLine
 10
-329.949749
 20
69.740156
 30
0.0
 11
-329.596196
 21
70.093709
 31
0.0
  0
LINE
  5
4A1
100
AcDbEntity
  8
3
370
    25
100
AcDbLine
 10
-327.368424
 20
72.321481
 30
0.0
 11
-327.00587
 21
72.684035
 31
0.0
  0
LINE
  5
4A2
100
AcDbEntity
  8
3
370
    25
100
AcDbLine
 10
-332.424853
 20
66.982209
 30
0.0
 11
-332.066205
 21
67.340857
 31
0.0
  0
LINE
  5
4A3
100
AcDbEntity
  8
3
370
    25
100
AcDbLine
 10
-329.808328
 20
69.598734
 30
0.0
 11
-329.454774
 21
69.952288
 31
0.0
  0
LINE
  5
4A4
100
AcDbEntity
  8
3
370
    25
100
AcDbLine
 10
-327.196897
 20
72.210165
 30
0.0
 11
-326.838248
 21
72.568814
 31
0.0
  0
LINE
  5
4A5
100
AcDbEntity
  8
3
370
    25
100
AcDbLine
 10
-332.302286
 20
66.821933
 30
0.0
 11
-331.946392
 21
67.177827
 31
0.0
  0
LINE
  5
4A6
100
AcDbEntity
  8
3
370
    25
100
AcDbLine
 10
-329.666906
 20
69.457313
 30
0.0
 11
-329.313353
 21
69.810867
 31
0.0
  0
LINE
  5
4A7
100
AcDbEntity
  8
3
370
    25
100
AcDbLine
 10
-327.033867
 20
72.090352
 30
0.0
 11
-326.677973
 21
72.446246
 31
0.0
  0
LINE
  5
4A8
100
AcDbEntity
  8
3
370
    25
100
AcDbLine
 10
-332.172519
 20
66.668857
 30
0.0
 11
-331.818305
 21
67.023071
 31
0.0
  0
LINE
  5
4A9
100
AcDbEntity
  8
3
370
    25
100
AcDbLine
 10
-329.525485
 20
69.315892
 30
0.0
 11
-329.171931
 21
69.669445
 31
0.0
  0
LINE
  5
4AA
100
AcDbEntity
  8
3
370
    25
100
AcDbLine
 10
-326.879111
 20
71.962266
 30
0.0
 11
-326.524897
 21
72.31648
 31
0.0
  0
LINE
  5
4AB
100
AcDbEntity
  8
3
370
    25
100
AcDbLine
 10
-332.035642
 20
66.522891
 30
0.0
 11
-331.682079
 21
66.876455
 31
0.0
  0
LINE
  5
4AC
100
AcDbEntity
  8
3
370
    25
100
AcDbLine
 10
-329.384063
 20
69.17447
 30
0.0
 11
-329.03051
 21
69.528024
 31
0.0
  0
LINE
  5
4AD
100
AcDbEntity
  8
3
370
    25
100
AcDbLine
 10
-326.732495
 20
71.826039
 30
0.0
 11
-326.378931
 21
72.179603
 31
0.0
  0
LINE
  5
4AE
100
AcDbEntity
  8
3
370
    25
100
AcDbLine
 10
-331.891689
 20
66.384002
 30
0.0
 11
-331.537764
 21
66.737927
 31
0.0
  0
LINE
  5
4AF
100
AcDbEntity
  8
3
370
    25
100
AcDbLine
 10
-329.242642
 20
69.033049
 30
0.0
 11
-328.889089
 21
69.386602
 31
0.0
  0
LINE
  5
4B0
100
AcDbEntity
  8
3
370
    25
100
AcDbLine
 10
-326.593967
 20
71.681724
 30
0.0
 11
-326.240041
 21
72.03565
 31
0.0
  0
LINE
  5
4B1
100
AcDbEntity
  8
3
370
    25
100
AcDbLine
 10
-331.740641
 20
66.252207
 30
0.0
 11
-331.385331
 21
66.607517
 31
0.0
  0
LINE
  5
4B2
100
AcDbEntity
  8
3
370
    25
100
AcDbLine
 10
-329.101221
 20
68.891628
 30
0.0
 11
-328.747667
 21
69.245181
 31
0.0
  0
LINE
  5
4B3
100
AcDbEntity
  8
3
370
    25
100
AcDbLine
 10
-326.463557
 20
71.529292
 30
0.0
 11
-326.108247
 21
71.884602
 31
0.0
  0
LINE
  5
4B4
100
AcDbEntity
  8
3
370
    25
100
AcDbLine
 10
-331.582425
 20
66.127581
 30
0.0
 11
-331.224672
 21
66.485334
 31
0.0
  0
LINE
  5
4B5
100
AcDbEntity
  8
3
370
    25
100
AcDbLine
 10
-328.959799
 20
68.750206
 30
0.0
 11
-328.606246
 21
69.10376
 31
0.0
  0
LINE
  5
4B6
100
AcDbEntity
  8
3
370
    25
100
AcDbLine
 10
-326.341373
 20
71.368633
 30
0.0
 11
-325.983621
 21
71.726385
 31
0.0
  0
LINE
  5
4B7
100
AcDbEntity
  8
3
370
    25
100
AcDbLine
 10
-331.41691
 20
66.010253
 30
0.0
 11
-331.055589
 21
66.371574
 31
0.0
  0
LINE
  5
4B8
100
AcDbEntity
  8
3
370
    25
100
AcDbLine
 10
-328.818378
 20
68.608785
 30
0.0
 11
-328.464825
 21
68.962338
 31
0.0
  0
LINE
  5
4B9
100
AcDbEntity
  8
3
370
    25
100
AcDbLine
 10
-326.227613
 20
71.19955
 30
0.0
 11
-325.866293
 21
71.56087
 31
0.0
  0
LINE
  5
4BA
100
AcDbEntity
  8
3
370
    25
100
AcDbLine
 10
-331.243904
 20
65.900416
 30
0.0
 11
-330.877789
 21
66.266532
 31
0.0
  0
LINE
  5
4BB
100
AcDbEntity
  8
3
370
    25
100
AcDbLine
 10
-328.676957
 20
68.467364
 30
0.0
 11
-328.323403
 21
68.820917
 31
0.0
  0
LINE
  5
4BC
100
AcDbEntity
  8
3
370
    25
100
AcDbLine
 10
-326.122571
 20
71.021749
 30
0.0
 11
-325.756456
 21
71.387865
 31
0.0
  0
LINE
  5
4BD
100
AcDbEntity
  8
3
370
    25
100
AcDbLine
 10
-331.063146
 20
65.798332
 30
0.0
 11
-330.690863
 21
66.170615
 31
0.0
  0
LINE
  5
4BE
100
AcDbEntity
  8
3
370
    25
100
AcDbLine
 10
-328.535535
 20
68.325942
 30
0.0
 11
-328.181982
 21
68.679496
 31
0.0
  0
LINE
  5
4BF
100
AcDbEntity
  8
3
370
    25
100
AcDbLine
 10
-326.026655
 20
70.834823
 30
0.0
 11
-325.654372
 21
71.207106
 31
0.0
  0
LINE
  5
4C0
100
AcDbEntity
  8
3
370
    25
100
AcDbLine
 10
-330.874289
 20
65.704346
 30
0.0
 11
-330.494264
 21
66.084371
 31
0.0
  0
LINE
  5
4C1
100
AcDbEntity
  8
3
370
    25
100
AcDbLine
 10
-328.394114
 20
68.184521
 30
0.0
 11
-328.040561
 21
68.538074
 31
0.0
  0
LINE
  5
4C2
100
AcDbEntity
  8
3
370
    25
100
AcDbLine
 10
-325.940411
 20
70.638224
 30
0.0
 11
-325.560385
 21
71.01825
 31
0.0
  0
LINE
  5
4C3
100
AcDbEntity
  8
3
370
    25
100
AcDbLine
 10
-330.676893
 20
65.6189
 30
0.0
 11
-330.287268
 21
66.008524
 31
0.0
  0
LINE
  5
4C4
100
AcDbEntity
  8
3
370
    25
100
AcDbLine
 10
-328.252693
 20
68.0431
 30
0.0
 11
-327.899139
 21
68.396653
 31
0.0
  0
LINE
  5
4C5
100
AcDbEntity
  8
3
370
    25
100
AcDbLine
 10
-325.864564
 20
70.431229
 30
0.0
 11
-325.474939
 21
70.820853
 31
0.0
  0
LINE
  5
4C6
100
AcDbEntity
  8
3
370
    25
100
AcDbLine
 10
-330.47039
 20
65.54256
 30
0.0
 11
-330.068918
 21
65.944031
 31
0.0
  0
LINE
  5
4C7
100
AcDbEntity
  8
3
370
    25
100
AcDbLine
 10
-328.111271
 20
67.901678
 30
0.0
 11
-327.757718
 21
68.255232
 31
0.0
  0
LINE
  5
4C8
100
AcDbEntity
  8
3
370
    25
100
AcDbLine
 10
-325.800071
 20
70.212879
 30
0.0
 11
-325.398599
 21
70.61435
 31
0.0
  0
LINE
  5
4C9
100
AcDbEntity
  8
3
370
    25
100
AcDbLine
 10
-330.254059
 20
65.476048
 30
0.0
 11
-329.837933
 21
65.892174
 31
0.0
  0
LINE
  5
4CA
100
AcDbEntity
  8
3
370
    25
100
AcDbLine
 10
-327.96985
 20
67.760257
 30
0.0
 11
-327.616297
 21
68.11381
 31
0.0
  0
LINE
  5
4CB
100
AcDbEntity
  8
3
370
    25
100
AcDbLine
 10
-325.748214
 20
69.981893
 30
0.0
 11
-325.332088
 21
70.398019
 31
0.0
  0
LINE
  5
4CC
100
AcDbEntity
  8
3
370
    25
100
AcDbLine
 10
-330.02697
 20
65.420294
 30
0.0
 11
-329.592563
 21
65.854701
 31
0.0
  0
LINE
  5
4CD
100
AcDbEntity
  8
3
370
    25
100
AcDbLine
 10
-327.828429
 20
67.618835
 30
0.0
 11
-327.474875
 21
67.972389
 31
0.0
  0
LINE
  5
4CE
100
AcDbEntity
  8
3
370
    25
100
AcDbLine
 10
-325.710741
 20
69.736523
 30
0.0
 11
-325.276334
 21
70.17093
 31
0.0
  0
LINE
  5
4CF
100
AcDbEntity
  8
3
370
    25
100
AcDbLine
 10
-329.787909
 20
65.376512
 30
0.0
 11
-329.330346
 21
65.834075
 31
0.0
  0
LINE
  5
4D0
100
AcDbEntity
  8
3
370
    25
100
AcDbLine
 10
-327.687007
 20
67.477414
 30
0.0
 11
-327.333454
 21
67.830968
 31
0.0
  0
LINE
  5
4D1
100
AcDbEntity
  8
3
370
    25
100
AcDbLine
 10
-325.690115
 20
69.474306
 30
0.0
 11
-325.232552
 21
69.93187
 31
0.0
  0
LINE
  5
4D2
100
AcDbEntity
  8
3
370
    25
100
AcDbLine
 10
-329.535259
 20
65.346319
 30
0.0
 11
-329.04765
 21
65.833929
 31
0.0
  0
LINE
  5
4D3
100
AcDbEntity
  8
3
370
    25
100
AcDbLine
 10
-327.545586
 20
67.335993
 30
0.0
 11
-327.192032
 21
67.689546
 31
0.0
  0
LINE
  5
4D4
100
AcDbEntity
  8
3
370
    25
100
AcDbLine
 10
-325.689968
 20
69.19161
 30
0.0
 11
-325.202359
 21
69.67922
 31
0.0
  0
LINE
  5
4D5
100
AcDbEntity
  8
3
370
    25
100
AcDbLine
 10
-329.266797
 20
65.331938
 30
0.0
 11
-328.738742
 21
65.859994
 31
0.0
  0
LINE
  5
4D6
100
AcDbEntity
  8
3
370
    25
100
AcDbLine
 10
-327.404164
 20
67.194571
 30
0.0
 11
-327.050611
 21
67.548125
 31
0.0
  0
LINE
  5
4D7
100
AcDbEntity
  8
3
370
    25
100
AcDbLine
 10
-325.716033
 20
68.882702
 30
0.0
 11
-325.187978
 21
69.410758
 31
0.0
  0
LINE
  5
4D8
100
AcDbEntity
  8
3
370
    25
100
AcDbLine
 10
-328.979344
 20
65.33655
 30
0.0
 11
-328.393589
 21
65.922304
 31
0.0
  0
LINE
  5
4D9
100
AcDbEntity
  8
3
370
    25
100
AcDbLine
 10
-327.262743
 20
67.05315
 30
0.0
 11
-326.90919
 21
67.406703
 31
0.0
  0
LINE
  5
4DA
100
AcDbEntity
  8
3
370
    25
100
AcDbLine
 10
-325.778344
 20
68.53755
 30
0.0
 11
-325.192589
 21
69.123304
 31
0.0
  0
LINE
  5
4DB
100
AcDbEntity
  8
3
370
    25
100
AcDbLine
 10
-328.668077
 20
65.364973
 30
0.0
 11
-327.991236
 21
66.041814
 31
0.0
  0
LINE
  5
4DC
100
AcDbEntity
  8
3
370
    25
100
AcDbLine
 10
-327.121322
 20
66.911729
 30
0.0
 11
-326.767768
 21
67.265282
 31
0.0
  0
LINE
  5
4DD
100
AcDbEntity
  8
3
370
    25
100
AcDbLine
 10
-325.897854
 20
68.135197
 30
0.0
 11
-325.221013
 21
68.812037
 31
0.0
  0
LINE
  5
4DE
100
AcDbEntity
  8
3
370
    25
100
AcDbLine
 10
-328.325046
 20
65.425162
 30
0.0
 11
-327.467389
 21
66.282819
 31
0.0
  0
LINE
  5
4DF
100
AcDbEntity
  8
3
370
    25
100
AcDbLine
 10
-326.9799
 20
66.770307
 30
0.0
 11
-326.626347
 21
67.123861
 31
0.0
  0
LINE
  5
4E0
100
AcDbEntity
  8
3
370
    25
100
AcDbLine
 10
-326.138859
 20
67.611349
 30
0.0
 11
-325.281201
 21
68.469007
 31
0.0
  0
LINE
  5
4E1
100
AcDbEntity
  8
3
370
    25
100
AcDbLine
 10
-327.935254
 20
65.532111
 30
0.0
 11
-325.388151
 21
68.079214
 31
0.0
  0
LINE
  5
4E2
100
AcDbEntity
  8
3
370
    25
100
AcDbLine
 10
-327.462416
 20
65.722106
 30
0.0
 11
-325.578146
 21
67.606377
 31
0.0
  0
LINE
  5
4E3
100
AcDbEntity
  8
3
370
    25
100
AcDbLine
 10
-326.715467
 20
66.186213
 30
0.0
 11
-326.042252
 21
66.859427
 31
0.0
  0
LINE
  5
4E4
100
AcDbEntity
  8
3
370
    25
100
AcDbLine
 10
-333.176394
 20
69.624781
 30
0.0
 11
-332.569298
 21
70.231876
 31
0.0
  0
LINE
  5
4E5
100
AcDbEntity
  8
3
370
    25
100
AcDbLine
 10
-331.505384
 20
71.295791
 30
0.0
 11
-331.15183
 21
71.649344
 31
0.0
  0
LINE
  5
4E6
100
AcDbEntity
  8
3
370
    25
100
AcDbLine
 10
-330.087916
 20
72.713259
 30
0.0
 11
-329.480821
 21
73.320354
 31
0.0
  0
LINE
  5
4E7
100
AcDbEntity
  8
3
370
    25
100
AcDbLine
 10
-333.139947
 20
69.94407
 30
0.0
 11
-332.425868
 21
70.658149
 31
0.0
  0
LINE
  5
4E8
100
AcDbEntity
  8
3
370
    25
100
AcDbLine
 10
-331.646805
 20
71.437212
 30
0.0
 11
-331.293252
 21
71.790765
 31
0.0
  0
LINE
  5
4E9
100
AcDbEntity
  8
3
370
    25
100
AcDbLine
 10
-330.514189
 20
72.569828
 30
0.0
 11
-329.80011
 21
73.283908
 31
0.0
  0
LINE
  5
4EA
100
AcDbEntity
  8
3
370
    25
100
AcDbLine
 10
-333.068482
 20
70.298378
 30
0.0
 11
-332.109389
 21
71.257471
 31
0.0
  0
LINE
  5
4EB
100
AcDbEntity
  8
3
370
    25
100
AcDbLine
 10
-331.788227
 20
71.578633
 30
0.0
 11
-331.434673
 21
71.932187
 31
0.0
  0
LINE
  5
4EC
100
AcDbEntity
  8
3
370
    25
100
AcDbLine
 10
-331.11351
 20
72.25335
 30
0.0
 11
-330.154417
 21
73.212443
 31
0.0
  0
LINE
  5
4ED
100
AcDbEntity
  8
3
370
    25
100
AcDbLine
 10
-332.943358
 20
70.706345
 30
0.0
 11
-330.562385
 21
73.087318
 31
0.0
  0
LINE
  5
4EE
100
AcDbEntity
  8
3
370
    25
100
AcDbLine
 10
-332.713788
 20
71.218757
 30
0.0
 11
-331.074797
 21
72.857748
 31
0.0
  0
TEXT
  5
4EF
100
AcDbEntity
  8
3
370
    50
100
AcDbText
 10
-352.070469
 20
53.229384
 30
0.0
 40
6.4
  1
（やけど注意表示）
 72
     5
 11
-295.750468
 21
53.229384
 31
0.0
100
AcDbText
  0
POINT
  5
4F0
100
AcDbEntity
  8
3
370
    50
100
AcDbPoint
 10
-257.636154
 20
51.960839
 30
0.0
  0
LWPOLYLINE
  5
4F1
100
AcDbEntity
  8
3
370
    25
100
AcDbPolyline
 90
        3
 70
     0
 10
-253.338993
 20
46.378806
 10
-284.810489
 20
72.2694
 10
-310.359897
 20
72.2694
  0
LINE
  5
4F6
100
AcDbEntity
  8
3
370
    25
100
AcDbLine
 10
-256.322763
 20
48.833458
 30
0.0
 11
-256.980485
 21
48.033959
 31
0.0
  0
LINE
  5
4F7
100
AcDbEntity
  8
3
370
    25
100
AcDbLine
 10
-256.980485
 20
48.033959
 30
0.0
 11
-253.338993
 21
46.378806
 31
0.0
  0
LINE
  5
4F8
100
AcDbEntity
  8
3
370
    25
100
AcDbLine
 10
-253.338993
 20
46.378806
 30
0.0
 11
-255.665041
 21
49.632957
 31
0.0
  0
LINE
  5
4F9
100
AcDbEntity
  8
3
370
    25
100
AcDbLine
 10
-255.665041
 20
49.632957
 30
0.0
 11
-256.322763
 21
48.833458
 31
0.0
  0
LINE
  5
4FA
100
AcDbEntity
  8
3
370
    50
100
AcDbLine
 10
-257.636154
 20
51.960839
 30
0.0
 11
-257.636154
 21
31.960839
 31
0.0
  0
ARC
  5
4FB
100
AcDbEntity
  8
3
370
    50
100
AcDbCircle
 10
-249.636154
 20
33.960839
 30
0.0
 40
2.0
100
AcDbArc
 50
270.0
 51
360.0
  0
TEXT
  5
4FC
100
AcDbEntity
  8
3
370
    50
100
AcDbText
 10
135.235809
 20
-111.004005
 30
0.0
 40
7.0
  1
１３六角
 72
     5
 11
161.835809
 21
-111.004005
 31
0.0
100
AcDbText
  0
LWPOLYLINE
  5
4FD
100
AcDbEntity
  8
3
370
    25
100
AcDbPolyline
 90
        3
 70
     0
 10
120.309807
 20
-102.26503
 10
134.545258
 20
-112.307991
 10
164.481476
 20
-112.307991
  0
LINE
  5
502
100
AcDbEntity
  8
3
370
    25
100
AcDbLine
 10
123.466912
 20
-104.492335
 30
0.0
 11
124.063717
 21
-103.646391
 31
0.0
  0
LINE
  5
503
100
AcDbEntity
  8
3
370
    25
100
AcDbLine
 10
124.063717
 20
-103.646391
 30
0.0
 11
120.309807
 21
-102.26503
 31
0.0
  0
LINE
  5
504
100
AcDbEntity
  8
3
370
    25
100
AcDbLine
 10
120.309807
 20
-102.26503
 30
0.0
 11
122.870108
 21
-105.338279
 31
0.0
  0
LINE
  5
505
100
AcDbEntity
  8
3
370
    25
100
AcDbLine
 10
122.870108
 20
-105.338279
 30
0.0
 11
123.466912
 21
-104.492335
 31
0.0
  0
LINE
  5
506
100
AcDbEntity
  8
3
370
    50
100
AcDbLine
 10
92.771976
 20
-45.661161
 30
0.0
 11
92.771976
 21
-48.661161
 31
0.0
  0
LINE
  5
507
100
AcDbEntity
  8
3
370
    50
100
AcDbLine
 10
94.021976
 20
-49.911161
 30
0.0
 11
113.521976
 21
-49.911161
 31
0.0
  0
LINE
  5
508
100
AcDbEntity
  8
3
370
    50
100
AcDbLine
 10
94.021976
 20
-44.411161
 30
0.0
 11
113.521976
 21
-44.411161
 31
0.0
  0
ARC
  5
509
100
AcDbEntity
  8
3
370
    50
100
AcDbCircle
 10
94.021976
 20
-45.661161
 30
0.0
 40
1.25
100
AcDbArc
 50
90.0
 51
180.0
  0
ARC
  5
50A
100
AcDbEntity
  8
3
370
    50
100
AcDbCircle
 10
94.021976
 20
-48.661161
 30
0.0
 40
1.25
100
AcDbArc
 50
180.0
 51
270.0
  0
HATCH
  5
50B
100
AcDbEntity
  8
3
370
    25
100
AcDbHatch
 10
0.0
 20
0.0
 30
0.0
210
0.0
220
0.0
230
1.0
  2
_U
 70
     0
 71
     1
 91
        1
 92
        1
 93
        8
 72
     1
 10
113.521976
 20
-44.411161
 11
94.021975999999995
 21
-44.411161
 72
     2
 10
94.021975999999995
 20
-45.661161
 40
1.25
 50
90.0
 51
180.0
 73
     1
 72
     1
 10
92.771975999999995
 20
-45.661161
 11
92.771975999999995
 21
-48.661161
 72
     2
 10
94.021975999999995
 20
-48.661161
 40
1.25
 50
180.0
 51
270.0
 73
     1
 72
     1
 10
94.021975999999995
 20
-49.911161
 11
113.521976
 21
-49.911161
 72
     2
 10
113.521976
 20
-48.661161
 40
1.25
 50
270.0
 51
0.0
 73
     1
 72
     1
 10
114.771976
 20
-48.661161
 11
114.771976
 21
-45.661161
 72
     2
 10
113.521976
 20
-45.661161
 40
1.25
 50
0.0
 51
90.0
 73
     1
 97
        8
330
0
330
0
330
0
330
0
330
0
330
0
330
0
330
0
 75
     0
 76
     0
 52
45.0
 41
1.0
 77
     0
 78
     1
 53
45.0
 43
0.0
 44
0.0
 45
-0.707107
 46
0.707107
 79
     0
 98
        1
 10
0.0
 20
0.0
  0
ARC
  5
50C
100
AcDbEntity
  8
3
370
    50
100
AcDbCircle
 10
113.521976
 20
-45.661161
 30
0.0
 40
1.25
100
AcDbArc
 50
360.0
 51
90.0
  0
LINE
  5
50D
100
AcDbEntity
  8
3
370
    50
100
AcDbLine
 10
114.771976
 20
-45.661161
 30
0.0
 11
114.771976
 21
-48.661161
 31
0.0
  0
ARC
  5
50E
100
AcDbEntity
  8
3
370
    50
100
AcDbCircle
 10
113.521976
 20
-48.661161
 30
0.0
 40
1.25
100
AcDbArc
 50
270.0
 51
360.0
  0
TEXT
  5
50F
100
AcDbEntity
  8
3
370
    50
100
AcDbText
 10
131.564855
 20
-49.550847
 30
0.0
 40
7.0
  1
（商標表示）
 72
     5
 11
172.164855
 21
-49.550847
 31
0.0
100
AcDbText
  0
POINT
  5
510
100
AcDbEntity
  8
3
370
    50
100
AcDbPoint
 10
103.771976
 20
-49.911161
 30
0.0
  0
POINT
  5
511
100
AcDbEntity
  8
3
370
    50
100
AcDbPoint
 10
103.771976
 20
-49.911161
 30
0.0
  0
LINE
  5
512
100
AcDbEntity
  8
3
370
    50
100
AcDbLine
 10
226.438168
 20
-37.911161
 30
0.0
 11
226.438168
 21
-49.911161
 31
0.0
  0
LINE
  5
513
100
AcDbEntity
  8
3
370
    50
100
AcDbLine
 10
252.438168
 20
-37.911161
 30
0.0
 11
252.438168
 21
-49.911161
 31
0.0
  0
LINE
  5
514
100
AcDbEntity
  8
3
370
    50
100
AcDbLine
 10
226.438168
 20
-37.911161
 30
0.0
 11
252.438168
 21
-37.911161
 31
0.0
  0
LINE
  5
515
100
AcDbEntity
  8
3
370
    50
100
AcDbLine
 10
226.438168
 20
-49.911161
 30
0.0
 11
252.438168
 21
-49.911161
 31
0.0
  0
HATCH
  5
516
100
AcDbEntity
  8
3
370
    25
100
AcDbHatch
 10
0.0
 20
0.0
 30
0.0
210
0.0
220
0.0
230
1.0
  2
_U
 70
     0
 71
     1
 91
        1
 92
        1
 93
        4
 72
     1
 10
252.43816799999999
 20
-37.911161
 11
226.43816799999999
 21
-37.911161
 72
     1
 10
226.43816799999999
 20
-37.911161
 11
226.43816799999999
 21
-49.911161
 72
     1
 10
226.43816799999999
 20
-49.911161
 11
252.43816799999999
 21
-49.911161
 72
     1
 10
252.43816799999999
 20
-49.911161
 11
252.43816799999999
 21
-37.911161
 97
        4
330
0
330
0
330
0
330
0
 75
     0
 76
     0
 52
45.0
 41
1.0
 77
     0
 78
     1
 53
45.0
 43
0.0
 44
0.0
 45
-0.707107
 46
0.707107
 79
     0
 98
        1
 10
0.0
 20
0.0
  0
LINE
  5
517
100
AcDbEntity
  8
3
370
    50
100
AcDbLine
 10
288.630437
 20
-29.187543
 30
0.0
 11
288.630437
 21
-41.187543
 31
0.0
  0
LINE
  5
518
100
AcDbEntity
  8
3
370
    50
100
AcDbLine
 10
288.630437
 20
-29.187543
 30
0.0
 11
316.630437
 21
-29.187543
 31
0.0
  0
LINE
  5
519
100
AcDbEntity
  8
3
370
    50
100
AcDbLine
 10
288.630437
 20
-41.187543
 30
0.0
 11
316.630437
 21
-41.187543
 31
0.0
  0
TEXT
  5
51A
100
AcDbEntity
  8
3
370
    50
100
AcDbText
 10
271.927476
 20
-50.980113
 30
0.0
 40
6.4
  1
（製品コードＮＯ及び
 72
     5
 11
334.647477
 21
-50.980113
 31
0.0
100
AcDbText
  0
TEXT
  5
51B
100
AcDbEntity
  8
3
370
    50
100
AcDbText
 10
271.927476
 20
-58.380113
 30
0.0
 40
6.4
  1
　ロットＮＯの表示）
 72
     5
 11
334.647477
 21
-58.380113
 31
0.0
100
AcDbText
  0
LWPOLYLINE
  5
51C
100
AcDbEntity
  8
3
370
    25
100
AcDbPolyline
 90
        2
 70
     0
 10
248.006197
 20
-43.010061
 10
284.197267
 20
-35.034847
  0
LINE
  5
520
100
AcDbEntity
  8
3
370
    25
100
AcDbLine
 10
251.779373
 20
-42.178589
 30
0.0
 11
251.55658
 21
-41.167569
 31
0.0
  0
LINE
  5
521
100
AcDbEntity
  8
3
370
    25
100
AcDbLine
 10
251.55658
 20
-41.167569
 30
0.0
 11
248.006197
 21
-43.010061
 31
0.0
  0
LINE
  5
522
100
AcDbEntity
  8
3
370
    25
100
AcDbLine
 10
248.006197
 20
-43.010061
 30
0.0
 11
252.002165
 21
-43.189608
 31
0.0
  0
LINE
  5
523
100
AcDbEntity
  8
3
370
    25
100
AcDbLine
 10
252.002165
 20
-43.189608
 30
0.0
 11
251.779373
 21
-42.178589
 31
0.0
  0
TEXT
  5
524
100
AcDbEntity
  8
3
370
    50
100
AcDbText
 10
38.035962
 20
-68.97451
 30
0.0
 40
7.0
  1
１１０
 72
     5
 11
57.635962
 21
-68.97451
 31
0.0
100
AcDbText
  0
DIMENSION
  5
525
100
AcDbEntity
  8
3
370
    25
100
AcDbDimension
  2
*D1
 10
103.771976
 20
-69.97451
 30
0.0
 11
48.535962
 21
-67.97451
 31
0.0
 71
     0
 72
     0
 41
0.0
 42
0.0
  3
Standard
100
AcDbAlignedDimension
 13
-6.700051
 23
-16.079515
 33
0.0
 14
103.771976
 24
-62.642476
 34
0.0
100
AcDbRotatedDimension
  0
TEXT
  5
526
100
AcDbEntity
  8
3
370
    50
100
AcDbText
 10
-37.277054
 20
-43.309338
 30
0.0
 40
7.0
  1
４０
 50
90.0
 72
     5
 11
-37.277054
 21
-30.709338
 31
0.0
100
AcDbText
  0
DIMENSION
  5
527
100
AcDbEntity
  8
3
370
    25
100
AcDbDimension
  2
*D2
 10
-36.277054
 20
-16.079515
 30
0.0
 11
-38.777054
 21
-36.309338
 31
0.0
 71
     0
 72
     0
 41
0.0
 42
0.0
  3
Standard
100
AcDbAlignedDimension
 13
80.271976
 23
-56.539161
 33
0.0
 14
-6.700051
 24
-16.079515
 34
0.0
 50
90.0
100
AcDbRotatedDimension
  0
DIMENSION
  5
528
100
AcDbEntity
  8
3
370
    25
100
AcDbDimension
  2
*D3
 10
-6.700051
 20
-16.082808
 30
0.0
 11
-7.753677
 21
-49.674274
 31
0.0
 70
     2
 71
     0
 72
     0
 41
0.0
 42
0.0
  3
Standard
100
AcDb2LineAngularDimension
 13
-6.702168
 23
-16.082038
 33
0.0
 14
-6.700051
 24
-16.079515
 34
0.0
 15
-6.700051
 25
-16.079515
 35
0.0
 16
-17.96247
 26
-47.022755
 36
0.0
1001
ACAD
1000
DSTYLE
1002
{
1070
   275
1070
     0
1070
   179
1070
     0
1002
}
  0
TEXT
  5
529
100
AcDbEntity
  8
3
370
    50
100
AcDbText
 10
29.530751
 20
61.9002
 30
0.0
 40
7.0
  1
止水
 72
     5
 11
42.130751
 21
61.9002
 31
0.0
100
AcDbText
  0
TEXT
  5
52A
100
AcDbEntity
  8
3
370
    50
100
AcDbText
 10
67.054295
 20
100.153099
 30
0.0
 40
7.0
  1
吐水
 72
     5
 11
79.654295
 21
100.153099
 31
0.0
100
AcDbText
  0
POINT
  5
52B
100
AcDbEntity
  8
3
370
    50
100
AcDbPoint
 10
40.709314
 20
107.189038
 30
0.0
  0
TEXT
  5
52C
100
AcDbEntity
  8
3
370
    50
100
AcDbText
 10
-65.017494
 20
14.824938
 30
0.0
 40
7.0
  1
１６４
 50
90.0
 72
     5
 11
-65.017494
 21
34.424938
 31
0.0
100
AcDbText
  0
DIMENSION
  5
52D
100
AcDbEntity
  8
3
370
    25
100
AcDbDimension
  2
*D4
 10
-64.017494
 20
107.189038
 30
0.0
 11
-66.517494
 21
25.324938
 31
0.0
 71
     0
 72
     0
 41
0.0
 42
0.0
  3
Standard
100
AcDbAlignedDimension
 13
80.271976
 23
-56.539161
 33
0.0
 14
40.709314
 24
107.189038
 34
0.0
 50
90.0
100
AcDbRotatedDimension
  0
POINT
  5
52E
100
AcDbEntity
  8
3
370
    50
100
AcDbPoint
 10
129.362859
 20
75.68482
 30
0.0
  0
TEXT
  5
52F
100
AcDbEntity
  8
3
370
    50
100
AcDbText
 10
109.567418
 20
100.76532
 30
0.0
 40
7.0
  1
２６
 72
     5
 11
122.167418
 21
100.76532
 31
0.0
100
AcDbText
  0
DIMENSION
  5
530
100
AcDbEntity
  8
3
370
    25
100
AcDbDimension
  2
*D5
 10
129.362859
 20
99.76532
 30
0.0
 11
116.567418
 21
101.76532
 31
0.0
 71
     0
 72
     0
 41
0.0
 42
0.0
  3
Standard
100
AcDbAlignedDimension
 13
103.771976
 23
85.695892
 33
0.0
 14
129.362859
 24
75.68482
 34
0.0
100
AcDbRotatedDimension
  0
HATCH
  5
531
100
AcDbEntity
  8
3
370
    25
100
AcDbHatch
 10
0.0
 20
0.0
 30
0.0
210
0.0
220
0.0
230
1.0
  2
_U
 70
     0
 71
     1
 91
        1
 92
        1
 93
        6
 72
     2
 10
-249.636154
 20
49.960839
 40
2.0
 50
0.0
 51
90.0
 73
     1
 72
     1
 10
-249.636154
 20
51.960839
 11
-257.63615399999998
 21
51.960839
 72
     1
 10
-257.63615399999998
 20
51.960839
 11
-257.63615399999998
 21
31.960839
 72
     1
 10
-257.63615399999998
 20
31.960839
 11
-249.736154
 21
31.960839
 72
     2
 10
-249.63615300000001
 20
33.958337
 40
2.0
 50
267.133971
 51
0.071667
 73
     1
 72
     1
 10
-247.636154
 20
33.960839
 11
-247.636154
 21
49.960839
 97
        6
330
0
330
0
330
0
330
0
330
0
330
0
 75
     0
 76
     0
 52
45.0
 41
1.0
 77
     0
 78
     1
 53
45.0
 43
0.0
 44
0.0
 45
-0.707107
 46
0.707107
 79
     0
 98
        1
 10
0.0
 20
0.0
  0
TEXT
  5
532
100
AcDbEntity
  8
3
370
    50
100
AcDbText
 10
-253.225571
 20
-188.621613
 30
0.0
 40
7.0
  1
２０六角
 72
     5
 11
-226.625571
 21
-188.621613
 31
0.0
100
AcDbText
  0
TEXT
  5
533
100
AcDbEntity
  8
3
370
    50
100
AcDbText
 10
-253.682556
 20
-208.926666
 30
0.0
 40
7.0
  1
２４六角
 72
     5
 11
-227.082556
 21
-208.926666
 31
0.0
100
AcDbText
  0
DIMENSION
  5
534
100
AcDbEntity
  8
3
370
    25
100
AcDbDimension
  2
*D6
 10
41.290472
 20
80.060839
 30
0.0
 11
16.9954
 21
108.418479
 31
0.0
 70
     2
 71
     0
 72
     0
 41
0.0
 42
0.0
  3
Standard
100
AcDb2LineAngularDimension
 13
61.276377
 23
98.879405
 33
0.0
 14
107.853963
 24
80.060839
 34
0.0
 15
107.853963
 25
80.060839
 35
0.0
 16
15.973533
 26
97.920585
 36
0.0
1001
ACAD
1000
DSTYLE
1002
{
1070
   275
1070
     0
1070
   179
1070
     0
1002
}
  0
DIMENSION
  5
535
100
AcDbEntity
  8
3
370
    25
100
AcDbDimension
  2
*D7
 10
121.271976
 20
41.181076
 30
0.0
 11
139.771976
 21
45.681076
 31
0.0
 70
     1
 71
     0
 72
     0
 41
0.0
 42
0.0
  3
Standard
100
AcDbAlignedDimension
 13
86.271976
 23
41.181076
 33
0.0
 14
121.271976
 24
41.181076
 34
0.0
  0
LINE
  5
536
100
AcDbEntity
  8
3
370
    50
100
AcDbLine
 10
150.011595
 20
-38.883351
 30
0.0
 11
152.374171
 21
-38.883351
 31
0.0
  0
LINE
  5
537
100
AcDbEntity
  8
3
370
    50
100
AcDbLine
 10
150.011595
 20
-38.253373
 30
0.0
 11
152.811686
 21
-38.6469
 31
0.0
  0
LINE
  5
538
100
AcDbEntity
  8
3
370
    50
100
AcDbLine
 10
152.435062
 20
-37.710341
 30
0.0
 11
150.011595
 21
-37.369745
 31
0.0
  0
LINE
  5
539
100
AcDbEntity
  8
3
370
    50
100
AcDbLine
 10
150.011595
 20
-37.133294
 30
0.0
 11
152.811686
 21
-37.133294
 31
0.0
  0
ARC
  5
53A
100
AcDbEntity
  8
3
370
    50
100
AcDbCircle
 10
152.374171
 20
-36.69578
 30
0.0
 40
0.437514
100
AcDbArc
 50
0.0
 51
90.0
  0
ARC
  5
53B
100
AcDbEntity
  8
3
370
    50
100
AcDbCircle
 10
152.374171
 20
-38.143597
 30
0.0
 40
0.437514
100
AcDbArc
 50
360.0
 51
82.0
  0
ARC
  5
53C
100
AcDbEntity
  8
3
370
    50
100
AcDbCircle
 10
152.374171
 20
-39.320865
 30
0.0
 40
0.437514
100
AcDbArc
 50
0.0
 51
90.0
  0
LINE
  5
53D
100
AcDbEntity
  8
3
370
    50
100
AcDbLine
 10
153.686714
 20
-36.258266
 30
0.0
 11
153.686714
 21
-37.133294
 31
0.0
  0
LINE
  5
53E
100
AcDbEntity
  8
3
370
    50
100
AcDbLine
 10
153.686714
 20
-37.133294
 30
0.0
 11
154.911753
 21
-37.133294
 31
0.0
  0
LINE
  5
53F
100
AcDbEntity
  8
3
370
    50
100
AcDbLine
 10
155.786782
 20
-36.69578
 30
0.0
 11
155.786782
 21
-37.833317
 31
0.0
  0
LINE
  5
540
100
AcDbEntity
  8
3
370
    50
100
AcDbLine
 10
154.911753
 20
-37.133294
 30
0.0
 11
154.911753
 21
-37.833317
 31
0.0
  0
LINE
  5
541
100
AcDbEntity
  8
3
370
    50
100
AcDbLine
 10
153.2492
 20
-38.883351
 30
0.0
 11
153.861719
 21
-38.883351
 31
0.0
  0
ARC
  5
542
100
AcDbEntity
  8
3
370
    50
100
AcDbCircle
 10
153.861719
 20
-37.833317
 30
0.0
 40
1.050034
100
AcDbArc
 50
270.0
 51
360.0
  0
ARC
  5
543
100
AcDbEntity
  8
3
370
    50
100
AcDbCircle
 10
157.104689
 20
-36.78489
 30
0.0
 40
2.100068
100
AcDbArc
 50
228.524141
 51
272.241513
  0
ARC
  5
544
100
AcDbEntity
  8
3
370
    50
100
AcDbCircle
 10
157.104689
 20
-36.78489
 30
0.0
 40
2.975096
100
AcDbArc
 50
232.173442
 51
271.582042
  0
LINE
  5
545
100
AcDbEntity
  8
3
370
    50
100
AcDbLine
 10
156.816024
 20
-37.658311
 30
0.0
 11
157.82642
 21
-37.658311
 31
0.0
  0
LINE
  5
546
100
AcDbEntity
  8
3
370
    50
100
AcDbLine
 10
157.624341
 20
-36.258266
 30
0.0
 11
156.816024
 21
-37.658311
 31
0.0
  0
LINE
  5
547
100
AcDbEntity
  8
3
370
    50
100
AcDbLine
 10
158.129539
 20
-37.133294
 30
0.0
 11
157.82642
 21
-37.658311
 31
0.0
  0
LINE
  5
548
100
AcDbEntity
  8
3
370
    50
100
AcDbLine
 10
158.129539
 20
-37.133294
 30
0.0
 11
158.84938
 21
-37.133294
 31
0.0
  0
ARC
  5
549
100
AcDbEntity
  8
3
370
    50
100
AcDbCircle
 10
159.286895
 20
-36.69578
 30
0.0
 40
0.437514
100
AcDbArc
 50
0.0
 51
90.0
  0
LINE
  5
54A
100
AcDbEntity
  8
3
370
    50
100
AcDbLine
 10
157.624341
 20
-38.883351
 30
0.0
 11
157.799347
 21
-38.883351
 31
0.0
  0
ARC
  5
54B
100
AcDbEntity
  8
3
370
    50
100
AcDbCircle
 10
157.799347
 20
-37.833317
 30
0.0
 40
1.925062
100
AcDbArc
 50
270.0
 51
360.0
  0
LINE
  5
54C
100
AcDbEntity
  8
3
370
    50
100
AcDbLine
 10
158.324363
 20
-38.358334
 30
0.0
 11
158.708703
 21
-38.358334
 31
0.0
  0
LINE
  5
54D
100
AcDbEntity
  8
3
370
    50
100
AcDbLine
 10
158.324363
 20
-37.483306
 30
0.0
 11
158.84938
 21
-37.483306
 31
0.0
  0
LINE
  5
54E
100
AcDbEntity
  8
3
370
    50
100
AcDbLine
 10
158.324363
 20
-38.358334
 30
0.0
 11
158.324363
 21
-37.483306
 31
0.0
  0
LINE
  5
54F
100
AcDbEntity
  8
3
370
    50
100
AcDbLine
 10
158.84938
 20
-37.133294
 30
0.0
 11
158.84938
 21
-37.483306
 31
0.0
  0
ARC
  5
550
100
AcDbEntity
  8
3
370
    50
100
AcDbCircle
 10
157.799347
 20
-37.833317
 30
0.0
 40
1.050034
100
AcDbArc
 50
270.0
 51
330.0
  0
LINE
  5
551
100
AcDbEntity
  8
3
370
    50
100
AcDbLine
 10
160.161923
 20
-37.133294
 30
0.0
 11
162.261991
 21
-37.133294
 31
0.0
  0
LINE
  5
552
100
AcDbEntity
  8
3
370
    50
100
AcDbLine
 10
160.161923
 20
-38.883351
 30
0.0
 11
161.824476
 21
-38.883351
 31
0.0
  0
ARC
  5
553
100
AcDbEntity
  8
3
370
    50
100
AcDbCircle
 10
161.824476
 20
-36.69578
 30
0.0
 40
0.437514
100
AcDbArc
 50
0.0
 51
90.0
  0
ARC
  5
554
100
AcDbEntity
  8
3
370
    50
100
AcDbCircle
 10
161.824476
 20
-39.320865
 30
0.0
 40
0.437514
100
AcDbArc
 50
0.0
 51
90.0
  0
ARC
  5
555
100
AcDbEntity
  8
3
370
    50
100
AcDbCircle
 10
153.861719
 20
-37.833317
 30
0.0
 40
1.925062
100
AcDbArc
 50
270.0
 51
317.461176
  0
ARC
  5
556
100
AcDbEntity
  8
3
370
    50
100
AcDbCircle
 10
153.861719
 20
-37.833317
 30
0.0
 40
1.925062
100
AcDbArc
 50
344.17338
 51
360.0
  0
CIRCLE
  5
557
100
AcDbEntity
  8
3
370
    50
100
AcDbCircle
 10
156.574307
 20
-36.520774
 30
0.0
 40
0.262508
  0
CIRCLE
  5
558
100
AcDbEntity
  8
3
370
    50
100
AcDbCircle
 10
156.04929
 20
-36.520774
 30
0.0
 40
0.262508
  0
LINE
  5
559
100
AcDbEntity
  8
3
370
    50
100
AcDbLine
 10
153.2492
 20
-38.883351
 30
0.0
 11
153.2492
 21
-39.758379
 31
0.0
  0
LINE
  5
55A
100
AcDbEntity
  8
3
370
    50
100
AcDbLine
 10
157.186827
 20
-38.883351
 30
0.0
 11
157.186827
 21
-39.758379
 31
0.0
  0
LINE
  5
55B
100
AcDbEntity
  8
3
370
    50
100
AcDbLine
 10
157.624341
 20
-38.883351
 30
0.0
 11
157.624341
 21
-39.758379
 31
0.0
  0
LINE
  5
55C
100
AcDbEntity
  8
3
370
    50
100
AcDbLine
 10
159.724409
 20
-36.69578
 30
0.0
 11
159.724409
 21
-37.833317
 31
0.0
  0
LINE
  5
55D
100
AcDbEntity
  8
3
370
    50
100
AcDbLine
 10
150.011595
 20
-36.258266
 30
0.0
 11
152.374171
 21
-36.258266
 31
0.0
  0
LINE
  5
55E
100
AcDbEntity
  8
3
370
    50
100
AcDbLine
 10
153.686714
 20
-36.258266
 30
0.0
 11
155.349267
 21
-36.258266
 31
0.0
  0
LINE
  5
55F
100
AcDbEntity
  8
3
370
    50
100
AcDbLine
 10
157.624341
 20
-36.258266
 30
0.0
 11
159.286895
 21
-36.258266
 31
0.0
  0
LINE
  5
560
100
AcDbEntity
  8
3
370
    50
100
AcDbLine
 10
160.161923
 20
-36.258266
 30
0.0
 11
161.824476
 21
-36.258266
 31
0.0
  0
LINE
  5
561
100
AcDbEntity
  8
3
370
    50
100
AcDbLine
 10
160.161923
 20
-39.758379
 30
0.0
 11
162.261991
 21
-39.758379
 31
0.0
  0
LINE
  5
562
100
AcDbEntity
  8
3
370
    50
100
AcDbLine
 10
157.624341
 20
-39.758379
 30
0.0
 11
157.799347
 21
-39.758379
 31
0.0
  0
LINE
  5
563
100
AcDbEntity
  8
3
370
    50
100
AcDbLine
 10
150.011595
 20
-39.758379
 30
0.0
 11
152.811686
 21
-39.758379
 31
0.0
  0
LINE
  5
564
100
AcDbEntity
  8
3
370
    50
100
AcDbLine
 10
152.811686
 20
-37.133294
 30
0.0
 11
152.811686
 21
-36.69578
 31
0.0
  0
LINE
  5
565
100
AcDbEntity
  8
3
370
    50
100
AcDbLine
 10
152.811686
 20
-39.758379
 30
0.0
 11
152.811686
 21
-39.320865
 31
0.0
  0
LINE
  5
566
100
AcDbEntity
  8
3
370
    50
100
AcDbLine
 10
152.811686
 20
-38.6469
 30
0.0
 11
152.811686
 21
-38.143597
 31
0.0
  0
LINE
  5
567
100
AcDbEntity
  8
3
370
    50
100
AcDbLine
 10
150.011595
 20
-39.758379
 30
0.0
 11
150.011595
 21
-38.883351
 31
0.0
  0
LINE
  5
568
100
AcDbEntity
  8
3
370
    50
100
AcDbLine
 10
150.011595
 20
-38.253373
 30
0.0
 11
150.011595
 21
-37.369745
 31
0.0
  0
LINE
  5
569
100
AcDbEntity
  8
3
370
    50
100
AcDbLine
 10
150.011595
 20
-37.133294
 30
0.0
 11
150.011595
 21
-36.258266
 31
0.0
  0
LINE
  5
56A
100
AcDbEntity
  8
3
370
    50
100
AcDbLine
 10
162.261991
 20
-37.133294
 30
0.0
 11
162.261991
 21
-36.69578
 31
0.0
  0
LINE
  5
56B
100
AcDbEntity
  8
3
370
    50
100
AcDbLine
 10
160.161923
 20
-39.758379
 30
0.0
 11
160.161923
 21
-38.883351
 31
0.0
  0
LINE
  5
56C
100
AcDbEntity
  8
3
370
    50
100
AcDbLine
 10
160.161923
 20
-37.133294
 30
0.0
 11
160.161923
 21
-36.258266
 31
0.0
  0
LINE
  5
56D
100
AcDbEntity
  8
3
370
    50
100
AcDbLine
 10
153.2492
 20
-39.758379
 30
0.0
 11
153.861719
 21
-39.758379
 31
0.0
  0
LINE
  5
56E
100
AcDbEntity
  8
3
370
    50
100
AcDbLine
 10
157.006921
 20
-39.758379
 30
0.0
 11
157.186827
 21
-39.758379
 31
0.0
  0
ARC
  5
56F
100
AcDbEntity
  8
3
370
    50
100
AcDbCircle
 10
155.349267
 20
-36.69578
 30
0.0
 40
0.437514
100
AcDbArc
 50
0.0
 51
90.0
  0
LINE
  5
570
100
AcDbEntity
  8
3
370
    50
100
AcDbLine
 10
142.136465
 20
-38.795848
 30
0.0
 11
142.136465
 21
-37.220797
 31
0.0
  0
LINE
  5
571
100
AcDbEntity
  8
3
370
    50
100
AcDbLine
 10
142.486476
 20
-37.220797
 30
0.0
 11
142.486476
 21
-38.795848
 31
0.0
  0
LINE
  5
572
100
AcDbEntity
  8
3
370
    50
100
AcDbLine
 10
142.486476
 20
-37.220797
 30
0.0
 11
142.136465
 21
-37.220797
 31
0.0
  0
LINE
  5
573
100
AcDbEntity
  8
3
370
    50
100
AcDbLine
 10
142.486476
 20
-38.795848
 30
0.0
 11
142.136465
 21
-38.795848
 31
0.0
  0
LINE
  5
574
100
AcDbEntity
  8
3
370
    50
100
AcDbLine
 10
141.247241
 20
-39.072553
 30
0.0
 11
141.073994
 21
-39.245799
 31
0.0
  0
LINE
  5
575
100
AcDbEntity
  8
3
370
    50
100
AcDbLine
 10
143.186499
 20
-37.220797
 30
0.0
 11
143.396506
 21
-37.220797
 31
0.0
  0
LINE
  5
576
100
AcDbEntity
  8
3
370
    50
100
AcDbLine
 10
142.748985
 20
-38.795848
 30
0.0
 11
143.028994
 21
-38.795848
 31
0.0
  0
LINE
  5
577
100
AcDbEntity
  8
3
370
    50
100
AcDbLine
 10
142.748985
 20
-38.795848
 30
0.0
 11
142.748985
 21
-38.515839
 31
0.0
  0
LINE
  5
578
100
AcDbEntity
  8
3
370
    50
100
AcDbLine
 10
143.396506
 20
-37.500806
 30
0.0
 11
143.396506
 21
-37.220797
 31
0.0
  0
LINE
  5
579
100
AcDbEntity
  8
3
370
    50
100
AcDbLine
 10
143.239001
 20
-37.500806
 30
0.0
 11
143.396506
 21
-37.500806
 31
0.0
  0
LINE
  5
57A
100
AcDbEntity
  8
3
370
    50
100
AcDbLine
 10
142.888575
 20
-37.978717
 30
0.0
 11
143.107579
 21
-38.182354
 31
0.0
  0
ARC
  5
57B
100
AcDbEntity
  8
3
370
    50
100
AcDbCircle
 10
143.239001
 20
-37.675812
 30
0.0
 40
0.175006
100
AcDbArc
 50
90.0
 51
227.082289
  0
LINE
  5
57C
100
AcDbEntity
  8
3
370
    50
100
AcDbLine
 10
143.119831
 20
-37.803974
 30
0.0
 11
143.338835
 21
-38.007611
 31
0.0
  0
ARC
  5
57D
100
AcDbEntity
  8
3
370
    50
100
AcDbCircle
 10
143.028994
 20
-38.340833
 30
0.0
 40
0.455015
100
AcDbArc
 50
270.0
 51
47.082289
  0
ARC
  5
57E
100
AcDbEntity
  8
3
370
    50
100
AcDbCircle
 10
142.976492
 20
-38.323333
 30
0.0
 40
0.192506
100
AcDbArc
 50
270.0
 51
47.082289
  0
ARC
  5
57F
100
AcDbEntity
  8
3
370
    50
100
AcDbCircle
 10
143.186499
 20
-37.658311
 30
0.0
 40
0.437514
100
AcDbArc
 50
90.0
 51
227.082289
  0
LINE
  5
580
100
AcDbEntity
  8
3
370
    50
100
AcDbLine
 10
142.976492
 20
-38.515839
 30
0.0
 11
142.748985
 21
-38.515839
 31
0.0
  0
LINE
  5
581
100
AcDbEntity
  8
3
370
    50
100
AcDbLine
 10
141.506445
 20
-38.172828
 30
0.0
 11
141.506445
 21
-37.220797
 31
0.0
  0
LINE
  5
582
100
AcDbEntity
  8
3
370
    50
100
AcDbLine
 10
141.821455
 20
-38.172828
 30
0.0
 11
141.821455
 21
-37.220797
 31
0.0
  0
LINE
  5
583
100
AcDbEntity
  8
3
370
    50
100
AcDbLine
 10
141.821455
 20
-37.220797
 30
0.0
 11
141.506445
 21
-37.220797
 31
0.0
  0
ARC
  5
584
100
AcDbEntity
  8
3
370
    50
100
AcDbCircle
 10
141.198435
 20
-38.172828
 30
0.0
 40
0.62302
100
AcDbArc
 50
190.22669
 51
360.0
  0
ARC
  5
585
100
AcDbEntity
  8
3
370
    50
100
AcDbCircle
 10
141.163434
 20
-38.172828
 30
0.0
 40
0.343011
100
AcDbArc
 50
190.573586
 51
360.0
  0
ARC
  5
586
100
AcDbEntity
  8
3
370
    50
100
AcDbCircle
 10
142.311471
 20
-38.008322
 30
0.0
 40
1.505049
100
AcDbArc
 50
225.0
 51
188.720397
  0
ARC
  5
587
100
AcDbEntity
  8
3
370
    50
100
AcDbCircle
 10
142.311471
 20
-38.008322
 30
0.0
 40
1.750056
100
AcDbArc
 50
225.0
 51
189.066832
  0
LINE
  5
588
100
AcDbEntity
  8
3
370
    50
100
AcDbLine
 10
164.712132
 20
-39.758379
 30
0.0
 11
164.712132
 21
-37.424971
 31
0.0
  0
LINE
  5
589
100
AcDbEntity
  8
3
370
    50
100
AcDbLine
 10
163.312087
 20
-39.758379
 30
0.0
 11
163.312087
 21
-37.424971
 31
0.0
  0
LINE
  5
58A
100
AcDbEntity
  8
3
370
    50
100
AcDbLine
 10
162.962075
 20
-39.758379
 30
0.0
 11
163.662098
 21
-39.758379
 31
0.0
  0
LINE
  5
58B
100
AcDbEntity
  8
3
370
    50
100
AcDbLine
 10
164.362121
 20
-39.758379
 30
0.0
 11
165.062143
 21
-39.758379
 31
0.0
  0
LINE
  5
58C
100
AcDbEntity
  8
3
370
    50
100
AcDbLine
 10
140.823821
 20
-38.236507
 30
0.0
 11
140.826247
 21
-38.23577
 31
0.0
  0
HATCH
  5
58D
100
AcDbEntity
  8
3
370
    25
100
AcDbHatch
 10
0.0
 20
0.0
 30
0.0
210
0.0
220
0.0
230
1.0
  2
_U
 70
     0
 71
     1
 91
        1
 92
        1
 93
        4
 72
     1
 10
142.48647600000001
 20
-37.220796999999997
 11
142.48647600000001
 21
-38.795847999999999
 72
     1
 10
142.48647600000001
 20
-38.795847999999999
 11
142.13646499999999
 21
-38.795847999999999
 72
     1
 10
142.13646499999999
 20
-38.795847999999999
 11
142.13646499999999
 21
-37.220796999999997
 72
     1
 10
142.13646499999999
 20
-37.220796999999997
 11
142.48647600000001
 21
-37.220796999999997
 97
        4
330
0
330
0
330
0
330
0
 75
     0
 76
     0
 52
45.0
 41
1.0
 77
     0
 78
     1
 53
45.0
 43
0.0
 44
0.0
 45
-0.282843
 46
0.282843
 79
     0
 98
        1
 10
0.0
 20
0.0
  0
LINE
  5
58E
100
AcDbEntity
  8
3
370
    25
100
AcDbLine
 10
143.195453
 20
-38.764307
 30
0.0
 11
143.452467
 21
-38.507293
 31
0.0
  0
LINE
  5
58F
100
AcDbEntity
  8
3
370
    25
100
AcDbLine
 10
142.748985
 20
-38.64509
 30
0.0
 11
142.878236
 21
-38.515839
 31
0.0
  0
LINE
  5
590
100
AcDbEntity
  8
3
370
    25
100
AcDbLine
 10
143.151322
 20
-38.242752
 30
0.0
 11
143.362633
 21
-38.031441
 31
0.0
  0
LINE
  5
591
100
AcDbEntity
  8
3
370
    25
100
AcDbLine
 10
143.396506
 20
-37.431883
 30
0.0
 11
143.327583
 21
-37.500806
 31
0.0
  0
LINE
  5
592
100
AcDbEntity
  8
3
370
    25
100
AcDbLine
 10
143.079831
 20
-37.748558
 30
0.0
 11
142.869028
 21
-37.959361
 31
0.0
  0
LINE
  5
593
100
AcDbEntity
  8
3
370
    25
100
AcDbLine
 10
142.790578
 20
-37.472126
 30
0.0
 11
143.000314
 21
-37.26239
 31
0.0
  0
LINE
  5
594
100
AcDbEntity
  8
3
370
    25
100
AcDbLine
 10
141.516053
 20
-39.567171
 30
0.0
 11
141.698616
 21
-39.384607
 31
0.0
  0
LINE
  5
595
100
AcDbEntity
  8
3
370
    25
100
AcDbLine
 10
143.687747
 20
-37.395476
 30
0.0
 11
143.870319
 21
-37.212904
 31
0.0
  0
LINE
  5
596
100
AcDbEntity
  8
3
370
    25
100
AcDbLine
 10
141.932136
 20
-39.716773
 30
0.0
 11
142.142402
 21
-39.506507
 31
0.0
  0
LINE
  5
597
100
AcDbEntity
  8
3
370
    25
100
AcDbLine
 10
143.809647
 20
-37.839262
 30
0.0
 11
144.019921
 21
-37.628987
 31
0.0
  0
LINE
  5
598
100
AcDbEntity
  8
3
370
    25
100
AcDbLine
 10
142.462767
 20
-39.751827
 30
0.0
 11
142.768262
 21
-39.446332
 31
0.0
  0
LINE
  5
599
100
AcDbEntity
  8
3
370
    25
100
AcDbLine
 10
143.749472
 20
-38.465122
 30
0.0
 11
144.054975
 21
-38.159619
 31
0.0
  0
LINE
  5
59A
100
AcDbEntity
  8
3
370
    25
100
AcDbLine
 10
143.408107
 20
-39.372173
 30
0.0
 11
143.675321
 21
-39.104958
 31
0.0
  0
LINE
  5
59B
100
AcDbEntity
  8
3
370
    25
100
AcDbLine
 10
141.176822
 20
-39.340715
 30
0.0
 11
141.350436
 21
-39.167102
 31
0.0
  0
LINE
  5
59C
100
AcDbEntity
  8
3
370
    25
100
AcDbLine
 10
143.470242
 20
-37.047296
 30
0.0
 11
143.643864
 21
-36.873674
 31
0.0
  0
LINE
  5
59D
100
AcDbEntity
  8
3
370
    25
100
AcDbLine
 10
141.144821
 20
-38.807031
 30
0.0
 11
141.821455
 21
-38.130397
 31
0.0
  0
LINE
  5
59E
100
AcDbEntity
  8
3
370
    25
100
AcDbLine
 10
143.175173
 20
-36.776679
 30
0.0
 11
143.351226
 21
-36.600627
 31
0.0
  0
LINE
  5
59F
100
AcDbEntity
  8
3
370
    25
100
AcDbLine
 10
140.758665
 20
-38.627502
 30
0.0
 11
140.947128
 21
-38.439039
 31
0.0
  0
LINE
  5
5A0
100
AcDbEntity
  8
3
370
    25
100
AcDbLine
 10
141.506445
 20
-37.879722
 30
0.0
 11
141.821455
 21
-37.564712
 31
0.0
  0
LINE
  5
5A1
100
AcDbEntity
  8
3
370
    25
100
AcDbLine
 10
142.799568
 20
-36.586599
 30
0.0
 11
142.990709
 21
-36.395458
 31
0.0
  0
LINE
  5
5A2
100
AcDbEntity
  8
3
370
    25
100
AcDbLine
 10
140.577252
 20
-38.24323
 30
0.0
 11
140.809418
 21
-38.011064
 31
0.0
  0
LINE
  5
5A3
100
AcDbEntity
  8
3
370
    25
100
AcDbLine
 10
141.506445
 20
-37.314037
 30
0.0
 11
141.599684
 21
-37.220797
 31
0.0
  0
LINE
  5
5A4
100
AcDbEntity
  8
3
370
    25
100
AcDbLine
 10
142.314204
 20
-36.506278
 30
0.0
 11
142.546378
 21
-36.274103
 31
0.0
  0
LINE
  5
5A5
100
AcDbEntity
  8
3
370
    25
100
AcDbLine
 10
140.596847
 20
-37.657949
 30
0.0
 11
141.033348
 21
-37.221448
 31
0.0
  0
LINE
  5
5A6
100
AcDbEntity
  8
3
370
    25
100
AcDbLine
 10
141.524587
 20
-36.730209
 30
0.0
 11
141.961098
 21
-36.293698
 31
0.0
  0
LINE
  5
5A7
100
AcDbEntity
  8
3
370
    50
100
AcDbLine
 10
162.261991
 20
-39.320865
 30
0.0
 11
162.261991
 21
-39.758379
 31
0.0
  0
LINE
  5
5A8
100
AcDbEntity
  8
3
370
    50
100
AcDbLine
 10
146.161595
 20
-37.424971
 30
0.0
 11
145.461573
 21
-37.424971
 31
0.0
  0
LINE
  5
5A9
100
AcDbEntity
  8
3
370
    50
100
AcDbLine
 10
164.712132
 20
-37.424971
 30
0.0
 11
164.012109
 21
-38.637445
 31
0.0
  0
LINE
  5
5AA
100
AcDbEntity
  8
3
370
    50
100
AcDbLine
 10
163.312087
 20
-37.424971
 30
0.0
 11
164.012109
 21
-38.637445
 31
0.0
  0
LINE
  5
5AB
100
AcDbEntity
  8
3
370
    50
100
AcDbLine
 10
145.811584
 20
-37.424971
 30
0.0
 11
145.811584
 21
-39.058356
 31
0.0
  0
LINE
  5
5AC
100
AcDbEntity
  8
3
370
    50
100
AcDbLine
 10
148.611674
 20
-37.424971
 30
0.0
 11
149.311697
 21
-37.424971
 31
0.0
  0
LINE
  5
5AD
100
AcDbEntity
  8
3
370
    50
100
AcDbLine
 10
147.211629
 20
-37.424971
 30
0.0
 11
146.511606
 21
-37.424971
 31
0.0
  0
LINE
  5
5AE
100
AcDbEntity
  8
3
370
    50
100
AcDbLine
 10
146.861618
 20
-37.424971
 30
0.0
 11
147.273061
 21
-39.758379
 31
0.0
  0
LINE
  5
5AF
100
AcDbEntity
  8
3
370
    50
100
AcDbLine
 10
147.273061
 20
-39.758379
 30
0.0
 11
147.911652
 21
-38.003865
 31
0.0
  0
LINE
  5
5B0
100
AcDbEntity
  8
3
370
    50
100
AcDbLine
 10
148.550243
 20
-39.758379
 30
0.0
 11
147.911652
 21
-38.003865
 31
0.0
  0
LINE
  5
5B1
100
AcDbEntity
  8
3
370
    50
100
AcDbLine
 10
148.961686
 20
-37.424971
 30
0.0
 11
148.550243
 21
-39.758379
 31
0.0
  0
ARC
  5
5B2
100
AcDbEntity
  8
3
370
    50
100
AcDbCircle
 10
145.111561
 20
-39.058356
 30
0.0
 40
0.700023
100
AcDbArc
 50
180.0
 51
360.0
  0
LINE
  5
5B3
100
AcDbEntity
  8
3
370
    50
100
AcDbLine
 10
140.561414
 20
-35.258234
 30
0.0
 11
164.562189
 21
-35.258234
 31
0.0
  0
LINE
  5
5B4
100
AcDbEntity
  8
3
370
    50
100
AcDbLine
 10
140.561414
 20
-40.758411
 30
0.0
 11
164.562189
 21
-40.758411
 31
0.0
  0
POINT
  5
5B5
100
AcDbEntity
  8
3
370
    50
100
AcDbPoint
 10
142.311471
 20
-38.008322
 30
0.0
  0
LINE
  5
5B6
100
AcDbEntity
  8
3
370
    50
100
AcDbLine
 10
139.561382
 20
-39.758379
 30
0.0
 11
139.561382
 21
-36.258266
 31
0.0
  0
LINE
  5
5B7
100
AcDbEntity
  8
3
370
    50
100
AcDbLine
 10
165.562221
 20
-39.758379
 30
0.0
 11
165.562221
 21
-36.258266
 31
0.0
  0
HATCH
  5
5B8
100
AcDbEntity
  8
3
370
    25
100
AcDbHatch
 10
0.0
 20
0.0
 30
0.0
210
0.0
220
0.0
230
1.0
  2
_U
 70
     0
 71
     1
 91
        1
 92
        1
 93
        5
 72
     1
 10
152.81168600000001
 20
-37.133293999999999
 11
152.81168600000001
 21
-36.695779999999999
 72
     2
 10
152.37417099999999
 20
-36.695779999999999
 40
0.437514
 50
0.0
 51
90.0
 73
     1
 72
     1
 10
152.37417099999999
 20
-36.258265999999999
 11
150.011595
 21
-36.258265999999999
 72
     1
 10
150.011595
 20
-36.258265999999999
 11
150.011595
 21
-37.133293999999999
 72
     1
 10
150.011595
 20
-37.133293999999999
 11
152.81168600000001
 21
-37.133293999999999
 97
        5
330
0
330
0
330
0
330
0
330
0
 75
     0
 76
     0
 52
45.0
 41
1.0
 77
     0
 78
     1
 53
45.0
 43
0.0
 44
0.0
 45
-0.282843
 46
0.282843
 79
     0
 98
        1
 10
0.0
 20
0.0
  0
HATCH
  5
5B9
100
AcDbEntity
  8
3
370
    25
100
AcDbHatch
 10
0.0
 20
0.0
 30
0.0
210
0.0
220
0.0
230
1.0
  2
_U
 70
     0
 71
     1
 91
        1
 92
        1
 93
        5
 72
     2
 10
152.37417099999999
 20
-38.143597
 40
0.437514
 50
0.0
 51
82.0
 73
     1
 72
     1
 10
152.43506199999999
 20
-37.710341
 11
150.011595
 21
-37.369745000000002
 72
     1
 10
150.011595
 20
-37.369745000000002
 11
150.011595
 21
-38.253373000000003
 72
     1
 10
150.011595
 20
-38.253373000000003
 11
152.81168600000001
 21
-38.646900000000002
 72
     1
 10
152.81168600000001
 20
-38.646900000000002
 11
152.81168600000001
 21
-38.143597
 97
        5
330
0
330
0
330
0
330
0
330
0
 75
     0
 76
     0
 52
45.0
 41
1.0
 77
     0
 78
     1
 53
45.0
 43
0.0
 44
0.0
 45
-0.282843
 46
0.282843
 79
     0
 98
        1
 10
0.0
 20
0.0
  0
HATCH
  5
5BA
100
AcDbEntity
  8
3
370
    25
100
AcDbHatch
 10
0.0
 20
0.0
 30
0.0
210
0.0
220
0.0
230
1.0
  2
_U
 70
     0
 71
     1
 91
        1
 92
        1
 93
        5
 72
     2
 10
152.37417099999999
 20
-39.320864999999998
 40
0.437514
 50
0.0
 51
90.0
 73
     1
 72
     1
 10
152.37417099999999
 20
-38.883350999999998
 11
150.011595
 21
-38.883350999999998
 72
     1
 10
150.011595
 20
-38.883350999999998
 11
150.011595
 21
-39.758378999999998
 72
     1
 10
150.011595
 20
-39.758378999999998
 11
152.81168600000001
 21
-39.758378999999998
 72
     1
 10
152.81168600000001
 20
-39.758378999999998
 11
152.81168600000001
 21
-39.320864999999998
 97
        5
330
0
330
0
330
0
330
0
330
0
 75
     0
 76
     0
 52
45.0
 41
1.0
 77
     0
 78
     1
 53
45.0
 43
0.0
 44
0.0
 45
-0.282843
 46
0.282843
 79
     0
 98
        1
 10
0.0
 20
0.0
  0
LINE
  5
5BB
100
AcDbEntity
  8
3
370
    25
100
AcDbLine
 10
154.911753
 20
-37.133294
 30
0.0
 11
155.658637
 21
-36.386411
 31
0.0
  0
LINE
  5
5BC
100
AcDbEntity
  8
3
370
    25
100
AcDbLine
 10
153.2492
 20
-39.361533
 30
0.0
 11
153.727382
 21
-38.883351
 31
0.0
  0
LINE
  5
5BD
100
AcDbEntity
  8
3
370
    25
100
AcDbLine
 10
154.911753
 20
-37.69898
 30
0.0
 11
155.786782
 21
-36.823951
 31
0.0
  0
LINE
  5
5BE
100
AcDbEntity
  8
3
370
    25
100
AcDbLine
 10
153.418039
 20
-39.758379
 30
0.0
 11
154.550813
 21
-38.625606
 31
0.0
  0
LINE
  5
5BF
100
AcDbEntity
  8
3
370
    25
100
AcDbLine
 10
154.654008
 20
-38.52241
 30
0.0
 11
155.786782
 21
-37.389637
 31
0.0
  0
LINE
  5
5C0
100
AcDbEntity
  8
3
370
    25
100
AcDbLine
 10
153.987862
 20
-39.754242
 30
0.0
 11
155.782644
 21
-37.95946
 31
0.0
  0
LINE
  5
5C1
100
AcDbEntity
  8
3
370
    25
100
AcDbLine
 10
154.785588
 20
-39.522202
 30
0.0
 11
155.843618
 21
-38.464171
 31
0.0
  0
LINE
  5
5C2
100
AcDbEntity
  8
3
370
    25
100
AcDbLine
 10
155.551315
 20
-39.322159
 30
0.0
 11
156.19552
 21
-38.677955
 31
0.0
  0
LINE
  5
5C3
100
AcDbEntity
  8
3
370
    25
100
AcDbLine
 10
155.923784
 20
-39.515376
 30
0.0
 11
156.612656
 21
-38.826504
 31
0.0
  0
LINE
  5
5C4
100
AcDbEntity
  8
3
370
    25
100
AcDbLine
 10
156.344042
 20
-39.660804
 30
0.0
 11
157.119943
 21
-38.884902
 31
0.0
  0
LINE
  5
5C5
100
AcDbEntity
  8
3
370
    25
100
AcDbLine
 10
156.824198
 20
-39.746333
 30
0.0
 11
157.186827
 21
-39.383704
 31
0.0
  0
LINE
  5
5C6
100
AcDbEntity
  8
3
370
    25
100
AcDbLine
 10
155.221096
 20
-36.258266
 30
0.0
 11
154.346068
 21
-37.133294
 31
0.0
  0
LINE
  5
5C7
100
AcDbEntity
  8
3
370
    25
100
AcDbLine
 10
154.655411
 20
-36.258266
 30
0.0
 11
153.780382
 21
-37.133294
 31
0.0
  0
LINE
  5
5C8
100
AcDbEntity
  8
3
370
    25
100
AcDbLine
 10
154.089725
 20
-36.258266
 30
0.0
 11
153.686714
 21
-36.661277
 31
0.0
  0
HATCH
  5
5C9
100
AcDbEntity
  8
3
370
    25
100
AcDbHatch
 10
0.0
 20
0.0
 30
0.0
210
0.0
220
0.0
230
1.0
  2
_U
 70
     0
 71
     1
 91
        1
 92
        1
 93
        1
 72
     2
 10
156.04929000000001
 20
-36.520774000000003
 40
0.262508
 50
0.0
 51
360.0
 73
     1
 97
        1
330
0
 75
     0
 76
     0
 52
45.0
 41
1.0
 77
     0
 78
     1
 53
45.0
 43
0.0
 44
0.0
 45
-0.282843
 46
0.282843
 79
     0
 98
        1
 10
0.0
 20
0.0
  0
HATCH
  5
5CA
100
AcDbEntity
  8
3
370
    25
100
AcDbHatch
 10
0.0
 20
0.0
 30
0.0
210
0.0
220
0.0
230
1.0
  2
_U
 70
     0
 71
     1
 91
        1
 92
        1
 93
        1
 72
     2
 10
156.574307
 20
-36.520774000000003
 40
0.262508
 50
0.0
 51
360.0
 73
     1
 97
        1
330
0
 75
     0
 76
     0
 52
45.0
 41
1.0
 77
     0
 78
     1
 53
45.0
 43
0.0
 44
0.0
 45
-0.282843
 46
0.282843
 79
     0
 98
        1
 10
0.0
 20
0.0
  0
LINE
  5
5CB
100
AcDbEntity
  8
3
370
    25
100
AcDbLine
 10
161.386962
 20
-37.133294
 30
0.0
 11
162.133846
 21
-36.386411
 31
0.0
  0
LINE
  5
5CC
100
AcDbEntity
  8
3
370
    25
100
AcDbLine
 10
161.952648
 20
-37.133294
 30
0.0
 11
162.261991
 21
-36.823951
 31
0.0
  0
LINE
  5
5CD
100
AcDbEntity
  8
3
370
    25
100
AcDbLine
 10
161.696305
 20
-36.258266
 30
0.0
 11
160.821277
 21
-37.133294
 31
0.0
  0
LINE
  5
5CE
100
AcDbEntity
  8
3
370
    25
100
AcDbLine
 10
161.13062
 20
-36.258266
 30
0.0
 11
160.255591
 21
-37.133294
 31
0.0
  0
LINE
  5
5CF
100
AcDbEntity
  8
3
370
    25
100
AcDbLine
 10
160.564934
 20
-36.258266
 30
0.0
 11
160.161923
 21
-36.661277
 31
0.0
  0
HATCH
  5
5D0
100
AcDbEntity
  8
3
370
    25
100
AcDbHatch
 10
0.0
 20
0.0
 30
0.0
210
0.0
220
0.0
230
1.0
  2
_U
 70
     0
 71
     1
 91
        1
 92
        1
 93
        5
 72
     2
 10
161.824476
 20
-39.320864999999998
 40
0.437514
 50
0.0
 51
90.0
 73
     1
 72
     1
 10
161.824476
 20
-38.883350999999998
 11
160.161923
 21
-38.883350999999998
 72
     1
 10
160.161923
 20
-38.883350999999998
 11
160.161923
 21
-39.758378999999998
 72
     1
 10
160.161923
 20
-39.758378999999998
 11
162.26199099999999
 21
-39.758378999999998
 72
     1
 10
162.26199099999999
 20
-39.758378999999998
 11
162.26199099999999
 21
-39.320864999999998
 97
        5
330
0
330
0
330
0
330
0
330
0
 75
     0
 76
     0
 52
45.0
 41
1.0
 77
     0
 78
     1
 53
45.0
 43
0.0
 44
0.0
 45
-0.282843
 46
0.282843
 79
     0
 98
        1
 10
0.0
 20
0.0
  0
LINE
  5
5D1
100
AcDbEntity
  8
3
370
    25
100
AcDbLine
 10
158.324363
 20
-37.658311
 30
0.0
 11
158.499369
 21
-37.483306
 31
0.0
  0
LINE
  5
5D2
100
AcDbEntity
  8
3
370
    25
100
AcDbLine
 10
158.84938
 20
-37.133294
 30
0.0
 11
159.596264
 21
-36.386411
 31
0.0
  0
LINE
  5
5D3
100
AcDbEntity
  8
3
370
    25
100
AcDbLine
 10
157.624341
 20
-38.924019
 30
0.0
 11
157.665009
 21
-38.883351
 31
0.0
  0
LINE
  5
5D4
100
AcDbEntity
  8
3
370
    25
100
AcDbLine
 10
158.324363
 20
-38.223997
 30
0.0
 11
159.724409
 21
-36.823951
 31
0.0
  0
LINE
  5
5D5
100
AcDbEntity
  8
3
370
    25
100
AcDbLine
 10
157.624341
 20
-39.489705
 30
0.0
 11
158.48844
 21
-38.625606
 31
0.0
  0
LINE
  5
5D6
100
AcDbEntity
  8
3
370
    25
100
AcDbLine
 10
158.591635
 20
-38.52241
 30
0.0
 11
159.724409
 21
-37.389637
 31
0.0
  0
LINE
  5
5D7
100
AcDbEntity
  8
3
370
    25
100
AcDbLine
 10
157.925489
 20
-39.754242
 30
0.0
 11
159.720271
 21
-37.95946
 31
0.0
  0
LINE
  5
5D8
100
AcDbEntity
  8
3
370
    25
100
AcDbLine
 10
158.723215
 20
-39.522202
 30
0.0
 11
159.488231
 21
-38.757185
 31
0.0
  0
LINE
  5
5D9
100
AcDbEntity
  8
3
370
    25
100
AcDbLine
 10
157.758678
 20
-37.658311
 30
0.0
 11
157.918957
 21
-37.498032
 31
0.0
  0
LINE
  5
5DA
100
AcDbEntity
  8
3
370
    25
100
AcDbLine
 10
158.283695
 20
-37.133294
 30
0.0
 11
159.158723
 21
-36.258266
 31
0.0
  0
LINE
  5
5DB
100
AcDbEntity
  8
3
370
    25
100
AcDbLine
 10
157.192993
 20
-37.658311
 30
0.0
 11
158.593038
 21
-36.258266
 31
0.0
  0
LINE
  5
5DC
100
AcDbEntity
  8
3
370
    25
100
AcDbLine
 10
157.073817
 20
-37.211801
 30
0.0
 11
158.027352
 21
-36.258266
 31
0.0
  0
ARC
  5
5DD
100
AcDbEntity
  8
3
370
    50
100
AcDbCircle
 10
140.561414
 20
-36.258266
 30
0.0
 40
1.000032
100
AcDbArc
 50
90.0
 51
180.0
  0
ARC
  5
5DE
100
AcDbEntity
  8
3
370
    50
100
AcDbCircle
 10
140.561414
 20
-39.758379
 30
0.0
 40
1.000032
100
AcDbArc
 50
180.0
 51
270.0
  0
ARC
  5
5DF
100
AcDbEntity
  8
3
370
    50
100
AcDbCircle
 10
164.562189
 20
-36.258266
 30
0.0
 40
1.000032
100
AcDbArc
 50
0.0
 51
90.0
  0
ARC
  5
5E0
100
AcDbEntity
  8
3
370
    50
100
AcDbCircle
 10
164.562189
 20
-39.758379
 30
0.0
 40
1.000032
100
AcDbArc
 50
270.0
 51
360.0
  0
DIMENSION
  5
5E1
100
AcDbEntity
  8
3
370
    25
100
AcDbDimension
  2
*D8
 10
46.521736
 20
8.960839
 30
0.0
 11
35.021736
 21
-13.039161
 31
0.0
 70
     1
 71
     0
 72
     0
 41
0.0
 42
0.0
  3
Standard
100
AcDbAlignedDimension
 13
46.521736
 23
27.960839
 33
0.0
 14
46.521736
 24
8.960839
 34
0.0
 50
270.0
  0
TEXT
  5
5E2
100
AcDbEntity
  8
3
370
    50
100
AcDbText
 10
65.195799
 20
-227.117035
 30
0.0
 40
7.0
  1
台付シングルレバー湯水混合水栓（共）
 72
     5
 11
189.795799
 21
-227.117035
 31
0.0
100
AcDbText
  0
LWPOLYLINE
  5
5E3
100
AcDbEntity
  8
3
370
    25
100
AcDbPolyline
 90
        3
 70
     0
 10
-271.824251
 20
-203.876953
 10
-253.210007
 20
-189.060913
 10
-239.163513
 20
-189.060913
  0
LINE
  5
5E8
100
AcDbEntity
  8
3
370
    25
100
AcDbLine
 10
-268.801245
 20
-201.470786
 30
0.0
 11
-269.445975
 21
-200.660774
 31
0.0
  0
LINE
  5
5E9
100
AcDbEntity
  8
3
370
    25
100
AcDbLine
 10
-269.445975
 20
-200.660774
 30
0.0
 11
-271.824251
 21
-203.876953
 31
0.0
  0
LINE
  5
5EA
100
AcDbEntity
  8
3
370
    25
100
AcDbLine
 10
-271.824251
 20
-203.876953
 30
0.0
 11
-268.156514
 21
-202.280798
 31
0.0
  0
LINE
  5
5EB
100
AcDbEntity
  8
3
370
    25
100
AcDbLine
 10
-268.156514
 20
-202.280798
 30
0.0
 11
-268.801245
 21
-201.470786
 31
0.0
  0
LWPOLYLINE
  5
5EC
100
AcDbEntity
  8
3
370
    25
100
AcDbPolyline
 90
        3
 70
     0
 10
-269.823997
 20
-218.252228
 10
-253.896301
 20
-209.36261
 10
-237.984253
 20
-209.36261
  0
LINE
  5
5F1
100
AcDbEntity
  8
3
370
    25
100
AcDbLine
 10
-266.450197
 20
-216.369231
 30
0.0
 11
-266.954744
 21
-215.465224
 31
0.0
  0
LINE
  5
5F2
100
AcDbEntity
  8
3
370
    25
100
AcDbLine
 10
-266.954744
 20
-215.465224
 30
0.0
 11
-269.823997
 21
-218.252228
 31
0.0
  0
LINE
  5
5F3
100
AcDbEntity
  8
3
370
    25
100
AcDbLine
 10
-269.823997
 20
-218.252228
 30
0.0
 11
-265.945649
 21
-217.273238
 31
0.0
  0
LINE
  5
5F4
100
AcDbEntity
  8
3
370
    25
100
AcDbLine
 10
-265.945649
 20
-217.273238
 30
0.0
 11
-266.450197
 21
-216.369231
 31
0.0
  0
LWPOLYLINE
  5
5F5
100
AcDbEntity
  8
3
370
    25
100
AcDbPolyline
 90
        3
 70
     0
 10
-210.448311
 20
-218.252228
 10
-226.376007
 20
-209.36261
 10
-242.288055
 20
-209.36261
  0
LINE
  5
5FA
100
AcDbEntity
  8
3
370
    25
100
AcDbLine
 10
-213.822112
 20
-216.369231
 30
0.0
 11
-214.326659
 21
-217.273238
 31
0.0
  0
LINE
  5
5FB
100
AcDbEntity
  8
3
370
    25
100
AcDbLine
 10
-214.326659
 20
-217.273238
 30
0.0
 11
-210.448311
 21
-218.252228
 31
0.0
  0
LINE
  5
5FC
100
AcDbEntity
  8
3
370
    25
100
AcDbLine
 10
-210.448311
 20
-218.252228
 30
0.0
 11
-213.317564
 21
-215.465224
 31
0.0
  0
LINE
  5
5FD
100
AcDbEntity
  8
3
370
    25
100
AcDbLine
 10
-213.317564
 20
-215.465224
 30
0.0
 11
-213.822112
 21
-216.369231
 31
0.0
  0
LWPOLYLINE
  5
5FE
100
AcDbEntity
  8
3
370
    25
100
AcDbPolyline
 90
        3
 70
     0
 10
-208.448058
 20
-203.876953
 10
-227.062302
 20
-189.060913
 10
-241.108795
 20
-189.060913
  0
LINE
  5
603
100
AcDbEntity
  8
3
370
    25
100
AcDbLine
 10
-211.471064
 20
-201.470786
 30
0.0
 11
-212.115794
 21
-202.280798
 31
0.0
  0
LINE
  5
604
100
AcDbEntity
  8
3
370
    25
100
AcDbLine
 10
-212.115794
 20
-202.280798
 30
0.0
 11
-208.448058
 21
-203.876953
 31
0.0
  0
LINE
  5
605
100
AcDbEntity
  8
3
370
    25
100
AcDbLine
 10
-208.448058
 20
-203.876953
 30
0.0
 11
-210.826333
 21
-200.660774
 31
0.0
  0
LINE
  5
606
100
AcDbEntity
  8
3
370
    25
100
AcDbLine
 10
-210.826333
 20
-200.660774
 30
0.0
 11
-211.471064
 21
-201.470786
 31
0.0
  0
TEXT
  5
607
100
AcDbEntity
  8
3
370
    50
100
AcDbText
 10
-184.499557
 20
-124.141075
 30
0.0
 40
7.0
  1
青色
 72
     5
 11
-171.899557
 21
-124.141075
 31
0.0
100
AcDbText
  0
TEXT
  5
608
100
AcDbEntity
  8
3
370
    50
100
AcDbText
 10
-191.524704
 20
-132.332573
 30
0.0
 40
7.0
  1
（給水接続の表示）
 72
     5
 11
-129.924704
 21
-132.332573
 31
0.0
100
AcDbText
  0
HATCH
  5
609
100
AcDbEntity
  8
3
370
    25
100
AcDbHatch
 10
0.0
 20
0.0
 30
0.0
210
0.0
220
0.0
230
1.0
  2
_U
 70
     0
 71
     1
 91
        1
 92
        1
 93
        4
 72
     1
 10
-289.72425099999998
 20
-149.435349
 11
-275.92425100000003
 21
-149.435349
 72
     1
 10
-275.92425100000003
 20
-149.435349
 11
-275.92425100000003
 21
-159.435349
 72
     1
 10
-275.92425100000003
 20
-159.435349
 11
-289.72425099999998
 21
-159.435349
 72
     1
 10
-289.72425099999998
 20
-159.435349
 11
-289.72425099999998
 21
-149.435349
 97
        4
330
0
330
0
330
0
330
0
 75
     0
 76
     0
 52
45.0
 41
1.0
 77
     0
 78
     1
 53
45.0
 43
0.0
 44
0.0
 45
-0.424264
 46
0.424264
 79
     0
 98
        1
 10
0.0
 20
0.0
  0
HATCH
  5
60A
100
AcDbEntity
  8
3
370
    25
100
AcDbHatch
 10
0.0
 20
0.0
 30
0.0
210
0.0
220
0.0
230
1.0
  2
_U
 70
     0
 71
     1
 91
        1
 92
        1
 93
        4
 72
     1
 10
-190.548565
 20
-149.435157
 11
-204.34856500000001
 21
-149.435157
 72
     1
 10
-204.34856500000001
 20
-149.435157
 11
-204.34856500000001
 21
-159.435157
 72
     1
 10
-204.34856500000001
 20
-159.435157
 11
-190.548565
 21
-159.435157
 72
     1
 10
-190.548565
 20
-159.435157
 11
-190.548565
 21
-149.435157
 97
        4
330
0
330
0
330
0
330
0
 75
     0
 76
     0
 52
135.0
 41
1.0
 77
     0
 78
     1
 53
135.0
 43
0.0
 44
0.0
 45
-1.0606599999999999
 46
-1.0606599999999999
 79
     0
 98
        1
 10
0.0
 20
0.0
  0
LWPOLYLINE
  5
60B
100
AcDbEntity
  8
3
370
    25
100
AcDbPolyline
 90
        2
 70
     0
 10
-192.583176
 20
-152.9655
 10
-174.900467
 20
-133.349213
  0
LWPOLYLINE
  5
60F
100
AcDbEntity
  8
3
370
    25
100
AcDbPolyline
 90
        2
 70
     0
 10
-284.565796
 20
-153.80481
 10
-309.874908
 20
-133.484344
  0
TEXT
  5
613
100
AcDbEntity
  8
3
370
    50
100
AcDbText
 10
-112.92794
 20
-172.487313
 30
0.0
 40
7.0
  1
４１０（水側、湯側）
 50
90.0
 72
     5
 11
-112.92794
 21
-103.887313
 31
0.0
100
AcDbText
  0
DIMENSION
  5
614
100
AcDbEntity
  8
3
370
    25
100
AcDbDimension
  2
*D9
 10
-111.92794
 20
-56.539161
 30
0.0
 11
-114.42794
 21
-137.487313
 31
0.0
 71
     0
 72
     0
 41
0.0
 42
0.0
  3
Standard
100
AcDbAlignedDimension
 13
-197.448311
 23
-218.435465
 33
0.0
 14
-216.636154
 24
-56.539161
 34
0.0
 50
90.0
100
AcDbRotatedDimension
  0
TEXT
  5
615
100
AcDbEntity
  8
3
370
    50
100
AcDbText
 10
-50.753769
 20
1.260839
 30
0.0
 40
7.0
  1
１３６
 50
90.0
 72
     5
 11
-50.753769
 21
20.860839
 31
0.0
100
AcDbText
  0
DIMENSION
  5
616
100
AcDbEntity
  8
3
370
    25
100
AcDbDimension
  2
*D10
 10
-49.753769
 20
80.060839
 30
0.0
 11
-52.253769
 21
11.760839
 31
0.0
 71
     0
 72
     0
 41
0.0
 42
0.0
  3
Standard
100
AcDbAlignedDimension
 13
80.271976
 23
-56.539161
 33
0.0
 14
27.772154
 24
80.060839
 34
0.0
 50
90.0
100
AcDbRotatedDimension
  0
LINE
  5
617
100
AcDbEntity
  8
3
370
    50
100
AcDbLine
 10
316.630437
 20
-29.187543
 30
0.0
 11
316.630437
 21
-41.187543
 31
0.0
  0
TEXT
  5
618
100
AcDbEntity
  8
3
370
    50
100
AcDbText
 10
-281.069046
 20
-46.700358
 30
0.0
 40
7.0
  1
取付穴径　φ３７
 50
90.0
 72
     5
 11
-281.069046
 21
7.899642
 31
0.0
100
AcDbText
  0
TEXT
  5
619
100
AcDbEntity
  8
3
370
    50
100
AcDbText
 10
-284.569046
 20
9.299642
 30
0.0
 40
3.5
  1
＋１
 50
90.0
 72
     5
 11
-284.569046
 21
15.599642
 31
0.0
100
AcDbText
  0
TEXT
  5
61A
100
AcDbEntity
  8
3
370
    50
100
AcDbText
 10
-281.069046
 20
9.299642
 30
0.0
 40
3.5
  1
－２
 50
90.0
 72
     5
 11
-281.069046
 21
15.599642
 31
0.0
100
AcDbText
  0
TEXT
  5
61B
100
AcDbEntity
  8
3
370
    50
100
AcDbText
 10
64.855337
 20
-235.628509
 30
0.0
 40
7.0
  1
ＭＬＺ５５２ＭＭＸＥ
 72
     5
 11
133.455337
 21
-235.628509
 31
0.0
100
AcDbText
  0
TEXT
  5
61C
100
AcDbEntity
  8
3
370
    50
100
AcDbText
 10
357.925385
 20
-240.051102
 30
0.0
 40
7.0
  1
小野　山中
 72
     5
 11
391.525385
 21
-240.051102
 31
0.0
100
AcDbText
  0
TEXT
  5
61D
100
AcDbEntity
  8
3
370
    50
100
AcDbText
 10
343.092163
 20
-256.049408
 30
0.0
 40
7.0
  1
１９　１０　１
 72
     5
 11
390.692163
 21
-256.049408
 31
0.0
100
AcDbText
  0
TEXT
  5
61E
100
AcDbEntity
  8
3
370
    50
100
AcDbText
 10
323.793304
 20
-273.13916
 30
0.0
 40
10.5
  1
１１０２２４
 72
     5
 11
384.693304
 21
-273.13916
 31
0.0
100
AcDbText
  0
POINT
  5
61F
100
AcDbEntity
  8
3
370
    50
100
AcDbPoint
 10
103.771976
 20
-17.698483
 30
0.0
  0
LINE
  5
620
100
AcDbEntity
  8
3
370
    50
100
AcDbLine
 10
88.771976
 20
-20.698483
 30
0.0
 11
88.771976
 21
-39.698483
 31
0.0
  0
LINE
  5
621
100
AcDbEntity
  8
3
370
    50
100
AcDbLine
 10
91.771976
 20
-17.698483
 30
0.0
 11
115.771976
 21
-17.698483
 31
0.0
  0
ARC
  5
622
100
AcDbEntity
  8
3
370
    50
100
AcDbCircle
 10
91.771976
 20
-20.698483
 30
0.0
 40
3.0
100
AcDbArc
 50
90.0
 51
180.0
  0
LINE
  5
623
100
AcDbEntity
  8
3
370
    50
100
AcDbLine
 10
118.771976
 20
-20.698483
 30
0.0
 11
118.771976
 21
-39.698483
 31
0.0
  0
LINE
  5
624
100
AcDbEntity
  8
3
370
    50
100
AcDbLine
 10
91.771976
 20
-42.698483
 30
0.0
 11
115.771976
 21
-42.698483
 31
0.0
  0
ARC
  5
625
100
AcDbEntity
  8
3
370
    50
100
AcDbCircle
 10
115.771976
 20
-20.698483
 30
0.0
 40
3.0
100
AcDbArc
 50
0.0
 51
90.0
  0
ARC
  5
626
100
AcDbEntity
  8
3
370
    50
100
AcDbCircle
 10
115.771976
 20
-39.698483
 30
0.0
 40
3.0
100
AcDbArc
 50
270.0
 51
360.0
  0
ARC
  5
627
100
AcDbEntity
  8
3
370
    50
100
AcDbCircle
 10
91.771976
 20
-39.698483
 30
0.0
 40
3.0
100
AcDbArc
 50
180.0
 51
270.0
  0
POINT
  5
628
100
AcDbEntity
  8
3
370
    50
100
AcDbPoint
 10
103.771976
 20
-17.698483
 30
0.0
  0
TEXT
  5
629
100
AcDbEntity
  8
3
370
    50
100
AcDbText
 10
131.470979
 20
-6.422275
 30
0.0
 40
7.0
  1
（節湯Ｃ１表示）
 72
     5
 11
186.070979
 21
-6.422275
 31
0.0
100
AcDbText
  0
POINT
  5
62A
100
AcDbEntity
  8
3
370
    50
100
AcDbPoint
 10
159.045547
 20
31.347134
 30
0.0
  0
POINT
  5
62B
100
AcDbEntity
  8
3
370
    50
100
AcDbPoint
 10
159.045547
 20
28.347134
 30
0.0
  0
LINE
  5
62C
100
AcDbEntity
  8
3
370
    50
100
AcDbLine
 10
144.045547
 20
25.347134
 30
0.0
 11
144.045547
 21
6.347134
 31
0.0
  0
LINE
  5
62D
100
AcDbEntity
  8
3
370
    50
100
AcDbLine
 10
147.045547
 20
28.347134
 30
0.0
 11
171.045547
 21
28.347134
 31
0.0
  0
ARC
  5
62E
100
AcDbEntity
  8
3
370
    50
100
AcDbCircle
 10
147.045547
 20
25.347134
 30
0.0
 40
3.0
100
AcDbArc
 50
90.0
 51
180.0
  0
LINE
  5
62F
100
AcDbEntity
  8
3
370
    50
100
AcDbLine
 10
174.045547
 20
25.347134
 30
0.0
 11
174.045547
 21
6.347134
 31
0.0
  0
LINE
  5
630
100
AcDbEntity
  8
3
370
    50
100
AcDbLine
 10
147.045547
 20
3.347134
 30
0.0
 11
171.045547
 21
3.347134
 31
0.0
  0
ARC
  5
631
100
AcDbEntity
  8
3
370
    50
100
AcDbCircle
 10
171.045547
 20
25.347134
 30
0.0
 40
3.0
100
AcDbArc
 50
0.0
 51
90.0
  0
ARC
  5
632
100
AcDbEntity
  8
3
370
    50
100
AcDbCircle
 10
171.045547
 20
6.347134
 30
0.0
 40
3.0
100
AcDbArc
 50
270.0
 51
360.0
  0
ARC
  5
633
100
AcDbEntity
  8
3
370
    50
100
AcDbCircle
 10
147.045547
 20
6.347134
 30
0.0
 40
3.0
100
AcDbArc
 50
180.0
 51
270.0
  0
LINE
  5
634
100
AcDbEntity
  8
3
370
    50
100
AcDbLine
 10
162.32517
 20
25.057377
 30
0.0
 11
161.136448
 21
18.024805
 31
0.0
  0
LINE
  5
635
100
AcDbEntity
  8
3
370
    50
100
AcDbLine
 10
157.570284
 20
25.057377
 30
0.0
 11
158.759005
 21
18.024805
 31
0.0
  0
ARC
  5
636
100
AcDbEntity
  8
3
370
    50
100
AcDbCircle
 10
159.947727
 20
25.459238
 30
0.0
 40
2.411168
100
AcDbArc
 50
350.405932
 51
189.594068
  0
ARC
  5
637
100
AcDbEntity
  8
3
370
    50
100
AcDbCircle
 10
159.947727
 20
18.225736
 30
0.0
 40
1.205584
100
AcDbArc
 50
189.594068
 51
350.405932
  0
LINE
  5
638
100
AcDbEntity
  8
3
370
    50
  6
DASHED
100
AcDbLine
 10
157.017487
 20
26.164676
 30
0.0
 11
152.914958
 21
22.771485
 31
0.0
  0
ARC
  5
639
100
AcDbEntity
  8
3
370
    50
  6
DASHED
100
AcDbCircle
 10
153.68333
 20
21.842487
 30
0.0
 40
1.205584
100
AcDbArc
 50
129.594068
 51
290.405932
  0
LINE
  5
63A
100
AcDbEntity
  8
3
370
    50
  6
DASHED
100
AcDbLine
 10
157.480978
 20
21.968963
 30
0.0
 11
154.10368
 21
20.712559
 31
0.0
  0
LINE
  5
63B
100
AcDbEntity
  8
3
370
    50
  6
DASHED
100
AcDbLine
 10
162.853198
 20
24.564483
 30
0.0
 11
164.694407
 21
19.615191
 31
0.0
  0
ARC
  5
63C
100
AcDbEntity
  8
3
370
    50
  6
DASHED
100
AcDbCircle
 10
163.564478
 20
19.194841
 30
0.0
 40
1.205584
100
AcDbArc
 50
219.594068
 51
20.405932
  0
LINE
  5
63D
100
AcDbEntity
  8
3
370
    50
  6
DASHED
100
AcDbLine
 10
161.954794
 20
19.249451
 30
0.0
 11
162.63548
 21
18.42647
 31
0.0
  0
ARC
  5
63E
100
AcDbEntity
  8
3
370
    50
100
AcDbCircle
 10
159.947727
 20
25.459238
 30
0.0
 40
10.946661
100
AcDbArc
 50
270.0
 51
300.0
  0
ARC
  5
63F
100
AcDbEntity
  8
3
370
    50
100
AcDbCircle
 10
159.947727
 20
25.459238
 30
0.0
 40
9.741077
100
AcDbArc
 50
270.0
 51
300.0
  0
CIRCLE
  5
640
100
AcDbEntity
  8
3
370
    50
100
AcDbCircle
 10
150.989673
 20
20.287304
 30
0.0
 40
0.602792
  0
ARC
  5
641
100
AcDbEntity
  8
3
370
    50
100
AcDbCircle
 10
165.119661
 20
16.501185
 30
0.0
 40
0.602792
100
AcDbArc
 50
300.0
 51
120.0
  0
ARC
  5
642
100
AcDbEntity
  8
3
370
    50
100
AcDbCircle
 10
159.947727
 20
15.115369
 30
0.0
 40
0.602792
100
AcDbArc
 50
90.0
 51
270.0
  0
ARC
  5
643
100
AcDbEntity
  8
3
370
    50
100
AcDbCircle
 10
159.947727
 20
25.459238
 30
0.0
 40
9.741077
100
AcDbArc
 50
218.34082
 51
261.65918
  0
ARC
  5
644
100
AcDbEntity
  8
3
370
    50
100
AcDbCircle
 10
159.947727
 20
25.459238
 30
0.0
 40
10.946661
100
AcDbArc
 50
218.34082
 51
261.65918
  0
ARC
  5
645
100
AcDbEntity
  8
3
370
    50
100
AcDbCircle
 10
151.834672
 20
19.042543
 30
0.0
 40
0.602792
100
AcDbArc
 50
38.34082
 51
218.34082
  0
ARC
  5
646
100
AcDbEntity
  8
3
370
    50
100
AcDbCircle
 10
158.447233
 20
15.224779
 30
0.0
 40
0.602792
100
AcDbArc
 50
261.65918
 51
81.65918
  0
TEXT
  5
647
100
AcDbEntity
  8
3
370
    50
100
AcDbText
 10
148.846586
 20
4.53572
 30
0.0
 40
1.75
  1
レバー正面で　　が出ます
 72
     5
 11
169.496586
 21
4.53572
 31
0.0
100
AcDbText
  0
TEXT
  5
648
100
AcDbEntity
  8
3
370
    50
100
AcDbText
 10
164.433008
 20
7.581366
 30
0.0
 40
1.75
  1
でお知らせ
 72
     5
 11
172.833008
 21
7.581366
 31
0.0
100
AcDbText
  0
TEXT
  5
649
100
AcDbEntity
  8
3
370
    50
100
AcDbText
 10
152.207151
 20
7.050229
 30
0.0
 40
3.15
  1
クリック
 72
     5
 11
164.177151
 21
7.050229
 31
0.0
100
AcDbText
  0
TEXT
  5
64A
100
AcDbEntity
  8
3
370
    50
100
AcDbText
 10
159.605721
 20
3.86605
 30
0.0
 40
3.15
  1
水
 72
     5
 11
162.125721
 21
3.86605
 31
0.0
100
AcDbText
  0
LINE
  5
64B
100
AcDbEntity
  8
3
370
    50
100
AcDbLine
 10
159.947727
 20
14.211181
 30
0.0
 11
160.632881
 21
13.024459
 31
0.0
  0
LINE
  5
64C
100
AcDbEntity
  8
3
370
    50
100
AcDbLine
 10
159.947727
 20
14.211181
 30
0.0
 11
159.262573
 21
13.024459
 31
0.0
  0
LINE
  5
64D
100
AcDbEntity
  8
3
370
    50
100
AcDbLine
 10
157.994522
 20
14.382065
 30
0.0
 11
157.113705
 21
13.332347
 31
0.0
  0
LINE
  5
64E
100
AcDbEntity
  8
3
370
    50
100
AcDbLine
 10
157.994522
 20
14.382065
 30
0.0
 11
158.463195
 21
13.094396
 31
0.0
  0
LINE
  5
64F
100
AcDbEntity
  8
3
370
    50
100
AcDbLine
 10
157.113705
 20
13.332347
 30
0.0
 11
158.463195
 21
13.094396
 31
0.0
  0
LINE
  5
650
100
AcDbEntity
  8
3
370
    50
100
AcDbLine
 10
159.262573
 20
13.024459
 30
0.0
 11
160.632881
 21
13.024459
 31
0.0
  0
TEXT
  5
651
100
AcDbEntity
  8
3
370
    50
100
AcDbText
 10
145.492151
 20
10.713378
 30
0.0
 40
1.75
  1
湯の出始める位置を
 72
     5
 11
160.892151
 21
10.713378
 31
0.0
100
AcDbText
  0
LINE
  5
652
100
AcDbEntity
  8
3
370
    25
100
AcDbLine
 10
164.983829
 20
17.088473
 30
0.0
 11
162.780931
 21
14.885576
 31
0.0
  0
LINE
  5
653
100
AcDbEntity
  8
3
370
    25
100
AcDbLine
 10
165.264512
 20
17.086314
 30
0.0
 11
163.178352
 21
15.000154
 31
0.0
  0
LINE
  5
654
100
AcDbEntity
  8
3
370
    25
100
AcDbLine
 10
165.45985
 20
16.998809
 30
0.0
 11
163.601341
 21
15.1403
 31
0.0
  0
LINE
  5
655
100
AcDbEntity
  8
3
370
    25
100
AcDbLine
 10
165.603966
 20
16.860082
 30
0.0
 11
164.057044
 21
15.31316
 31
0.0
  0
LINE
  5
656
100
AcDbEntity
  8
3
370
    25
100
AcDbLine
 10
165.697968
 20
16.671242
 30
0.0
 11
164.557033
 21
15.530307
 31
0.0
  0
LINE
  5
657
100
AcDbEntity
  8
3
370
    25
100
AcDbLine
 10
165.714761
 20
16.405192
 30
0.0
 11
165.122515
 21
15.812946
 31
0.0
  0
LINE
  5
658
100
AcDbEntity
  8
3
370
    25
100
AcDbLine
 10
164.415869
 20
16.803356
 30
0.0
 11
162.404293
 21
14.79178
 31
0.0
  0
LINE
  5
659
100
AcDbEntity
  8
3
370
    25
100
AcDbLine
 10
163.874263
 20
16.544593
 30
0.0
 11
162.045042
 21
14.715372
 31
0.0
  0
LINE
  5
65A
100
AcDbEntity
  8
3
370
    25
100
AcDbLine
 10
163.395585
 20
16.348757
 30
0.0
 11
161.70067
 21
14.653842
 31
0.0
  0
LINE
  5
65B
100
AcDbEntity
  8
3
370
    25
100
AcDbLine
 10
162.9594
 20
16.195416
 30
0.0
 11
161.369254
 21
14.605269
 31
0.0
  0
LINE
  5
65C
100
AcDbEntity
  8
3
370
    25
100
AcDbLine
 10
162.554605
 20
16.073463
 30
0.0
 11
161.049285
 21
14.568143
 31
0.0
  0
LINE
  5
65D
100
AcDbEntity
  8
3
370
    25
100
AcDbLine
 10
162.174358
 20
15.976058
 30
0.0
 11
160.739552
 21
14.541253
 31
0.0
  0
LINE
  5
65E
100
AcDbEntity
  8
3
370
    25
100
AcDbLine
 10
161.814083
 20
15.898626
 30
0.0
 11
160.439066
 21
14.52361
 31
0.0
  0
LINE
  5
65F
100
AcDbEntity
  8
3
370
    25
100
AcDbLine
 10
161.470541
 20
15.837927
 30
0.0
 11
160.147005
 21
14.514391
 31
0.0
  0
LINE
  5
660
100
AcDbEntity
  8
3
370
    25
100
AcDbLine
 10
161.141337
 20
15.791566
 30
0.0
 11
159.867686
 21
14.517915
 31
0.0
  0
LINE
  5
661
100
AcDbEntity
  8
3
370
    25
100
AcDbLine
 10
160.824641
 20
15.757712
 30
0.0
 11
159.655228
 21
14.588299
 31
0.0
  0
LINE
  5
662
100
AcDbEntity
  8
3
370
    25
100
AcDbLine
 10
160.519013
 20
15.734928
 30
0.0
 11
159.498037
 21
14.713951
 31
0.0
  0
LINE
  5
663
100
AcDbEntity
  8
3
370
    25
100
AcDbLine
 10
160.223303
 20
15.72206
 30
0.0
 11
159.389398
 21
14.888155
 31
0.0
  0
LINE
  5
664
100
AcDbEntity
  8
3
370
    25
100
AcDbLine
 10
159.34504
 20
15.12664
 30
0.0
 11
159.936456
 21
15.718056
 31
0.0
  0
HATCH
  5
665
100
AcDbEntity
  8
3
370
    25
100
AcDbHatch
 10
0.0
 20
0.0
 30
0.0
210
0.0
220
0.0
230
1.0
  2
_U
 70
     0
 71
     1
 91
        1
 92
        1
 93
        3
 72
     1
 10
159.94772699999999
 20
14.211181
 11
160.632881
 21
13.024459
 72
     1
 10
160.632881
 20
13.024459
 11
159.262573
 21
13.024459
 72
     1
 10
159.262573
 20
13.024459
 11
159.94772699999999
 21
14.211181
 97
        3
330
0
330
0
330
0
 75
     0
 76
     0
 52
45.0
 41
1.0
 77
     0
 78
     1
 53
45.0
 43
0.0
 44
0.0
 45
-0.141421
 46
0.141421
 79
     0
 98
        1
 10
0.0
 20
0.0
  0
HATCH
  5
666
100
AcDbEntity
  8
3
370
    25
100
AcDbHatch
 10
0.0
 20
0.0
 30
0.0
210
0.0
220
0.0
230
1.0
  2
_U
 70
     0
 71
     1
 91
        1
 92
        1
 93
        3
 72
     1
 10
157.99452199999999
 20
14.382065000000001
 11
158.46319500000001
 21
13.094396
 72
     1
 10
158.46319500000001
 20
13.094396
 11
157.11370500000001
 21
13.332347
 72
     1
 10
157.11370500000001
 20
13.332347
 11
157.99452199999999
 21
14.382065000000001
 97
        3
330
0
330
0
330
0
 75
     0
 76
     0
 52
45.0
 41
1.0
 77
     0
 78
     1
 53
45.0
 43
0.0
 44
0.0
 45
-0.141421
 46
0.141421
 79
     0
 98
        1
 10
0.0
 20
0.0
  0
LINE
  5
667
100
AcDbEntity
  8
3
370
    25
100
AcDbLine
 10
155.360902
 20
16.865658
 30
0.0
 11
154.474396
 21
15.979152
 31
0.0
  0
LINE
  5
668
100
AcDbEntity
  8
3
370
    25
100
AcDbLine
 10
155.546984
 20
16.768896
 30
0.0
 11
154.655152
 21
15.877065
 31
0.0
  0
LINE
  5
669
100
AcDbEntity
  8
3
370
    25
100
AcDbLine
 10
155.736449
 20
16.675519
 30
0.0
 11
154.838822
 21
15.777892
 31
0.0
  0
LINE
  5
66A
100
AcDbEntity
  8
3
370
    25
100
AcDbLine
 10
155.929374
 20
16.585602
 30
0.0
 11
155.025454
 21
15.681681
 31
0.0
  0
LINE
  5
66B
100
AcDbEntity
  8
3
370
    25
100
AcDbLine
 10
156.125843
 20
16.499228
 30
0.0
 11
155.215105
 21
15.58849
 31
0.0
  0
LINE
  5
66C
100
AcDbEntity
  8
3
370
    25
100
AcDbLine
 10
156.325948
 20
16.41649
 30
0.0
 11
155.407835
 21
15.498377
 31
0.0
  0
LINE
  5
66D
100
AcDbEntity
  8
3
370
    25
100
AcDbLine
 10
156.529791
 20
16.33749
 30
0.0
 11
155.603709
 21
15.411408
 31
0.0
  0
LINE
  5
66E
100
AcDbEntity
  8
3
370
    25
100
AcDbLine
 10
156.737484
 20
16.262341
 30
0.0
 11
155.802799
 21
15.327656
 31
0.0
  0
LINE
  5
66F
100
AcDbEntity
  8
3
370
    25
100
AcDbLine
 10
156.949153
 20
16.191167
 30
0.0
 11
156.005185
 21
15.247199
 31
0.0
  0
LINE
  5
670
100
AcDbEntity
  8
3
370
    25
100
AcDbLine
 10
157.164937
 20
16.124108
 30
0.0
 11
156.210952
 21
15.170123
 31
0.0
  0
LINE
  5
671
100
AcDbEntity
  8
3
370
    25
100
AcDbLine
 10
157.384987
 20
16.061315
 30
0.0
 11
156.420193
 21
15.096522
 31
0.0
  0
LINE
  5
672
100
AcDbEntity
  8
3
370
    25
100
AcDbLine
 10
157.609476
 20
16.002962
 30
0.0
 11
156.633013
 21
15.026498
 31
0.0
  0
LINE
  5
673
100
AcDbEntity
  8
3
370
    25
100
AcDbLine
 10
157.838593
 20
15.949236
 30
0.0
 11
156.849523
 21
14.960166
 31
0.0
  0
LINE
  5
674
100
AcDbEntity
  8
3
370
    25
100
AcDbLine
 10
158.072552
 20
15.900352
 30
0.0
 11
157.069848
 21
14.897648
 31
0.0
  0
LINE
  5
675
100
AcDbEntity
  8
3
370
    25
100
AcDbLine
 10
158.311591
 20
15.856549
 30
0.0
 11
157.294122
 21
14.83908
 31
0.0
  0
LINE
  5
676
100
AcDbEntity
  8
3
370
    25
100
AcDbLine
 10
158.55563
 20
15.817745
 30
0.0
 11
157.522497
 21
14.784612
 31
0.0
  0
LINE
  5
677
100
AcDbEntity
  8
3
370
    25
100
AcDbLine
 10
158.760503
 20
15.739775
 30
0.0
 11
157.755138
 21
14.73441
 31
0.0
  0
LINE
  5
678
100
AcDbEntity
  8
3
370
    25
100
AcDbLine
 10
158.912096
 20
15.608525
 30
0.0
 11
157.992228
 21
14.688657
 31
0.0
  0
LINE
  5
679
100
AcDbEntity
  8
3
370
    25
100
AcDbLine
 10
159.014651
 20
15.428237
 30
0.0
 11
158.233972
 21
14.647558
 31
0.0
  0
LINE
  5
67A
100
AcDbEntity
  8
3
370
    25
100
AcDbLine
 10
158.492982
 20
14.623726
 30
0.0
 11
159.048287
 21
15.17903
 31
0.0
  0
LINE
  5
67B
100
AcDbEntity
  8
3
370
    25
100
AcDbLine
 10
155.178137
 20
16.965735
 30
0.0
 11
154.296508
 21
16.084106
 31
0.0
  0
LINE
  5
67C
100
AcDbEntity
  8
3
370
    25
100
AcDbLine
 10
154.998626
 20
17.069066
 30
0.0
 11
154.121445
 21
16.191886
 31
0.0
  0
LINE
  5
67D
100
AcDbEntity
  8
3
370
    25
100
AcDbLine
 10
154.822313
 20
17.175597
 30
0.0
 11
153.94917
 21
16.302454
 31
0.0
  0
LINE
  5
67E
100
AcDbEntity
  8
3
370
    25
100
AcDbLine
 10
154.649149
 20
17.285276
 30
0.0
 11
153.77965
 21
16.415776
 31
0.0
  0
LINE
  5
67F
100
AcDbEntity
  8
3
370
    25
100
AcDbLine
 10
154.479091
 20
17.398059
 30
0.0
 11
153.612853
 21
16.531822
 31
0.0
  0
LINE
  5
680
100
AcDbEntity
  8
3
370
    25
100
AcDbLine
 10
154.312097
 20
17.513909
 30
0.0
 11
153.448753
 21
16.650565
 31
0.0
  0
LINE
  5
681
100
AcDbEntity
  8
3
370
    25
100
AcDbLine
 10
154.148134
 20
17.632789
 30
0.0
 11
153.287326
 21
16.77198
 31
0.0
  0
LINE
  5
682
100
AcDbEntity
  8
3
370
    25
100
AcDbLine
 10
153.987173
 20
17.75467
 30
0.0
 11
153.128551
 21
16.896048
 31
0.0
  0
LINE
  5
683
100
AcDbEntity
  8
3
370
    25
100
AcDbLine
 10
153.829186
 20
17.879526
 30
0.0
 11
152.97241
 21
17.02275
 31
0.0
  0
LINE
  5
684
100
AcDbEntity
  8
3
370
    25
100
AcDbLine
 10
153.674153
 20
18.007335
 30
0.0
 11
152.818888
 21
17.15207
 31
0.0
  0
LINE
  5
685
100
AcDbEntity
  8
3
370
    25
100
AcDbLine
 10
153.522056
 20
18.138081
 30
0.0
 11
152.667972
 21
17.283998
 31
0.0
  0
LINE
  5
686
100
AcDbEntity
  8
3
370
    25
100
AcDbLine
 10
153.372882
 20
18.271749
 30
0.0
 11
152.519654
 21
17.418522
 31
0.0
  0
LINE
  5
687
100
AcDbEntity
  8
3
370
    25
100
AcDbLine
 10
153.22662
 20
18.40833
 30
0.0
 11
152.373926
 21
17.555636
 31
0.0
  0
LINE
  5
688
100
AcDbEntity
  8
3
370
    25
100
AcDbLine
 10
153.083264
 20
18.547817
 30
0.0
 11
152.230783
 21
17.695337
 31
0.0
  0
LINE
  5
689
100
AcDbEntity
  8
3
370
    25
100
AcDbLine
 10
152.942813
 20
18.690209
 30
0.0
 11
152.090225
 21
17.837621
 31
0.0
  0
LINE
  5
68A
100
AcDbEntity
  8
3
370
    25
100
AcDbLine
 10
152.805266
 20
18.835505
 30
0.0
 11
151.952251
 21
17.98249
 31
0.0
  0
LINE
  5
68B
100
AcDbEntity
  8
3
370
    25
100
AcDbLine
 10
152.67063
 20
18.983711
 30
0.0
 11
151.816866
 21
18.129948
 31
0.0
  0
LINE
  5
68C
100
AcDbEntity
  8
3
370
    25
100
AcDbLine
 10
152.538912
 20
19.134837
 30
0.0
 11
151.684076
 21
18.28
 31
0.0
  0
LINE
  5
68D
100
AcDbEntity
  8
3
370
    25
100
AcDbLine
 10
152.410126
 20
19.288893
 30
0.0
 11
151.553889
 21
18.432655
 31
0.0
  0
LINE
  5
68E
100
AcDbEntity
  8
3
370
    25
100
AcDbLine
 10
152.284287
 20
19.445897
 30
0.0
 11
152.283413
 21
19.445023
 31
0.0
  0
LINE
  5
68F
100
AcDbEntity
  8
3
370
    25
100
AcDbLine
 10
152.283413
 20
19.445023
 30
0.0
 11
151.426316
 21
18.587925
 31
0.0
  0
LINE
  5
690
100
AcDbEntity
  8
3
370
    25
100
AcDbLine
 10
151.306886
 20
18.751339
 30
0.0
 11
152.125877
 21
19.570329
 31
0.0
  0
LINE
  5
691
100
AcDbEntity
  8
3
370
    25
100
AcDbLine
 10
151.236983
 20
18.964278
 30
0.0
 11
151.912938
 21
19.640233
 31
0.0
  0
LINE
  5
692
100
AcDbEntity
  8
3
370
    25
100
AcDbLine
 10
151.289417
 20
19.299555
 30
0.0
 11
151.57766
 21
19.587798
 31
0.0
  0
HATCH
  5
693
100
AcDbEntity
  8
3
370
    25
100
AcDbHatch
 10
0.0
 20
0.0
 30
0.0
210
0.0
220
0.0
230
1.0
  2
_U
 70
     0
 71
     1
 91
        1
 92
        1
 93
        1
 72
     2
 10
150.98967300000001
 20
20.287303999999999
 40
0.602792
 50
0.0
 51
360.0
 73
     1
 97
        1
330
0
 75
     0
 76
     0
 52
45.0
 41
1.0
 77
     0
 78
     1
 53
45.0
 43
0.0
 44
0.0
 45
-0.141421
 46
0.141421
 79
     0
 98
        1
 10
0.0
 20
0.0
  0
POINT
  5
694
100
AcDbEntity
  8
3
370
    50
100
AcDbPoint
 10
159.045547
 20
28.347134
 30
0.0
  0
HATCH
  5
695
100
AcDbEntity
  8
3
370
    25
100
AcDbHatch
 10
0.0
 20
0.0
 30
0.0
210
0.0
220
0.0
230
1.0
  2
_U
 70
     0
 71
     1
 91
        1
 92
        1
 93
        8
 72
     2
 10
115.771976
 20
-20.698483
 40
3.0
 50
0.0
 51
90.0
 73
     1
 72
     1
 10
115.771976
 20
-17.698483
 11
91.771975999999995
 21
-17.698483
 72
     2
 10
91.771975999999995
 20
-20.698483
 40
3.0
 50
90.0
 51
180.0
 73
     1
 72
     1
 10
88.771975999999995
 20
-20.698483
 11
88.771975999999995
 21
-39.698483000000003
 72
     2
 10
91.771975999999995
 20
-39.698483000000003
 40
3.0
 50
180.0
 51
270.0
 73
     1
 72
     1
 10
91.771975999999995
 20
-42.698483000000003
 11
115.771976
 21
-42.698483000000003
 72
     2
 10
115.771976
 20
-39.698483000000003
 40
3.0
 50
270.0
 51
0.0
 73
     1
 72
     1
 10
118.771976
 20
-39.698483000000003
 11
118.771976
 21
-20.698483
 97
        8
330
0
330
0
330
0
330
0
330
0
330
0
330
0
330
0
 75
     0
 76
     0
 52
45.0
 41
1.0
 77
     0
 78
     1
 53
45.0
 43
0.0
 44
0.0
 45
-0.707107
 46
0.707107
 79
     0
 98
        1
 10
0.0
 20
0.0
  0
LWPOLYLINE
  5
696
100
AcDbEntity
  8
3
370
    25
100
AcDbPolyline
 90
        2
 70
     0
 10
111.508873
 20
-25.273785
 10
131.682617
 20
-4.603931
  0
LINE
  5
69A
100
AcDbEntity
  8
3
370
    25
100
AcDbLine
 10
114.20754
 20
-22.508753
 30
0.0
 11
113.466652
 21
-21.785647
 31
0.0
  0
LINE
  5
69B
100
AcDbEntity
  8
3
370
    25
100
AcDbLine
 10
113.466652
 20
-21.785647
 30
0.0
 11
111.508873
 21
-25.273785
 31
0.0
  0
LINE
  5
69C
100
AcDbEntity
  8
3
370
    25
100
AcDbLine
 10
111.508873
 20
-25.273785
 30
0.0
 11
114.948428
 21
-23.231858
 31
0.0
  0
LINE
  5
69D
100
AcDbEntity
  8
3
370
    25
100
AcDbLine
 10
114.948428
 20
-23.231858
 30
0.0
 11
114.20754
 21
-22.508753
 31
0.0
  0
LWPOLYLINE
  5
69E
100
AcDbEntity
  8
3
370
    25
100
AcDbPolyline
 90
        2
 70
     0
 10
111.344719
 20
-46.838959
 10
132.143539
 20
-45.619656
  0
LINE
  5
6A2
100
AcDbEntity
  8
3
370
    25
100
AcDbLine
 10
115.2018
 20
-46.612843
 30
0.0
 11
115.141212
 21
-45.579341
 31
0.0
  0
LINE
  5
6A3
100
AcDbEntity
  8
3
370
    25
100
AcDbLine
 10
115.141212
 20
-45.579341
 30
0.0
 11
111.344719
 21
-46.838959
 31
0.0
  0
LINE
  5
6A4
100
AcDbEntity
  8
3
370
    25
100
AcDbLine
 10
111.344719
 20
-46.838959
 30
0.0
 11
115.262388
 21
-47.646344
 31
0.0
  0
LINE
  5
6A5
100
AcDbEntity
  8
3
370
    25
100
AcDbLine
 10
115.262388
 20
-47.646344
 30
0.0
 11
115.2018
 21
-46.612843
 31
0.0
  0
TEXT
  5
6A6
100
AcDbEntity
  8
3
370
    50
100
AcDbText
 10
120.522293
 20
221.210754
 30
0.0
 40
7.0
  1
湯表示
 72
     5
 11
140.122293
 21
221.210754
 31
0.0
100
AcDbText
  0
LWPOLYLINE
  5
6A7
100
AcDbEntity
  8
3
370
    25
100
AcDbPolyline
 90
        2
 70
     0
 10
107.988739
 20
210.37323
 10
119.485504
 20
224.017944
  0
LINE
  5
6AB
100
AcDbEntity
  8
3
370
    25
100
AcDbLine
 10
110.478309
 20
213.327928
 30
0.0
 11
109.6866
 21
213.995007
 31
0.0
  0
LINE
  5
6AC
100
AcDbEntity
  8
3
370
    25
100
AcDbLine
 10
109.6866
 20
213.995007
 30
0.0
 11
107.988739
 21
210.37323
 31
0.0
  0
LINE
  5
6AD
100
AcDbEntity
  8
3
370
    25
100
AcDbLine
 10
107.988739
 20
210.37323
 30
0.0
 11
111.270018
 21
212.66085
 31
0.0
  0
LINE
  5
6AE
100
AcDbEntity
  8
3
370
    25
100
AcDbLine
 10
111.270018
 20
212.66085
 30
0.0
 11
110.478309
 21
213.327928
 31
0.0
  0
TEXT
  5
6AF
100
AcDbEntity
  8
3
370
    50
100
AcDbText
 10
122.14222
 20
164.082489
 30
0.0
 40
7.0
  1
水表示
 72
     5
 11
141.74222
 21
164.082489
 31
0.0
100
AcDbText
  0
LWPOLYLINE
  5
6B0
100
AcDbEntity
  8
3
370
    25
100
AcDbPolyline
 90
        2
 70
     0
 10
108.707253
 20
182.87851
 10
120.717247
 20
167.3871
  0
LINE
  5
6B4
100
AcDbEntity
  8
3
370
    25
100
AcDbLine
 10
111.074559
 20
179.824977
 30
0.0
 11
111.892751
 21
180.459294
 31
0.0
  0
LINE
  5
6B5
100
AcDbEntity
  8
3
370
    25
100
AcDbLine
 10
111.892751
 20
180.459294
 30
0.0
 11
108.707253
 21
182.87851
 31
0.0
  0
LINE
  5
6B6
100
AcDbEntity
  8
3
370
    25
100
AcDbLine
 10
108.707253
 20
182.87851
 30
0.0
 11
110.256367
 21
179.190659
 31
0.0
  0
LINE
  5
6B7
100
AcDbEntity
  8
3
370
    25
100
AcDbLine
 10
110.256367
 20
179.190659
 30
0.0
 11
111.074559
 21
179.824977
 31
0.0
  0
TEXT
  5
6B8
100
AcDbEntity
  8
3
370
    50
100
AcDbText
 10
10.522242
 20
209.101166
 30
0.0
 40
7.0
  1
ハンドル回転角度
 50
90.0
 72
     5
 11
10.522242
 21
263.701166
 31
0.0
100
AcDbText
  0
TEXT
  5
6B9
100
AcDbEntity
  8
3
370
    50
100
AcDbText
 10
288.513051
 20
-40.325959
 30
0.0
 40
5.0
  1
１９Ｊ０１５Ｍ
 41
0.8
 72
     5
 11
315.713051
 21
-40.325959
 31
0.0
100
AcDbText
  0
TEXT
  5
6BA
100
AcDbEntity
  8
3
370
    50
100
AcDbText
 10
288.39302
 20
-34.453601
 30
0.0
 40
5.0
  1
１１０２２４
 41
0.9
 72
     5
 11
314.49302
 21
-34.453601
 31
0.0
100
AcDbText
  0
DIMENSION
  5
6BB
100
AcDbEntity
  8
3
370
    25
100
AcDbDimension
  2
*D11
 10
31.051063
 20
196.561218
 30
0.0
 11
34.726766
 21
248.548845
 31
0.0
 70
     2
 71
     0
 72
     0
 41
0.0
 42
0.0
  3
Standard
100
AcDb2LineAngularDimension
 13
67.912907
 23
258.670949
 33
0.0
 14
103.771976
 24
196.561218
 34
0.0
 15
103.771976
 25
196.561218
 35
0.0
 16
29.476766
 26
239.455578
 36
0.0
1001
ACAD
1000
DSTYLE
1002
{
1070
   275
1070
     0
1070
   179
1070
     0
1002
}
  0
DIMENSION
  5
6BC
100
AcDbEntity
  8
3
370
    25
100
AcDbDimension
  2
*D12
 10
35.435721
 20
171.688855
 30
0.0
 11
21.110881
 21
171.323857
 31
0.0
 70
     2
 71
     0
 72
     0
 41
0.0
 42
0.0
  3
Standard
100
AcDb2LineAngularDimension
 13
11.797809
 23
196.561218
 33
0.0
 14
103.771976
 24
196.561218
 34
0.0
 15
103.771976
 25
196.561218
 35
0.0
 16
19.287575
 26
181.664339
 36
0.0
1001
ACAD
1000
DSTYLE
1002
{
1070
   275
1070
     0
1070
   179
1070
     0
1002
}
  0
ENDSEC
  0
SECTION
  2
OBJECTS
  0
DICTIONARY
  5
74E
100
AcDbDictionary
280
     0
281
     1
  3
ACAD_GROUP
350
74F
  3
ACAD_MLINESTYLE
350
750
  0
DICTIONARY
  5
74F
102
{ACAD_REACTORS
330
74E
102
}
100
AcDbDictionary
280
     0
281
     1
  0
DICTIONARY
  5
750
102
{ACAD_REACTORS
330
74E
102
}
100
AcDbDictionary
280
     0
281
     1
  3
Standard
350
751
  0
MLINESTYLE
  5
751
102
{ACAD_REACTORS
330
750
102
}
100
AcDbMlineStyle
  2
Standard
 70
     0
  3

 62
     0
 51
90.0
 52
90.0
 71
     2
 49
0.5
 62
   256
  6
ByLayer
 49
-0.5
 62
   256
  6
ByLayer
  0
ENDSEC
  0
EOF
