  0
SECTION
  2
HEADER
  9
$ACADVER
  1
AC1015
  9
$ACADMAINTVER
 70
               6
  9
$DWGCODEPAGE
  3
ANSI_932
  9
$INSBASE
 10
0.0
 20
0.0
 30
0.0
  9
$EXTMIN
 10
-487.50000000012096
 20
-715.76276123555726
 30
-7.4171527777777762
  9
$EXTMAX
 10
487.50000000012096
 20
702.9986463206501
 30
7.4171527777777762
  9
$LIMMIN
 10
0.0
 20
0.0
  9
$LIMMAX
 10
0.0
 20
0.0
  9
$ORTHOMODE
 70
               0
  9
$REGENMODE
 70
               1
  9
$FILLMODE
 70
               1
  9
$QTEXTMODE
 70
               0
  9
$MIRRTEXT
 70
               1
  9
$LTSCALE
 40
25.399999999999999
  9
$ATTMODE
 70
               1
  9
$TEXTSIZE
 40
0.2
  9
$TRACEWID
 40
1.0
  9
$TEXTSTYLE
  7
Standard
  9
$CLAYER
  8
TFM73-7001
  9
$CELTYPE
  6
Continuous
  9
$CECOLOR
 62
             256
  9
$CELTSCALE
 40
1.0
  9
$DISPSILH
 70
               0
  9
$DIMSCALE
 40
1.0
  9
$DIMASZ
 40
15.875
  9
$DIMEXO
 40
0.0
  9
$DIMDLI
 40
6.9999999999999396
  9
$DIMRND
 40
0.0
  9
$DIMDLE
 40
0.0
  9
$DIMEXE
 40
9.9999999999980993
  9
$DIMTP
 40
0.0
  9
$DIMTM
 40
0.0
  9
$DIMTXT
 40
12.216308593750002
  9
$DIMCEN
 40
0.0
  9
$DIMTSZ
 40
0.0
  9
$DIMTOL
 70
               0
  9
$DIMLIM
 70
               0
  9
$DIMTIH
 70
               0
  9
$DIMTOH
 70
               0
  9
$DIMSE1
 70
               0
  9
$DIMSE2
 70
               0
  9
$DIMTAD
 70
               1
  9
$DIMZIN
 70
              11
  9
$DIMBLK
  1
VW_FILLEDARROW
  9
$DIMASO
 70
               1
  9
$DIMSHO
 70
               1
  9
$DIMPOST
  1
<>
  9
$DIMAPOST
  1
[]
  9
$DIMALT
 70
               0
  9
$DIMALTD
 70
               3
  9
$DIMALTF
 40
0.0393700787401575
  9
$DIMLFAC
 40
1.0
  9
$DIMTOFL
 70
               0
  9
$DIMTVP
 40
0.0
  9
$DIMTIX
 70
               1
  9
$DIMSOXD
 70
               0
  9
$DIMSAH
 70
               0
  9
$DIMBLK1
  1

  9
$DIMBLK2
  1

  9
$DIMSTYLE
  2
JIS
  9
$DIMCLRD
 70
               0
  9
$DIMCLRE
 70
               0
  9
$DIMCLRT
 70
               0
  9
$DIMTFAC
 40
1.0
  9
$DIMGAP
 40
1.00000000000108
  9
$DIMJUST
 70
               0
  9
$DIMSD1
 70
               0
  9
$DIMSD2
 70
               0
  9
$DIMTOLJ
 70
               1
  9
$DIMTZIN
 70
              11
  9
$DIMALTZ
 70
              15
  9
$DIMALTTZ
 70
              15
  9
$DIMUPT
 70
               0
  9
$DIMDEC
 70
               1
  9
$DIMTDEC
 70
               1
  9
$DIMALTU
 70
               4
  9
$DIMALTTD
 70
               2
  9
$DIMTXSTY
  7
ＭＳ ゴシック
  9
$DIMAUNIT
 70
               0
  9
$DIMADEC
 70
               2
  9
$DIMALTRND
 40
0.0
  9
$DIMAZIN
 70
               0
  9
$DIMDSEP
 70
              46
  9
$DIMATFIT
 70
               0
  9
$DIMFRAC
 70
               2
  9
$DIMLDRBLK
  1

  9
$DIMLUNIT
 70
               2
  9
$DIMLWD
 70
              -2
  9
$DIMLWE
 70
              -2
  9
$DIMTMOVE
 70
               0
  9
$LUNITS
 70
               2
  9
$LUPREC
 70
               4
  9
$SKETCHINC
 40
0.1
  9
$FILLETRAD
 40
0.0
  9
$AUNITS
 70
               0
  9
$AUPREC
 70
               0
  9
$MENU
  1
acad
  9
$ELEVATION
 40
0.0
  9
$PELEVATION
 40
0.0
  9
$THICKNESS
 40
0.0
  9
$LIMCHECK
 70
               0
  9
$CHAMFERA
 40
0.0
  9
$CHAMFERB
 40
0.0
  9
$CHAMFERC
 40
0.0
  9
$CHAMFERD
 40
0.0
  9
$SKPOLY
 70
               0
  9
$TDCREATE
 40
2455882.424328704
  9
$TDUCREATE
 40
0.000000000
  9
$TDUPDATE
 40
2455882.424328704
  9
$TDUUPDATE
 40
0.000000000
  9
$TDINDWG
 40
0.0000000000
  9
$TDUSRTIMER
 40
0.0000000000
  9
$USRTIMER
 70
               1
  9
$ANGBASE
 50
0.0
  9
$ANGDIR
 70
               0
  9
$PDMODE
 70
               1
  9
$PDSIZE
 40
-2.0
  9
$PLINEWID
 40
0.0
  9
$SPLFRAME
 70
               0
  9
$SPLINETYPE
 70
               6
  9
$SPLINESEGS
 70
               8
  9
$HANDSEED
  5
FC
  9
$SURFTAB1
 70
               6
  9
$SURFTAB2
 70
               6
  9
$SURFTYPE
 70
               6
  9
$SURFU
 70
               6
  9
$SURFV
 70
               6
  9
$UCSBASE
  2

  9
$UCSNAME
  2

  9
$UCSORG
 10
0.0
 20
0.0
 30
0.0
  9
$UCSXDIR
 10
1.0
 20
0.0
 30
0.0
  9
$UCSYDIR
 10
0.0
 20
1.0
 30
0.0
  9
$UCSORTHOREF
  2

  9
$UCSORTHOVIEW
 70
               0
  9
$UCSORGTOP
 10
0.0
 20
0.0
 30
0.0
  9
$UCSORGBOTTOM
 10
0.0
 20
0.0
 30
0.0
  9
$UCSORGLEFT
 10
0.0
 20
0.0
 30
0.0
  9
$UCSORGRIGHT
 10
0.0
 20
0.0
 30
0.0
  9
$UCSORGFRONT
 10
0.0
 20
0.0
 30
0.0
  9
$UCSORGBACK
 10
0.0
 20
0.0
 30
0.0
  9
$PUCSBASE
  2

  9
$PUCSNAME
  2

  9
$PUCSORG
 10
0.0
 20
0.0
 30
0.0
  9
$PUCSXDIR
 10
1.0
 20
0.0
 30
0.0
  9
$PUCSYDIR
 10
0.0
 20
1.0
 30
0.0
  9
$PUCSORTHOREF
  2

  9
$PUCSORTHOVIEW
 70
               0
  9
$PUCSORGTOP
 10
0.0
 20
0.0
 30
0.0
  9
$PUCSORGBOTTOM
 10
0.0
 20
0.0
 30
0.0
  9
$PUCSORGLEFT
 10
0.0
 20
0.0
 30
0.0
  9
$PUCSORGRIGHT
 10
0.0
 20
0.0
 30
0.0
  9
$PUCSORGFRONT
 10
0.0
 20
0.0
 30
0.0
  9
$PUCSORGBACK
 10
0.0
 20
0.0
 30
0.0
  9
$USERI1
 70
               0
  9
$USERI2
 70
               0
  9
$USERI3
 70
               0
  9
$USERI4
 70
               0
  9
$USERI5
 70
               0
  9
$USERR1
 40
0.0
  9
$USERR2
 40
0.0
  9
$USERR3
 40
0.0
  9
$USERR4
 40
0.0
  9
$USERR5
 40
0.0
  9
$WORLDVIEW
 70
               1
  9
$SHADEDGE
 70
               3
  9
$SHADEDIF
 70
              70
  9
$TILEMODE
 70
               1
  9
$MAXACTVP
 70
              64
  9
$PINSBASE
 10
0.0
 20
0.0
 30
0.0
  9
$PLIMCHECK
 70
               0
  9
$PEXTMIN
 10
1.0000000000000000E+20
 20
1.0000000000000000E+20
 30
1.0000000000000000E+20
  9
$PEXTMAX
 10
-1.0000000000000000E+20
 20
-1.0000000000000000E+20
 30
-1.0000000000000000E+20
  9
$PLIMMIN
 10
0.0
 20
0.0
  9
$PLIMMAX
 10
12.0
 20
9.0
  9
$UNITMODE
 70
               0
  9
$VISRETAIN
 70
               0
  9
$PLINEGEN
 70
               1
  9
$PSLTSCALE
 70
               0
  9
$TREEDEPTH
 70
            3020
  9
$CMLSTYLE
  2
Standard
  9
$CMLJUST
 70
               0
  9
$CMLSCALE
 40
1.0
  9
$PROXYGRAPHICS
 70
               0
  9
$MEASUREMENT
 70
               1
  9
$CELWEIGHT
370
               0
  9
$ENDCAPS
280
               0
  9
$JOINSTYLE
280
               0
  9
$LWDISPLAY
290
               1
  9
$INSUNITS
 70
               4
  9
$HYPERLINKBASE
  1

  9
$STYLESHEET
  1

  9
$XEDIT
290
               1
  9
$CEPSNTYPE
380
               0
  9
$PSTYLEMODE
290
               1
  9
$FINGERPRINTGUID
  2

  9
$VERSIONGUID
  2

  9
$EXTNAMES
290
               1
  9
$PSVPSCALE
 40
0.0
  0
ENDSEC
  0
SECTION
  2
CLASSES
  0
CLASS
  1
LWPOLYLINE
  2
AcDbPolyline
  3
AutoCAD 2000
 90
        0
280
               0
281
               1
  0
CLASS
  1
IMAGE
  2
AcDbRasterImage
  3
ISM
 90
      127
280
               0
281
               1
  0
CLASS
  1
OLE2FRAME
  2
AcDbOle2Frame
  3
AutoCAD 2000
 90
        0
280
               0
281
               1
  0
CLASS
  1
HATCH
  2
AcDbHatch
  3
AutoCAD 2000
 90
        0
280
               0
281
               1
  0
CLASS
  1
DICTIONARYVAR
  2
AcDbDictionaryVar
  3
AutoCAD 2000
 90
        0
280
               0
281
               0
  0
CLASS
  1
RASTERVARIABLES
  2
AcDbRasterVariables
  3
ISM
 90
        0
280
               0
281
               0
  0
CLASS
  1
IMAGEDEF
  2
AcDbRasterImageDef
  3
ISM
 90
        0
280
               0
281
               0
  0
CLASS
  1
IMAGEDEF_REACTOR
  2
AcDbRasterImageDefReactor
  3
ISM
 90
        1
280
               0
281
               0
  0
CLASS
  1
IDBUFFER
  2
AcDbIdBuffer
  3
AutoCAD 2000
 90
        0
280
               0
281
               0
  0
CLASS
  1
SPATIAL_FILTER
  2
AcDbSpatialFilter
  3
AutoCAD 2000
 90
        0
280
               0
281
               0
  0
CLASS
  1
XRECORD
  2
AcDbXrecord
  3
AutoCAD 2000
 90
        0
280
               0
281
               0
  0
CLASS
  1
SORTENTSTABLE
  2
AcDbSortentsTable
  3
AutoCAD 2000
 90
        0
280
               0
281
               0
  0
CLASS
  1
LAYER_INDEX
  2
AcDbLayerIndex
  3
AutoCAD 2000
 90
        0
280
               0
281
               0
  0
CLASS
  1
SPATIAL_INDEX
  2
AcDbSpatialIndex
  3
AutoCAD 2000
 90
        0
280
               0
281
               0
  0
CLASS
  1
OBJECT_PTR
  2
CAseDLPNTableRecord
  3
"ASE-LPNTableRecord"
 90
        1
280
               0
281
               0
  0
CLASS
  1
LAYOUT
  2
AcDbLayout
  3
AutoCAD 2000
 90
        0
280
               0
281
               0
  0
CLASS
  1
PLOTSETTINGS
  2
AcDbPlotSettings
  3
AutoCAD 2000
 90
        0
280
               0
281
               0
  0
CLASS
  1
ACDBDICTIONARYWDFLT
  2
AcDbDictionaryWithDefault
  3
AutoCAD 2000
 90
        0
280
               0
281
               0
  0
CLASS
  1
ACDBPLACEHOLDER
  2
AcDbPlaceHolder
  3
AutoCAD 2000
 90
        0
280
               0
281
               0
  0
ENDSEC
  0
SECTION
  2
TABLES
  0
TABLE
  2
VPORT
  5
7
100
AcDbSymbolTable
 70
               1
  0
VPORT
  5
15
100
AcDbSymbolTableRecord
100
AcDbViewportTableRecord
  2
*ACTIVE
 70
               0
 10
0.0
 20
0.0
 11
1.0
 21
1.0
 12
0.0
 22
-6.382057457453584
 13
0.0
 23
0.0
 14
1.0
 24
1.0
 15
0.0
 25
0.0
 16
0.0
 26
0.0
 36
1.0
 17
0.0
 27
0.0
 37
0.0
 40
1418.7614075562074
 41
0.688564
 42
50.0
 43
0.0
 44
0.0
 50
0.0
 51
0.0
 71
               0
 72
            2000
 73
               1
 74
               1
 75
               0
 76
               0
 77
               0
 78
               0
281
               0
 65
               0
110
0.0
120
0.0
130
0.0
111
1.0
121
0.0
131
0.0
112
0.0
122
1.0
132
0.0
345
0
346
0
 79
               0
146
0.0
  0
ENDTAB
  0
TABLE
  2
LTYPE
  5
4
100
AcDbSymbolTable
 70
              13
  0
LTYPE
  5
11
100
AcDbSymbolTableRecord
100
AcDbLinetypeTableRecord
  2
ByBlock
 70
              64
  3

 72
              65
 73
               0
 40
0.0
  0
LTYPE
  5
12
100
AcDbSymbolTableRecord
100
AcDbLinetypeTableRecord
  2
ByLayer
 70
              64
  3

 72
              65
 73
               0
 40
0.0
  0
LTYPE
  5
13
100
AcDbSymbolTableRecord
100
AcDbLinetypeTableRecord
  2
Continuous
 70
              64
  3
Solid line
 72
              65
 73
               0
 40
0.0
  0
LTYPE
  5
2C
100
AcDbSymbolTableRecord
100
AcDbLinetypeTableRecord
  2
STYLE_01
 70
               0
  3

 72
              65
 73
               4
 40
1.4111120416611076
 49
0.8819450260381923
 74
               0
 49
-0.1763890052076385
 74
               0
 49
0.1763890052076385
 74
               0
 49
-0.1763890052076383
 74
               0
  0
LTYPE
  5
2D
100
AcDbSymbolTableRecord
100
AcDbLinetypeTableRecord
  2
STYLE_02
 70
               0
  3

 72
              65
 73
               2
 40
0.6944250000000001
 49
0.48607
 74
               0
 49
-0.2083550000000001
 74
               0
  0
LTYPE
  5
2E
100
AcDbSymbolTableRecord
100
AcDbLinetypeTableRecord
  2
STYLE_03
 70
               0
  3

 72
              65
 73
               2
 40
1.25
 49
1.0416400000000001
 74
               0
 49
-0.2083599999999999
 74
               0
  0
LTYPE
  5
2F
100
AcDbSymbolTableRecord
100
AcDbLinetypeTableRecord
  2
STYLE_04
 70
               0
  3

 72
              65
 73
               2
 40
1.5277099999999999
 49
1.3194249999999998
 74
               0
 49
-0.208285
 74
               0
  0
LTYPE
  5
30
100
AcDbSymbolTableRecord
100
AcDbLinetypeTableRecord
  2
STYLE_05
 70
               0
  3

 72
              65
 73
               2
 40
0.20828
 49
0.069425
 74
               0
 49
-0.138855
 74
               0
  0
LTYPE
  5
31
100
AcDbSymbolTableRecord
100
AcDbLinetypeTableRecord
  2
STYLE_06
 70
               0
  3

 72
              65
 73
               4
 40
1.0416400000000001
 49
0.625
 74
               0
 49
-0.20828
 74
               0
 49
0.06943
 74
               0
 49
-0.13893
 74
               0
  0
LTYPE
  5
32
100
AcDbSymbolTableRecord
100
AcDbLinetypeTableRecord
  2
STYLE_07
 70
               0
  3

 72
              65
 73
               6
 40
1.875
 49
0.625
 74
               0
 49
-0.20828
 74
               0
 49
0.6250000000000001
 74
               0
 49
-0.2083599999999999
 74
               0
 49
0.06943
 74
               0
 49
-0.1389299999999999
 74
               0
  0
LTYPE
  5
33
100
AcDbSymbolTableRecord
100
AcDbLinetypeTableRecord
  2
STYLE_08
 70
               0
  3

 72
              65
 73
               6
 40
1.25
 49
0.625
 74
               0
 49
-0.20828
 74
               0
 49
0.06943
 74
               0
 49
-0.13893
 74
               0
 49
0.0694299999999999
 74
               0
 49
-0.13893
 74
               0
  0
LTYPE
  5
34
100
AcDbSymbolTableRecord
100
AcDbLinetypeTableRecord
  2
STYLE_09
 70
               0
  3

 72
              65
 73
               4
 40
5.0
 49
3.75
 74
               0
 49
-0.2777849999999998
 74
               0
 49
0.6944300000000003
 74
               0
 49
-0.2777849999999998
 74
               0
  0
LTYPE
  5
35
100
AcDbSymbolTableRecord
100
AcDbLinetypeTableRecord
  2
STYLE_10
 70
               0
  3

 72
              65
 73
               6
 40
5.9375
 49
3.75
 74
               0
 49
-0.2777849999999998
 74
               0
 49
0.6944300000000003
 74
               0
 49
-0.2777849999999998
 74
               0
 49
0.625
 74
               0
 49
-0.3125
 74
               0
  0
ENDTAB
  0
TABLE
  2
LAYER
  5
2
100
AcDbSymbolTable
 70
               5
  0
LAYER
  5
14
100
AcDbSymbolTableRecord
100
AcDbLayerTableRecord
  2
0
 70
               0
 62
               7
  6
Continuous
290
               1
370
              -3
390
1D
  0
LAYER
  5
36
100
AcDbSymbolTableRecord
100
AcDbLayerTableRecord
  2
Defpoints
 70
               0
 62
               7
  6
Continuous
290
               0
370
              -3
390
1D
  0
LAYER
  5
37
100
AcDbSymbolTableRecord
100
AcDbLayerTableRecord
  2
template
 70
               0
 62
               7
  6
Continuous
290
               1
370
              -3
390
1D
  0
LAYER
  5
38
100
AcDbSymbolTableRecord
100
AcDbLayerTableRecord
  2
notes
 70
               0
 62
               7
  6
Continuous
290
               1
370
              -3
390
1D
  0
LAYER
  5
39
100
AcDbSymbolTableRecord
100
AcDbLayerTableRecord
  2
TFM73-7001
 70
               0
 62
               7
  6
Continuous
290
               1
370
              -3
390
1D
  0
ENDTAB
  0
TABLE
  2
STYLE
  5
3
100
AcDbSymbolTable
 70
               2
  0
STYLE
  5
17
100
AcDbSymbolTableRecord
100
AcDbTextStyleTableRecord
  2
Standard
 70
               0
 40
0.0
 41
1.0
 50
0.0
 71
               0
 42
0.0
  3
txt
  4
BIGFONT.SHX
  0
STYLE
  5
2B
100
AcDbSymbolTableRecord
100
AcDbTextStyleTableRecord
  2
ＭＳ ゴシック
 70
               0
 40
0.0
 41
1.0
 50
0.0
 71
               0
 42
0.0
  3

  4
ＭＳ ゴシック
1001
ACAD
1000
ＭＳ ゴシック
1071
        0
  0
ENDTAB
  0
TABLE
  2
VIEW
  5
5
100
AcDbSymbolTable
 70
               0
  0
ENDTAB
  0
TABLE
  2
UCS
  5
6
100
AcDbSymbolTable
 70
               0
  0
ENDTAB
  0
TABLE
  2
APPID
  5
8
100
AcDbSymbolTable
 70
               1
  0
APPID
  5
16
100
AcDbSymbolTableRecord
100
AcDbRegAppTableRecord
  2
ACAD
 70
               0
  0
ENDTAB
  0
TABLE
  2
DIMSTYLE
  5
9
100
AcDbSymbolTable
 70
               3
100
AcDbDimStyleTable
 71
               0
  0
DIMSTYLE
105
18
100
AcDbSymbolTableRecord
100
AcDbDimStyleTableRecord
  2
Standard
 70
               0
  3

  4

 40
1.0
 41
0.18
 42
0.0625
 43
0.38
 44
0.18
 45
0.0
 46
0.0
 47
0.0
 48
0.0
 71
               0
 72
               0
 73
               1
 74
               1
 75
               0
 76
               0
 77
               0
 78
               0
 79
               0
140
0.18
141
0.09
142
0.0
143
25.399999999999999
144
1.0
145
0.0
146
1.0
147
0.09
148
0.0
170
               0
171
               2
172
               0
173
               0
174
               0
175
               0
176
               0
177
               0
178
               0
179
               0
271
               4
272
               4
273
               2
274
               2
275
               0
276
               0
277
               2
278
              46
279
               0
280
               0
281
               0
282
               0
283
               1
284
               0
285
               0
286
               0
288
               0
289
               3
340
17
341
0
342
0
343
0
344
0
371
              -2
372
              -2
  0
DIMSTYLE
105
42
100
AcDbSymbolTableRecord
100
AcDbDimStyleTableRecord
  2
tfrom線あり
 70
               0
  3
<>
  4
[]
 40
1.0
 41
1.9998779296875
 42
12.499999999999998
 43
0.9999999999999999
 44
0.0
 45
0.0
 46
0.0
 47
0.0
 48
0.0
 71
               0
 72
               0
 73
               0
 74
               0
 75
               0
 76
               0
 77
               1
 78
              11
 79
               0
140
12.216308593750002
141
0.0
142
0.0
143
0.0393700787401575
144
1.0
145
0.0
146
1.0
147
0.4999999999999999
148
0.0
170
               0
171
               3
172
               0
173
               0
174
               1
175
               0
176
               0
177
               0
178
               0
179
               2
271
               1
272
               1
273
               4
274
               2
275
               0
276
               2
277
               2
278
              46
279
               0
280
               0
281
               0
282
               0
283
               1
284
              11
285
              15
286
              15
288
               0
289
               0
340
2B
341
3A
342
3A
343
0
344
0
371
              -2
372
              -2
  0
DIMSTYLE
105
47
100
AcDbSymbolTableRecord
100
AcDbDimStyleTableRecord
  2
JIS
 70
               0
  3
<>
  4
[]
 40
1.0
 41
15.875
 42
0.0
 43
6.9999999999999396
 44
9.9999999999980993
 45
0.0
 46
0.0
 47
0.0
 48
0.0
 71
               0
 72
               0
 73
               0
 74
               0
 75
               0
 76
               0
 77
               1
 78
              11
 79
               0
140
12.216308593750002
141
0.0
142
0.0
143
0.0393700787401575
144
1.0
145
0.0
146
1.0
147
1.00000000000108
148
0.0
170
               0
171
               3
172
               0
173
               0
174
               1
175
               0
176
               0
177
               0
178
               0
179
               2
271
               1
272
               1
273
               4
274
               2
275
               0
276
               2
277
               2
278
              46
279
               0
280
               0
281
               0
282
               0
283
               1
284
              11
285
              15
286
              15
288
               0
289
               0
340
2B
341
43
342
43
343
0
344
0
371
              -2
372
              -2
  0
ENDTAB
  0
TABLE
  2
BLOCK_RECORD
  5
1
100
AcDbSymbolTable
 70
              10
  0
BLOCK_RECORD
  5
A
100
AcDbSymbolTableRecord
100
AcDbBlockTableRecord
  2
*MODEL_SPACE
340
20
  0
BLOCK_RECORD
  5
B
100
AcDbSymbolTableRecord
100
AcDbBlockTableRecord
  2
*PAPER_SPACE
340
21
  0
BLOCK_RECORD
  5
3A
100
AcDbSymbolTableRecord
100
AcDbBlockTableRecord
  2
_DOT
340
0
  0
BLOCK_RECORD
  5
43
100
AcDbSymbolTableRecord
100
AcDbBlockTableRecord
  2
VW_FILLEDARROW
340
0
  0
BLOCK_RECORD
  5
23
100
AcDbSymbolTableRecord
100
AcDbBlockTableRecord
  2
グループ
340
0
102
{BLKREFS
331
BC
102
}
  0
BLOCK_RECORD
  5
24
100
AcDbSymbolTableRecord
100
AcDbBlockTableRecord
  2
*D3
340
0
  0
BLOCK_RECORD
  5
25
100
AcDbSymbolTableRecord
100
AcDbBlockTableRecord
  2
*D4
340
0
  0
BLOCK_RECORD
  5
26
100
AcDbSymbolTableRecord
100
AcDbBlockTableRecord
  2
*D5
340
0
  0
BLOCK_RECORD
  5
27
100
AcDbSymbolTableRecord
100
AcDbBlockTableRecord
  2
*D6
340
0
  0
BLOCK_RECORD
  5
28
100
AcDbSymbolTableRecord
100
AcDbBlockTableRecord
  2
*D7
340
0
  0
BLOCK_RECORD
  5
29
100
AcDbSymbolTableRecord
100
AcDbBlockTableRecord
  2
*D8
340
0
  0
BLOCK_RECORD
  5
2A
100
AcDbSymbolTableRecord
100
AcDbBlockTableRecord
  2
*D9
340
0
  0
ENDTAB
  0
ENDSEC
  0
SECTION
  2
BLOCKS
  0
BLOCK
  5
D
100
AcDbEntity
  8
0
390
0
100
AcDbBlockBegin
  2
*MODEL_SPACE
 70
               0
 10
0.0
 20
0.0
 30
0.0
  3
*MODEL_SPACE
  1

  0
ENDBLK
  5
E
100
AcDbEntity
  8
0
390
0
100
AcDbBlockEnd
  0
BLOCK
  5
F
100
AcDbEntity
 67
               1
  8
0
390
0
100
AcDbBlockBegin
  2
*PAPER_SPACE
 70
               0
 10
0.0
 20
0.0
 30
0.0
  3
*PAPER_SPACE
  1

  0
ENDBLK
  5
10
100
AcDbEntity
 67
               1
  8
0
390
0
100
AcDbBlockEnd
  0
BLOCK
  5
3B
100
AcDbEntity
  8
0
390
0
100
AcDbBlockBegin
  2
_DOT
 70
               0
 10
0.0
 20
0.0
 30
0.0
  3
_DOT
  1

  0
POLYLINE
  5
3C
100
AcDbEntity
  8
0
370
              -2
390
0
  6
ByBlock
 62
               0
100
AcDb2dPolyline
 66
               1
 10
0.0
 20
0.0
 30
0.0
 70
               1
 40
0.5
 41
0.5
  0
VERTEX
  5
3D
100
AcDbEntity
  8
0
370
              -2
390
0
  6
ByBlock
 62
               0
100
AcDbVertex
100
AcDb2dVertex
 10
-0.25
 20
0.0
 30
0.0
 42
1.0
  0
VERTEX
  5
3E
100
AcDbEntity
  8
0
370
              -2
390
0
  6
ByBlock
 62
               0
100
AcDbVertex
100
AcDb2dVertex
 10
0.25
 20
0.0
 30
0.0
 42
1.0
  0
SEQEND
  5
3F
100
AcDbEntity
  8
0
390
0
  0
LINE
  5
40
100
AcDbEntity
  8
0
370
              -2
390
0
  6
ByBlock
 62
               0
100
AcDbLine
 10
-0.5
 20
0.0
 30
0.0
 11
-1.0
 21
0.0
 31
0.0
  0
ENDBLK
  5
41
100
AcDbEntity
  8
0
390
0
100
AcDbBlockEnd
  0
BLOCK
  5
44
100
AcDbEntity
  8
0
370
              -2
390
0
  6
ByBlock
 62
               0
100
AcDbBlockBegin
  2
VW_FILLEDARROW
 70
               0
 10
0.0
 20
0.0
 30
0.0
  3
VW_FILLEDARROW
  1

  0
SOLID
  5
45
100
AcDbEntity
  8
0
370
              -2
390
0
 62
               0
100
AcDbTrace
 10
0.0
 20
0.0
 30
0.0
 11
-0.9999389648437499
 21
-0.2679328381102956
 31
0.0
 12
-0.9999389648437499
 22
0.2679328381102958
 32
0.0
 13
-0.9999389648437499
 23
0.2679328381102958
 33
0.0
  0
ENDBLK
  5
46
100
AcDbEntity
  8
0
390
0
100
AcDbBlockEnd
  0
BLOCK
  5
48
100
AcDbEntity
  8
template
390
0
100
AcDbBlockBegin
  2
グループ
 70
               0
 10
0.0
 20
0.0
 30
0.0
  3
グループ
  1

  0
LWPOLYLINE
  5
49
100
AcDbEntity
  8
0
370
              15
390
0
  6
Continuous
 62
               7
100
AcDbPolyline
 90
        8
 70
             129
 10
-4891.3069110041733
 20
-4434.7496805839464
 10
-4891.3069110041733
 20
-4437.7483749307339
 10
-4896.0575094631749
 20
-4437.7483749307339
 10
-4896.0575094631749
 20
-4449.9738565624884
 10
-4900.2351980940666
 20
-4449.9738565624884
 10
-4900.2351980940666
 20
-4437.7483749307339
 10
-4904.9016765672213
 20
-4437.7483749307339
 10
-4904.9016765672213
 20
-4434.7496805839464
  0
LWPOLYLINE
  5
4A
100
AcDbEntity
  8
0
370
              15
390
0
  6
Continuous
 62
               7
100
AcDbPolyline
 90
      101
 70
             128
 10
-4884.9427650888947
 20
-4435.1138048304138
 10
-4884.9350900744994
 20
-4435.1116244520708
 42
-0.0222221607808335
 10
-4884.7900877861666
 20
-4435.0773122194496
 10
-4884.7821909041822
 20
-4435.075810507903
 42
-0.0146883565601535
 10
-4884.6508395515575
 20
-4435.0548089144268
 42
-0.0127458844197321
 10
-4884.5185200679762
 20
-4435.0410404303893
 10
-4884.4872925288255
 20
-4435.0385937190958
 42
-0.0198099018563792
 10
-4884.2918679740824
 20
-4435.0310511403977
 10
-4884.2659622393649
 20
-4435.0310780282307
 42
-0.0147617382770774
 10
-4884.0186505088814
 20
-4435.0386380408527
 10
-4883.9823047814243
 20
-4435.040824344298
 42
-0.01626245489995
 10
-4883.7872279667081
 20
-4435.0589407819325
 10
-4883.7264617711035
 20
-4435.0665840614274
 42
-0.0080020874676502
 10
-4883.653672255532
 20
-4435.0769254850647
 10
-4883.6345125202624
 20
-4435.0799611239654
 42
-0.0053821929653445
 10
-4883.6002704675775
 20
-4435.085764885881
 10
-4883.963473317177
 20
-4436.1762291137384
 42
0.0108667757290116
 10
-4883.9971318522184
 20
-4436.1696355561326
 10
-4884.0158658638375
 20
-4436.1663866848312
 42
0.017066320334757
 10
-4884.0874742573169
 20
-4436.1564718861828
 10
-4884.1214119236365
 20
-4436.1529483008917
 42
0.0220162375261269
 10
-4884.2616016275651
 20
-4436.1446071205064
 10
-4884.3005294110899
 20
-4436.1440074368729
 42
0.0282606915762027
 10
-4884.4683475728798
 20
-4436.150909075357
 10
-4884.4903042097712
 20
-4436.1530590703596
 42
0.0169677213670272
 10
-4884.6132664572451
 20
-4436.1693275951347
 42
0.0190576269854775
 10
-4884.7347204385378
 20
-4436.194401031189
 10
-4884.7378500325904
 20
-4436.1951725182425
 42
0.0213685642814036
 10
-4884.8630422748238
 20
-4436.2317726607935
 10
-4884.8657872222866
 20
-4436.2327041588251
 42
0.0237595297597427
 10
-4884.9925346647387
 20
-4436.282546419774
 10
-4884.9950857017511
 20
-4436.283692307512
 42
0.0261857468814262
 10
-4885.1211710898624
 20
-4436.348460476197
 10
-4885.1263841844066
 20
-4436.3514932134312
 42
0.0272553061996697
 10
-4885.2445990720289
 20
-4436.4291793164066
 10
-4885.261980578779
 20
-4436.4420098904493
 42
0.0325996893165657
 10
-4885.3370582506095
 20
-4436.5053838269378
 10
-4885.3489129651834
 20
-4436.5167928412056
 42
0.0138050960681433
 10
-4885.3948545432759
 20
-4436.5635176719697
 42
0.0125280103886485
 10
-4885.4382758096981
 20
-4436.6125993352762
 10
-4885.450116032147
 20
-4436.6266785843636
 42
0.0205218024719561
 10
-4885.5126660698998
 20
-4436.7075752414721
 10
-4885.5238992401473
 20
-4436.7234051063915
 42
0.0163110129605787
 10
-4885.6017544297783
 20
-4436.841070323936
 10
-4885.6031163777989
 20
-4436.8432822049199
 42
0.0131897341910992
 10
-4885.6765166382584
 20
-4436.9698482511121
 10
-4885.6773666859353
 20
-4436.9714073706691
 42
0.0107895576017117
 10
-4885.7462550370346
 20
-4437.1045149754746
 10
-4885.7466214818032
 20
-4437.1052620918099
 42
0.0091371507217401
 10
-4885.8108614561297
 20
-4437.2425246906942
 10
-4885.8257342718325
 20
-4437.2758779442693
 42
0.0135418326343191
 10
-4885.9115912413654
 20
-4437.4833468368952
 10
-4885.928393645584
 20
-4437.5272799080403
 42
0.0092834542419313
 10
-4886.0140081755453
 20
-4437.7642291571974
 10
-4886.0268167394024
 20
-4437.8018496920877
 42
0.0054261043594665
 10
-4886.0806358135505
 20
-4437.9657316786261
 10
-4886.0893988066364
 20
-4437.9934257597306
 42
0.0008225090824523
 10
-4886.1237338325545
 20
-4438.1025601388155
 10
-4886.6160783985215
 20
-4439.6150057854438
 10
-4884.9997664784842
 20
-4439.6150057854438
 10
-4885.2518626934107
 20
-4440.5672449346202
 10
-4886.8798908344024
 20
-4440.5672449346202
 10
-4889.7944653505801
 20
-4449.9738564676227
 10
-4890.7070141557351
 20
-4449.9738564676227
 10
-4887.789675137984
 20
-4440.5672449346202
 10
-4888.9922333225049
 20
-4440.5672449346202
 10
-4888.7401371075775
 20
-4439.6150057854438
 10
-4887.525862702103
 20
-4439.6150057854438
 10
-4887.0957852430083
 20
-4438.2967992850945
 42
-0.0005863560635825
 10
-4887.0774179038808
 20
-4438.2383860748678
 10
-4887.039373987076
 20
-4438.1178899252563
 42
-0.0087522378933346
 10
-4886.9396399153429
 20
-4437.8202518816688
 10
-4886.8935077776405
 20
-4437.6901817974258
 42
-0.0077400953833979
 10
-4886.7645409480756
 20
-4437.3436794586523
 10
-4886.7566584622782
 20
-4437.3234640169385
 42
-0.0082369946325243
 10
-4886.6331162269798
 20
-4437.0214244838608
 42
-0.0085725238371776
 10
-4886.499493178977
 20
-4436.7237114642139
 10
-4886.4486783784851
 20
-4436.6155009132472
 42
-0.0168109410621536
 10
-4886.3052061641101
 20
-4436.3348971501728
 10
-4886.242284468648
 20
-4436.2214151332564
 42
-0.0007817726812405
 10
-4886.2151422938523
 20
-4436.1726430111594
 10
-4886.2150781408081
 20
-4436.1725281567278
 42
-0.0036626142237891
 10
-4886.1876342088326
 20
-4436.1242292168063
 42
-0.0080221150708429
 10
-4886.1590720811373
 20
-4436.0765895994427
 10
-4886.1437221054493
 20
-4436.0518941248683
 42
-0.0202139325530795
 10
-4886.0798942355477
 20
-4435.95790332453
 10
-4886.0528605029522
 20
-4435.9213638924075
 42
-0.0249323791791014
 10
-4885.9232791060922
 20
-4435.7633412713303
 10
-4885.9112091990282
 20
-4435.7500341348741
 42
-0.0242132121537005
 10
-4885.7413688282586
 20
-4435.5800923917723
 10
-4885.7174130418853
 20
-4435.5583378236815
 42
-0.0251017527869196
 10
-4885.5754221915622
 20
-4435.4418414507963
 10
-4885.5746994531637
 20
-4435.4413068220128
 42
-0.013086806901314
 10
-4885.425569128176
 20
-4435.3369165877357
 10
-4885.4247882186055
 20
-4435.3363998675986
 42
-0.0290329526387756
 10
-4885.2692326479082
 20
-4435.2459871167839
 10
-4885.254309866913
 20
-4435.2384359253629
 42
-0.016025019005582
 10
-4885.121357660033
 20
-4435.1764278702576
 42
-0.0267600374786418
 10
-4884.9837196212957
 20
-4435.1260537099824
 10
-4884.9703516615382
 20
-4435.1219574305705
 42
-0.0049981587791763
 10
-4884.9427650888947
 20
-4435.1138048304138
 42
-0.0049981587791763
  0
LWPOLYLINE
  5
4B
100
AcDbEntity
  8
0
370
              15
390
0
  6
Continuous
 62
               7
100
AcDbPolyline
 90
      118
 70
             128
 10
-4875.0355813066717
 20
-4439.6519974493576
 10
-4874.0980203444215
 20
-4439.6519974493576
 10
-4874.5170397972215
 20
-4440.9927807125578
 42
-0.0010587229335818
 10
-4874.5013118895213
 20
-4440.9743284459801
 10
-4874.4722148441197
 20
-4440.940337317792
 42
-0.0071874740346293
 10
-4874.3970272350489
 20
-4440.8550169717537
 10
-4874.3261658484389
 20
-4440.776898901122
 42
-0.0148118053529871
 10
-4874.1011012020908
 20
-4440.5430919781229
 10
-4874.0574900346191
 20
-4440.5003933176758
 42
-0.0086273358698559
 10
-4873.8897156341282
 20
-4440.3417055006794
 10
-4873.8677987760175
 20
-4440.3216806785149
 42
-0.0103138323101686
 10
-4873.7387869248987
 20
-4440.2085991098447
 10
-4873.7158997217311
 20
-4440.1893580862106
 42
-0.0060206748580515
 10
-4873.6294756896787
 20
-4440.1184607608366
 10
-4873.6284601242414
 20
-4440.1176479080259
 42
-0.0067069027339258
 10
-4873.5423137169046
 20
-4440.0505725911235
 10
-4873.5410393339316
 20
-4440.0496075061783
 42
-0.0076184352035987
 10
-4873.4555867010058
 20
-4439.9869200685644
 42
-0.0089652861707774
 10
-4873.368106219641
 20
-4439.9271034383992
 10
-4873.3499303595618
 20
-4439.9151478316526
 42
-0.015691624592828
 10
-4873.2519506109866
 20
-4439.8550165884189
 42
-0.0023299011090064
 10
-4873.1518195890203
 20
-4439.7984276186626
 10
-4873.1441275228062
 20
-4439.7941276211168
 42
-0.0107669341486013
 10
-4873.0270091102493
 20
-4439.7319275544378
 10
-4873.0158767097182
 20
-4439.7263191794664
 42
-0.0078058045862431
 10
-4872.8740816507416
 20
-4439.6576384516466
 10
-4872.8691281068877
 20
-4439.6553338877129
 42
-0.0181829330454406
 10
-4872.7139734045759
 20
-4439.5899020171637
 10
-4872.6869456833083
 20
-4439.5796444571979
 42
-0.0208411536045167
 10
-4872.5124031995711
 20
-4439.5215992259473
 10
-4872.505225149509
 20
-4439.5195400034709
 42
-0.0222799817156743
 10
-4872.3408652525486
 20
-4439.4802192203997
 10
-4872.336420770921
 20
-4439.4793632151059
 42
-0.021550952388201
 10
-4872.1781852867898
 20
-4439.4559053708399
 10
-4872.156944306269
 20
-4439.453686607445
 42
-0.0182545924873655
 10
-4872.039889916613
 20
-4439.4457646947503
 10
-4872.0201894084548
 20
-4439.4451524222113
 42
-0.0072962856569691
 10
-4871.942227968595
 20
-4439.4438677579492
 10
-4871.9276781333165
 20
-4439.4438403402473
 42
-0.0059227516365158
 10
-4871.8788033837363
 20
-4439.4443271961427
 10
-4871.8641822750988
 20
-4439.4446460794416
 42
-0.0011833111897984
 10
-4871.8445566331338
 20
-4439.4451205815985
 10
-4872.2422499309378
 20
-4440.714487554148
 42
0.0143932051776445
 10
-4872.2554506221277
 20
-4440.7093880691209
 10
-4872.259086608321
 20
-4440.7081024596973
 42
0.0234388603742055
 10
-4872.2800020412988
 20
-4440.7017928418363
 10
-4872.2843428727438
 20
-4440.7007023608367
 42
0.0199162743047416
 10
-4872.3144872897747
 20
-4440.6943939931716
 10
-4872.324894258687
 20
-4440.6926453934557
 42
0.0293643550663584
 10
-4872.3764316880633
 20
-4440.687070370629
 10
-4872.3887742784264
 20
-4440.686464562119
 42
0.0214606686832542
 10
-4872.4653447364026
 20
-4440.6859952819104
 10
-4872.4700306918121
 20
-4440.6861677376828
 42
0.0167564054138295
 10
-4872.5557907873554
 20
-4440.6922062588656
 10
-4872.5600206837462
 20
-4440.6926469290802
 42
0.0137677553262751
 10
-4872.6536973403754
 20
-4440.7050215833515
 10
-4872.6573732101315
 20
-4440.7056105433358
 42
0.0118497261481791
 10
-4872.7576220921765
 20
-4440.7241192184292
 10
-4872.7606970958059
 20
-4440.7247626497901
 42
0.0106421143873162
 10
-4872.8661375394568
 20
-4440.7491788375801
 10
-4872.868591943643
 20
-4440.7498025089208
 42
0.0099746379733365
 10
-4872.977821178235
 20
-4440.7798897730818
 10
-4873.0085951983092
 20
-4440.7890307123935
 42
0.019161367587231
 10
-4873.1765874295734
 20
-4440.8460194025392
 10
-4873.2206173159393
 20
-4440.862862857698
 42
0.0205274080133215
 10
-4873.4132707018907
 20
-4440.9457770616118
 10
-4873.4420953428807
 20
-4440.9596110438979
 42
0.0181256912215261
 10
-4873.5712338132143
 20
-4441.0274529533872
 10
-4873.5977115048681
 20
-4441.0426117599918
 42
0.0140709242340205
 10
-4873.6701889721862
 20
-4441.086859096712
 10
-4873.6833134064827
 20
-4441.0953875060613
 42
0.0086667884408601
 10
-4873.727776487267
 20
-4441.1253888400115
 42
0.0036408192075299
 10
-4873.7714931062919
 20
-4441.1564792689132
 10
-4873.7891065435178
 20
-4441.1691997418638
 42
0.005226078129382
 10
-4873.8672208922208
 20
-4441.2268659351857
 10
-4873.8753243203428
 20
-4441.2329799904892
 42
0.0050024435912397
 10
-4873.9683259918793
 20
-4441.3046212746267
 10
-4873.9759850701303
 20
-4441.3106442858443
 42
0.0136138710299907
 10
-4874.0812057042876
 20
-4441.3981275382966
 10
-4874.0980396421892
 20
-4441.4129170246579
 42
0.0172815186940614
 10
-4874.2302414130163
 20
-4441.5374153609646
 10
-4874.231522585942
 20
-4441.5387082695424
 42
0.0189403858012345
 10
-4874.3568134852339
 20
-4441.6751109019488
 10
-4874.3731292320017
 20
-4441.6942828676965
 42
0.0185044199518287
 10
-4874.4691074514894
 20
-4441.815907158255
 42
0.0088565243923772
 10
-4874.5583375048082
 20
-4441.9426653683377
 10
-4874.5629264946274
 20
-4441.9494360582103
 42
0.0157195347232999
 10
-4874.6545367977924
 20
-4442.0941971628627
 10
-4874.6775782687482
 20
-4442.1332732613555
 42
0.0095451879736204
 10
-4874.7601210438297
 20
-4442.2795705825556
 10
-4874.7656950032951
 20
-4442.2899059186238
 42
0.0100351706234367
 10
-4874.831716877874
 20
-4442.4184336988674
 42
0.00869359153899
 10
-4874.8928824537552
 20
-4442.5493502715353
 10
-4874.8945428244779
 20
-4442.5530714330562
 42
0.0072580174840172
 10
-4874.9547160504499
 20
-4442.6933674288439
 10
-4874.956346867104
 20
-4442.697327441856
 42
0.0060005122593457
 10
-4875.0159472012865
 20
-4442.8471322771884
 10
-4875.0175526904459
 20
-4442.851313041112
 42
0.004901778698442
 10
-4875.0770027698736
 20
-4443.01077753141
 10
-4875.0785856730699
 20
-4443.0151540000288
 42
0.0039415167593216
 10
-4875.1383038120757
 20
-4443.1844250311706
 10
-4875.1398693634237
 20
-4443.1889766316735
 42
0.0031035838750834
 10
-4875.2002717562409
 20
-4443.3681965624701
 10
-4875.2018267785361
 20
-4443.3729068732482
 42
0.0025070747177203
 10
-4875.2632774542226
 20
-4443.5622304818089
 10
-4875.2819244024067
 20
-4443.6206763143455
 42
0.0029081910283356
 10
-4875.3779335513336
 20
-4443.9277581435608
 10
-4875.398335135571
 20
-4443.9943697646295
 42
0.0009266453726949
 10
-4875.5325438227019
 20
-4444.4354819945056
 10
-4875.5429875591144
 20
-4444.4700379344285
 42
-0.0005809993669891
 10
-4875.6816558993432
 20
-4444.9269419875291
 10
-4875.714796798472
 20
-4445.0356844535818
 42
-0.0012018708185872
 10
-4875.7882889531948
 20
-4445.274765785869
 10
-4875.8144488790076
 20
-4445.3591453563995
 42
-0.0002691059518208
 10
-4875.8362336195614
 20
-4445.429279166473
 10
-4877.2527115687062
 20
-4449.9738564676227
 10
-4878.1617060146955
 20
-4449.9738564676227
 10
-4875.0355813066717
 20
-4439.6519974493576
  0
SPLINE
  5
4C
100
AcDbEntity
  8
0
370
              15
390
0
  6
Continuous
 62
               7
100
AcDbSpline
210
0.0
220
0.0
230
1.0
 70
              13
 71
               2
 72
             782
 73
             779
 74
               0
 42
0.000001
 43
0.000001
 40
0.0
 40
0.0
 40
0.0
 40
1.0
 40
1.0
 40
2.0
 40
2.0
 40
3.0
 40
3.0
 40
4.0
 40
4.0
 40
5.0
 40
5.0
 40
6.0
 40
6.0
 40
7.0
 40
7.0
 40
8.0
 40
8.0
 40
9.0
 40
9.0
 40
10.0
 40
10.0
 40
11.0
 40
11.0
 40
12.0
 40
12.0
 40
13.0
 40
13.0
 40
14.0
 40
14.0
 40
15.0
 40
15.0
 40
16.0
 40
16.0
 40
17.0
 40
17.0
 40
18.0
 40
18.0
 40
19.0
 40
19.0
 40
20.0
 40
20.0
 40
21.0
 40
21.0
 40
22.0
 40
22.0
 40
23.0
 40
23.0
 40
24.0
 40
24.0
 40
25.0
 40
25.0
 40
26.0
 40
26.0
 40
27.0
 40
27.0
 40
28.0
 40
28.0
 40
29.0
 40
29.0
 40
30.0
 40
30.0
 40
31.0
 40
31.0
 40
32.0
 40
32.0
 40
33.0
 40
33.0
 40
34.0
 40
34.0
 40
35.0
 40
35.0
 40
36.0
 40
36.0
 40
37.0
 40
37.0
 40
38.0
 40
38.0
 40
39.0
 40
39.0
 40
40.0
 40
40.0
 40
41.0
 40
41.0
 40
42.0
 40
42.0
 40
43.0
 40
43.0
 40
44.0
 40
44.0
 40
45.0
 40
45.0
 40
46.0
 40
46.0
 40
47.0
 40
47.0
 40
48.0
 40
48.0
 40
49.0
 40
49.0
 40
50.0
 40
50.0
 40
51.0
 40
51.0
 40
52.0
 40
52.0
 40
53.0
 40
53.0
 40
54.0
 40
54.0
 40
55.0
 40
55.0
 40
56.0
 40
56.0
 40
57.0
 40
57.0
 40
58.0
 40
58.0
 40
59.0
 40
59.0
 40
60.0
 40
60.0
 40
61.0
 40
61.0
 40
62.0
 40
62.0
 40
63.0
 40
63.0
 40
64.0
 40
64.0
 40
65.0
 40
65.0
 40
66.0
 40
66.0
 40
67.0
 40
67.0
 40
68.0
 40
68.0
 40
69.0
 40
69.0
 40
70.0
 40
70.0
 40
71.0
 40
71.0
 40
72.0
 40
72.0
 40
73.0
 40
73.0
 40
74.0
 40
74.0
 40
75.0
 40
75.0
 40
76.0
 40
76.0
 40
77.0
 40
77.0
 40
78.0
 40
78.0
 40
79.0
 40
79.0
 40
80.0
 40
80.0
 40
81.0
 40
81.0
 40
82.0
 40
82.0
 40
83.0
 40
83.0
 40
84.0
 40
84.0
 40
85.0
 40
85.0
 40
86.0
 40
86.0
 40
87.0
 40
87.0
 40
88.0
 40
88.0
 40
89.0
 40
89.0
 40
90.0
 40
90.0
 40
91.0
 40
91.0
 40
92.0
 40
92.0
 40
93.0
 40
93.0
 40
94.0
 40
94.0
 40
95.0
 40
95.0
 40
96.0
 40
96.0
 40
97.0
 40
97.0
 40
98.0
 40
98.0
 40
99.0
 40
99.0
 40
100.0
 40
100.0
 40
101.0
 40
101.0
 40
102.0
 40
102.0
 40
103.0
 40
103.0
 40
104.0
 40
104.0
 40
105.0
 40
105.0
 40
106.0
 40
106.0
 40
107.0
 40
107.0
 40
108.0
 40
108.0
 40
109.0
 40
109.0
 40
110.0
 40
110.0
 40
111.0
 40
111.0
 40
112.0
 40
112.0
 40
113.0
 40
113.0
 40
114.0
 40
114.0
 40
115.0
 40
115.0
 40
116.0
 40
116.0
 40
117.0
 40
117.0
 40
118.0
 40
118.0
 40
119.0
 40
119.0
 40
120.0
 40
120.0
 40
121.0
 40
121.0
 40
122.0
 40
122.0
 40
123.0
 40
123.0
 40
124.0
 40
124.0
 40
125.0
 40
125.0
 40
126.0
 40
126.0
 40
127.0
 40
127.0
 40
128.0
 40
128.0
 40
129.0
 40
129.0
 40
130.0
 40
130.0
 40
131.0
 40
131.0
 40
132.0
 40
132.0
 40
133.0
 40
133.0
 40
134.0
 40
134.0
 40
135.0
 40
135.0
 40
136.0
 40
136.0
 40
137.0
 40
137.0
 40
138.0
 40
138.0
 40
139.0
 40
139.0
 40
140.0
 40
140.0
 40
141.0
 40
141.0
 40
142.0
 40
142.0
 40
143.0
 40
143.0
 40
144.0
 40
144.0
 40
145.0
 40
145.0
 40
146.0
 40
146.0
 40
147.0
 40
147.0
 40
148.0
 40
148.0
 40
149.0
 40
149.0
 40
150.0
 40
150.0
 40
151.0
 40
151.0
 40
152.0
 40
152.0
 40
153.0
 40
153.0
 40
154.0
 40
154.0
 40
155.0
 40
155.0
 40
156.0
 40
156.0
 40
157.0
 40
157.0
 40
158.0
 40
158.0
 40
159.0
 40
159.0
 40
160.0
 40
160.0
 40
161.0
 40
161.0
 40
162.0
 40
162.0
 40
163.0
 40
163.0
 40
164.0
 40
164.0
 40
165.0
 40
165.0
 40
166.0
 40
166.0
 40
167.0
 40
167.0
 40
168.0
 40
168.0
 40
169.0
 40
169.0
 40
170.0
 40
170.0
 40
171.0
 40
171.0
 40
172.0
 40
172.0
 40
173.0
 40
173.0
 40
174.0
 40
174.0
 40
175.0
 40
175.0
 40
176.0
 40
176.0
 40
177.0
 40
177.0
 40
178.0
 40
178.0
 40
179.0
 40
179.0
 40
180.0
 40
180.0
 40
181.0
 40
181.0
 40
182.0
 40
182.0
 40
183.0
 40
183.0
 40
184.0
 40
184.0
 40
185.0
 40
185.0
 40
186.0
 40
186.0
 40
187.0
 40
187.0
 40
188.0
 40
188.0
 40
189.0
 40
189.0
 40
190.0
 40
190.0
 40
191.0
 40
191.0
 40
192.0
 40
192.0
 40
193.0
 40
193.0
 40
194.0
 40
194.0
 40
195.0
 40
195.0
 40
196.0
 40
196.0
 40
197.0
 40
197.0
 40
198.0
 40
198.0
 40
199.0
 40
199.0
 40
200.0
 40
200.0
 40
201.0
 40
201.0
 40
202.0
 40
202.0
 40
203.0
 40
203.0
 40
204.0
 40
204.0
 40
205.0
 40
205.0
 40
206.0
 40
206.0
 40
207.0
 40
207.0
 40
208.0
 40
208.0
 40
209.0
 40
209.0
 40
210.0
 40
210.0
 40
211.0
 40
211.0
 40
212.0
 40
212.0
 40
213.0
 40
213.0
 40
214.0
 40
214.0
 40
215.0
 40
215.0
 40
216.0
 40
216.0
 40
217.0
 40
217.0
 40
218.0
 40
218.0
 40
219.0
 40
219.0
 40
220.0
 40
220.0
 40
221.0
 40
221.0
 40
222.0
 40
222.0
 40
223.0
 40
223.0
 40
224.0
 40
224.0
 40
225.0
 40
225.0
 40
226.0
 40
226.0
 40
227.0
 40
227.0
 40
228.0
 40
228.0
 40
229.0
 40
229.0
 40
230.0
 40
230.0
 40
231.0
 40
231.0
 40
232.0
 40
232.0
 40
233.0
 40
233.0
 40
234.0
 40
234.0
 40
235.0
 40
235.0
 40
236.0
 40
236.0
 40
237.0
 40
237.0
 40
238.0
 40
238.0
 40
239.0
 40
239.0
 40
240.0
 40
240.0
 40
241.0
 40
241.0
 40
242.0
 40
242.0
 40
243.0
 40
243.0
 40
244.0
 40
244.0
 40
245.0
 40
245.0
 40
246.0
 40
246.0
 40
247.0
 40
247.0
 40
248.0
 40
248.0
 40
249.0
 40
249.0
 40
250.0
 40
250.0
 40
251.0
 40
251.0
 40
252.0
 40
252.0
 40
253.0
 40
253.0
 40
254.0
 40
254.0
 40
255.0
 40
255.0
 40
256.0
 40
256.0
 40
257.0
 40
257.0
 40
258.0
 40
258.0
 40
259.0
 40
259.0
 40
260.0
 40
260.0
 40
261.0
 40
261.0
 40
262.0
 40
262.0
 40
263.0
 40
263.0
 40
264.0
 40
264.0
 40
265.0
 40
265.0
 40
266.0
 40
266.0
 40
267.0
 40
267.0
 40
268.0
 40
268.0
 40
269.0
 40
269.0
 40
270.0
 40
270.0
 40
271.0
 40
271.0
 40
272.0
 40
272.0
 40
273.0
 40
273.0
 40
274.0
 40
274.0
 40
275.0
 40
275.0
 40
276.0
 40
276.0
 40
277.0
 40
277.0
 40
278.0
 40
278.0
 40
279.0
 40
279.0
 40
280.0
 40
280.0
 40
281.0
 40
281.0
 40
282.0
 40
282.0
 40
283.0
 40
283.0
 40
284.0
 40
284.0
 40
285.0
 40
285.0
 40
286.0
 40
286.0
 40
287.0
 40
287.0
 40
288.0
 40
288.0
 40
289.0
 40
289.0
 40
290.0
 40
290.0
 40
291.0
 40
291.0
 40
292.0
 40
292.0
 40
293.0
 40
293.0
 40
294.0
 40
294.0
 40
295.0
 40
295.0
 40
296.0
 40
296.0
 40
297.0
 40
297.0
 40
298.0
 40
298.0
 40
299.0
 40
299.0
 40
300.0
 40
300.0
 40
301.0
 40
301.0
 40
302.0
 40
302.0
 40
303.0
 40
303.0
 40
304.0
 40
304.0
 40
305.0
 40
305.0
 40
306.0
 40
306.0
 40
307.0
 40
307.0
 40
308.0
 40
308.0
 40
309.0
 40
309.0
 40
310.0
 40
310.0
 40
311.0
 40
311.0
 40
312.0
 40
312.0
 40
313.0
 40
313.0
 40
314.0
 40
314.0
 40
315.0
 40
315.0
 40
316.0
 40
316.0
 40
317.0
 40
317.0
 40
318.0
 40
318.0
 40
319.0
 40
319.0
 40
320.0
 40
320.0
 40
321.0
 40
321.0
 40
322.0
 40
322.0
 40
323.0
 40
323.0
 40
324.0
 40
324.0
 40
325.0
 40
325.0
 40
326.0
 40
326.0
 40
327.0
 40
327.0
 40
328.0
 40
328.0
 40
329.0
 40
329.0
 40
330.0
 40
330.0
 40
331.0
 40
331.0
 40
332.0
 40
332.0
 40
333.0
 40
333.0
 40
334.0
 40
334.0
 40
335.0
 40
335.0
 40
336.0
 40
336.0
 40
337.0
 40
337.0
 40
338.0
 40
338.0
 40
339.0
 40
339.0
 40
340.0
 40
340.0
 40
341.0
 40
341.0
 40
342.0
 40
342.0
 40
343.0
 40
343.0
 40
344.0
 40
344.0
 40
345.0
 40
345.0
 40
346.0
 40
346.0
 40
347.0
 40
347.0
 40
348.0
 40
348.0
 40
349.0
 40
349.0
 40
350.0
 40
350.0
 40
351.0
 40
351.0
 40
352.0
 40
352.0
 40
353.0
 40
353.0
 40
354.0
 40
354.0
 40
355.0
 40
355.0
 40
356.0
 40
356.0
 40
357.0
 40
357.0
 40
358.0
 40
358.0
 40
359.0
 40
359.0
 40
360.0
 40
360.0
 40
361.0
 40
361.0
 40
362.0
 40
362.0
 40
363.0
 40
363.0
 40
364.0
 40
364.0
 40
365.0
 40
365.0
 40
366.0
 40
366.0
 40
367.0
 40
367.0
 40
368.0
 40
368.0
 40
369.0
 40
369.0
 40
370.0
 40
370.0
 40
371.0
 40
371.0
 40
372.0
 40
372.0
 40
373.0
 40
373.0
 40
374.0
 40
374.0
 40
375.0
 40
375.0
 40
376.0
 40
376.0
 40
377.0
 40
377.0
 40
378.0
 40
378.0
 40
379.0
 40
379.0
 40
380.0
 40
380.0
 40
381.0
 40
381.0
 40
382.0
 40
382.0
 40
383.0
 40
383.0
 40
384.0
 40
384.0
 40
385.0
 40
385.0
 40
386.0
 40
386.0
 40
387.0
 40
387.0
 40
388.0
 40
388.0
 40
389.0
 40
389.0
 40
389.0
 10
-4869.8712290813055
 20
-4439.6465342676765
 30
0.0
 41
1.0
 10
-4869.4620170269445
 20
-4439.6465342676765
 30
0.0
 41
1.0
 10
-4869.0528049725845
 20
-4439.6465342676765
 30
0.0
 41
1.0
 10
-4869.2596818403435
 20
-4440.3178473998014
 30
0.0
 41
1.0
 10
-4869.4665587081017
 20
-4440.9891605319262
 30
0.0
 41
1.0
 10
-4869.4573889605008
 20
-4440.9748101454443
 30
0.0
 41
0.9999957264380733
 10
-4869.4481354620675
 20
-4440.9605136203409
 30
0.0
 41
1.0
 10
-4869.4329208000163
 20
-4440.93700718118
 30
0.0
 41
1.0
 10
-4869.4177061379651
 20
-4440.9135007420191
 30
0.0
 41
1.0
 10
-4869.3780233154157
 20
-4440.8521913385721
 30
0.0
 41
0.9995394069080454
 10
-4869.3346941196414
 20
-4440.7934023077041
 30
0.0
 41
1.0
 10
-4869.3168156885076
 20
-4440.7691448614023
 30
0.0
 41
1.0
 10
-4869.2989372573747
 20
-4440.7448874151014
 30
0.0
 41
1.0
 10
-4869.2320739234665
 20
-4440.6541672775393
 30
0.0
 41
0.9994460617142237
 10
-4869.159323682823
 20
-4440.5680960787158
 30
0.0
 41
1.0
 10
-4869.1571295923341
 20
-4440.5655002385229
 30
0.0
 41
1.0
 10
-4869.1549355018451
 20
-4440.5629043983299
 30
0.0
 41
1.0
 10
-4869.0865734421777
 20
-4440.4820248798887
 30
0.0
 41
0.9994359394933621
 10
-4869.0129363270034
 20
-4440.4059167793075
 30
0.0
 41
1.0
 10
-4869.0117446500244
 20
-4440.4046851141175
 30
0.0
 41
1.0
 10
-4869.0105529730445
 20
-4440.4034534489283
 30
0.0
 41
1.0
 10
-4868.9392992118246
 20
-4440.3298086787227
 30
0.0
 41
0.9995293688568385
 10
-4868.8636633713359
 20
-4440.2606720726435
 30
0.0
 41
1.0
 10
-4868.8540164917022
 20
-4440.2518541298159
 30
0.0
 41
1.0
 10
-4868.8443696120685
 20
-4440.2430361869892
 30
0.0
 41
1.0
 10
-4868.7880275308435
 20
-4440.1915354665598
 30
0.0
 41
0.9997087614801168
 10
-4868.7292660863677
 20
-4440.1428133261634
 30
0.0
 41
1.0
 10
-4868.7196830497842
 20
-4440.1348675369136
 30
0.0
 41
1.0
 10
-4868.7101000132006
 20
-4440.1269217476629
 30
0.0
 41
1.0
 10
-4868.6705046418938
 20
-4440.0940911857679
 30
0.0
 41
0.9999595338690765
 10
-4868.630325006463
 20
-4440.0619783204365
 30
0.0
 41
1.0
 10
-4868.5901453710312
 20
-4440.0298654551052
 30
0.0
 41
0.9999749417506575
 10
-4868.549515103854
 20
-4439.9983246781276
 30
0.0
 41
1.0
 10
-4868.5390220307891
 20
-4439.9901790344893
 30
0.0
 41
1.0
 10
-4868.5285289577241
 20
-4439.982033390851
 30
0.0
 41
1.0
 10
-4868.4862450150613
 20
-4439.9492088859215
 30
0.0
 41
0.9999792037112755
 10
-4868.4435412151624
 20
-4439.916932495089
 30
0.0
 41
1.0
 10
-4868.4331288022531
 20
-4439.9090625839954
 30
0.0
 41
1.0
 10
-4868.4227163893447
 20
-4439.9011926729017
 30
0.0
 41
1.0
 10
-4868.4008374153264
 20
-4439.8846561043038
 30
0.0
 41
0.9999993374019285
 10
-4868.3789965722062
 20
-4439.8680692065554
 30
0.0
 41
1.0
 10
-4868.3571557291316
 20
-4439.8514823088417
 30
0.0
 41
0.9999160953819355
 10
-4868.3348925236687
 20
-4439.8354667762396
 30
0.0
 41
1.0
 10
-4868.3184815799614
 20
-4439.8236611984494
 30
0.0
 41
1.0
 10
-4868.3020706362549
 20
-4439.8118556206591
 30
0.0
 41
1.0
 10
-4868.2469855433765
 20
-4439.7722289324756
 30
0.0
 41
0.9980964527232883
 10
-4868.187441046628
 20
-4439.7396851960484
 30
0.0
 41
1.0
 10
-4868.1689247431623
 20
-4439.7295652062512
 30
0.0
 41
1.0
 10
-4868.1504084396975
 20
-4439.719445216454
 30
0.0
 41
1.0
 10
-4868.0607449330619
 20
-4439.670440091104
 30
0.0
 41
0.9984572810574671
 10
-4867.966200649882
 20
-4439.6316789604307
 30
0.0
 41
1.0
 10
-4867.9643775151817
 20
-4439.6309315142607
 30
0.0
 41
1.0
 10
-4867.9625543804823
 20
-4439.6301840680908
 30
0.0
 41
1.0
 10
-4867.8716563666994
 20
-4439.5929178297565
 30
0.0
 41
0.9987838528037154
 10
-4867.7775300374224
 20
-4439.5647850096739
 30
0.0
 41
1.0
 10
-4867.7754110628175
 20
-4439.5641516828273
 30
0.0
 41
1.0
 10
-4867.7732920882127
 20
-4439.5635183559807
 30
0.0
 41
1.0
 10
-4867.6834037081371
 20
-4439.5366521895903
 30
0.0
 41
0.9990652816207482
 10
-4867.5915307422847
 20
-4439.5176503498205
 30
0.0
 41
1.0
 10
-4867.5889365417688
 20
-4439.517113798267
 30
0.0
 41
1.0
 10
-4867.5863423412529
 20
-4439.5165772467144
 30
0.0
 41
1.0
 10
-4867.4996577764259
 20
-4439.4986485100499
 30
0.0
 41
0.9992909934271296
 10
-4867.4118698931979
 20
-4439.487293293816
 30
0.0
 41
1.0
 10
-4867.3240820099754
 20
-4439.4759380775831
 30
0.0
 41
0.9994553539447452
 10
-4867.2357362934335
 20
-4439.4703984254811
 30
0.0
 41
1.0
 10
-4867.2180190895306
 20
-4439.4692874814573
 30
0.0
 41
1.0
 10
-4867.2003018856285
 20
-4439.4681765374326
 30
0.0
 41
1.0
 10
-4867.1171890023415
 20
-4439.4629650062261
 30
0.0
 41
0.9990928098291274
 10
-4867.03393410639
 20
-4439.4648448268435
 30
0.0
 41
1.0
 10
-4867.0146531887585
 20
-4439.4652801726097
 30
0.0
 41
1.0
 10
-4866.9953722711271
 20
-4439.4657155183768
 30
0.0
 41
1.0
 10
-4866.9506792104421
 20
-4439.466724647461
 30
0.0
 41
0.9998382089205304
 10
-4866.9060513690456
 20
-4439.4693407107243
 30
0.0
 41
1.0
 10
-4866.9058364159328
 20
-4439.4693533111749
 30
0.0
 41
1.0
 10
-4866.9056214628199
 20
-4439.4693659116265
 30
0.0
 41
1.0
 10
-4866.86142352765
 20
-4439.4719567739885
 30
0.0
 41
0.9997558016758764
 10
-4866.817383239053
 20
-4439.4764980316722
 30
0.0
 41
1.0
 10
-4866.8171451698217
 20
-4439.4765225804149
 30
0.0
 41
1.0
 10
-4866.8169071005914
 20
-4439.4765471291585
 30
0.0
 41
1.0
 10
-4866.7733429504369
 20
-4439.4810392893578
 30
0.0
 41
0.9996565144181182
 10
-4866.7300740237806
 20
-4439.4878079426999
 30
0.0
 41
1.0
 10
-4866.7298410610983
 20
-4439.487844385565
 30
0.0
 41
1.0
 10
-4866.729608098417
 20
-4439.4878808284293
 30
0.0
 41
1.0
 10
-4866.6868050971161
 20
-4439.4945765960429
 30
0.0
 41
0.9995321806865923
 10
-4866.6444915569464
 20
-4439.5038768402592
 30
0.0
 41
1.0
 10
-4866.6442969596665
 20
-4439.5039196114903
 30
0.0
 41
1.0
 10
-4866.6441023623875
 20
-4439.5039623827224
 30
0.0
 41
1.0
 10
-4866.6021780167894
 20
-4439.5131770844719
 30
0.0
 41
0.9993819199215482
 10
-4866.5610047496839
 20
-4439.5253147761041
 30
0.0
 41
1.0
 10
-4866.5608855329347
 20
-4439.5253499206592
 30
0.0
 41
1.0
 10
-4866.5607663161854
 20
-4439.5253850652134
 30
0.0
 41
1.0
 10
-4866.5198314825857
 20
-4439.5374524677345
 30
0.0
 41
0.9992088568505819
 10
-4866.4799852230917
 20
-4439.5527350856319
 30
0.0
 41
1.0
 10
-4866.4401447276523
 20
-4439.5680148859983
 30
0.0
 41
0.9990226101769844
 10
-4866.4018093926989
 20
-4439.586753601805
 30
0.0
 41
1.0
 10
-4866.3634798217954
 20
-4439.6054895000852
 30
0.0
 41
0.9988424273982723
 10
-4866.3271280081844
 20
-4439.6278218877142
 30
0.0
 41
1.0
 10
-4866.3269941539993
 20
-4439.6279041197477
 30
0.0
 41
1.0
 10
-4866.3268602998141
 20
-4439.6279863517811
 30
0.0
 41
1.0
 10
-4866.2902407778274
 20
-4439.6504832034807
 30
0.0
 41
0.9986928844490404
 10
-4866.256109344471
 20
-4439.6766010706215
 30
0.0
 41
1.0
 10
-4866.2558186983606
 20
-4439.6768234772344
 30
0.0
 41
1.0
 10
-4866.2555280522511
 20
-4439.6770458838473
 30
0.0
 41
1.0
 10
-4866.2208153266711
 20
-4439.7036085642176
 30
0.0
 41
0.9986007262276456
 10
-4866.1891022417849
 20
-4439.733688949068
 30
0.0
 41
1.0
 10
-4866.1886550340587
 20
-4439.7341131329831
 30
0.0
 41
1.0
 10
-4866.1882078263334
 20
-4439.7345373168973
 30
0.0
 41
1.0
 10
-4866.1556003259884
 20
-4439.7654660695825
 30
0.0
 41
0.9985581491381365
 10
-4866.1264965201344
 20
-4439.7997123147225
 30
0.0
 41
1.0
 10
-4866.1218672933401
 20
-4439.8051594935696
 30
0.0
 41
1.0
 10
-4866.1172380665457
 20
-4439.8106066724158
 30
0.0
 41
1.0
 10
-4866.0788758070985
 20
-4439.8557472752555
 30
0.0
 41
0.9970460233521993
 10
-4866.0478798565182
 20
-4439.9062308173479
 30
0.0
 41
1.0
 10
-4866.0406451739818
 20
-4439.9180140468816
 30
0.0
 41
1.0
 10
-4866.0334104914464
 20
-4439.9297972764152
 30
0.0
 41
1.0
 10
-4866.0135421414361
 20
-4439.962157138435
 30
0.0
 41
0.9988468816630898
 10
-4865.9968689560574
 20
-4439.9962733646553
 30
0.0
 41
1.0
 10
-4865.9933509448056
 20
-4440.0034718252373
 30
0.0
 41
1.0
 10
-4865.9898329335538
 20
-4440.0106702858184
 30
0.0
 41
1.0
 10
-4865.9801957706768
 20
-4440.0303895908819
 30
0.0
 41
0.9998431190002797
 10
-4865.9712631069342
 20
-4440.0504378680898
 30
0.0
 41
1.0
 10
-4865.9623304430661
 20
-4440.0704861455815
 30
0.0
 41
0.9999989990131007
 10
-4865.953341081231
 20
-4440.0905090646493
 30
0.0
 41
1.0
 10
-4865.9502549255567
 20
-4440.0973831727824
 30
0.0
 41
1.0
 10
-4865.9471687698824
 20
-4440.1042572809147
 30
0.0
 41
1.0
 10
-4865.9320070965859
 20
-4440.138028416497
 30
0.0
 41
0.9998790356319094
 10
-4865.9179031565254
 20
-4440.1722547924437
 30
0.0
 41
1.0
 10
-4865.9144855658797
 20
-4440.1805483431672
 30
0.0
 41
1.0
 10
-4865.911067975233
 20
-4440.1888418938906
 30
0.0
 41
1.0
 10
-4865.8992891440375
 20
-4440.2174258713449
 30
0.0
 41
0.9998227574560531
 10
-4865.8885947698382
 20
-4440.246433025497
 30
0.0
 41
1.0
 10
-4865.8779003956461
 20
-4440.275440179631
 30
0.0
 41
0.9996797971043302
 10
-4865.868687253168
 20
-4440.3049512391835
 30
0.0
 41
1.0
 10
-4865.8667353518031
 20
-4440.3112034682736
 30
0.0
 41
1.0
 10
-4865.8647834504391
 20
-4440.3174556973636
 30
0.0
 41
1.0
 10
-4865.8516665052339
 20
-4440.3594712150916
 30
0.0
 41
0.9979274938738435
 10
-4865.8440542434937
 20
-4440.4028233944218
 30
0.0
 41
1.0
 10
-4865.8429423998623
 20
-4440.4091553948383
 30
0.0
 41
1.0
 10
-4865.84183055623
 20
-4440.4154873952557
 30
0.0
 41
1.0
 10
-4865.8363655863823
 20
-4440.4466106488944
 30
0.0
 41
0.9994985982139649
 10
-4865.8328815037949
 20
-4440.4780173994586
 30
0.0
 41
1.0
 10
-4865.8293974212056
 20
-4440.509424150041
 30
0.0
 41
0.9996372611205407
 10
-4865.8276094883213
 20
-4440.5409729393941
 30
0.0
 41
1.0
 10
-4865.8275251995774
 20
-4440.5424602479234
 30
0.0
 41
1.0
 10
-4865.8274409108335
 20
-4440.5439475564526
 30
0.0
 41
1.0
 10
-4865.8254844004605
 20
-4440.5784709628779
 30
0.0
 41
0.9997730630734012
 10
-4865.8250002437171
 20
-4440.6130463748987
 30
0.0
 41
1.0
 10
-4865.8249716905084
 20
-4440.6150854644675
 30
0.0
 41
1.0
 10
-4865.8249431372988
 20
-4440.6171245540354
 30
0.0
 41
1.0
 10
-4865.8244018741379
 20
-4440.6557781453012
 30
0.0
 41
0.9998772614075525
 10
-4865.8250719175057
 20
-4440.6944297186901
 30
0.0
 41
1.0
 10
-4865.8251165491038
 20
-4440.6970043005003
 30
0.0
 41
1.0
 10
-4865.8251611807009
 20
-4440.6995788823115
 30
0.0
 41
1.0
 10
-4865.8259204872647
 20
-4440.7433796193945
 30
0.0
 41
0.9999415567324572
 10
-4865.8276266423863
 20
-4440.7871537001984
 30
0.0
 41
1.0
 10
-4865.8277473027247
 20
-4440.7902494301006
 30
0.0
 41
1.0
 10
-4865.8278679630639
 20
-4440.7933451600029
 30
0.0
 41
1.0
 10
-4865.8298154388631
 20
-4440.8433107005976
 30
0.0
 41
0.9999716810434086
 10
-4865.8325147304231
 20
-4440.8932412697332
 30
0.0
 41
1.0
 10
-4865.8341211298157
 20
-4440.9229558945244
 30
0.0
 41
1.0
 10
-4865.8357275292074
 20
-4440.9526705193148
 30
0.0
 41
1.0
 10
-4865.8397644837851
 20
-4441.0273447199725
 30
0.0
 41
0.9999819129902794
 10
-4865.8446993795942
 20
-4441.1019649588452
 30
0.0
 41
1.0
 10
-4865.8496342754024
 20
-4441.1765851977016
 30
0.0
 41
1.0
 10
-4865.8508539356844
 20
-4441.1951817206264
 30
0.0
 41
1.0
 10
-4865.8395048187613
 20
-4441.1758112219477
 30
0.0
 41
0.9999982128267457
 10
-4865.8280825393731
 20
-4441.1564837749511
 30
0.0
 41
1.0
 10
-4865.8146277594406
 20
-4441.1337171679388
 30
0.0
 41
1.0
 10
-4865.8011729795071
 20
-4441.1109505609274
 30
0.0
 41
1.0
 10
-4865.7628411402457
 20
-4441.0460898998945
 30
0.0
 41
0.9998609190057393
 10
-4865.7223674838142
 20
-4440.9825437089285
 30
0.0
 41
1.0
 10
-4865.7075433230757
 20
-4440.9592688424545
 30
0.0
 41
1.0
 10
-4865.6927191623372
 20
-4440.9359939759797
 30
0.0
 41
1.0
 10
-4865.6515830522167
 20
-4440.8714076909773
 30
0.0
 41
0.9999067609733443
 10
-4865.6086985474813
 20
-4440.8079688462522
 30
0.0
 41
1.0
 10
-4865.6074961958775
 20
-4440.8061902132195
 30
0.0
 41
1.0
 10
-4865.6062938442738
 20
-4440.8044115801877
 30
0.0
 41
1.0
 10
-4865.5658140427458
 20
-4440.7445300015279
 30
0.0
 41
0.9998784952152026
 10
-4865.5234872379078
 20
-4440.6859393931773
 30
0.0
 41
1.0
 10
-4865.4811604330753
 20
-4440.6273487848339
 30
0.0
 41
0.9998532968281125
 10
-4865.4368516226723
 20
-4440.5702423306093
 30
0.0
 41
1.0
 10
-4865.4268707281681
 20
-4440.5573786700879
 30
0.0
 41
1.0
 10
-4865.4168898336648
 20
-4440.5445150095675
 30
0.0
 41
1.0
 10
-4865.3576478087853
 20
-4440.4681622040835
 30
0.0
 41
0.9991551975796009
 10
-4865.2923355839739
 20
-4440.396932423042
 30
0.0
 41
1.0
 10
-4865.2905807759871
 20
-4440.3950186222337
 30
0.0
 41
1.0
 10
-4865.2888259680003
 20
-4440.3931048214245
 30
0.0
 41
1.0
 10
-4865.2270233591653
 20
-4440.3257026420033
 30
0.0
 41
0.9997418144181279
 10
-4865.1622222893111
 20
-4440.2611779366935
 30
0.0
 41
1.0
 10
-4865.0974212194642
 20
-4440.1966532313891
 30
0.0
 41
0.9989238204630517
 10
-4865.0269199453414
 20
-4440.1384107503727
 30
0.0
 41
1.0
 10
-4865.0042961062691
 20
-4440.1197207545665
 30
0.0
 41
1.0
 10
-4864.9816722671967
 20
-4440.1010307587594
 30
0.0
 41
1.0
 10
-4864.9115522385846
 20
-4440.0431032321139
 30
0.0
 41
0.9990825084098617
 10
-4864.8367322722834
 20
-4439.9913887331968
 30
0.0
 41
1.0
 10
-4864.8317095902594
 20
-4439.9879171266602
 30
0.0
 41
1.0
 10
-4864.8266869082354
 20
-4439.9844455201237
 30
0.0
 41
1.0
 10
-4864.7619123059858
 20
-4439.9396742342833
 30
0.0
 41
0.9998164899827194
 10
-4864.6954702042931
 20
-4439.8974171135224
 30
0.0
 41
1.0
 10
-4864.6895474240273
 20
-4439.8936502302577
 30
0.0
 41
1.0
 10
-4864.6836246437615
 20
-4439.889883346993
 30
0.0
 41
1.0
 10
-4864.6290281026022
 20
-4439.8551599927623
 30
0.0
 41
0.9997473449130935
 10
-4864.5729261239803
 20
-4439.8229255138558
 30
0.0
 41
1.0
 10
-4864.5168241453621
 20
-4439.790691034952
 30
0.0
 41
0.9999327861141142
 10
-4864.4599898399865
 20
-4439.7597660391148
 30
0.0
 41
1.0
 10
-4864.4597138386998
 20
-4439.7596158597717
 30
0.0
 41
1.0
 10
-4864.4594378374131
 20
-4439.7594656804285
 30
0.0
 41
1.0
 10
-4864.4020515294724
 20
-4439.7282403259096
 30
0.0
 41
0.9996956420484343
 10
-4864.3431948665539
 20
-4439.6998835924232
 30
0.0
 41
1.0
 10
-4864.3279746641019
 20
-4439.6925506040552
 30
0.0
 41
1.0
 10
-4864.31275446165
 20
-4439.6852176156872
 30
0.0
 41
1.0
 10
-4864.2612659082815
 20
-4439.6604107864678
 30
0.0
 41
0.999807057017682
 10
-4864.208842713816
 20
-4439.6376454930196
 30
0.0
 41
1.0
 10
-4864.1564195193414
 20
-4439.6148801995669
 30
0.0
 41
0.9997827436146528
 10
-4864.1030930510324
 20
-4439.5943196139096
 30
0.0
 41
1.0
 10
-4864.0934816262206
 20
-4439.5906138270948
 30
0.0
 41
1.0
 10
-4864.0838702014089
 20
-4439.5869080402808
 30
0.0
 41
1.0
 10
-4864.01132088347
 20
-4439.5589358809912
 30
0.0
 41
0.9988031841974854
 10
-4863.9363857021635
 20
-4439.5381858489072
 30
0.0
 41
1.0
 10
-4863.9239270779854
 20
-4439.5347359760053
 30
0.0
 41
1.0
 10
-4863.9114684538081
 20
-4439.5312861031025
 30
0.0
 41
1.0
 10
-4863.8278334409843
 20
-4439.5081270318979
 30
0.0
 41
0.9984748040546086
 10
-4863.7421549866594
 20
-4439.4943299157658
 30
0.0
 41
1.0
 10
-4863.7397854185347
 20
-4439.4939483355092
 30
0.0
 41
1.0
 10
-4863.7374158504108
 20
-4439.4935667552527
 30
0.0
 41
1.0
 10
-4863.6564765323355
 20
-4439.4805327996328
 30
0.0
 41
0.9984436495479101
 10
-4863.574589160472
 20
-4439.4765938227229
 30
0.0
 41
1.0
 10
-4863.5637405564112
 20
-4439.4760719791229
 30
0.0
 41
1.0
 10
-4863.5528919523504
 20
-4439.4755501355239
 30
0.0
 41
1.0
 10
-4863.4927017886148
 20
-4439.4726548458138
 30
0.0
 41
0.9987954789333666
 10
-4863.432517666155
 20
-4439.475673109685
 30
0.0
 41
1.0
 10
-4863.4225352699104
 20
-4439.476173731854
 30
0.0
 41
1.0
 10
-4863.4125528736668
 20
-4439.4766743540231
 30
0.0
 41
1.0
 10
-4863.3723335437026
 20
-4439.4786913735561
 30
0.0
 41
0.9997941595876566
 10
-4863.3322291546519
 20
-4439.4823384065166
 30
0.0
 41
1.0
 10
-4863.2921247656159
 20
-4439.4859854394763
 30
0.0
 41
0.9998589466238063
 10
-4863.2521654921975
 20
-4439.4909773666996
 30
0.0
 41
1.0
 10
-4863.2359623912835
 20
-4439.493001545161
 30
0.0
 41
1.0
 10
-4863.2197592903694
 20
-4439.4950257236214
 30
0.0
 41
1.0
 10
-4863.1473938151312
 20
-4439.5040660077666
 30
0.0
 41
0.9993495063249267
 10
-4863.0758681932475
 20
-4439.5182988626375
 30
0.0
 41
1.0
 10
-4863.0594013446735
 20
-4439.5215755942445
 30
0.0
 41
1.0
 10
-4863.0429344960994
 20
-4439.5248523258515
 30
0.0
 41
1.0
 10
-4862.9882875844969
 20
-4439.5357264929198
 30
0.0
 41
0.999678871556366
 10
-4862.9342617985185
 20
-4439.5493553926008
 30
0.0
 41
1.0
 10
-4862.9332302972589
 20
-4439.5496156058853
 30
0.0
 41
1.0
 10
-4862.9321987959993
 20
-4439.5498758191688
 30
0.0
 41
1.0
 10
-4862.8802360125501
 20
-4439.5629842922799
 30
0.0
 41
0.999548065449141
 10
-4862.8291548949255
 20
-4439.5791917705947
 30
0.0
 41
1.0
 10
-4862.8283100738554
 20
-4439.5794598230532
 30
0.0
 41
1.0
 10
-4862.8274652527853
 20
-4439.5797278755117
 30
0.0
 41
1.0
 10
-4862.7780737773064
 20
-4439.5953992489085
 30
0.0
 41
0.9993867959456935
 10
-4862.72990019809
 20
-4439.6144889335519
 30
0.0
 41
1.0
 10
-4862.7292787235456
 20
-4439.6147352045009
 30
0.0
 41
1.0
 10
-4862.7286572490011
 20
-4439.6149814754499
 30
0.0
 41
1.0
 10
-4862.6817266188664
 20
-4439.6335786181971
 30
0.0
 41
0.9992050256518716
 10
-4862.6364267813515
 20
-4439.6558555678157
 30
0.0
 41
1.0
 10
-4862.6360594399966
 20
-4439.6560362140453
 30
0.0
 41
1.0
 10
-4862.6356920986418
 20
-4439.656216860275
 30
0.0
 41
1.0
 10
-4862.5911269438366
 20
-4439.6781325174343
 30
0.0
 41
0.9990222350739898
 10
-4862.5486719131386
 20
-4439.7038991512845
 30
0.0
 41
1.0
 10
-4862.5485799704929
 20
-4439.7039549527399
 30
0.0
 41
1.0
 10
-4862.5484880278482
 20
-4439.7040107541943
 30
0.0
 41
1.0
 10
-4862.5062168824379
 20
-4439.7296657851366
 30
0.0
 41
0.9988642743807634
 10
-4862.4665796151321
 20
-4439.7592278788961
 30
0.0
 41
1.0
 10
-4862.4269423478227
 20
-4439.7887899726593
 30
0.0
 41
0.9987681233312633
 10
-4862.3904304556845
 20
-4439.8221353183599
 30
0.0
 41
1.0
 10
-4862.3902659917021
 20
-4439.822285518967
 30
0.0
 41
1.0
 10
-4862.3901015277188
 20
-4439.8224357195741
 30
0.0
 41
1.0
 10
-4862.3532607076131
 20
-4439.8560814664897
 30
0.0
 41
0.9987496570898287
 10
-4862.3199638049482
 20
-4439.8932378735344
 30
0.0
 41
1.0
 10
-4862.319577720069
 20
-4439.8936687102123
 30
0.0
 41
1.0
 10
-4862.3191916351907
 20
-4439.8940995468893
 30
0.0
 41
1.0
 10
-4862.2851225627655
 20
-4439.9321176272915
 30
0.0
 41
0.9988147669825481
 10
-4862.2549114356534
 20
-4439.9732681307132
 30
0.0
 41
1.0
 10
-4862.2543517726153
 20
-4439.9740304463885
 30
0.0
 41
1.0
 10
-4862.2537921095764
 20
-4439.9747927620647
 30
0.0
 41
1.0
 10
-4862.2224616563872
 20
-4440.0174678968369
 30
0.0
 41
0.9989452636214363
 10
-4862.1951781999078
 20
-4440.062837241413
 30
0.0
 41
1.0
 10
-4862.1945038368631
 20
-4440.0639586319285
 30
0.0
 41
1.0
 10
-4862.1938294738193
 20
-4440.065080022443
 30
0.0
 41
1.0
 10
-4862.1651972912578
 20
-4440.1126921480391
 30
0.0
 41
0.999104643606635
 10
-4862.1406926846021
 20
-4440.1625543645423
 30
0.0
 41
1.0
 10
-4862.1399607538024
 20
-4440.164043704588
 30
0.0
 41
1.0
 10
-4862.1392288230027
 20
-4440.1655330446338
 30
0.0
 41
1.0
 10
-4862.1132603547539
 20
-4440.2183739412148
 30
0.0
 41
0.999276383109778
 10
-4862.0913837904791
 20
-4440.2730359721872
 30
0.0
 41
1.0
 10
-4862.0906441556454
 20
-4440.2748840659588
 30
0.0
 41
1.0
 10
-4862.0899045208116
 20
-4440.2767321597303
 30
0.0
 41
1.0
 10
-4862.0665486868747
 20
-4440.3350903782284
 30
0.0
 41
0.9994163472881633
 10
-4862.0472321712832
 20
-4440.3949071724473
 30
0.0
 41
1.0
 10
-4862.0466130951536
 20
-4440.396824244357
 30
0.0
 41
1.0
 10
-4862.0459940190249
 20
-4440.3987413162658
 30
0.0
 41
1.0
 10
-4862.0260522385179
 20
-4440.4604943470013
 30
0.0
 41
0.9997268055893543
 10
-4862.0090182105632
 20
-4440.5231118629708
 30
0.0
 41
1.0
 10
-4862.0085531204268
 20
-4440.5248215460315
 30
0.0
 41
1.0
 10
-4862.0080880302903
 20
-4440.5265312290921
 30
0.0
 41
1.0
 10
-4861.9919841826068
 20
-4440.5857293789522
 30
0.0
 41
0.9996701319003469
 10
-4861.9789413742219
 20
-4440.645676355578
 30
0.0
 41
1.0
 10
-4861.9658985658389
 20
-4440.7056233321991
 30
0.0
 41
0.9995785451106899
 10
-4861.9563567771711
 20
-4440.766226212706
 30
0.0
 41
1.0
 10
-4861.9542468860818
 20
-4440.7796267900994
 30
0.0
 41
1.0
 10
-4861.9521369949935
 20
-4440.7930273674929
 30
0.0
 41
1.0
 10
-4861.9388495070243
 20
-4440.8774203543435
 30
0.0
 41
0.9979925101216137
 10
-4861.9363367140613
 20
-4440.9628160183884
 30
0.0
 41
1.0
 10
-4861.9359243078488
 20
-4440.976831380166
 30
0.0
 41
1.0
 10
-4861.9355119016354
 20
-4440.9908467419436
 30
0.0
 41
1.0
 10
-4861.9338239210992
 20
-4441.0482116824714
 30
0.0
 41
0.9995314902267344
 10
-4861.9356490171676
 20
-4441.1055724243106
 30
0.0
 41
1.0
 10
-4861.9374741132369
 20
-4441.1629331661898
 30
0.0
 41
0.9996245486946539
 10
-4861.9424386608025
 20
-4441.2201078017551
 30
0.0
 41
1.0
 10
-4861.9425201847989
 20
-4441.2210466798188
 30
0.0
 41
1.0
 10
-4861.9426017087962
 20
-4441.2219855578833
 30
0.0
 41
1.0
 10
-4861.9477293043556
 20
-4441.2810379495786
 30
0.0
 41
0.9997286095000497
 10
-4861.9556019661404
 20
-4441.3397874040238
 30
0.0
 41
1.0
 10
-4861.9557987124663
 20
-4441.3412556163767
 30
0.0
 41
1.0
 10
-4861.9559954587912
 20
-4441.3427238287295
 30
0.0
 41
1.0
 10
-4861.9642616132242
 20
-4441.4044097078586
 30
0.0
 41
0.9998265533968339
 10
-4861.9748193425876
 20
-4441.4657449452325
 30
0.0
 41
1.0
 10
-4861.9751576136596
 20
-4441.467710134506
 30
0.0
 41
1.0
 10
-4861.9754958847316
 20
-4441.4696753237804
 30
0.0
 41
1.0
 10
-4861.9867301562308
 20
-4441.5349409396586
 30
0.0
 41
0.9999022530852972
 10
-4861.9997848885314
 20
-4441.5998669239534
 30
0.0
 41
1.0
 10
-4862.0002742091183
 20
-4441.6023004951712
 30
0.0
 41
1.0
 10
-4862.0007635297061
 20
-4441.6047340663881
 30
0.0
 41
1.0
 10
-4862.0147969031741
 20
-4441.6745271930849
 30
0.0
 41
0.9999524761938521
 10
-4862.0301883875882
 20
-4441.744033439657
 30
0.0
 41
1.0
 10
-4862.0308264411779
 20
-4441.7469148193177
 30
0.0
 41
1.0
 10
-4862.0314644947684
 20
-4441.7497961989793
 30
0.0
 41
1.0
 10
-4862.0481320863555
 20
-4441.8250652048391
 30
0.0
 41
0.9999813588730766
 10
-4862.0657175867482
 20
-4441.9001250611436
 30
0.0
 41
1.0
 10
-4862.0664945494827
 20
-4441.9034413563795
 30
0.0
 41
1.0
 10
-4862.0672715122164
 20
-4441.9067576516154
 30
0.0
 41
1.0
 10
-4862.0864109380655
 20
-4441.9884500983471
 30
0.0
 41
0.9999955237737953
 10
-4862.1060388770511
 20
-4442.0700265501318
 30
0.0
 41
1.0
 10
-4862.1121796948728
 20
-4442.0955486454113
 30
0.0
 41
1.0
 10
-4862.1183205126945
 20
-4442.1210707406917
 30
0.0
 41
1.0
 10
-4862.150230087409
 20
-4442.2536913833865
 30
0.0
 41
0.999999360405376
 10
-4862.1824395610911
 20
-4442.386239509131
 30
0.0
 41
1.0
 10
-4862.1847989787711
 20
-4442.3959489627659
 30
0.0
 41
1.0
 10
-4862.1871583964512
 20
-4442.4056584164009
 30
0.0
 41
1.0
 10
-4862.224086705578
 20
-4442.5576254497682
 30
0.0
 41
0.9999659914733848
 10
-4862.2635165035172
 20
-4442.7089627230353
 30
0.0
 41
1.0
 10
-4862.2659928479861
 20
-4442.7184672916392
 30
0.0
 41
1.0
 10
-4862.2684691924542
 20
-4442.7279718602422
 30
0.0
 41
1.0
 10
-4862.3128516793349
 20
-4442.8983182707307
 30
0.0
 41
0.9999441976026169
 10
-4862.360823195826
 20
-4443.0676889834103
 30
0.0
 41
1.0
 10
-4862.3691734550302
 20
-4443.0971708396446
 30
0.0
 41
1.0
 10
-4862.3775237142345
 20
-4443.1266526958789
 30
0.0
 41
1.0
 10
-4862.4421957491413
 20
-4443.3549871210562
 30
0.0
 41
0.9999625120734614
 10
-4862.510812132803
 20
-4443.5821673880537
 30
0.0
 41
1.0
 10
-4862.5287071043513
 20
-4443.6414154013892
 30
0.0
 41
1.0
 10
-4862.5466020758995
 20
-4443.7006634147247
 30
0.0
 41
1.0
 10
-4862.583862177913
 20
-4443.8240269537528
 30
0.0
 41
0.9999793386314909
 10
-4862.6227051894748
 20
-4443.9469012733498
 30
0.0
 41
1.0
 10
-4862.6615482010438
 20
-4444.0697755929677
 30
0.0
 41
1.0
 10
-4862.6669379804798
 20
-4444.0867845451548
 30
0.0
 41
1.0
 10
-4863.592124507114
 20
-4447.0303205063883
 30
0.0
 41
1.0
 10
-4864.5173110337482
 20
-4449.9738564676227
 30
0.0
 41
1.0
 10
-4864.9979393787598
 20
-4449.9738564676227
 30
0.0
 41
1.0
 10
-4865.4785677237724
 20
-4449.9738564676227
 30
0.0
 41
1.0
 10
-4864.6690953344332
 20
-4447.3998422167278
 30
0.0
 41
1.0
 10
-4863.8596229450941
 20
-4444.825827965833
 30
0.0
 41
1.0
 10
-4863.8370400335125
 20
-4444.7538123547165
 30
0.0
 41
1.0
 10
-4863.8144571219309
 20
-4444.6817967435991
 30
0.0
 41
1.0
 10
-4863.7293049132441
 20
-4444.410251229001
 30
0.0
 41
0.999991165791115
 10
-4863.6464385073978
 20
-4444.1379994633007
 30
0.0
 41
1.0
 10
-4863.6315905356341
 20
-4444.0892174932314
 30
0.0
 41
1.0
 10
-4863.6167425638705
 20
-4444.0404355231622
 30
0.0
 41
1.0
 10
-4863.5635721015451
 20
-4443.8657476975741
 30
0.0
 41
0.9999952428135435
 10
-4863.5114803068955
 20
-4443.6907351854434
 30
0.0
 41
1.0
 10
-4863.5089505717369
 20
-4443.6822360483293
 30
0.0
 41
1.0
 10
-4863.5064208365775
 20
-4443.6737369112161
 30
0.0
 41
1.0
 10
-4863.4593885122385
 20
-4443.5157226732899
 30
0.0
 41
0.9999931687549392
 10
-4863.4135255932961
 20
-4443.3573650666331
 30
0.0
 41
1.0
 10
-4863.4110579610897
 20
-4443.3488447120762
 30
0.0
 41
1.0
 10
-4863.4085903288824
 20
-4443.3403243575194
 30
0.0
 41
1.0
 10
-4863.3676626743818
 20
-4443.1990074600762
 30
0.0
 41
0.9999893840813932
 10
-4863.3280390611308
 20
-4443.0573193953751
 30
0.0
 41
1.0
 10
-4863.288415447887
 20
-4442.9156313306994
 30
0.0
 41
0.9999833980063296
 10
-4863.2504273275044
 20
-4442.7734960391363
 30
0.0
 41
1.0
 10
-4863.2459253591569
 20
-4442.7566515999479
 30
0.0
 41
1.0
 10
-4863.2414233908094
 20
-4442.7398071607595
 30
0.0
 41
1.0
 10
-4863.2069411163757
 20
-4442.6107892446107
 30
0.0
 41
0.9999233658063147
 10
-4863.1756636307655
 20
-4442.4809571652486
 30
0.0
 41
1.0
 10
-4863.1443861451553
 20
-4442.3511250858874
 30
0.0
 41
1.0
 10
-4863.1246444357266
 20
-4442.2692217536742
 30
0.0
 41
1.0
 10
-4863.1221551337458
 20
-4442.2588942727725
 30
0.0
 41
1.0
 10
-4863.1196658317649
 20
-4442.24856679187
 30
0.0
 41
1.0
 10
-4863.1049027263052
 20
-4442.1873184214928
 30
0.0
 41
0.9999868670861107
 10
-4863.0907681843
 20
-4442.1259219486383
 30
0.0
 41
1.0
 10
-4863.0888194407216
 20
-4442.1174571549327
 30
0.0
 41
1.0
 10
-4863.0868706971441
 20
-4442.1089923612271
 30
0.0
 41
1.0
 10
-4863.076633642303
 20
-4442.0645254758201
 30
0.0
 41
0.9999778173345405
 10
-4863.0669898432443
 20
-4442.0199261672005
 30
0.0
 41
1.0
 10
-4863.0573460441983
 20
-4441.9753268586401
 30
0.0
 41
0.9999602692862958
 10
-4863.0484988648923
 20
-4441.9305627144777
 30
0.0
 41
1.0
 10
-4863.0468969488429
 20
-4441.9224574869822
 30
0.0
 41
1.0
 10
-4863.0452950327935
 20
-4441.9143522594868
 30
0.0
 41
1.0
 10
-4863.0332440213979
 20
-4441.8533776603763
 30
0.0
 41
0.9995617985319965
 10
-4863.0248223477874
 20
-4441.7917967865114
 30
0.0
 41
1.0
 10
-4863.0235901028373
 20
-4441.7827863778448
 30
0.0
 41
1.0
 10
-4863.0223578578862
 20
-4441.7737759691781
 30
0.0
 41
1.0
 10
-4863.012216227361
 20
-4441.6996184443224
 30
0.0
 41
0.9991121410636989
 10
-4863.0083535505664
 20
-4441.624870394915
 30
0.0
 41
1.0
 10
-4863.0078941555539
 20
-4441.6159804766212
 30
0.0
 41
1.0
 10
-4863.0074347605414
 20
-4441.6070905583274
 30
0.0
 41
1.0
 10
-4863.0044908737727
 20
-4441.5501223455058
 30
0.0
 41
0.9989792494903096
 10
-4863.0067004198318
 20
-4441.4931209275637
 30
0.0
 41
1.0
 10
-4863.0070244057661
 20
-4441.4847628045991
 30
0.0
 41
1.0
 10
-4863.0073483917004
 20
-4441.4764046816344
 30
0.0
 41
1.0
 10
-4863.0089099658899
 20
-4441.4361195096135
 30
0.0
 41
0.9997820295390792
 10
-4863.0121519645782
 20
-4441.3959346487427
 30
0.0
 41
1.0
 10
-4863.0153939632637
 20
-4441.3557497878946
 30
0.0
 41
0.9998335105974083
 10
-4863.0201000610159
 20
-4441.3157099796917
 30
0.0
 41
1.0
 10
-4863.0208975233563
 20
-4441.3089251144265
 30
0.0
 41
1.0
 10
-4863.0216949856976
 20
-4441.3021402491613
 30
0.0
 41
1.0
 10
-4863.0279960081307
 20
-4441.2485307104434
 30
0.0
 41
0.9996876457876434
 10
-4863.0369679645328
 20
-4441.1953029965762
 30
0.0
 41
1.0
 10
-4863.0380837961029
 20
-4441.1886831289685
 30
0.0
 41
1.0
 10
-4863.039199627673
 20
-4441.1820632613617
 30
0.0
 41
1.0
 10
-4863.0460975383839
 20
-4441.1411401893783
 30
0.0
 41
0.9995547496498695
 10
-4863.0554241993304
 20
-4441.1007014407787
 30
0.0
 41
1.0
 10
-4863.0556111777641
 20
-4441.0998907354342
 30
0.0
 41
1.0
 10
-4863.0557981561979
 20
-4441.0990800300897
 30
0.0
 41
1.0
 10
-4863.0647508602751
 20
-4441.0602626921918
 30
0.0
 41
0.9994899427178312
 10
-4863.0761633146167
 20
-4441.0220960507668
 30
0.0
 41
1.0
 10
-4863.0763925779902
 20
-4441.0213293258603
 30
0.0
 41
1.0
 10
-4863.0766218413646
 20
-4441.0205626009547
 30
0.0
 41
1.0
 10
-4863.0875757689601
 20
-4440.9839294093381
 30
0.0
 41
0.9993784877583081
 10
-4863.10108358651
 20
-4440.9481590567702
 30
0.0
 41
1.0
 10
-4863.1013494320032
 20
-4440.9474550653986
 30
0.0
 41
1.0
 10
-4863.1016152774955
 20
-4440.9467510740269
 30
0.0
 41
1.0
 10
-4863.1145914040681
 20
-4440.9123887041787
 30
0.0
 41
0.9992430832252949
 10
-4863.1301996716429
 20
-4440.8791391281557
 30
0.0
 41
1.0
 10
-4863.1304907296708
 20
-4440.8785191005991
 30
0.0
 41
1.0
 10
-4863.1307817876977
 20
-4440.8778990730425
 30
0.0
 41
1.0
 10
-4863.1458079392214
 20
-4440.8458895521235
 30
0.0
 41
0.9990789632793905
 10
-4863.1635232526114
 20
-4440.8152862462466
 30
0.0
 41
1.0
 10
-4863.1638211057034
 20
-4440.8147717033153
 30
0.0
 41
1.0
 10
-4863.1641189587954
 20
-4440.8142571603848
 30
0.0
 41
1.0
 10
-4863.1812385660014
 20
-4440.7846829403697
 30
0.0
 41
0.9988874801118203
 10
-4863.2010682040154
 20
-4440.7568530841636
 30
0.0
 41
1.0
 10
-4863.201345967047
 20
-4440.7564632583271
 30
0.0
 41
1.0
 10
-4863.2016237300777
 20
-4440.7560734324916
 30
0.0
 41
1.0
 10
-4863.2208978420304
 20
-4440.7290232279556
 30
0.0
 41
0.998676206069446
 10
-4863.2428490776692
 20
-4440.704096370735
 30
0.0
 41
1.0
 10
-4863.2430710578301
 20
-4440.7038442998328
 30
0.0
 41
1.0
 10
-4863.2432930379919
 20
-4440.7035922289297
 30
0.0
 41
1.0
 10
-4863.2648003133017
 20
-4440.6791695135216
 30
0.0
 41
0.9984621642486319
 10
-4863.2888790916968
 20
-4440.6572778632799
 30
0.0
 41
1.0
 10
-4863.2890024089565
 20
-4440.6571657471968
 30
0.0
 41
1.0
 10
-4863.2891257262163
 20
-4440.6570536311137
 30
0.0
 41
1.0
 10
-4863.3129578700873
 20
-4440.6353862130427
 30
0.0
 41
0.9982724693852627
 10
-4863.3391671860063
 20
-4440.6166640377851
 30
0.0
 41
1.0
 10
-4863.3653765019326
 20
-4440.5979418625229
 30
0.0
 41
0.9981399180161611
 10
-4863.3936695336333
 20
-4440.5825486027989
 30
0.0
 41
1.0
 10
-4863.393692364667
 20
-4440.5825361812231
 30
0.0
 41
1.0
 10
-4863.3937151957016
 20
-4440.5825237596473
 30
0.0
 41
1.0
 10
-4863.4220538894815
 20
-4440.5671056567662
 30
0.0
 41
0.9980927086842674
 10
-4863.4520765650195
 20
-4440.5552972523383
 30
0.0
 41
1.0
 10
-4863.4522966498707
 20
-4440.5552106894029
 30
0.0
 41
1.0
 10
-4863.4525167347219
 20
-4440.5551241264675
 30
0.0
 41
1.0
 10
-4863.4829795799615
 20
-4440.5431425961688
 30
0.0
 41
0.9981411356569804
 10
-4863.5146738406538
 20
-4440.5349562754163
 30
0.0
 41
1.0
 10
-4863.5151148990117
 20
-4440.5348423543119
 30
0.0
 41
1.0
 10
-4863.5155559573686
 20
-4440.5347284332074
 30
0.0
 41
1.0
 10
-4863.5481323347758
 20
-4440.5263142702479
 30
0.0
 41
0.9983031812930164
 10
-4863.581466049277
 20
-4440.5217445896606
 30
0.0
 41
1.0
 10
-4863.5859015619717
 20
-4440.5211365303257
 30
0.0
 41
1.0
 10
-4863.5903370746664
 20
-4440.5205284709909
 30
0.0
 41
1.0
 10
-4863.61751189592
 20
-4440.5168031059948
 30
0.0
 41
0.9983887708260474
 10
-4863.6449338205684
 20
-4440.5161807691784
 30
0.0
 41
1.0
 10
-4863.648965523189
 20
-4440.5160892702406
 30
0.0
 41
1.0
 10
-4863.6529972258095
 20
-4440.5159977713029
 30
0.0
 41
1.0
 10
-4863.6723557452269
 20
-4440.5155584323611
 30
0.0
 41
0.9998869563075157
 10
-4863.6917187218169
 20
-4440.5157013670414
 30
0.0
 41
1.0
 10
-4863.7110816984768
 20
-4440.5158443017208
 30
0.0
 41
0.9999972320133369
 10
-4863.7304437881394
 20
-4440.5160783514866
 30
0.0
 41
1.0
 10
-4863.7401202963711
 20
-4440.5161953215302
 30
0.0
 41
1.0
 10
-4863.7497968046027
 20
-4440.5163122915746
 30
0.0
 41
1.0
 10
-4863.7885119107832
 20
-4440.5167802814285
 30
0.0
 41
0.9997304945088172
 10
-4863.8271635638976
 20
-4440.5190448283211
 30
0.0
 41
1.0
 10
-4863.8316883847547
 20
-4440.5193099313165
 30
0.0
 41
1.0
 10
-4863.8362132056118
 20
-4440.5195750343119
 30
0.0
 41
1.0
 10
-4863.8839145004331
 20
-4440.5223697871943
 30
0.0
 41
0.9997888306414191
 10
-4863.9314606683511
 20
-4440.5271222694382
 30
0.0
 41
1.0
 10
-4863.9358211991403
 20
-4440.5275581267542
 30
0.0
 41
1.0
 10
-4863.9401817299295
 20
-4440.5279939840711
 30
0.0
 41
1.0
 10
-4863.9964489594249
 20
-4440.533618180948
 30
0.0
 41
0.9984170238190764
 10
-4864.0517285331016
 20
-4440.5455262219166
 30
0.0
 41
1.0
 10
-4864.0699190985943
 20
-4440.5494447398196
 30
0.0
 41
1.0
 10
-4864.088109664086
 20
-4440.5533632577217
 30
0.0
 41
1.0
 10
-4864.1457051982952
 20
-4440.5657701909768
 30
0.0
 41
0.9976592854201838
 10
-4864.2010692814983
 20
-4440.5859195295507
 30
0.0
 41
1.0
 10
-4864.2564333646978
 20
-4440.6060688681227
 30
0.0
 41
0.9993255074352904
 10
-4864.3101692640903
 20
-4440.6302273173669
 30
0.0
 41
1.0
 10
-4864.3124818535543
 20
-4440.6312670054685
 30
0.0
 41
1.0
 10
-4864.3147944430193
 20
-4440.6323066935693
 30
0.0
 41
1.0
 10
-4864.3731555213362
 20
-4440.6585445190149
 30
0.0
 41
0.9976475078277723
 10
-4864.4273791934902
 20
-4440.6925185138434
 30
0.0
 41
1.0
 10
-4864.4365503905628
 20
-4440.6982647532532
 30
0.0
 41
1.0
 10
-4864.4457215876346
 20
-4440.7040109926638
 30
0.0
 41
1.0
 10
-4864.4878226834062
 20
-4440.7303895530449
 30
0.0
 41
0.9995131336404551
 10
-4864.5281965408831
 20
-4440.7593426590211
 30
0.0
 41
1.0
 10
-4864.56857039836
 20
-4440.7882957649963
 30
0.0
 41
0.9995810107605594
 10
-4864.6072012222239
 20
-4440.8195366062282
 30
0.0
 41
1.0
 10
-4864.6086862378306
 20
-4440.8207375419615
 30
0.0
 41
1.0
 10
-4864.6101712534364
 20
-4440.8219384776949
 30
0.0
 41
1.0
 10
-4864.6517721085092
 20
-4440.8555811903907
 30
0.0
 41
0.9996617837954965
 10
-4864.6915674520751
 20
-4440.8913414181688
 30
0.0
 41
1.0
 10
-4864.6976328275105
 20
-4440.8967917846612
 30
0.0
 41
1.0
 10
-4864.7036982029449
 20
-4440.9022421511536
 30
0.0
 41
1.0
 10
-4864.7378359666482
 20
-4440.9329184588942
 30
0.0
 41
0.9997267750055272
 10
-4864.7705027207958
 20
-4440.9651567271621
 30
0.0
 41
1.0
 10
-4864.8031694749361
 20
-4440.9973949954228
 30
0.0
 41
0.9999667288961718
 10
-4864.8353059465062
 20
-4441.0301618988669
 30
0.0
 41
1.0
 10
-4864.8697196703961
 20
-4441.0652507282484
 30
0.0
 41
1.0
 10
-4864.904133394286
 20
-4441.1003395576299
 30
0.0
 41
1.0
 10
-4865.005097313634
 20
-4441.2032841198343
 30
0.0
 41
0.9988205335174271
 10
-4865.0956001221248
 20
-4441.3155362358657
 30
0.0
 41
1.0
 10
-4865.1109201045765
 20
-4441.3345378610811
 30
0.0
 41
1.0
 10
-4865.1262400870291
 20
-4441.3535394862956
 30
0.0
 41
1.0
 10
-4865.2473828604252
 20
-4441.5037948527588
 30
0.0
 41
0.9997077826755172
 10
-4865.3611218359802
 20
-4441.6597297498693
 30
0.0
 41
1.0
 10
-4865.3619835435438
 20
-4441.6609111415564
 30
0.0
 41
1.0
 10
-4865.3628452511066
 20
-4441.6620925332436
 30
0.0
 41
1.0
 10
-4865.4783076417907
 20
-4441.8203902137329
 30
0.0
 41
0.9989147567078339
 10
-4865.5785393932329
 20
-4441.9887449443258
 30
0.0
 41
1.0
 10
-4865.5909099658838
 20
-4442.0095232345975
 30
0.0
 41
1.0
 10
-4865.6032805385339
 20
-4442.0303015248683
 30
0.0
 41
1.0
 10
-4865.6808861878553
 20
-4442.1606522170996
 30
0.0
 41
0.9997476598181503
 10
-4865.7525586816118
 20
-4442.294357091394
 30
0.0
 41
1.0
 10
-4865.8242311753665
 20
-4442.4280619656856
 30
0.0
 41
0.9996258967110516
 10
-4865.8884853013324
 20
-4442.5654859339975
 30
0.0
 41
1.0
 10
-4865.895085256052
 20
-4442.5796016340337
 30
0.0
 41
1.0
 10
-4865.9016852107716
 20
-4442.5937173340708
 30
0.0
 41
1.0
 10
-4865.9717895712765
 20
-4442.7436535330571
 30
0.0
 41
0.9998735413945638
 10
-4866.0370902446421
 20
-4442.8957433328032
 30
0.0
 41
1.0
 10
-4866.0388116586655
 20
-4442.8997526255189
 30
0.0
 41
1.0
 10
-4866.040533072688
 20
-4442.9037619182336
 30
0.0
 41
1.0
 10
-4866.1023909179949
 20
-4443.0478331325203
 30
0.0
 41
0.9999377418860277
 10
-4866.1610183190896
 20
-4443.1932488663751
 30
0.0
 41
1.0
 10
-4866.2196457201835
 20
-4443.3386646002291
 30
0.0
 41
0.999950829951077
 10
-4866.275377691878
 20
-4443.4852144386541
 30
0.0
 41
1.0
 10
-4866.2769180762034
 20
-4443.4892649516205
 30
0.0
 41
1.0
 10
-4866.2784584605288
 20
-4443.4933154645878
 30
0.0
 41
1.0
 10
-4866.3372712008886
 20
-4443.6479663289865
 30
0.0
 41
0.9999609228428459
 10
-4866.3933405023354
 20
-4443.8036328370199
 30
0.0
 41
1.0
 10
-4866.3948185075005
 20
-4443.8077362571994
 30
0.0
 41
1.0
 10
-4866.3962965126666
 20
-4443.8118396773789
 30
0.0
 41
1.0
 10
-4866.4553218244455
 20
-4443.9757130257749
 30
0.0
 41
0.9999674607409191
 10
-4866.5116955874728
 20
-4444.1405173357525
 30
0.0
 41
1.0
 10
-4866.537394782762
 20
-4444.2156469336223
 30
0.0
 41
1.0
 10
-4866.5630939780513
 20
-4444.2907765314912
 30
0.0
 41
1.0
 10
-4866.6210992814304
 20
-4444.4603505227415
 30
0.0
 41
0.9999287532307146
 10
-4866.6750399834145
 20
-4444.6312608922253
 30
0.0
 41
1.0
 10
-4866.6982786114377
 20
-4444.7048921642636
 30
0.0
 41
1.0
 10
-4866.7215172394608
 20
-4444.7785234363018
 30
0.0
 41
1.0
 10
-4866.7289806853551
 20
-4444.8021712615719
 30
0.0
 41
0.9999998223916619
 10
-4866.7364159397648
 20
-4444.825827965833
 30
0.0
 41
1.0
 10
-4867.5467440081629
 20
-4447.3998422167278
 30
0.0
 41
1.0
 10
-4868.3570720765601
 20
-4449.9738564676227
 30
0.0
 41
1.0
 10
-4868.8097262985057
 20
-4449.9738564676227
 30
0.0
 41
1.0
 10
-4869.2623805204512
 20
-4449.9738564676227
 30
0.0
 41
1.0
 10
-4868.336338314758
 20
-4447.0303205063883
 30
0.0
 41
1.0
 10
-4867.4102961090648
 20
-4444.0867845451548
 30
0.0
 41
1.0
 10
-4867.4052352299132
 20
-4444.0707629384306
 30
0.0
 41
1.0
 10
-4867.3689313954883
 20
-4443.9556131675181
 30
0.0
 41
1.0
 10
-4867.3326275610698
 20
-4443.8404633966238
 30
0.0
 41
0.9999825681975143
 10
-4867.2976860414692
 20
-4443.7248929491097
 30
0.0
 41
1.0
 10
-4867.2735405103749
 20
-4443.6450306573151
 30
0.0
 41
1.0
 10
-4867.2493949792806
 20
-4443.5651683655215
 30
0.0
 41
1.0
 10
-4867.2008188026311
 20
-4443.4045007546629
 30
0.0
 41
0.9999672528970084
 10
-4867.1548493998271
 20
-4443.2430679818972
 30
0.0
 41
1.0
 10
-4867.1534549579919
 20
-4443.2381710592017
 30
0.0
 41
1.0
 10
-4867.1520605161568
 20
-4443.2332741365062
 30
0.0
 41
1.0
 10
-4867.1088799970148
 20
-4443.0816352091015
 30
0.0
 41
0.9999899749169199
 10
-4867.0670591922481
 20
-4442.9296156648779
 30
0.0
 41
1.0
 10
-4867.0620062327425
 20
-4442.9112480460508
 30
0.0
 41
1.0
 10
-4867.056953273237
 20
-4442.8928804272236
 30
0.0
 41
1.0
 10
-4867.0252383874849
 20
-4442.7775961206644
 30
0.0
 41
0.9999214200502696
 10
-4866.9964236732922
 20
-4442.6615529495466
 30
0.0
 41
1.0
 10
-4866.9900407472032
 20
-4442.6358475068519
 30
0.0
 41
1.0
 10
-4866.9836578211134
 20
-4442.610142064158
 30
0.0
 41
1.0
 10
-4866.9676089591039
 20
-4442.5455097784479
 30
0.0
 41
0.9999828681668774
 10
-4866.9523178331056
 20
-4442.4806940412091
 30
0.0
 41
1.0
 10
-4866.9370267071045
 20
-4442.4158783039584
 30
0.0
 41
0.9999389844481408
 10
-4866.9231712127075
 20
-4442.3507405759947
 30
0.0
 41
1.0
 10
-4866.9196023408504
 20
-4442.3339625240915
 30
0.0
 41
1.0
 10
-4866.9160334689932
 20
-4442.3171844721874
 30
0.0
 41
1.0
 10
-4866.8950402308765
 20
-4442.2184906403927
 30
0.0
 41
0.9998933699439959
 10
-4866.8769380986741
 20
-4442.1192258365063
 30
0.0
 41
1.0
 10
-4866.8762516860679
 20
-4442.1154618261653
 30
0.0
 41
1.0
 10
-4866.8755652734608
 20
-4442.1116978158243
 30
0.0
 41
1.0
 10
-4866.8560903160433
 20
-4442.0049049912486
 30
0.0
 41
0.9996850305194157
 10
-4866.8419984779139
 20
-4441.8972694885306
 30
0.0
 41
1.0
 10
-4866.8410009612271
 20
-4441.889650311452
 30
0.0
 41
1.0
 10
-4866.8400034445403
 20
-4441.8820311343725
 30
0.0
 41
1.0
 10
-4866.8262995133127
 20
-4441.7773585208124
 30
0.0
 41
0.9994697936705238
 10
-4866.8194372337057
 20
-4441.6720159231645
 30
0.0
 41
1.0
 10
-4866.8191986990814
 20
-4441.6683541870652
 30
0.0
 41
1.0
 10
-4866.8189601644572
 20
-4441.664692450966
 30
0.0
 41
1.0
 10
-4866.8125749540959
 20
-4441.5666733255057
 30
0.0
 41
0.9991804893138756
 10
-4866.8141391122317
 20
-4441.4684589005128
 30
0.0
 41
1.0
 10
-4866.8141810516427
 20
-4441.4658254997985
 30
0.0
 41
1.0
 10
-4866.8142229910545
 20
-4441.4631920990842
 30
0.0
 41
1.0
 10
-4866.8157032703684
 20
-4441.3702444755181
 30
0.0
 41
0.9988448329317918
 10
-4866.8260990431809
 20
-4441.2778681806094
 30
0.0
 41
1.0
 10
-4866.8268960800324
 20
-4441.270785752723
 30
0.0
 41
1.0
 10
-4866.8276931168839
 20
-4441.2637033248366
 30
0.0
 41
1.0
 10
-4866.8364948159924
 20
-4441.1854918856925
 30
0.0
 41
0.9985503209456916
 10
-4866.8536529521425
 20
-4441.1086797936478
 30
0.0
 41
1.0
 10
-4866.857445948177
 20
-4441.091699629952
 30
0.0
 41
1.0
 10
-4866.8612389442114
 20
-4441.0747194662563
 30
0.0
 41
1.0
 10
-4866.8708110882908
 20
-4441.0318677016085
 30
0.0
 41
0.9991036781370372
 10
-4866.8839735191177
 20
-4440.989979157941
 30
0.0
 41
1.0
 10
-4866.8859646318542
 20
-4440.9836425766598
 30
0.0
 41
1.0
 10
-4866.8879557445898
 20
-4440.9773059953786
 30
0.0
 41
1.0
 10
-4866.897135949951
 20
-4440.9480906142526
 30
0.0
 41
0.9998874504369003
 10
-4866.9071885537815
 20
-4440.919163813167
 30
0.0
 41
1.0
 10
-4866.917241157621
 20
-4440.8902370120559
 30
0.0
 41
0.9994041637545365
 10
-4866.9292654640876
 20
-4440.8620726601112
 30
0.0
 41
1.0
 10
-4866.931363856198
 20
-4440.8571576278737
 30
0.0
 41
1.0
 10
-4866.9334622483084
 20
-4440.8522425956371
 30
0.0
 41
1.0
 10
-4866.9474016638078
 20
-4440.8195925126493
 30
0.0
 41
0.9991846840703331
 10
-4866.9639298421562
 20
-4440.7881734970051
 30
0.0
 41
1.0
 10
-4866.964498145353
 20
-4440.7870931887792
 30
0.0
 41
1.0
 10
-4866.9650664485507
 20
-4440.7860128805523
 30
0.0
 41
1.0
 10
-4866.9804580205018
 20
-4440.7567544813655
 30
0.0
 41
0.9989253167915929
 10
-4866.9984927325304
 20
-4440.7290470171702
 30
0.0
 41
1.0
 10
-4866.9990197948691
 20
-4440.7282372697864
 30
0.0
 41
1.0
 10
-4866.9995468572079
 20
-4440.7274275224036
 30
0.0
 41
1.0
 10
-4867.016527444559
 20
-4440.701339552973
 30
0.0
 41
0.9986467172834654
 10
-4867.0361260208765
 20
-4440.6771565361596
 30
0.0
 41
1.0
 10
-4867.0365630852239
 20
-4440.6766172350235
 30
0.0
 41
1.0
 10
-4867.0370001495712
 20
-4440.6760779338883
 30
0.0
 41
1.0
 10
-4867.0557245971931
 20
-4440.6529735193481
 30
0.0
 41
0.9984001104272978
 10
-4867.0769379624535
 20
-4440.6321309656614
 30
0.0
 41
1.0
 10
-4867.0772315315025
 20
-4440.6318425282261
 30
0.0
 41
1.0
 10
-4867.0775251005516
 20
-4440.6315540907917
 30
0.0
 41
1.0
 10
-4867.0981513277065
 20
-4440.6112884119821
 30
0.0
 41
0.9982442159082025
 10
-4867.1210293783806
 20
-4440.5936041313462
 30
0.0
 41
1.0
 10
-4867.1211367761171
 20
-4440.5935211150208
 30
0.0
 41
1.0
 10
-4867.1212441738535
 20
-4440.5934380986946
 30
0.0
 41
1.0
 10
-4867.1439074290538
 20
-4440.5759198507112
 30
0.0
 41
0.998245006081611
 10
-4867.1684829185842
 20
-4440.5612039591997
 30
0.0
 41
1.0
 10
-4867.1930584081183
 20
-4440.5464880676836
 30
0.0
 41
0.9983922639636869
 10
-4867.2191415611987
 20
-4440.5346482503573
 30
0.0
 41
1.0
 10
-4867.2192549998636
 20
-4440.5345967576159
 30
0.0
 41
1.0
 10
-4867.2193684385275
 20
-4440.5345452648744
 30
0.0
 41
1.0
 10
-4867.2456784689321
 20
-4440.5226024620661
 30
0.0
 41
0.998651714714443
 10
-4867.2730849553627
 20
-4440.5134519025059
 30
0.0
 41
1.0
 10
-4867.2734239160791
 20
-4440.5133387292899
 30
0.0
 41
1.0
 10
-4867.2737628767954
 20
-4440.5132255560729
 30
0.0
 41
1.0
 10
-4867.3018472846607
 20
-4440.5038486500798
 30
0.0
 41
0.9989435598948648
 10
-4867.3306739782402
 20
-4440.4970897989624
 30
0.0
 41
1.0
 10
-4867.3312140380276
 20
-4440.4969631738368
 30
0.0
 41
1.0
 10
-4867.3317540978151
 20
-4440.4968365487111
 30
0.0
 41
1.0
 10
-4867.3616609109758
 20
-4440.4898244473397
 30
0.0
 41
0.999224924123308
 10
-4867.3920266654277
 20
-4440.4851867759826
 30
0.0
 41
1.0
 10
-4867.3927335095696
 20
-4440.4850788217791
 30
0.0
 41
1.0
 10
-4867.3934403537114
 20
-4440.4849708675756
 30
0.0
 41
1.0
 10
-4867.4252197964452
 20
-4440.4801172878106
 30
0.0
 41
0.9994396597834945
 10
-4867.4572527647078
 20
-4440.4774008266377
 30
0.0
 41
1.0
 10
-4867.4668230984535
 20
-4440.4765892427777
 30
0.0
 41
1.0
 10
-4867.4763934321982
 20
-4440.4757776589177
 30
0.0
 41
1.0
 10
-4867.5275670679448
 20
-4440.4714380300265
 30
0.0
 41
0.998769340312159
 10
-4867.5789188797389
 20
-4440.4721895617531
 30
0.0
 41
1.0
 10
-4867.5840460468507
 20
-4440.4722645976399
 30
0.0
 41
1.0
 10
-4867.5891732139626
 20
-4440.4723396335266
 30
0.0
 41
1.0
 10
-4867.6439510970531
 20
-4440.4731413056707
 30
0.0
 41
0.9989753644968683
 10
-4867.6984320970623
 20
-4440.478892809133
 30
0.0
 41
1.0
 10
-4867.7529130970734
 20
-4440.4846443125962
 30
0.0
 41
0.998319006730962
 10
-4867.806362502557
 20
-4440.49666180849
 30
0.0
 41
1.0
 10
-4867.8108129783586
 20
-4440.4976624477713
 30
0.0
 41
1.0
 10
-4867.8152634541602
 20
-4440.4986630870517
 30
0.0
 41
1.0
 10
-4867.877613811248
 20
-4440.5126818615081
 30
0.0
 41
0.9985539388307821
 10
-4867.938098688086
 20
-4440.5333136995296
 30
0.0
 41
1.0
 10
-4867.9392714035675
 20
-4440.5337137214374
 30
0.0
 41
1.0
 10
-4867.9404441190482
 20
-4440.5341137433461
 30
0.0
 41
1.0
 10
-4868.0032744268465
 20
-4440.555545625185
 30
0.0
 41
0.9988468746495366
 10
-4868.0637595979979
 20
-4440.5829046677163
 30
0.0
 41
1.0
 10
-4868.0653510089924
 20
-4440.5836245049959
 30
0.0
 41
1.0
 10
-4868.0669424199859
 20
-4440.5843443422764
 30
0.0
 41
1.0
 10
-4868.1306104131272
 20
-4440.6131430593687
 30
0.0
 41
0.9991322885919187
 10
-4868.1916607051571
 20
-4440.6471407254603
 30
0.0
 41
1.0
 10
-4868.2004617106795
 20
-4440.6520418264554
 30
0.0
 41
1.0
 10
-4868.2092627162028
 20
-4440.6569429274514
 30
0.0
 41
1.0
 10
-4868.2603510567287
 20
-4440.6853929853405
 30
0.0
 41
0.9993860037850304
 10
-4868.3093215587633
 20
-4440.7173509931326
 30
0.0
 41
1.0
 10
-4868.3121307151869
 20
-4440.7191842404791
 30
0.0
 41
1.0
 10
-4868.3149398716105
 20
-4440.7210174878246
 30
0.0
 41
1.0
 10
-4868.3582920607969
 20
-4440.7493090009257
 30
0.0
 41
0.9998821494955412
 10
-4868.4007552487055
 20
-4440.778918115966
 30
0.0
 41
1.0
 10
-4868.4432184366096
 20
-4440.8085272310018
 30
0.0
 41
0.9997976482742701
 10
-4868.4844562518092
 20
-4440.8398204350206
 30
0.0
 41
1.0
 10
-4868.4917743842143
 20
-4440.8453737799118
 30
0.0
 41
1.0
 10
-4868.4990925166194
 20
-4440.850927124804
 30
0.0
 41
1.0
 10
-4868.5549665966237
 20
-4440.8933270186035
 30
0.0
 41
0.9998091630801
 10
-4868.6091417356347
 20
-4440.9378771939519
 30
0.0
 41
1.0
 10
-4868.6156446118757
 20
-4440.9432247441764
 30
0.0
 41
1.0
 10
-4868.6221474881168
 20
-4440.9485722944019
 30
0.0
 41
1.0
 10
-4868.6893283796098
 20
-4441.0038175702002
 30
0.0
 41
0.9995035112316101
 10
-4868.7528963184932
 20
-4441.0631844787094
 30
0.0
 41
1.0
 10
-4868.7577199736897
 20
-4441.0676893517912
 30
0.0
 41
1.0
 10
-4868.7625436288872
 20
-4441.0721942248729
 30
0.0
 41
1.0
 10
-4868.8242551602643
 20
-4441.1298274107467
 30
0.0
 41
0.9994630424299218
 10
-4868.8820593631517
 20
-4441.1913787823596
 30
0.0
 41
1.0
 10
-4868.8839007825354
 20
-4441.1933395721144
 30
0.0
 41
1.0
 10
-4868.88574220192
 20
-4441.1953003618692
 30
0.0
 41
1.0
 10
-4868.9398635660418
 20
-4441.2529301539753
 30
0.0
 41
0.9995160693751135
 10
-4868.9902965808096
 20
-4441.3138138629129
 30
0.0
 41
1.0
 10
-4868.9912634408538
 20
-4441.3149810750219
 30
0.0
 41
1.0
 10
-4868.9922303008989
 20
-4441.316148287131
 30
0.0
 41
1.0
 10
-4869.0407295955802
 20
-4441.374697571855
 30
0.0
 41
0.999656147051457
 10
-4869.0860927049089
 20
-4441.435708953074
 30
0.0
 41
1.0
 10
-4869.0891715378584
 20
-4441.439849847593
 30
0.0
 41
1.0
 10
-4869.092250370808
 20
-4441.443990742112
 30
0.0
 41
1.0
 10
-4869.1314558142394
 20
-4441.4967203342958
 30
0.0
 41
0.9998349055173527
 10
-4869.1687194552078
 20
-4441.5508396261303
 30
0.0
 41
1.0
 10
-4869.2059830961844
 20
-4441.6049589179775
 30
0.0
 41
0.9999728109561066
 10
-4869.2424445441493
 20
-4441.659621880769
 30
0.0
 41
1.0
 10
-4869.2431021518451
 20
-4441.6606077655051
 30
0.0
 41
1.0
 10
-4869.2437597595408
 20
-4441.6615936502421
 30
0.0
 41
1.0
 10
-4869.2815364229009
 20
-4441.7182283825123
 30
0.0
 41
0.9999972147369116
 10
-4869.3190453280804
 20
-4441.7750408039201
 30
0.0
 41
1.0
 10
-4869.3215310993983
 20
-4441.7788058481665
 30
0.0
 41
1.0
 10
-4869.3240168707162
 20
-4441.7825708924129
 30
0.0
 41
1.0
 10
-4869.3664973185278
 20
-4441.8469134023071
 30
0.0
 41
0.9999371979009947
 10
-4869.407524993233
 20
-4441.9121918591991
 30
0.0
 41
1.0
 10
-4869.409279435411
 20
-4441.9149833232277
 30
0.0
 41
1.0
 10
-4869.4110338775899
 20
-4441.9177747872573
 30
0.0
 41
1.0
 10
-4869.4555704366594
 20
-4441.9886361722183
 30
0.0
 41
0.9998272025610241
 10
-4869.4974421321049
 20
-4442.0611041105976
 30
0.0
 41
1.0
 10
-4869.5050497181128
 20
-4442.0742706678184
 30
0.0
 41
1.0
 10
-4869.5126573041198
 20
-4442.0874372250391
 30
0.0
 41
1.0
 10
-4869.5697441715874
 20
-4442.1862382778718
 30
0.0
 41
0.9995217214837963
 10
-4869.6206140163667
 20
-4442.2883794418067
 30
0.0
 41
1.0
 10
-4869.6244357976811
 20
-4442.296053166654
 30
0.0
 41
1.0
 10
-4869.6282575789965
 20
-4442.3037268915004
 30
0.0
 41
1.0
 10
-4869.6717102252924
 20
-4442.390975120542
 30
0.0
 41
0.9998269762608057
 10
-4869.7118874584285
 20
-4442.4797792639038
 30
0.0
 41
1.0
 10
-4869.7520646915746
 20
-4442.5685834072865
 30
0.0
 41
0.9998944747386316
 10
-4869.7896450888666
 20
-4442.6585172701261
 30
0.0
 41
1.0
 10
-4869.792121923655
 20
-4442.664444597568
 30
0.0
 41
1.0
 10
-4869.7945987584435
 20
-4442.6703719250099
 30
0.0
 41
1.0
 10
-4869.8349222887164
 20
-4442.7668703950121
 30
0.0
 41
0.9999506734407262
 10
-4869.8733210531664
 20
-4442.8641507974353
 30
0.0
 41
1.0
 10
-4869.8806210358098
 20
-4442.8826447583579
 30
0.0
 41
1.0
 10
-4869.8879210184532
 20
-4442.9011387192813
 30
0.0
 41
1.0
 10
-4869.9117198176273
 20
-4442.9614311998866
 30
0.0
 41
0.9999912393945662
 10
-4869.9350130396288
 20
-4443.0219208012113
 30
0.0
 41
1.0
 10
-4869.9583062616557
 20
-4443.0824104025996
 30
0.0
 41
0.9999927113932252
 10
-4869.9811369088684
 20
-4443.1430761063903
 30
0.0
 41
1.0
 10
-4869.988121124552
 20
-4443.1616345973489
 30
0.0
 41
1.0
 10
-4869.9951053402356
 20
-4443.1801930883084
 30
0.0
 41
1.0
 10
-4870.0319044188363
 20
-4443.2779757740745
 30
0.0
 41
0.9999487550948631
 10
-4870.0667162313266
 20
-4443.37648345668
 30
0.0
 41
1.0
 10
-4870.078513036292
 20
-4443.4098651118184
 30
0.0
 41
1.0
 10
-4870.0903098412573
 20
-4443.4432467669558
 30
0.0
 41
1.0
 10
-4870.1376526584399
 20
-4443.5772136843607
 30
0.0
 41
0.999980843694064
 10
-4870.1833334527591
 20
-4443.7117563999873
 30
0.0
 41
1.0
 10
-4870.229014247082
 20
-4443.8462991156248
 30
0.0
 41
0.9999873932907734
 10
-4870.2733416014426
 20
-4443.9812937931365
 30
0.0
 41
1.0
 10
-4870.2833877798748
 20
-4444.0118884595076
 30
0.0
 41
1.0
 10
-4870.293433958308
 20
-4444.0424831258788
 30
0.0
 41
1.0
 10
-4870.3578536695522
 20
-4444.2386671361874
 30
0.0
 41
0.9999794883034954
 10
-4870.4197550620474
 20
-4444.4356602393782
 30
0.0
 41
1.0
 10
-4870.4253311917255
 20
-4444.4534055443655
 30
0.0
 41
1.0
 10
-4870.4309073214026
 20
-4444.4711508493529
 30
0.0
 41
1.0
 10
-4870.5021864033761
 20
-4444.6979872254742
 30
0.0
 41
0.9999982761822905
 10
-4870.5726226234092
 20
-4444.92508673662
 30
0.0
 41
1.0
 10
-4871.3666927896957
 20
-4447.4494716021218
 30
0.0
 41
1.0
 10
-4872.1607629559821
 20
-4449.9738564676227
 30
0.0
 41
1.0
 10
-4872.6351382617204
 20
-4449.9738564676227
 30
0.0
 41
1.0
 10
-4873.1095135674586
 20
-4449.9738564676227
 30
0.0
 41
1.0
 10
-4871.4903713243821
 20
-4444.8101953676496
 30
0.0
 41
1.0
 10
-4869.8712290813055
 20
-4439.6465342676765
 30
0.0
 41
1.0
  0
LWPOLYLINE
  5
4D
100
AcDbEntity
  8
0
370
              15
390
0
  6
Continuous
 62
               7
100
AcDbPolyline
 90
      232
 70
             128
 10
-4882.7230019682193
 20
-4440.1887056834339
 42
0.0004370800656715
 10
-4882.7494405553352
 20
-4440.2230390031664
 10
-4882.7690826708185
 20
-4440.2485925595101
 42
0.0030481992155478
 10
-4882.8342520293809
 20
-4440.3344534056869
 10
-4882.8535078652531
 20
-4440.3601467975768
 42
0.004205824577654
 10
-4882.955500390598
 20
-4440.4986496701285
 10
-4882.9817029518381
 20
-4440.5348660935042
 42
0.0120948898754042
 10
-4883.1297249102181
 20
-4440.7502408957771
 10
-4883.1778211597793
 20
-4440.8239812633901
 42
0.014160126394817
 10
-4883.3296431832414
 20
-4441.0718159317585
 10
-4883.3494118169538
 20
-4441.1062379154746
 42
0.0071131081313087
 10
-4883.4520479785733
 20
-4441.2909893148935
 42
0.0068458791044435
 10
-4883.5494877420124
 20
-4441.4785350966658
 10
-4883.5528936732244
 20
-4441.4853159534932
 42
0.0064120880306173
 10
-4883.6519647982504
 20
-4441.6890281909627
 10
-4883.6557321410046
 20
-4441.6970341193137
 42
0.0058857236431504
 10
-4883.7571098369372
 20
-4441.9192221748244
 10
-4883.7611973000876
 20
-4441.9284672516478
 42
0.0053189741883423
 10
-4883.8655494564209
 20
-4442.1714489886062
 10
-4883.8699233592615
 20
-4442.1819399277047
 42
0.0047503650419968
 10
-4883.977910222332
 20
-4442.448039644295
 10
-4883.9825443465115
 20
-4442.4597778323641
 42
0.0042071762174606
 10
-4884.0948180383757
 20
-4442.7513246293993
 10
-4884.0996927395499
 20
-4442.7643077168341
 42
0.0036680086463883
 10
-4884.2169200612007
 20
-4443.0836254090846
 10
-4884.2220239511298
 20
-4443.0978496762718
 42
0.0032573142622971
 10
-4884.344840094107
 20
-4443.4472760061317
 10
-4884.3791653545668
 20
-4443.5470075482726
 42
0.0026133366657396
 10
-4884.5533879539125
 20
-4444.0619391900109
 10
-4884.585016347658
 20
-4444.1570546076946
 42
0.0020592950744417
 10
-4884.6919478821455
 20
-4444.4831064340142
 10
-4884.6934737777356
 20
-4444.4878246782455
 42
0.0025609928551269
 10
-4884.7943840284706
 20
-4444.8053972894013
 10
-4884.7956797120123
 20
-4444.8095484598034
 42
0.0031362356245451
 10
-4884.8904251048716
 20
-4445.1199298879619
 10
-4884.8914906263362
 20
-4445.123500541069
 42
0.0037229918025966
 10
-4884.979890819799
 20
-4445.4279931920537
 10
-4884.9807301144183
 20
-4445.4309666371973
 42
0.004307762370928
 10
-4885.0626005154354
 20
-4445.7308760030264
 42
0.0047654161828393
 10
-4885.1390148767005
 20
-4446.032219047509
 10
-4885.1562471811121
 20
-4446.1029999360517
 42
0.0112969368444747
 10
-4885.254179360184
 20
-4446.5488460163579
 10
-4885.2681825547334
 20
-4446.6202600394126
 42
0.0130056762564131
 10
-4885.3686011765567
 20
-4447.2137305752349
 10
-4885.3788710516246
 20
-4447.2857696319352
 42
0.0138721532128496
 10
-4885.4307225538987
 20
-4447.7391843748865
 10
-4885.4403702978525
 20
-4447.8509332358526
 42
0.007125469701283
 10
-4885.4570436208141
 20
-4448.0825267402724
 10
-4885.4595241078932
 20
-4448.1255287375061
 42
0.0028881799176961
 10
-4885.4670932545396
 20
-4448.2713995924742
 42
0.0060297297150339
 10
-4885.4720593544271
 20
-4448.4173740605102
 10
-4885.4725904952602
 20
-4448.4415702464557
 42
0.0229523164101968
 10
-4885.4687249813687
 20
-4448.6029476696403
 10
-4885.4666120946113
 20
-4448.6331494366123
 42
0.0123673300647458
 10
-4885.457072771349
 20
-4448.7337097992349
 42
0.0128577674494623
 10
-4885.4424750761455
 20
-4448.8336587242038
 10
-4885.4389121394524
 20
-4448.854323131497
 42
0.0285717853785421
 10
-4885.4066651386074
 20
-4448.9933812071449
 10
-4885.3998308767696
 20
-4449.0167085919011
 42
0.0316283099166801
 10
-4885.3419255868139
 20
-4449.1762158428055
 10
-4885.3404012409319
 20
-4449.1797090289783
 42
0.0338984824271013
 10
-4885.2656853854533
 20
-4449.3234920110626
 10
-4885.2645310207763
 20
-4449.3253875256878
 42
0.0350228718287985
 10
-4885.1733508754314
 20
-4449.4539135180394
 10
-4885.172908249544
 20
-4449.454453056921
 42
0.034747674752921
 10
-4885.0656959059233
 20
-4449.5680455805314
 42
0.0331337701896973
 10
-4884.944074243057
 20
-4449.6661099115663
 10
-4884.9435241937927
 20
-4449.6664962631567
 42
0.0305233319110016
 10
-4884.8092518459971
 20
-4449.7490603482056
 10
-4884.8076368237553
 20
-4449.7499223541327
 42
0.027374448111929
 10
-4884.6613599679777
 20
-4449.8179914260754
 10
-4884.6588077003998
 20
-4449.8190132183136
 42
0.0240964406204866
 10
-4884.5010691625685
 20
-4449.8735050814557
 10
-4884.4977774979716
 20
-4449.8744674512909
 42
0.0209636179807573
 10
-4884.3290774216539
 20
-4449.9162015252559
 10
-4884.3252611914213
 20
-4449.9169774817583
 42
0.0181388704683026
 10
-4884.1460999954406
 20
-4449.9466855283627
 10
-4884.1419595712323
 20
-4449.9472186202738
 42
0.0156086547592823
 10
-4883.9528658891177
 20
-4449.9655867135634
 10
-4883.9312682629889
 20
-4449.9670059648006
 42
0.013714832904103
 10
-4883.7674316903249
 20
-4449.9732660924274
 10
-4883.7444635953616
 20
-4449.9735133089844
 42
0.0051057823885999
 10
-4883.6263908020665
 20
-4449.9735784361892
 42
0.0052256693282841
 10
-4883.5083421601967
 20
-4449.9712040239583
 10
-4883.4732287683019
 20
-4449.9701305409508
 42
0.016150717904684
 10
-4883.2853602292525
 20
-4449.9583053557872
 10
-4883.2753537490644
 20
-4449.9573502581434
 42
0.0101216737851593
 10
-4883.0683401383121
 20
-4449.9333537929588
 10
-4883.0513134936064
 20
-4449.9310299445551
 42
0.0245291776409719
 10
-4882.8129186658243
 20
-4449.886492405516
 10
-4882.7705070080656
 20
-4449.876394445344
 42
0.0143509212557691
 10
-4882.5921914560986
 20
-4449.8284921284558
 42
0.0156557856999604
 10
-4882.417083423742
 20
-4449.7699865205486
 10
-4882.413332816488
 20
-4449.7686014396686
 42
0.0170137333623425
 10
-4882.2350348186455
 20
-4449.6957726322325
 10
-4882.2314828574436
 20
-4449.6941787144515
 42
0.0183105364416063
 10
-4882.0518080233614
 20
-4449.6055111935402
 10
-4882.048334641041
 20
-4449.6036359761038
 42
0.0194899958135447
 10
-4881.8690942705525
 20
-4449.4976464851597
 10
-4881.8655873308808
 20
-4449.49538381401
 42
0.020486985297343
 10
-4881.6885801798398
 20
-4449.3706238064715
 10
-4881.6849473755401
 20
-4449.3678337737929
 42
0.0212516938573701
 10
-4881.51195240998
 20
-4449.2228817753403
 10
-4881.4886940629403
 20
-4449.2016481202918
 42
0.0215248918294871
 10
-4881.3586809785047
 20
-4449.0722659808016
 10
-4881.3361661112967
 20
-4449.0478439201079
 42
0.0114578555022754
 10
-4881.2587700344757
 20
-4448.9599324533974
 10
-4881.2531727664882
 20
-4448.953273071631
 42
0.0061531305200486
 10
-4881.1899354434845
 20
-4448.8761283049716
 42
0.0006325587118654
 10
-4881.1277462012367
 20
-4448.798126616919
 10
-4881.1162261338832
 20
-4448.7836398568052
 42
0.0041897761515234
 10
-4881.0319984319231
 20
-4448.6758801688084
 10
-4881.0027673719505
 20
-4448.637829495281
 42
0.0092993880028631
 10
-4880.8644614083296
 20
-4448.4506901133254
 10
-4880.8232641617442
 20
-4448.3927216115608
 42
0.015932172708164
 10
-4880.6499609204184
 20
-4448.1316345011764
 10
-4880.6277828527273
 20
-4448.0957947190573
 42
0.0085547317031906
 10
-4880.5105269700607
 20
-4447.8988572444396
 42
0.0084601156883856
 10
-4880.4000388813402
 20
-4447.6980438199244
 10
-4880.3959811444247
 20
-4447.690363978787
 42
0.0081429654287498
 10
-4880.2843565092107
 20
-4447.4705032225256
 10
-4880.2799264271143
 20
-4447.4614138015068
 42
0.0076574581324952
 10
-4880.1667226718355
 20
-4447.2198223638925
 10
-4880.1619828514686
 20
-4447.2092901247288
 42
0.0070682724214082
 10
-4880.0467603975558
 20
-4446.9432714723152
 10
-4880.0417652555743
 20
-4446.9312768778327
 42
0.0064559514454692
 10
-4879.9240986514806
 20
-4446.6381207445647
 10
-4879.9188939724008
 20
-4446.6246532818514
 42
0.0058311413912266
 10
-4879.7983706040168
 20
-4446.3016372346519
 10
-4879.7929930653263
 20
-4446.28669506408
 42
0.0052312425833848
 10
-4879.6692024262966
 20
-4445.9310938571334
 10
-4879.6636805081162
 20
-4445.9146805011278
 42
0.0046680544803457
 10
-4879.5362162942392
 20
-4445.5237673432221
 10
-4879.5152202192157
 20
-4445.4572757245696
 42
0.0041666856436863
 10
-4879.4135772130294
 20
-4445.125791337101
 10
-4879.3947459927058
 20
-4445.0625007833032
 42
0.0015170975154942
 10
-4879.3341527034909
 20
-4444.8565666075274
 42
-0.0004887993141445
 10
-4879.2739828171216
 20
-4444.6505074021634
 10
-4879.2357441881813
 20
-4444.5200287085354
 42
0.0002583378922747
 10
-4879.099136903219
 20
-4444.0530003571848
 10
-4879.0582504784543
 20
-4443.9129507274738
 42
0.0006636169662742
 10
-4878.9613165983556
 20
-4443.5792742653612
 10
-4878.9587682712199
 20
-4443.5704584740515
 42
0.0010589131321493
 10
-4878.8680439207237
 20
-4443.2540928023973
 10
-4878.8655528854797
 20
-4443.2453363488739
 42
0.0015655524469771
 10
-4878.7814177818927
 20
-4442.9460280092862
 10
-4878.7790026817256
 20
-4442.937331929963
 42
0.0021640440475619
 10
-4878.7018576956916
 20
-4442.6548184208095
 10
-4878.6995405859852
 20
-4442.6461860558447
 42
0.0028763871853305
 10
-4878.62978272695
 20
-4442.3802020803887
 10
-4878.6275897948681
 20
-4442.3716400913163
 42
0.0037310511965466
 10
-4878.5656114489484
 20
-4442.1219162942998
 10
-4878.5635738387946
 20
-4442.1134361586392
 42
0.0047652197790322
 10
-4878.5097618885493
 20
-4441.8796972745249
 10
-4878.5079165888919
 20
-4441.8713174969689
 42
0.0060276699301113
 10
-4878.4626515393111
 20
-4441.6532795993771
 10
-4878.4610421941616
 20
-4441.6450289921977
 42
0.0075824337742894
 10
-4878.4246975394581
 20
-4441.4423954100093
 10
-4878.423374850775
 20
-4441.4343179363286
 42
0.0095130624600146
 10
-4878.3963172329532
 20
-4441.2467732597488
 10
-4878.3928241210115
 20
-4441.2188064806887
 42
0.0121054653226077
 10
-4878.3795284557227
 20
-4441.0863585664538
 10
-4878.3790952108438
 20
-4441.0806568449989
 42
0.0069050827391324
 10
-4878.371550801824
 20
-4440.9591862315665
 10
-4878.3709831519909
 20
-4440.947423103069
 42
0.0169063976618669
 10
-4878.3695695124989
 20
-4440.8493267393942
 10
-4878.370154838266
 20
-4440.8191588586615
 42
0.0052007733013512
 10
-4878.3712815625613
 20
-4440.7813621636433
 42
0.0054038123330628
 10
-4878.3812633184853
 20
-4440.7213530156141
 10
-4878.3838062464165
 20
-4440.7070237723474
 42
0.0112050460469547
 10
-4878.4014984274454
 20
-4440.618860553177
 10
-4878.4104109084656
 20
-4440.5790897598181
 42
0.0240764467998834
 10
-4878.4558595915405
 20
-4440.4139712420656
 10
-4878.4651389729524
 20
-4440.3856611595511
 42
0.0256812331875919
 10
-4878.5368204330407
 20
-4440.1997990564414
 10
-4878.5395251459495
 20
-4440.1937333889509
 42
0.0268360501219613
 10
-4878.624238766376
 20
-4440.0282368219359
 10
-4878.627006970185
 20
-4440.0234769867948
 42
0.0274670231693404
 10
-4878.7231074584006
 20
-4439.8773332993214
 10
-4878.7257981083958
 20
-4439.8736937255317
 42
0.0275035967127633
 10
-4878.8315845481629
 20
-4439.7459357803982
 10
-4878.8341192986563
 20
-4439.7431962365717
 42
0.0269557673529605
 10
-4878.9478210703655
 20
-4439.6328750936027
 10
-4878.9501925992472
 20
-4439.6308101163813
 42
0.0259124802206042
 10
-4879.0699700149726
 20
-4439.5369648527958
 10
-4879.0722354375621
 20
-4439.5353721016318
 42
0.0245162153008954
 10
-4879.1961936141106
 20
-4439.4570055970762
 10
-4879.1984568872858
 20
-4439.4557254984684
 42
0.0229282588888451
 10
-4879.3246666656869
 20
-4439.3917914022259
 10
-4879.3270569126107
 20
-4439.3907152523425
 42
0.0212984135730427
 10
-4879.453575888836
 20
-4439.3401157937242
 10
-4879.4562280313221
 20
-4439.339184012344
 42
0.0197555462359836
 10
-4879.5811172001822
 20
-4439.3007763033611
 42
0.0183511896814934
 10
-4879.7085815629107
 20
-4439.2719848498791
 10
-4879.7517641612721
 20
-4439.263883454686
 42
0.0338057877127167
 10
-4879.8945178359045
 20
-4439.246979252116
 10
-4879.9400205384381
 20
-4439.2446894244849
 42
0.0091990524556771
 10
-4879.9929440927426
 20
-4439.2430014965248
 42
0.0028333980851786
 10
-4880.0459010507066
 20
-4439.2425874427663
 10
-4880.0463587772638
 20
-4439.2425864578545
 42
-0.0023619827814352
 10
-4880.100231784827
 20
-4439.2422160373144
 10
-4880.1184343699051
 20
-4439.2420048840831
 42
0.000882459848632
 10
-4880.20871236519
 20
-4439.2411169949601
 10
-4880.2306430810331
 20
-4439.2409400142005
 42
0.0038132665769238
 10
-4880.3647845290543
 20
-4439.2408805461682
 10
-4880.3730513563696
 20
-4439.2409399292392
 42
0.006066556930181
 10
-4880.5236916021513
 20
-4439.2438500789494
 10
-4880.5308167681778
 20
-4439.2440742329336
 42
0.0080356953355707
 10
-4880.6955461263351
 20
-4439.2519080939664
 10
-4880.7015811338906
 20
-4439.2522923854376
 42
0.0098996399101479
 10
-4880.8779626762189
 20
-4439.2670350000362
 10
-4880.8829855309032
 20
-4439.2675551481352
 42
0.0117740981359266
 10
-4881.0685639600761
 20
-4439.2912012719007
 10
-4881.072675308319
 20
-4439.2918238301863
 42
0.0137435215172435
 10
-4881.2649697180677
 20
-4439.3263723169684
 10
-4881.2682982376227
 20
-4439.3270652650835
 42
0.01583598693848
 10
-4881.4647967845331
 20
-4439.3745113093264
 10
-4881.4675033779586
 20
-4439.3752562797599
 42
0.0180554124027673
 10
-4881.6656609002621
 20
-4439.4375752878777
 10
-4881.6679392943061
 20
-4439.4383833060119
 42
0.0203657431279836
 10
-4881.8651780532073
 20
-4439.5175134767678
 10
-4881.8672498227152
 20
-4439.5184442874906
 42
0.0226819684668726
 10
-4882.0609678508163
 20
-4439.6162655768258
 10
-4882.0630677463269
 20
-4439.6174483727864
 42
0.0248634984605572
 10
-4882.25065871692
 20
-4439.7357616957615
 10
-4882.2747561813112
 20
-4439.7526902166737
 42
0.0267044190865245
 10
-4882.4119025297678
 20
-4439.8604104046062
 42
0.0139303002175995
 10
-4882.5399861127262
 20
-4439.9790298250527
 10
-4882.5424128055965
 20
-4439.9814061564921
 42
0.0283460963436102
 10
-4882.6644491027091
 20
-4440.115271486713
 10
-4882.6842833552892
 20
-4440.1396722754516
 42
0.0070695364836043
 10
-4882.7230019682193
 20
-4440.1887056834339
 42
0.0070695364836043
  0
LWPOLYLINE
  5
4E
100
AcDbEntity
  8
0
370
              15
390
0
  6
Continuous
 62
               7
100
AcDbPolyline
 90
      226
 70
             128
 10
-4884.4874121868424
 20
-4448.0495000865258
 42
-0.0026277636831647
 10
-4884.4874511287435
 20
-4448.0161141239123
 10
-4884.4873424496263
 20
-4447.9895365149332
 42
-0.0088680296676529
 10
-4884.4854541414797
 20
-4447.9030286237194
 10
-4884.484280961924
 20
-4447.8733886110049
 42
-0.0077381705589449
 10
-4884.4762579065427
 20
-4447.7277583631085
 10
-4884.4758239509556
 20
-4447.721614246263
 42
-0.0068872530499961
 10
-4884.462507911081
 20
-4447.5640033702302
 10
-4884.4619057989876
 20
-4447.5578828807193
 42
-0.006213002151768
 10
-4884.443108940578
 20
-4447.3884480351271
 10
-4884.4423569888068
 20
-4447.3823610991421
 42
-0.0056726929648761
 10
-4884.4178960590543
 20
-4447.2012634880739
 10
-4884.4170093362336
 20
-4447.1952165879629
 42
-0.0052341884475835
 10
-4884.3867040431078
 20
-4447.0026199602289
 10
-4884.3856950487152
 20
-4446.9966174952078
 42
-0.0049768450175507
 10
-4884.3493257080017
 20
-4446.7926952114949
 10
-4884.3372012006403
 20
-4446.7284212199884
 42
-0.0089029805637327
 10
-4884.268660774741
 20
-4446.3975334962679
 10
-4884.2522880870838
 20
-4446.325017781015
 42
-0.0080318257109746
 10
-4884.1375137799223
 20
-4445.8521629651195
 10
-4884.1315213166899
 20
-4445.8290976474927
 42
-0.0074265721312945
 10
-4883.9895155472541
 20
-4445.3140653582659
 10
-4883.9795757757174
 20
-4445.2799983280447
 42
-0.0069711922704097
 10
-4883.8159234864534
 20
-4444.7468644578439
 10
-4883.7859475129208
 20
-4444.653853778721
 42
-0.0052070422902021
 10
-4883.671234900271
 20
-4444.3102177401433
 10
-4883.6625943041945
 20
-4444.2852040998641
 42
-0.0009167004463153
 10
-4883.5610483605396
 20
-4443.9929761757576
 42
-0.0025162726932183
 10
-4883.4574995453568
 20
-4443.7014555435308
 10
-4883.4388872394838
 20
-4443.6498807706594
 42
-0.0028212681446268
 10
-4883.3147992800241
 20
-4443.3120154546377
 10
-4883.3098838986598
 20
-4443.298861732329
 42
-0.0031964916834223
 10
-4883.1917377698173
 20
-4442.9887593512358
 10
-4883.1869205428311
 20
-4442.9763543561985
 42
-0.0036281836471263
 10
-4883.0743675622671
 20
-4442.6926340157188
 10
-4883.0696483571837
 20
-4442.6809852999559
 42
-0.0041269166830512
 10
-4882.9623395088593
 20
-4442.4222648519772
 10
-4882.9460230306304
 20
-4442.3838256287536
 42
-0.0047472213066008
 10
-4882.8675006278718
 20
-4442.2036148948555
 10
-4882.8640535872682
 20
-4442.1959045961903
 42
-0.0025651660001969
 10
-4882.7898745703433
 20
-4442.0322405683146
 42
-0.0057144634967857
 10
-4882.7129997234351
 20
-4441.869835731587
 10
-4882.6989843707634
 20
-4441.8410815404513
 42
-0.0065388068389218
 10
-4882.6072508568868
 20
-4441.6589652921048
 10
-4882.6030216289919
 20
-4441.6508355024098
 42
-0.0074510843049089
 10
-4882.5149305060586
 20
-4441.4874913618587
 10
-4882.5108406707895
 20
-4441.4801709732174
 42
-0.0084648979841619
 10
-4882.4260237442431
 20
-4441.3342164677433
 10
-4882.4220956809904
 20
-4441.3277129719027
 42
-0.0095638542789438
 10
-4882.3401779572023
 20
-4441.1977685359288
 10
-4882.3364404853683
 20
-4441.1920838552041
 42
-0.0107191626829342
 10
-4882.2570396951724
 20
-4441.076778237928
 10
-4882.253531328307
 20
-4441.0719101917457
 42
-0.0118458573881545
 10
-4882.1762572790503
 20
-4440.9698740940912
 42
-0.0129184518219853
 10
-4882.0940309672524
 20
-4440.8717938360087
 10
-4882.078958581068
 20
-4440.8547307965546
 42
-0.0217742579613204
 10
-4881.9906524199014
 20
-4440.763127411431
 10
-4881.9852796476671
 20
-4440.7580189948258
 42
-0.0097266568622915
 10
-4881.9022508382423
 20
-4440.6820952076105
 42
-0.0187720905729471
 10
-4881.8150770502916
 20
-4440.6110607809123
 10
-4881.7997240549603
 20
-4440.5994812397184
 42
-0.0179428207526776
 10
-4881.683513694963
 20
-4440.518205151162
 10
-4881.681687531508
 20
-4440.5170231837201
 42
-0.0170047877664434
 10
-4881.5638057127398
 20
-4440.4462929266429
 10
-4881.5619142183732
 20
-4440.4452437741284
 42
-0.0160190788372526
 10
-4881.4434599445485
 20
-4440.3844181231307
 42
-0.0151102861488454
 10
-4881.3214440533193
 20
-4440.3310767351013
 10
-4881.295250802219
 20
-4440.3205566686556
 42
-0.027194544186892
 10
-4881.115919522691
 20
-4440.2596242633026
 10
-4881.0813871224454
 20
-4440.2499494926697
 42
-0.0237596594046199
 10
-4880.873488698935
 20
-4440.2022241366794
 10
-4880.8394572720727
 20
-4440.1960967926161
 42
-0.0213715440535685
 10
-4880.6965198063472
 20
-4440.1766232768605
 10
-4880.6664462232184
 20
-4440.173828419508
 42
-0.0101465655796832
 10
-4880.5826999572419
 20
-4440.1677566478775
 10
-4880.5780297641195
 20
-4440.1675131903776
 42
-0.0100375910810159
 10
-4880.5034527138614
 20
-4440.1651252814172
 10
-4880.4983230790585
 20
-4440.16506406191
 42
-0.0103625633426017
 10
-4880.4339690816932
 20
-4440.1656297786722
 10
-4880.4228362560389
 20
-4440.1659584579056
 42
-0.0115689250249093
 10
-4880.3808108872963
 20
-4440.1681732110283
 42
-0.0072438037425541
 10
-4880.3388917475704
 20
-4440.171967810903
 10
-4880.3304914928394
 20
-4440.172851082265
 42
-0.0217917313035222
 10
-4880.2722066111755
 20
-4440.1815610286267
 10
-4880.2394065658982
 20
-4440.1879343328328
 42
-0.033294355672927
 10
-4880.1372104833845
 20
-4440.2149544784861
 10
-4880.1221241991207
 20
-4440.2200385170418
 42
-0.0184824084872695
 10
-4880.0528716708777
 20
-4440.2462640247386
 42
-0.019800205067339
 10
-4879.9858345006378
 20
-4440.2777060548324
 10
-4879.984891181939
 20
-4440.2781949482778
 42
-0.021224234302425
 10
-4879.9188217107539
 20
-4440.3160763176647
 10
-4879.9179140629667
 20
-4440.3166492187793
 42
-0.0226090605826395
 10
-4879.8536621123621
 20
-4440.3613890405568
 10
-4879.8527398914875
 20
-4440.3620951670546
 42
-0.0238457052121843
 10
-4879.7911488508271
 20
-4440.4140931149986
 10
-4879.7901724865615
 20
-4440.4150005538695
 42
-0.0248160564149844
 10
-4879.7320717329167
 20
-4440.4746378544669
 10
-4879.7310199162093
 20
-4440.4758305213254
 42
-0.0254109591505236
 10
-4879.6772173072859
 20
-4440.5434747142954
 10
-4879.6760932963198
 20
-4440.5450454885085
 42
-0.025552848830232
 10
-4879.6273699569292
 20
-4440.6210590156106
 10
-4879.6262044069626
 20
-4440.6230998214287
 42
-0.0252146793168064
 10
-4879.5833138939588
 20
-4440.7078509444245
 10
-4879.582162774379
 20
-4440.710441985384
 42
-0.0244265635946487
 10
-4879.545835427497
 20
-4440.8043152714145
 10
-4879.5412122267599
 20
-4440.8182479805901
 42
-0.0231319612903383
 10
-4879.5182508372691
 20
-4440.8998985039771
 42
-0.0112130424422376
 10
-4879.5009328260039
 20
-4440.9830003040506
 10
-4879.500331563444
 20
-4440.9862485975154
 42
-0.021052788123244
 10
-4879.4874883257571
 20
-4441.0767764202437
 10
-4879.4857330283467
 20
-4441.0944791945094
 42
-0.0190029892394286
 10
-4879.4780122915745
 20
-4441.221247117659
 10
-4879.4776073033527
 20
-4441.2389849248302
 42
-0.0137974553669093
 10
-4879.4783817297712
 20
-4441.4015006282043
 10
-4879.4788044572497
 20
-4441.4145600005259
 42
-0.0081336634196137
 10
-4879.4862341248599
 20
-4441.567233734293
 42
-0.0073526923556376
 10
-4879.4983883915456
 20
-4441.7196078564239
 10
-4879.4990191034385
 20
-4441.7262761937682
 42
-0.0066886138672021
 10
-4879.5168868964674
 20
-4441.8915692155661
 10
-4879.5177154411967
 20
-4441.8983800250126
 42
-0.0061359187326913
 10
-4879.5416407422281
 20
-4442.0767620151037
 10
-4879.5426594927585
 20
-4442.0837094164772
 42
-0.0056698610079654
 10
-4879.5729846581326
 20
-4442.275348700844
 10
-4879.5741873748029
 20
-4442.2824282605116
 42
-0.0052721077249236
 10
-4879.6112534752065
 20
-4442.4874919303684
 10
-4879.6126350496243
 20
-4442.494700248044
 42
-0.0049289272158538
 10
-4879.6567821086919
 20
-4442.7133545036868
 10
-4879.6583383560155
 20
-4442.7206889300123
 42
-0.004741595668956
 10
-4879.709957351798
 20
-4442.9530873087915
 10
-4879.7273414569609
 20
-4443.0279908564098
 42
-0.0084404470887138
 10
-4879.8223496787541
 20
-4443.4081028687033
 10
-4879.8254130227397
 20
-4443.419534930752
 42
-0.0039635940243163
 10
-4879.9361398649016
 20
-4443.8200293629434
 10
-4879.9428282624722
 20
-4443.8434951711715
 42
-0.0072475040840134
 10
-4880.0765517064046
 20
-4444.2881050293681
 10
-4880.1116578698238
 20
-4444.3989752043708
 42
-0.0051345458831194
 10
-4880.2550375558467
 20
-4444.8361377982583
 10
-4880.2658006891925
 20
-4444.8678509317124
 42
-0.0019150016602359
 10
-4880.3935673926635
 20
-4445.2396254919367
 10
-4880.3968011948436
 20
-4445.2489192243447
 42
-0.0021524362764809
 10
-4880.5210402203938
 20
-4445.6010821352511
 10
-4880.5256454307519
 20
-4445.6139589244303
 42
-0.0024331286816991
 10
-4880.6437730602593
 20
-4445.9392585784608
 10
-4880.6482970365487
 20
-4445.9515302316777
 42
-0.0027449721769667
 10
-4880.760604321953
 20
-4446.2510951711001
 10
-4880.7650493256588
 20
-4446.2627564660515
 42
-0.0031083229768155
 10
-4880.8718205689547
 20
-4446.5377184848167
 10
-4880.8761886347747
 20
-4446.548763342701
 42
-0.0035311343277688
 10
-4880.9777092275872
 20
-4446.80025490561
 10
-4880.9820018971477
 20
-4446.8106762673342
 42
-0.0040245640954981
 10
-4881.0785577990591
 20
-4447.0398309286611
 10
-4881.0827758558371
 20
-4447.0496206126427
 42
-0.0046015135862275
 10
-4881.1746540024424
 20
-4447.2575731275183
 10
-4881.1787970913783
 20
-4447.2667216972932
 42
-0.0052768638238318
 10
-4881.2662858508338
 20
-4447.4546081393801
 10
-4881.2703519561364
 20
-4447.4631048086285
 42
-0.0060672675624599
 10
-4881.3537417625303
 20
-4447.6320626202087
 10
-4881.3577265027534
 20
-4447.6398952496729
 42
-0.0069904648841739
 10
-4881.4373106997718
 20
-4447.7910631530394
 10
-4881.4412063995751
 20
-4447.7982184276498
 42
-0.0080637022744569
 10
-4881.5172823297507
 20
-4447.9327360792295
 10
-4881.5210768460647
 20
-4447.939200012026
 42
-0.0093006455690321
 10
-4881.5939471843321
 20
-4448.0582072112811
 10
-4881.5976225177019
 20
-4448.0639661958649
 42
-0.0107060778025508
 10
-4881.6675967894225
 20
-4448.1686013545568
 10
-4881.6711276735632
 20
-4448.1736441258408
 42
-0.0122723111445812
 10
-4881.7385245326623
 20
-4448.2650407905849
 10
-4881.7386876444334
 20
-4448.265250984482
 42
-0.0141836319671836
 10
-4881.8104784459265
 20
-4448.3525358634042
 10
-4881.8139523237551
 20
-4448.3565233635391
 42
-0.0175957477206167
 10
-4881.8839054077689
 20
-4448.4313338077391
 42
-0.0080466359707155
 10
-4881.957637290262
 20
-4448.5024950717934
 10
-4881.9806545625434
 20
-4448.5240052908603
 42
-0.0269600260432938
 10
-4882.1072946855302
 20
-4448.6301669201112
 10
-4882.1405782536758
 20
-4448.6551426274218
 42
-0.0178362839772737
 10
-4882.2605504985113
 20
-4448.7386515905528
 10
-4882.2641729840116
 20
-4448.7409858466553
 42
-0.0174650732635061
 10
-4882.3823410827317
 20
-4448.8114163291348
 42
-0.0169240130173097
 10
-4882.5050742056601
 20
-4448.8735624590236
 10
-4882.5280672834397
 20
-4448.8842434368071
 42
-0.0318883036841715
 10
-4882.7032427112499
 20
-4448.9524125915623
 10
-4882.7374254788328
 20
-4448.9632629018006
 42
-0.0284435909897155
 10
-4882.9254505419776
 20
-4449.0113716195374
 10
-4882.9430296222217
 20
-4449.0148184174504
 42
-0.0243909341033973
 10
-4883.0997513526854
 20
-4449.0376789329666
 10
-4883.124891716081
 20
-4449.0401017064187
 42
-0.0196639292883844
 10
-4883.2326895048354
 20
-4449.0462258491743
 10
-4883.2586015404131
 20
-4449.0466774795432
 42
-0.0100501510629394
 10
-4883.3148131812486
 20
-4449.0465272803667
 10
-4883.3306431120936
 20
-4449.0461667444197
 42
-0.0019752030993564
 10
-4883.3551892802625
 20
-4449.0455106643185
 10
-4883.3565694318804
 20
-4449.0454683184053
 42
0.0065378752109306
 10
-4883.3783577192498
 20
-4449.0450848727978
 42
-0.0167974694681125
 10
-4883.4001231307066
 20
-4449.0442549235358
 10
-4883.4021628003466
 20
-4449.0441084180875
 42
-0.0081283276456212
 10
-4883.4279426992089
 20
-4449.0418349212687
 10
-4883.4338124861551
 20
-4449.0412209624792
 42
-0.0126703440263404
 10
-4883.4711716340489
 20
-4449.036353566943
 10
-4883.4825655678906
 20
-4449.0345744389851
 42
-0.0117852088509896
 10
-4883.5423350607862
 20
-4449.0237929414116
 10
-4883.5700252866882
 20
-4449.0181211712897
 42
-0.0251774592233497
 10
-4883.6834473061999
 20
-4448.988872166572
 10
-4883.7058069011036
 20
-4448.9818887569108
 42
-0.0146525199917488
 10
-4883.7990033948872
 20
-4448.9497554933068
 42
-0.0166929435783374
 10
-4883.8899922229712
 20
-4448.9118519267704
 10
-4883.8923205385872
 20
-4448.9107894764729
 42
-0.019168435849707
 10
-4883.9849123541971
 20
-4448.8641714345849
 10
-4883.9865786470909
 20
-4448.8632508108003
 42
-0.0221181781829534
 10
-4884.078233799034
 20
-4448.8071840616203
 10
-4884.0794087010454
 20
-4448.8063919126198
 42
-0.0254984685358887
 10
-4884.1675537762467
 20
-4448.740186337629
 10
-4884.1787948500978
 20
-4448.7308101831604
 42
-0.0292492648706416
 10
-4884.2411793195115
 20
-4448.6722637833454
 42
-0.0159048957450556
 10
-4884.2980993182618
 20
-4448.6082537875145
 10
-4884.2987587135258
 20
-4448.6074629810355
 42
-0.0343813379593307
 10
-4884.3500773443347
 20
-4448.5365273181578
 10
-4884.365823110018
 20
-4448.511275622106
 42
-0.0369117275731995
 10
-4884.4087693609681
 20
-4448.4295370016298
 42
-0.0191751379969755
 10
-4884.4423660537414
 20
-4448.3433346986412
 10
-4884.4432477156261
 20
-4448.3407880262894
 42
-0.0378178042231292
 10
-4884.4681450750168
 20
-4448.2463176382571
 10
-4884.4711427228849
 20
-4448.2300373291409
 42
-0.0184846046445182
 10
-4884.4815013225307
 20
-4448.1591609188781
 42
-0.0179866351224213
 10
-4884.4866678250673
 20
-4448.0877155123462
 10
-4884.4866960462905
 20
-4448.0869366690313
 42
-0.0085497186013611
 10
-4884.4874121868424
 20
-4448.0495000865258
 42
-0.0085497186013611
  0
ENDBLK
  5
4F
100
AcDbEntity
  8
template
390
0
100
AcDbBlockEnd
  0
BLOCK
  5
50
100
AcDbEntity
  8
notes
390
0
100
AcDbBlockBegin
  2
*D3
 70
               1
 10
0.0
 20
0.0
 30
0.0
  3
*D3
  1

  0
LINE
  5
51
100
AcDbEntity
  8
0
370
              -2
390
0
  6
Continuous
 62
               0
100
AcDbLine
 10
-172.53451874062193
 20
398.01257580619631
 30
0.0
 11
-237.15695848149699
 21
398.01257580619631
 31
0.0
  0
LINE
  5
52
100
AcDbEntity
  8
0
370
              -2
390
0
  6
Continuous
 62
               0
100
AcDbLine
 10
-110.42913056935049
 20
148.01257580619631
 30
0.0
 11
-237.15695848149699
 21
148.01257580619631
 31
0.0
  0
LINE
  5
53
100
AcDbEntity
  8
0
370
              -2
390
0
  6
Continuous
 62
               0
100
AcDbLine
 10
-237.15695848149699
 20
398.01257580619631
 30
0.0
 11
-237.15695848149699
 21
148.01257580619631
 31
0.0
  0
CIRCLE
  5
54
102
{ACAD_REACTORS
330
55
102
}
100
AcDbEntity
  8
0
370
              -2
390
0
  6
Continuous
 62
               0
100
AcDbCircle
 10
-237.15695848149699
 20
398.01257580619631
 30
0.0
 40
0.99993896484375
  0
HATCH
  5
55
100
AcDbEntity
  8
0
370
              -2
390
0
  6
Continuous
 62
               0
100
AcDbHatch
 10
0.0
 20
0.0
 30
0.0
210
0.0
220
0.0
230
1.0
  2
SOLID
 70
               1
 71
               1
 91
        1
 92
        1
 93
        1
 72
               2
 10
-237.15695848149699
 20
398.01257580619631
 40
0.99993896484375
 50
0.0
 51
360.0
 73
               0
 97
        1
330
54
 75
               0
 76
               1
 98
        1
 10
0.0
 20
0.0
  0
CIRCLE
  5
56
102
{ACAD_REACTORS
330
57
102
}
100
AcDbEntity
  8
0
370
              -2
390
0
  6
Continuous
 62
               0
100
AcDbCircle
 10
-237.15695848149699
 20
148.01257580619631
 30
0.0
 40
0.99993896484375
  0
HATCH
  5
57
100
AcDbEntity
  8
0
370
              -2
390
0
  6
Continuous
 62
               0
100
AcDbHatch
 10
0.0
 20
0.0
 30
0.0
210
0.0
220
0.0
230
1.0
  2
SOLID
 70
               1
 71
               1
 91
        1
 92
        1
 93
        1
 72
               2
 10
-237.15695848149699
 20
148.01257580619631
 40
0.99993896484375
 50
0.0
 51
360.0
 73
               0
 97
        1
330
56
 75
               0
 76
               1
 98
        1
 10
0.0
 20
0.0
  0
MTEXT
  5
58
100
AcDbEntity
  8
0
390
0
 62
               0
100
AcDbMText
 10
-254.09576707524684
 20
241.26257580619631
 30
0.0
 40
12.216308593750002
 41
0.0
 71
               1
 72
               1
  1
250～280
  7
ＭＳ ゴシック
 11
0.0
 21
1.0
 31
0.0
 73
               1
 44
0.7828267384257843
  0
POINT
  5
59
100
AcDbEntity
  8
Defpoints
370
               0
390
0
 62
               0
100
AcDbPoint
 10
-97.929130569350491
 20
148.01257580619631
 30
0.0
  0
POINT
  5
5A
100
AcDbEntity
  8
Defpoints
370
               0
390
0
 62
               0
100
AcDbPoint
 10
-160.03451874062193
 20
398.01257580619631
 30
0.0
  0
POINT
  5
5B
100
AcDbEntity
  8
Defpoints
370
               0
390
0
 62
               0
100
AcDbPoint
 10
-237.15695848149699
 20
398.01257580619631
 30
0.0
  0
ENDBLK
  5
5C
100
AcDbEntity
  8
notes
390
0
100
AcDbBlockEnd
  0
BLOCK
  5
5D
100
AcDbEntity
  8
notes
390
0
100
AcDbBlockBegin
  2
*D4
 70
               1
 10
0.0
 20
0.0
 30
0.0
  3
*D4
  1

  0
LINE
  5
5E
100
AcDbEntity
  8
0
370
              -2
390
0
  6
Continuous
 62
               0
100
AcDbLine
 10
-85.429130569350491
 20
148.01257580619631
 30
0.0
 11
99.0
 21
148.01257580619631
 31
0.0
  0
LINE
  5
5F
100
AcDbEntity
  8
0
370
              -2
390
0
  6
Continuous
 62
               0
100
AcDbLine
 10
-9.6569584814978953
 20
248.0089036855511
 30
0.0
 11
99.0
 21
248.0089036855511
 31
0.0
  0
LINE
  5
60
100
AcDbEntity
  8
0
370
              -2
390
0
  6
Continuous
 62
               0
100
AcDbLine
 10
99.0
 20
148.01257580619631
 30
0.0
 11
99.0
 21
248.0089036855511
 31
0.0
  0
CIRCLE
  5
61
102
{ACAD_REACTORS
330
62
102
}
100
AcDbEntity
  8
0
370
              -2
390
0
  6
Continuous
 62
               0
100
AcDbCircle
 10
99.0
 20
148.01257580619631
 30
0.0
 40
0.99993896484375
  0
HATCH
  5
62
100
AcDbEntity
  8
0
370
              -2
390
0
  6
Continuous
 62
               0
100
AcDbHatch
 10
0.0
 20
0.0
 30
0.0
210
0.0
220
0.0
230
1.0
  2
SOLID
 70
               1
 71
               1
 91
        1
 92
        1
 93
        1
 72
               2
 10
99.0
 20
148.01257580619631
 40
0.99993896484375
 50
0.0
 51
360.0
 73
               0
 97
        1
330
61
 75
               0
 76
               1
 98
        1
 10
0.0
 20
0.0
  0
CIRCLE
  5
63
102
{ACAD_REACTORS
330
64
102
}
100
AcDbEntity
  8
0
370
              -2
390
0
  6
Continuous
 62
               0
100
AcDbCircle
 10
99.0
 20
248.0089036855511
 30
0.0
 40
0.99993896484375
  0
HATCH
  5
64
100
AcDbEntity
  8
0
370
              -2
390
0
  6
Continuous
 62
               0
100
AcDbHatch
 10
0.0
 20
0.0
 30
0.0
210
0.0
220
0.0
230
1.0
  2
SOLID
 70
               1
 71
               1
 91
        1
 92
        1
 93
        1
 72
               2
 10
99.0
 20
248.0089036855511
 40
0.99993896484375
 50
0.0
 51
360.0
 73
               0
 97
        1
330
63
 75
               0
 76
               1
 98
        1
 10
0.0
 20
0.0
  0
MTEXT
  5
65
100
AcDbEntity
  8
0
390
0
 62
               0
100
AcDbMText
 10
82.061191406250146
 20
188.09374915891203
 30
0.0
 40
12.216308593750002
 41
0.0
 71
               1
 72
               1
  1
100
  7
ＭＳ ゴシック
 11
0.0
 21
1.0
 31
0.0
 73
               1
 44
0.7828267384257843
  0
POINT
  5
66
100
AcDbEntity
  8
Defpoints
370
               0
390
0
 62
               0
100
AcDbPoint
 10
-22.156958481497895
 20
248.0089036855511
 30
0.0
  0
POINT
  5
67
100
AcDbEntity
  8
Defpoints
370
               0
390
0
 62
               0
100
AcDbPoint
 10
-97.929130569350491
 20
148.01257580619631
 30
0.0
  0
POINT
  5
68
100
AcDbEntity
  8
Defpoints
370
               0
390
0
 62
               0
100
AcDbPoint
 10
99.0
 20
148.01257580619631
 30
0.0
  0
ENDBLK
  5
69
100
AcDbEntity
  8
notes
390
0
100
AcDbBlockEnd
  0
BLOCK
  5
6A
100
AcDbEntity
  8
notes
390
0
100
AcDbBlockBegin
  2
*D5
 70
               1
 10
0.0
 20
0.0
 30
0.0
  3
*D5
  1

  0
LINE
  5
6B
100
AcDbEntity
  8
0
370
              -2
390
0
  6
Continuous
 62
               0
100
AcDbLine
 10
-2.9453473854291587
 20
248.0089036855511
 30
0.0
 11
145.84304151850301
 21
248.0089036855511
 31
0.0
  0
LINE
  5
6C
100
AcDbEntity
  8
0
370
              -2
390
0
  6
Continuous
 62
               0
100
AcDbLine
 10
60.719445938605531
 20
-351.99109631445026
 30
0.0
 11
145.84304151850301
 21
-351.99109631445026
 31
0.0
  0
LINE
  5
6D
100
AcDbEntity
  8
0
370
              -2
390
0
  6
Continuous
 62
               0
100
AcDbLine
 10
145.84304151850301
 20
248.0089036855511
 30
0.0
 11
145.84304151850301
 21
-351.99109631445026
 31
0.0
  0
CIRCLE
  5
6E
102
{ACAD_REACTORS
330
6F
102
}
100
AcDbEntity
  8
0
370
              -2
390
0
  6
Continuous
 62
               0
100
AcDbCircle
 10
145.84304151850301
 20
248.0089036855511
 30
0.0
 40
0.99993896484375
  0
HATCH
  5
6F
100
AcDbEntity
  8
0
370
              -2
390
0
  6
Continuous
 62
               0
100
AcDbHatch
 10
0.0
 20
0.0
 30
0.0
210
0.0
220
0.0
230
1.0
  2
SOLID
 70
               1
 71
               1
 91
        1
 92
        1
 93
        1
 72
               2
 10
145.84304151850301
 20
248.0089036855511
 40
0.99993896484375
 50
0.0
 51
360.0
 73
               0
 97
        1
330
6E
 75
               0
 76
               1
 98
        1
 10
0.0
 20
0.0
  0
CIRCLE
  5
70
102
{ACAD_REACTORS
330
71
102
}
100
AcDbEntity
  8
0
370
              -2
390
0
  6
Continuous
 62
               0
100
AcDbCircle
 10
145.84304151850301
 20
-351.99109631445026
 30
0.0
 40
0.99993896484375
  0
HATCH
  5
71
100
AcDbEntity
  8
0
370
              -2
390
0
  6
Continuous
 62
               0
100
AcDbHatch
 10
0.0
 20
0.0
 30
0.0
210
0.0
220
0.0
230
1.0
  2
SOLID
 70
               1
 71
               1
 91
        1
 92
        1
 93
        1
 72
               2
 10
145.84304151850301
 20
-351.99109631445026
 40
0.99993896484375
 50
0.0
 51
360.0
 73
               0
 97
        1
330
70
 75
               0
 76
               1
 98
        1
 10
0.0
 20
0.0
  0
MTEXT
  5
72
100
AcDbEntity
  8
0
390
0
 62
               0
100
AcDbMText
 10
128.90423292475316
 20
-63.897347155537318
 30
0.0
 40
12.216308593750002
 41
0.0
 71
               1
 72
               1
  1
600
  7
ＭＳ ゴシック
 11
0.0
 21
1.0
 31
0.0
 73
               1
 44
0.7828267384257843
  0
POINT
  5
73
100
AcDbEntity
  8
Defpoints
370
               0
390
0
 62
               0
100
AcDbPoint
 10
48.219445938605531
 20
-351.99109631445026
 30
0.0
  0
POINT
  5
74
100
AcDbEntity
  8
Defpoints
370
               0
390
0
 62
               0
100
AcDbPoint
 10
-15.445347385429159
 20
248.0089036855511
 30
0.0
  0
POINT
  5
75
100
AcDbEntity
  8
Defpoints
370
               0
390
0
 62
               0
100
AcDbPoint
 10
145.84304151850301
 20
248.0089036855511
 30
0.0
  0
ENDBLK
  5
76
100
AcDbEntity
  8
notes
390
0
100
AcDbBlockEnd
  0
BLOCK
  5
77
100
AcDbEntity
  8
notes
390
0
100
AcDbBlockBegin
  2
*D6
 70
               1
 10
0.0
 20
0.0
 30
0.0
  3
*D6
  1

  0
LINE
  5
78
100
AcDbEntity
  8
0
370
              -2
390
0
  6
Continuous
 62
               0
100
AcDbLine
 10
24.436160965266026
 20
172.98121362425582
 30
0.0
 11
24.436160965266026
 21
98.481213624255815
 31
0.0
  0
LINE
  5
79
100
AcDbEntity
  8
0
370
              -2
390
0
  6
Continuous
 62
               0
100
AcDbLine
 10
-55.563839034733974
 20
172.98121362425582
 30
0.0
 11
-55.563839034733974
 21
98.481213624255815
 31
0.0
  0
LINE
  5
7A
100
AcDbEntity
  8
0
370
              -2
390
0
  6
Continuous
 62
               0
100
AcDbLine
 10
24.436160965266026
 20
98.481213624255815
 30
0.0
 11
-55.563839034733974
 21
98.481213624255815
 31
0.0
  0
CIRCLE
  5
7B
102
{ACAD_REACTORS
330
7C
102
}
100
AcDbEntity
  8
0
370
              -2
390
0
  6
Continuous
 62
               0
100
AcDbCircle
 10
24.436160965266026
 20
98.481213624255815
 30
0.0
 40
0.99993896484375
  0
HATCH
  5
7C
100
AcDbEntity
  8
0
370
              -2
390
0
  6
Continuous
 62
               0
100
AcDbHatch
 10
0.0
 20
0.0
 30
0.0
210
0.0
220
0.0
230
1.0
  2
SOLID
 70
               1
 71
               1
 91
        1
 92
        1
 93
        1
 72
               2
 10
24.436160965266026
 20
98.481213624255815
 40
0.99993896484375
 50
0.0
 51
360.0
 73
               0
 97
        1
330
7B
 75
               0
 76
               1
 98
        1
 10
0.0
 20
0.0
  0
CIRCLE
  5
7D
102
{ACAD_REACTORS
330
7E
102
}
100
AcDbEntity
  8
0
370
              -2
390
0
  6
Continuous
 62
               0
100
AcDbCircle
 10
-55.563839034733974
 20
98.481213624255815
 30
0.0
 40
0.99993896484375
  0
HATCH
  5
7E
100
AcDbEntity
  8
0
370
              -2
390
0
  6
Continuous
 62
               0
100
AcDbHatch
 10
0.0
 20
0.0
 30
0.0
210
0.0
220
0.0
230
1.0
  2
SOLID
 70
               1
 71
               1
 91
        1
 92
        1
 93
        1
 72
               2
 10
-55.563839034733974
 20
98.481213624255815
 40
0.99993896484375
 50
0.0
 51
360.0
 73
               0
 97
        1
330
7D
 75
               0
 76
               1
 98
        1
 10
0.0
 20
0.0
  0
MTEXT
  5
7F
100
AcDbEntity
  8
0
390
0
 62
               0
100
AcDbMText
 10
-23.501339034733974
 20
115.42002221800567
 30
0.0
 40
12.216308593750002
 41
0.0
 71
               1
 72
               1
  1
80
  7
ＭＳ ゴシック
 73
               1
 44
0.7828267384257843
  0
POINT
  5
80
100
AcDbEntity
  8
Defpoints
370
               0
390
0
 62
               0
100
AcDbPoint
 10
-55.563839034733974
 20
185.48121362425582
 30
0.0
  0
POINT
  5
81
100
AcDbEntity
  8
Defpoints
370
               0
390
0
 62
               0
100
AcDbPoint
 10
24.436160965266026
 20
185.48121362425582
 30
0.0
  0
POINT
  5
82
100
AcDbEntity
  8
Defpoints
370
               0
390
0
 62
               0
100
AcDbPoint
 10
24.436160965266026
 20
98.481213624255815
 30
0.0
  0
ENDBLK
  5
83
100
AcDbEntity
  8
notes
390
0
100
AcDbBlockEnd
  0
BLOCK
  5
84
100
AcDbEntity
  8
notes
390
0
100
AcDbBlockBegin
  2
*D7
 70
               1
 10
0.0
 20
0.0
 30
0.0
  3
*D7
  1

  0
LINE
  5
85
100
AcDbEntity
  8
0
370
              -2
390
0
  6
Continuous
 62
               0
100
AcDbLine
 10
-55.563839034733974
 20
172.98121362425582
 30
0.0
 11
-55.563839034733974
 21
98.481213624255815
 31
0.0
  0
LINE
  5
86
100
AcDbEntity
  8
0
370
              -2
390
0
  6
Continuous
 62
               0
100
AcDbLine
 10
-135.56383903473397
 20
179.70212909330758
 30
0.0
 11
-135.56383903473397
 21
98.481213624255815
 31
0.0
  0
LINE
  5
87
100
AcDbEntity
  8
0
370
              -2
390
0
  6
Continuous
 62
               0
100
AcDbLine
 10
-55.563839034733974
 20
98.481213624255815
 30
0.0
 11
-135.56383903473397
 21
98.481213624255815
 31
0.0
  0
CIRCLE
  5
88
102
{ACAD_REACTORS
330
89
102
}
100
AcDbEntity
  8
0
370
              -2
390
0
  6
Continuous
 62
               0
100
AcDbCircle
 10
-55.563839034733974
 20
98.481213624255815
 30
0.0
 40
0.99993896484375
  0
HATCH
  5
89
100
AcDbEntity
  8
0
370
              -2
390
0
  6
Continuous
 62
               0
100
AcDbHatch
 10
0.0
 20
0.0
 30
0.0
210
0.0
220
0.0
230
1.0
  2
SOLID
 70
               1
 71
               1
 91
        1
 92
        1
 93
        1
 72
               2
 10
-55.563839034733974
 20
98.481213624255815
 40
0.99993896484375
 50
0.0
 51
360.0
 73
               0
 97
        1
330
88
 75
               0
 76
               1
 98
        1
 10
0.0
 20
0.0
  0
CIRCLE
  5
8A
102
{ACAD_REACTORS
330
8B
102
}
100
AcDbEntity
  8
0
370
              -2
390
0
  6
Continuous
 62
               0
100
AcDbCircle
 10
-135.56383903473397
 20
98.481213624255815
 30
0.0
 40
0.99993896484375
  0
HATCH
  5
8B
100
AcDbEntity
  8
0
370
              -2
390
0
  6
Continuous
 62
               0
100
AcDbHatch
 10
0.0
 20
0.0
 30
0.0
210
0.0
220
0.0
230
1.0
  2
SOLID
 70
               1
 71
               1
 91
        1
 92
        1
 93
        1
 72
               2
 10
-135.56383903473397
 20
98.481213624255815
 40
0.99993896484375
 50
0.0
 51
360.0
 73
               0
 97
        1
330
8A
 75
               0
 76
               1
 98
        1
 10
0.0
 20
0.0
  0
MTEXT
  5
8C
100
AcDbEntity
  8
0
390
0
 62
               0
100
AcDbMText
 10
-103.50133903473397
 20
115.42002221800567
 30
0.0
 40
12.216308593750002
 41
0.0
 71
               1
 72
               1
  1
80
  7
ＭＳ ゴシック
 73
               1
 44
0.7828267384257843
  0
POINT
  5
8D
100
AcDbEntity
  8
Defpoints
370
               0
390
0
 62
               0
100
AcDbPoint
 10
-135.56383903473397
 20
192.20212909330758
 30
0.0
  0
POINT
  5
8E
100
AcDbEntity
  8
Defpoints
370
               0
390
0
 62
               0
100
AcDbPoint
 10
-55.563839034733974
 20
185.48121362425582
 30
0.0
  0
POINT
  5
8F
100
AcDbEntity
  8
Defpoints
370
               0
390
0
 62
               0
100
AcDbPoint
 10
-55.563839034733974
 20
98.481213624255815
 30
0.0
  0
ENDBLK
  5
90
100
AcDbEntity
  8
notes
390
0
100
AcDbBlockEnd
  0
BLOCK
  5
91
100
AcDbEntity
  8
notes
390
0
100
AcDbBlockBegin
  2
*D8
 70
               1
 10
0.0
 20
0.0
 30
0.0
  3
*D8
  1

  0
LINE
  5
92
100
AcDbEntity
  8
0
370
              -2
390
0
  6
Continuous
 62
               0
100
AcDbLine
 10
8.4334087439710856
 20
-364.49109631445026
 30
0.0
 11
8.4334087439710856
 21
-403.0
 31
0.0
  0
LINE
  5
93
100
AcDbEntity
  8
0
370
              -2
390
0
  6
Continuous
 62
               0
100
AcDbLine
 10
40.433408743971086
 20
-364.49109631445026
 30
0.0
 11
40.433408743971086
 21
-403.0
 31
0.0
  0
LINE
  5
94
100
AcDbEntity
  8
0
370
              -2
390
0
  6
Continuous
 62
               0
100
AcDbLine
 10
8.4334087439710856
 20
-403.0
 30
0.0
 11
40.433408743971086
 21
-403.0
 31
0.0
  0
CIRCLE
  5
95
102
{ACAD_REACTORS
330
96
102
}
100
AcDbEntity
  8
0
370
              -2
390
0
  6
Continuous
 62
               0
100
AcDbCircle
 10
8.4334087439710856
 20
-403.0
 30
0.0
 40
0.99993896484375
  0
HATCH
  5
96
100
AcDbEntity
  8
0
370
              -2
390
0
  6
Continuous
 62
               0
100
AcDbHatch
 10
0.0
 20
0.0
 30
0.0
210
0.0
220
0.0
230
1.0
  2
SOLID
 70
               1
 71
               1
 91
        1
 92
        1
 93
        1
 72
               2
 10
8.4334087439710856
 20
-403.0
 40
0.99993896484375
 50
0.0
 51
360.0
 73
               0
 97
        1
330
95
 75
               0
 76
               1
 98
        1
 10
0.0
 20
0.0
  0
CIRCLE
  5
97
102
{ACAD_REACTORS
330
98
102
}
100
AcDbEntity
  8
0
370
              -2
390
0
  6
Continuous
 62
               0
100
AcDbCircle
 10
40.433408743971086
 20
-403.0
 30
0.0
 40
0.99993896484375
  0
HATCH
  5
98
100
AcDbEntity
  8
0
370
              -2
390
0
  6
Continuous
 62
               0
100
AcDbHatch
 10
0.0
 20
0.0
 30
0.0
210
0.0
220
0.0
230
1.0
  2
SOLID
 70
               1
 71
               1
 91
        1
 92
        1
 93
        1
 72
               2
 10
40.433408743971086
 20
-403.0
 40
0.99993896484375
 50
0.0
 51
360.0
 73
               0
 97
        1
330
97
 75
               0
 76
               1
 98
        1
 10
0.0
 20
0.0
  0
MTEXT
  5
99
100
AcDbEntity
  8
0
390
0
 62
               0
100
AcDbMText
 10
8.5611609652660263
 20
-386.06119140625015
 30
0.0
 40
12.216308593750002
 41
0.0
 71
               1
 72
               1
  1
φ32
  7
ＭＳ ゴシック
 73
               1
 44
0.7828267384257843
  0
POINT
  5
9A
100
AcDbEntity
  8
Defpoints
370
               0
390
0
 62
               0
100
AcDbPoint
 10
40.433408743971086
 20
-351.99109631445026
 30
0.0
  0
POINT
  5
9B
100
AcDbEntity
  8
Defpoints
370
               0
390
0
 62
               0
100
AcDbPoint
 10
8.4334087439710856
 20
-351.99109631445026
 30
0.0
  0
POINT
  5
9C
100
AcDbEntity
  8
Defpoints
370
               0
390
0
 62
               0
100
AcDbPoint
 10
8.4334087439710856
 20
-403.0
 30
0.0
  0
ENDBLK
  5
9D
100
AcDbEntity
  8
notes
390
0
100
AcDbBlockEnd
  0
BLOCK
  5
9E
100
AcDbEntity
  8
TFM73-7001
390
0
100
AcDbBlockBegin
  2
*D9
 70
               1
 10
0.0
 20
0.0
 30
0.0
  3
*D9
  1

  0
LINE
  5
9F
100
AcDbEntity
  8
0
370
              -2
390
0
  6
Continuous
 62
               0
100
AcDbLine
 10
-8.4798246948066662
 20
-342.98288512361069
 30
0.0
 11
-8.4798246948066662
 21
-434.0
 31
0.0
  0
LINE
  5
A0
100
AcDbEntity
  8
0
370
              -2
390
0
  6
Continuous
 62
               0
100
AcDbLine
 10
57.39918763384776
 20
-342.96916859833254
 30
0.0
 11
57.39918763384776
 21
-434.0
 31
0.0
  0
LINE
  5
A1
100
AcDbEntity
  8
0
370
              -2
390
0
  6
Continuous
 62
               0
100
AcDbLine
 10
-8.4798246948066662
 20
-434.0
 30
0.0
 11
57.39918763384776
 21
-434.0
 31
0.0
  0
CIRCLE
  5
A2
102
{ACAD_REACTORS
330
A3
102
}
100
AcDbEntity
  8
0
370
              -2
390
0
  6
Continuous
 62
               0
100
AcDbCircle
 10
-8.4798246948066662
 20
-434.0
 30
0.0
 40
0.99993896484375
  0
HATCH
  5
A3
100
AcDbEntity
  8
0
370
              -2
390
0
  6
Continuous
 62
               0
100
AcDbHatch
 10
0.0
 20
0.0
 30
0.0
210
0.0
220
0.0
230
1.0
  2
SOLID
 70
               1
 71
               1
 91
        1
 92
        1
 93
        1
 72
               2
 10
-8.4798246948066662
 20
-434.0
 40
0.99993896484375
 50
0.0
 51
360.0
 73
               0
 97
        1
330
A2
 75
               0
 76
               1
 98
        1
 10
0.0
 20
0.0
  0
CIRCLE
  5
A4
102
{ACAD_REACTORS
330
A5
102
}
100
AcDbEntity
  8
0
370
              -2
390
0
  6
Continuous
 62
               0
100
AcDbCircle
 10
57.39918763384776
 20
-434.0
 30
0.0
 40
0.99993896484375
  0
HATCH
  5
A5
100
AcDbEntity
  8
0
370
              -2
390
0
  6
Continuous
 62
               0
100
AcDbHatch
 10
0.0
 20
0.0
 30
0.0
210
0.0
220
0.0
230
1.0
  2
SOLID
 70
               1
 71
               1
 91
        1
 92
        1
 93
        1
 72
               2
 10
57.39918763384776
 20
-434.0
 40
0.99993896484375
 50
0.0
 51
360.0
 73
               0
 97
        1
330
A4
 75
               0
 76
               1
 98
        1
 10
0.0
 20
0.0
  0
MTEXT
  5
A6
100
AcDbEntity
  8
0
390
0
 62
               0
100
AcDbMText
 10
8.5846814695205467
 20
-417.06119140625015
 30
0.0
 40
12.216308593750002
 41
0.0
 71
               1
 72
               1
  1
φ66
  7
ＭＳ ゴシック
 73
               1
 44
0.7828267384257843
  0
POINT
  5
A7
100
AcDbEntity
  8
Defpoints
370
               0
390
0
 62
               0
100
AcDbPoint
 10
57.39918763384776
 20
-330.46916859833254
 30
0.0
  0
POINT
  5
A8
100
AcDbEntity
  8
Defpoints
370
               0
390
0
 62
               0
100
AcDbPoint
 10
-8.4798246948066662
 20
-330.48288512361069
 30
0.0
  0
POINT
  5
A9
100
AcDbEntity
  8
Defpoints
370
               0
390
0
 62
               0
100
AcDbPoint
 10
-8.4798246948066662
 20
-434.0
 30
0.0
  0
ENDBLK
  5
AA
100
AcDbEntity
  8
TFM73-7001
390
0
100
AcDbBlockEnd
  0
ENDSEC
  0
SECTION
  2
ENTITIES
  0
MTEXT
  5
AB
100
AcDbEntity
  8
template
390
0
 62
               7
100
AcDbMText
 10
-483.99999999987995
 20
-573.70881461685167
 30
0.0
 40
8.1442057291666661
 41
0.0
 71
               1
 72
               1
  1
品名
  7
ＭＳ ゴシック
 73
               1
 44
0.7828267384257843
  0
MTEXT
  5
AC
100
AcDbEntity
  8
template
390
0
 62
               7
100
AcDbMText
 10
-483.99999999987995
 20
-616.20881461685167
 30
0.0
 40
8.1442057291666661
 41
0.0
 71
               1
 72
               1
  1
仕様
  7
ＭＳ ゴシック
 73
               1
 44
0.7828267384257843
  0
MTEXT
  5
AD
100
AcDbEntity
  8
template
390
0
 62
               7
100
AcDbMText
 10
-457.49999999987995
 20
-588.00004508560141
 30
0.0
 40
12.216308593750002
 41
0.0
 71
               1
 72
               1
  1
Sトラップ
  7
ＭＳ ゴシック
 73
               1
 44
0.7828267384257843
  0
LINE
  5
AE
100
AcDbEntity
  8
template
370
               5
390
0
  6
Continuous
 62
               7
100
AcDbLine
 10
487.49999999987904
 20
-612.00135367935127
 30
0.0
 11
-487.50000000012096
 21
-612.00135367935127
 31
0.0
  0
LWPOLYLINE
  5
AF
100
AcDbEntity
  8
template
370
               5
390
0
  6
Continuous
 62
               7
100
AcDbPolyline
 90
        5
 70
             128
 10
487.50000000012096
 20
702.9986463206501
 10
-487.49999999987995
 20
702.9986463206501
 10
-487.49999999987995
 20
-697.00135367935127
 10
487.50000000012096
 20
-697.00135367935127
 10
487.50000000012096
 20
702.9986463206501
  0
LINE
  5
B0
100
AcDbEntity
  8
template
370
               5
390
0
  6
Continuous
 62
               7
100
AcDbLine
 10
487.49999999987904
 20
-569.50135367935127
 30
0.0
 11
-487.50000000012096
 21
-569.50135367935127
 31
0.0
  0
LINE
  5
B1
100
AcDbEntity
  8
template
370
               5
390
0
  6
Continuous
 62
               7
100
AcDbLine
 10
487.50000000012096
 20
-654.50135367935127
 30
0.0
 11
111.00000000012096
 21
-654.50135367935127
 31
0.0
  0
MTEXT
  5
B2
100
AcDbEntity
  8
template
390
0
 62
               7
100
AcDbMText
 10
-487.49999999977808
 20
-702.92826470777891
 30
0.0
 40
10.858940972222223
 41
0.0
 71
               1
 72
               1
  1
111116SH
  7
ＭＳ ゴシック
 73
               1
 44
0.7828267384257843
  0
MTEXT
  5
B3
100
AcDbEntity
  8
template
390
0
 62
               7
100
AcDbMText
 10
365.50000000025011
 20
-616.20881461685167
 30
0.0
 40
8.1442057291666661
 41
0.0
 71
               1
 72
               1
  1
縮尺
  7
ＭＳ ゴシック
 73
               1
 44
0.7828267384257843
  0
LINE
  5
B4
100
AcDbEntity
  8
template
370
               5
390
0
  6
Continuous
 62
               7
100
AcDbLine
 10
362.00000000025011
 20
-654.50135367935127
 30
0.0
 11
362.00000000025011
 21
-612.00135367935127
 31
0.0
  0
MTEXT
  5
B5
100
AcDbEntity
  8
template
390
0
 62
               7
100
AcDbMText
 10
240.00000000025011
 20
-616.20881461685167
 30
0.0
 40
8.1442057291666661
 41
0.0
 71
               1
 72
               1
  1
容量
  7
ＭＳ ゴシック
 73
               1
 44
0.7828267384257843
  0
LINE
  5
B6
100
AcDbEntity
  8
template
370
               5
390
0
  6
Continuous
 62
               7
100
AcDbLine
 10
236.50000000025011
 20
-654.50135367935127
 30
0.0
 11
236.50000000025011
 21
-612.00135367935127
 31
0.0
  0
MTEXT
  5
B7
100
AcDbEntity
  8
template
390
0
 62
               7
100
AcDbMText
 10
114.50000000025011
 20
-573.70881461685167
 30
0.0
 40
8.1442057291666661
 41
0.0
 71
               1
 72
               1
  1
品番
  7
ＭＳ ゴシック
 73
               1
 44
0.7828267384257843
  0
MTEXT
  5
B8
100
AcDbEntity
  8
template
390
0
 62
               7
100
AcDbMText
 10
114.50000000025011
 20
-616.20881461685167
 30
0.0
 40
8.1442057291666661
 41
0.0
 71
               1
 72
               1
  1
重量
  7
ＭＳ ゴシック
 73
               1
 44
0.7828267384257843
  0
MTEXT
  5
B9
100
AcDbEntity
  8
template
390
0
 62
               7
100
AcDbMText
 10
141.00000000025011
 20
-588.00004508560141
 30
0.0
 40
12.216308593750002
 41
0.0
 71
               1
 72
               1
  1
TFM73-7001
  7
ＭＳ ゴシック
 73
               1
 44
0.7828267384257843
  0
LINE
  5
BA
100
AcDbEntity
  8
template
370
               5
390
0
  6
Continuous
 62
               7
100
AcDbLine
 10
111.00000000025011
 20
-697.00135367935127
 30
0.0
 11
111.00000000025011
 21
-569.50135367935127
 31
0.0
  0
MTEXT
  5
BB
100
AcDbEntity
  8
template
390
0
 62
               7
100
AcDbMText
 10
125.9357031262507
 20
-669.45655091600474
 30
0.0
 40
12.216308593750002
 41
0.0
 71
               1
 72
               1
  1
大洋金物株式会社 ティーフォルム事業部
  7
ＭＳ ゴシック
 73
               1
 44
0.7828267384257843
  0
INSERT
  5
BC
100
AcDbEntity
  8
template
390
0
 62
               7
100
AcDbBlockReference
  2
グループ
 10
5335.021164905711
 20
3767.5048200721021
 30
0.0
  0
LWPOLYLINE
  5
BD
100
AcDbEntity
  8
notes
370
               9
390
0
  6
Continuous
 62
             250
100
AcDbPolyline
 90
        3
 70
             128
 10
-114.76425960496272
 20
396.50139067191913
 10
-93.028292262240939
 20
442.1312373852179
 10
-47.260571919964605
 20
442.1312373852179
  0
DIMENSION
  5
BE
100
AcDbEntity
  8
notes
370
               5
390
0
  6
Continuous
 62
               7
100
AcDbDimension
  2
*D3
 10
-237.15695848149699
 20
398.01257580619631
 30
0.0
 11
-237.15695848149699
 21
273.01257580619631
 31
0.0
 71
               5
 72
               1
 41
1.0
 42
0.0
  3
tfrom線あり
100
AcDbAlignedDimension
 13
-97.929130569350491
 23
148.01257580619631
 33
0.0
 14
-160.03451874062193
 24
398.01257580619631
 34
0.0
 50
90.0
100
AcDbRotatedDimension
1001
ACAD
1000
DSTYLE
1002
{
1070
             279
1070
               2
1070
             340
1005
2B
1070
               3
1000
<>～280
1070
             147
1040
2.5
1002
}
  0
DIMENSION
  5
BF
100
AcDbEntity
  8
notes
370
               5
390
0
  6
Continuous
 62
               7
100
AcDbDimension
  2
*D4
 10
99.0
 20
148.01257580619631
 30
0.0
 11
101.5
 21
200.0
 31
0.0
 70
             128
 71
               5
 72
               1
 41
1.0
 42
0.0
  3
tfrom線あり
100
AcDbAlignedDimension
 13
-22.156958481497895
 23
248.0089036855511
 33
0.0
 14
-97.929130569350491
 24
148.01257580619631
 34
0.0
 50
90.0
100
AcDbRotatedDimension
1001
ACAD
1000
DSTYLE
1002
{
1070
             279
1070
               2
1070
             340
1005
2B
1070
             147
1040
2.5
1002
}
  0
DIMENSION
  5
C0
100
AcDbEntity
  8
notes
370
               5
390
0
  6
Continuous
 62
               7
100
AcDbDimension
  2
*D5
 10
145.84304151850301
 20
248.0089036855511
 30
0.0
 11
145.84304151850301
 21
-51.991096314449351
 31
0.0
 71
               5
 72
               1
 41
1.0
 42
0.0
  3
tfrom線あり
100
AcDbAlignedDimension
 13
48.219445938605531
 23
-351.99109631445026
 33
0.0
 14
-15.445347385429159
 24
248.0089036855511
 34
0.0
 50
90.0
100
AcDbRotatedDimension
1001
ACAD
1000
DSTYLE
1002
{
1070
             279
1070
               2
1070
             340
1005
2B
1070
             147
1040
2.5
1002
}
  0
DIMENSION
  5
C1
100
AcDbEntity
  8
notes
370
               5
390
0
  6
Continuous
 62
               7
100
AcDbDimension
  2
*D6
 10
24.436160965266026
 20
98.481213624255815
 30
0.0
 11
-15.563839034733974
 21
98.481213624255815
 31
0.0
 71
               5
 72
               1
 41
1.0
 42
0.0
  3
tfrom線あり
100
AcDbAlignedDimension
 13
-55.563839034733974
 23
185.48121362425582
 33
0.0
 14
24.436160965266026
 24
185.48121362425582
 34
0.0
100
AcDbRotatedDimension
1001
ACAD
1000
DSTYLE
1002
{
1070
             279
1070
               2
1070
             340
1005
2B
1070
             147
1040
2.5
1002
}
  0
DIMENSION
  5
C2
100
AcDbEntity
  8
notes
370
               5
390
0
  6
Continuous
 62
               7
100
AcDbDimension
  2
*D7
 10
-55.563839034733974
 20
98.481213624255815
 30
0.0
 11
-95.563839034733974
 21
98.481213624255815
 31
0.0
 71
               5
 72
               1
 41
1.0
 42
0.0
  3
tfrom線あり
100
AcDbAlignedDimension
 13
-135.56383903473397
 23
192.20212909330758
 33
0.0
 14
-55.563839034733974
 24
185.48121362425582
 34
0.0
100
AcDbRotatedDimension
1001
ACAD
1000
DSTYLE
1002
{
1070
             279
1070
               2
1070
             340
1005
2B
1070
             147
1040
2.5
1002
}
  0
MTEXT
  5
C3
100
AcDbEntity
  8
notes
390
0
 62
               7
100
AcDbMText
 10
-93.156958481497895
 20
459.04502221800567
 30
0.0
 40
12.216308593750002
 41
0.0
 71
               1
 72
               1
  1
G1 1/4"
  7
ＭＳ ゴシック
 73
               1
 44
0.7828267384257843
  0
DIMENSION
  5
C4
100
AcDbEntity
  8
notes
370
               5
390
0
  6
Continuous
 62
               7
100
AcDbDimension
  2
*D8
 10
8.4334087439710856
 20
-403.0
 30
0.0
 11
24.436160965266026
 21
-400.5
 31
0.0
 70
             128
 71
               5
 72
               1
 41
1.0
 42
0.0
  3
tfrom線あり
100
AcDbAlignedDimension
 13
40.433408743971086
 23
-351.99109631445026
 33
0.0
 14
8.4334087439710856
 24
-351.99109631445026
 34
0.0
100
AcDbRotatedDimension
1001
ACAD
1000
DSTYLE
1002
{
1070
             279
1070
               2
1070
             340
1005
2B
1070
               3
1000
φ<>
1070
             147
1040
2.5
1002
}
  0
LWPOLYLINE
  5
C5
100
AcDbEntity
  8
TFM73-7001
370
              18
390
0
  6
Continuous
 62
             250
100
AcDbPolyline
 90
      101
 70
             128
 10
-109.54648095569246
 20
389.49763001501697
 42
-0.0048982114538779
 10
-109.54720436615298
 20
389.42378743890049
 10
-109.54898947130732
 20
389.33268831922942
 42
-0.0296009409164088
 10
-109.56910684177001
 20
389.07784662144377
 10
-109.58621690938799
 20
388.9546142195295
 42
-0.0391061090588751
 10
-109.69416735267168
 20
388.46295572381541
 10
-109.70425788404009
 20
388.42966561775393
 42
-0.0384194938767008
 10
-109.90599679518618
 20
387.91124083858085
 10
-109.90698157692987
 20
387.90919125464143
 42
-0.0377802110883351
 10
-110.18280924488045
 20
387.43126141765151
 10
-110.22228541633831
 20
387.37343005302955
 42
-0.0373165297230114
 10
-110.47940370333345
 20
387.0512506745863
 42
-0.0186275120201427
 10
-110.77158077720833
 20
386.75909118896607
 42
-0.0373007372789731
 10
-111.0941333287783
 20
386.50171693018365
 10
-111.15069717684855
 20
386.46310993235238
 42
-0.018824466276611
 10
-111.38506708834302
 20
386.31575819166574
 42
-0.0189478185133081
 10
-111.62988614221922
 20
386.18651426190854
 10
-111.69403959058036
 20
386.15569540486649
 42
-0.0384339375513264
 10
-112.08373559188931
 20
386.00409408478345
 10
-112.1834775829866
 20
385.97387528101808
 42
-0.0390850593520196
 10
-112.67501001978326
 20
385.86599658802015
 10
-112.79823137807671
 20
385.84889351789616
 42
-0.0295771892647295
 10
-113.05295748295885
 20
385.82878425844774
 10
-113.14399812421925
 20
385.82699561628579
 42
-0.0049110661925766
 10
-113.21784066310829
 20
385.82627030760023
 10
-158.5491719962356
 20
385.82627030760023
 42
-0.0048982114545905
 10
-158.62301457237663
 20
385.8269937180612
 10
-158.71411369202269
 20
385.82877882321554
 42
-0.0296009409154472
 10
-158.96895538980243
 20
385.84889619367823
 10
-159.09218779172261
 20
385.86600626129621
 42
-0.0391061090606062
 10
-159.58384628743261
 20
385.97395670457809
 10
-159.61713639350182
 20
385.98404723594876
 42
-0.0384194938762357
 10
-160.13556117267126
 20
386.18578614709395
 10
-160.1376107566075
 20
386.18677092883536
 42
-0.0377802110878746
 10
-160.6155405936006
 20
386.46259859678867
 10
-160.67337195823166
 20
386.5020747682529
 42
-0.037316529721198
 10
-160.99555133666581
 20
386.75919305524212
 42
-0.0186275120201916
 10
-161.2877108222865
 20
387.05137012911655
 42
-0.0373007372805024
 10
-161.54508508106937
 20
387.37392268068561
 10
-161.58369207892065
 20
387.43048652878588
 42
-0.0188244662742375
 10
-161.73104381958638
 20
387.66485644025124
 42
-0.0189478185055992
 10
-161.86028774935767
 20
387.90967549415836
 10
-161.89110660638471
 20
387.97382894248858
 42
-0.0384339375504169
 10
-162.04270792646912
 20
388.3635249437998
 10
-162.07292673023676
 20
388.46326693490255
 42
-0.039085059352155
 10
-162.18080542323241
 20
388.95479937169148
 10
-162.19790849335732
 20
389.07802072999402
 42
-0.0295771892641603
 10
-162.21801775280437
 20
389.33274683486707
 10
-162.21980639496633
 20
389.42378747614566
 42
-0.0049110661874784
 10
-162.22053170365143
 20
389.49763001501697
 10
-162.22053170365143
 20
394.24351860148636
 42
-0.0048982114556616
 10
-162.21980829319091
 20
394.31736117759283
 10
-162.21802318803657
 20
394.40846029727345
 42
-0.029600940916545
 10
-162.19790581757297
 20
394.6633019950641
 10
-162.18079574995591
 20
394.78653439697337
 42
-0.0391061090588129
 10
-162.07284530667039
 20
395.27819289269291
 10
-162.06275477530289
 20
395.31148299875122
 42
-0.0384194938767487
 10
-161.86101586415771
 20
395.82990777792202
 10
-161.86003108241403
 20
395.83195736186281
 42
-0.0377802110876777
 10
-161.58420341446345
 20
396.30988719885136
 10
-161.54472724300558
 20
396.36771856347332
 42
-0.0373165297230978
 10
-161.28760895601044
 20
396.68989794191657
 42
-0.0186275120210241
 10
-160.99543188213556
 20
396.98205742753726
 42
-0.0373007372782634
 10
-160.6728793305665
 20
397.23943168631922
 10
-160.6163154824917
 20
397.27803868415367
 42
-0.0188244662740585
 10
-160.38194557100178
 20
397.42539042483713
 42
-0.0189478185098769
 10
-160.13712651712012
 20
397.55463435459615
 10
-160.07297306876353
 20
397.58545321163638
 42
-0.0384339375535972
 10
-159.68327706745004
 20
397.73705453172033
 10
-159.58353507635184
 20
397.76727333548615
 42
-0.0390850593523284
 10
-159.09200263956063
 20
397.87515202848272
 10
-158.96878128127082
 20
397.89225509860671
 42
-0.0295771892642883
 10
-158.71405517638505
 20
397.91236435805513
 10
-158.62301453509008
 20
397.91415300021754
 42
-0.0049110661885226
 10
-158.5491719962356
 20
397.91487830890264
 10
-113.21784066310829
 20
397.91487830890264
 42
-0.0048982114510925
 10
-113.14399808697999
 20
397.91415489844212
 10
-113.0528989673212
 20
397.91236979328733
 42
-0.0296009409155479
 10
-112.79805726953236
 20
397.89225242282419
 10
-112.67482486762128
 20
397.87514235520666
 42
-0.0391061090600412
 10
-112.18316637190946
 20
397.76719191192478
 10
-112.14987626584389
 20
397.75710138055501
 42
-0.0384194938759991
 10
-111.63145148667263
 20
397.55536246940937
 10
-111.62940190273093
 20
397.55437768766524
 42
-0.0377802110876522
 10
-111.15147206574329
 20
397.2785500197142
 10
-111.0936407011186
 20
397.23907384825407
 42
-0.0373165297227664
 10
-110.77146132267808
 20
396.98195556126075
 42
-0.0186275120210372
 10
-110.4793018370583
 20
396.68977848738632
 42
-0.0373007372774467
 10
-110.22192757827543
 20
396.3672259358168
 10
-110.18332058043597
 20
396.31066208773473
 42
-0.0188244662770425
 10
-110.03596883975752
 20
396.07629217625163
 42
-0.0189478185098175
 10
-109.90672491000532
 20
395.83147312238316
 10
-109.87590605295918
 20
395.76731967401429
 42
-0.0384339375510961
 10
-109.72430473287659
 20
395.37762367270852
 10
-109.69408592911168
 20
395.27788168161351
 42
-0.0390850593534269
 10
-109.58620723611148
 20
394.78634924481094
 10
-109.56910416598566
 20
394.66312788649975
 42
-0.0295771892637612
 10
-109.54899490653952
 20
394.4084017816358
 10
-109.54720626437938
 20
394.31736114046407
 42
-0.0049110661927575
 10
-109.54648095569246
 20
394.24351860148636
 10
-109.54648095569246
 20
389.49763001501697
  0
LWPOLYLINE
  5
C6
100
AcDbEntity
  8
TFM73-7001
370
              18
390
0
  6
Continuous
 62
             250
100
AcDbPolyline
 90
      185
 70
             128
 10
-122.2865102315227
 20
391.87057430825143
 42
0.0094953893037575
 10
-122.28844414089326
 20
391.97239925416807
 10
-122.29134890936257
 20
392.04884316753669
 42
0.0375060229365592
 10
-122.31999530503708
 20
392.30136735870747
 10
-122.3344436871821
 20
392.37734010132226
 42
0.0357667347589607
 10
-122.43923434791577
 20
392.77215228478053
 10
-122.44038694425308
 20
392.77550699319772
 42
0.0330036803248681
 10
-122.60109583983467
 20
393.15890341500199
 10
-122.60410419606796
 20
393.16493128376806
 42
0.0297567674357236
 10
-122.81832733871397
 20
393.53700343039509
 10
-122.82344302080674
 20
393.54477937117417
 42
0.0264467426198159
 10
-123.08915776187223
 20
393.90557850811911
 10
-123.0963130862483
 20
393.91428951471153
 42
0.0233445500411187
 10
-123.41175879661569
 20
394.26371034208478
 10
-123.4206953971734
 20
394.27272549329427
 42
0.0205831786994516
 10
-123.78424688156338
 20
394.61046828248618
 10
-123.79462563811649
 20
394.61934325178026
 42
0.0182013359569177
 10
-124.20470035292783
 20
394.9449307835489
 10
-124.21617254776174
 20
394.95337740846162
 42
0.016185129978274
 10
-124.67117641063578
 20
395.26619297508705
 10
-124.68342099308666
 20
395.27403999450235
 42
0.0144968547591747
 10
-125.18172300496099
 20
395.57336648662476
 10
-125.1944614697104
 20
395.5805242904903
 42
0.0130916360444638
 10
-125.73438569508016
 20
395.86557632336962
 10
-125.74738457173044
 20
395.87200969922242
 42
0.0119258005948769
 10
-126.32721102362484
 20
396.14195732102689
 10
-126.34027854105443
 20
396.14766598952201
 42
0.0109604247824395
 10
-126.95824786614776
 20
396.40165115165928
 10
-126.971228482892
 20
396.40665649906623
 42
0.0101623622690697
 10
-127.62554773812826
 20
396.64380408370153
 10
-127.6383163833998
 20
396.64814038355507
 42
0.0095040847163369
 10
-128.32716463115958
 20
396.86756540866509
 10
-128.33962145854275
 20
396.87127413322924
 42
0.0089630434642836
 10
-129.06115467274685
 20
397.07208637411622
 10
-129.07322059918442
 20
397.07521257081862
 42
0.0085209049366208
 10
-129.82557575528244
 20
397.25651947430288
 10
-129.83718880546894
 20
397.25910949508307
 42
0.0081628055444647
 10
-130.61848718870988
 20
397.42001799212767
 10
-130.62959957033763
 20
397.42211809838864
 42
0.0079496962495211
 10
-131.43796791583463
 20
397.56161740653761
 10
-131.66399549247126
 20
397.59693192858231
 42
0.0151334226002082
 10
-132.93144772241703
 20
397.75583633480892
 10
-133.1719299995757
 20
397.77861956037304
 42
0.0146055411127186
 10
-134.92851091716875
 20
397.89339727179231
 10
-135.18102341709618
 20
397.90250171016396
 42
0.0144300196146629
 10
-136.56424308619717
 20
397.91243581699337
 10
-136.58219348205148
 20
397.9120466580971
 42
0.007200557249869
 10
-137.92909899140977
 20
397.86343304855609
 10
-137.94244682958288
 20
397.86275870328063
 42
0.0147591862300061
 10
-139.25884080897231
 20
397.75722956391928
 10
-139.49199388672059
 20
397.73159429963334
 42
0.0075902582984016
 10
-140.33735738330233
 20
397.62563562070682
 10
-140.34765441423406
 20
397.62418589902472
 42
0.0077574104195224
 10
-141.16881939483847
 20
397.49555187522037
 10
-141.17966708814856
 20
397.49367974309553
 42
0.0080112324214576
 10
-141.97473136814278
 20
397.34330928215877
 10
-141.98609901388863
 20
397.34097008158733
 42
0.008331933121529
 10
-142.75316524135815
 20
397.16975513824673
 10
-142.76501122117588
 20
397.16690300379832
 42
0.0087303375073454
 10
-143.50219403671144
 20
396.97573646221144
 10
-143.51446377485263
 20
396.97232496646484
 42
0.0092198153859036
 10
-144.21989215846315
 20
396.76209978090947
 10
-144.2325155142089
 20
396.75808302159385
 42
0.0098168778955318
 10
-144.90433575238421
 20
396.52969078412934
 10
-144.91722374055553
 20
396.52502517070798
 42
0.0105418756644851
 10
-145.55360312256835
 20
396.27935377841368
 10
-145.56664386068951
 20
396.27400090861101
 42
0.0114197662905709
 10
-146.16577517759197
 20
396.0119308360413
 10
-146.17882901888152
 20
396.00586204720912
 42
0.0124808517224849
 10
-146.73893582723395
 20
395.72826049004652
 10
-146.75182980242425
 20
395.72146394247557
 42
0.0137612492424012
 10
-147.27117214876034
 20
395.42917577593198
 10
-147.3421705513847
 20
395.38660357875233
 42
0.0154134384875497
 10
-147.70429784815497
 20
395.15399759394813
 10
-147.71324177755832
 20
395.14785518684403
 42
0.008227022513533
 10
-148.0464096263031
 20
394.91088578003746
 10
-148.05075202988701
 20
394.9076883185262
 42
0.0183117597646853
 10
-148.36226945789895
 20
394.66021881337201
 10
-148.37014972319594
 20
394.65347372358383
 42
0.0098945417786784
 10
-148.65187347081519
 20
394.40250610585872
 42
0.0218696204501126
 10
-148.91689643162499
 20
394.13436543754005
 10
-148.96065633537819
 20
394.08603602215726
 42
0.0248616077147379
 10
-149.25145817763041
 20
393.73088403851489
 10
-149.25761595651056
 20
393.72255090786257
 42
0.0280944253999235
 10
-149.49782467754721
 20
393.35608892628397
 10
-149.50187785362868
 20
393.34907583696213
 42
0.0314201502403492
 10
-149.68961134703659
 20
392.97132343326575
 10
-149.69163632485652
 20
392.966512531636
 42
0.0344845492271378
 10
-149.82468864478415
 20
392.57738561992937
 10
-149.82519282392695
 20
392.57549433345912
 42
0.0368285121176874
 10
-149.90085598038513
 20
392.17538187833998
 10
-149.90088074427968
 20
392.17516419472304
 42
0.0378117789001593
 10
-149.91620445192711
 20
391.7687459221047
 42
0.0375258706895719
 10
-149.87037559746568
 20
391.36461154268727
 10
-149.87022184109992
 20
391.363803058136
 42
0.0357667433693186
 10
-149.76543400892388
 20
390.96900153571369
 10
-149.76427961992067
 20
390.96564160983962
 42
0.0330036755799356
 10
-149.60357072953684
 20
390.58224521149714
 10
-149.60056236810487
 20
390.57621733232554
 42
0.0297567672401991
 10
-149.38633922564804
 20
390.20414518638108
 10
-149.3812235433661
 20
390.19636924531596
 42
0.0264467426145643
 10
-149.11550880230425
 20
389.83557010838831
 10
-149.10835347792454
 20
389.82685910179089
 42
0.0233445500407774
 10
-148.7929077675426
 20
389.47743827440445
 10
-148.78397116699853
 20
389.4684231232095
 42
0.0205831786994064
 10
-148.4204196826222
 20
389.13068033402806
 10
-148.41004092605544
 20
389.1218053647226
 42
0.0182013359579476
 10
-147.99996621125138
 20
388.79621783295988
 10
-147.98849401641019
 20
388.78777120804125
 42
0.0161851299773126
 10
-147.53349015351432
 20
388.47495564140172
 10
-147.52124557108618
 20
388.46710862200052
 42
0.0144968547606885
 10
-147.02294355920276
 20
388.1677821298731
 10
-147.01020509446244
 20
388.16062432601302
 42
0.0130916360439063
 10
-146.47028086912997
 20
387.87557229315235
 10
-146.45728199244149
 20
387.86913891728045
 42
0.0119258005974076
 10
-145.87745554050434
 20
387.59919129545733
 10
-145.8643880231175
 20
387.59348262698086
 42
0.0109604247804158
 10
-145.24641869805782
 20
387.33949746485723
 10
-145.23343808127993
 20
387.33449211743755
 42
0.0101623622696742
 10
-144.57911882606368
 20
387.09734453280862
 10
-144.56635018077304
 20
387.09300823294825
 42
0.0095040847181015
 10
-143.87750193301235
 20
386.87358320783778
 10
-143.86504510563009
 20
386.86987448327363
 42
0.0089630434644339
 10
-143.14351189138051
 20
386.66906224237528
 10
-143.13144596498751
 20
386.66593604568425
 42
0.0085209049363349
 10
-142.37909080889494
 20
386.48462914220136
 10
-142.3674777587039
 20
386.4820391214198
 42
0.0081628055447487
 10
-141.58617937548479
 20
386.32113062437929
 10
-141.57506699383612
 20
386.31903051811423
 42
0.0079496962506264
 10
-140.76669864828636
 20
386.17953120995753
 10
-140.54067107170158
 20
386.14421668792102
 42
0.0151334226002096
 10
-139.27321884173944
 20
385.98531228169304
 10
-139.03273656459623
 20
385.96252905613028
 42
0.0146055411127286
 10
-137.27615564700136
 20
385.84775134471101
 10
-137.02364314707665
 20
385.83864690633936
 42
0.0144300196146306
 10
-135.64042347797567
 20
385.82871279950996
 10
-135.62247308211226
 20
385.82910195840668
 42
0.0072005572498343
 10
-134.27556757276307
 20
385.87771556794678
 10
-134.26221973458451
 20
385.87838991322269
 42
0.0147591862303153
 10
-132.94582575519962
 20
385.98391905258359
 10
-132.71267267745952
 20
386.00955431686862
 42
0.0075902582978246
 10
-131.86730918087051
 20
386.11551299579696
 10
-131.85701214993242
 20
386.11696271747996
 42
0.0077574104190133
 10
-131.03584716933528
 20
386.2455967412825
 10
-131.02499947605611
 20
386.24746887340189
 42
0.0080112324199882
 10
-130.22993519603097
 20
386.3978393343441
 10
-130.21856755028239
 20
386.40017853491645
 42
0.0083319331222212
 10
-129.45150132281469
 20
386.5713934782566
 10
-129.43965534297968
 20
386.57424561270909
 42
0.0087303375067706
 10
-128.70247252746049
 20
386.76541215429188
 10
-128.69020278932658
 20
386.76882365003667
 42
0.0092198153867265
 10
-127.98477440570969
 20
386.9790488355934
 10
-127.97215104997031
 20
386.9830655949072
 42
0.0098168778954589
 10
-127.30033081178954
 20
387.21145783237353
 10
-127.28744282361549
 20
387.2161234457958
 42
0.0105418756644732
 10
-126.6510634416054
 20
387.46179483808874
 10
-126.63802270349515
 20
387.46714770788731
 42
0.0114197662902997
 10
-126.03889138658178
 20
387.72921778046111
 10
-126.02583754528587
 20
387.73528656929602
 42
0.0124808517224482
 10
-125.4657307369398
 20
388.01288812645635
 10
-125.4528367617495
 20
388.0196846740273
 42
0.0137612492420278
 10
-124.9334944154125
 20
388.31197284057089
 10
-124.86249601278905
 20
388.35454503775009
 42
0.0154134384883391
 10
-124.50036871601787
 20
388.58715102255519
 10
-124.49142478661088
 20
388.59329342966157
 42
0.0082270225113867
 10
-124.15825693787065
 20
388.83026283646541
 10
-124.15391453429675
 20
388.8334602979694
 42
0.0183117597660031
 10
-123.8423971062748
 20
389.08092980313086
 10
-123.83452978438254
 20
389.08766381405076
 42
0.0098665314945788
 10
-123.55276622769634
 20
389.33863858821496
 10
-123.54907785321848
 20
389.34205680491186
 42
0.0220447546014982
 10
-123.29116033470382
 20
389.60313273070688
 10
-123.28493249969233
 20
389.61001902710177
 42
0.0119538568667359
 10
-123.05730244177903
 20
389.87414223783435
 42
0.0263895126477506
 10
-122.85080125655622
 20
390.15461486725781
 10
-122.81821846486582
 20
390.20414304010001
 42
0.0297659472222594
 10
-122.60399501333268
 20
390.57624480699087
 10
-122.60098519872099
 20
390.58227638502149
 42
0.033004543124476
 10
-122.44028987697584
 20
390.96569835173295
 10
-122.43914027599931
 20
390.96904494732416
 42
0.0358103460262926
 10
-122.33439748221917
 20
391.36390402522602
 10
-122.33420178778761
 20
391.36493431917779
 42
0.0374471893282084
 10
-122.28844720251436
 20
391.76867576631321
 10
-122.28844440519788
 20
391.76874937236971
 42
0.0094966877221649
 10
-122.2865102315227
 20
391.87057430825143
 42
0.0094966877221649
  0
LWPOLYLINE
  5
C7
100
AcDbEntity
  8
TFM73-7001
370
              18
390
0
  6
Continuous
 62
             250
100
AcDbPolyline
 90
      107
 70
             128
 10
-111.7904058897002
 20
385.82627030760023
 42
-0.0030958579212224
 10
-111.8672158237132
 20
385.82674589744374
 10
-111.96235903749675
 20
385.82792415339645
 42
-0.0186941131584401
 10
-112.22895581160537
 20
385.84120291010004
 10
-112.32436787123879
 20
385.84953929600897
 42
-0.012433184128754
 10
-112.62221563111598
 20
385.88304332654752
 10
-112.62341798476336
 20
385.88320894193475
 42
-0.0123806931868164
 10
-112.91684284386247
 20
385.93105599902628
 10
-112.91788693082526
 20
385.93125290428407
 42
-0.0123257460552704
 10
-113.20651409020502
 20
385.9930890422811
 10
-113.2074126363932
 20
385.993304842626
 42
-0.0122633771952368
 10
-113.49086670894849
 20
386.06877880532193
 10
-113.4916324944088
 20
386.06900295648393
 42
-0.0121962686364761
 10
-113.76953821311781
 20
386.15776170508343
 42
-0.0121381410278511
 10
-114.04279780564593
 20
386.25993499225387
 10
-114.11004658709317
 20
386.28695780121097
 42
-0.0240414797857368
 10
-114.50346588991852
 20
386.46746417843588
 10
-114.50448938718728
 20
386.46799472605062
 42
-0.0119417348632465
 10
-114.88222335568935
 20
386.67539059706087
 10
-114.88263983476008
 20
386.67563238551338
 42
-0.023693437364499
 10
-115.24353725329911
 20
386.90867897086537
 10
-115.24394358161862
 20
386.9089695150883
 42
-0.0117969846330046
 10
-115.58689849405619
 20
387.16663921265535
 42
-0.0235086983444424
 10
-115.91042792389544
 20
387.44749494243752
 10
-115.96217588050877
 20
387.49686803161921
 42
-0.011739778323515
 10
-116.1641219778312
 20
387.69881307972128
 42
-0.0117415886193937
 10
-116.35640224510007
 20
387.91005994086026
 42
-0.011756012075109
 10
-116.53865516199403
 20
388.13024586332313
 42
-0.0117889497293629
 10
-116.71041329779473
 20
388.35886155140815
 10
-116.71051921838989
 20
388.35900968234364
 42
-0.0118271532834169
 10
-116.87149674163993
 20
388.59578023566019
 10
-116.87163176132344
 20
388.59598929540152
 42
-0.0118745780033684
 10
-117.02146907881252
 20
388.84054532430719
 10
-117.02163010862023
 20
388.84082272716569
 42
-0.0119299514580124
 10
-117.1599678070379
 20
389.09279376735003
 10
-117.16015142738888
 20
389.09314799545882
 42
-0.0119917349065575
 10
-117.28663054546905
 20
389.35216253013095
 10
-117.28683274261311
 20
389.35260309824343
 42
-0.0120581279496804
 10
-117.40109502314681
 20
389.61828859262505
 10
-117.40131093642594
 20
389.61882598645207
 42
-0.0121289715313478
 10
-117.50299804515544
 20
389.89080933060495
 10
-117.51525777933693
 20
389.92619419287939
 42
-0.0183180562520358
 10
-117.62207039890018
 20
390.27532885726987
 10
-117.63147684075466
 20
390.31065143516253
 42
-0.0122960309552605
 10
-117.70063877612938
 20
390.59866716464376
 42
-0.0123545805403117
 10
-117.75552346769291
 20
390.88974034761168
 10
-117.75570638880617
 20
390.89086196526114
 42
-0.0124036746101169
 10
-117.79642740747659
 20
391.18654508120289
 10
-117.79657213498467
 20
391.18783128735959
 42
-0.0124470858649862
 10
-117.82277898950542
 20
391.48774965062603
 10
-117.82287017321323
 20
391.48921218683336
 42
-0.0124526349711883
 10
-117.83422515315669
 20
391.79299096427985
 10
-117.8342437091851
 20
391.79448040620082
 42
-0.012453901374745
 10
-117.83044233836517
 20
392.09982546471429
 10
-117.83038840705194
 20
392.10126853243673
 42
-0.0124572814717413
 10
-117.81156549053594
 20
392.40316371944482
 10
-117.8114454884153
 20
392.4045366879991
 42
-0.0124255049777533
 10
-117.77793687140274
 20
392.70238404876818
 10
-117.77777125590728
 20
392.70358640320683
 42
-0.0123806933751643
 10
-117.72992419892489
 20
392.9970112623887
 10
-117.72972729366302
 20
392.99805534937514
 42
-0.0123257460643497
 10
-117.66789115566917
 20
393.28668250875671
 10
-117.66767535533472
 20
393.2875810549026
 42
-0.0122633771964603
 10
-117.59220139262834
 20
393.57103512750018
 10
-117.5919772414727
 20
393.57180091293822
 42
-0.0121962686354872
 10
-117.50321849286775
 20
393.84970663166951
 42
-0.0121381410272053
 10
-117.40104520570003
 20
394.12296622419262
 10
-117.37402239673702
 20
394.19021500565304
 42
-0.0240414797859567
 10
-117.19351601951439
 20
394.58363430847112
 10
-117.19298547189555
 20
394.58465780574761
 42
-0.0119417348603651
 10
-116.9855896008894
 20
394.96239177424195
 10
-116.98534781242415
 20
394.96280825333497
 42
-0.0236934373629381
 10
-116.75230122708581
 20
395.32370567185126
 10
-116.75201068285241
 20
395.32411200018487
 42
-0.0117969846308471
 10
-116.49434098529673
 20
395.66706691260788
 42
-0.02350869834509
 10
-116.21348525551366
 20
395.99059634244759
 10
-116.16411216629876
 20
396.04234429909457
 42
-0.0117397783201559
 10
-115.96216711822944
 20
396.24429039638289
 42
-0.0117415886201505
 10
-115.75092025709091
 20
396.43657066365176
 42
-0.0117560120733349
 10
-115.5307343346276
 20
396.61882358054618
 42
-0.0117889497269731
 10
-115.30211864653211
 20
396.79058171635552
 10
-115.30197051560754
 20
396.79068763694249
 42
-0.0118271532828252
 10
-115.06519996230509
 20
396.95166516018389
 10
-115.06499090254965
 20
396.95180017987605
 42
-0.0118745780036899
 10
-114.82043487365172
 20
397.10163749735966
 10
-114.82015747078549
 20
397.10179852717238
 42
-0.0119299514584448
 10
-114.56818643058614
 20
397.24013622559823
 10
-114.56783220249235
 20
397.24031984594149
 42
-0.0119917349063004
 10
-114.3088176678375
 20
397.36679896401301
 10
-114.3083770997082
 20
397.36700116116526
 42
-0.0120581279503345
 10
-114.04269160530112
 20
397.4812634417076
 10
-114.04215421149911
 20
397.48147935497718
 42
-0.0121270862089447
 10
-113.77017122583948
 20
397.58316749840697
 10
-113.76952566092405
 20
397.58339117165815
 42
-0.0121963457459004
 10
-113.4916194545176
 20
397.67214908019241
 10
-113.49085367250427
 20
397.67237322751407
 42
-0.012263456480026
 10
-113.2073991374491
 20
397.74784623138885
 10
-113.20650059907894
 20
397.74806202631817
 42
-0.0123258255544567
 10
-112.91787302120883
 20
397.80989708212792
 10
-112.91682894686346
 20
397.81009398063679
 42
-0.0123807700099199
 10
-112.62340373387087
 20
397.85793983194299
 10
-112.62220139937199
 20
397.85810543936532
 42
-0.0124382614786225
 10
-112.32435311339668
 20
397.89160515527101
 10
-112.28477547259354
 20
397.89506216771179
 42
-0.0186809512870508
 10
-111.90623370804497
 20
397.91391735442267
 10
-111.86722558244401
 20
397.91440152344103
 42
-0.0031032464012799
 10
-111.7904058897002
 20
397.91487830890264
 42
-0.0031032464012799
  0
LWPOLYLINE
  5
C8
100
AcDbEntity
  8
TFM73-7001
370
              18
390
0
  6
Continuous
 62
             250
100
AcDbPolyline
 90
      107
 70
             128
 10
-159.31253653832937
 20
397.91487830890264
 42
-0.0030958579184408
 10
-159.2357266042909
 20
397.91440271905913
 10
-159.14058339053099
 20
397.91322446310733
 42
-0.018694113160512
 10
-158.87398661641691
 20
397.89994570640238
 10
-158.7785745567935
 20
397.8916093204939
 42
-0.0124331841244517
 10
-158.48072679691268
 20
397.85810528995535
 10
-158.47952444326347
 20
397.85793967456812
 42
-0.0123806931880148
 10
-158.18609958416528
 20
397.81009261747749
 10
-158.18505549720885
 20
397.80989571222108
 42
-0.0123257460561965
 10
-157.89642833782273
 20
397.74805957422132
 10
-157.89552979165819
 20
397.74784377388187
 42
-0.0122633771956224
 10
-157.61207571908017
 20
397.67236981118003
 10
-157.61130993363076
 20
397.67214566002122
 42
-0.0121962686338642
 10
-157.33340421491084
 20
397.58338691141944
 42
-0.0121381410326376
 10
-157.06014462242183
 20
397.48121362426491
 10
-156.99289584092548
 20
397.45419081528826
 42
-0.0240414797842609
 10
-156.59947653810923
 20
397.27368443806654
 10
-156.59845304083137
 20
397.27315389044679
 42
-0.0119417348628069
 10
-156.2207190723384
 20
397.065758019442
 10
-156.22030259326402
 20
397.06551623098721
 42
-0.023693437365578
 10
-155.85940517472955
 20
396.83246964563796
 10
-155.85899884639002
 20
396.83217910140047
 42
-0.0117969846295535
 10
-155.51604393397247
 20
396.57450940384797
 42
-0.0235086983443217
 10
-155.1925145041323
 20
396.29365367406535
 10
-155.14076654747532
 20
396.24428058484182
 42
-0.0117397783190341
 10
-154.93882045019654
 20
396.04233553678159
 42
-0.0117415886214691
 10
-154.74654018292767
 20
395.8310886756426
 42
-0.011756012074092
 10
-154.56428726603372
 20
395.61090275317929
 42
-0.0117889497277422
 10
-154.39252913021392
 20
395.38228706506879
 10
-154.39242320963785
 20
395.38213893415923
 42
-0.0118271532839851
 10
-154.23144568642056
 20
395.14536838089407
 10
-154.2313106667043
 20
395.14515932110135
 42
-0.0118745780066075
 10
-154.08147334922978
 20
394.90060329221978
 10
-154.08131231940752
 20
394.90032588933718
 42
-0.0119299514575369
 10
-153.94297462099621
 20
394.64835484916557
 10
-153.94279100063886
 20
394.64800062104405
 42
-0.0119917349075435
 10
-153.81631188256051
 20
394.38898608637328
 10
-153.81610968541554
 20
394.38854551825989
 42
-0.0120581279479363
 10
-153.70184740488094
 20
394.12286002387191
 10
-153.70163149160362
 20
394.1223226300508
 42
-0.0121289715273545
 10
-153.59994438286594
 20
393.85033928587791
 10
-153.58768464869172
 20
393.81495442362393
 42
-0.0183180562559093
 10
-153.48087202913212
 20
393.46581975924846
 10
-153.47146558727218
 20
393.4304971813317
 42
-0.0122960309529053
 10
-153.40230365189927
 20
393.14248145185911
 42
-0.0123545805419347
 10
-153.34741896033665
 20
392.85140826890392
 10
-153.34723603922157
 20
392.85028665124173
 42
-0.0124036746091736
 10
-153.30651502054843
 20
392.55460353527587
 10
-153.30637029304307
 20
392.55331732914328
 42
-0.0124470858670568
 10
-153.28016343852596
 20
392.25339896594051
 10
-153.28007225481451
 20
392.25193642966951
 42
-0.0124526349715652
 10
-153.26871727487105
 20
391.94815765224303
 10
-153.26869871884264
 20
391.94666821029296
 42
-0.0124539013744579
 10
-153.27250008966257
 20
391.64132315178858
 10
-153.27255402097671
 20
391.63988008404249
 42
-0.0124572814707837
 10
-153.2913769374918
 20
391.33798489705805
 10
-153.29149693961517
 20
391.33661192848012
 42
-0.0124255049778293
 10
-153.325005556625
 20
391.03876456773469
 10
-153.32517117212228
 20
391.03756221327967
 42
-0.0123806933737062
 10
-153.37301822910285
 20
390.74413735411417
 10
-153.37321513436473
 20
390.74309326712637
 42
-0.0123257460637177
 10
-153.43505127235858
 20
390.45446610774616
 10
-153.43526707269484
 20
390.45356756159481
 42
-0.0122633771974143
 10
-153.51074103539941
 20
390.17011348900269
 10
-153.51096518655322
 20
390.16934770357011
 42
-0.0121962686348855
 10
-153.59972393516
 20
389.89144198483336
 42
-0.0121381410272516
 10
-153.70189722233317
 20
389.61818239229751
 10
-153.72892003128709
 20
389.55093361085846
 42
-0.0240414797860811
 10
-153.90942640851335
 20
389.15751430803221
 10
-153.90995695612219
 20
389.15649081077481
 42
-0.0119417348614221
 10
-154.11735282713835
 20
388.77875684226092
 10
-154.11759461560541
 20
388.77834036316426
 42
-0.0236934373625307
 10
-154.35064120094194
 20
388.41744294465161
 10
-154.35093174515805
 20
388.41703661634256
 42
-0.0117969846341063
 10
-154.60860144273192
 20
388.07408170389499
 42
-0.0235086983436014
 10
-154.88945717251499
 20
387.75055227405574
 10
-154.93883026172716
 20
387.69880431741058
 42
-0.0117397783201891
 10
-155.1407753097983
 20
387.49685822011998
 42
-0.0117415886226103
 10
-155.35202217093683
 20
387.3045779528511
 42
-0.0117560120733532
 10
-155.57220809340015
 20
387.12232503595669
 42
-0.0117889497277063
 10
-155.80082378149382
 20
386.95056690014871
 10
-155.80097191242021
 20
386.95046097956038
 42
-0.0118271532823884
 10
-156.03774246572812
 20
386.78948345631534
 10
-156.03795152547809
 20
386.78934843662682
 42
-0.0118745780059433
 10
-156.28250755435874
 20
386.63951111915276
 10
-156.28278495724226
 20
386.63935008933049
 42
-0.011929951455429
 10
-156.5347559974507
 20
386.50101239089963
 10
-156.53511022553539
 20
386.50082877056138
 42
-0.0119917349087761
 10
-156.79412476019388
 20
386.37434965248895
 10
-156.79456532832046
 20
386.37414745533806
 42
-0.0120581279484505
 10
-157.06025082273845
 20
386.25988517479118
 10
-157.06078821652955
 20
386.25966926152614
 42
-0.0121270862102043
 10
-157.33277120218372
 20
386.15798111809772
 10
-157.33341676710461
 20
386.15775744484472
 42
-0.0121963457436517
 10
-157.61132297351833
 20
386.06899953630818
 10
-157.61208875552438
 20
386.0687753889888
 42
-0.0122634564799247
 10
-157.89554329056864
 20
385.99330238511675
 10
-157.89644182894972
 20
385.9930865901847
 42
-0.0123258255533228
 10
-158.18506940683437
 20
385.93125153437222
 10
-158.18611348116519
 20
385.93105463586608
 42
-0.012380770012706
 10
-158.47953869414687
 20
385.88320878456125
 10
-158.48074102865576
 20
385.88304317713755
 42
-0.0124382614738168
 10
-158.7785893146438
 20
385.84954346123095
 10
-158.81816695543421
 20
385.84608644879108
 42
-0.0186809512882277
 10
-159.1967087199846
 20
385.8272312620802
 10
-159.23571684558556
 20
385.82674709306184
 42
-0.0031032464012553
 10
-159.31253653832937
 20
385.82627030760023
 42
-0.0031032464012553
  0
LWPOLYLINE
  5
C9
100
AcDbEntity
  8
TFM73-7001
370
              18
390
0
  6
Continuous
 62
             250
100
AcDbPolyline
 90
      101
 70
             128
 10
-109.54648095569246
 20
286.52118241482503
 42
-0.0048982114551388
 10
-109.54720436615207
 20
286.44733983874676
 10
-109.54898947130732
 20
286.35624071903749
 42
-0.029600940914383
 10
-109.56910684177274
 20
286.10139902123228
 10
-109.58621690938799
 20
285.97816661933757
 42
-0.0391061090586766
 10
-109.6941673526735
 20
285.48650812361802
 10
-109.70425788403736
 20
285.45321801757154
 42
-0.0384194938773595
 10
-109.90599679518618
 20
284.93479323838892
 10
-109.90698157693078
 20
284.93274365444586
 42
-0.0377802110875695
 10
-110.18280924488045
 20
284.45481381745958
 10
-110.22228541634286
 20
284.39698245283171
 42
-0.0373165297232302
 10
-110.47940370333345
 20
284.07480307439437
 42
-0.0186275120218329
 10
-110.77158077720833
 20
283.78264358877459
 42
-0.0373007372771485
 10
-111.09413332877739
 20
283.52526932999172
 10
-111.15069717684491
 20
283.48666233216227
 42
-0.0188244662783592
 10
-111.38506708834211
 20
283.3393105914738
 42
-0.0189478185097529
 10
-111.62988614222377
 20
283.21006666171479
 10
-111.69403959058036
 20
283.17924780467501
 42
-0.0384339375521894
 10
-112.08373559189204
 20
283.02764648459106
 10
-112.18347758298842
 20
282.99742768082569
 42
-0.0390850593525258
 10
-112.67501001978326
 20
282.88954898782868
 10
-112.79823137807489
 20
282.87244591770468
 42
-0.0295771892622802
 10
-113.05295748295885
 20
282.85233665825581
 10
-113.14399812421925
 20
282.85054801609385
 42
-0.0049110661927038
 10
-113.21784066310829
 20
282.84982270740829
 10
-158.5491719962356
 20
282.84982270740829
 42
-0.0048982114545664
 10
-158.62301457237663
 20
282.85054611786927
 10
-158.71411369202269
 20
282.85233122302361
 42
-0.0296009409149904
 10
-158.96895538980425
 20
282.87244859348584
 10
-159.09218779172261
 20
282.88955866110427
 42
-0.0391061090606652
 10
-159.58384628743261
 20
282.99750910438615
 10
-159.61713639350182
 20
283.00759963575683
 42
-0.0384194938761407
 10
-160.13556117267126
 20
283.20933854690202
 10
-160.1376107566166
 20
283.21032332864797
 42
-0.0377802110874618
 10
-160.6155405936006
 20
283.48615099659673
 10
-160.6733719582262
 20
283.52562716805733
 42
-0.0373165297235514
 10
-160.99555133666581
 20
283.78274545505064
 42
-0.0186275120208981
 10
-161.2877108222865
 20
284.07492252892553
 42
-0.0373007372805024
 10
-161.54508508106937
 20
284.39747508049459
 10
-161.58369207889882
 20
284.45403892856257
 42
-0.0188244662769484
 10
-161.73104381958638
 20
284.68840884005931
 42
-0.0189478185085761
 10
-161.86028774934766
 20
284.93322789394597
 10
-161.89110660638471
 20
284.9973813422971
 42
-0.0384339375516645
 10
-162.04270792646912
 20
285.38707734360923
 10
-162.07292673023403
 20
285.48681933470425
 42
-0.0390850593532455
 10
-162.18080542323241
 20
285.97835177150046
 10
-162.19790849335459
 20
286.10157312978208
 42
-0.0295771892664484
 10
-162.21801775280437
 20
286.35629923467513
 10
-162.21980639496542
 20
286.44733987587551
 42
-0.0049110661885155
 10
-162.22053170365143
 20
286.52118241482503
 10
-162.22053170365143
 20
291.26707100129443
 42
-0.0048982114480451
 10
-162.21980829319091
 20
291.3409135774391
 10
-162.21802318803657
 20
291.43201269708197
 42
-0.0296009409189901
 10
-162.1979058175757
 20
291.68685439485216
 10
-162.18079574995591
 20
291.81008679678143
 42
-0.0391061090588295
 10
-162.07284530667221
 20
292.30174529249553
 10
-162.06275477530562
 20
292.33503539855246
 42
-0.038419493876742
 10
-161.86101586415771
 20
292.85346017773054
 10
-161.86003108241493
 20
292.85550976166905
 42
-0.0377802110878366
 10
-161.58420341446345
 20
293.33343959865988
 10
-161.54472724300831
 20
293.3912709632782
 42
-0.037316529723295
 10
-161.28760895601044
 20
293.71345034172464
 42
-0.01862751202091
 10
-160.99543188213556
 20
294.00560982734532
 42
-0.0373007372773973
 10
-160.6728793305665
 20
294.26298408612774
 10
-160.61631548249625
 20
294.30159108395947
 42
-0.0188244662753519
 10
-160.38194557100178
 20
294.44894282464611
 42
-0.0189478185111524
 10
-160.1371265171183
 20
294.57818675440558
 10
-160.07297306876353
 20
294.60900561144445
 42
-0.0384339375519398
 10
-159.68327706745185
 20
294.76060693152795
 10
-159.58353507635184
 20
294.79082573529422
 42
-0.0390850593513799
 10
-159.09200263956063
 20
294.89870442829124
 10
-158.96878128127628
 20
294.91580749841432
 42
-0.029577189263179
 10
-158.71405517638505
 20
294.93591675786411
 10
-158.62301453512646
 20
294.93770540002561
 42
-0.0049110661923364
 10
-158.5491719962356
 20
294.93843070871117
 10
-113.21784066310829
 20
294.93843070871117
 42
-0.0048982114561603
 10
-113.14399808700546
 20
294.93770729825064
 10
-113.0528989673212
 20
294.93592219309539
 42
-0.0296009409156107
 10
-112.79805726953236
 20
294.91580482263225
 10
-112.67482486762128
 20
294.89869475501473
 42
-0.0391061090599853
 10
-112.18316637190946
 20
294.79074431173285
 10
-112.1498762658548
 20
294.78065378036672
 42
-0.0384194938765355
 10
-111.63145148667263
 20
294.57891486921744
 10
-111.62940190273093
 20
294.57793008747285
 42
-0.037780211087689
 10
-111.15147206574329
 20
294.30210241952273
 10
-111.0936407011086
 20
294.26262624805622
 42
-0.0373165297210953
 10
-110.77146132267808
 20
294.00550796106927
 42
-0.0186275120202475
 10
-110.4793018370583
 20
293.71333088719439
 42
-0.0373007372774166
 10
-110.22192757827543
 20
293.39077833562533
 10
-110.1833205804387
 20
293.33421448754689
 42
-0.0188244662760566
 10
-110.03596883975752
 20
293.0998445760606
 42
-0.0189478185079552
 10
-109.90672490999987
 20
292.85502552218122
 10
-109.87590605295918
 20
292.79087207382236
 42
-0.0384339375520878
 10
-109.72430473287568
 20
292.40117607251068
 10
-109.69408592910895
 20
292.3014340814093
 42
-0.0390850593510295
 10
-109.58620723611239
 20
291.809901644619
 10
-109.56910416598748
 20
291.68668028631691
 42
-0.0295771892659766
 10
-109.54899490653952
 20
291.43195418144387
 10
-109.54720626437938
 20
291.34091354031034
 42
-0.0049110661902253
 10
-109.54648095569246
 20
291.26707100129443
 10
-109.54648095569246
 20
286.52118241482503
  0
LWPOLYLINE
  5
CA
100
AcDbEntity
  8
TFM73-7001
370
              18
390
0
  6
Continuous
 62
             250
100
AcDbPolyline
 90
      187
 70
             128
 10
-122.2865102315227
 20
288.8941267080595
 42
0.0094404199193273
 10
-122.28843295137813
 20
288.99595207791117
 10
-122.28939355794773
 20
289.02137940248895
 42
0.0189378563486944
 10
-122.30092721674464
 20
289.17358611341888
 10
-122.30961360382662
 20
289.24978725691562
 42
0.0367954692501262
 10
-122.36639336042208
 20
289.54977511206107
 10
-122.38005793866978
 20
289.60101397825474
 42
0.0344765464747132
 10
-122.51313436646797
 20
289.99010847407089
 10
-122.51515938913599
 20
289.99491860796115
 42
0.0314112032152142
 10
-122.70289989116009
 20
290.3726404617164
 10
-122.7069533140002
 20
290.37965350472632
 42
0.0280890616636147
 10
-122.94715550366891
 20
290.74609072242856
 10
-122.95331437548248
 20
290.75442519613171
 42
0.0248585907212129
 10
-123.24410355968303
 20
291.10956043981423
 10
-123.25218899818537
 20
291.11849025523907
 42
0.0219171763688017
 10
-123.59188638812611
 20
291.46212140032412
 10
-123.60158827382656
 20
291.47111133248063
 42
0.019344856601134
 10
-123.98859904049459
 20
291.80284582938748
 10
-123.99956693095191
 20
291.81153443203948
 42
0.017149572242522
 10
-124.43230744632729
 20
292.1308201971483
 10
-124.44420347028336
 20
292.13898258610743
 42
0.0153027665010908
 10
-124.92106303976379
 20
292.44514817330401
 10
-124.93358652800725
 20
292.45265784525782
 42
0.0137616793542253
 10
-125.45291197493771
 20
292.74494852854832
 10
-125.46580710759372
 20
292.75174596189208
 42
0.012481359713154
 10
-126.0259000364631
 20
293.02935160276093
 10
-126.03895480315168
 20
293.03542105515544
 42
0.01142026398328
 10
-126.63807484722838
 20
293.29749597666842
 10
-126.65111632139906
 20
293.30284934223573
 42
0.0105423252929855
 10
-127.28748660338533
 20
293.54852585534172
 10
-127.30037517749042
 20
293.55319183989832
 42
0.0098172674788182
 10
-127.9721880947136
 20
293.78158918003192
 10
-127.98481191925839
 20
293.78560621850693
 42
0.0092201452637061
 10
-128.69023442727121
 20
293.99583632802751
 10
-128.70250454364577
 20
293.99924803509566
 42
0.0087306132788421
 10
-129.43968265651074
 20
294.19041924155636
 10
-129.45152894451621
 20
294.19327153703307
 42
0.0083321621249605
 10
-130.21859142390076
 20
294.36449085380536
 10
-130.22995932472531
 20
294.36683017810265
 42
0.0080114221314681
 10
-131.02502064047349
 20
294.51720471675617
 10
-131.03586854472815
 20
294.51907694396868
 42
0.0078219798384883
 10
-131.85704612038899
 20
294.6476087207916
 10
-132.0855943049919
 20
294.67972711074253
 42
0.014983027107805
 10
-133.37011788642758
 20
294.82114766619043
 10
-133.61246747046971
 20
294.84050156254034
 42
0.0145085090788061
 10
-135.38854340029866
 20
294.93058188628584
 10
-135.64259676400525
 20
294.93608562667259
 42
0.0144453538488137
 10
-137.02175637045366
 20
294.92611637893788
 10
-137.04419933942245
 20
294.9253054520882
 42
0.0072327678214174
 10
-138.37720868143606
 20
294.85782114195581
 10
-138.39100324603714
 20
294.85692257046639
 42
0.0148730505221582
 10
-139.6917676343428
 20
294.73325047043818
 10
-139.92265432530894
 20
294.70434731736577
 42
0.0076847381468281
 10
-140.75616160461504
 20
294.58696896660058
 10
-140.76673719059636
 20
294.58531352960335
 42
0.0078765529477591
 10
-141.57508966244859
 20
294.44569987372688
 10
-141.58620181025526
 20
294.44359987637245
 42
0.0081625997471341
 10
-142.36750353198022
 20
294.28269560668286
 10
-142.37911630286453
 20
294.28010572677704
 42
0.0085206528561801
 10
-143.13147565979853
 20
294.09880334383161
 10
-143.14354124514284
 20
294.09567733148515
 42
0.0089627416565848
 10
-143.8650797181308
 20
293.89486989158877
 10
-143.87753612493998
 20
293.89116140969736
 42
0.0095037254354763
 10
-144.56639093318427
 20
293.6717414120094
 10
-144.57915905477876
 20
293.66740543381093
 42
0.0101619421663162
 10
-145.23348647488547
 20
293.43026298767199
 10
-145.24646643521737
 20
293.42525806900085
 42
0.010959948425897
 10
-145.8644458941726
 20
293.17127793864529
 10
-145.87751258608023
 20
293.16556984371618
 42
0.011925290635675
 10
-146.45735155909369
 20
292.89562676631294
 10
-146.47034939964033
 20
292.88919415767759
 42
0.0130911514166317
 10
-147.01028896828666
 20
292.60414554952058
 10
-147.02302614459586
 20
292.59698876562379
 42
0.0144965234271554
 10
-147.52134667894006
 20
292.29766357335393
 10
-147.58949505235069
 20
292.25399207526607
 42
0.0163051503691944
 10
-147.93508494575417
 20
292.01628622441422
 10
-147.94372911388564
 20
292.00991564191509
 42
0.0087231766576879
 10
-148.26005885668565
 20
291.76815894831543
 10
-148.2642154016321
 20
291.76486585286784
 42
0.0194620602530222
 10
-148.55819603126838
 20
291.51272885638173
 10
-148.60933295985888
 20
291.4652951503308
 42
0.0107270127344509
 10
-148.78751969657787
 20
291.29275502986911
 42
0.0111135696074282
 10
-148.95799954380254
 20
291.11260189931454
 10
-148.99482718932177
 20
291.07191002062427
 42
0.0248046921036123
 10
-149.22122886818397
 20
290.79534482266945
 10
-149.25761595650874
 20
290.74610330767291
 42
0.0280944254001576
 10
-149.49782467754721
 20
290.3796413260925
 10
-149.50187785363414
 20
290.37262823676065
 42
0.031420150241009
 10
-149.68961134703659
 20
289.99487583307427
 10
-149.69163632485652
 20
289.99006493144589
 42
0.0344845492267951
 10
-149.82468864478415
 20
289.60093801973744
 10
-149.82519282392423
 20
289.59904673327628
 42
0.0368285121168456
 10
-149.90085598038513
 20
289.19893427814804
 10
-149.90088074428058
 20
289.19871659452565
 42
0.0378117788990648
 10
-149.91620445192802
 20
288.79229832191277
 42
0.0375258706909534
 10
-149.87037559746841
 20
288.38816394250489
 10
-149.87022184110083
 20
288.38735545794407
 42
0.0357667433685022
 10
-149.76543400892206
 20
287.99255393551675
 10
-149.76427961992067
 20
287.98919400964769
 42
0.0330036755795978
 10
-149.60357072954139
 20
287.60579761131476
 10
-149.60056236810487
 20
287.59976973213361
 42
0.0297567672394786
 10
-149.38633922565259
 20
287.22769758619779
 10
-149.38122354336519
 20
287.21992164512449
 42
0.0264467426113247
 10
-149.11550880230516
 20
286.8591225081982
 10
-149.10835347792363
 20
286.85041150159941
 42
0.023344550040803
 10
-148.79290776755988
 20
286.50099067423025
 10
-148.78397116699853
 20
286.49197552301757
 42
0.0205831786994496
 10
-148.42041968262311
 20
286.15423273383703
 10
-148.41004092605544
 20
286.14535776453067
 42
0.0182013359565142
 10
-147.99996621124592
 20
285.81977023276386
 10
-147.98849401641019
 20
285.81132360784977
 42
0.0161851299767573
 10
-147.53349015353524
 20
285.49850804122343
 10
-147.52124557108618
 20
285.49066102180905
 42
0.0144968547601725
 10
-147.02294355920549
 20
285.19133452968299
 10
-147.01020509446244
 20
285.18417672582109
 42
0.0130916360447841
 10
-146.47028086912087
 20
284.89912469295632
 10
-146.45728199244149
 20
284.89269131708897
 42
0.0119258005967445
 10
-145.87745554050434
 20
284.6227436952654
 10
-145.8643880231175
 20
284.61703502678938
 42
0.0109604247812892
 10
-145.24641869808784
 20
284.36304986467712
 10
-145.23343808127993
 20
284.35804451724562
 42
0.0101623622708805
 10
-144.57911882602366
 20
284.12089693260305
 10
-144.56635018077304
 20
284.11656063275632
 42
0.0095040847180869
 10
-143.87750193301235
 20
283.89713560764585
 10
-143.86504510563009
 20
283.8934268830817
 42
0.0089630434652315
 10
-143.14351189138597
 20
283.69261464218425
 10
-143.13144596498751
 20
283.68948844549232
 42
0.008520904935851
 10
-142.37909080890222
 20
283.5081815420117
 10
-142.3674777587039
 20
283.50559152122878
 42
0.0081628055454638
 10
-141.58617937549661
 20
283.34468302418964
 10
-141.57506699383612
 20
283.34258291792275
 42
0.007949696250237
 10
-140.76669864829
 20
283.20308360976605
 10
-140.54067107170158
 20
283.16776908772908
 42
0.0151334226001926
 10
-139.27321884173944
 20
283.00886468150111
 10
-139.03273656459623
 20
282.98608145593835
 42
0.0146055411131295
 10
-137.27615564699408
 20
282.87130374451954
 10
-137.02364314708211
 20
282.86219930614834
 42
0.0144300196144843
 10
-135.64042347797567
 20
282.85226519931803
 10
-135.6224730821159
 20
282.85265435821475
 42
0.00720055725051
 10
-134.27556757276307
 20
282.90126796775485
 10
-134.26221973459178
 20
282.9019423130303
 42
0.01475918622968
 10
-132.94582575519962
 20
283.00747145239211
 10
-132.71267267745225
 20
283.03310671667805
 42
0.0075902582974396
 10
-131.86730918087051
 20
283.13906539560503
 10
-131.85701214992696
 20
283.14051511728894
 42
0.0077574104207455
 10
-131.03584716933528
 20
283.26914914109102
 10
-131.02499947607066
 20
283.27102127320813
 42
0.0080112324202611
 10
-130.22993519603097
 20
283.42139173415217
 10
-130.21856755028239
 20
283.42373093472452
 42
0.0083319331222362
 10
-129.45150132281469
 20
283.59494587806466
 10
-129.43965534297968
 20
283.59779801251716
 42
0.0087303375067706
 10
-128.70247252746049
 20
283.78896455409995
 10
-128.69020278932476
 20
283.79237604984519
 42
0.0092198153864208
 10
-127.98477440570969
 20
284.00260123540193
 10
-127.97215104997122
 20
284.00661799471573
 42
0.0098168778956506
 10
-127.30033081178954
 20
284.2350102321825
 10
-127.28744282361822
 20
284.23967584560387
 42
0.0105418756656783
 10
-126.6510634416054
 20
284.48534723789726
 10
-126.63802270348697
 20
284.49070010769901
 42
0.0114197662926075
 10
-126.03889138658178
 20
284.75277018026964
 10
-126.02583754527495
 20
284.75883896910955
 42
0.0124808517216443
 10
-125.4657307369398
 20
285.03644052626441
 10
-125.45283676174404
 20
285.04323707383855
 42
0.0137612492430764
 10
-124.93349441541341
 20
285.33552524037896
 10
-124.86249601279906
 20
285.3780974375527
 42
0.015413438488518
 10
-124.50036871601878
 20
285.61070342236326
 10
-124.49142478660997
 20
285.616845829471
 42
0.0082270225119815
 10
-124.15825693786974
 20
285.85381523627348
 10
-124.1539145342831
 20
285.85701269778656
 42
0.0183117597659405
 10
-123.84239710627389
 20
286.10448220293893
 10
-123.83452978439436
 20
286.11121621384746
 42
0.0098665314932899
 10
-123.55276622769634
 20
286.36219098802303
 10
-123.54907785321848
 20
286.36560920471993
 42
0.0220447546013453
 10
-123.29116033470382
 20
286.62668513051494
 10
-123.28493249969233
 20
286.63357142690984
 42
0.0119538568667836
 10
-123.05730244177903
 20
286.89769463764242
 42
0.0263895126487314
 10
-122.85080125655168
 20
287.1781672670736
 10
-122.81821846486764
 20
287.22769543990489
 42
0.0297659472223272
 10
-122.60399501333359
 20
287.59979720679894
 10
-122.6009851987219
 20
287.60582878482865
 42
0.0330045431219183
 10
-122.44028987697675
 20
287.98925075154102
 10
-122.43914027599931
 20
287.99259734713451
 42
0.0358103460277991
 10
-122.33439748221917
 20
288.38745642503409
 10
-122.33420178778761
 20
288.38848671898768
 42
0.0374471893287978
 10
-122.28844720251436
 20
288.79222816612128
 10
-122.28844440519879
 20
288.79230177215777
 42
0.0094966877210824
 10
-122.2865102315227
 20
288.8941267080595
 42
0.0094966877210824
  0
LWPOLYLINE
  5
CB
100
AcDbEntity
  8
TFM73-7001
370
              18
390
0
  6
Continuous
 62
             250
100
AcDbPolyline
 90
      107
 70
             128
 10
-111.7904058897002
 20
282.84982270740829
 42
-0.0030958579212135
 10
-111.8672158237132
 20
282.85029829725181
 10
-111.96235903749675
 20
282.85147655320452
 42
-0.0186941131567377
 10
-112.22895581160537
 20
282.86475530990856
 10
-112.32436787124061
 20
282.87309169581749
 42
-0.0124331841283804
 10
-112.62221563111598
 20
282.90659572635559
 10
-112.62341798476336
 20
282.90676134174282
 42
-0.0123806931868136
 10
-112.91684284386247
 20
282.95460839883435
 10
-112.9178869308098
 20
282.95480530408895
 42
-0.0123257460562844
 10
-113.20651409020502
 20
283.01664144208962
 10
-113.2074126363932
 20
283.01685724243453
 42
-0.0122633771971839
 10
-113.49086670894758
 20
283.0923312051309
 10
-113.49163249439152
 20
283.09255535628836
 42
-0.0121962686351838
 10
-113.7695382131169
 20
283.1813141048915
 42
-0.0121381410297164
 10
-114.04279780563138
 20
283.28348739205649
 10
-114.11004658710044
 20
283.31051020102177
 42
-0.0240414797841446
 10
-114.50346588991852
 20
283.49101657824485
 10
-114.5044893871891
 20
283.49154712586051
 42
-0.0119417348631575
 10
-114.88222335568935
 20
283.69894299686894
 10
-114.8826398347619
 20
283.69918478532236
 42
-0.0236934373624468
 10
-115.24353725329911
 20
283.93223137067343
 10
-115.24394358161953
 20
283.93252191489728
 42
-0.0117969846332418
 10
-115.58689849405619
 20
284.19019161246342
 42
-0.0235086983444424
 10
-115.91042792389544
 20
284.47104734224558
 10
-115.96217588050149
 20
284.52042043142092
 42
-0.0117397783235197
 10
-116.1641219778312
 20
284.7223654795298
 42
-0.0117415886204763
 10
-116.35640224510007
 20
284.93361234066833
 42
-0.011756012074105
 10
-116.53865516199403
 20
285.15379826313165
 42
-0.0117889497246645
 10
-116.7104132978202
 20
285.38241395125033
 10
-116.7105192183908
 20
285.38256208215171
 42
-0.0118271532864342
 10
-116.87149674160992
 20
285.6193326354196
 10
-116.87163176132435
 20
285.61954169520959
 42
-0.011874578004215
 10
-117.02146907880615
 20
285.86409772410479
 10
-117.02163010862023
 20
285.86437512697375
 42
-0.0119299514565499
 10
-117.15996780703881
 20
286.11634616715946
 10
-117.16015142738888
 20
286.11670039526689
 42
-0.0119917349054962
 10
-117.28663054547633
 20
286.3757149299563
 10
-117.28683274261311
 20
286.37615549805196
 42
-0.0120581279517348
 10
-117.40109502313499
 20
286.64184099240538
 10
-117.40131093642594
 20
286.64237838626059
 42
-0.0121289715317308
 10
-117.50299804515726
 20
286.91436173041848
 10
-117.51525777933693
 20
286.94974659268701
 42
-0.0183180562515298
 10
-117.62207039890745
 20
287.29888125710613
 10
-117.6314768407583
 20
287.33420383498606
 42
-0.0122960309550877
 10
-117.70063877612938
 20
287.62221956445228
 42
-0.0123545805406831
 10
-117.75552346769109
 20
287.91329274740656
 10
-117.75570638880617
 20
287.91441436506921
 42
-0.0124036746081538
 10
-117.79642740748113
 20
288.21009748104962
 10
-117.79657213498467
 20
288.21138368716765
 42
-0.012447085865255
 10
-117.82277898950451
 20
288.51130205041409
 10
-117.82287017321323
 20
288.51276458664142
 42
-0.0124526349709786
 10
-117.83422515315669
 20
288.81654336409702
 10
-117.83424370918601
 20
288.81803280610484
 42
-0.0124539013712366
 10
-117.83044233836517
 20
289.12337786452281
 10
-117.83038840705012
 20
289.124820932283
 42
-0.0124572814693089
 10
-117.81156549053685
 20
289.42671611925289
 10
-117.81144548841257
 20
289.42808908784491
 42
-0.0124255049797085
 10
-117.77793687140365
 20
289.72593644857625
 10
-117.77777125590273
 20
289.72713880305355
 42
-0.012380693372063
 10
-117.72992419892489
 20
290.02056366219676
 10
-117.72972729366575
 20
290.02160774917002
 42
-0.0123257460638022
 10
-117.66789115567008
 20
290.31023490856523
 10
-117.66767535532745
 20
290.31113345474523
 42
-0.0122633771980812
 10
-117.59220139262925
 20
290.59458752730825
 10
-117.59197724147725
 20
290.59535331273355
 42
-0.0121962686343049
 10
-117.50321849286775
 20
290.87325903147757
 42
-0.0121381410293921
 10
-117.40104520571003
 20
291.14651862397386
 10
-117.37402239674066
 20
291.21376740545338
 42
-0.0240414797861494
 10
-117.19351601951439
 20
291.60718670827919
 10
-117.19298547190374
 20
291.60821020553931
 42
-0.0119417348618453
 10
-116.98558960089031
 20
291.98594417405002
 10
-116.98534781242051
 20
291.98636065315077
 42
-0.0236934373645613
 10
-116.75230122708672
 20
292.34725807165978
 10
-116.75201068286333
 20
292.34766439997929
 42
-0.0117969846315957
 10
-116.49434098529673
 20
292.69061931241595
 42
-0.0235086983444179
 10
-116.21348525551457
 20
293.01414874225566
 10
-116.16411216630968
 20
293.06589669889263
 42
-0.0117397783223245
 10
-115.96216711823035
 20
293.26784279619142
 42
-0.0117415886214159
 10
-115.75092025709091
 20
293.46012306346029
 42
-0.0117560120720912
 10
-115.5307343346276
 20
293.64237598035425
 42
-0.0117889497269743
 10
-115.30211864653211
 20
293.81413411616359
 10
-115.30197051560754
 20
293.81424003675056
 42
-0.0118271532827395
 10
-115.06519996230509
 20
293.97521755999196
 10
-115.06499090254965
 20
293.97535257968411
 42
-0.0118745780057562
 10
-114.82043487366082
 20
294.12518989716318
 10
-114.82015747078549
 20
294.1253509269809
 42
-0.0119299514583715
 10
-114.56818643058614
 20
294.26368862540676
 10
-114.56783220249235
 20
294.26387224575001
 42
-0.0119917349063624
 10
-114.3088176678375
 20
294.39035136382154
 10
-114.3083770997082
 20
294.39055356097379
 42
-0.0120581279453211
 10
-114.04269160530202
 20
294.50481584151612
 10
-114.04215421149911
 20
294.5050317547857
 42
-0.0121270862120008
 10
-113.77017122583948
 20
294.60671989821503
 10
-113.76952566092314
 20
294.60694357146622
 42
-0.0121963457444863
 10
-113.4916194545176
 20
294.69570148000003
 10
-113.49085367250336
 20
294.69592562732214
 42
-0.0122634564786927
 10
-113.20739913745365
 20
294.77139863119601
 10
-113.20650059907894
 20
294.77161442612623
 42
-0.0123258255559635
 10
-112.91787302120883
 20
294.83344948193644
 10
-112.91682894686346
 20
294.83364638044532
 42
-0.0123807700088005
 10
-112.62340373386905
 20
294.88149223175196
 10
-112.62220139937199
 20
294.8816578391743
 42
-0.0124382614775161
 10
-112.32435311339304
 20
294.91515755507953
 10
-112.28477547259354
 20
294.91861456752031
 42
-0.0186809512884226
 10
-111.90623370804678
 20
294.93746975423119
 10
-111.86722558244219
 20
294.93795392324955
 42
-0.0031032464013358
 10
-111.7904058897002
 20
294.93843070871117
 42
-0.0031032464013358
  0
LWPOLYLINE
  5
CC
100
AcDbEntity
  8
TFM73-7001
370
              18
390
0
  6
Continuous
 62
             250
100
AcDbPolyline
 90
      107
 70
             128
 10
-159.31253653832937
 20
294.93843070871117
 42
-0.0030958579120864
 10
-159.23572660433638
 20
294.9379551188681
 10
-159.14058339053099
 20
294.93677686291539
 42
-0.018694113158765
 10
-158.87398661642419
 20
294.92349810621181
 10
-158.77857455677531
 20
294.91516172030106
 42
-0.0124331841240558
 10
-158.48072679691268
 20
294.88165768976341
 10
-158.47952444326347
 20
294.88149207437618
 42
-0.0123806931880687
 10
-158.18609958416528
 20
294.83364501728556
 10
-158.1850554972325
 20
294.83344811203369
 42
-0.0123257460555211
 10
-157.89642833782273
 20
294.77161197402984
 10
-157.89552979163363
 20
294.77139617368493
 42
-0.0122633771953506
 10
-157.61207571908017
 20
294.69592221098901
 10
-157.61130993361803
 20
294.6956980598261
 42
-0.0121962686345764
 10
-157.33340421491084
 20
294.60693931122796
 42
-0.0121381410310217
 10
-157.06014462241092
 20
294.5047660240698
 10
-156.99289584093276
 20
294.47774321510042
 42
-0.0240414797858161
 10
-156.59947653810923
 20
294.29723683787506
 10
-156.59845304082137
 20
294.29670629025031
 42
-0.0119417348609965
 10
-156.2207190723384
 20
294.08931041925098
 10
-156.22030259325402
 20
294.08906863079028
 42
-0.0236934373639378
 10
-155.85940517472864
 20
293.85602204544648
 10
-155.85899884641822
 20
293.85573150122946
 42
-0.0117969846326227
 10
-155.51604393397156
 20
293.59806180365649
 42
-0.0235086983444294
 10
-155.1925145041323
 20
293.31720607387433
 10
-155.14076654748078
 20
293.2678329846558
 42
-0.0117397783200974
 10
-154.93882045019654
 20
293.06588793658966
 42
-0.0117415886193558
 10
-154.74654018292767
 20
292.85464107545067
 42
-0.0117560120750653
 10
-154.56428726603372
 20
292.63445515298781
 42
-0.0117889497261816
 10
-154.39252913021664
 20
292.4058394648805
 10
-154.39242320963785
 20
292.4056913339673
 42
-0.0118271532818002
 10
-154.23144568640237
 20
292.16892078067485
 10
-154.2313106667043
 20
292.16871172090987
 42
-0.0118745780075517
 10
-154.08147334924888
 20
291.92415569206196
 10
-154.08131231940752
 20
291.9238782891457
 42
-0.0119299514577167
 10
-153.94297462098257
 20
291.67190724894681
 10
-153.94279100063886
 20
291.67155302085212
 42
-0.0119917349090586
 10
-153.81631188256142
 20
291.41253848618271
 10
-153.81610968541554
 20
291.41209791806796
 42
-0.0120581279495295
 10
-153.7018474048873
 20
291.14641242369635
 10
-153.70163149160362
 20
291.14587502985887
 42
-0.0121289715307634
 10
-153.59994438287231
 20
290.8738916857028
 10
-153.58768464869172
 20
290.838506823432
 42
-0.0183180562538007
 10
-153.48087202912211
 20
290.48937215901788
 10
-153.47146558727218
 20
290.45404958114113
 42
-0.0122960309521594
 10
-153.40230365189927
 20
290.16603385166763
 42
-0.0123545805428991
 10
-153.34741896033847
 20
289.87496066872109
 10
-153.34723603922157
 20
289.8738390510498
 42
-0.0124036746110461
 10
-153.30651502055298
 20
289.5781559351226
 10
-153.30637029304307
 20
289.57686972895135
 42
-0.0124470858667996
 10
-153.28016343852505
 20
289.27695136572856
 10
-153.28007225481451
 20
289.27548882947804
 42
-0.0124526349722733
 10
-153.26871727487105
 20
288.97171005208884
 10
-153.26869871884173
 20
288.97022061002235
 42
-0.0124539013714757
 10
-153.27250008966257
 20
288.66487555159711
 10
-153.27255402097762
 20
288.66343248383009
 42
-0.0124572814701717
 10
-153.2913769374918
 20
288.36153729686657
 10
-153.29149693961153
 20
288.36016432832594
 42
-0.0124255049787524
 10
-153.325005556625
 20
288.06231696754321
 10
-153.32517117212228
 20
288.06111461308956
 42
-0.0123806933741285
 10
-153.37301822910285
 20
287.76768975392224
 10
-153.37321513436473
 20
287.7666456669358
 42
-0.0123257460643187
 10
-153.43505127235858
 20
287.47801850755468
 10
-153.43526707269484
 20
287.47711996140424
 42
-0.0122633771974517
 10
-153.51074103539941
 20
287.19366588881121
 10
-153.51096518655322
 20
287.19290010338
 42
-0.0121962686358789
 10
-153.59972393516
 20
286.91499438464143
 42
-0.0121381410285735
 10
-153.70189722233408
 20
286.64173479210422
 10
-153.728920031288
 20
286.57448601066471
 42
-0.0240414797868283
 10
-153.90942640851335
 20
286.18106670784073
 10
-153.9099569561231
 20
286.18004321058288
 42
-0.0119417348617744
 10
-154.11735282713835
 20
285.80230924206944
 10
-154.11759461559541
 20
285.80189276299097
 42
-0.0236934373649558
 10
-154.35064120094285
 20
285.44099534446013
 10
-154.35093174516805
 20
285.44058901613835
 42
-0.0117969846306658
 10
-154.60860144273283
 20
285.09763410370306
 42
-0.0235086983444862
 10
-154.88945717251499
 20
284.7741046738638
 10
-154.93883026173626
 20
284.72235671721
 42
-0.0117397783202571
 10
-155.1407753097983
 20
284.5204106199285
 42
-0.0117415886201635
 10
-155.35202217093683
 20
284.32813035265917
 42
-0.0117560120730337
 10
-155.57220809340106
 20
284.14587743576521
 42
-0.0117889497275968
 10
-155.80082378148836
 20
283.97411929996133
 10
-155.80097191242112
 20
283.9740133793689
 42
-0.0118271532820644
 10
-156.03774246573266
 20
283.81303585612113
 10
-156.03795152547809
 20
283.8129008364358
 42
-0.0118745780047693
 10
-156.28250755437239
 20
283.66306351895355
 10
-156.28278495724226
 20
283.66290248913901
 42
-0.0119299514582632
 10
-156.5347559974507
 20
283.52456479070906
 10
-156.5351102255363
 20
283.52438117037036
 42
-0.0119917349089069
 10
-156.79412476018842
 20
283.39790205229974
 10
-156.79456532832137
 20
283.39769985514613
 42
-0.0120581279499907
 10
-157.06025082273754
 20
283.2834375745997
 10
-157.06078821652955
 20
283.28322166133421
 42
-0.0121270862097829
 10
-157.33277120218008
 20
283.18153351790716
 10
-157.33341676710461
 20
283.18130984465324
 42
-0.0121963457447937
 10
-157.61132297351742
 20
283.09255193611762
 10
-157.61208875552438
 20
283.09232778879777
 42
-0.012263456479037
 10
-157.89554329055773
 20
283.01685478492755
 10
-157.89644182894972
 20
283.01663898999323
 42
-0.0123258255537678
 10
-158.18506940683619
 20
282.95480393418075
 10
-158.1861134811661
 20
282.9546070356746
 42
-0.0123807700132006
 10
-158.47953869414414
 20
282.90676118437023
 10
-158.48074102865667
 20
282.90659557694562
 42
-0.0124382614773441
 10
-158.77858931464652
 20
282.87309586103902
 10
-158.81816695543421
 20
282.86963884859961
 42
-0.0186809512882132
 10
-159.1967087199846
 20
282.85078366188873
 10
-159.23571684558556
 20
282.85029949287036
 42
-0.0031032464012464
 10
-159.31253653832937
 20
282.84982270740829
 42
-0.0031032464012464
  0
LWPOLYLINE
  5
CD
100
AcDbEntity
  8
TFM73-7001
370
              18
390
0
  6
Continuous
 62
             250
100
AcDbPolyline
 90
      101
 70
             128
 10
-29.061885342717687
 20
196.28542204013183
 42
-0.0048982114550991
 10
-29.062608753177301
 20
196.21157946405356
 10
-29.064393858332551
 20
196.12048034434429
 42
-0.0296009409104837
 10
-29.084511228797965
 20
195.86563864653908
 10
-29.101621296413214
 20
195.74240624464483
 42
-0.0391061090584568
 10
-29.209571739698731
 20
195.25074774892437
 10
-29.219662271064408
 20
195.21745764287061
 42
-0.038419493875796
 10
-29.421401182211412
 20
194.69903286369572
 10
-29.422385963956003
 20
194.69698327975266
 42
-0.0377802110874941
 10
-29.698213631905674
 20
194.21905344276638
 10
-29.737689803365356
 20
194.16122207814215
 42
-0.0373165297224312
 10
-29.994808090359584
 20
193.83904269970117
 42
-0.0186275120218679
 10
-30.286985164234466
 20
193.54688321408094
 42
-0.0373007372772873
 10
-30.609537715803526
 20
193.28950895529852
 10
-30.666101563871962
 20
193.25090195746816
 42
-0.0188244662732357
 10
-30.900471475368249
 20
193.1035502167806
 42
-0.0189478185118074
 10
-31.145290529259
 20
192.97430628701704
 10
-31.209443977606497
 20
192.94348742998181
 42
-0.0384339375515841
 10
-31.599139978916355
 20
192.79188610989831
 10
-31.698881970014554
 20
192.76166730613249
 42
-0.0390850593525356
 10
-32.190414406809396
 20
192.65378861313457
 10
-32.313635765098297
 20
192.63668554301103
 42
-0.029577189265679
 10
-32.568361869984074
 20
192.61657628356261
 10
-32.659402511241751
 20
192.61478764140065
 42
-0.0049110661923378
 10
-32.733245050134428
 20
192.61406233271509
 10
-78.064576383260828
 20
192.61406233271509
 42
-0.004898211455194
 10
-78.138418959369119
 20
192.61478574317562
 10
-78.229518079047921
 20
192.61657084833041
 42
-0.0296009409161665
 10
-78.484359776825841
 20
192.63668821879264
 10
-78.607592178747836
 20
192.65379828641107
 42
-0.0391061090593551
 10
-79.099250674470568
 20
192.76174872969705
 10
-79.132540780516138
 20
192.77183926106045
 42
-0.038419493877355
 10
-79.650965559696488
 20
192.97357817220882
 10
-79.653015143639095
 20
192.97456295395341
 42
-0.037780211087672
 10
-80.130944980626737
 20
193.25039062190353
 10
-80.188776345253245
 20
193.28986679336458
 42
-0.0373165297205791
 10
-80.51095572369195
 20
193.54698508035699
 42
-0.0186275120202647
 10
-80.803115209311727
 20
193.83916215423187
 42
-0.0373007372773593
 10
-81.060489468094602
 20
194.16171470580093
 10
-81.099096465931325
 20
194.21827855387937
 42
-0.0188244662762902
 10
-81.246448206611603
 20
194.45264846536611
 42
-0.0189478185100221
 10
-81.375692136370162
 20
194.69746751924595
 10
-81.406510993410848
 20
194.7616209676039
 42
-0.0384339375528414
 10
-81.55811231349071
 20
195.15131696890148
 10
-81.588331117258349
 20
195.25105896000377
 42
-0.0390850593525897
 10
-81.696209810257642
 20
195.74259139680726
 10
-81.713312880382546
 20
195.86581275510343
 42
-0.0295771892651855
 10
-81.733422139830509
 20
196.12053885998193
 10
-81.735210781991555
 20
196.21157950118231
 42
-0.0049110661884859
 10
-81.735936090677569
 20
196.28542204013183
 10
-81.735936090677569
 20
201.03131062660123
 42
-0.0048982114480366
 10
-81.735212680217046
 20
201.1051532027459
 10
-81.733427575061796
 20
201.19625232238832
 42
-0.029600940918633
 10
-81.71331020460093
 20
201.45109402015942
 10
-81.696200136981133
 20
201.57432642208823
 42
-0.0391061090607778
 10
-81.588249693698344
 20
202.06598491780187
 10
-81.578159162329939
 20
202.09927502386381
 42
-0.0384194938765863
 10
-81.376420251183845
 20
202.61769980303688
 10
-81.375435469438344
 20
202.61974938698177
 42
-0.0377802110881345
 10
-81.099607801488673
 20
203.09767922396622
 10
-81.060131630031719
 20
203.15551058858637
 42
-0.0373165297218291
 10
-80.803013343035673
 20
203.47768996703144
 42
-0.0186275120217254
 10
-80.510836269160791
 20
203.76984945265167
 42
-0.0373007372778908
 10
-80.188283717590821
 20
204.02722371143409
 10
-80.131719869523295
 20
204.06583070926399
 42
-0.0188244662755125
 10
-79.897349958026098
 20
204.21318244995246
 42
-0.0189478185076548
 10
-79.652530904138985
 20
204.34242637971465
 10
-79.588377455789669
 20
204.37324523675125
 42
-0.0384339375514927
 10
-79.198681454476173
 20
204.5248465568352
 10
-79.098939463380702
 20
204.55506536060011
 42
-0.039085059350733
 10
-78.607407026585861
 20
204.66294405359758
 10
-78.484185668292412
 20
204.68004712372158
 42
-0.029577189266717
 10
-78.229459563410273
 20
204.70015638317
 10
-78.138418922148048
 20
204.70194502533195
 42
-0.0049110661927038
 10
-78.064576383260828
 20
204.70267033401751
 10
-32.733245050134428
 20
204.70267033401751
 42
-0.004898211455646
 10
-32.659402474027956
 20
204.70194692355699
 10
-32.568303354346426
 20
204.70016181840219
 42
-0.0296009409175711
 10
-32.313461656563049
 20
204.68004444793951
 10
-32.19022925464742
 20
204.66293438032153
 42
-0.039106109059165
 10
-31.698570758935602
 20
204.5549839370392
 10
-31.665280652867295
 20
204.54489340566897
 42
-0.0384194938747754
 10
-31.146855873697859
 20
204.34315449452424
 10
-31.144806289755252
 20
204.3421697127792
 42
-0.0377802110876251
 10
-30.66687645276852
 20
204.06634204482953
 10
-30.60904508814474
 20
204.02686587336984
 42
-0.0373165297219119
 10
-30.286865709704216
 20
203.76974758637562
 42
-0.0186275120202669
 10
-29.994706224084439
 20
203.47757051250073
 42
-0.0373007372791899
 10
-29.737331965301564
 20
203.15501796093167
 10
-29.698724967483031
 20
203.09845411288052
 42
-0.0188244662779229
 10
-29.551373226782744
 20
202.8640842013665
 42
-0.0189478185105957
 10
-29.422129297026004
 20
202.61926514749211
 10
-29.391310439983499
 20
202.55511169912916
 42
-0.038433937551168
 10
-29.239709119901818
 20
202.16541569782112
 10
-29.209490316135998
 20
202.06567370672292
 42
-0.0390850593519505
 10
-29.101611623138524
 20
201.5741412699258
 10
-29.084508553015439
 20
201.45091991163827
 42
-0.029577189267351
 10
-29.064399293565657
 20
201.19619380675067
 10
-29.062610651404611
 20
201.10515316561714
 42
-0.0049110661902027
 10
-29.061885342717687
 20
201.03131062660123
 10
-29.061885342717687
 20
196.28542204013183
  0
LWPOLYLINE
  5
CE
100
AcDbEntity
  8
TFM73-7001
370
              18
390
0
  6
Continuous
 62
             250
100
AcDbPolyline
 90
      185
 70
             128
 10
-41.801914618548835
 20
198.6583663333663
 42
0.0094953893055894
 10
-41.803848527919399
 20
198.76019127926293
 10
-41.806753296388706
 20
198.83663519265156
 42
0.0375060229296111
 10
-41.835399692055034
 20
199.08915938378095
 10
-41.84984807420733
 20
199.16513212643758
 42
0.0357667347612908
 10
-41.954638734946457
 20
199.55994430991086
 10
-41.955791331278306
 20
199.56329901831305
 42
0.0330036803257295
 10
-42.116500226864446
 20
199.94669544012504
 10
-42.119508583093193
 20
199.95272330888292
 42
0.0297567674343961
 10
-42.333731725739199
 20
200.32479545550905
 10
-42.338847407832873
 20
200.33257139628904
 42
0.0264467426196278
 10
-42.604562148900186
 20
200.69337053323625
 10
-42.611717473274439
 20
200.70208153982639
 42
0.0233445500405105
 10
-42.927163183634548
 20
201.05150236719237
 10
-42.936099784199541
 20
201.06051751840869
 42
0.0205831786980637
 10
-43.299651268575872
 20
201.39826030758923
 10
-43.310030025142623
 20
201.40713527689513
 42
0.0182013359582393
 10
-43.720104739953968
 20
201.73272280866377
 10
-43.731576934787881
 20
201.74116943357694
 42
0.0161851299777985
 10
-44.186580797687384
 20
202.05398500021874
 10
-44.198825380111884
 20
202.06183201961721
 42
0.0144968547595934
 10
-44.697127392000766
 20
202.36115851174782
 10
-44.709865856735632
 20
202.36831631560472
 42
0.0130916360457208
 10
-45.249790082107211
 20
202.65336834848404
 10
-45.262788958756573
 20
202.65980172433683
 42
0.0119258005967782
 10
-45.842615410691906
 20
202.92974934615995
 10
-45.855682928080569
 20
202.93545801463688
 42
0.0109604247807059
 10
-46.473652253116597
 20
203.18944317675187
 10
-46.486632869919049
 20
203.1944485241811
 42
0.0101623622709297
 10
-47.14095212515349
 20
203.43159610881594
 10
-47.153720770425934
 20
203.43593240866994
 42
0.0095040847180803
 10
-47.842569018232098
 20
203.6553574337936
 10
-47.855025845568889
 20
203.6590661583441
 42
0.008963043465127
 10
-48.576559059820283
 20
203.85987839924337
 10
-48.588624986210561
 20
203.86300459593349
 42
0.0085209049361752
 10
-49.340980142286753
 20
204.0443114994132
 10
-49.352593192494169
 20
204.04690152019793
 42
0.0081628055447028
 10
-50.133891575732378
 20
204.20781001724208
 10
-50.14500395736286
 20
204.20991012350351
 42
0.0079496962493954
 10
-50.953372302874413
 20
204.34940943165429
 10
-51.179399879496486
 20
204.38472395369718
 42
0.0151334226001821
 10
-52.446852109458632
 20
204.54362835992515
 10
-52.687334386602743
 20
204.56641158548791
 42
0.0146055411128399
 10
-54.443915304188522
 20
204.68118929690672
 10
-54.696427804114137
 20
204.69029373527837
 42
0.014430019615136
 10
-56.079647473222394
 20
204.70022784210778
 10
-56.097597869066703
 20
204.69983868321151
 42
0.0072005572498767
 10
-57.444503378435911
 20
204.6512250736705
 10
-57.457851216616291
 20
204.65055072839459
 42
0.0147591862295713
 10
-58.774245195998446
 20
204.54502158903415
 10
-59.007398273751278
 20
204.51938632474776
 42
0.007590258298739
 10
-59.852761770327561
 20
204.41342764582168
 10
-59.863058801290208
 20
204.41197792413504
 42
0.0077574104204842
 10
-60.684223781863693
 20
204.28334390033524
 10
-60.695071475137411
 20
204.28147176821676
 42
0.0080112324210495
 10
-61.490135755168012
 20
204.13110130727364
 10
-61.501503400909314
 20
204.12876210670311
 42
0.0083319331225386
 10
-62.268569628384284
 20
203.9575471633616
 10
-62.280415608203839
 20
203.95469502891319
 42
0.0087303375065082
 10
-63.017598423737581
 20
203.76352848732631
 10
-63.029868161865124
 20
203.76011699158335
 42
0.0092198153854542
 10
-63.735296545488382
 20
203.54989180602479
 10
-63.747919901226851
 20
203.54587504671099
 42
0.0098168778956067
 10
-64.419740139408532
 20
203.31748280924421
 10
-64.432628127580756
 20
203.31281719582239
 42
0.010541875663847
 10
-65.069007509593575
 20
203.067145803529
 10
-65.082048247703824
 20
203.06179293373043
 42
0.0114197662916104
 10
-65.681179564617196
 20
202.79972286115662
 10
-65.694233405901286
 20
202.79365407232717
 42
0.012480851722249
 10
-66.254340214259173
 20
202.51605251516139
 10
-66.267234189449482
 20
202.50925596759043
 42
0.0137612492437506
 10
-66.786576535785571
 20
202.2169678010473
 10
-66.857574938407197
 20
202.17439560386947
 42
0.0154134384873154
 10
-67.219702235180193
 20
201.941789619063
 10
-67.228646164577185
 20
201.93564721196344
 42
0.0082270225131803
 10
-67.56181401332833
 20
201.69867780515233
 10
-67.566156416917693
 20
201.69548034363697
 42
0.0183117597664068
 10
-67.877673844924175
 20
201.44801083848688
 10
-67.885554110224803
 20
201.44126574869551
 42
0.00989454177851
 10
-68.167277857841327
 20
201.19029813097404
 42
0.0218696204501561
 10
-68.432300818645672
 20
200.92215746266083
 10
-68.476060722401598
 20
200.87382804727531
 42
0.0248616077154077
 10
-68.766862564656549
 20
200.51867606362975
 10
-68.773020343542157
 20
200.51034293297062
 42
0.0280944253999567
 10
-69.013229064572442
 20
200.14388095139884
 10
-69.017282240646637
 20
200.13686786208837
 42
0.0314201502393293
 10
-69.205015734061817
 20
199.75911545838107
 10
-69.207040711883565
 20
199.75430455674905
 42
0.0344845492280979
 10
-69.340093031810284
 20
199.36517764504379
 10
-69.340597210950364
 20
199.36328635858308
 42
0.0368285121177361
 10
-69.416260367410359
 20
198.96317390345484
 10
-69.416285131305813
 20
198.96295621983245
 42
0.0378117788993974
 10
-69.431608838953252
 20
198.55653794721957
 42
0.0375258706910038
 10
-69.385779984493638
 20
198.15240356781169
 10
-69.385626228126057
 20
198.15159508325087
 42
0.035766743367291
 10
-69.280838395944556
 20
197.75679356081582
 10
-69.279684006945899
 20
197.75343363495449
 42
0.0330036755772972
 10
-69.118975116569345
 20
197.37003723662428
 10
-69.115966755131012
 20
197.36400935744041
 42
0.0297567672412732
 10
-68.901743612674181
 20
196.99193721149777
 10
-68.896627930391332
 20
196.98416127043129
 42
0.0264467426126718
 10
-68.630913189320381
 20
196.62336213349226
 10
-68.623757864949766
 20
196.61465112690621
 42
0.0233445500412787
 10
-68.308312154580562
 20
196.26523029953159
 10
-68.299375554024664
 20
196.25621514832437
 42
0.0205831787018225
 10
-67.935824069631053
 20
195.91847235912883
 10
-67.925445313081582
 20
195.90959738983747
 42
0.018201335956536
 10
-67.515370598281152
 20
195.58400985807748
 10
-67.503898403436324
 20
195.57556323315657
 42
0.0161851299760998
 10
-67.048894540555921
 20
195.26274766652614
 10
-67.036649958112321
 20
195.25490064711539
 42
0.0144968547598655
 10
-66.538347946233444
 20
194.9555741549907
 10
-66.525609481488573
 20
194.94841635112789
 42
0.0130916360449623
 10
-65.985685256122451
 20
194.66336431825084
 10
-65.972686379467632
 20
194.65693094239532
 42
0.0119258005969249
 10
-65.392859927563222
 20
194.3869833205863
 10
-65.379792410143637
 20
194.38127465209573
 42
0.0109604247803284
 10
-64.761823085091237
 20
194.12728948997528
 10
-64.748842468305156
 20
194.12228414255242
 42
0.0101623622703805
 10
-64.094523213098
 20
193.88513655792667
 10
-64.081754567798271
 20
193.88080025806312
 42
0.0095040847169497
 10
-63.392906319983013
 20
193.66137523293582
 10
-63.380449492656226
 20
193.6576665083885
 42
0.0089630434657101
 10
-62.658916278404831
 20
193.45685426748923
 10
-62.646850352013644
 20
193.45372807079912
 42
0.0085209049351806
 10
-61.894495195962918
 20
193.27242116732577
 10
-61.882882145730036
 20
193.26983114653513
 42
0.0081628055452835
 10
-61.101583762509108
 20
193.10892264949371
 10
-61.090471380861345
 20
193.1068225432291
 42
0.0079496962492504
 10
-60.282103035293403
 20
192.96732323506876
 10
-60.056075458727719
 20
192.93200871303543
 42
0.0151334226001128
 10
-58.788623228781944
 20
192.77310430680882
 10
-58.548140951622372
 20
192.75032108124469
 42
0.0146055411122969
 10
-56.79156003402386
 20
192.63554336982543
 10
-56.53904753410734
 20
192.62643893145423
 42
0.014430019614518
 10
-55.155827865000902
 20
192.61650482462483
 10
-55.137877469126579
 20
192.61689398352155
 42
0.0072005572497871
 10
-53.790971959788294
 20
192.66550759306165
 10
-53.777624121607005
 20
192.66618193833756
 42
0.0147591862299534
 10
-52.461230142225759
 20
192.77171107769891
 10
-52.228077064482022
 20
192.79734634198394
 42
0.0075902582976417
 10
-51.382713567896644
 20
192.90330502091138
 10
-51.372416536924902
 20
192.90475474259938
 42
0.0077574104208725
 10
-50.551251556360512
 20
193.03338876639737
 10
-50.54040386311226
 20
193.03526089851175
 42
0.008011232420709
 10
-49.745339583056193
 20
193.18563135945897
 10
-49.733971937283968
 20
193.18797056003586
 42
0.0083319331217147
 10
-48.966905709839921
 20
193.35918550337101
 10
-48.955059730003995
 20
193.36203763782351
 42
0.0087303375065202
 10
-48.217876914486624
 20
193.55320417940629
 10
-48.205607176363628
 20
193.5566156751479
 42
0.0092198153861988
 10
-47.500178792735824
 20
193.76684086070827
 10
-47.487555437001902
 20
193.77085762002025
 42
0.0098168778954625
 10
-46.815735198814764
 20
193.99924985748839
 10
-46.802847210650725
 20
194.00391547090749
 42
0.0105418756655064
 10
-46.16646782863063
 20
194.2495868632036
 10
-46.153427090518562
 20
194.25493973300263
 42
0.0114197662911271
 10
-45.554295773607009
 20
194.51700980557644
 10
-45.541241932300181
 20
194.52307859441635
 42
0.0124808517216805
 10
-44.981135123965032
 20
194.80068015157121
 10
-44.968241148772904
 20
194.80747669914354
 42
0.0137612492417271
 10
-44.448898802438634
 20
195.09976486568576
 10
-44.377900399819737
 20
195.14233706286177
 42
0.0154134384865313
 10
-44.015773103043102
 20
195.3749430476696
 10
-44.006829173654296
 20
195.38108545476325
 42
0.0082270225107152
 10
-43.673661324895875
 20
195.61805486158028
 10
-43.669318921317426
 20
195.62125232308745
 42
0.0183117597628882
 10
-43.35780149330003
 20
195.86872182824573
 10
-43.349934171417772
 20
195.87545583915653
 42
0.0098665314935826
 10
-43.068170614722476
 20
196.12643061333029
 10
-43.064482240238249
 20
196.12984883003355
 42
0.0220447546034936
 10
-42.806564721729956
 20
196.39092475582174
 10
-42.800336886729383
 20
196.39781105220436
 42
0.0119538568673365
 10
-42.572706828805167
 20
196.66193426294922
 42
0.0263895126468372
 10
-42.366205643586909
 20
196.94240689236494
 10
-42.333622851889231
 20
196.99193506521715
 42
0.0297659472227329
 10
-42.119399400358816
 20
197.36403683210574
 10
-42.116389585748948
 20
197.37006841013226
 42
0.033004543123124
 10
-41.955694264001067
 20
197.75349037684782
 10
-41.954544663025445
 20
197.75683697243767
 42
0.0358103460292323
 10
-41.849801869244402
 20
198.15169605034089
 10
-41.849606174810106
 20
198.15272634430949
 42
0.0374471893318737
 10
-41.8038515895405
 20
198.55646779142762
 10
-41.803848792224926
 20
198.55654139746457
 42
0.0094966877214099
 10
-41.801914618548835
 20
198.6583663333663
 42
0.0094966877214099
  0
LWPOLYLINE
  5
CF
100
AcDbEntity
  8
TFM73-7001
370
              18
390
0
  6
Continuous
 62
             250
100
AcDbPolyline
 90
      107
 70
             128
 10
-31.305810276725424
 20
192.61406233271509
 42
-0.0030958579191289
 10
-31.382620210756613
 20
192.61453792255861
 10
-31.477763424522891
 20
192.61571617851087
 42
-0.0186941131566589
 10
-31.744360198631512
 20
192.62899493521491
 10
-31.839772258259472
 20
192.63733132112338
 42
-0.0124331841278219
 10
-32.137620018142115
 20
192.67083535166239
 10
-32.138822371794959
 20
192.67100096705008
 42
-0.0123806931898397
 10
-32.432247230888606
 20
192.71884802414115
 10
-32.433291317854128
 20
192.71904492939893
 42
-0.0123257460558478
 10
-32.721918477231156
 20
192.78088106739597
 10
-32.722817023392054
 20
192.7810968677345
 42
-0.0122633771986191
 10
-33.006271095973716
 20
192.85657083043725
 10
-33.007036881419481
 20
192.85679498159516
 42
-0.0121962686351924
 10
-33.28494260014304
 20
192.9455537301983
 42
-0.0121381410277167
 10
-33.558202192685712
 20
193.0477270173742
 10
-33.625450974122941
 20
193.07474982632721
 42
-0.0240414797839554
 10
-34.018870276944654
 20
193.2552562035512
 10
-34.019893774195225
 20
193.25578675115685
 42
-0.0119417348631982
 10
-34.397627742715486
 20
193.46318262217574
 10
-34.398044221796226
 20
193.46342441063416
 42
-0.0236934373656643
 10
-34.758941640325247
 20
193.69647099597978
 10
-34.75934796864567
 20
193.69676154020317
 42
-0.0117969846309071
 10
-35.102302881081414
 20
193.95443123776977
 42
-0.0235086983451476
 10
-35.425832310921578
 20
194.23528696755193
 10
-35.477580267571284
 20
194.28466005676864
 42
-0.0117397783224819
 10
-35.679526364856429
 20
194.48660510483614
 42
-0.0117415886225358
 10
-35.871806632125299
 20
194.69785196597513
 42
-0.0117560120728069
 10
-36.054059549020167
 20
194.91803788843845
 42
-0.0117889497265297
 10
-36.225817684846334
 20
195.14665357655758
 10
-36.225923605416028
 20
195.14680170745851
 42
-0.0118271532831645
 10
-36.386901128650607
 20
195.38357226075095
 10
-36.38703614834958
 20
195.38378132051639
 42
-0.0118745780045693
 10
-36.536873465845929
 20
195.6283373494357
 10
-36.537034495646367
 20
195.62861475228055
 42
-0.0119299514542796
 10
-36.675372194089505
 20
195.88058579251401
 10
-36.67555581441502
 20
195.88094002057414
 42
-0.0119917349085625
 10
-36.802034932483366
 20
196.13995455522172
 10
-36.802237129639252
 20
196.1403951233583
 42
-0.0120581279484102
 10
-36.916499410175675
 20
196.40608061774947
 10
-36.916715323451172
 20
196.40661801156693
 42
-0.0121289715302361
 10
-37.01840243218976
 20
196.67860135574665
 10
-37.030662166362163
 20
196.71398621799381
 42
-0.018318056254262
 10
-37.137474785929953
 20
197.06312088240202
 10
-37.146881227777158
 20
197.09844346027103
 42
-0.0122960309542452
 10
-37.216043163154609
 20
197.38645918975863
 42
-0.0123545805409237
 10
-37.270927854719957
 20
197.67753237272882
 10
-37.271110775832312
 20
197.67865399037601
 42
-0.0124036746077642
 10
-37.31183179450727
 20
197.97433710635642
 10
-37.311976522010809
 20
197.97562331247491
 42
-0.0124470858658234
 10
-37.338183376529742
 20
198.27554167570588
 10
-37.33827456023937
 20
198.27700421194822
 42
-0.012452634972183
 10
-37.349629540182832
 20
198.58078298934561
 10
-37.34964809621124
 20
198.58227243135343
 42
-0.0124539013709394
 10
-37.345846725391311
 20
198.88761748982961
 10
-37.34579279407626
 20
198.8890605575898
 42
-0.0124572814707798
 10
-37.326969877562078
 20
199.19095574455969
 10
-37.326849875437802
 20
199.19232871315216
 42
-0.0124255049781847
 10
-37.293341258429791
 20
199.49017607388305
 10
-37.293175642932511
 20
199.49137842833807
 42
-0.0123806933736322
 10
-37.245328585950119
 20
199.78480328750356
 10
-37.245131680688246
 20
199.78584737449182
 42
-0.0123257460621652
 10
-37.183295542695305
 20
200.07447453387158
 10
-37.183079742355403
 20
200.07537308003748
 42
-0.0122633772000351
 10
-37.107605779654477
 20
200.35882715261505
 10
-37.107381628497023
 20
200.359592938059
 42
-0.0121962686346305
 10
-37.018622879892973
 20
200.63749865678437
 42
-0.0121381410305378
 10
-36.916449592735262
 20
200.91075824928066
 10
-36.889426783765884
 20
200.97800703076064
 42
-0.0240414797847966
 10
-36.708920406540528
 20
201.37142633358599
 10
-36.708389858922601
 20
201.37244983086066
 42
-0.0119417348629441
 10
-36.500993987916445
 20
201.75018379935682
 10
-36.500752199452108
 20
201.75060027844847
 42
-0.0236934373628498
 10
-36.267705614111946
 20
202.11149769696658
 10
-36.267415069886738
 20
202.11190402528928
 42
-0.0117969846313762
 10
-36.009745372321959
 20
202.45485893772275
 42
-0.023508698344519
 10
-35.728889642539798
 20
202.778388367562
 10
-35.679516553322173
 20
202.83013632421262
 42
-0.0117397783224901
 10
-35.477571505256492
 20
203.03208242149776
 42
-0.0117415886201156
 10
-35.266324644117049
 20
203.22436268876709
 42
-0.0117560120730804
 10
-35.046138721652824
 20
203.4066156056615
 42
-0.0117889497251533
 10
-34.817523033561883
 20
203.57837374146811
 10
-34.817374902633674
 20
203.57847966205736
 42
-0.0118271532837673
 10
-34.580604349333044
 20
203.73945718529694
 10
-34.580395289574881
 20
203.73959220499091
 42
-0.0118745780032807
 10
-34.33583926069241
 20
203.88942952246634
 10
-34.335561857810717
 20
203.8895905522877
 42
-0.0119299514582911
 10
-34.083590817602271
 20
204.02792825071811
 10
-34.083236589517583
 20
204.02811187105635
 42
-0.0119917349110075
 10
-33.824222054866368
 20
204.15459098912606
 10
-33.823781486733424
 20
204.15479318628013
 42
-0.0120581279481649
 10
-33.558095992329982
 20
204.2690554668211
 10
-33.557558598524338
 20
204.26927138009205
 42
-0.0121270862112251
 10
-33.285575612857428
 20
204.37095952352411
 10
-33.284930047948365
 20
204.37118319677302
 42
-0.012196345744673
 10
-33.007023841541013
 20
204.45994110530773
 10
-33.0062580595295
 20
204.46016525262894
 42
-0.0122634564814392
 10
-32.722803524485244
 20
204.53563825650144
 10
-32.721904986105073
 20
204.53585405143303
 42
-0.0123258255544488
 10
-32.433277408238609
 20
204.59768910724188
 10
-32.432233333888689
 20
204.59788600575166
 42
-0.0123807700098392
 10
-32.138808120896101
 20
204.64573185705785
 10
-32.137605786398126
 20
204.64589746448019
 42
-0.0124382614738168
 10
-31.839757500410087
 20
204.67939718038679
 10
-31.800179859619675
 20
204.68285419282665
 42
-0.0186809512882812
 10
-31.421638095069284
 20
204.70170937953753
 10
-31.382629969469235
 20
204.7021935485559
 42
-0.0031032464012911
 10
-31.305810276725424
 20
204.70267033401751
 42
-0.0031032464012911
  0
LWPOLYLINE
  5
D0
100
AcDbEntity
  8
TFM73-7001
370
              18
390
0
  6
Continuous
 62
             250
100
AcDbPolyline
 90
      107
 70
             128
 10
-78.827940925354596
 20
204.70267033401751
 42
-0.0030958579311677
 10
-78.75113099137252
 20
204.70219474417445
 10
-78.65598777755622
 20
204.70101648822174
 42
-0.0186941131578733
 10
-78.389391003431228
 20
204.68773773151634
 10
-78.293978943805996
 20
204.67940134560831
 42
-0.0124331841265755
 10
-77.996131183937905
 20
204.64589731507021
 10
-77.994928830277786
 20
204.64573169968116
 42
-0.0123806931879027
 10
-77.701503971191414
 20
204.59788464259191
 10
-77.700459884254997
 20
204.59768773733958
 42
-0.0123257460563249
 10
-77.411832724848864
 20
204.53585159933664
 10
-77.410934178675234
 20
204.53563579899537
 42
-0.0122633771945937
 10
-77.127480106106304
 20
204.46016183629581
 10
-77.126714320665997
 20
204.45993768513927
 42
-0.0121962686350973
 10
-76.84880860193698
 20
204.37117893653431
 42
-0.0121381410312785
 10
-76.575549009414317
 20
204.26900564936659
 10
-76.508300227951622
 20
204.24198284040358
 42
-0.0240414797851906
 10
-76.114880925135367
 20
204.06147646318186
 10
-76.113857427852963
 20
204.0609459155603
 42
-0.0119417348620529
 10
-75.736123459364535
 20
203.85355004455732
 10
-75.735706980287432
 20
203.85330825610072
 42
-0.0236934373653118
 10
-75.374809561754773
 20
203.62026167075283
 10
-75.374403233392513
 20
203.61997112649942
 42
-0.0117969846295853
 10
-75.031448320998607
 20
203.36230142896284
 42
-0.0235086983451281
 10
-74.707918891158442
 20
203.08144569918068
 10
-74.656170934510556
 20
203.03207260996578
 42
-0.0117397783201873
 10
-74.454224837222682
 20
202.83012756189692
 42
-0.011741588620196
 10
-74.261944569952902
 20
202.61888070075793
 42
-0.0117560120743283
 10
-74.079691653059854
 20
202.39869477829416
 42
-0.0117889497280909
 10
-73.907933517256424
 20
202.17007909020685
 10
-73.907827596663992
 20
202.1699309592741
 42
-0.0118271532857274
 10
-73.746850073432142
 20
201.9331604059862
 10
-73.746715053730441
 20
201.93295134621621
 42
-0.0118745780060784
 10
-73.596877736239549
 20
201.68839531730691
 10
-73.596716706433654
 20
201.68811791445205
 42
-0.0119299514570399
 10
-73.458379008008706
 20
201.43614687425634
 10
-73.458195387664091
 20
201.43579264615892
 42
-0.0119917349079951
 10
-73.33171626958756
 20
201.17677811149315
 10
-73.331514072440768
 20
201.17633754337476
 42
-0.0120581279478079
 10
-73.217251791901617
 20
200.91065204897677
 10
-73.217035878628849
 20
200.91011465516567
 42
-0.0121289715323169
 10
-73.115348769899356
 20
200.63813131101233
 10
-73.103089035717858
 20
200.6027464487388
 42
-0.018318056249741
 10
-72.996276416148248
 20
200.25361178432968
 10
-72.986869974297406
 20
200.21828920644793
 42
-0.0122960309551425
 10
-72.917708038924502
 20
199.93027347697398
 42
-0.0123545805379957
 10
-72.862823347361882
 20
199.63920029402107
 10
-72.862640426246799
 20
199.6380786763566
 42
-0.0124036746105636
 10
-72.821919407575479
 20
199.34239556039984
 10
-72.821774680069211
 20
199.34110935425815
 42
-0.0124470858656059
 10
-72.795567825549369
 20
199.04119099100626
 10
-72.795476641840651
 20
199.03972845478484
 42
-0.012452634971099
 10
-72.784121661897188
 20
198.73594967733743
 10
-72.78410310586878
 20
198.73446023538781
 42
-0.0124539013740464
 10
-72.787904476688709
 20
198.42911517690345
 10
-72.78795840800376
 20
198.4276721091228
 42
-0.0124572814702381
 10
-72.806781324517033
 20
198.12577692217292
 10
-72.806901326636762
 20
198.12440395363319
 42
-0.0124255049789362
 10
-72.840409943650229
 20
197.82655659284956
 10
-72.84057555914751
 20
197.82535423839636
 42
-0.0123806933726603
 10
-72.888422616128992
 20
197.53192937922904
 10
-72.888619521390865
 20
197.5308852922426
 42
-0.0123257460628034
 10
-72.950455659383806
 20
197.24225813286102
 10
-72.950671459716432
 20
197.24135958672241
 42
-0.0122633771985121
 10
-73.026145422425543
 20
196.95790551411756
 10
-73.026369573582087
 20
196.95713972867543
 42
-0.0121962686345662
 10
-73.115128322186138
 20
196.67923400994823
 42
-0.012138141027727
 10
-73.217301609352944
 20
196.4059744174283
 10
-73.244324418312317
 20
196.33872563597515
 42
-0.0240414797850879
 10
-73.424830795538583
 20
195.94530633314707
 10
-73.425361343158329
 20
195.94428283586831
 42
-0.0119417348607558
 10
-73.632757214163576
 20
195.56654886737579
 10
-73.632999002621546
 20
195.56613238829505
 42
-0.0236934373641142
 10
-73.866045587968074
 20
195.20523496976648
 10
-73.866336132195102
 20
195.20482864144196
 42
-0.0117969846317723
 10
-74.124005829758062
 20
194.86187372900986
 42
-0.0235086983445128
 10
-74.404861559540223
 20
194.5383442991706
 10
-74.454234648757847
 20
194.48659634251999
 42
-0.0117397783224937
 10
-74.656179696823529
 20
194.28465024523484
 42
-0.0117415886190223
 10
-74.867426557962972
 20
194.09236997796597
 42
-0.0117560120730018
 10
-75.087612480427197
 20
193.91011706107201
 42
-0.0117889497287929
 10
-75.31622816852996
 20
193.73835892525722
 10
-75.316376299446347
 20
193.73825300467615
 42
-0.0118271532833124
 10
-75.553146852736063
 20
193.57727548144339
 10
-75.55335591250423
 20
193.5771404617426
 42
-0.0118745780064777
 10
-75.797911941383973
 20
193.42730314426854
 10
-75.798189344268394
 20
193.42714211444536
 42
-0.0119299514554477
 10
-76.05016038447684
 20
193.2888044160145
 10
-76.050514612561528
 20
193.28862079567625
 42
-0.0119917349080802
 10
-76.309529147227295
 20
193.16214167760063
 10
-76.309969715346597
 20
193.16193948045293
 42
-0.0120581279510122
 10
-76.575655209757315
 20
193.04767719990923
 10
-76.576192603555683
 20
193.04746128664101
 42
-0.0121270862097302
 10
-76.848175589211678
 20
192.94577314321168
 10
-76.848821154129837
 20
192.94554946995959
 42
-0.012196345742717
 10
-77.126727360538098
 20
192.85679156142533
 10
-77.12749314255052
 20
192.85656741410412
 42
-0.0122634564834423
 10
-77.410947677596596
 20
192.78109441023116
 10
-77.411846215974947
 20
192.78087861530003
 42
-0.0123258255512972
 10
-77.700473793863239
 20
192.71904355948709
 10
-77.701517868191331
 20
192.7188466609814
 42
-0.0123807700085089
 10
-77.994943081193014
 20
192.67100080967339
 10
-77.996145415681895
 20
192.67083520225242
 42
-0.012438261476465
 10
-78.293993701666295
 20
192.63733548634627
 10
-78.333571342460345
 20
192.63387847390641
 42
-0.0186809512861551
 10
-78.712113107001642
 20
192.61502328719507
 10
-78.751121232610785
 20
192.61453911817671
 42
-0.0031032464012464
 10
-78.827940925354596
 20
192.61406233271509
 42
-0.0031032464012464
  0
POLYLINE
  5
D1
100
AcDbEntity
  8
TFM73-7001
370
              18
390
0
  6
Continuous
 62
             250
100
AcDb2dPolyline
 66
               1
 10
0.0
 20
0.0
 30
0.0
 75
               5
  0
VERTEX
  5
D2
100
AcDbEntity
  8
TFM73-7001
370
              18
390
0
  6
Continuous
 62
             250
100
AcDbVertex
100
AcDb2dVertex
 10
-117.53682695801763
 20
295.37039258298591
 30
0.0
  0
VERTEX
  5
D3
100
AcDbEntity
  8
TFM73-7001
370
              18
390
0
  6
Continuous
 62
             250
100
AcDbVertex
100
AcDb2dVertex
 10
-153.80391585760481
 20
295.37039258298591
 30
0.0
  0
VERTEX
  5
D4
100
AcDbEntity
  8
TFM73-7001
370
              18
390
0
  6
Continuous
 62
             250
100
AcDbVertex
100
AcDb2dVertex
 10
-153.80391585760481
 20
385.82627030760023
 30
0.0
  0
VERTEX
  5
D5
100
AcDbEntity
  8
TFM73-7001
370
              18
390
0
  6
Continuous
 62
             250
100
AcDbVertex
100
AcDb2dVertex
 10
-117.53682695801763
 20
385.82627030760023
 30
0.0
  0
VERTEX
  5
D6
100
AcDbEntity
  8
TFM73-7001
370
              18
390
0
  6
Continuous
 62
             250
100
AcDbVertex
100
AcDb2dVertex
 10
-117.53682695801763
 20
295.37039258298591
 30
0.0
  0
SEQEND
  5
D7
100
AcDbEntity
  8
TFM73-7001
370
              18
390
0
  6
Continuous
 62
             250
  0
LINE
  5
D8
100
AcDbEntity
  8
TFM73-7001
370
              18
390
0
  6
Continuous
 62
             250
100
AcDbLine
 10
-152.23923990305775
 20
234.3992586306158
 30
0.0
 11
-118.8864706471868
 21
234.3992586306158
 31
0.0
  0
LINE
  5
D9
100
AcDbEntity
  8
TFM73-7001
370
              18
390
0
  6
Continuous
 62
             250
100
AcDbLine
 10
57.60876656156961
 20
-15.512505087853697
 30
0.0
 11
57.608766569944237
 21
-15.512505083630458
 31
0.0
  0
LINE
  5
DA
100
AcDbEntity
  8
TFM73-7001
370
              18
390
0
  6
Continuous
 62
             250
100
AcDbLine
 10
57.60876656156961
 20
1.7014602035274038
 30
0.0
 11
57.608766569944237
 21
1.7014602079229917
 31
0.0
  0
LINE
  5
DB
100
AcDbEntity
  8
TFM73-7001
370
              18
390
0
  6
Continuous
 62
             250
100
AcDbLine
 10
57.60876656156961
 20
1.7014602035274038
 30
0.0
 11
57.608766569944237
 21
1.7014602079229917
 31
0.0
  0
LINE
  5
DC
100
AcDbEntity
  8
TFM73-7001
370
              18
390
0
  6
Continuous
 62
             250
100
AcDbLine
 10
16.290949216947411
 20
1.7014602035274038
 30
0.0
 11
16.290949224909127
 21
1.7014602079229917
 31
0.0
  0
LINE
  5
DD
100
AcDbEntity
  8
TFM73-7001
370
              18
390
0
  6
Continuous
 62
             250
100
AcDbLine
 10
16.290949216947411
 20
1.7014602035274038
 30
0.0
 11
16.290949224909127
 21
1.7014602079229917
 31
0.0
  0
LINE
  5
DE
100
AcDbEntity
  8
TFM73-7001
370
              18
390
0
  6
Continuous
 62
             250
100
AcDbLine
 10
0.1534101481365724
 20
-16.588931310424414
 30
0.0
 11
0.1534101559373085
 21
-16.588931306212089
 31
0.0
  0
LINE
  5
DF
100
AcDbEntity
  8
TFM73-7001
370
              18
390
0
  6
Continuous
 62
             250
100
AcDbLine
 10
57.60876656156961
 20
1.7014602035274038
 30
0.0
 11
57.608766569944237
 21
1.7014602079229917
 31
0.0
  0
LWPOLYLINE
  5
E0
100
AcDbEntity
  8
TFM73-7001
370
              18
390
0
  6
Continuous
 62
             250
100
AcDbPolyline
 90
       66
 70
             128
 10
57.232183933015222
 20
-332.14614801138032
 42
0.0044568192589161
 10
57.243682119458754
 20
-332.07346826990306
 10
57.259428005107111
 20
-331.96784747689981
 42
0.0097802696057347
 10
57.296199846348827
 20
-331.68310431090322
 10
57.329945710018364
 20
-331.37436419417554
 42
0.0162636628608884
 10
57.39918763384776
 20
-330.46916859833254
 10
57.416722796070644
 20
-330.06926814424332
 42
0.0210617059025325
 10
57.419277556709858
 20
-328.56961188167315
 10
57.412225073986519
 20
-328.39519933521342
 42
0.0127510480123328
 10
57.336379344332272
 20
-327.24619504214888
 42
0.0145398085411358
 10
57.197980512363756
 20
-326.10315072471622
 10
57.192291631842636
 20
-326.06539992155649
 42
0.0166067181099288
 10
56.969165466337472
 20
-324.8582922648593
 10
56.962562024360523
 20
-324.82819640696698
 42
0.0189669080469136
 10
56.63878246430977
 20
-323.58059647981963
 10
56.586495750144422
 20
-323.40655578219776
 42
0.0216517615615668
 10
56.249253215359204
 20
-322.43826130319758
 42
0.011819636780012
 10
55.847737344739471
 20
-321.49407033324815
 10
55.840635896858657
 20
-321.47840940966717
 42
0.0258551700810696
 10
55.353910612965592
 20
-320.53757502851613
 10
55.351891448925926
 20
-320.53412188107905
 42
0.0140130877517833
 10
54.787027513100838
 20
-319.62740085643281
 10
54.776097992005816
 20
-319.61090537363179
 42
0.0298269173780249
 10
54.111166593334929
 20
-318.72672849607125
 10
54.107990459079701
 20
-318.72299144288036
 42
0.0158641551355343
 10
53.357633301830901
 20
-317.89485504443337
 10
53.338414894527887
 20
-317.87495158715046
 42
0.0324981172817041
 10
52.472083248015224
 20
-317.08718965856133
 10
52.323722484378777
 20
-316.96893368118481
 42
0.0165236753181502
 10
51.657483246619449
 20
-316.47297639274166
 42
0.0166106376564417
 10
50.959870773730472
 20
-316.02222453135482
 10
50.852265511723999
 20
-315.95765907966415
 42
0.0246426764414627
 10
49.899327507752787
 20
-315.44795271084422
 10
49.795702319379416
 20
-315.3989292254364
 10
-1.0072558304727863
 20
-315.3989292254364
 10
-1.1109158344752359
 20
-315.4479755711277
 42
0.0247908743513817
 10
-2.0627584870053397
 20
-315.95752040849356
 42
0.016586293514394
 10
-2.9698482357780449
 20
-316.54438708572206
 10
-3.0282282033440424
 20
-316.58496589872084
 42
0.0333255951536439
 10
-3.9817767237473163
 20
-317.34671480234147
 10
-4.1361291122429975
 20
-317.48784214328998
 42
0.0322987373971968
 10
-5.1789333882097708
 20
-318.57288329881158
 10
-5.1951980383373666
 20
-318.59215516063614
 42
0.0302424741807071
 10
-6.0646844229850103
 20
-319.75872444506331
 10
-6.0759668488371972
 20
-319.77594347470722
 42
0.0275840240944902
 10
-6.784692373330472
 20
-320.9998424590467
 10
-6.7933913331307849
 20
-321.01697879109997
 42
0.0246799292697433
 10
-7.3550890767564852
 20
-322.27347610637116
 10
-7.3625977059346042
 20
-322.29277578162328
 42
0.0218053455627326
 10
-7.7920532355110481
 20
-323.55715372706163
 10
-7.7989413209215854
 20
-323.58076706559677
 42
0.0191295721439713
 10
-8.1116945555913844
 20
-324.82862614716305
 10
-8.1179595933062956
 20
-324.85841129274877
 42
0.016733043995181
 10
-8.3300064157265297
 20
-326.06576849972089
 42
0.0147449440989895
 10
-8.4656963973147867
 20
-327.28422642438318
 10
-8.4831109472779644
 20
-327.49764597216381
 42
0.0239518082627404
 10
-8.5385099972709213
 20
-329.14960068313485
 10
-8.5321850232066936
 20
-329.58967362253679
 42
0.0186215397006303
 10
-8.4697979578941158
 20
-330.79740947814116
 10
-8.4399965959682959
 20
-331.13194179187576
 42
0.0114089877645359
 10
-8.3800081467124983
 20
-331.66691973440993
 10
-8.3558717324549434
 20
-331.84531190495545
 42
0.0065251425611141
 10
-8.3296441663369478
 20
-332.02179422153404
 10
-8.3212716987691238
 20
-332.07348313995044
 42
0.0039373031304746
 10
-8.3089136090393367
 20
-332.14614801138032
 10
57.232183933015222
 20
-332.14614801138032
  0
LWPOLYLINE
  5
E1
100
AcDbEntity
  8
TFM73-7001
370
              18
390
0
  6
Continuous
 62
             250
100
AcDbPolyline
 90
        5
 70
             128
 10
40.433408743971086
 20
-332.14614801138032
 10
8.4334087439710856
 20
-332.14614801138032
 10
8.4334087439710856
 20
-351.99109631445026
 10
40.433408743971086
 20
-351.99109631445026
 10
40.433408743971086
 20
-332.14614801138032
  0
ARC
  5
E2
100
AcDbEntity
  8
TFM73-7001
370
               5
390
0
  6
Continuous
 62
               7
100
AcDbCircle
 10
-15.556958481497531
 20
208.0089036855511
 30
0.0
 40
24.000000000000487
100
AcDbArc
 50
1.0627363607130877
 51
181.06273636071313
  0
ARC
  5
E3
100
AcDbEntity
  8
TFM73-7001
370
               5
390
0
  6
Continuous
 62
               7
100
AcDbCircle
 10
-15.556958481497531
 20
208.0089036855511
 30
0.0
 40
55.999999999999908
100
AcDbArc
 50
1.0627363607128004
 51
181.06273636071282
  0
ARC
  5
E4
100
AcDbEntity
  8
TFM73-7001
370
               5
390
0
  6
STYLE_06
 62
               7
100
AcDbCircle
 10
-15.556958481497531
 20
208.0089036855511
 30
0.0
 40
40.000000000000206
100
AcDbArc
 50
1.0627363607135381
 51
181.06273636071288
  0
ARC
  5
E5
100
AcDbEntity
  8
TFM73-7001
370
               5
390
0
  6
Continuous
 62
               7
100
AcDbCircle
 10
-95.245922534612873
 20
188.0089036855511
 30
0.0
 40
23.999999999999577
100
AcDbArc
 50
181.06273636071313
 51
1.0627363607130746
  0
ARC
  5
E6
100
AcDbEntity
  8
TFM73-7001
370
               5
390
0
  6
Continuous
 62
               7
100
AcDbCircle
 10
-95.245922534612873
 20
188.0089036855511
 30
0.0
 40
55.999999999999908
100
AcDbArc
 50
181.06273636071282
 51
1.0627363607127904
  0
ARC
  5
E7
100
AcDbEntity
  8
TFM73-7001
370
               5
390
0
  6
STYLE_01
 62
               7
100
AcDbCircle
 10
-95.245922534612873
 20
188.0089036855511
 30
0.0
 40
40.000000000000199
100
AcDbArc
 50
181.06273636071288
 51
1.0627363607135294
  0
LINE
  5
E8
100
AcDbEntity
  8
TFM73-7001
370
               5
390
0
  6
STYLE_06
 62
               7
100
AcDbLine
 10
-135.23904198137643
 20
187.26701628377214
 30
0.0
 11
-135.23904198137643
 21
415.48121362425582
 31
0.0
  0
LINE
  5
E9
100
AcDbEntity
  8
TFM73-7001
370
               5
390
0
  6
STYLE_01
 62
               7
100
AcDbLine
 10
24.436160965266026
 20
208.75079108733053
 30
0.0
 11
24.436160965266026
 21
-382.51878637574555
 31
0.0
  0
LINE
  5
EA
100
AcDbEntity
  8
TFM73-7001
370
               5
390
0
  6
Continuous
 62
               7
100
AcDbLine
 10
-151.23628976008149
 20
186.97026132306064
 30
0.0
 11
-151.23628976008149
 21
232.48121362425582
 31
0.0
  0
LINE
  5
EB
100
AcDbEntity
  8
TFM73-7001
370
               5
390
0
  6
Continuous
 62
               7
100
AcDbLine
 10
-119.24179420267046
 20
187.56377124448363
 30
0.0
 11
-119.24179420267046
 21
232.48121362425582
 31
0.0
  0
LINE
  5
EC
100
AcDbEntity
  8
TFM73-7001
370
               5
390
0
  6
Continuous
 62
               7
100
AcDbLine
 10
-74.650673587440906
 20
192.61406233271509
 30
0.0
 11
-71.250050866554375
 21
191.20780407374241
 31
0.0
  0
LINE
  5
ED
100
AcDbEntity
  8
TFM73-7001
370
               5
390
0
  6
Continuous
 62
               7
100
AcDbLine
 10
-119.24179420267046
 20
232.48121362425582
 30
0.0
 11
-116.06954797073013
 21
234.83122050489101
 31
0.0
  0
LINE
  5
EE
100
AcDbEntity
  8
TFM73-7001
370
               5
390
0
  6
Continuous
 62
               7
100
AcDbLine
 10
-116.06954797073013
 20
234.83122050489101
 30
0.0
 11
-116.06954797073013
 21
282.84982270740829
 31
0.0
  0
LINE
  5
EF
100
AcDbEntity
  8
TFM73-7001
370
               5
390
0
  6
Continuous
 62
               7
100
AcDbLine
 10
-71.250050866554375
 20
188.45403612661858
 30
0.0
 11
-71.250050866554375
 21
191.20780407374241
 31
0.0
  0
LINE
  5
F0
100
AcDbEntity
  8
TFM73-7001
370
               5
390
0
  6
Continuous
 62
               7
100
AcDbLine
 10
-151.23628976008149
 20
232.48121362425582
 30
0.0
 11
-154.40853599202273
 21
234.83122050489101
 31
0.0
  0
LINE
  5
F1
100
AcDbEntity
  8
TFM73-7001
370
               5
390
0
  6
Continuous
 62
               7
100
AcDbLine
 10
-154.40853599202273
 20
234.83122050489101
 30
0.0
 11
-154.40853599202273
 21
282.84982270740829
 31
0.0
  0
LINE
  5
F2
100
AcDbEntity
  8
TFM73-7001
370
               5
390
0
  6
Continuous
 62
               7
100
AcDbLine
 10
-39.255555309144256
 20
189.04754604804157
 30
0.0
 11
-39.255555309144256
 21
191.20780407374241
 31
0.0
  0
LINE
  5
F3
100
AcDbEntity
  8
TFM73-7001
370
               5
390
0
  6
Continuous
 62
               7
100
AcDbLine
 10
-35.854932588257725
 20
192.61406233271509
 30
0.0
 11
-39.255555309144256
 21
191.20780407374241
 31
0.0
  0
LINE
  5
F4
100
AcDbEntity
  8
TFM73-7001
370
               5
390
0
  6
Continuous
 62
               7
100
AcDbLine
 10
40.433408743971086
 20
209.04754604804157
 30
0.0
 11
40.433408743971086
 21
-315.3989292254364
 31
0.0
  0
LINE
  5
F5
100
AcDbEntity
  8
TFM73-7001
370
               5
390
0
  6
Continuous
 62
               7
100
AcDbLine
 10
8.438913186560967
 20
208.45403612661858
 30
0.0
 11
8.438913186560967
 21
-315.3989292254364
 31
0.0
  0
LINE
  5
F6
100
AcDbEntity
  8
TFM73-7001
370
               5
390
0
  6
Continuous
 62
               7
100
AcDbLine
 10
-74.944267448370738
 20
204.70270710188015
 30
0.0
 11
-71.543644727485116
 21
206.10896536085238
 31
0.0
  0
LINE
  5
F7
100
AcDbEntity
  8
TFM73-7001
370
               5
390
0
  6
Continuous
 62
               7
100
AcDbLine
 10
-36.163517438402778
 20
204.70270710188015
 30
0.0
 11
-39.564140159289309
 21
206.10896536085238
 31
0.0
  0
LINE
  5
F8
100
AcDbEntity
  8
TFM73-7001
370
               5
390
0
  6
Continuous
 62
               7
100
AcDbLine
 10
-39.55283014955512
 20
207.56377124448363
 30
0.0
 11
-39.55283014955512
 21
206.10896536085238
 31
0.0
  0
LINE
  5
F9
100
AcDbEntity
  8
TFM73-7001
370
               5
390
0
  6
Continuous
 62
               7
100
AcDbLine
 10
-71.547325706966149
 20
206.97026132306064
 30
0.0
 11
-71.547325706966149
 21
206.10896536085238
 31
0.0
  0
DIMENSION
  5
FA
100
AcDbEntity
  8
TFM73-7001
370
               5
390
0
  6
Continuous
 62
               7
100
AcDbDimension
  2
*D9
 10
-8.4798246948066662
 20
-434.0
 30
0.0
 11
24.459681469520547
 21
-434.0
 31
0.0
 71
               5
 72
               1
 41
1.0
 42
0.0
  1
φ66
  3
tfrom線あり
100
AcDbAlignedDimension
 13
57.39918763384776
 23
-330.46916859833254
 33
0.0
 14
-8.4798246948066662
 24
-330.48288512361069
 34
0.0
100
AcDbRotatedDimension
1001
ACAD
1000
DSTYLE
1002
{
1070
             279
1070
               2
1070
             340
1005
2B
1070
             147
1040
2.5
1002
}
  0
MTEXT
  5
FB
100
AcDbEntity
  8
TFM73-7001
390
0
 62
               7
100
AcDbMText
 10
413.09374915891203
 20
-627.49869140625015
 30
0.0
 40
12.216308593750002
 41
0.0
 71
               1
 72
               1
  1
1:5
  7
ＭＳ ゴシック
 73
               1
 44
0.7828267384257843
  0
ENDSEC
  0
SECTION
  2
OBJECTS
  0
DICTIONARY
  5
19
100
AcDbDictionary
280
               0
281
               1
  3
ACAD_GROUP
350
1A
  3
ACAD_MLINESTYLE
350
1B
  3
ACAD_LAYOUT
350
1E
  3
ACAD_PLOTSETTINGS
350
22
  3
ACAD_PLOTSTYLENAME
350
1F
  0
DICTIONARY
  5
1A
102
{ACAD_REACTORS
330
19
102
}
100
AcDbDictionary
280
               0
281
               1
  0
DICTIONARY
  5
1B
102
{ACAD_REACTORS
330
19
102
}
100
AcDbDictionary
280
               0
281
               1
  3
Standard
350
1C
  0
MLINESTYLE
  5
1C
102
{ACAD_REACTORS
330
1B
102
}
100
AcDbMlineStyle
  2
Standard
 70
               0
  3

 62
               0
 51
90.0
 52
90.0
 71
               2
 49
0.5
 62
             256
  6
ByLayer
 49
-0.5
 62
             256
  6
ByLayer
  0
ACDBDICTIONARYWDFLT
  5
1F
102
{ACAD_REACTORS
330
19
102
}
100
AcDbDictionary
281
               1
  3
Normal
350
1D
100
AcDbDictionaryWithDefault
340
1D
  0
ACDBPLACEHOLDER
  5
1D
102
{ACAD_REACTORS
330
1F
102
}
  0
LAYOUT
  5
20
102
{ACAD_REACTORS
330
1E
102
}
100
AcDbPlotSettings
  1

  2

  4

  6

 40
0.0
 41
0.0
 42
0.0
 43
0.0
 44
0.0
 45
0.0
 46
0.0
 47
0.0
 48
0.0
 49
0.0
140
0.0
141
0.0
142
1.0
143
1.0
 70
            1024
 72
               0
 73
               0
 74
               0
  7

 75
               0
147
1.0
148
0.0
149
0.0
100
AcDbLayout
  1
Model
 70
               0
 71
               0
 10
0.0
 20
0.0
 11
0.0
 21
0.0
 12
0.0
 22
0.0
 32
0.0
 14
0.0
 24
0.0
 34
0.0
 15
0.0
 25
0.0
 35
0.0
146
0.0
 13
0.0
 23
0.0
 33
0.0
 16
0.0
 26
0.0
 36
0.0
 17
0.0
 27
0.0
 37
0.0
 76
               0
330
A
331
0
345
0
346
0
  0
LAYOUT
  5
21
102
{ACAD_REACTORS
330
1E
102
}
100
AcDbPlotSettings
  1

  2

  4

  6

 40
0.0
 41
0.0
 42
0.0
 43
0.0
 44
0.0
 45
0.0
 46
0.0
 47
0.0
 48
0.0
 49
0.0
140
0.0
141
0.0
142
1.0
143
1.0
 70
               0
 72
               0
 73
               0
 74
               0
  7

 75
               0
147
1.0
148
0.0
149
0.0
100
AcDbLayout
  1
Layout1
 70
               0
 71
               0
 10
0.0
 20
0.0
 11
0.0
 21
0.0
 12
0.0
 22
0.0
 32
0.0
 14
0.0
 24
0.0
 34
0.0
 15
0.0
 25
0.0
 35
0.0
146
0.0
 13
0.0
 23
0.0
 33
0.0
 16
0.0
 26
0.0
 36
0.0
 17
0.0
 27
0.0
 37
0.0
 76
               0
330
B
331
0
345
0
346
0
  0
DICTIONARY
  5
1E
102
{ACAD_REACTORS
330
19
102
}
100
AcDbDictionary
280
               0
281
               1
  3
Layout1
350
21
  3
Model
350
20
  0
DICTIONARY
  5
22
102
{ACAD_REACTORS
330
19
102
}
100
AcDbDictionary
280
               0
281
               1
  0
ENDSEC
  0
EOF
