  0
SECTION
  2
HEADER
  9
$ACADVER
  1
AC1021
  9
$ACADMAINTVER
 70
    25
  9
$DWGCODEPAGE
  3
ANSI_932
  9
$LASTSAVEDBY
  1
howeNelson
  9
$INSBASE
 10
0.0
 20
0.0
 30
0.0
  9
$EXTMIN
 10
0.0
 20
0.0
 30
-0.0000000000000071
  9
$EXTMAX
 10
519.6741912622088
 20
594.0
 30
0.0000000000000071
  9
$LIMMIN
 10
0.0
 20
0.0
  9
$LIMMAX
 10
420.0
 20
594.0
  9
$ORTHOMODE
 70
     0
  9
$REGENMODE
 70
     1
  9
$FILLMODE
 70
     1
  9
$QTEXTMODE
 70
     0
  9
$MIRRTEXT
 70
     1
  9
$LTSCALE
 40
1.0
  9
$ATTMODE
 70
     1
  9
$TEXTSIZE
 40
2.5
  9
$TRACEWID
 40
1.0
  9
$TEXTSTYLE
  7
ＭＳ ゴシック
  9
$CLAYER
  8
DIM
  9
$CELTYPE
  6
ByLayer
  9
$CECOLOR
 62
   256
  9
$CELTSCALE
 40
0.05
  9
$DISPSILH
 70
     0
  9
$DIMSCALE
 40
1.0
  9
$DIMASZ
 40
2.0
  9
$DIMEXO
 40
5.0
  9
$DIMDLI
 40
0.9999999999999999
  9
$DIMRND
 40
0.0
  9
$DIMDLE
 40
0.0
  9
$DIMEXE
 40
0.0
  9
$DIMTP
 40
0.0
  9
$DIMTM
 40
0.0
  9
$DIMTXT
 40
5.0
  9
$DIMCEN
 40
0.0
  9
$DIMTSZ
 40
0.0
  9
$DIMTOL
 70
     0
  9
$DIMLIM
 70
     0
  9
$DIMTIH
 70
     0
  9
$DIMTOH
 70
     0
  9
$DIMSE1
 70
     0
  9
$DIMSE2
 70
     0
  9
$DIMTAD
 70
     1
  9
$DIMZIN
 70
    11
  9
$DIMBLK
  1
DOT
  9
$DIMASO
 70
     1
  9
$DIMSHO
 70
     1
  9
$DIMPOST
  1
<>
  9
$DIMAPOST
  1
[]
  9
$DIMALT
 70
     0
  9
$DIMALTD
 70
     1
  9
$DIMALTF
 40
1.0
  9
$DIMLFAC
 40
1.0
  9
$DIMTOFL
 70
     0
  9
$DIMTVP
 40
0.0
  9
$DIMTIX
 70
     1
  9
$DIMSOXD
 70
     0
  9
$DIMSAH
 70
     0
  9
$DIMBLK1
  1

  9
$DIMBLK2
  1

  9
$DIMSTYLE
  2
tfrom線あり
  9
$DIMCLRD
 70
     0
  9
$DIMCLRE
 70
     0
  9
$DIMCLRT
 70
     0
  9
$DIMTFAC
 40
1.0
  9
$DIMGAP
 40
3.0
  9
$DIMJUST
 70
     0
  9
$DIMSD1
 70
     0
  9
$DIMSD2
 70
     0
  9
$DIMTOLJ
 70
     1
  9
$DIMTZIN
 70
    11
  9
$DIMALTZ
 70
    11
  9
$DIMALTTZ
 70
    11
  9
$DIMUPT
 70
     0
  9
$DIMDEC
 70
     0
  9
$DIMTDEC
 70
     1
  9
$DIMALTU
 70
     2
  9
$DIMALTTD
 70
     2
  9
$DIMTXSTY
  7
ＭＳ ゴシック
  9
$DIMAUNIT
 70
     0
  9
$DIMADEC
 70
     2
  9
$DIMALTRND
 40
0.0
  9
$DIMAZIN
 70
     0
  9
$DIMDSEP
 70
    46
  9
$DIMATFIT
 70
     0
  9
$DIMFRAC
 70
     2
  9
$DIMLDRBLK
  1
DOT
  9
$DIMLUNIT
 70
     2
  9
$DIMLWD
 70
    -2
  9
$DIMLWE
 70
    -2
  9
$DIMTMOVE
 70
     0
  9
$DIMFXL
 40
1.0
  9
$DIMFXLON
 70
     0
  9
$DIMJOGANG
 40
0.7853981633974483
  9
$DIMTFILL
 70
     0
  9
$DIMTFILLCLR
 70
     0
  9
$DIMARCSYM
 70
     0
  9
$DIMLTYPE
  6

  9
$DIMLTEX1
  6

  9
$DIMLTEX2
  6

  9
$LUNITS
 70
     2
  9
$LUPREC
 70
     0
  9
$SKETCHINC
 40
0.1
  9
$FILLETRAD
 40
0.0
  9
$AUNITS
 70
     0
  9
$AUPREC
 70
     0
  9
$MENU
  1
acad
  9
$ELEVATION
 40
0.0
  9
$PELEVATION
 40
0.0
  9
$THICKNESS
 40
0.0
  9
$LIMCHECK
 70
     0
  9
$CHAMFERA
 40
0.0
  9
$CHAMFERB
 40
0.0
  9
$CHAMFERC
 40
0.0
  9
$CHAMFERD
 40
0.0
  9
$SKPOLY
 70
     0
  9
$TDCREATE
 40
2447893.375
  9
$TDUCREATE
 40
0.0
  9
$TDUPDATE
 40
2458367.458753333
  9
$TDUUPDATE
 40
2458367.083753333
  9
$TDINDWG
 40
0.1358818171
  9
$TDUSRTIMER
 40
0.0000138426
  9
$USRTIMER
 70
     1
  9
$ANGBASE
 50
0.0
  9
$ANGDIR
 70
     0
  9
$PDMODE
 70
     1
  9
$PDSIZE
 40
-2.0
  9
$PLINEWID
 40
0.0
  9
$SPLFRAME
 70
     0
  9
$SPLINETYPE
 70
     6
  9
$SPLINESEGS
 70
     8
  9
$HANDSEED
  5
57A2
  9
$SURFTAB1
 70
     6
  9
$SURFTAB2
 70
     6
  9
$SURFTYPE
 70
     6
  9
$SURFU
 70
     6
  9
$SURFV
 70
     6
  9
$UCSBASE
  2

  9
$UCSNAME
  2

  9
$UCSORG
 10
0.0
 20
0.0
 30
0.0
  9
$UCSXDIR
 10
1.0
 20
0.0
 30
0.0
  9
$UCSYDIR
 10
0.0
 20
1.0
 30
0.0
  9
$UCSORTHOREF
  2

  9
$UCSORTHOVIEW
 70
     0
  9
$UCSORGTOP
 10
0.0
 20
0.0
 30
0.0
  9
$UCSORGBOTTOM
 10
0.0
 20
0.0
 30
0.0
  9
$UCSORGLEFT
 10
0.0
 20
0.0
 30
0.0
  9
$UCSORGRIGHT
 10
0.0
 20
0.0
 30
0.0
  9
$UCSORGFRONT
 10
0.0
 20
0.0
 30
0.0
  9
$UCSORGBACK
 10
0.0
 20
0.0
 30
0.0
  9
$PUCSBASE
  2

  9
$PUCSNAME
  2

  9
$PUCSORG
 10
0.0
 20
0.0
 30
0.0
  9
$PUCSXDIR
 10
1.0
 20
0.0
 30
0.0
  9
$PUCSYDIR
 10
0.0
 20
1.0
 30
0.0
  9
$PUCSORTHOREF
  2

  9
$PUCSORTHOVIEW
 70
     0
  9
$PUCSORGTOP
 10
0.0
 20
0.0
 30
0.0
  9
$PUCSORGBOTTOM
 10
0.0
 20
0.0
 30
0.0
  9
$PUCSORGLEFT
 10
0.0
 20
0.0
 30
0.0
  9
$PUCSORGRIGHT
 10
0.0
 20
0.0
 30
0.0
  9
$PUCSORGFRONT
 10
0.0
 20
0.0
 30
0.0
  9
$PUCSORGBACK
 10
0.0
 20
0.0
 30
0.0
  9
$USERI1
 70
     0
  9
$USERI2
 70
     0
  9
$USERI3
 70
     0
  9
$USERI4
 70
     0
  9
$USERI5
 70
     0
  9
$USERR1
 40
0.0
  9
$USERR2
 40
0.0
  9
$USERR3
 40
0.0
  9
$USERR4
 40
0.0
  9
$USERR5
 40
0.0
  9
$WORLDVIEW
 70
     1
  9
$SHADEDGE
 70
     3
  9
$SHADEDIF
 70
    70
  9
$TILEMODE
 70
     1
  9
$MAXACTVP
 70
    64
  9
$PINSBASE
 10
0.0
 20
0.0
 30
0.0
  9
$PLIMCHECK
 70
     0
  9
$PEXTMIN
 10
0.0
 20
0.0
 30
0.0
  9
$PEXTMAX
 10
0.0
 20
0.0
 30
0.0
  9
$PLIMMIN
 10
-7.5
 20
-20.0
  9
$PLIMMAX
 10
412.5
 20
277.0
  9
$UNITMODE
 70
     0
  9
$VISRETAIN
 70
     0
  9
$PLINEGEN
 70
     1
  9
$PSLTSCALE
 70
     0
  9
$TREEDEPTH
 70
  3020
  9
$CMLSTYLE
  2
Standard
  9
$CMLJUST
 70
     0
  9
$CMLSCALE
 40
1.0
  9
$PROXYGRAPHICS
 70
     0
  9
$MEASUREMENT
 70
     1
  9
$CELWEIGHT
370
    -1
  9
$ENDCAPS
280
     0
  9
$JOINSTYLE
280
     0
  9
$LWDISPLAY
290
     1
  9
$INSUNITS
 70
     4
  9
$HYPERLINKBASE
  1

  9
$STYLESHEET
  1

  9
$XEDIT
290
     1
  9
$CEPSNTYPE
380
     0
  9
$PSTYLEMODE
290
     1
  9
$FINGERPRINTGUID
  2

  9
$VERSIONGUID
  2

  9
$EXTNAMES
290
     1
  9
$PSVPSCALE
 40
0.0
  9
$OLESTARTUP
290
     0
  9
$SORTENTS
280
   127
  9
$INDEXCTL
280
     0
  9
$HIDETEXT
280
     1
  9
$XCLIPFRAME
290
     0
  9
$HALOGAP
280
     0
  9
$OBSCOLOR
 70
   257
  9
$OBSLTYPE
280
     0
  9
$INTERSECTIONDISPLAY
280
     0
  9
$INTERSECTIONCOLOR
 70
   257
  9
$DIMASSOC
280
     2
  9
$PROJECTNAME
  1

  9
$CAMERADISPLAY
290
     0
  9
$LENSLENGTH
 40
50.0
  9
$CAMERAHEIGHT
 40
0.0
  9
$STEPSPERSEC
 40
2.0
  9
$STEPSIZE
 40
6.0
  9
$3DDWFPREC
 40
2.0
  9
$PSOLWIDTH
 40
0.25
  9
$PSOLHEIGHT
 40
4.0
  9
$LOFTANG1
 40
1.570796326794897
  9
$LOFTANG2
 40
1.570796326794897
  9
$LOFTMAG1
 40
0.0
  9
$LOFTMAG2
 40
0.0
  9
$LOFTPARAM
 70
     7
  9
$LOFTNORMALS
280
     1
  9
$LATITUDE
 40
37.795
  9
$LONGITUDE
 40
-122.394
  9
$NORTHDIRECTION
 40
0.0
  9
$TIMEZONE
 70
 -8000
  9
$LIGHTGLYPHDISPLAY
280
     1
  9
$TILEMODELIGHTSYNCH
280
     1
  9
$SOLIDHIST
280
     1
  9
$SHOWHIST
280
     1
  9
$DWFFRAME
280
     2
  9
$DGNFRAME
280
     2
  9
$REALWORLDSCALE
290
     1
  9
$INTERFERECOLOR
 62
   256
  9
$CSHADOW
280
     0
  9
$SHADOWPLANELOCATION
 40
0.0
  0
ENDSEC
  0
SECTION
  2
CLASSES
  0
CLASS
  1
LWPOLYLINE
  2
AcDbPolyline
  3
ObjectDBX Classes
 90
        0
 91
        1
280
     0
281
     1
  0
CLASS
  1
IMAGE
  2
AcDbRasterImage
  3
ISM
 90
      127
 91
        6
280
     0
281
     1
  0
CLASS
  1
OLE2FRAME
  2
AcDbOle2Frame
  3
ObjectDBX Classes
 90
        0
 91
        1
280
     0
281
     1
  0
CLASS
  1
HATCH
  2
AcDbHatch
  3
ObjectDBX Classes
 90
        0
 91
        1
280
     0
281
     1
  0
CLASS
  1
DICTIONARYVAR
  2
AcDbDictionaryVar
  3
ObjectDBX Classes
 90
        0
 91
        5
280
     0
281
     0
  0
CLASS
  1
RASTERVARIABLES
  2
AcDbRasterVariables
  3
ISM
 90
        0
 91
        5
280
     0
281
     0
  0
CLASS
  1
IMAGEDEF
  2
AcDbRasterImageDef
  3
ISM
 90
        0
 91
        5
280
     0
281
     0
  0
CLASS
  1
IMAGEDEF_REACTOR
  2
AcDbRasterImageDefReactor
  3
ISM
 90
        1
 91
        5
280
     0
281
     0
  0
CLASS
  1
IDBUFFER
  2
AcDbIdBuffer
  3
ObjectDBX Classes
 90
        0
 91
        5
280
     0
281
     0
  0
CLASS
  1
SPATIAL_FILTER
  2
AcDbSpatialFilter
  3
ObjectDBX Classes
 90
        0
 91
        5
280
     0
281
     0
  0
CLASS
  1
XRECORD
  2
AcDbXrecord
  3
ObjectDBX Classes
 90
        0
 91
        1
280
     0
281
     0
  0
CLASS
  1
SORTENTSTABLE
  2
AcDbSortentsTable
  3
ObjectDBX Classes
 90
        0
 91
        5
280
     0
281
     0
  0
CLASS
  1
LAYER_INDEX
  2
AcDbLayerIndex
  3
ObjectDBX Classes
 90
        0
 91
        5
280
     0
281
     0
  0
CLASS
  1
SPATIAL_INDEX
  2
AcDbSpatialIndex
  3
AutoCAD 2000
 90
        0
 91
        5
280
     0
281
     0
  0
CLASS
  1
OBJECT_PTR
  2
CAseDLPNTableRecord
  3
ASE-LPNTableRecord
 90
        1
 91
        5
280
     0
281
     0
  0
CLASS
  1
LAYOUT
  2
AcDbLayout
  3
ObjectDBX Classes
 90
        0
 91
        1
280
     0
281
     0
  0
CLASS
  1
PLOTSETTINGS
  2
AcDbPlotSettings
  3
ObjectDBX Classes
 90
        0
 91
        5
280
     0
281
     0
  0
CLASS
  1
ACDBDICTIONARYWDFLT
  2
AcDbDictionaryWithDefault
  3
ObjectDBX Classes
 90
        0
 91
        5
280
     0
281
     0
  0
CLASS
  1
ACDBPLACEHOLDER
  2
AcDbPlaceHolder
  3
ObjectDBX Classes
 90
        0
 91
        1
280
     0
281
     0
  0
CLASS
  1
SCALE
  2
AcDbScale
  3
ObjectDBX Classes
 90
     1153
 91
        5
280
     0
281
     0
  0
CLASS
  1
MATERIAL
  2
AcDbMaterial
  3
ObjectDBX Classes
 90
     1153
 91
        5
280
     0
281
     0
  0
CLASS
  1
VISUALSTYLE
  2
AcDbVisualStyle
  3
ObjectDBX Classes
 90
     4095
 91
        5
280
     0
281
     0
  0
CLASS
  1
TABLESTYLE
  2
AcDbTableStyle
  3
ObjectDBX Classes
 90
     4095
 91
        5
280
     0
281
     0
  0
CLASS
  1
DIMASSOC
  2
AcDbDimAssoc
  3
"AcDbDimAssoc|Product Desc:     AcDim ARX App For Dimension|Company:          Autodesk, Inc.|WEB Address:      www.autodesk.com"
 90
        0
 91
        5
280
     0
281
     0
  0
CLASS
  1
CELLSTYLEMAP
  2
AcDbCellStyleMap
  3
ObjectDBX Classes
 90
     1152
 91
        5
280
     0
281
     0
  0
CLASS
  1
SUN
  2
AcDbSun
  3
SCENEOE
 90
     1153
 91
        5
280
     0
281
     0
  0
CLASS
  1
MLEADERSTYLE
  2
AcDbMLeaderStyle
  3
ACDB_MLEADERSTYLE_CLASS
 90
     4095
 91
        5
280
     0
281
     0
  0
ENDSEC
  0
SECTION
  2
TABLES
  0
TABLE
  2
VPORT
  5
7
330
0
100
AcDbSymbolTable
 70
     1
  0
VPORT
  5
15
330
7
100
AcDbSymbolTableRecord
100
AcDbViewportTableRecord
  2
*ACTIVE
 70
     0
 10
0.0
 20
0.0
 11
1.0
 21
1.0
 12
301.0201356709001
 22
223.401285469834
 13
0.0
 23
0.0
 14
1.0
 24
1.0
 15
0.0
 25
0.0
 16
0.0
 26
0.0
 36
1.0
 17
-91.02013567090012
 27
73.59871453016603
 37
-46.86809886248109
 40
605.88
 41
2.332344213649852
 42
50.0
 43
0.0
 44
0.0
 50
0.0
 51
0.0
 71
    16
 72
  2000
 73
     1
 74
     1
 75
     0
 76
     0
 77
     0
 78
     0
281
     0
 65
     1
110
0.0
120
0.0
130
0.0
111
1.0
121
0.0
131
0.0
112
0.0
122
1.0
132
0.0
 79
     0
146
0.0
348
26C
 60
     3
 61
     5
292
     1
282
     1
141
0.0
142
0.0
 63
   256
361
904
  0
ENDTAB
  0
TABLE
  2
LTYPE
  5
4
330
0
100
AcDbSymbolTable
 70
    22
  0
LTYPE
  5
11
330
4
100
AcDbSymbolTableRecord
100
AcDbLinetypeTableRecord
  2
ByBlock
 70
     0
  3

 72
    65
 73
     0
 40
0.0
  0
LTYPE
  5
12
330
4
100
AcDbSymbolTableRecord
100
AcDbLinetypeTableRecord
  2
ByLayer
 70
     0
  3

 72
    65
 73
     0
 40
0.0
  0
LTYPE
  5
13
330
4
100
AcDbSymbolTableRecord
100
AcDbLinetypeTableRecord
  2
Continuous
 70
     0
  3
Solid line
 72
    65
 73
     0
 40
0.0
  0
LTYPE
  5
D6C
330
4
100
AcDbSymbolTableRecord
100
AcDbLinetypeTableRecord
  2
BORDER
 70
     0
  3
Border __  __  . __  __  . __  __  . __  __  . 
 72
    65
 73
     6
 40
44.45
 49
12.7
 74
     0
 49
-6.35
 74
     0
 49
12.7
 74
     0
 49
-6.35
 74
     0
 49
0.0
 74
     0
 49
-6.35
 74
     0
  0
ENDTAB
  0
TABLE
  2
LAYER
  5
2
102
{ACAD_XDICTIONARY
360
2E1
102
}
330
0
100
AcDbSymbolTable
 70
    19
  0
LAYER
  5
14
330
2
100
AcDbSymbolTableRecord
100
AcDbLayerTableRecord
  2
0
 70
     0
 62
     7
  6
Continuous
370
    -3
390
1D
347
266
  0
LAYER
  5
4B
330
2
100
AcDbSymbolTableRecord
100
AcDbLayerTableRecord
  2
TEMPLATE
 70
     0
 62
     7
  6
Continuous
370
    20
390
1D
347
266
  0
LAYER
  5
4C
330
2
100
AcDbSymbolTableRecord
100
AcDbLayerTableRecord
  2
DIM
 70
     0
 62
     7
  6
Continuous
370
    13
390
1D
347
266
  0
LAYER
  5
4D
330
2
100
AcDbSymbolTableRecord
100
AcDbLayerTableRecord
  2
MODEL
 70
     0
 62
     7
  6
Continuous
370
    20
390
1D
347
266
  0
LAYER
  5
667
330
2
100
AcDbSymbolTableRecord
100
AcDbLayerTableRecord
  2
LOGO
 70
     0
 62
     7
  6
Continuous
370
    -3
390
1D
347
266
  0
LAYER
  5
D6B
330
2
100
AcDbSymbolTableRecord
100
AcDbLayerTableRecord
  2
BORDER
 70
     0
 62
     4
  6
BORDER
290
     0
370
    20
390
1D
347
266
1001
AcAecLayerStandard
1000

1000

  0
LAYER
  5
D8C
330
2
100
AcDbSymbolTableRecord
100
AcDbLayerTableRecord
  2
Defpoints
 70
     0
 62
     7
  6
Continuous
290
     0
370
    -3
390
1D
347
266
  0
LAYER
  5
3653
330
2
100
AcDbSymbolTableRecord
100
AcDbLayerTableRecord
  2
Standard
 70
     0
 62
     7
  6
Continuous
370
    -3
390
1D
347
266
  0
LAYER
  5
3BE0
330
2
100
AcDbSymbolTableRecord
100
AcDbLayerTableRecord
  2
レイヤー 1
 70
     0
 62
     7
  6
Continuous
370
    -3
390
1D
347
266
  0
ENDTAB
  0
TABLE
  2
STYLE
  5
3
330
0
100
AcDbSymbolTable
 70
     7
  0
STYLE
  5
17
330
3
100
AcDbSymbolTableRecord
100
AcDbTextStyleTableRecord
  2
Standard
 70
     0
 40
0.0
 41
1.0
 50
0.0
 71
     0
 42
2.5
  3
txt
  4
BIGFONT.SHX
  0
STYLE
  5
39
330
3
100
AcDbSymbolTableRecord
100
AcDbTextStyleTableRecord
  2
ＭＳ ゴシック
 70
     0
 40
0.0
 41
1.0
 50
0.0
 71
     0
 42
2.5
  3
msgothic.ttc
  4
ＭＳ ゴシック
1001
ACAD
1000
ＭＳ ゴシック
1071
        0
  0
ENDTAB
  0
TABLE
  2
VIEW
  5
5
330
0
100
AcDbSymbolTable
 70
     0
  0
ENDTAB
  0
TABLE
  2
UCS
  5
6
330
0
100
AcDbSymbolTable
 70
     0
  0
ENDTAB
  0
TABLE
  2
APPID
  5
8
330
0
100
AcDbSymbolTable
 70
     3
  0
APPID
  5
16
330
8
100
AcDbSymbolTableRecord
100
AcDbRegAppTableRecord
  2
ACAD
 70
     0
  0
APPID
  5
7AC
330
8
100
AcDbSymbolTableRecord
100
AcDbRegAppTableRecord
  2
AcAecLayerStandard
 70
     0
  0
APPID
  5
E29
330
8
100
AcDbSymbolTableRecord
100
AcDbRegAppTableRecord
  2
ACAD_MLEADERVER
 70
     0
  0
ENDTAB
  0
TABLE
  2
DIMSTYLE
  5
9
330
0
100
AcDbSymbolTable
 70
     8
100
AcDbDimStyleTable
  0
DIMSTYLE
105
18
330
9
100
AcDbSymbolTableRecord
100
AcDbDimStyleTableRecord
  2
Standard
 70
     0
178
     0
340
17
  0
DIMSTYLE
105
57
102
{ACAD_REACTORS
330
5726
330
5736
330
5745
330
5754
330
5763
330
5772
102
}
330
9
100
AcDbSymbolTableRecord
100
AcDbDimStyleTableRecord
  2
tfrom線あり
 70
     0
  3
<>
  4
[]
 41
2.0
 42
5.0
 43
0.9999999999999999
 44
0.0
 73
     0
 74
     0
 77
     1
 78
    11
140
5.0
141
0.0
143
1.0
147
3.0
171
     1
174
     1
178
     0
179
     2
271
     0
272
     1
276
     2
284
    11
285
    11
286
    11
289
     0
340
39
341
4E
342
4E
  0
ENDTAB
  0
TABLE
  2
BLOCK_RECORD
  5
1
330
0
100
AcDbSymbolTable
 70
   118
  0
BLOCK_RECORD
  5
A
330
1
100
AcDbSymbolTableRecord
100
AcDbBlockTableRecord
  2
*MODEL_SPACE
340
20
 70
     0
280
     1
281
     0
  0
BLOCK_RECORD
  5
B
330
1
100
AcDbSymbolTableRecord
100
AcDbBlockTableRecord
  2
*PAPER_SPACE
340
21
 70
     0
280
     1
281
     0
  0
BLOCK_RECORD
  5
4E
330
1
100
AcDbSymbolTableRecord
100
AcDbBlockTableRecord
  2
_DOT
340
0
102
{BLKREFS
331
D96
331
D97
331
DA5
331
DA6
331
E53
331
E54
331
1200
331
1201
331
124E
331
124F
331
125D
331
125E
331
1270
331
1271
331
1281
331
1282
331
1290
331
1291
331
129D
331
129E
331
12AA
331
12AB
331
12B7
331
12B8
331
12C4
331
12C5
331
12D1
331
12D2
331
12E0
331
12E1
331
12F9
331
12FA
331
1308
331
1309
331
1315
331
1316
331
1322
331
1323
331
13ED
331
13EE
331
13F9
331
13FA
331
1405
331
1406
331
1411
331
1412
331
141E
331
141F
331
142A
331
142B
331
1436
331
1437
331
1442
331
1443
331
144E
331
144F
331
145A
331
145B
331
1466
331
1467
331
1472
331
1473
331
147E
331
147F
331
148A
331
148B
331
1496
331
1497
331
14A2
331
14A3
331
15D9
331
15DA
331
1606
331
1607
331
19B3
331
19B4
331
19C4
331
19C5
331
19D3
331
19D4
331
19E0
331
19E1
331
1D2A
331
1D2B
331
1D36
331
1D37
331
1D42
331
1D43
331
1D4E
331
1D4F
331
20BC
331
20BD
331
20CD
331
20CE
331
20DC
331
20DD
331
20E9
331
20EA
331
2433
331
2434
331
243F
331
2440
331
244B
331
244C
331
2457
331
2458
331
27D0
331
27D1
331
27E1
331
27E2
331
27F0
331
27F1
331
27FD
331
27FE
331
2B68
331
2B69
331
2B79
331
2B7A
331
2B88
331
2B89
331
2B95
331
2B96
331
2F00
331
2F01
331
2F11
331
2F12
331
2F20
331
2F21
331
2F2D
331
2F2E
331
36E4
331
386C
331
39E2
331
3875
331
3876
331
3882
331
3883
331
388F
331
3890
331
38AB
331
38AC
331
38B7
331
38B8
331
38C7
331
38C8
331
38D7
331
38D8
331
38E6
331
38E7
331
39F4
331
39F5
331
3AA9
331
3AAA
331
3AB6
331
3AB7
331
3AE3
331
3AE4
331
3AF0
331
3AF1
331
3AFD
331
3AFE
331
3B0A
331
3B0B
331
3B19
331
3B1A
331
3B8C
331
3B8D
331
3B98
331
3B99
331
3BA4
331
3BA5
331
3BB0
331
3BB1
331
3BBC
331
3BBD
331
3BC8
331
3BC9
331
3BD4
331
3BD5
331
3DEB
331
3DEA
331
3DFA
331
3DF9
331
5730
331
572F
331
5740
331
573F
331
574F
331
574E
331
575E
331
575D
331
576D
331
576C
331
577C
331
577B
102
}
 70
     0
280
     1
281
     0
  0
BLOCK_RECORD
  5
68A
330
1
100
AcDbSymbolTableRecord
100
AcDbBlockTableRecord
  2
名称未設定-1
340
0
102
{BLKREFS
331
6B5
102
}
 70
     1
280
     1
281
     0
  0
BLOCK_RECORD
  5
68D
330
1
100
AcDbSymbolTableRecord
100
AcDbBlockTableRecord
  2
block 2
340
0
102
{BLKREFS
331
68C
331
1343
102
}
 70
     0
280
     1
281
     0
  0
BLOCK_RECORD
  5
690
330
1
100
AcDbSymbolTableRecord
100
AcDbBlockTableRecord
  2
block 3
340
0
102
{BLKREFS
331
68F
102
}
 70
     0
280
     1
281
     0
  0
BLOCK_RECORD
  5
693
330
1
100
AcDbSymbolTableRecord
100
AcDbBlockTableRecord
  2
block 4
340
0
102
{BLKREFS
331
692
102
}
 70
     0
280
     1
281
     0
  0
BLOCK_RECORD
  5
6A2
330
1
100
AcDbSymbolTableRecord
100
AcDbBlockTableRecord
  2
block 5
340
0
102
{BLKREFS
331
6A1
102
}
 70
     0
280
     1
281
     0
  0
BLOCK_RECORD
  5
5729
330
1
100
AcDbSymbolTableRecord
100
AcDbBlockTableRecord
  2
*D112
340
0
 70
     0
280
     1
281
     0
  0
BLOCK_RECORD
  5
5739
330
1
100
AcDbSymbolTableRecord
100
AcDbBlockTableRecord
  2
*D113
340
0
 70
     0
280
     1
281
     0
  0
BLOCK_RECORD
  5
5748
330
1
100
AcDbSymbolTableRecord
100
AcDbBlockTableRecord
  2
*D114
340
0
 70
     0
280
     1
281
     0
  0
BLOCK_RECORD
  5
5757
330
1
100
AcDbSymbolTableRecord
100
AcDbBlockTableRecord
  2
*D115
340
0
 70
     0
280
     1
281
     0
  0
BLOCK_RECORD
  5
5766
330
1
100
AcDbSymbolTableRecord
100
AcDbBlockTableRecord
  2
*D116
340
0
 70
     0
280
     1
281
     0
  0
BLOCK_RECORD
  5
5775
330
1
100
AcDbSymbolTableRecord
100
AcDbBlockTableRecord
  2
*D117
340
0
 70
     0
280
     1
281
     0
  0
ENDTAB
  0
ENDSEC
  0
SECTION
  2
BLOCKS
  0
BLOCK
  5
D
330
A
100
AcDbEntity
  8
0
390
1D
100
AcDbBlockBegin
  2
*MODEL_SPACE
 70
     0
 10
0.0
 20
0.0
 30
0.0
  3
*MODEL_SPACE
  1
*MODEL_SPACE
  0
ENDBLK
  5
E
330
A
100
AcDbEntity
  8
0
390
1D
100
AcDbBlockEnd
  0
BLOCK
  5
F
330
B
100
AcDbEntity
 67
     1
  8
0
390
1D
100
AcDbBlockBegin
  2
*PAPER_SPACE
 70
     0
 10
0.0
 20
0.0
 30
0.0
  3
*PAPER_SPACE
  1
*PAPER_SPACE
  0
ENDBLK
  5
10
330
B
100
AcDbEntity
 67
     1
  8
0
390
1D
100
AcDbBlockEnd
  0
BLOCK
  5
2462
330
4E
100
AcDbEntity
  8
0
390
1D
100
AcDbBlockBegin
  2
_DOT
 70
     0
 10
0.0
 20
0.0
 30
0.0
  3
_DOT
  1
_DOT
  0
POLYLINE
  5
2464
330
4E
100
AcDbEntity
  8
0
  6
ByBlock
 62
     0
370
    -2
390
1D
100
AcDb2dPolyline
 66
     1
 10
0.0
 20
0.0
 30
0.0
 70
     1
 40
0.5
 41
0.5
  0
VERTEX
  5
2465
330
2464
100
AcDbEntity
  8
0
  6
ByBlock
 62
     0
370
    -2
390
1D
100
AcDbVertex
100
AcDb2dVertex
 10
-0.25
 20
0.0
 30
0.0
 42
1.0
  0
VERTEX
  5
2466
330
2464
100
AcDbEntity
  8
0
  6
ByBlock
 62
     0
370
    -2
390
1D
100
AcDbVertex
100
AcDb2dVertex
 10
0.25
 20
0.0
 30
0.0
 42
1.0
  0
SEQEND
  5
2467
330
2464
100
AcDbEntity
  8
0
390
1D
  0
LINE
  5
2468
330
4E
100
AcDbEntity
  8
0
  6
ByBlock
 62
     0
370
    -2
390
1D
100
AcDbLine
 10
-0.5
 20
0.0
 30
0.0
 11
-1.0
 21
0.0
 31
0.0
  0
ENDBLK
  5
2469
330
4E
100
AcDbEntity
  8
0
390
1D
100
AcDbBlockEnd
  0
BLOCK
  5
68B
330
68A
100
AcDbEntity
  8
0
100
AcDbBlockBegin
  2
名称未設定-1
 70
     0
 10
0.0
 20
0.0
 30
0.0
  3
名称未設定-1
  1
名称未設定-1
  0
INSERT
  5
68F
330
68A
100
AcDbEntity
  8
LOGO
100
AcDbBlockReference
  2
block 3
 10
0.0
 20
0.0
 30
0.0
  0
ENDBLK
  5
6B1
330
68A
100
AcDbEntity
  8
0
100
AcDbBlockEnd
  0
BLOCK
  5
68E
330
68D
100
AcDbEntity
  8
0
100
AcDbBlockBegin
  2
block 2
 70
     0
 10
0.0
 20
0.0
 30
0.0
  3
block 2
  1
block 2
  0
ENDBLK
  5
6B0
330
68D
100
AcDbEntity
  8
0
100
AcDbBlockEnd
  0
BLOCK
  5
691
330
690
100
AcDbEntity
  8
0
100
AcDbBlockBegin
  2
block 3
 70
     0
 10
0.0
 20
0.0
 30
0.0
  3
block 3
  1
block 3
  0
INSERT
  5
692
330
690
100
AcDbEntity
  8
LOGO
100
AcDbBlockReference
  2
block 4
 10
0.0
 20
0.0
 30
0.0
  0
INSERT
  5
6A1
330
690
100
AcDbEntity
  8
LOGO
100
AcDbBlockReference
  2
block 5
 10
0.0
 20
0.0
 30
0.0
  0
ENDBLK
  5
6AF
330
690
100
AcDbEntity
  8
0
100
AcDbBlockEnd
  0
BLOCK
  5
694
330
693
100
AcDbEntity
  8
0
100
AcDbBlockBegin
  2
block 4
 70
     0
 10
0.0
 20
0.0
 30
0.0
  3
block 4
  1
block 4
  0
POLYLINE
  5
695
330
693
100
AcDbEntity
  8
LOGO
370
     0
100
AcDb2dPolyline
 66
     1
 10
0.0
 20
0.0
 30
0.0
  0
VERTEX
  5
696
330
695
100
AcDbEntity
  8
LOGO
370
     0
100
AcDbVertex
100
AcDb2dVertex
 10
83.79545727667795
 20
167.6444858234922
 30
0.0
  0
VERTEX
  5
697
330
695
100
AcDbEntity
  8
LOGO
370
     0
100
AcDbVertex
100
AcDb2dVertex
 10
83.79545727667795
 20
159.7968976406313
 30
0.0
  0
VERTEX
  5
698
330
695
100
AcDbEntity
  8
LOGO
370
     0
100
AcDbVertex
100
AcDb2dVertex
 10
71.3631329975216
 20
159.7968976406313
 30
0.0
  0
VERTEX
  5
699
330
695
100
AcDbEntity
  8
LOGO
370
     0
100
AcDbVertex
100
AcDb2dVertex
 10
71.3631329975216
 20
127.8027915271048
 30
0.0
  0
VERTEX
  5
69A
330
695
100
AcDbEntity
  8
LOGO
370
     0
100
AcDbVertex
100
AcDb2dVertex
 10
60.43011526263018
 20
127.8027915271048
 30
0.0
  0
VERTEX
  5
69B
330
695
100
AcDbEntity
  8
LOGO
370
     0
100
AcDbVertex
100
AcDb2dVertex
 10
60.43011526263018
 20
159.7968976406313
 30
0.0
  0
VERTEX
  5
69C
330
695
100
AcDbEntity
  8
LOGO
370
     0
100
AcDbVertex
100
AcDb2dVertex
 10
48.21793273020759
 20
159.7968976406313
 30
0.0
  0
VERTEX
  5
69D
330
695
100
AcDbEntity
  8
LOGO
370
     0
100
AcDbVertex
100
AcDb2dVertex
 10
48.21793273020759
 20
167.6444858234922
 30
0.0
  0
VERTEX
  5
69E
330
695
100
AcDbEntity
  8
LOGO
370
     0
100
AcDbVertex
100
AcDb2dVertex
 10
83.79545727667795
 20
167.6444858234922
 30
0.0
  0
SEQEND
  5
69F
330
695
100
AcDbEntity
  8
LOGO
370
     0
  0
HATCH
  5
6A0
330
693
100
AcDbEntity
  8
LOGO
 62
   250
420
  2234388
100
AcDbHatch
 10
0.0
 20
0.0
 30
0.0
210
0.0
220
0.0
230
1.0
  2
SOLID
 70
     1
 71
     0
 91
        1
 92
        1
 93
        8
 72
     1
 10
83.79545727667795
 20
167.6444858234922
 11
83.79545727667795
 21
159.7968976406313
 72
     1
 10
83.79545727667795
 20
159.7968976406313
 11
71.3631329975216
 21
159.7968976406313
 72
     1
 10
71.3631329975216
 20
159.7968976406313
 11
71.3631329975216
 21
127.8027915271048
 72
     1
 10
71.3631329975216
 20
127.8027915271048
 11
60.43011526263018
 21
127.8027915271048
 72
     1
 10
60.43011526263018
 20
127.8027915271048
 11
60.43011526263018
 21
159.7968976406313
 72
     1
 10
60.43011526263018
 20
159.7968976406313
 11
48.21793273020759
 21
159.7968976406313
 72
     1
 10
48.21793273020759
 20
159.7968976406313
 11
48.21793273020759
 21
167.6444858234922
 72
     1
 10
48.21793273020759
 20
167.6444858234922
 11
83.79545727667795
 21
167.6444858234922
 97
        0
 75
     2
 76
     1
 98
        0
  0
ENDBLK
  5
6AE
330
693
100
AcDbEntity
  8
0
100
AcDbBlockEnd
  0
BLOCK
  5
6A3
330
6A2
100
AcDbEntity
  8
0
100
AcDbBlockBegin
  2
block 5
 70
     0
 10
0.0
 20
0.0
 30
0.0
  3
block 5
  1
block 5
  0
SPLINE
  5
6A4
330
6A2
100
AcDbEntity
  8
LOGO
370
     0
100
AcDbSpline
210
0.0
220
0.0
230
1.0
 70
    11
 71
     3
 72
    56
 73
    52
 74
     0
 42
0.000000001
 43
0.0000000001
 40
0.0
 40
0.0
 40
0.0
 40
0.0
 40
1.0
 40
1.0
 40
1.0
 40
2.0
 40
2.0
 40
2.0
 40
3.0
 40
3.0
 40
3.0
 40
4.0
 40
4.0
 40
4.0
 40
5.0
 40
5.0
 40
5.0
 40
6.0
 40
6.0
 40
6.0
 40
7.0
 40
7.0
 40
7.0
 40
8.0
 40
8.0
 40
8.0
 40
9.0
 40
9.0
 40
9.0
 40
10.0
 40
10.0
 40
10.0
 40
11.0
 40
11.0
 40
11.0
 40
12.0
 40
12.0
 40
12.0
 40
13.0
 40
13.0
 40
13.0
 40
14.0
 40
14.0
 40
14.0
 40
15.0
 40
15.0
 40
15.0
 40
16.0
 40
16.0
 40
16.0
 40
17.0
 40
17.0
 40
17.0
 40
17.0
 10
100.4504378777679
 20
166.69157178364
 30
0.0
 10
101.9848844191641
 20
167.1313385124438
 30
0.0
 10
103.9637485713373
 20
166.7649523658846
 30
0.0
 10
103.9637485713373
 20
166.7649523658846
 30
0.0
 10
103.9637485713373
 20
166.7649523658846
 30
0.0
 10
103.0132460999156
 20
163.911205638077
 30
0.0
 10
103.0132460999156
 20
163.911205638077
 30
0.0
 10
103.0132460999156
 20
163.911205638077
 30
0.0
 10
101.0674548862189
 20
164.3601018759394
 30
0.0
 10
99.57090442016032
 20
163.1805004036133
 30
0.0
 10
98.40508333886608
 20
162.258247733807
 30
0.0
 10
97.65301849830304
 20
159.804132345923
 30
0.0
 10
97.3598406791005
 20
158.8699940888517
 30
0.0
 10
97.3598406791005
 20
158.8699940888517
 30
0.0
 10
96.07137411762282
 20
154.9119212747295
 30
0.0
 10
96.07137411762282
 20
154.9119212747295
 30
0.0
 10
96.07137411762282
 20
154.9119212747295
 30
0.0
 10
100.3012651448482
 20
154.9119212747295
 30
0.0
 10
100.3012651448482
 20
154.9119212747295
 30
0.0
 10
100.3012651448482
 20
154.9119212747295
 30
0.0
 10
99.64152892419852
 20
152.4199098115079
 30
0.0
 10
99.64152892419852
 20
152.4199098115079
 30
0.0
 10
99.64152892419852
 20
152.4199098115079
 30
0.0
 10
95.38097652692731
 20
152.4199098115079
 30
0.0
 10
95.38097652692731
 20
152.4199098115079
 30
0.0
 10
95.38097652692731
 20
152.4199098115079
 30
0.0
 10
87.75353009080013
 20
127.8027915271048
 30
0.0
 10
87.75353009080013
 20
127.8027915271048
 30
0.0
 10
87.75353009080013
 20
127.8027915271048
 30
0.0
 10
85.36538832498108
 20
127.8027915271048
 30
0.0
 10
85.36538832498108
 20
127.8027915271048
 30
0.0
 10
85.36538832498108
 20
127.8027915271048
 30
0.0
 10
93.00006946639998
 20
152.4199098115079
 30
0.0
 10
93.00006946639998
 20
152.4199098115079
 30
0.0
 10
93.00006946639998
 20
152.4199098115079
 30
0.0
 10
89.85297266450198
 20
152.4199098115079
 30
0.0
 10
89.85297266450198
 20
152.4199098115079
 30
0.0
 10
89.85297266450198
 20
152.4199098115079
 30
0.0
 10
90.51270888515164
 20
154.9119212747295
 30
0.0
 10
90.51270888515164
 20
154.9119212747295
 30
0.0
 10
90.51270888515164
 20
154.9119212747295
 30
0.0
 10
93.6904670570955
 20
154.9119212747295
 30
0.0
 10
93.6904670570955
 20
154.9119212747295
 30
0.0
 10
93.6904670570955
 20
154.9119212747295
 30
0.0
 10
94.81598049462158
 20
158.3616699146644
 30
0.0
 10
94.81598049462158
 20
158.3616699146644
 30
0.0
 10
95.7237637538445
 20
161.2605474231013
 30
0.0
 10
96.4968436907311
 20
162.8139420021662
 30
0.0
 10
97.15657991138076
 20
163.9844139654337
 30
0.0
 10
97.81183750494507
 20
165.1523021053827
 30
0.0
 10
99.1047826935081
 20
166.3084769129547
 30
0.0
 10
100.4504378777679
 20
166.69157178364
 30
0.0
  0
HATCH
  5
6A5
330
6A2
100
AcDbEntity
  8
LOGO
 62
   250
420
  2234388
100
AcDbHatch
 10
0.0
 20
0.0
 30
0.0
210
0.0
220
0.0
230
1.0
  2
SOLID
 70
     1
 71
     0
 91
        1
 92
        1
 93
        1
 72
     4
 94
        3
 73
     0
 74
     1
 95
       56
 96
       52
 40
0.0
 40
0.0
 40
0.0
 40
0.0
 40
1.0
 40
1.0
 40
1.0
 40
2.0
 40
2.0
 40
2.0
 40
3.0
 40
3.0
 40
3.0
 40
4.0
 40
4.0
 40
4.0
 40
5.0
 40
5.0
 40
5.0
 40
6.0
 40
6.0
 40
6.0
 40
7.0
 40
7.0
 40
7.0
 40
8.0
 40
8.0
 40
8.0
 40
9.0
 40
9.0
 40
9.0
 40
10.0
 40
10.0
 40
10.0
 40
11.0
 40
11.0
 40
11.0
 40
12.0
 40
12.0
 40
12.0
 40
13.0
 40
13.0
 40
13.0
 40
14.0
 40
14.0
 40
14.0
 40
15.0
 40
15.0
 40
15.0
 40
16.0
 40
16.0
 40
16.0
 40
17.0
 40
17.0
 40
17.0
 40
17.0
 10
100.4504378777679
 20
166.69157178364
 10
101.9848844191641
 20
167.1313385124438
 10
103.9637485713373
 20
166.7649523658846
 10
103.9637485713373
 20
166.7649523658846
 10
103.9637485713373
 20
166.7649523658846
 10
103.0132460999156
 20
163.911205638077
 10
103.0132460999156
 20
163.911205638077
 10
103.0132460999156
 20
163.911205638077
 10
101.0674548862189
 20
164.3601018759394
 10
99.57090442016032
 20
163.1805004036133
 10
98.40508333886608
 20
162.258247733807
 10
97.65301849830304
 20
159.804132345923
 10
97.3598406791005
 20
158.8699940888517
 10
97.3598406791005
 20
158.8699940888517
 10
96.07137411762282
 20
154.9119212747295
 10
96.07137411762282
 20
154.9119212747295
 10
96.07137411762282
 20
154.9119212747295
 10
100.3012651448482
 20
154.9119212747295
 10
100.3012651448482
 20
154.9119212747295
 10
100.3012651448482
 20
154.9119212747295
 10
99.64152892419852
 20
152.4199098115079
 10
99.64152892419852
 20
152.4199098115079
 10
99.64152892419852
 20
152.4199098115079
 10
95.38097652692731
 20
152.4199098115079
 10
95.38097652692731
 20
152.4199098115079
 10
95.38097652692731
 20
152.4199098115079
 10
87.75353009080013
 20
127.8027915271048
 10
87.75353009080013
 20
127.8027915271048
 10
87.75353009080013
 20
127.8027915271048
 10
85.36538832498108
 20
127.8027915271048
 10
85.36538832498108
 20
127.8027915271048
 10
85.36538832498108
 20
127.8027915271048
 10
93.00006946639998
 20
152.4199098115079
 10
93.00006946639998
 20
152.4199098115079
 10
93.00006946639998
 20
152.4199098115079
 10
89.85297266450198
 20
152.4199098115079
 10
89.85297266450198
 20
152.4199098115079
 10
89.85297266450198
 20
152.4199098115079
 10
90.51270888515164
 20
154.9119212747295
 10
90.51270888515164
 20
154.9119212747295
 10
90.51270888515164
 20
154.9119212747295
 10
93.6904670570955
 20
154.9119212747295
 10
93.6904670570955
 20
154.9119212747295
 10
93.6904670570955
 20
154.9119212747295
 10
94.81598049462158
 20
158.3616699146644
 10
94.81598049462158
 20
158.3616699146644
 10
95.7237637538445
 20
161.2605474231013
 10
96.4968436907311
 20
162.8139420021662
 10
97.15657991138076
 20
163.9844139654337
 10
97.81183750494507
 20
165.1523021053827
 10
99.1047826935081
 20
166.3084769129547
 10
100.4504378777679
 20
166.69157178364
 97
        0
 75
     2
 76
     1
 98
        0
  0
SPLINE
  5
6A6
330
6A2
100
AcDbEntity
  8
LOGO
370
     0
100
AcDbSpline
210
0.0
220
0.0
230
1.0
 70
    11
 71
     3
 72
    38
 73
    34
 74
     0
 42
0.000000001
 43
0.0000000001
 40
0.0
 40
0.0
 40
0.0
 40
0.0
 40
1.0
 40
1.0
 40
1.0
 40
2.0
 40
2.0
 40
2.0
 40
3.0
 40
3.0
 40
3.0
 40
4.0
 40
4.0
 40
4.0
 40
5.0
 40
5.0
 40
5.0
 40
6.0
 40
6.0
 40
6.0
 40
7.0
 40
7.0
 40
7.0
 40
8.0
 40
8.0
 40
8.0
 40
9.0
 40
9.0
 40
9.0
 40
10.0
 40
10.0
 40
10.0
 40
11.0
 40
11.0
 40
11.0
 40
11.0
 10
126.377554584636
 20
154.8151140277308
 30
0.0
 10
126.377554584636
 20
154.8151140277308
 30
0.0
 10
128.8311532078563
 20
154.8151140277308
 30
0.0
 10
128.8311532078563
 20
154.8151140277308
 30
0.0
 10
128.8311532078563
 20
154.8151140277308
 30
0.0
 10
127.7345785914971
 20
151.3062819612468
 30
0.0
 10
127.7345785914971
 20
151.3062819612468
 30
0.0
 10
128.571392836906
 20
152.2922689395754
 30
0.0
 10
129.8860421413442
 20
153.604506675583
 30
0.0
 10
131.0163787157314
 20
154.2664822097754
 30
0.0
 10
132.7044766171327
 20
155.2500576196734
 30
0.0
 10
133.6642808525008
 20
155.3847609420097
 30
0.0
 10
134.7284715499351
 20
155.3565111403944
 30
0.0
 10
134.7284715499351
 20
155.3565111403944
 30
0.0
 10
133.6877075172549
 20
152.0345756272799
 30
0.0
 10
133.6877075172549
 20
152.0345756272799
 30
0.0
 10
133.011434827367
 20
152.3184516825359
 30
0.0
 10
130.930940291334
 20
151.7768823149844
 30
0.0
 10
129.739280976855
 20
150.9162968950455
 30
0.0
 10
128.66613302525
 20
150.1454562717016
 30
0.0
 10
127.9192358313239
 20
149.4857200510519
 30
0.0
 10
127.0393578639405
 20
147.8282835196966
 30
0.0
 10
126.164647543194
 20
146.1699857139017
 30
0.0
 10
125.4742499524985
 20
143.5262176944419
 30
0.0
 10
124.2822461282437
 20
139.6959580071401
 30
0.0
 10
124.2822461282437
 20
139.6959580071401
 30
0.0
 10
120.5753209406769
 20
127.8027915271048
 30
0.0
 10
120.5753209406769
 20
127.8027915271048
 30
0.0
 10
120.5753209406769
 20
127.8027915271048
 30
0.0
 10
118.1964809388044
 20
127.8027915271048
 30
0.0
 10
118.1964809388044
 20
127.8027915271048
 30
0.0
 10
118.1964809388044
 20
127.8027915271048
 30
0.0
 10
126.377554584636
 20
154.8151140277308
 30
0.0
 10
126.377554584636
 20
154.8151140277308
 30
0.0
  0
HATCH
  5
6A7
330
6A2
100
AcDbEntity
  8
LOGO
 62
   250
420
  2234388
100
AcDbHatch
 10
0.0
 20
0.0
 30
0.0
210
0.0
220
0.0
230
1.0
  2
SOLID
 70
     1
 71
     0
 91
        1
 92
        1
 93
        1
 72
     4
 94
        3
 73
     0
 74
     1
 95
       38
 96
       34
 40
0.0
 40
0.0
 40
0.0
 40
0.0
 40
1.0
 40
1.0
 40
1.0
 40
2.0
 40
2.0
 40
2.0
 40
3.0
 40
3.0
 40
3.0
 40
4.0
 40
4.0
 40
4.0
 40
5.0
 40
5.0
 40
5.0
 40
6.0
 40
6.0
 40
6.0
 40
7.0
 40
7.0
 40
7.0
 40
8.0
 40
8.0
 40
8.0
 40
9.0
 40
9.0
 40
9.0
 40
10.0
 40
10.0
 40
10.0
 40
11.0
 40
11.0
 40
11.0
 40
11.0
 10
126.377554584636
 20
154.8151140277308
 10
126.377554584636
 20
154.8151140277308
 10
128.8311532078563
 20
154.8151140277308
 10
128.8311532078563
 20
154.8151140277308
 10
128.8311532078563
 20
154.8151140277308
 10
127.7345785914971
 20
151.3062819612468
 10
127.7345785914971
 20
151.3062819612468
 10
128.571392836906
 20
152.2922689395754
 10
129.8860421413442
 20
153.604506675583
 10
131.0163787157314
 20
154.2664822097754
 10
132.7044766171327
 20
155.2500576196734
 10
133.6642808525008
 20
155.3847609420097
 10
134.7284715499351
 20
155.3565111403944
 10
134.7284715499351
 20
155.3565111403944
 10
133.6877075172549
 20
152.0345756272799
 10
133.6877075172549
 20
152.0345756272799
 10
133.011434827367
 20
152.3184516825359
 10
130.930940291334
 20
151.7768823149844
 10
129.739280976855
 20
150.9162968950455
 10
128.66613302525
 20
150.1454562717016
 10
127.9192358313239
 20
149.4857200510519
 10
127.0393578639405
 20
147.8282835196966
 10
126.164647543194
 20
146.1699857139017
 10
125.4742499524985
 20
143.5262176944419
 10
124.2822461282437
 20
139.6959580071401
 10
124.2822461282437
 20
139.6959580071401
 10
120.5753209406769
 20
127.8027915271048
 10
120.5753209406769
 20
127.8027915271048
 10
120.5753209406769
 20
127.8027915271048
 10
118.1964809388044
 20
127.8027915271048
 10
118.1964809388044
 20
127.8027915271048
 10
118.1964809388044
 20
127.8027915271048
 10
126.377554584636
 20
154.8151140277308
 10
126.377554584636
 20
154.8151140277308
 97
        0
 75
     2
 76
     1
 98
        0
  0
SPLINE
  5
6A8
330
6A2
100
AcDbEntity
  8
LOGO
370
     0
100
AcDbSpline
210
0.0
220
0.0
230
1.0
 70
    11
 71
     3
 72
   104
 73
   100
 74
     0
 42
0.000000001
 43
0.0000000001
 40
0.0
 40
0.0
 40
0.0
 40
0.0
 40
1.0
 40
1.0
 40
1.0
 40
2.0
 40
2.0
 40
2.0
 40
3.0
 40
3.0
 40
3.0
 40
4.0
 40
4.0
 40
4.0
 40
5.0
 40
5.0
 40
5.0
 40
6.0
 40
6.0
 40
6.0
 40
7.0
 40
7.0
 40
7.0
 40
8.0
 40
8.0
 40
8.0
 40
9.0
 40
9.0
 40
9.0
 40
10.0
 40
10.0
 40
10.0
 40
11.0
 40
11.0
 40
11.0
 40
12.0
 40
12.0
 40
12.0
 40
13.0
 40
13.0
 40
13.0
 40
14.0
 40
14.0
 40
14.0
 40
15.0
 40
15.0
 40
15.0
 40
16.0
 40
16.0
 40
16.0
 40
17.0
 40
17.0
 40
17.0
 40
18.0
 40
18.0
 40
18.0
 40
19.0
 40
19.0
 40
19.0
 40
20.0
 40
20.0
 40
20.0
 40
21.0
 40
21.0
 40
21.0
 40
22.0
 40
22.0
 40
22.0
 40
23.0
 40
23.0
 40
23.0
 40
24.0
 40
24.0
 40
24.0
 40
25.0
 40
25.0
 40
25.0
 40
26.0
 40
26.0
 40
26.0
 40
27.0
 40
27.0
 40
27.0
 40
28.0
 40
28.0
 40
28.0
 40
29.0
 40
29.0
 40
29.0
 40
30.0
 40
30.0
 40
30.0
 40
31.0
 40
31.0
 40
31.0
 40
32.0
 40
32.0
 40
32.0
 40
33.0
 40
33.0
 40
33.0
 40
33.0
 10
139.8926730891197
 20
154.8294111834263
 30
0.0
 10
139.8926730891197
 20
154.8294111834263
 30
0.0
 10
142.0344903652445
 20
154.8294111834263
 30
0.0
 10
142.0344903652445
 20
154.8294111834263
 30
0.0
 10
142.0344903652445
 20
154.8294111834263
 30
0.0
 10
140.9516961399171
 20
151.3157559800812
 30
0.0
 10
140.9516961399171
 20
151.3157559800812
 30
0.0
 10
141.8928968473923
 20
152.7887075264977
 30
0.0
 10
142.7341897198865
 20
153.4484437471474
 30
0.0
 10
143.8552245303272
 20
154.2926649527359
 30
0.0
 10
144.9803934580775
 20
155.1296514530327
 30
0.0
 10
146.3139908001845
 20
155.3044901642492
 30
0.0
 10
147.241066606852
 20
155.3044901642492
 30
0.0
 10
148.3855280820469
 20
155.3044901642492
 30
0.0
 10
149.4969166187653
 20
155.0752189084569
 30
0.0
 10
150.0784491203092
 20
153.8172414621372
 30
0.0
 10
150.5228667310863
 20
152.833838307127
 30
0.0
 10
150.5414702589793
 20
152.7201500811143
 30
0.0
 10
150.4140016419347
 20
150.7765981809602
 30
0.0
 10
151.5818897818837
 20
152.7699317437168
 30
0.0
 10
152.4424752018226
 20
153.6256940267945
 30
0.0
 10
153.9038856707499
 20
154.4507949398263
 30
0.0
 10
155.4455669174378
 20
155.3044901642492
 30
0.0
 10
156.339225275853
 20
155.3659851592288
 30
0.0
 10
157.3748216618963
 20
155.2147453676543
 30
0.0
 10
158.911679771723
 20
154.9877134254046
 30
0.0
 10
159.8859534176746
 20
154.4390816074493
 30
0.0
 10
160.3965169054045
 20
152.7816450760939
 30
0.0
 10
160.9070803931344
 20
151.1219692311958
 30
0.0
 10
160.6328506116007
 20
150.2303779314354
 30
0.0
 10
159.9992971339115
 20
147.597634224801
 30
0.0
 10
159.7105979417943
 20
146.4014962832367
 30
0.0
 10
159.2947746424084
 20
144.9400858143094
 30
0.0
 10
158.7463150793409
 20
143.2092687007094
 30
0.0
 10
158.7463150793409
 20
143.2092687007094
 30
0.0
 10
153.9038856707499
 20
127.8027915271048
 30
0.0
 10
153.9038856707499
 20
127.8027915271048
 30
0.0
 10
153.9038856707499
 20
127.8027915271048
 30
0.0
 10
151.3882752878863
 20
127.8027915271048
 30
0.0
 10
151.3882752878863
 20
127.8027915271048
 30
0.0
 10
151.3882752878863
 20
127.8027915271048
 30
0.0
 10
155.6250565106276
 20
141.2751908193897
 30
0.0
 10
155.6250565106276
 20
141.2751908193897
 30
0.0
 10
156.5094131050963
 20
144.0936252951782
 30
0.0
 10
157.109893644309
 20
146.1506931664571
 30
0.0
 10
157.4220195011804
 20
147.4415712963654
 30
0.0
 10
157.8095929989511
 20
149.0530157726519
 30
0.0
 10
157.9656559273867
 20
149.5826995529385
 30
0.0
 10
157.7816877071116
 20
150.7529992613181
 30
0.0
 10
157.6111553680925
 20
151.8430281919372
 30
0.0
 10
157.0582171779396
 20
152.5547853887321
 30
0.0
 10
156.1170164704645
 20
152.5547853887321
 30
0.0
 10
155.1096698860365
 20
152.5547853887321
 30
0.0
 10
154.2962823053817
 20
152.4412694176073
 30
0.0
 10
153.156643967048
 20
151.2945686288697
 30
0.0
 10
152.0170056287143
 20
150.1476955852443
 30
0.0
 10
151.076149431015
 20
148.7930831468137
 30
0.0
 10
150.3337308641742
 20
147.2290087646991
 30
0.0
 10
149.5957909244188
 20
145.6683794803425
 30
0.0
 10
148.8530278478023
 20
143.6822806228776
 30
0.0
 10
148.0964843801539
 20
141.2751908193897
 30
0.0
 10
148.0964843801539
 20
141.2751908193897
 30
0.0
 10
143.8552245303272
 20
127.8027915271048
 30
0.0
 10
143.8552245303272
 20
127.8027915271048
 30
0.0
 10
143.8552245303272
 20
127.8027915271048
 30
0.0
 10
141.486030802177
 20
127.8027915271048
 30
0.0
 10
141.486030802177
 20
127.8027915271048
 30
0.0
 10
141.486030802177
 20
127.8027915271048
 30
0.0
 10
146.3329388378533
 20
143.2092687007094
 30
0.0
 10
146.3329388378533
 20
143.2092687007094
 30
0.0
 10
146.8483254624444
 20
144.8408669988801
 30
0.0
 10
147.2314203331297
 20
146.1837661049335
 30
0.0
 10
147.4867020769946
 20
147.224185627838
 30
0.0
 10
147.9169947869641
 20
149.0197705792876
 30
0.0
 10
148.0306830129768
 20
150.2400242051577
 30
0.0
 10
147.709255392159
 20
151.3157559800812
 30
0.0
 10
147.3874832615654
 20
152.3916600098926
 30
0.0
 10
146.8245542879144
 20
152.6683013598569
 30
0.0
 10
145.8840425999909
 20
152.6683013598569
 30
0.0
 10
145.0989048209514
 20
152.6683013598569
 30
0.0
 10
144.3282364524954
 20
152.3275811915945
 30
0.0
 10
143.4531816219731
 20
151.6538923250251
 30
0.0
 10
142.34627171234
 20
150.8074318058939
 30
0.0
 10
141.901854101563
 20
150.1097995099067
 30
0.0
 10
141.3578731655808
 20
149.289521733736
 30
0.0
 10
140.6299240093235
 20
148.192602607601
 30
0.0
 10
140.2850697237515
 20
147.455696197173
 30
0.0
 10
139.6652966370942
 20
145.8385673095858
 30
0.0
 10
139.0506911970739
 20
144.2214384219986
 30
0.0
 10
138.463991048893
 20
142.3252566160164
 30
0.0
 10
138.0571250036777
 20
141.0154304484394
 30
0.0
 10
138.0571250036777
 20
141.0154304484394
 30
0.0
 10
133.9009590684727
 20
127.8027915271048
 30
0.0
 10
133.9009590684727
 20
127.8027915271048
 30
0.0
 10
133.9009590684727
 20
127.8027915271048
 30
0.0
 10
131.4180771143097
 20
127.8027915271048
 30
0.0
 10
131.4180771143097
 20
127.8027915271048
 30
0.0
 10
131.4180771143097
 20
127.8027915271048
 30
0.0
 10
139.8926730891197
 20
154.8294111834263
 30
0.0
 10
139.8926730891197
 20
154.8294111834263
 30
0.0
  0
HATCH
  5
6A9
330
6A2
100
AcDbEntity
  8
LOGO
 62
   250
420
  2234388
100
AcDbHatch
 10
0.0
 20
0.0
 30
0.0
210
0.0
220
0.0
230
1.0
  2
SOLID
 70
     1
 71
     0
 91
        1
 92
        1
 93
        1
 72
     4
 94
        3
 73
     0
 74
     1
 95
      104
 96
      100
 40
0.0
 40
0.0
 40
0.0
 40
0.0
 40
1.0
 40
1.0
 40
1.0
 40
2.0
 40
2.0
 40
2.0
 40
3.0
 40
3.0
 40
3.0
 40
4.0
 40
4.0
 40
4.0
 40
5.0
 40
5.0
 40
5.0
 40
6.0
 40
6.0
 40
6.0
 40
7.0
 40
7.0
 40
7.0
 40
8.0
 40
8.0
 40
8.0
 40
9.0
 40
9.0
 40
9.0
 40
10.0
 40
10.0
 40
10.0
 40
11.0
 40
11.0
 40
11.0
 40
12.0
 40
12.0
 40
12.0
 40
13.0
 40
13.0
 40
13.0
 40
14.0
 40
14.0
 40
14.0
 40
15.0
 40
15.0
 40
15.0
 40
16.0
 40
16.0
 40
16.0
 40
17.0
 40
17.0
 40
17.0
 40
18.0
 40
18.0
 40
18.0
 40
19.0
 40
19.0
 40
19.0
 40
20.0
 40
20.0
 40
20.0
 40
21.0
 40
21.0
 40
21.0
 40
22.0
 40
22.0
 40
22.0
 40
23.0
 40
23.0
 40
23.0
 40
24.0
 40
24.0
 40
24.0
 40
25.0
 40
25.0
 40
25.0
 40
26.0
 40
26.0
 40
26.0
 40
27.0
 40
27.0
 40
27.0
 40
28.0
 40
28.0
 40
28.0
 40
29.0
 40
29.0
 40
29.0
 40
30.0
 40
30.0
 40
30.0
 40
31.0
 40
31.0
 40
31.0
 40
32.0
 40
32.0
 40
32.0
 40
33.0
 40
33.0
 40
33.0
 40
33.0
 10
139.8926730891197
 20
154.8294111834263
 10
139.8926730891197
 20
154.8294111834263
 10
142.0344903652445
 20
154.8294111834263
 10
142.0344903652445
 20
154.8294111834263
 10
142.0344903652445
 20
154.8294111834263
 10
140.9516961399171
 20
151.3157559800812
 10
140.9516961399171
 20
151.3157559800812
 10
141.8928968473923
 20
152.7887075264977
 10
142.7341897198865
 20
153.4484437471474
 10
143.8552245303272
 20
154.2926649527359
 10
144.9803934580775
 20
155.1296514530327
 10
146.3139908001845
 20
155.3044901642492
 10
147.241066606852
 20
155.3044901642492
 10
148.3855280820469
 20
155.3044901642492
 10
149.4969166187653
 20
155.0752189084569
 10
150.0784491203092
 20
153.8172414621372
 10
150.5228667310863
 20
152.833838307127
 10
150.5414702589793
 20
152.7201500811143
 10
150.4140016419347
 20
150.7765981809602
 10
151.5818897818837
 20
152.7699317437168
 10
152.4424752018226
 20
153.6256940267945
 10
153.9038856707499
 20
154.4507949398263
 10
155.4455669174378
 20
155.3044901642492
 10
156.339225275853
 20
155.3659851592288
 10
157.3748216618963
 20
155.2147453676543
 10
158.911679771723
 20
154.9877134254046
 10
159.8859534176746
 20
154.4390816074493
 10
160.3965169054045
 20
152.7816450760939
 10
160.9070803931344
 20
151.1219692311958
 10
160.6328506116007
 20
150.2303779314354
 10
159.9992971339115
 20
147.597634224801
 10
159.7105979417943
 20
146.4014962832367
 10
159.2947746424084
 20
144.9400858143094
 10
158.7463150793409
 20
143.2092687007094
 10
158.7463150793409
 20
143.2092687007094
 10
153.9038856707499
 20
127.8027915271048
 10
153.9038856707499
 20
127.8027915271048
 10
153.9038856707499
 20
127.8027915271048
 10
151.3882752878863
 20
127.8027915271048
 10
151.3882752878863
 20
127.8027915271048
 10
151.3882752878863
 20
127.8027915271048
 10
155.6250565106276
 20
141.2751908193897
 10
155.6250565106276
 20
141.2751908193897
 10
156.5094131050963
 20
144.0936252951782
 10
157.109893644309
 20
146.1506931664571
 10
157.4220195011804
 20
147.4415712963654
 10
157.8095929989511
 20
149.0530157726519
 10
157.9656559273867
 20
149.5826995529385
 10
157.7816877071116
 20
150.7529992613181
 10
157.6111553680925
 20
151.8430281919372
 10
157.0582171779396
 20
152.5547853887321
 10
156.1170164704645
 20
152.5547853887321
 10
155.1096698860365
 20
152.5547853887321
 10
154.2962823053817
 20
152.4412694176073
 10
153.156643967048
 20
151.2945686288697
 10
152.0170056287143
 20
150.1476955852443
 10
151.076149431015
 20
148.7930831468137
 10
150.3337308641742
 20
147.2290087646991
 10
149.5957909244188
 20
145.6683794803425
 10
148.8530278478023
 20
143.6822806228776
 10
148.0964843801539
 20
141.2751908193897
 10
148.0964843801539
 20
141.2751908193897
 10
143.8552245303272
 20
127.8027915271048
 10
143.8552245303272
 20
127.8027915271048
 10
143.8552245303272
 20
127.8027915271048
 10
141.486030802177
 20
127.8027915271048
 10
141.486030802177
 20
127.8027915271048
 10
141.486030802177
 20
127.8027915271048
 10
146.3329388378533
 20
143.2092687007094
 10
146.3329388378533
 20
143.2092687007094
 10
146.8483254624444
 20
144.8408669988801
 10
147.2314203331297
 20
146.1837661049335
 10
147.4867020769946
 20
147.224185627838
 10
147.9169947869641
 20
149.0197705792876
 10
148.0306830129768
 20
150.2400242051577
 10
147.709255392159
 20
151.3157559800812
 10
147.3874832615654
 20
152.3916600098926
 10
146.8245542879144
 20
152.6683013598569
 10
145.8840425999909
 20
152.6683013598569
 10
145.0989048209514
 20
152.6683013598569
 10
144.3282364524954
 20
152.3275811915945
 10
143.4531816219731
 20
151.6538923250251
 10
142.34627171234
 20
150.8074318058939
 10
141.901854101563
 20
150.1097995099067
 10
141.3578731655808
 20
149.289521733736
 10
140.6299240093235
 20
148.192602607601
 10
140.2850697237515
 20
147.455696197173
 10
139.6652966370942
 20
145.8385673095858
 10
139.0506911970739
 20
144.2214384219986
 10
138.463991048893
 20
142.3252566160164
 10
138.0571250036777
 20
141.0154304484394
 10
138.0571250036777
 20
141.0154304484394
 10
133.9009590684727
 20
127.8027915271048
 10
133.9009590684727
 20
127.8027915271048
 10
133.9009590684727
 20
127.8027915271048
 10
131.4180771143097
 20
127.8027915271048
 10
131.4180771143097
 20
127.8027915271048
 10
131.4180771143097
 20
127.8027915271048
 10
139.8926730891197
 20
154.8294111834263
 10
139.8926730891197
 20
154.8294111834263
 97
        0
 75
     2
 76
     1
 98
        0
  0
SPLINE
  5
6AA
330
6A2
100
AcDbEntity
  8
LOGO
370
     0
100
AcDbSpline
210
0.0
220
0.0
230
1.0
 70
    11
 71
     3
 72
    29
 73
    25
 74
     0
 42
0.000000001
 43
0.0000000001
 40
0.0
 40
0.0
 40
0.0
 40
0.0
 40
1.0
 40
1.0
 40
1.0
 40
2.0
 40
2.0
 40
2.0
 40
3.0
 40
3.0
 40
3.0
 40
4.0
 40
4.0
 40
4.0
 40
5.0
 40
5.0
 40
5.0
 40
6.0
 40
6.0
 40
6.0
 40
7.0
 40
7.0
 40
7.0
 40
8.0
 40
8.0
 40
8.0
 40
8.0
 10
101.6420971922469
 20
132.8388354296931
 30
0.0
 10
101.630039350094
 20
134.7164137077823
 30
0.0
 10
102.2236296937908
 20
138.0598810818841
 30
0.0
 10
103.7487744712405
 20
142.5378191476827
 30
0.0
 10
105.819967243327
 20
148.5896501242061
 30
0.0
 10
107.0602024361932
 20
150.8074318058939
 30
0.0
 10
108.1522984254671
 20
151.8833358357054
 30
0.0
 10
109.741177511439
 20
153.4532668840085
 30
0.0
 10
111.8740375333931
 20
153.5290590346837
 30
0.0
 10
112.5075910110823
 20
153.4532668840085
 30
0.0
 10
113.4012493694975
 20
153.3490526768302
 30
0.0
 10
114.6683563248758
 20
152.7580461564518
 30
0.0
 10
114.7493161221879
 20
150.7838328862519
 30
0.0
 10
114.8106388622796
 20
149.0909118479895
 30
0.0
 10
114.3186789024427
 20
145.9191825971221
 30
0.0
 10
112.6164561002338
 20
140.9489400617108
 30
0.0
 10
110.6444821435766
 20
135.1746117095912
 30
0.0
 10
109.4669477299053
 20
132.8960240524753
 30
0.0
 10
108.5212683953448
 20
131.9072809959403
 30
0.0
 10
106.7346406980658
 20
130.0538184021569
 30
0.0
 10
104.8222669326213
 20
130.2336525051225
 30
0.0
 10
104.5408024457958
 20
130.2336525051225
 30
0.0
 10
104.1721769856939
 20
130.2336525051225
 30
0.0
 10
101.6465758193322
 20
130.6305277668397
 30
0.0
 10
101.6420971922469
 20
132.8388354296931
 30
0.0
  0
SPLINE
  5
6AB
330
6A2
100
AcDbEntity
  8
LOGO
370
     0
100
AcDbSpline
210
0.0
220
0.0
230
1.0
 70
    11
 71
     3
 72
    32
 73
    28
 74
     0
 42
0.000000001
 43
0.0000000001
 40
0.0
 40
0.0
 40
0.0
 40
0.0
 40
1.0
 40
1.0
 40
1.0
 40
2.0
 40
2.0
 40
2.0
 40
3.0
 40
3.0
 40
3.0
 40
4.0
 40
4.0
 40
4.0
 40
5.0
 40
5.0
 40
5.0
 40
6.0
 40
6.0
 40
6.0
 40
7.0
 40
7.0
 40
7.0
 40
8.0
 40
8.0
 40
8.0
 40
9.0
 40
9.0
 40
9.0
 40
9.0
 10
106.2595617172429
 20
153.4105476718098
 30
0.0
 10
104.8222669326213
 20
151.5474388043041
 30
0.0
 10
103.7177685914188
 20
149.8758773721411
 30
0.0
 10
101.9232171692965
 20
144.6141795664062
 30
0.0
 10
100.2754269116635
 20
139.7999999594306
 30
0.0
 10
99.22777268346732
 20
136.3052927937542
 30
0.0
 10
99.06964269637689
 20
132.039572749846
 30
0.0
 10
98.94665270641765
 20
128.8673267343149
 30
0.0
 10
100.8807305877373
 20
127.8027915271048
 30
0.0
 10
103.7129454545577
 20
127.8027915271048
 30
0.0
 10
104.9352661390825
 20
127.8027915271048
 30
0.0
 10
108.0151835347002
 20
127.8827177950895
 30
0.0
 10
110.2045431598849
 20
130.5926316915021
 30
0.0
 10
111.7417457794874
 20
132.4984597712065
 30
0.0
 10
113.155269389579
 20
134.475256864725
 30
0.0
 10
115.0562743324223
 20
140.9489400617108
 30
0.0
 10
116.6361961642235
 20
146.3680788349845
 30
0.0
 10
117.7282921534974
 20
149.8639917848761
 30
0.0
 10
117.6480213757369
 20
151.8595646611754
 30
0.0
 10
117.6480213757369
 20
151.8595646611754
 30
0.0
 10
117.6480213757369
 20
151.8595646611754
 30
0.0
 10
117.6480213757369
 20
151.8595646611754
 30
0.0
 10
117.13229024137
 20
155.18150017429
 30
0.0
 10
114.7162431837115
 20
155.886194920681
 30
0.0
 10
113.3351034925446
 20
155.886194920681
 30
0.0
 10
111.9829026225447
 20
155.886194920681
 30
0.0
 10
108.3414342923792
 20
156.1251124501957
 30
0.0
 10
106.2595617172429
 20
153.4105476718098
 30
0.0
  0
HATCH
  5
6AC
330
6A2
100
AcDbEntity
  8
LOGO
 62
   250
420
  2234388
100
AcDbHatch
 10
0.0
 20
0.0
 30
0.0
210
0.0
220
0.0
230
1.0
  2
SOLID
 70
     1
 71
     0
 91
        2
 92
        1
 93
        1
 72
     4
 94
        3
 73
     0
 74
     1
 95
       29
 96
       25
 40
0.0
 40
0.0
 40
0.0
 40
0.0
 40
1.0
 40
1.0
 40
1.0
 40
2.0
 40
2.0
 40
2.0
 40
3.0
 40
3.0
 40
3.0
 40
4.0
 40
4.0
 40
4.0
 40
5.0
 40
5.0
 40
5.0
 40
6.0
 40
6.0
 40
6.0
 40
7.0
 40
7.0
 40
7.0
 40
8.0
 40
8.0
 40
8.0
 40
8.0
 10
101.6420971922469
 20
132.8388354296931
 10
101.630039350094
 20
134.7164137077823
 10
102.2236296937908
 20
138.0598810818841
 10
103.7487744712405
 20
142.5378191476827
 10
105.819967243327
 20
148.5896501242061
 10
107.0602024361932
 20
150.8074318058939
 10
108.1522984254671
 20
151.8833358357054
 10
109.741177511439
 20
153.4532668840085
 10
111.8740375333931
 20
153.5290590346837
 10
112.5075910110823
 20
153.4532668840085
 10
113.4012493694975
 20
153.3490526768302
 10
114.6683563248758
 20
152.7580461564518
 10
114.7493161221879
 20
150.7838328862519
 10
114.8106388622796
 20
149.0909118479895
 10
114.3186789024427
 20
145.9191825971221
 10
112.6164561002338
 20
140.9489400617108
 10
110.6444821435766
 20
135.1746117095912
 10
109.4669477299053
 20
132.8960240524753
 10
108.5212683953448
 20
131.9072809959403
 10
106.7346406980658
 20
130.0538184021569
 10
104.8222669326213
 20
130.2336525051225
 10
104.5408024457958
 20
130.2336525051225
 10
104.1721769856939
 20
130.2336525051225
 10
101.6465758193322
 20
130.6305277668397
 10
101.6420971922469
 20
132.8388354296931
 97
        0
 92
        1
 93
        1
 72
     4
 94
        3
 73
     0
 74
     1
 95
       32
 96
       28
 40
0.0
 40
0.0
 40
0.0
 40
0.0
 40
1.0
 40
1.0
 40
1.0
 40
2.0
 40
2.0
 40
2.0
 40
3.0
 40
3.0
 40
3.0
 40
4.0
 40
4.0
 40
4.0
 40
5.0
 40
5.0
 40
5.0
 40
6.0
 40
6.0
 40
6.0
 40
7.0
 40
7.0
 40
7.0
 40
8.0
 40
8.0
 40
8.0
 40
9.0
 40
9.0
 40
9.0
 40
9.0
 10
106.2595617172429
 20
153.4105476718098
 10
104.8222669326213
 20
151.5474388043041
 10
103.7177685914188
 20
149.8758773721411
 10
101.9232171692965
 20
144.6141795664062
 10
100.2754269116635
 20
139.7999999594306
 10
99.22777268346732
 20
136.3052927937542
 10
99.06964269637689
 20
132.039572749846
 10
98.94665270641765
 20
128.8673267343149
 10
100.8807305877373
 20
127.8027915271048
 10
103.7129454545577
 20
127.8027915271048
 10
104.9352661390825
 20
127.8027915271048
 10
108.0151835347002
 20
127.8827177950895
 10
110.2045431598849
 20
130.5926316915021
 10
111.7417457794874
 20
132.4984597712065
 10
113.155269389579
 20
134.475256864725
 10
115.0562743324223
 20
140.9489400617108
 10
116.6361961642235
 20
146.3680788349845
 10
117.7282921534974
 20
149.8639917848761
 10
117.6480213757369
 20
151.8595646611754
 10
117.6480213757369
 20
151.8595646611754
 10
117.6480213757369
 20
151.8595646611754
 10
117.6480213757369
 20
151.8595646611754
 10
117.13229024137
 20
155.18150017429
 10
114.7162431837115
 20
155.886194920681
 10
113.3351034925446
 20
155.886194920681
 10
111.9829026225447
 20
155.886194920681
 10
108.3414342923792
 20
156.1251124501957
 10
106.2595617172429
 20
153.4105476718098
 97
        0
 75
     2
 76
     1
 98
        0
  0
ENDBLK
  5
6AD
330
6A2
100
AcDbEntity
  8
0
100
AcDbBlockEnd
  0
BLOCK
  5
572A
330
5729
100
AcDbEntity
  8
0
100
AcDbBlockBegin
  2
*D112
 70
     1
 10
0.0
 20
0.0
 30
0.0
  3
*D112
  1

  0
LINE
  5
572C
330
5729
100
AcDbEntity
  8
DIM
 62
     0
 48
0.05
370
    -2
100
AcDbLine
 10
178.289002521432
 20
249.468010323159
 30
0.0
 11
115.9874867955685
 21
249.468010323159
 31
0.0
  0
LINE
  5
572D
330
5729
100
AcDbEntity
  8
DIM
 62
     0
 48
0.05
370
    -2
100
AcDbLine
 10
169.8056181862391
 20
301.0255953243679
 30
0.0
 11
115.9874867955685
 21
301.0255953243679
 31
0.0
  0
LINE
  5
572E
330
5729
100
AcDbEntity
  8
DIM
 62
     0
 48
0.05
370
    -2
100
AcDbLine
 10
115.9874867955685
 20
251.468010323159
 30
0.0
 11
115.9874867955685
 21
299.0255953243679
 31
0.0
  0
INSERT
  5
572F
330
5729
100
AcDbEntity
  8
DIM
 62
     0
370
    -2
100
AcDbBlockReference
  2
_DOT
 10
115.9874867955685
 20
249.468010323159
 30
0.0
 41
2.0
 42
2.0
 43
2.0
 50
270.0
  0
INSERT
  5
5730
330
5729
100
AcDbEntity
  8
DIM
 62
     0
370
    -2
100
AcDbBlockReference
  2
_DOT
 10
115.9874867955685
 20
301.0255953243679
 30
0.0
 41
2.0
 42
2.0
 43
2.0
 50
90.0
  0
MTEXT
  5
5731
330
5729
100
AcDbEntity
  8
DIM
 62
     0
 48
0.05
100
AcDbMText
 10
110.4874867955685
 20
275.2468028237635
 30
0.0
 40
5.0
 41
0.0
 46
0.0
 71
     5
 72
     1
  1
\A1;95
  7
ＭＳ ゴシック
 11
0.0
 21
1.0
 31
0.0
 73
     1
 44
1.0
  0
POINT
  5
5732
330
5729
100
AcDbEntity
  8
Defpoints
 62
     0
100
AcDbPoint
 10
183.289002521432
 20
249.468010323159
 30
0.0
  0
POINT
  5
5733
330
5729
100
AcDbEntity
  8
Defpoints
 62
     0
100
AcDbPoint
 10
174.8056181862391
 20
301.0255953243679
 30
0.0
  0
POINT
  5
5734
330
5729
100
AcDbEntity
  8
Defpoints
 62
     0
100
AcDbPoint
 10
115.9874867955685
 20
301.0255953243679
 30
0.0
  0
ENDBLK
  5
572B
330
5729
100
AcDbEntity
  8
0
100
AcDbBlockEnd
  0
BLOCK
  5
573A
330
5739
100
AcDbEntity
  8
0
100
AcDbBlockBegin
  2
*D113
 70
     1
 10
0.0
 20
0.0
 30
0.0
  3
*D113
  1

  0
LINE
  5
573C
330
5739
100
AcDbEntity
  8
DIM
 62
     0
 48
0.05
370
    -2
100
AcDbLine
 10
153.3841094368403
 20
474.9617500460818
 30
0.0
 11
153.3841094368403
 21
487.57702631898
 31
0.0
  0
LINE
  5
573D
330
5739
100
AcDbEntity
  8
DIM
 62
     0
 48
0.05
370
    -2
100
AcDbLine
 10
195.2336913610786
 20
474.1990195068432
 30
0.0
 11
195.2336913610786
 21
487.57702631898
 31
0.0
  0
LINE
  5
573E
330
5739
100
AcDbEntity
  8
DIM
 62
     0
 48
0.05
370
    -2
100
AcDbLine
 10
155.3841094368403
 20
487.57702631898
 30
0.0
 11
193.2336913610786
 21
487.57702631898
 31
0.0
  0
INSERT
  5
573F
330
5739
100
AcDbEntity
  8
DIM
 62
     0
370
    -2
100
AcDbBlockReference
  2
_DOT
 10
153.3841094368403
 20
487.57702631898
 30
0.0
 41
2.0
 42
2.0
 43
2.0
 50
180.0
  0
INSERT
  5
5740
330
5739
100
AcDbEntity
  8
DIM
 62
     0
370
    -2
100
AcDbBlockReference
  2
_DOT
 10
195.2336913610786
 20
487.57702631898
 30
0.0
 41
2.0
 42
2.0
 43
2.0
  0
MTEXT
  5
5741
330
5739
100
AcDbEntity
  8
DIM
 62
     0
 48
0.05
100
AcDbMText
 10
174.3089003989595
 20
493.60952631898
 30
0.0
 40
5.0
 41
0.0
 46
0.0
 71
     5
 72
     1
  1
\A1;G1.1/2"
  7
ＭＳ ゴシック
 73
     1
 44
1.0
  0
POINT
  5
5742
330
5739
100
AcDbEntity
  8
Defpoints
 62
     0
100
AcDbPoint
 10
153.3841094368403
 20
469.9617500460818
 30
0.0
  0
POINT
  5
5743
330
5739
100
AcDbEntity
  8
Defpoints
 62
     0
100
AcDbPoint
 10
195.2336913610786
 20
469.1990195068432
 30
0.0
  0
POINT
  5
5744
330
5739
100
AcDbEntity
  8
Defpoints
 62
     0
100
AcDbPoint
 10
195.2336913610786
 20
487.57702631898
 30
0.0
  0
ENDBLK
  5
573B
330
5739
100
AcDbEntity
  8
0
100
AcDbBlockEnd
  0
BLOCK
  5
5749
330
5748
100
AcDbEntity
  8
0
100
AcDbBlockBegin
  2
*D114
 70
     1
 10
0.0
 20
0.0
 30
0.0
  3
*D114
  1

  0
LINE
  5
574B
330
5748
100
AcDbEntity
  8
DIM
 62
     0
 48
0.05
370
    -2
100
AcDbLine
 10
135.7739199146179
 20
435.347243331042
 30
0.0
 11
110.0452166560275
 21
435.347243331042
 31
0.0
  0
LINE
  5
574C
330
5748
100
AcDbEntity
  8
DIM
 62
     0
 48
0.05
370
    -2
100
AcDbLine
 10
130.3068500097215
 20
465.7014368180224
 30
0.0
 11
110.0452166560275
 21
465.7014368180224
 31
0.0
  0
LINE
  5
574D
330
5748
100
AcDbEntity
  8
DIM
 62
     0
 48
0.05
370
    -2
100
AcDbLine
 10
110.0452166560275
 20
437.347243331042
 30
0.0
 11
110.0452166560275
 21
463.7014368180224
 31
0.0
  0
INSERT
  5
574E
330
5748
100
AcDbEntity
  8
DIM
 62
     0
370
    -2
100
AcDbBlockReference
  2
_DOT
 10
110.0452166560275
 20
435.347243331042
 30
0.0
 41
2.0
 42
2.0
 43
2.0
 50
270.0
  0
INSERT
  5
574F
330
5748
100
AcDbEntity
  8
DIM
 62
     0
370
    -2
100
AcDbBlockReference
  2
_DOT
 10
110.0452166560275
 20
465.7014368180224
 30
0.0
 41
2.0
 42
2.0
 43
2.0
 50
90.0
  0
MTEXT
  5
5750
330
5748
100
AcDbEntity
  8
DIM
 62
     0
 48
0.05
100
AcDbMText
 10
104.5452166560275
 20
450.5243400745322
 30
0.0
 40
5.0
 41
0.0
 46
0.0
 71
     5
 72
     1
  1
\A1;33
  7
ＭＳ ゴシック
 11
0.0
 21
1.0
 31
0.0
 73
     1
 44
1.0
  0
POINT
  5
5751
330
5748
100
AcDbEntity
  8
Defpoints
 62
     0
100
AcDbPoint
 10
140.7739199146179
 20
435.347243331042
 30
0.0
  0
POINT
  5
5752
330
5748
100
AcDbEntity
  8
Defpoints
 62
     0
100
AcDbPoint
 10
135.3068500097215
 20
465.7014368180224
 30
0.0
  0
POINT
  5
5753
330
5748
100
AcDbEntity
  8
Defpoints
 62
     0
100
AcDbPoint
 10
110.0452166560275
 20
465.7014368180224
 30
0.0
  0
ENDBLK
  5
574A
330
5748
100
AcDbEntity
  8
0
100
AcDbBlockEnd
  0
BLOCK
  5
5758
330
5757
100
AcDbEntity
  8
0
100
AcDbBlockBegin
  2
*D115
 70
     1
 10
0.0
 20
0.0
 30
0.0
  3
*D115
  1

  0
LINE
  5
575A
330
5757
100
AcDbEntity
  8
DIM
 62
     0
 48
0.05
370
    -2
100
AcDbLine
 10
172.9629340952617
 20
429.4381772034818
 30
0.0
 11
172.9629340952617
 21
405.7444158251905
 31
0.0
  0
LINE
  5
575B
330
5757
100
AcDbEntity
  8
DIM
 62
     0
 48
0.05
370
    -2
100
AcDbLine
 10
272.9628433786367
 20
429.4381772034818
 30
0.0
 11
272.9628433786367
 21
405.7444158251905
 31
0.0
  0
LINE
  5
575C
330
5757
100
AcDbEntity
  8
DIM
 62
     0
 48
0.05
370
    -2
100
AcDbLine
 10
174.9629340952617
 20
405.7444158251905
 30
0.0
 11
270.9628433786367
 21
405.7444158251905
 31
0.0
  0
INSERT
  5
575D
330
5757
100
AcDbEntity
  8
DIM
 62
     0
370
    -2
100
AcDbBlockReference
  2
_DOT
 10
172.9629340952617
 20
405.7444158251905
 30
0.0
 41
2.0
 42
2.0
 43
2.0
 50
180.0
  0
INSERT
  5
575E
330
5757
100
AcDbEntity
  8
DIM
 62
     0
370
    -2
100
AcDbBlockReference
  2
_DOT
 10
272.9628433786367
 20
405.7444158251905
 30
0.0
 41
2.0
 42
2.0
 43
2.0
  0
MTEXT
  5
575F
330
5757
100
AcDbEntity
  8
DIM
 62
     0
 48
0.05
100
AcDbMText
 10
222.9628887369492
 20
411.2444158251905
 30
0.0
 40
5.0
 41
0.0
 46
0.0
 71
     5
 72
     1
  1
\A1;100
  7
ＭＳ ゴシック
 73
     1
 44
1.0
  0
POINT
  5
5760
330
5757
100
AcDbEntity
  8
Defpoints
 62
     0
100
AcDbPoint
 10
172.9629340952617
 20
434.4381772034818
 30
0.0
  0
POINT
  5
5761
330
5757
100
AcDbEntity
  8
Defpoints
 62
     0
100
AcDbPoint
 10
272.9628433786367
 20
434.4381772034818
 30
0.0
  0
POINT
  5
5762
330
5757
100
AcDbEntity
  8
Defpoints
 62
     0
100
AcDbPoint
 10
272.9628433786367
 20
405.7444158251905
 30
0.0
  0
ENDBLK
  5
5759
330
5757
100
AcDbEntity
  8
0
100
AcDbBlockEnd
  0
BLOCK
  5
5767
330
5766
100
AcDbEntity
  8
0
100
AcDbBlockBegin
  2
*D116
 70
     1
 10
0.0
 20
0.0
 30
0.0
  3
*D116
  1

  0
LINE
  5
5769
330
5766
100
AcDbEntity
  8
DIM
 62
     0
 48
0.05
370
    -2
100
AcDbLine
 10
279.6545477412294
 20
477.622967513918
 30
0.0
 11
290.3171337788763
 21
477.622967513918
 31
0.0
  0
LINE
  5
576A
330
5766
100
AcDbEntity
  8
DIM
 62
     0
 48
0.05
370
    -2
100
AcDbLine
 10
279.6545477412294
 20
437.6411751497101
 30
0.0
 11
290.3171337788763
 21
437.6411751497101
 31
0.0
  0
LINE
  5
576B
330
5766
100
AcDbEntity
  8
DIM
 62
     0
 48
0.05
370
    -2
100
AcDbLine
 10
290.3171337788763
 20
475.622967513918
 30
0.0
 11
290.3171337788763
 21
439.6411751497101
 31
0.0
  0
INSERT
  5
576C
330
5766
100
AcDbEntity
  8
DIM
 62
     0
370
    -2
100
AcDbBlockReference
  2
_DOT
 10
290.3171337788763
 20
477.622967513918
 30
0.0
 41
2.0
 42
2.0
 43
2.0
 50
90.0
  0
INSERT
  5
576D
330
5766
100
AcDbEntity
  8
DIM
 62
     0
370
    -2
100
AcDbBlockReference
  2
_DOT
 10
290.3171337788763
 20
437.6411751497101
 30
0.0
 41
2.0
 42
2.0
 43
2.0
 50
270.0
  0
MTEXT
  5
576E
330
5766
100
AcDbEntity
  8
DIM
 62
     0
 48
0.05
100
AcDbMText
 10
284.8171337788763
 20
457.632071331814
 30
0.0
 40
5.0
 41
0.0
 46
0.0
 71
     5
 72
     1
  1
\A1;%%c38.3
  7
ＭＳ ゴシック
 11
0.0
 21
1.0
 31
0.0
 73
     1
 44
1.0
  0
POINT
  5
576F
330
5766
100
AcDbEntity
  8
Defpoints
 62
     0
100
AcDbPoint
 10
274.6545477412294
 20
477.622967513918
 30
0.0
  0
POINT
  5
5770
330
5766
100
AcDbEntity
  8
Defpoints
 62
     0
100
AcDbPoint
 10
274.6545477412294
 20
437.6411751497101
 30
0.0
  0
POINT
  5
5771
330
5766
100
AcDbEntity
  8
Defpoints
 62
     0
100
AcDbPoint
 10
290.3171337788763
 20
437.6411751497101
 30
0.0
  0
ENDBLK
  5
5768
330
5766
100
AcDbEntity
  8
0
100
AcDbBlockEnd
  0
BLOCK
  5
5776
330
5775
100
AcDbEntity
  8
0
100
AcDbBlockBegin
  2
*D117
 70
     1
 10
0.0
 20
0.0
 30
0.0
  3
*D117
  1

  0
LINE
  5
5778
330
5775
100
AcDbEntity
  8
DIM
 62
     0
 48
0.05
370
    -2
100
AcDbLine
 10
279.7920389227901
 20
435.347243331042
 30
0.0
 11
302.1410863456162
 21
435.347243331042
 31
0.0
  0
LINE
  5
5779
330
5775
100
AcDbEntity
  8
DIM
 62
     0
 48
0.05
370
    -2
100
AcDbLine
 10
279.7920389227901
 20
479.9860469443651
 30
0.0
 11
302.1410863456162
 21
479.9860469443651
 31
0.0
  0
LINE
  5
577A
330
5775
100
AcDbEntity
  8
DIM
 62
     0
 48
0.05
370
    -2
100
AcDbLine
 10
302.1410863456162
 20
437.347243331042
 30
0.0
 11
302.1410863456162
 21
477.9860469443651
 31
0.0
  0
INSERT
  5
577B
330
5775
100
AcDbEntity
  8
DIM
 62
     0
370
    -2
100
AcDbBlockReference
  2
_DOT
 10
302.1410863456162
 20
435.347243331042
 30
0.0
 41
2.0
 42
2.0
 43
2.0
 50
270.0
  0
INSERT
  5
577C
330
5775
100
AcDbEntity
  8
DIM
 62
     0
370
    -2
100
AcDbBlockReference
  2
_DOT
 10
302.1410863456162
 20
479.9860469443651
 30
0.0
 41
2.0
 42
2.0
 43
2.0
 50
90.0
  0
MTEXT
  5
577D
330
5775
100
AcDbEntity
  8
DIM
 62
     0
 48
0.05
100
AcDbMText
 10
296.6410863456162
 20
457.6666451377035
 30
0.0
 40
5.0
 41
0.0
 46
0.0
 71
     5
 72
     1
  1
\A1;%%c43
  7
ＭＳ ゴシック
 11
0.0
 21
1.0
 31
0.0
 73
     1
 44
1.0
  0
POINT
  5
577E
330
5775
100
AcDbEntity
  8
Defpoints
 62
     0
100
AcDbPoint
 10
274.7920389227901
 20
435.347243331042
 30
0.0
  0
POINT
  5
577F
330
5775
100
AcDbEntity
  8
Defpoints
 62
     0
100
AcDbPoint
 10
274.7920389227901
 20
479.9860469443651
 30
0.0
  0
POINT
  5
5780
330
5775
100
AcDbEntity
  8
Defpoints
 62
     0
100
AcDbPoint
 10
302.1410863456162
 20
479.9860469443651
 30
0.0
  0
ENDBLK
  5
5777
330
5775
100
AcDbEntity
  8
0
100
AcDbBlockEnd
  0
ENDSEC
  0
SECTION
  2
ENTITIES
  0
MTEXT
  5
177
330
A
100
AcDbEntity
  8
TEMPLATE
390
1D
100
AcDbMText
 10
15.84042890954615
 20
68.74635032628565
 30
0.0
 40
3.257682291666665
 41
0.0
 46
0.0
 71
     1
 72
     1
  1
品名
  7
ＭＳ ゴシック
 73
     1
 44
0.7828267384257843
  0
MTEXT
  5
178
330
A
100
AcDbEntity
  8
TEMPLATE
390
1D
100
AcDbMText
 10
15.84042890954615
 20
51.7463503262856
 30
0.0
 40
3.257682291666665
 41
0.0
 46
0.0
 71
     1
 72
     1
  1
仕様
  7
ＭＳ ゴシック
 73
     1
 44
0.7828267384257843
  0
LINE
  5
179
330
A
100
AcDbEntity
  8
TEMPLATE
390
1D
100
AcDbLine
 10
404.4404289094496
 20
53.42933470128568
 30
0.0
 11
14.44042890944975
 21
53.42933470128568
 31
0.0
  0
LWPOLYLINE
  5
17A
330
A
100
AcDbEntity
  8
TEMPLATE
390
1D
100
AcDbPolyline
 90
        5
 70
   128
 43
0.0
 10
404.4404289094496
 20
579.4293347012853
 10
14.44042890944975
 20
579.4293347012853
 10
14.44042890944975
 20
19.42933470128565
 10
404.4404289094496
 20
19.42933470128565
 10
404.4404289094496
 20
579.4293347012853
  0
LINE
  5
17B
330
A
100
AcDbEntity
  8
TEMPLATE
390
1D
100
AcDbLine
 10
404.4404289094496
 20
70.42933470128564
 30
0.0
 11
14.44042890944975
 21
70.42933470128564
 31
0.0
  0
LINE
  5
17C
330
A
100
AcDbEntity
  8
TEMPLATE
390
1D
100
AcDbLine
 10
404.4404289095464
 20
36.42933470128565
 30
0.0
 11
253.840428909546
 21
36.42933470128565
 31
0.0
  0
MTEXT
  5
17D
330
A
100
AcDbEntity
  8
TEMPLATE
390
1D
100
AcDbMText
 10
14.4404289095869
 20
17.05857028991423
 30
0.0
 40
4.343576388888888
 41
0.0
 46
4.343576388888888
 71
     1
 72
     1
  1
{180905N}
  7
ＭＳ ゴシック
 73
     1
 44
0.7828267384257843
1001
ACAD
1000
ACAD_MTEXT_DEFINED_HEIGHT_BEGIN
1070
    46
1040
4.343576388888888
1000
ACAD_MTEXT_DEFINED_HEIGHT_END
  0
MTEXT
  5
17E
330
A
100
AcDbEntity
  8
TEMPLATE
390
1D
100
AcDbMText
 10
259.8147101599982
 20
30.44725580662403
 30
0.0
 40
4.8865234375
 41
0.0
 46
0.0
 71
     1
 72
     1
  1
大洋金物株式会社 ティーフォルム事業部
  7
ＭＳ ゴシック
 73
     1
 44
0.7828267384257843
  0
MTEXT
  5
180
330
A
100
AcDbEntity
  8
TEMPLATE
390
1D
100
AcDbMText
 10
366.240428909598
 20
46.02985813878564
 30
0.0
 40
4.8865234375
 41
0.0
 46
4.8865234375
 71
     1
 72
     1
  1
{FREE}
  7
ＭＳ ゴシック
 73
     1
 44
0.7828267384257843
1001
ACAD
1000
ACAD_MTEXT_DEFINED_HEIGHT_BEGIN
1070
    46
1040
4.8865234375
1000
ACAD_MTEXT_DEFINED_HEIGHT_END
  0
MTEXT
  5
181
330
A
100
AcDbEntity
  8
TEMPLATE
390
1D
100
AcDbMText
 10
355.640428909598
 20
51.7463503262856
 30
0.0
 40
3.257682291666665
 41
0.0
 46
0.0
 71
     1
 72
     1
  1
縮尺
  7
ＭＳ ゴシック
 73
     1
 44
0.7828267384257843
  0
LINE
  5
182
330
A
100
AcDbEntity
  8
TEMPLATE
390
1D
100
AcDbLine
 10
354.240428909598
 20
36.42933470128565
 30
0.0
 11
354.240428909598
 21
53.42933470128568
 31
0.0
  0
MTEXT
  5
183
330
A
100
AcDbEntity
  8
TEMPLATE
390
1D
100
AcDbMText
 10
305.440428909598
 20
51.7463503262856
 30
0.0
 40
3.257682291666665
 41
0.0
 46
0.0
 71
     1
 72
     1
  1
容量
  7
ＭＳ ゴシック
 73
     1
 44
0.7828267384257843
  0
LINE
  5
184
330
A
100
AcDbEntity
  8
TEMPLATE
390
1D
100
AcDbLine
 10
304.040428909598
 20
36.42933470128565
 30
0.0
 11
304.040428909598
 21
53.42933470128568
 31
0.0
  0
MTEXT
  5
185
330
A
100
AcDbEntity
  8
TEMPLATE
390
1D
100
AcDbMText
 10
255.240428909598
 20
68.74635032628565
 30
0.0
 40
3.257682291666665
 41
0.0
 46
0.0
 71
     1
 72
     1
  1
品番
  7
ＭＳ ゴシック
 73
     1
 44
0.7828267384257843
  0
MTEXT
  5
186
330
A
100
AcDbEntity
  8
TEMPLATE
390
1D
100
AcDbMText
 10
255.240428909598
 20
51.7463503262856
 30
0.0
 40
3.257682291666665
 41
0.0
 46
0.0
 71
     1
 72
     1
  1
重量
  7
ＭＳ ゴシック
 73
     1
 44
0.7828267384257843
  0
MTEXT
  5
187
330
A
100
AcDbEntity
  8
TEMPLATE
390
1D
100
AcDbMText
 10
265.840428909598
 20
63.02985813878564
 30
0.0
 40
4.8865234375
 41
0.0
 46
4.8865234375
 71
     1
 72
     1
  1
{TFM73-9504}
  7
ＭＳ ゴシック
 73
     1
 44
0.7828267384257843
1001
ACAD
1000
ACAD_MTEXT_DEFINED_HEIGHT_BEGIN
1070
    46
1040
4.8865234375
1000
ACAD_MTEXT_DEFINED_HEIGHT_END
  0
LINE
  5
188
330
A
100
AcDbEntity
  8
TEMPLATE
390
1D
100
AcDbLine
 10
253.840428909598
 20
19.42933470128565
 30
0.0
 11
253.840428909598
 21
70.42933470128564
 31
0.0
  0
MTEXT
  5
189
330
A
100
AcDbEntity
  8
TEMPLATE
390
1D
100
AcDbMText
 10
26.44042890954615
 20
63.02985813878564
 30
0.0
 40
4.8865234375
 41
0.0
 46
5.2823318359375
 71
     1
 72
     1
  1
{横引きエルボ -TFORM-}
  7
ＭＳ ゴシック
 73
     1
 44
0.7828267384257843
1001
ACAD
1000
ACAD_MTEXT_DEFINED_HEIGHT_BEGIN
1070
    46
1040
5.2823318359375
1000
ACAD_MTEXT_DEFINED_HEIGHT_END
  0
INSERT
  5
6B5
330
A
100
AcDbEntity
  8
TEMPLATE
100
AcDbBlockReference
  2
名称未設定-1
 10
374.15014961769
 20
5.189353151330764
 30
0.0
 41
0.1524
 42
0.1524
 43
0.1524
  0
INSERT
  5
68C
330
A
100
AcDbEntity
  8
TEMPLATE
100
AcDbBlockReference
  2
block 2
 10
367.7097207081031
 20
3.349230605734547
 30
0.0
 41
0.1524
 42
0.1524
 43
0.1524
  0
LWPOLYLINE
  5
D69
330
A
100
AcDbEntity
  8
BORDER
 48
0.5
100
AcDbPolyline
 90
        4
 70
     1
 43
0.0
 10
0.0
 20
0.0
 10
0.0
 20
594.0
 10
420.0
 20
594.0
 10
420.0
 20
0.0
  0
INSERT
  5
1343
330
A
100
AcDbEntity
  8
TEMPLATE
100
AcDbBlockReference
  2
block 2
 10
838.6973883465873
 20
9.774128564918277
 30
0.0
 41
0.1524
 42
0.1524
 43
0.1524
  0
SPLINE
  5
3CF3
330
A
100
AcDbEntity
  8
MODEL
100
AcDbSpline
210
0.0
220
0.0
230
1.0
 70
     8
 71
     3
 72
    11
 73
     7
 74
     0
 42
0.000000001
 43
0.0000000001
 40
0.0
 40
0.0
 40
0.0
 40
0.0
 40
1.0
 40
1.0
 40
1.0
 40
2.0
 40
2.0
 40
2.0
 40
2.0
 10
142.0732486379927
 20
446.5258392213124
 30
0.0
 10
142.0732486379927
 20
446.2211073042864
 30
0.0
 10
142.7257287189072
 20
445.9750704530726
 30
0.0
 10
143.5305747583347
 20
445.9750704530726
 30
0.0
 10
143.5305747583347
 20
445.9750704530726
 30
0.0
 10
143.5305747583347
 20
438.8118602979682
 30
0.0
 10
143.5305747583347
 20
438.8118602979682
 30
0.0
  0
SPLINE
  5
3CF4
330
A
100
AcDbEntity
  8
MODEL
100
AcDbSpline
210
0.0
220
0.0
230
1.0
 70
     8
 71
     3
 72
     8
 73
     4
 74
     0
 42
0.000000001
 43
0.0000000001
 40
0.0
 40
0.0
 40
0.0
 40
0.0
 40
1.0
 40
1.0
 40
1.0
 40
1.0
 10
143.5305747583347
 20
438.8118602979682
 30
0.0
 10
143.5305747583347
 20
436.8982403440847
 30
0.0
 10
145.3264025595949
 20
435.347243331042
 30
0.0
 10
147.543950388507
 20
435.347243331042
 30
0.0
  0
SPLINE
  5
3CF5
330
A
100
AcDbEntity
  8
MODEL
100
AcDbSpline
210
0.0
220
0.0
230
1.0
 70
     8
 71
     3
 72
    17
 73
    13
 74
     0
 42
0.000000001
 43
0.0000000001
 40
0.0
 40
0.0
 40
0.0
 40
0.0
 40
1.0
 40
1.0
 40
1.0
 40
2.0
 40
2.0
 40
2.0
 40
3.0
 40
3.0
 40
3.0
 40
4.0
 40
4.0
 40
4.0
 40
4.0
 10
147.1511758727624
 20
437.6411751497101
 30
0.0
 10
146.2602973396098
 20
437.6411751497101
 30
0.0
 10
145.5386696469163
 20
438.7330641822201
 30
0.0
 10
145.5386696469163
 20
440.0814426119102
 30
0.0
 10
145.5386696469163
 20
440.0814426119102
 30
0.0
 10
145.5386696469163
 20
457.9504719627964
 30
0.0
 10
145.5386696469163
 20
457.9504719627964
 30
0.0
 10
145.5386696469163
 20
457.9504719627964
 30
0.0
 10
149.6433040437968
 20
457.9504719627964
 30
0.0
 10
149.6433040437968
 20
457.9504719627964
 30
0.0
 10
149.6433040437968
 20
457.9504719627964
 30
0.0
 10
149.6433040437968
 20
456.6398835069853
 30
0.0
 10
149.6433040437968
 20
456.6398835069853
 30
0.0
  0
HATCH
  5
3CF7
330
A
100
AcDbEntity
  8
レイヤー 1
100
AcDbHatch
 10
0.0
 20
0.0
 30
0.0
210
0.0
220
0.0
230
1.0
  2
SOLID
 70
     1
 71
     0
 91
        1
 92
        1
 93
        1
 72
     4
 94
        3
 73
     0
 74
     1
 95
       11
 96
        7
 40
0.0
 40
0.0
 40
0.0
 40
0.0
 40
1.0
 40
1.0
 40
1.0
 40
2.0
 40
2.0
 40
2.0
 40
2.0
 10
510.5210832839682
 20
316.4637152952369
 10
510.5210832839682
 20
316.4637152952369
 10
516.7994294380776
 20
316.4637152952369
 10
516.7994294380776
 20
316.4637152952369
 10
516.7994294380776
 20
316.4637152952369
 10
510.5210832839682
 20
316.4637152952369
 10
510.5210832839682
 20
316.4637152952369
 97
        0
 75
     2
 76
     1
 98
        0
  0
HATCH
  5
3CF9
330
A
100
AcDbEntity
  8
レイヤー 1
100
AcDbHatch
 10
0.0
 20
0.0
 30
0.0
210
0.0
220
0.0
230
1.0
  2
SOLID
 70
     1
 71
     0
 91
        1
 92
        1
 93
        1
 72
     4
 94
        3
 73
     0
 74
     1
 95
       11
 96
        7
 40
0.0
 40
0.0
 40
0.0
 40
0.0
 40
1.0
 40
1.0
 40
1.0
 40
2.0
 40
2.0
 40
2.0
 40
2.0
 10
510.5210832839682
 20
303.4577822393799
 10
510.5210832839682
 20
303.4577822393799
 10
519.6741912622088
 20
303.4577822393799
 10
519.6741912622088
 20
303.4577822393799
 10
519.6741912622088
 20
303.4577822393799
 10
510.5210832839682
 20
303.4577822393799
 10
510.5210832839682
 20
303.4577822393799
 97
        0
 75
     2
 76
     1
 98
        0
  0
HATCH
  5
3CFB
330
A
100
AcDbEntity
  8
レイヤー 1
100
AcDbHatch
 10
0.0
 20
0.0
 30
0.0
210
0.0
220
0.0
230
1.0
  2
SOLID
 70
     1
 71
     0
 91
        1
 92
        1
 93
        1
 72
     4
 94
        3
 73
     0
 74
     1
 95
       11
 96
        7
 40
0.0
 40
0.0
 40
0.0
 40
0.0
 40
1.0
 40
1.0
 40
1.0
 40
2.0
 40
2.0
 40
2.0
 40
2.0
 10
510.7686135578778
 20
303.4577822393799
 10
510.7686135578778
 20
303.4577822393799
 10
510.7686135578778
 20
307.9470891277797
 10
510.7686135578778
 20
307.9470891277797
 10
510.7686135578778
 20
307.9470891277797
 10
510.7686135578778
 20
303.4577822393799
 10
510.7686135578778
 20
303.4577822393799
 97
        0
 75
     2
 76
     1
 98
        0
  0
HATCH
  5
3CFD
330
A
100
AcDbEntity
  8
レイヤー 1
100
AcDbHatch
 10
0.0
 20
0.0
 30
0.0
210
0.0
220
0.0
230
1.0
  2
SOLID
 70
     1
 71
     0
 91
        1
 92
        1
 93
        1
 72
     4
 94
        3
 73
     0
 74
     1
 95
       11
 96
        7
 40
0.0
 40
0.0
 40
0.0
 40
0.0
 40
1.0
 40
1.0
 40
1.0
 40
2.0
 40
2.0
 40
2.0
 40
2.0
 10
510.7686135578778
 20
307.5236866133263
 10
510.7686135578778
 20
307.5236866133263
 10
510.7686135578778
 20
316.4637152952369
 10
510.7686135578778
 20
316.4637152952369
 10
510.7686135578778
 20
316.4637152952369
 10
510.7686135578778
 20
307.5236866133263
 10
510.7686135578778
 20
307.5236866133263
 97
        0
 75
     2
 76
     1
 98
        0
  0
SPLINE
  5
3D08
330
A
100
AcDbEntity
  8
MODEL
100
AcDbSpline
210
0.0
220
0.0
230
1.0
 70
     8
 71
     3
 72
    11
 73
     7
 74
     0
 42
0.000000001
 43
0.0000000001
 40
0.0
 40
0.0
 40
0.0
 40
0.0
 40
1.0
 40
1.0
 40
1.0
 40
2.0
 40
2.0
 40
2.0
 40
2.0
 10
185.5204620111246
 20
256.0225606862088
 30
0.0
 10
185.5204620111246
 20
255.8456714467743
 30
0.0
 10
185.8947435609281
 20
255.7041600552267
 30
0.0
 10
186.3594798354429
 20
255.7041600552267
 30
0.0
 10
186.3594798354429
 20
255.7041600552267
 30
0.0
 10
186.3594798354429
 20
251.5649518524566
 30
0.0
 10
186.3594798354429
 20
251.5649518524566
 30
0.0
  0
SPLINE
  5
3D09
330
A
100
AcDbEntity
  8
MODEL
100
AcDbSpline
210
0.0
220
0.0
230
1.0
 70
     8
 71
     3
 72
     8
 73
     4
 74
     0
 42
0.000000001
 43
0.0000000001
 40
0.0
 40
0.0
 40
0.0
 40
0.0
 40
1.0
 40
1.0
 40
1.0
 40
1.0
 10
186.3594798354429
 20
251.5649518524566
 30
0.0
 10
186.3594798354429
 20
250.4585900639929
 30
0.0
 10
187.3979000751239
 20
249.5636913208531
 30
0.0
 10
188.6815531240208
 20
249.5636913208531
 30
0.0
  0
SPLINE
  5
3D0A
330
A
100
AcDbEntity
  8
MODEL
100
AcDbSpline
210
0.0
220
0.0
230
1.0
 70
     8
 71
     3
 72
     8
 73
     4
 74
     0
 42
0.000000001
 43
0.0000000001
 40
0.0
 40
0.0
 40
0.0
 40
0.0
 40
1.0
 40
1.0
 40
1.0
 40
1.0
 10
221.342543101628
 20
260.6385657934551
 30
0.0
 10
221.342543101628
 20
262.1348879506724
 30
0.0
 10
221.9765302166017
 20
263.3473832827971
 30
0.0
 10
222.7592651010997
 20
263.3473832827971
 30
0.0
  0
SPLINE
  5
3D0B
330
A
100
AcDbEntity
  8
MODEL
100
AcDbSpline
210
0.0
220
0.0
230
1.0
 70
     8
 71
     3
 72
     8
 73
     4
 74
     0
 42
0.000000001
 43
0.0000000001
 40
0.0
 40
0.0
 40
0.0
 40
0.0
 40
1.0
 40
1.0
 40
1.0
 40
1.0
 10
221.342543101628
 20
260.6385657934551
 30
0.0
 10
221.342543101628
 20
254.8044370601024
 30
0.0
 10
221.9765302166017
 20
250.5631155236588
 30
0.0
 10
222.7592651010997
 20
250.5631155236588
 30
0.0
  0
SPLINE
  5
3D0C
330
A
100
AcDbEntity
  8
MODEL
100
AcDbSpline
210
0.0
220
0.0
230
1.0
 70
     8
 71
     3
 72
     8
 73
     4
 74
     0
 42
0.000000001
 43
0.0000000001
 40
0.0
 40
0.0
 40
0.0
 40
0.0
 40
1.0
 40
1.0
 40
1.0
 40
1.0
 10
223.5009938437292
 20
249.5620832368582
 30
0.0
 10
223.5009938437292
 20
249.8515383559332
 30
0.0
 10
223.0768616900847
 20
250.2897412445326
 30
0.0
 10
222.5759435256859
 20
250.6451278073966
 30
0.0
  0
SPLINE
  5
3D0D
330
A
100
AcDbEntity
  8
MODEL
100
AcDbSpline
210
0.0
220
0.0
230
1.0
 70
    11
 71
     3
 72
    17
 73
    13
 74
     0
 42
0.000000001
 43
0.0000000001
 40
0.0
 40
0.0
 40
0.0
 40
0.0
 40
1.0
 40
1.0
 40
1.0
 40
2.0
 40
2.0
 40
2.0
 40
3.0
 40
3.0
 40
3.0
 40
4.0
 40
4.0
 40
4.0
 40
4.0
 10
225.1593304634286
 20
298.4816064444991
 30
0.0
 10
225.1593304634286
 20
295.3924770903728
 30
0.0
 10
223.3711410611442
 20
294.243501076045
 30
0.0
 10
223.3711410611442
 20
294.243501076045
 30
0.0
 10
223.3711410611442
 20
294.243501076045
 30
0.0
 10
185.3122151337899
 20
294.243501076045
 30
0.0
 10
185.3122151337899
 20
294.243501076045
 30
0.0
 10
183.5272418994952
 20
294.243501076045
 30
0.0
 10
183.5272418994952
 20
298.4816064444991
 30
0.0
 10
183.5272418994952
 20
298.4816064444991
 30
0.0
 10
183.5272418994952
 20
298.4816064444991
 30
0.0
 10
225.1593304634286
 20
298.4816064444991
 30
0.0
 10
225.1593304634286
 20
298.4816064444991
 30
0.0
  0
SPLINE
  5
3D0E
330
A
100
AcDbEntity
  8
MODEL
100
AcDbSpline
210
0.0
220
0.0
230
1.0
 70
     8
 71
     3
 72
    20
 73
    16
 74
     0
 42
0.000000001
 43
0.0000000001
 40
0.0
 40
0.0
 40
0.0
 40
0.0
 40
1.0
 40
1.0
 40
1.0
 40
2.0
 40
2.0
 40
2.0
 40
3.0
 40
3.0
 40
3.0
 40
4.0
 40
4.0
 40
4.0
 40
5.0
 40
5.0
 40
5.0
 40
5.0
 10
181.9267963036108
 20
317.3146821503039
 30
0.0
 10
181.9267963036108
 20
317.3146821503039
 30
0.0
 10
181.9267963036108
 20
316.1327404140816
 30
0.0
 10
181.9267963036108
 20
316.1327404140816
 30
0.0
 10
181.9267963036108
 20
316.1327404140816
 30
0.0
 10
226.7609821223095
 20
316.1327404140816
 30
0.0
 10
226.7609821223095
 20
316.1327404140816
 30
0.0
 10
226.7609821223095
 20
316.1327404140816
 30
0.0
 10
226.7609821223095
 20
317.1184959029308
 30
0.0
 10
226.7609821223095
 20
317.1184959029308
 30
0.0
 10
226.7609821223095
 20
317.1184959029308
 30
0.0
 10
205.2484364600691
 20
321.9861661553724
 30
0.0
 10
181.9267963036108
 20
317.1184959029308
 30
0.0
 10
181.9267963036108
 20
317.1184959029308
 30
0.0
 10
226.7609821223095
 20
317.1184959029308
 30
0.0
 10
226.7609821223095
 20
317.1184959029308
 30
0.0
  0
SPLINE
  5
3D0F
330
A
100
AcDbEntity
  8
MODEL
100
AcDbSpline
210
0.0
220
0.0
230
1.0
 70
    11
 71
     3
 72
    17
 73
    13
 74
     0
 42
0.000000001
 43
0.0000000001
 40
0.0
 40
0.0
 40
0.0
 40
0.0
 40
1.0
 40
1.0
 40
1.0
 40
2.0
 40
2.0
 40
2.0
 40
3.0
 40
3.0
 40
3.0
 40
4.0
 40
4.0
 40
4.0
 40
4.0
 10
181.9267963036108
 20
308.3681068448993
 30
0.0
 10
181.9267963036108
 20
308.3681068448993
 30
0.0
 10
226.7609821223095
 20
308.3681068448993
 30
0.0
 10
226.7609821223095
 20
308.3681068448993
 30
0.0
 10
226.7609821223095
 20
308.3681068448993
 30
0.0
 10
224.8373116434579
 20
307.6621579711558
 30
0.0
 10
224.8373116434579
 20
307.0269647931859
 30
0.0
 10
224.8373116434579
 20
307.0269647931859
 30
0.0
 10
183.8464465724753
 20
307.0269647931859
 30
0.0
 10
183.8464465724753
 20
307.0269647931859
 30
0.0
 10
183.8464465724753
 20
307.0269647931859
 30
0.0
 10
182.7372706370203
 20
308.3681068448993
 30
0.0
 10
181.9267963036108
 20
308.3681068448993
 30
0.0
  0
SPLINE
  5
3D10
330
A
100
AcDbEntity
  8
MODEL
100
AcDbSpline
210
0.0
220
0.0
230
1.0
 70
     8
 71
     3
 72
    14
 73
    10
 74
     0
 42
0.000000001
 43
0.0000000001
 40
0.0
 40
0.0
 40
0.0
 40
0.0
 40
1.0
 40
1.0
 40
1.0
 40
2.0
 40
2.0
 40
2.0
 40
3.0
 40
3.0
 40
3.0
 40
3.0
 10
183.8480546564699
 20
307.0269647931859
 30
0.0
 10
183.8480546564699
 20
307.0269647931859
 30
0.0
 10
183.6574967030789
 20
305.5853174917939
 30
0.0
 10
181.9255902406146
 20
305.1061084613256
 30
0.0
 10
181.9255902406146
 20
305.1061084613256
 30
0.0
 10
226.7609821223095
 20
305.1061084613256
 30
0.0
 10
226.7609821223095
 20
305.1061084613256
 30
0.0
 10
226.7609821223095
 20
305.1061084613256
 30
0.0
 10
224.8385177064542
 20
305.6858227414726
 30
0.0
 10
224.8385177064542
 20
307.0269647931859
 30
0.0
  0
SPLINE
  5
3D11
330
A
100
AcDbEntity
  8
MODEL
100
AcDbSpline
210
0.0
220
0.0
230
1.0
 70
     8
 71
     3
 72
     8
 73
     4
 74
     0
 42
0.000000001
 43
0.0000000001
 40
0.0
 40
0.0
 40
0.0
 40
0.0
 40
1.0
 40
1.0
 40
1.0
 40
1.0
 10
189.9322404510232
 20
305.1061084613256
 30
0.0
 10
189.9322404510232
 20
305.1061084613256
 30
0.0
 10
191.5342941309027
 20
302.15125412077
 30
0.0
 10
191.5342941309027
 20
301.0255953243679
 30
0.0
  0
SPLINE
  5
3D12
330
A
100
AcDbEntity
  8
MODEL
100
AcDbSpline
210
0.0
220
0.0
230
1.0
 70
     8
 71
     3
 72
     8
 73
     4
 74
     0
 42
0.000000001
 43
0.0000000001
 40
0.0
 40
0.0
 40
0.0
 40
0.0
 40
1.0
 40
1.0
 40
1.0
 40
1.0
 10
218.7543319119006
 20
305.1061084613256
 30
0.0
 10
218.7543319119006
 20
305.1061084613256
 30
0.0
 10
217.1534842950172
 20
302.15125412077
 30
0.0
 10
217.1534842950172
 20
301.0255953243679
 30
0.0
  0
SPLINE
  5
3D13
330
A
100
AcDbEntity
  8
MODEL
100
AcDbSpline
210
0.0
220
0.0
230
1.0
 70
    11
 71
     3
 72
    32
 73
    28
 74
     0
 42
0.000000001
 43
0.0000000001
 40
0.0
 40
0.0
 40
0.0
 40
0.0
 40
1.0
 40
1.0
 40
1.0
 40
2.0
 40
2.0
 40
2.0
 40
3.0
 40
3.0
 40
3.0
 40
4.0
 40
4.0
 40
4.0
 40
5.0
 40
5.0
 40
5.0
 40
6.0
 40
6.0
 40
6.0
 40
7.0
 40
7.0
 40
7.0
 40
8.0
 40
8.0
 40
8.0
 40
9.0
 40
9.0
 40
9.0
 40
9.0
 10
208.7351645819246
 20
282.3452875980748
 30
0.0
 10
208.7351645819246
 20
282.3452875980748
 30
0.0
 10
208.7351645819246
 20
268.7224040356169
 30
0.0
 10
208.7351645819246
 20
268.7224040356169
 30
0.0
 10
208.7351645819246
 20
268.7224040356169
 30
0.0
 10
231.3207042897354
 20
268.7224040356169
 30
0.0
 10
231.3207042897354
 20
268.7224040356169
 30
0.0
 10
231.3207042897354
 20
268.7224040356169
 30
0.0
 10
231.3207042897354
 20
282.3452875980748
 30
0.0
 10
231.3207042897354
 20
282.3452875980748
 30
0.0
 10
231.3207042897354
 20
282.3452875980748
 30
0.0
 10
231.3842236075324
 20
284.6167062408148
 30
0.0
 10
227.3029064285769
 20
284.6167062408148
 30
0.0
 10
227.3029064285769
 20
284.6167062408148
 30
0.0
 10
227.3029064285769
 20
288.9231551790504
 30
0.0
 10
227.3029064285769
 20
288.9231551790504
 30
0.0
 10
227.3029064285769
 20
288.9231551790504
 30
0.0
 10
225.4495896245009
 20
294.243501076045
 30
0.0
 10
220.0898456696322
 20
294.243501076045
 30
0.0
 10
214.7292976727658
 20
294.243501076045
 30
0.0
 10
212.7489422330954
 20
289.1595435262948
 30
0.0
 10
212.7489422330954
 20
289.1595435262948
 30
0.0
 10
212.7489422330954
 20
289.1595435262948
 30
0.0
 10
212.7489422330954
 20
284.6167062408148
 30
0.0
 10
212.7489422330954
 20
284.6167062408148
 30
0.0
 10
212.7489422330954
 20
284.6167062408148
 30
0.0
 10
208.7351645819246
 20
284.4993161091902
 30
0.0
 10
208.7351645819246
 20
282.3452875980748
 30
0.0
  0
SPLINE
  5
3D14
330
A
100
AcDbEntity
  8
MODEL
100
AcDbSpline
210
0.0
220
0.0
230
1.0
 70
     8
 71
     3
 72
    14
 73
    10
 74
     0
 42
0.000000001
 43
0.0000000001
 40
0.0
 40
0.0
 40
0.0
 40
0.0
 40
1.0
 40
1.0
 40
1.0
 40
2.0
 40
2.0
 40
2.0
 40
3.0
 40
3.0
 40
3.0
 40
3.0
 10
199.884672295213
 20
277.7469714147722
 30
0.0
 10
199.884672295213
 20
277.7469714147722
 30
0.0
 10
188.5303932285039
 20
277.7469714147722
 30
0.0
 10
188.5303932285039
 20
277.7469714147722
 30
0.0
 10
188.5303932285039
 20
277.7469714147722
 30
0.0
 10
187.1345763209653
 20
275.777872563066
 30
0.0
 10
188.4741102886839
 20
272.0977723408283
 30
0.0
 10
188.4741102886839
 20
272.0977723408283
 30
0.0
 10
199.884672295213
 20
272.0977723408283
 30
0.0
 10
199.884672295213
 20
272.0977723408283
 30
0.0
  0
SPLINE
  5
3D15
330
A
100
AcDbEntity
  8
MODEL
100
AcDbSpline
210
0.0
220
0.0
230
1.0
 70
     8
 71
     3
 72
    11
 73
     7
 74
     0
 42
0.000000001
 43
0.0000000001
 40
0.0
 40
0.0
 40
0.0
 40
0.0
 40
1.0
 40
1.0
 40
1.0
 40
2.0
 40
2.0
 40
2.0
 40
2.0
 10
192.3033603014448
 20
272.1170693487668
 30
0.0
 10
191.7554056801959
 20
271.5839895044708
 30
0.0
 10
191.1242327122133
 20
271.1120168519791
 30
0.0
 10
190.3933585365496
 20
270.7244686092179
 30
0.0
 10
190.3933585365496
 20
270.7244686092179
 30
0.0
 10
176.24543554977
 20
270.7244686092179
 30
0.0
 10
176.24543554977
 20
270.7244686092179
 30
0.0
  0
SPLINE
  5
3D16
330
A
100
AcDbEntity
  8
MODEL
100
AcDbSpline
210
0.0
220
0.0
230
1.0
 70
     8
 71
     3
 72
    14
 73
    10
 74
     0
 42
0.000000001
 43
0.0000000001
 40
0.0
 40
0.0
 40
0.0
 40
0.0
 40
1.0
 40
1.0
 40
1.0
 40
2.0
 40
2.0
 40
2.0
 40
3.0
 40
3.0
 40
3.0
 40
3.0
 10
176.2422193817801
 20
294.243501076045
 30
0.0
 10
176.2422193817801
 20
294.243501076045
 30
0.0
 10
188.2445562984178
 20
294.243501076045
 30
0.0
 10
188.2445562984178
 20
294.243501076045
 30
0.0
 10
188.2445562984178
 20
294.243501076045
 30
0.0
 10
195.8491855101112
 20
289.3935197475468
 30
0.0
 10
195.8491855101112
 20
282.4859949476252
 30
0.0
 10
195.8491855101112
 20
282.4859949476252
 30
0.0
 10
195.9476806547966
 20
280.3174936805563
 30
0.0
 10
195.3124874768268
 20
277.7638562967183
 30
0.0
  0
SPLINE
  5
3D17
330
A
100
AcDbEntity
  8
MODEL
100
AcDbSpline
210
0.0
220
0.0
230
1.0
 70
     8
 71
     3
 72
    11
 73
     7
 74
     0
 42
0.000000001
 43
0.0000000001
 40
0.0
 40
0.0
 40
0.0
 40
0.0
 40
1.0
 40
1.0
 40
1.0
 40
2.0
 40
2.0
 40
2.0
 40
2.0
 10
138.4285262636424
 20
274.0162165466966
 30
0.0
 10
138.4285262636424
 20
274.0162165466966
 30
0.0
 10
163.2818664252047
 20
276.2731624334827
 30
0.0
 10
174.0138169859026
 20
276.2731624334827
 30
0.0
 10
174.0138169859026
 20
276.2731624334827
 30
0.0
 10
187.9961073212116
 20
276.2731624334827
 30
0.0
 10
187.9961073212116
 20
276.2731624334827
 30
0.0
  0
SPLINE
  5
3D18
330
A
100
AcDbEntity
  8
MODEL
100
AcDbSpline
210
0.0
220
0.0
230
1.0
 70
     8
 71
     3
 72
    11
 73
     7
 74
     0
 42
0.000000001
 43
0.0000000001
 40
0.0
 40
0.0
 40
0.0
 40
0.0
 40
1.0
 40
1.0
 40
1.0
 40
2.0
 40
2.0
 40
2.0
 40
2.0
 10
138.9845213048649
 20
270.9150265626089
 30
0.0
 10
138.9845213048649
 20
270.9150265626089
 30
0.0
 10
163.8406756134183
 20
273.1767967013796
 30
0.0
 10
174.5726261741167
 20
273.1767967013796
 30
0.0
 10
174.5726261741167
 20
273.1767967013796
 30
0.0
 10
188.1448550907361
 20
273.1767967013796
 30
0.0
 10
188.1448550907361
 20
273.1767967013796
 30
0.0
  0
SPLINE
  5
3D19
330
A
100
AcDbEntity
  8
MODEL
100
AcDbSpline
210
0.0
220
0.0
230
1.0
 70
     8
 71
     3
 72
    14
 73
    10
 74
     0
 42
0.000000001
 43
0.0000000001
 40
0.0
 40
0.0
 40
0.0
 40
0.0
 40
1.0
 40
1.0
 40
1.0
 40
2.0
 40
2.0
 40
2.0
 40
3.0
 40
3.0
 40
3.0
 40
3.0
 10
154.4020266055867
 20
275.2930352386156
 30
0.0
 10
154.4020266055867
 20
275.2930352386156
 30
0.0
 10
154.4020266055867
 20
296.3042607154584
 30
0.0
 10
154.4020266055867
 20
296.3042607154584
 30
0.0
 10
154.4020266055867
 20
297.1099107968835
 30
0.0
 10
155.842467843983
 20
296.9346296414436
 30
0.0
 10
155.842467843983
 20
296.9346296414436
 30
0.0
 10
155.842467843983
 20
296.9346296414436
 30
0.0
 10
168.3738643949295
 20
296.942670061418
 30
0.0
 10
168.3738643949295
 20
296.942670061418
 30
0.0
  0
SPLINE
  5
3D1A
330
A
100
AcDbEntity
  8
MODEL
100
AcDbSpline
210
0.0
220
0.0
230
1.0
 70
     8
 71
     3
 72
    17
 73
    13
 74
     0
 42
0.000000001
 43
0.0000000001
 40
0.0
 40
0.0
 40
0.0
 40
0.0
 40
1.0
 40
1.0
 40
1.0
 40
2.0
 40
2.0
 40
2.0
 40
3.0
 40
3.0
 40
3.0
 40
4.0
 40
4.0
 40
4.0
 40
4.0
 10
168.3754724789241
 20
268.0478127997731
 30
0.0
 10
168.3754724789241
 20
268.0478127997731
 30
0.0
 10
155.842467843983
 20
268.0437925897862
 30
0.0
 10
155.842467843983
 20
268.0437925897862
 30
0.0
 10
155.842467843983
 20
268.0437925897862
 30
0.0
 10
154.4020266055867
 20
267.8693154763437
 30
0.0
 10
154.4020266055867
 20
268.671749389779
 30
0.0
 10
154.4020266055867
 20
268.671749389779
 30
0.0
 10
154.4020266055867
 20
270.7349211551845
 30
0.0
 10
154.4020266055867
 20
270.7349211551845
 30
0.0
 10
154.4020266055867
 20
270.7349211551845
 30
0.0
 10
154.4020266055867
 20
272.150839112659
 30
0.0
 10
154.4020266055867
 20
272.150839112659
 30
0.0
  0
SPLINE
  5
3D1B
330
A
100
AcDbEntity
  8
MODEL
100
AcDbSpline
210
0.0
220
0.0
230
1.0
 70
     8
 71
     3
 72
    11
 73
     7
 74
     0
 42
0.000000001
 43
0.0000000001
 40
0.0
 40
0.0
 40
0.0
 40
0.0
 40
1.0
 40
1.0
 40
1.0
 40
2.0
 40
2.0
 40
2.0
 40
2.0
 10
189.6074074840616
 20
270.7244686092179
 30
0.0
 10
189.6074074840616
 20
270.7244686092179
 30
0.0
 10
188.2574209703764
 20
268.4860156883726
 30
0.0
 10
187.1940754287752
 20
268.4860156883726
 30
0.0
 10
187.1940754287752
 20
268.4860156883726
 30
0.0
 10
221.4912908711526
 20
268.4860156883726
 30
0.0
 10
221.4912908711526
 20
268.4860156883726
 30
0.0
  0
LINE
  5
3D1E
330
A
100
AcDbEntity
  8
MODEL
100
AcDbLine
 10
147.5447544305043
 20
435.347243331042
 30
0.0
 11
272.9628433786367
 21
435.347243331042
 31
0.0
  0
LINE
  5
3D1F
330
A
100
AcDbEntity
  8
MODEL
100
AcDbLine
 10
272.9628433786367
 20
435.347243331042
 30
0.0
 11
272.9628433786367
 21
480.5778218544737
 31
0.0
  0
LINE
  5
3D20
330
A
100
AcDbEntity
  8
MODEL
100
AcDbLine
 10
272.9628433786367
 20
480.5778218544737
 30
0.0
 11
268.2382926017373
 21
480.5778218544737
 31
0.0
  0
LINE
  5
3D21
330
A
100
AcDbEntity
  8
MODEL
100
AcDbLine
 10
268.2382926017373
 20
480.5778218544737
 30
0.0
 11
268.2382926017373
 21
479.6338765494908
 31
0.0
  0
LINE
  5
3D22
330
A
100
AcDbEntity
  8
MODEL
100
AcDbLine
 10
268.2382926017373
 20
479.6338765494908
 30
0.0
 11
253.9118722915284
 21
479.6338765494908
 31
0.0
  0
LINE
  5
3D23
330
A
100
AcDbEntity
  8
MODEL
100
AcDbLine
 10
253.9118722915284
 20
479.6338765494908
 30
0.0
 11
253.4390955970393
 21
477.5859815820363
 31
0.0
  0
LINE
  5
3D24
330
A
100
AcDbEntity
  8
MODEL
100
AcDbLine
 10
253.4390955970393
 20
477.5859815820363
 30
0.0
 11
209.7349908057287
 21
459.1999532268026
 31
0.0
  0
LINE
  5
3D25
330
A
100
AcDbEntity
  8
MODEL
100
AcDbLine
 10
209.7349908057287
 20
459.1999532268026
 30
0.0
 11
206.5047520810535
 21
459.1999532268026
 31
0.0
  0
LINE
  5
3D26
330
A
100
AcDbEntity
  8
MODEL
100
AcDbLine
 10
206.5047520810535
 20
459.1999532268026
 30
0.0
 11
206.5047520810535
 21
461.3250362260104
 31
0.0
  0
LINE
  5
3D27
330
A
100
AcDbEntity
  8
MODEL
100
AcDbLine
 10
206.5047520810535
 20
461.3250362260104
 30
0.0
 11
208.8682335324992
 21
461.4046363837559
 31
0.0
  0
LINE
  5
3D28
330
A
100
AcDbEntity
  8
MODEL
100
AcDbLine
 10
208.8682335324992
 20
461.4046363837559
 30
0.0
 11
209.1030137957486
 21
465.8927988134105
 31
0.0
  0
LINE
  5
3D29
330
A
100
AcDbEntity
  8
MODEL
100
AcDbLine
 10
209.1030137957486
 20
465.8927988134105
 30
0.0
 11
205.6010088759419
 21
465.8927988134105
 31
0.0
  0
LINE
  5
3D2A
330
A
100
AcDbEntity
  8
MODEL
100
AcDbLine
 10
205.6010088759419
 20
465.8927988134105
 30
0.0
 11
205.6010088759419
 21
466.953330208021
 31
0.0
  0
LINE
  5
3D2B
330
A
100
AcDbEntity
  8
MODEL
100
AcDbLine
 10
142.0732486379927
 20
446.5258392213124
 30
0.0
 11
142.0732486379927
 21
461.2864422101338
 31
0.0
  0
LINE
  5
3D2C
330
A
100
AcDbEntity
  8
MODEL
100
AcDbLine
 10
142.0732486379927
 20
461.2864422101338
 30
0.0
 11
139.7129833545368
 21
461.3668464098768
 31
0.0
  0
LINE
  5
3D2D
330
A
100
AcDbEntity
  8
MODEL
100
AcDbLine
 10
139.7129833545368
 20
461.3668464098768
 30
0.0
 11
139.4765950072924
 21
465.8525967135391
 31
0.0
  0
LINE
  5
3D2E
330
A
100
AcDbEntity
  8
MODEL
100
AcDbLine
 10
139.4765950072924
 20
465.8525967135391
 30
0.0
 11
142.9794039690966
 21
465.8525967135391
 31
0.0
  0
LINE
  5
3D2F
330
A
100
AcDbEntity
  8
MODEL
100
AcDbLine
 10
142.9794039690966
 20
465.8525967135391
 30
0.0
 11
142.9794039690966
 21
466.9147361921445
 31
0.0
  0
LINE
  5
3D30
330
A
100
AcDbEntity
  8
MODEL
100
AcDbLine
 10
142.9790019480976
 20
466.9147361921445
 30
0.0
 11
205.6014108969409
 21
466.9147361921445
 31
0.0
  0
LINE
  5
3D31
330
A
100
AcDbEntity
  8
MODEL
100
AcDbLine
 10
272.9628433786367
 20
477.622967513918
 30
0.0
 11
255.9565510909931
 21
477.622967513918
 31
0.0
  0
LINE
  5
3D32
330
A
100
AcDbEntity
  8
MODEL
100
AcDbLine
 10
255.9565510909931
 20
477.622967513918
 30
0.0
 11
255.5665907222396
 21
475.9425197392893
 31
0.0
  0
LINE
  5
3D33
330
A
100
AcDbEntity
  8
MODEL
100
AcDbLine
 10
255.5665907222396
 20
475.9425197392893
 30
0.0
 11
209.6819240338982
 21
456.6422956329776
 31
0.0
  0
LINE
  5
3D34
330
A
100
AcDbEntity
  8
MODEL
100
AcDbLine
 10
272.9628433786367
 20
437.6411751497101
 30
0.0
 11
255.8809711432345
 21
437.6411751497101
 31
0.0
  0
LINE
  5
3D35
330
A
100
AcDbEntity
  8
MODEL
100
AcDbLine
 10
255.8809711432345
 20
437.6411751497101
 30
0.0
 11
255.8809711432345
 21
439.6086659174214
 31
0.0
  0
LINE
  5
3D36
330
A
100
AcDbEntity
  8
MODEL
100
AcDbLine
 10
255.8809711432345
 20
439.6086659174214
 30
0.0
 11
203.122147397865
 21
439.6086659174214
 31
0.0
  0
LINE
  5
3D37
330
A
100
AcDbEntity
  8
MODEL
100
AcDbLine
 10
203.122147397865
 20
439.6086659174214
 30
0.0
 11
201.0734483884132
 21
437.6411751497101
 31
0.0
  0
LINE
  5
3D38
330
A
100
AcDbEntity
  8
MODEL
100
AcDbLine
 10
201.0734483884132
 20
437.6411751497101
 30
0.0
 11
147.5447544305043
 21
437.6411751497101
 31
0.0
  0
LINE
  5
3D39
330
A
100
AcDbEntity
  8
MODEL
100
AcDbLine
 10
199.080228276784
 20
456.7210917487256
 30
0.0
 11
199.080228276784
 21
457.9504719627964
 31
0.0
  0
LINE
  5
3D3A
330
A
100
AcDbEntity
  8
MODEL
100
AcDbLine
 10
199.080228276784
 20
457.9504719627964
 30
0.0
 11
203.9085004713517
 21
457.9504719627964
 31
0.0
  0
LINE
  5
3D3B
330
A
100
AcDbEntity
  8
MODEL
100
AcDbLine
 10
203.9085004713517
 20
457.9504719627964
 30
0.0
 11
203.9085004713517
 21
456.7210917487256
 31
0.0
  0
LINE
  5
3D3C
330
A
100
AcDbEntity
  8
MODEL
100
AcDbLine
 10
203.9085004713517
 20
456.7210917487256
 30
0.0
 11
209.6811199919011
 21
456.6398835069853
 31
0.0
  0
LINE
  5
3D4C
330
A
100
AcDbEntity
  8
MODEL
100
AcDbLine
 10
152.0321128181619
 20
456.643099674975
 30
0.0
 11
152.0321128181619
 21
466.8640815463062
 31
0.0
  0
LINE
  5
3D4D
330
A
100
AcDbEntity
  8
MODEL
100
AcDbLine
 10
152.0321128181619
 20
466.8640815463062
 30
0.0
 11
153.3841094368403
 21
465.5052505706494
 31
0.0
  0
LINE
  5
3D4E
330
A
100
AcDbEntity
  8
MODEL
100
AcDbLine
 10
153.3841094368403
 20
465.5052505706494
 30
0.0
 11
153.3841094368403
 21
456.7186796227332
 31
0.0
  0
LINE
  5
3D4F
330
A
100
AcDbEntity
  8
MODEL
100
AcDbLine
 10
196.5868940427535
 20
456.7186796227332
 30
0.0
 11
196.5868940427535
 21
466.8745340922728
 31
0.0
  0
LINE
  5
3D50
330
A
100
AcDbEntity
  8
MODEL
100
AcDbLine
 10
196.5868940427535
 20
466.8745340922728
 30
0.0
 11
195.2336913610786
 21
465.5052505706494
 31
0.0
  0
LINE
  5
3D51
330
A
100
AcDbEntity
  8
MODEL
100
AcDbLine
 10
195.2336913610786
 20
465.5052505706494
 30
0.0
 11
195.2336913610786
 21
456.7186796227332
 31
0.0
  0
LINE
  5
3D52
330
A
100
AcDbEntity
  8
MODEL
100
AcDbLine
 10
153.3841094368403
 20
465.5052505706494
 30
0.0
 11
195.2340933820773
 21
465.5052505706494
 31
0.0
  0
LINE
  5
3D59
330
A
100
AcDbEntity
  8
MODEL
100
AcDbLine
 10
149.6433040437968
 20
456.6398835069853
 30
0.0
 11
153.3841094368403
 21
456.6398835069853
 31
0.0
  0
LINE
  5
3D5A
330
A
100
AcDbEntity
  8
MODEL
100
AcDbLine
 10
195.2336913610786
 20
456.6398835069853
 30
0.0
 11
199.0653534998318
 21
456.6398835069853
 31
0.0
  0
TEXT
  5
3D6F
330
A
100
AcDbEntity
  8
TEMPLATE
100
AcDbText
 10
95.5537253115005
 20
158.5264859107641
 30
0.0
 40
5.038834712854613
  1
・塩ビ管30に接続できます。
  7
ＭＳ ゴシック
100
AcDbText
  0
TEXT
  5
3D70
330
A
100
AcDbEntity
  8
TEMPLATE
100
AcDbText
 10
95.5537253115005
 20
149.6345854611849
 30
0.0
 40
5.038834712854613
  1
・塩ビパイプ用の接着材を使ってVP30と接着してください。
  7
ＭＳ ゴシック
100
AcDbText
  0
LINE
  5
3D71
330
A
100
AcDbEntity
  8
MODEL
100
AcDbLine
 10
188.6815531240208
 20
249.5620832368582
 30
0.0
 11
265.2319795733462
 21
249.5620832368582
 31
0.0
  0
LINE
  5
3D72
330
A
100
AcDbEntity
  8
MODEL
100
AcDbLine
 10
265.2319795733462
 20
249.5620832368582
 30
0.0
 11
265.2319795733462
 21
278.9554465369097
 31
0.0
  0
LINE
  5
3D73
330
A
100
AcDbEntity
  8
MODEL
100
AcDbLine
 10
265.2319795733462
 20
278.9554465369097
 30
0.0
 11
262.5046691180634
 21
278.9554465369097
 31
0.0
  0
LINE
  5
3D74
330
A
100
AcDbEntity
  8
MODEL
100
AcDbLine
 10
262.5046691180634
 20
278.9554465369097
 30
0.0
 11
262.5046691180634
 21
278.4095020206547
 31
0.0
  0
LINE
  5
3D75
330
A
100
AcDbEntity
  8
MODEL
100
AcDbLine
 10
262.5046691180634
 20
278.4095020206547
 30
0.0
 11
254.2238405865311
 21
278.4095020206547
 31
0.0
  0
LINE
  5
3D76
330
A
100
AcDbEntity
  8
MODEL
100
AcDbLine
 10
254.2238405865311
 20
278.4095020206547
 30
0.0
 11
253.9512703494024
 21
277.2275602844324
 31
0.0
  0
LINE
  5
3D77
330
A
100
AcDbEntity
  8
MODEL
100
AcDbLine
 10
253.9512703494024
 20
277.2275602844324
 30
0.0
 11
224.6262506191326
 21
263.3473832827971
 31
0.0
  0
LINE
  5
3D78
330
A
100
AcDbEntity
  8
MODEL
100
AcDbLine
 10
224.6262506191326
 20
263.3473832827971
 30
0.0
 11
222.7592651010997
 21
263.3473832827971
 31
0.0
  0
LINE
  5
3D79
330
A
100
AcDbEntity
  8
MODEL
100
AcDbLine
 10
222.7592651010997
 20
263.3473832827971
 30
0.0
 11
222.7592651010997
 21
264.5751554128726
 31
0.0
  0
LINE
  5
3D7A
330
A
100
AcDbEntity
  8
MODEL
100
AcDbLine
 10
222.7592651010997
 20
264.5751554128726
 30
0.0
 11
224.1237243707389
 21
264.6225938907212
 31
0.0
  0
LINE
  5
3D7B
330
A
100
AcDbEntity
  8
MODEL
100
AcDbLine
 10
224.1237243707389
 20
264.6225938907212
 30
0.0
 11
224.2608135313007
 21
267.2124131644433
 31
0.0
  0
LINE
  5
3D7C
330
A
100
AcDbEntity
  8
MODEL
100
AcDbLine
 10
224.2608135313007
 20
267.2124131644433
 30
0.0
 11
222.2346276977768
 21
267.2124131644433
 31
0.0
  0
LINE
  5
3D7D
330
A
100
AcDbEntity
  8
MODEL
100
AcDbLine
 10
222.2346276977768
 20
267.2124131644433
 30
0.0
 11
222.2346276977768
 21
267.8283093344748
 31
0.0
  0
LINE
  5
3D7E
330
A
100
AcDbEntity
  8
MODEL
100
AcDbLine
 10
185.5204620111246
 20
256.0225606862088
 30
0.0
 11
185.5204620111246
 21
264.5550543629369
 31
0.0
  0
LINE
  5
3D7F
330
A
100
AcDbEntity
  8
MODEL
100
AcDbLine
 10
185.5204620111246
 20
264.5550543629369
 30
0.0
 11
184.1535906154933
 21
264.6000807147931
 31
0.0
  0
LINE
  5
3D80
330
A
100
AcDbEntity
  8
MODEL
100
AcDbLine
 10
184.1535906154933
 20
264.6000807147931
 30
0.0
 11
184.0169034759303
 21
267.1955282824973
 31
0.0
  0
LINE
  5
3D81
330
A
100
AcDbEntity
  8
MODEL
100
AcDbLine
 10
184.0169034759303
 20
267.1955282824973
 30
0.0
 11
186.0414812254593
 21
267.1955282824973
 31
0.0
  0
LINE
  5
3D82
330
A
100
AcDbEntity
  8
MODEL
100
AcDbLine
 10
186.0414812254593
 20
267.1955282824973
 30
0.0
 11
186.0414812254593
 21
267.808208284539
 31
0.0
  0
LINE
  5
3D83
330
A
100
AcDbEntity
  8
MODEL
100
AcDbLine
 10
186.0414812254593
 20
267.8074042425416
 30
0.0
 11
222.2346276977768
 21
267.8074042425416
 31
0.0
  0
LINE
  5
3D84
330
A
100
AcDbEntity
  8
MODEL
100
AcDbLine
 10
191.5330880679066
 20
267.8074042425416
 30
0.0
 11
191.5330880679066
 21
268.3718417247375
 31
0.0
  0
LINE
  5
3D85
330
A
100
AcDbEntity
  8
MODEL
100
AcDbLine
 10
217.0268476804221
 20
267.8074042425416
 30
0.0
 11
217.0268476804221
 21
268.3718417247375
 31
0.0
  0
LINE
  5
3D86
330
A
100
AcDbEntity
  8
MODEL
100
AcDbLine
 10
186.0414812254593
 20
267.1939201985024
 30
0.0
 11
222.2346276977768
 21
267.2124131644433
 31
0.0
  0
LINE
  5
3D87
330
A
100
AcDbEntity
  8
MODEL
100
AcDbLine
 10
185.5204620111246
 20
264.5550543629369
 30
0.0
 11
222.7592651010997
 21
264.5783715808624
 31
0.0
  0
LINE
  5
3D88
330
A
100
AcDbEntity
  8
MODEL
100
AcDbLine
 10
186.3594798354429
 20
255.7041600552267
 30
0.0
 11
221.342543101628
 21
255.7041600552267
 31
0.0
  0
LINE
  5
3D89
330
A
100
AcDbEntity
  8
MODEL
100
AcDbLine
 10
139.9626383947388
 20
292.7134091549357
 30
0.0
 11
154.4020266055867
 21
292.7134091549357
 31
0.0
  0
LINE
  5
3D8A
330
A
100
AcDbEntity
  8
MODEL
100
AcDbLine
 10
168.9173967851922
 20
280.6913732093612
 30
0.0
 11
159.3098989579
 21
280.6913732093612
 31
0.0
  0
LINE
  5
3D8B
330
A
100
AcDbEntity
  8
MODEL
100
AcDbLine
 10
159.3098989579
 20
280.6913732093612
 30
0.0
 11
159.3098989579
 21
283.8930684431277
 31
0.0
  0
LINE
  5
3D8C
330
A
100
AcDbEntity
  8
MODEL
100
AcDbLine
 10
159.3098989579
 20
283.8930684431277
 30
0.0
 11
168.9173967851922
 21
283.8930684431277
 31
0.0
  0
LINE
  5
3D8D
330
A
100
AcDbEntity
  8
MODEL
100
AcDbLine
 10
168.9173967851922
 20
283.8930684431277
 30
0.0
 11
168.9173967851922
 21
280.6913732093612
 31
0.0
  0
LINE
  5
3D8E
330
A
100
AcDbEntity
  8
MODEL
100
AcDbLine
 10
168.9173967851922
 20
291.0410018002812
 30
0.0
 11
159.3098989579
 21
291.0410018002812
 31
0.0
  0
LINE
  5
3D8F
330
A
100
AcDbEntity
  8
MODEL
100
AcDbLine
 10
159.3098989579
 20
291.0410018002812
 30
0.0
 11
159.3098989579
 21
294.243501076045
 31
0.0
  0
LINE
  5
3D90
330
A
100
AcDbEntity
  8
MODEL
100
AcDbLine
 10
159.3098989579
 20
294.243501076045
 30
0.0
 11
168.9173967851922
 21
294.243501076045
 31
0.0
  0
LINE
  5
3D91
330
A
100
AcDbEntity
  8
MODEL
100
AcDbLine
 10
168.9173967851922
 20
294.243501076045
 30
0.0
 11
168.9173967851922
 21
291.0410018002812
 31
0.0
  0
LINE
  5
3D92
330
A
100
AcDbEntity
  8
MODEL
100
AcDbLine
 10
159.3098989579
 20
296.9378458094334
 30
0.0
 11
159.3098989579
 21
297.5794713233827
 31
0.0
  0
LINE
  5
3D93
330
A
100
AcDbEntity
  8
MODEL
100
AcDbLine
 10
159.3098989579
 20
297.5794713233827
 30
0.0
 11
168.3754724789241
 21
297.5794713233827
 31
0.0
  0
LINE
  5
3D94
330
A
100
AcDbEntity
  8
MODEL
100
AcDbLine
 10
159.3098989579
 20
268.045400673781
 30
0.0
 11
159.3098989579
 21
267.4037751598317
 31
0.0
  0
LINE
  5
3D95
330
A
100
AcDbEntity
  8
MODEL
100
AcDbLine
 10
159.3098989579
 20
267.4037751598317
 30
0.0
 11
168.3754724789241
 21
267.4037751598317
 31
0.0
  0
LINE
  5
3D96
330
A
100
AcDbEntity
  8
MODEL
100
AcDbLine
 10
168.3754724789241
 20
291.0410018002812
 30
0.0
 11
168.3754724789241
 21
283.8906563171355
 31
0.0
  0
LINE
  5
3D97
330
A
100
AcDbEntity
  8
MODEL
100
AcDbLine
 10
183.5272418994952
 20
298.4816064444991
 30
0.0
 11
181.9255902406146
 21
298.4816064444991
 31
0.0
  0
LINE
  5
3D98
330
A
100
AcDbEntity
  8
MODEL
100
AcDbLine
 10
181.9255902406146
 20
298.4816064444991
 30
0.0
 11
181.9255902406146
 21
301.0255953243679
 31
0.0
  0
LINE
  5
3D99
330
A
100
AcDbEntity
  8
MODEL
100
AcDbLine
 10
181.9255902406146
 20
301.0255953243679
 30
0.0
 11
226.7609821223095
 21
301.0255953243679
 31
0.0
  0
LINE
  5
3D9A
330
A
100
AcDbEntity
  8
MODEL
100
AcDbLine
 10
226.7609821223095
 20
301.0255953243679
 30
0.0
 11
226.7609821223095
 21
298.4816064444991
 31
0.0
  0
LINE
  5
3D9B
330
A
100
AcDbEntity
  8
MODEL
100
AcDbLine
 10
226.7609821223095
 20
298.4816064444991
 30
0.0
 11
225.1593304634286
 21
298.4816064444991
 31
0.0
  0
LINE
  5
3D9C
330
A
100
AcDbEntity
  8
MODEL
100
AcDbLine
 10
194.4139705446987
 20
316.1327404140816
 30
0.0
 11
194.4139705446987
 21
314.4643532694142
 31
0.0
  0
LINE
  5
3D9D
330
A
100
AcDbEntity
  8
MODEL
100
AcDbLine
 10
194.4139705446987
 20
314.4643532694142
 30
0.0
 11
214.2697876712343
 21
314.4643532694142
 31
0.0
  0
LINE
  5
3D9E
330
A
100
AcDbEntity
  8
MODEL
100
AcDbLine
 10
214.2697876712343
 20
314.4643532694142
 30
0.0
 11
214.2697876712343
 21
316.1327404140816
 31
0.0
  0
LINE
  5
3D9F
330
A
100
AcDbEntity
  8
MODEL
100
AcDbLine
 10
194.4139705446987
 20
314.4643532694142
 30
0.0
 11
193.4535423787683
 21
314.4643532694142
 31
0.0
  0
LINE
  5
3DA0
330
A
100
AcDbEntity
  8
MODEL
100
AcDbLine
 10
193.4535423787683
 20
314.4643532694142
 30
0.0
 11
193.4535423787683
 21
312.9109441303793
 31
0.0
  0
LINE
  5
3DA1
330
A
100
AcDbEntity
  8
MODEL
100
AcDbLine
 10
193.4535423787683
 20
312.9109441303793
 30
0.0
 11
215.2286077531698
 21
312.9109441303793
 31
0.0
  0
LINE
  5
3DA2
330
A
100
AcDbEntity
  8
MODEL
100
AcDbLine
 10
215.2286077531698
 20
312.9109441303793
 30
0.0
 11
215.2286077531698
 21
314.4643532694142
 31
0.0
  0
LINE
  5
3DA3
330
A
100
AcDbEntity
  8
MODEL
100
AcDbLine
 10
215.2286077531698
 20
314.4643532694142
 30
0.0
 11
214.2697876712343
 21
314.4643532694142
 31
0.0
  0
SPLINE
  5
3DA4
330
A
100
AcDbEntity
  8
MODEL
100
AcDbSpline
210
0.0
220
0.0
230
1.0
 70
     8
 71
     3
 72
    14
 73
    10
 74
     0
 42
0.000000001
 43
0.0000000001
 40
0.0
 40
0.0
 40
0.0
 40
0.0
 40
1.0
 40
1.0
 40
1.0
 40
2.0
 40
2.0
 40
2.0
 40
3.0
 40
3.0
 40
3.0
 40
3.0
 10
215.2322259421582
 20
312.9109441303793
 30
0.0
 10
215.2322259421582
 20
312.9109441303793
 30
0.0
 10
217.1534842950172
 20
312.9109441303793
 30
0.0
 10
217.1534842950172
 20
312.9109441303793
 30
0.0
 10
217.1534842950172
 20
312.9109441303793
 30
0.0
 10
215.2322259421582
 20
311.8319197698281
 30
0.0
 10
215.2322259421582
 20
311.2160235997968
 30
0.0
 10
215.2322259421582
 20
311.2160235997968
 30
0.0
 10
193.4523363157722
 20
311.2160235997968
 30
0.0
 10
193.4523363157722
 20
311.2160235997968
 30
0.0
  0
SPLINE
  5
3DA5
330
A
100
AcDbEntity
  8
MODEL
100
AcDbSpline
210
0.0
220
0.0
230
1.0
 70
     8
 71
     3
 72
    11
 73
     7
 74
     0
 42
0.000000001
 43
0.0000000001
 40
3.0
 40
3.0
 40
3.0
 40
3.0
 40
4.0
 40
4.0
 40
4.0
 40
5.0
 40
5.0
 40
5.0
 40
5.0
 10
193.4523363157722
 20
311.2160235997968
 30
0.0
 10
193.4523363157722
 20
311.8769461216842
 30
0.0
 10
191.5330880679066
 20
312.9109441303793
 30
0.0
 10
191.5330880679066
 20
312.9109441303793
 30
0.0
 10
191.5330880679066
 20
312.9109441303793
 30
0.0
 10
193.4523363157722
 20
312.9109441303793
 30
0.0
 10
193.4523363157722
 20
312.9109441303793
 30
0.0
  0
LINE
  5
3DA6
330
A
100
AcDbEntity
  8
MODEL
100
AcDbLine
 10
194.7331752176783
 20
311.2168276417942
 30
0.0
 11
194.7331752176783
 21
310.0879526774022
 31
0.0
  0
LINE
  5
3DA7
330
A
100
AcDbEntity
  8
MODEL
100
AcDbLine
 10
194.7331752176783
 20
310.0879526774022
 30
0.0
 11
213.9521910822495
 21
310.0879526774022
 31
0.0
  0
LINE
  5
3DA8
330
A
100
AcDbEntity
  8
MODEL
100
AcDbLine
 10
213.9521910822495
 20
310.0879526774022
 30
0.0
 11
213.9521910822495
 21
311.2168276417942
 31
0.0
  0
LINE
  5
3DA9
330
A
100
AcDbEntity
  8
MODEL
100
AcDbLine
 10
181.9267963036108
 20
316.1327404140816
 30
0.0
 11
181.9267963036108
 21
317.1184959029308
 31
0.0
  0
LINE
  5
3DAA
330
A
100
AcDbEntity
  8
MODEL
100
AcDbLine
 10
181.9267963036108
 20
317.1184959029308
 30
0.0
 11
182.195748351751
 21
317.1884475567073
 31
0.0
  0
LINE
  5
3DAB
330
A
100
AcDbEntity
  8
MODEL
100
AcDbLine
 10
205.9455408718408
 20
310.0879526774022
 30
0.0
 11
205.9455408718408
 21
308.3681068448993
 31
0.0
  0
LINE
  5
3DAC
330
A
100
AcDbEntity
  8
MODEL
100
AcDbLine
 10
202.7434436170753
 20
310.0879526774022
 30
0.0
 11
202.7434436170753
 21
308.3681068448993
 31
0.0
  0
LINE
  5
3DAD
330
A
100
AcDbEntity
  8
MODEL
100
AcDbLine
 10
208.7351645819246
 20
280.1904550449622
 30
0.0
 11
199.884672295213
 21
280.1904550449622
 31
0.0
  0
LINE
  5
3DAE
330
A
100
AcDbEntity
  8
MODEL
100
AcDbLine
 10
199.884672295213
 20
280.1904550449622
 30
0.0
 11
199.884672295213
 21
269.6518765846462
 31
0.0
  0
LINE
  5
3DAF
330
A
100
AcDbEntity
  8
MODEL
100
AcDbLine
 10
199.884672295213
 20
269.6518765846462
 30
0.0
 11
208.7351645819246
 21
269.6518765846462
 31
0.0
  0
LINE
  5
3DB0
330
A
100
AcDbEntity
  8
MODEL
100
AcDbLine
 10
168.9173967851922
 20
273.0393055198193
 30
0.0
 11
168.9173967851922
 21
270.7244686092179
 31
0.0
  0
LINE
  5
3DB1
330
A
100
AcDbEntity
  8
MODEL
100
AcDbLine
 10
168.9173967851922
 20
270.7244686092179
 30
0.0
 11
159.3098989579
 21
270.7244686092179
 31
0.0
  0
LINE
  5
3DB2
330
A
100
AcDbEntity
  8
MODEL
100
AcDbLine
 10
159.3098989579
 20
270.7244686092179
 30
0.0
 11
159.3098989579
 21
272.5086378015153
 31
0.0
  0
LINE
  5
3DB3
330
A
100
AcDbEntity
  8
MODEL
100
AcDbLine
 10
168.3754724789241
 20
280.6913732093612
 30
0.0
 11
168.3754724789241
 21
276.1356712519224
 31
0.0
  0
LINE
  5
3DB4
330
A
100
AcDbEntity
  8
MODEL
100
AcDbLine
 10
172.11868999796
 20
273.1446350214825
 30
0.0
 11
172.11868999796
 21
265.8053396689406
 31
0.0
  0
LINE
  5
3DB5
330
A
100
AcDbEntity
  8
MODEL
100
AcDbLine
 10
172.11868999796
 20
265.8053396689406
 30
0.0
 11
168.3738643949295
 21
265.8053396689406
 31
0.0
  0
LINE
  5
3DB6
330
A
100
AcDbEntity
  8
MODEL
100
AcDbLine
 10
168.3738643949295
 20
265.8053396689406
 30
0.0
 11
168.3738643949295
 21
270.7244686092179
 31
0.0
  0
LINE
  5
3DB7
330
A
100
AcDbEntity
  8
MODEL
100
AcDbLine
 10
168.3754724789241
 20
294.243501076045
 30
0.0
 11
168.3754724789241
 21
299.1803189402658
 31
0.0
  0
LINE
  5
3DB8
330
A
100
AcDbEntity
  8
MODEL
100
AcDbLine
 10
168.3754724789241
 20
299.1803189402658
 30
0.0
 11
172.11868999796
 21
299.1803189402658
 31
0.0
  0
LINE
  5
3DB9
330
A
100
AcDbEntity
  8
MODEL
100
AcDbLine
 10
172.11868999796
 20
299.1803189402658
 30
0.0
 11
172.11868999796
 21
276.2562775515368
 31
0.0
  0
LINE
  5
3DBA
330
A
100
AcDbEntity
  8
MODEL
100
AcDbLine
 10
174.8439903482492
 20
273.1767967013796
 30
0.0
 11
174.8439903482492
 21
269.6478563746591
 31
0.0
  0
LINE
  5
3DBB
330
A
100
AcDbEntity
  8
MODEL
100
AcDbLine
 10
174.8439903482492
 20
269.6478563746591
 30
0.0
 11
172.11868999796
 21
269.6478563746591
 31
0.0
  0
LINE
  5
3DBC
330
A
100
AcDbEntity
  8
MODEL
100
AcDbLine
 10
172.11868999796
 20
295.3394103185423
 30
0.0
 11
174.8439903482492
 21
295.3394103185423
 31
0.0
  0
LINE
  5
3DBD
330
A
100
AcDbEntity
  8
MODEL
100
AcDbLine
 10
174.8439903482492
 20
295.3394103185423
 30
0.0
 11
174.8439903482492
 21
276.2731624334827
 31
0.0
  0
LINE
  5
3DBE
330
A
100
AcDbEntity
  8
MODEL
100
AcDbLine
 10
176.2422193817801
 20
273.1767967013796
 30
0.0
 11
176.2422193817801
 21
270.7244686092179
 31
0.0
  0
LINE
  5
3DBF
330
A
100
AcDbEntity
  8
MODEL
100
AcDbLine
 10
176.2422193817801
 20
270.7244686092179
 30
0.0
 11
174.8464024742415
 21
270.7244686092179
 31
0.0
  0
LINE
  5
3DC0
330
A
100
AcDbEntity
  8
MODEL
100
AcDbLine
 10
174.8439903482492
 20
294.243501076045
 30
0.0
 11
176.2410133187838
 21
294.243501076045
 31
0.0
  0
LINE
  5
3DC1
330
A
100
AcDbEntity
  8
MODEL
100
AcDbLine
 10
176.2410133187838
 20
294.243501076045
 30
0.0
 11
176.2410133187838
 21
276.2723583914856
 31
0.0
  0
TEXT
  5
3DC2
330
A
100
AcDbEntity
  8
TEMPLATE
100
AcDbText
 10
284.6546817890425
 20
244.2035930729185
 30
0.0
 40
5.038834712854613
  1
VP30に接続
  7
ＭＳ ゴシック
100
AcDbText
  0
LINE
  5
3DCB
330
A
100
AcDbEntity
  8
MODEL
100
AcDbLine
 10
320.8427402836002
 20
252.6632732209462
 30
0.0
 11
265.2319795733462
 21
252.6632732209462
 31
0.0
  0
LINE
  5
3DCC
330
A
100
AcDbEntity
  8
MODEL
100
AcDbLine
 10
265.2319795733462
 20
252.6632732209462
 30
0.0
 11
265.2319795733462
 21
275.8534525108243
 31
0.0
  0
LINE
  5
3DCD
330
A
100
AcDbEntity
  8
MODEL
100
AcDbLine
 10
265.2319795733462
 20
275.8534525108243
 30
0.0
 11
320.8427402836002
 21
275.8534525108243
 31
0.0
  0
LINE
  5
3DCE
330
A
100
AcDbEntity
  8
MODEL
100
AcDbLine
 10
320.8427402836002
 20
275.8534525108243
 30
0.0
 11
320.8427402836002
 21
252.6632732209462
 31
0.0
  0
SOLID
  5
3DCF
330
A
100
AcDbEntity
  8
MODEL
 62
   254
100
AcDbTrace
 10
265.2319795733462
 20
252.6632732209462
 30
0.0
 11
265.2319795733462
 21
275.8534525108243
 31
0.0
 12
320.8427402836002
 22
252.6632732209462
 32
0.0
 13
320.8427402836002
 23
252.6632732209462
 33
0.0
  0
SOLID
  5
3DD0
330
A
100
AcDbEntity
  8
MODEL
 62
   254
100
AcDbTrace
 10
320.8427402836002
 20
252.6632732209462
 30
0.0
 11
265.2319795733462
 21
275.8534525108243
 31
0.0
 12
320.8427402836002
 22
275.8534525108243
 32
0.0
 13
320.8427402836002
 23
275.8534525108243
 33
0.0
  0
SPLINE
  5
3DD1
330
A
100
AcDbEntity
  8
MODEL
100
AcDbSpline
210
0.0
220
0.0
230
1.0
 70
     8
 71
     3
 72
     8
 73
     4
 74
     0
 42
0.000000001
 43
0.0000000001
 40
0.0
 40
0.0
 40
0.0
 40
0.0
 40
1.0
 40
1.0
 40
1.0
 40
1.0
 10
180.3878599205297
 20
304.4122202175434
 30
0.0
 10
181.5778420767262
 20
302.5034245156444
 30
0.0
 10
182.7758646528968
 20
302.805744306678
 30
0.0
 10
184.8056686754091
 20
302.805744306678
 30
0.0
  0
SPLINE
  5
3DD2
330
A
100
AcDbEntity
  8
MODEL
100
AcDbSpline
210
0.0
220
0.0
230
1.0
 70
     8
 71
     3
 72
     8
 73
     4
 74
     0
 42
0.000000001
 43
0.0000000001
 40
0.0
 40
0.0
 40
0.0
 40
0.0
 40
1.0
 40
1.0
 40
1.0
 40
1.0
 10
180.3878599205297
 20
304.4122202175434
 30
0.0
 10
179.7518627005624
 20
305.3794827404518
 30
0.0
 10
179.408134746661
 20
306.5204183348049
 30
0.0
 10
177.6509009612775
 20
306.5204183348049
 30
0.0
  0
SPLINE
  5
3DD3
330
A
100
AcDbEntity
  8
MODEL
100
AcDbSpline
210
0.0
220
0.0
230
1.0
 70
     8
 71
     3
 72
     8
 73
     4
 74
     0
 42
0.000000001
 43
0.0000000001
 40
0.0
 40
0.0
 40
0.0
 40
0.0
 40
1.0
 40
1.0
 40
1.0
 40
1.0
 10
139.9626383947388
 20
307.4225534559214
 30
0.0
 10
142.2939581662874
 20
306.6297680464555
 30
0.0
 10
172.1986921767042
 20
306.5204183348049
 30
0.0
 10
177.6509009612775
 20
306.5204183348049
 30
0.0
  0
SPLINE
  5
3DD4
330
A
100
AcDbEntity
  8
MODEL
100
AcDbSpline
210
0.0
220
0.0
230
1.0
 70
     8
 71
     3
 72
     8
 73
     4
 74
     0
 42
0.000000001
 43
0.0000000001
 40
0.0
 40
0.0
 40
0.0
 40
0.0
 40
1.0
 40
1.0
 40
1.0
 40
1.0
 10
229.0814473268928
 20
304.4122202175434
 30
0.0
 10
227.8898570867013
 20
302.5034245156444
 30
0.0
 10
226.6918345105304
 20
302.805744306678
 30
0.0
 10
224.6628345300157
 20
302.805744306678
 30
0.0
  0
SPLINE
  5
3DD5
330
A
100
AcDbEntity
  8
MODEL
100
AcDbSpline
210
0.0
220
0.0
230
1.0
 70
     8
 71
     3
 72
     8
 73
     4
 74
     0
 42
0.000000001
 43
0.0000000001
 40
0.0
 40
0.0
 40
0.0
 40
0.0
 40
1.0
 40
1.0
 40
1.0
 40
1.0
 10
229.0814473268928
 20
304.4122202175434
 30
0.0
 10
229.7158364628651
 20
305.3794827404518
 30
0.0
 10
230.0591623957675
 20
306.5204183348049
 30
0.0
 10
231.815994160152
 20
306.5204183348049
 30
0.0
  0
SPLINE
  5
3DD6
330
A
100
AcDbEntity
  8
MODEL
100
AcDbSpline
210
0.0
220
0.0
230
1.0
 70
     8
 71
     3
 72
     8
 73
     4
 74
     0
 42
0.000000001
 43
0.0000000001
 40
0.0
 40
0.0
 40
0.0
 40
0.0
 40
1.0
 40
1.0
 40
1.0
 40
1.0
 10
269.5038547056926
 20
307.4225534559214
 30
0.0
 10
267.1729369551428
 20
306.6297680464555
 30
0.0
 10
237.2698110287205
 20
306.5204183348049
 30
0.0
 10
231.815994160152
 20
306.5204183348049
 30
0.0
  0
TEXT
  5
3DD7
330
A
100
AcDbEntity
  8
TEMPLATE
100
AcDbText
 10
106.9504602369591
 20
357.8503014725697
 30
0.0
 40
5.038834712854613
  1
接続方法
  7
ＭＳ ゴシック
100
AcDbText
  0
TEXT
  5
3DD8
330
A
100
AcDbEntity
  8
TEMPLATE
100
AcDbText
 10
98.26461838701624
 20
357.8503014725697
 30
0.0
 40
5.038834712854613
  1
■
  7
ＭＳ ゴシック
100
AcDbText
  0
TEXT
  5
3DD9
330
A
100
AcDbEntity
  8
TEMPLATE
100
AcDbText
 10
104.8992754327519
 20
191.0958202465333
 30
0.0
 40
5.038834712854613
  1
トラップ機能はありません。ご注意ください。
  7
ＭＳ ゴシック
100
AcDbText
  0
LINE
  5
3DDA
330
A
100
AcDbEntity
  8
MODEL
100
AcDbLine
 10
246.7764932196873
 20
186.986710744865
 30
0.0
 11
98.26461838701624
 21
186.9867107448649
 31
0.0
  0
LINE
  5
3DDB
330
A
100
AcDbEntity
  8
MODEL
100
AcDbLine
 10
98.26461838701624
 20
186.9867107448649
 30
0.0
 11
98.26461838701624
 21
199.4702667969643
 31
0.0
  0
LINE
  5
3DDC
330
A
100
AcDbEntity
  8
MODEL
100
AcDbLine
 10
98.26461838701624
 20
199.4702667969643
 30
0.0
 11
246.7764932196873
 21
199.4702667969643
 31
0.0
  0
LINE
  5
3DDD
330
A
100
AcDbEntity
  8
MODEL
100
AcDbLine
 10
246.7764932196873
 20
199.4702667969643
 30
0.0
 11
246.7764932196873
 21
186.986710744865
 31
0.0
  0
TEXT
  5
3DDE
330
A
100
AcDbEntity
  8
TEMPLATE
100
AcDbText
 10
95.5537253115005
 20
167.1573441557569
 30
0.0
 40
5.038834712854613
  1
・排水部品の端部ネジ(G 1.1/2”)にシール材を巻きつけエルボを接続してください。
  7
ＭＳ ゴシック
100
AcDbText
  0
LINE
  5
3DDF
330
A
100
AcDbEntity
  8
MODEL
100
AcDbLine
 10
190.3242109247705
 20
302.805744306678
 30
0.0
 11
184.7188321396865
 21
302.805744306678
 31
0.0
  0
LINE
  5
3DE0
330
A
100
AcDbEntity
  8
MODEL
100
AcDbLine
 10
219.1442922806543
 20
302.805744306678
 30
0.0
 11
224.7504751077353
 21
302.805744306678
 31
0.0
  0
DIMENSION
  5
5726
102
{ACAD_XDICTIONARY
360
5727
102
}
330
A
100
AcDbEntity
  8
DIM
 48
0.05
100
AcDbDimension
  2
*D112
 10
115.9874867955685
 20
301.0255953243679
 30
0.0
 11
110.4874867955685
 21
275.2468028237635
 31
0.0
 70
    32
  1
95
 71
     5
 42
51.55758500120891
 73
     0
 74
     0
 75
     0
  3
tfrom線あり
100
AcDbAlignedDimension
 13
183.289002521432
 23
249.468010323159
 33
0.0
 14
174.8056181862391
 24
301.0255953243679
 34
0.0
 50
90.0
100
AcDbRotatedDimension
1001
ACAD
1000
DSTYLE
1002
{
1070
   144
1040
1.0
1002
}
  0
MTEXT
  5
5735
330
A
100
AcDbEntity
  8
TEMPLATE
390
1D
100
AcDbMText
 10
26.44042890954615
 20
45.72434321890432
 30
0.0
 40
4.8865234375
 41
0.0
 46
4.935388671875
 71
     1
 72
     1
  1
{・本体/塩ビ}
  7
ＭＳ ゴシック
 73
     1
 44
0.7828267384257843
1001
ACAD
1000
ACAD_MTEXT_DEFINED_HEIGHT_BEGIN
1070
    46
1040
4.935388671875
1000
ACAD_MTEXT_DEFINED_HEIGHT_END
  0
DIMENSION
  5
5736
102
{ACAD_XDICTIONARY
360
5737
102
}
330
A
100
AcDbEntity
  8
DIM
 48
0.05
100
AcDbDimension
  2
*D113
 10
195.2336913610786
 20
487.57702631898
 30
0.0
 11
174.3089003989595
 21
487.57702631898
 31
0.0
 70
   160
  1
G1.1/2"
 71
     5
 42
41.84958192423824
 73
     0
 74
     0
 75
     0
  3
tfrom線あり
100
AcDbAlignedDimension
 13
153.3841094368403
 23
469.9617500460818
 33
0.0
 14
195.2336913610786
 24
469.1990195068432
 34
0.0
100
AcDbRotatedDimension
1001
ACAD
1000
DSTYLE
1002
{
1070
   144
1040
1.0
1002
}
  0
DIMENSION
  5
5745
102
{ACAD_XDICTIONARY
360
5746
102
}
330
A
100
AcDbEntity
  8
DIM
 48
0.05
100
AcDbDimension
  2
*D114
 10
110.0452166560275
 20
465.7014368180224
 30
0.0
 11
104.5452166560275
 21
450.5243400745322
 31
0.0
 70
    32
  1
33
 71
     5
 42
30.35419348698042
 73
     0
 74
     0
 75
     0
  3
tfrom線あり
100
AcDbAlignedDimension
 13
140.7739199146179
 23
435.347243331042
 33
0.0
 14
135.3068500097215
 24
465.7014368180224
 34
0.0
 50
90.0
100
AcDbRotatedDimension
1001
ACAD
1000
DSTYLE
1002
{
1070
   144
1040
1.0
1002
}
  0
DIMENSION
  5
5754
102
{ACAD_XDICTIONARY
360
5755
102
}
330
A
100
AcDbEntity
  8
DIM
 48
0.05
100
AcDbDimension
  2
*D115
 10
272.9628433786367
 20
405.7444158251905
 30
0.0
 11
222.9628887369492
 21
411.2444158251905
 31
0.0
 70
    32
 71
     5
 42
99.99990928337502
 73
     0
 74
     0
 75
     0
  3
tfrom線あり
100
AcDbAlignedDimension
 13
172.9629340952617
 23
434.4381772034818
 33
0.0
 14
272.9628433786367
 24
434.4381772034818
 34
0.0
100
AcDbRotatedDimension
1001
ACAD
1000
DSTYLE
1002
{
1070
   144
1040
1.0
1002
}
  0
DIMENSION
  5
5763
102
{ACAD_XDICTIONARY
360
5764
102
}
330
A
100
AcDbEntity
  8
DIM
 48
0.05
100
AcDbDimension
  2
*D116
 10
290.3171337788763
 20
437.6411751497101
 30
0.0
 11
284.8171337788763
 21
457.632071331814
 31
0.0
 70
    32
  1
%%c38.3
 71
     5
 42
39.98179236420788
 73
     0
 74
     0
 75
     0
  3
tfrom線あり
100
AcDbAlignedDimension
 13
274.6545477412294
 23
477.622967513918
 33
0.0
 14
274.6545477412294
 24
437.6411751497101
 34
0.0
 50
90.0
100
AcDbRotatedDimension
1001
ACAD
1000
DSTYLE
1002
{
1070
   144
1040
1.0
1002
}
  0
DIMENSION
  5
5772
102
{ACAD_XDICTIONARY
360
5773
102
}
330
A
100
AcDbEntity
  8
DIM
 48
0.05
100
AcDbDimension
  2
*D117
 10
302.1410863456162
 20
479.9860469443651
 30
0.0
 11
296.6410863456162
 21
457.6666451377035
 31
0.0
 70
    32
  1
%%c43
 71
     5
 42
44.63880361332303
 73
     0
 74
     0
 75
     0
  3
tfrom線あり
100
AcDbAlignedDimension
 13
274.7920389227901
 23
435.347243331042
 33
0.0
 14
274.7920389227901
 24
479.9860469443651
 34
0.0
 50
90.0
100
AcDbRotatedDimension
1001
ACAD
1000
DSTYLE
1002
{
1070
   144
1040
1.0
1002
}
  0
VIEWPORT
  5
349
330
B
100
AcDbEntity
 67
     1
  8
0
100
AcDbViewport
 10
202.5
 20
128.5
 30
0.0
 40
486.0
 41
308.4
 68
     1
 69
     1
 12
202.5
 22
128.5
 13
0.0
 23
0.0
 14
0.5
 24
0.5
 15
0.0
 25
0.0
 16
0.0
 26
0.0
 36
1.0
 17
0.0
 27
0.0
 37
0.0
 42
50.0
 43
0.0
 44
0.0
 45
308.4
 50
0.0
 51
0.0
 72
   100
 90
   557152
  1

281
     0
 71
     1
 74
     0
110
0.0
120
0.0
130
0.0
111
1.0
121
0.0
131
0.0
112
0.0
122
1.0
132
0.0
 79
     0
146
0.0
170
     0
 61
     5
348
26C
292
     1
282
     1
141
0.0
142
0.0
 63
   256
  0
VIEWPORT
  5
34A
330
B
100
AcDbEntity
 67
     1
  8
0
100
AcDbViewport
 10
202.5
 20
128.5
 30
0.0
 40
324.0
 41
205.6
 68
     2
 69
     2
 12
986.6781359294573
 22
1427.077061889956
 13
0.0
 23
0.0
 14
0.5
 24
0.5
 15
0.0
 25
0.0
 16
0.0
 26
0.0
 36
1.0
 17
0.0
 27
0.0
 37
0.0
 42
50.0
 43
0.0
 44
0.0
 45
2890.021615685494
 50
0.0
 51
0.0
 72
   100
 90
   557152
  1

281
     0
 71
     1
 74
     0
110
0.0
120
0.0
130
0.0
111
1.0
121
0.0
131
0.0
112
0.0
122
1.0
132
0.0
 79
     0
146
0.0
170
     0
 61
     5
348
26C
292
     1
282
     1
141
0.0
142
0.0
 63
   256
  0
ENDSEC
  0
SECTION
  2
OBJECTS
  0
DICTIONARY
  5
19
330
0
100
AcDbDictionary
281
     1
  3
ACAD_COLOR
350
674
  3
ACAD_DETAILVIEWSTYLE
350
BBF
  3
ACAD_GROUP
350
1A
  3
ACAD_IMAGE_VARS
350
27B
  3
ACAD_LAYOUT
350
1E
  3
ACAD_MATERIAL
350
263
  3
ACAD_MLEADERSTYLE
350
336
  3
ACAD_MLINESTYLE
350
1B
  3
ACAD_PLOTSETTINGS
350
22
  3
ACAD_PLOTSTYLENAME
350
1F
  3
ACAD_SCALELIST
350
241
  3
ACAD_SECTIONVIEWSTYLE
350
BC0
  3
ACAD_TABLESTYLE
350
278
  3
ACAD_VISUALSTYLE
350
267
  3
ACDB_RECOMPOSE_DATA
350
57A1
  3
AcDbVariableDictionary
350
330
  3
APPDATA
350
27A
  3
DimOffsetDictionary
350
E38
  0
SUN
  5
904
330
15
100
AcDbSun
 90
        1
290
     0
 63
     7
421
 16777215
 40
1.0
291
     1
 91
  2455826
 92
 54000000
292
     0
 70
     2
 71
   256
280
     1
  0
DICTIONARY
  5
2E1
330
2
100
AcDbDictionary
280
     1
281
     1
  3
ACAD_LAYERSTATES
360
2E2
  3
ACLYDICTIONARY
360
579E
  0
DICTIONARY
  5
5727
330
5726
100
AcDbDictionary
280
     1
281
     1
  0
DICTIONARY
  5
5737
330
5736
100
AcDbDictionary
280
     1
281
     1
  0
DICTIONARY
  5
5746
330
5745
100
AcDbDictionary
280
     1
281
     1
  0
DICTIONARY
  5
5755
330
5754
100
AcDbDictionary
280
     1
281
     1
  0
DICTIONARY
  5
5764
330
5763
100
AcDbDictionary
280
     1
281
     1
  0
DICTIONARY
  5
5773
330
5772
100
AcDbDictionary
280
     1
281
     1
  0
DICTIONARY
  5
674
102
{ACAD_REACTORS
330
19
102
}
330
19
100
AcDbDictionary
281
     1
  0
DICTIONARY
  5
BBF
102
{ACAD_REACTORS
330
19
102
}
330
19
100
AcDbDictionary
281
     1
  0
DICTIONARY
  5
1A
102
{ACAD_REACTORS
330
19
102
}
330
19
100
AcDbDictionary
281
     1
  0
RASTERVARIABLES
  5
27B
102
{ACAD_REACTORS
330
19
102
}
330
19
100
AcDbRasterVariables
 90
        0
 70
     1
 71
     1
 72
     1
  0
DICTIONARY
  5
1E
102
{ACAD_REACTORS
330
19
102
}
330
19
100
AcDbDictionary
281
     1
  3
Layout1
350
21
  3
Model
350
20
  0
DICTIONARY
  5
263
102
{ACAD_REACTORS
330
19
102
}
330
19
100
AcDbDictionary
281
     1
  3
ByBlock
350
265
  3
ByLayer
350
264
  3
Global
350
266
  0
DICTIONARY
  5
336
102
{ACAD_REACTORS
330
19
102
}
330
19
100
AcDbDictionary
281
     1
  3
Standard
350
D59
  0
DICTIONARY
  5
1B
102
{ACAD_REACTORS
330
19
102
}
330
19
100
AcDbDictionary
281
     1
  3
Standard
350
1C
  0
DICTIONARY
  5
22
102
{ACAD_REACTORS
330
19
102
}
330
19
100
AcDbDictionary
281
     1
  0
ACDBDICTIONARYWDFLT
  5
1F
102
{ACAD_REACTORS
330
19
102
}
330
19
100
AcDbDictionary
281
     1
  3
Normal
350
1D
100
AcDbDictionaryWithDefault
340
1D
  0
DICTIONARY
  5
241
102
{ACAD_REACTORS
330
19
102
}
330
19
100
AcDbDictionary
281
     1
  3
A0
350
242
  3
A1
350
243
  3
A2
350
244
  3
A3
350
245
  3
A4
350
246
  3
A5
350
247
  3
A6
350
248
  3
A7
350
249
  3
A8
350
24A
  3
A9
350
24B
  3
B0
350
24C
  3
B1
350
24D
  3
B2
350
24E
  3
B3
350
24F
  3
B4
350
250
  3
B5
350
251
  3
B6
350
252
  3
B7
350
253
  3
B8
350
254
  3
B9
350
255
  3
C0
350
256
  3
C1
350
257
  3
C2
350
258
  3
C3
350
259
  3
C4
350
25A
  3
C5
350
25B
  3
C6
350
25C
  3
C7
350
25D
  3
C8
350
25E
  3
C9
350
25F
  3
D0
350
260
  3
D1
350
261
  3
D2
350
262
  0
DICTIONARY
  5
BC0
102
{ACAD_REACTORS
330
19
102
}
330
19
100
AcDbDictionary
281
     1
  0
DICTIONARY
  5
278
102
{ACAD_REACTORS
330
19
102
}
330
19
100
AcDbDictionary
281
     1
  3
Standard
350
279
  0
DICTIONARY
  5
267
102
{ACAD_REACTORS
330
19
102
}
330
19
100
AcDbDictionary
281
     1
  3
2dWireframe
350
26C
  3
3D Hidden
350
26E
  3
3dWireframe
350
26D
  3
Basic
350
26F
  3
Brighten
350
273
  3
ColorChange
350
277
  3
Conceptual
350
271
  3
Dim
350
272
  3
EdgeColorOff
350
8FE
  3
Facepattern
350
276
  3
Flat
350
268
  3
FlatWithEdges
350
269
  3
Gouraud
350
26A
  3
GouraudWithEdges
350
26B
  3
Hidden
350
8FB
  3
JitterOff
350
8FC
  3
Linepattern
350
275
  3
OverhangOff
350
8FD
  3
Realistic
350
270
  3
Shaded
350
903
  3
Shaded with edges
350
902
  3
Shades of Gray
350
8FF
  3
Sketchy
350
900
  3
Thicken
350
274
  3
Wireframe
350
8FA
  3
X-Ray
350
901
  0
XRECORD
  5
57A1
102
{ACAD_REACTORS
330
19
102
}
330
19
100
AcDbXrecord
280
     1
 90
        1
330
279
  0
DICTIONARY
  5
330
102
{ACAD_REACTORS
330
19
102
}
330
19
100
AcDbDictionary
281
     1
  3
CANNOSCALE
350
331
  3
CMLEADERSTYLE
350
D5E
  3
CTABLESTYLE
350
335
  3
HPTRANSPARENCY
350
D52
  3
XCLIPFRAME
350
896
  0
DICTIONARY
  5
27A
102
{ACAD_REACTORS
330
19
102
}
330
19
100
AcDbDictionary
281
     1
  0
DICTIONARY
  5
E38
102
{ACAD_REACTORS
330
19
102
}
330
19
100
AcDbDictionary
281
     1
  3
DIMRAILANGLE
350
246C
  3
DIMRAILFIRSTOFFSET
350
246A
  3
DIMRAILOFFSET
350
246B
  3
DIMRAILSENABLED
350
246D
  0
DICTIONARY
  5
2E2
102
{ACAD_REACTORS
330
2E1
102
}
330
2E1
100
AcDbDictionary
281
     1
  0
DICTIONARY
  5
579E
102
{ACAD_REACTORS
330
2E1
102
}
330
2E1
100
AcDbDictionary
281
     1
1001
ACAD
1000
<All
  0
LAYOUT
  5
21
102
{ACAD_REACTORS
330
1E
102
}
330
1E
100
AcDbPlotSettings
  1

  2
none_device
  4
ISO_A3_(420.00_x_297.00_MM)
  6

 40
7.5
 41
20.0
 42
7.5
 43
20.0
 44
420.0
 45
297.0
 46
0.0
 47
0.0
 48
0.0
 49
0.0
140
0.0
141
0.0
142
1.0
143
1.0
 70
     0
 72
     1
 73
     0
 74
     0
  7

 75
     0
 76
     0
 77
     2
 78
   300
147
1.0
148
0.0
149
0.0
100
AcDbLayout
  1
Layout1
 70
     0
 71
     0
 10
-7.5
 20
-20.0
 11
412.5
 21
277.0
 12
0.0
 22
0.0
 32
0.0
 14
0.0
 24
0.0
 34
0.0
 15
0.0
 25
0.0
 35
0.0
146
0.0
 13
0.0
 23
0.0
 33
0.0
 16
0.0
 26
0.0
 36
0.0
 17
0.0
 27
0.0
 37
0.0
 76
     0
330
B
331
349
  0
LAYOUT
  5
20
102
{ACAD_REACTORS
330
1E
102
}
330
1E
100
AcDbPlotSettings
  1

  2
none_device
  4
ISO_A3_(420.00_x_297.00_MM)
  6

 40
7.5
 41
20.0
 42
7.5
 43
20.0
 44
420.0
 45
297.0
 46
0.0
 47
0.0
 48
0.0
 49
0.0
140
0.0
141
0.0
142
1.0
143
1.0
 70
  1024
 72
     1
 73
     0
 74
     0
  7

 75
     0
 76
     0
 77
     2
 78
   300
147
1.0
148
0.0
149
0.0
100
AcDbLayout
  1
Model
 70
     0
 71
     1
 10
0.0
 20
0.0
 11
420.0
 21
594.0
 12
0.0
 22
0.0
 32
0.0
 14
0.0
 24
0.0
 34
-0.0000000000000071
 15
519.6741912622088
 25
594.0
 35
0.0000000000000071
146
0.0
 13
0.0
 23
0.0
 33
0.0
 16
0.0
 26
0.0
 36
0.0
 17
0.0
 27
0.0
 37
0.0
 76
     0
330
A
331
15
  0
MATERIAL
  5
265
102
{ACAD_REACTORS
330
263
102
}
330
263
100
AcDbMaterial
  1
ByBlock
 72
     1
 94
      127
  0
MATERIAL
  5
264
102
{ACAD_REACTORS
330
263
102
}
330
263
100
AcDbMaterial
  1
ByLayer
 72
     1
 94
      127
  0
MATERIAL
  5
266
102
{ACAD_REACTORS
330
263
102
}
330
263
100
AcDbMaterial
  1
Global
 72
     1
 94
      127
  0
MLEADERSTYLE
  5
D59
102
{ACAD_REACTORS
330
336
102
}
330
336
100
AcDbMLeaderStyle
170
     2
171
     1
172
     0
 90
        2
 40
0.0
 41
0.0
173
     1
 91
-1056964608
340
11
 92
       -2
290
     1
 42
2.0
291
     1
 43
8.0
  3
Standard
341
0
 44
4.0
300

342
17
174
     1
178
     6
175
     1
176
     0
 93
-1056964608
 45
4.0
292
     0
297
     0
 46
4.0
343
0
 94
-1056964608
 47
1.0
 49
1.0
140
1.0
293
     1
141
0.0
294
     1
177
     0
142
1.0
295
     0
296
     0
143
3.75
1001
ACAD_MLEADERVER
1070
     2
  0
MLINESTYLE
  5
1C
102
{ACAD_REACTORS
330
1B
102
}
330
1B
100
AcDbMlineStyle
  2
Standard
 70
     0
  3

 62
     0
 51
90.0
 52
90.0
 71
     2
 49
0.5
 62
   256
  6
BYLAYER
 49
-0.5
 62
   256
  6
BYLAYER
  0
ACDBPLACEHOLDER
  5
1D
102
{ACAD_REACTORS
330
1F
102
}
330
1F
  0
SCALE
  5
242
102
{ACAD_REACTORS
330
241
102
}
330
241
100
AcDbScale
 70
     0
300
1:1
140
1.0
141
1.0
290
     1
  0
SCALE
  5
243
102
{ACAD_REACTORS
330
241
102
}
330
241
100
AcDbScale
 70
     0
300
1:2
140
1.0
141
2.0
290
     0
  0
SCALE
  5
244
102
{ACAD_REACTORS
330
241
102
}
330
241
100
AcDbScale
 70
     0
300
1:4
140
1.0
141
4.0
290
     0
  0
SCALE
  5
245
102
{ACAD_REACTORS
330
241
102
}
330
241
100
AcDbScale
 70
     0
300
1:5
140
1.0
141
5.0
290
     0
  0
SCALE
  5
246
102
{ACAD_REACTORS
330
241
102
}
330
241
100
AcDbScale
 70
     0
300
1:8
140
1.0
141
8.0
290
     0
  0
SCALE
  5
247
102
{ACAD_REACTORS
330
241
102
}
330
241
100
AcDbScale
 70
     0
300
1:10
140
1.0
141
10.0
290
     0
  0
SCALE
  5
248
102
{ACAD_REACTORS
330
241
102
}
330
241
100
AcDbScale
 70
     0
300
1:16
140
1.0
141
16.0
290
     0
  0
SCALE
  5
249
102
{ACAD_REACTORS
330
241
102
}
330
241
100
AcDbScale
 70
     0
300
1:20
140
1.0
141
20.0
290
     0
  0
SCALE
  5
24A
102
{ACAD_REACTORS
330
241
102
}
330
241
100
AcDbScale
 70
     0
300
1:30
140
1.0
141
30.0
290
     0
  0
SCALE
  5
24B
102
{ACAD_REACTORS
330
241
102
}
330
241
100
AcDbScale
 70
     0
300
1:40
140
1.0
141
40.0
290
     0
  0
SCALE
  5
24C
102
{ACAD_REACTORS
330
241
102
}
330
241
100
AcDbScale
 70
     0
300
1:50
140
1.0
141
50.0
290
     0
  0
SCALE
  5
24D
102
{ACAD_REACTORS
330
241
102
}
330
241
100
AcDbScale
 70
     0
300
1:100
140
1.0
141
100.0
290
     0
  0
SCALE
  5
24E
102
{ACAD_REACTORS
330
241
102
}
330
241
100
AcDbScale
 70
     0
300
2:1
140
2.0
141
1.0
290
     0
  0
SCALE
  5
24F
102
{ACAD_REACTORS
330
241
102
}
330
241
100
AcDbScale
 70
     0
300
4:1
140
4.0
141
1.0
290
     0
  0
SCALE
  5
250
102
{ACAD_REACTORS
330
241
102
}
330
241
100
AcDbScale
 70
     0
300
8:1
140
8.0
141
1.0
290
     0
  0
SCALE
  5
251
102
{ACAD_REACTORS
330
241
102
}
330
241
100
AcDbScale
 70
     0
300
10:1
140
10.0
141
1.0
290
     0
  0
SCALE
  5
252
102
{ACAD_REACTORS
330
241
102
}
330
241
100
AcDbScale
 70
     0
300
100:1
140
100.0
141
1.0
290
     0
  0
SCALE
  5
253
102
{ACAD_REACTORS
330
241
102
}
330
241
100
AcDbScale
 70
     0
300
1/128" = 1'-0"
140
0.0078125
141
12.0
290
     0
  0
SCALE
  5
254
102
{ACAD_REACTORS
330
241
102
}
330
241
100
AcDbScale
 70
     0
300
1/64" = 1'-0"
140
0.015625
141
12.0
290
     0
  0
SCALE
  5
255
102
{ACAD_REACTORS
330
241
102
}
330
241
100
AcDbScale
 70
     0
300
1/32" = 1'-0"
140
0.03125
141
12.0
290
     0
  0
SCALE
  5
256
102
{ACAD_REACTORS
330
241
102
}
330
241
100
AcDbScale
 70
     0
300
1/16" = 1'-0"
140
0.0625
141
12.0
290
     0
  0
SCALE
  5
257
102
{ACAD_REACTORS
330
241
102
}
330
241
100
AcDbScale
 70
     0
300
3/32" = 1'-0"
140
0.09375
141
12.0
290
     0
  0
SCALE
  5
258
102
{ACAD_REACTORS
330
241
102
}
330
241
100
AcDbScale
 70
     0
300
1/8" = 1'-0"
140
0.125
141
12.0
290
     0
  0
SCALE
  5
259
102
{ACAD_REACTORS
330
241
102
}
330
241
100
AcDbScale
 70
     0
300
3/16" = 1'-0"
140
0.1875
141
12.0
290
     0
  0
SCALE
  5
25A
102
{ACAD_REACTORS
330
241
102
}
330
241
100
AcDbScale
 70
     0
300
1/4" = 1'-0"
140
0.25
141
12.0
290
     0
  0
SCALE
  5
25B
102
{ACAD_REACTORS
330
241
102
}
330
241
100
AcDbScale
 70
     0
300
3/8" = 1'-0"
140
0.375
141
12.0
290
     0
  0
SCALE
  5
25C
102
{ACAD_REACTORS
330
241
102
}
330
241
100
AcDbScale
 70
     0
300
1/2" = 1'-0"
140
0.5
141
12.0
290
     0
  0
SCALE
  5
25D
102
{ACAD_REACTORS
330
241
102
}
330
241
100
AcDbScale
 70
     0
300
3/4" = 1'-0"
140
0.75
141
12.0
290
     0
  0
SCALE
  5
25E
102
{ACAD_REACTORS
330
241
102
}
330
241
100
AcDbScale
 70
     0
300
1" = 1'-0"
140
1.0
141
12.0
290
     0
  0
SCALE
  5
25F
102
{ACAD_REACTORS
330
241
102
}
330
241
100
AcDbScale
 70
     0
300
1-1/2" = 1'-0"
140
1.5
141
12.0
290
     0
  0
SCALE
  5
260
102
{ACAD_REACTORS
330
241
102
}
330
241
100
AcDbScale
 70
     0
300
3" = 1'-0"
140
3.0
141
12.0
290
     0
  0
SCALE
  5
261
102
{ACAD_REACTORS
330
241
102
}
330
241
100
AcDbScale
 70
     0
300
6" = 1'-0"
140
6.0
141
12.0
290
     0
  0
SCALE
  5
262
102
{ACAD_REACTORS
330
241
102
}
330
241
100
AcDbScale
 70
     0
300
1'-0" = 1'-0"
140
12.0
141
12.0
290
     0
  0
TABLESTYLE
  5
279
102
{ACAD_REACTORS
330
278
102
}
102
{ACAD_XDICTIONARY
360
579F
102
}
330
278
100
AcDbTableStyle
  3
Standard
 70
     0
 71
     0
 40
0.06
 41
0.06
280
     0
281
     0
  7
Standard
140
4.5
170
     2
 62
     0
 63
   257
283
     0
 90
        4
 91
        0
  1

274
    -2
284
     1
 64
     0
275
    -2
285
     1
 65
     0
276
    -2
286
     1
 66
     0
277
    -2
287
     1
 67
     0
278
    -2
288
     1
 68
     0
279
    -2
289
     1
 69
     0
  7
Standard
140
6.0
170
     5
 62
     0
 63
   257
283
     0
 90
        4
 91
        0
  1

274
    -2
284
     1
 64
     0
275
    -2
285
     1
 65
     0
276
    -2
286
     1
 66
     0
277
    -2
287
     1
 67
     0
278
    -2
288
     1
 68
     0
279
    -2
289
     1
 69
     0
  7
Standard
140
4.5
170
     5
 62
     0
 63
   257
283
     0
 90
        4
 91
        0
  1

274
    -2
284
     1
 64
     0
275
    -2
285
     1
 65
     0
276
    -2
286
     1
 66
     0
277
    -2
287
     1
 67
     0
278
    -2
288
     1
 68
     0
279
    -2
289
     1
 69
     0
  0
VISUALSTYLE
  5
26C
102
{ACAD_REACTORS
330
267
102
}
330
267
100
AcDbVisualStyle
  2
2dWireframe
 70
     4
 71
     0
 72
     2
 73
     0
 90
        0
 40
-0.6
 41
-30.0
 62
     5
 63
     7
421
 16777215
 74
     1
 91
        4
 64
     7
 65
   257
 75
     1
175
     1
 42
1.0
 92
        0
 66
   257
 43
1.0
 76
     1
 77
     6
 78
     2
 67
     7
 79
     5
170
     0
171
     0
290
     0
174
     0
 93
        1
 44
0.0
173
     0
291
     0
 45
0.0
  0
VISUALSTYLE
  5
26E
102
{ACAD_REACTORS
330
267
102
}
330
267
100
AcDbVisualStyle
  2
3D Hidden
 70
     6
 71
     1
 72
     2
 73
     2
 90
        0
 40
-0.6
 41
-30.0
 62
     5
 63
     7
421
 16777215
 74
     2
 91
        2
 64
     7
 65
   257
 75
     2
175
     1
 42
40.0
 92
        0
 66
   257
 43
1.0
 76
     1
 77
     6
 78
     2
 67
     7
 79
     3
170
     0
171
     0
290
     0
174
     0
 93
        1
 44
0.0
173
     0
291
     0
 45
0.0
  0
VISUALSTYLE
  5
26D
102
{ACAD_REACTORS
330
267
102
}
330
267
100
AcDbVisualStyle
  2
3dWireframe
 70
     5
 71
     0
 72
     2
 73
     0
 90
        0
 40
-0.6
 41
-30.0
 62
     5
 63
     7
421
 16777215
 74
     1
 91
        4
 64
     7
 65
   257
 75
     1
175
     1
 42
1.0
 92
        0
 66
   257
 43
1.0
 76
     1
 77
     6
 78
     2
 67
     7
 79
     5
170
     0
171
     0
290
     0
174
     0
 93
        1
 44
0.0
173
     0
291
     0
 45
0.0
  0
VISUALSTYLE
  5
26F
102
{ACAD_REACTORS
330
267
102
}
330
267
100
AcDbVisualStyle
  2
Basic
 70
     7
 71
     1
 72
     0
 73
     1
 90
        0
 40
-0.6
 41
-30.0
 62
     5
 63
     7
421
 16777215
 74
     0
 91
        4
 64
     7
 65
   257
 75
     1
175
     1
 42
1.0
 92
        8
 66
     7
 43
1.0
 76
     1
 77
     6
 78
     2
 67
     7
 79
     5
170
     0
171
     0
290
     0
174
     0
 93
        1
 44
0.0
173
     0
291
     1
 45
0.0
  0
VISUALSTYLE
  5
273
102
{ACAD_REACTORS
330
267
102
}
330
267
100
AcDbVisualStyle
  2
Brighten
 70
    12
 71
     2
 72
     2
 73
     0
 90
        0
 40
-0.6
 41
-30.0
 62
     5
 63
     7
421
 16777215
 74
     1
 91
        4
 64
     7
 65
   257
 75
     1
175
     1
 42
1.0
 92
        8
 66
     7
 43
1.0
 76
     1
 77
     6
 78
     2
 67
     7
 79
     5
170
     0
171
     0
290
     0
174
     0
 93
        1
 44
50.0
173
     0
291
     1
 45
0.0
  0
VISUALSTYLE
  5
277
102
{ACAD_REACTORS
330
267
102
}
330
267
100
AcDbVisualStyle
  2
ColorChange
 70
    16
 71
     2
 72
     2
 73
     3
 90
        0
 40
-0.6
 41
-30.0
 62
     5
 63
     8
421
  8421504
 74
     1
 91
        4
 64
     7
 65
   257
 75
     1
175
     1
 42
1.0
 92
        8
 66
     8
424
  8421504
 43
1.0
 76
     1
 77
     6
 78
     2
 67
     7
 79
     5
170
     0
171
     0
290
     0
174
     0
 93
        1
 44
0.0
173
     0
291
     1
 45
0.0
  0
VISUALSTYLE
  5
271
102
{ACAD_REACTORS
330
267
102
}
330
267
100
AcDbVisualStyle
  2
Conceptual
 70
     9
 71
     3
 72
     2
 73
     0
 90
        0
 40
-0.6
 41
-30.0
 62
     5
 63
     7
421
 16777215
 74
     2
 91
        2
 64
     7
 65
   257
 75
     1
175
     1
 42
40.0
 92
        8
 66
     7
 43
1.0
 76
     1
 77
     6
 78
     2
 67
     7
 79
     3
170
     0
171
     0
290
     0
174
     0
 93
        1
 44
0.0
173
     0
291
     0
 45
0.0
  0
VISUALSTYLE
  5
272
102
{ACAD_REACTORS
330
267
102
}
330
267
100
AcDbVisualStyle
  2
Dim
 70
    11
 71
     2
 72
     2
 73
     0
 90
        0
 40
-0.6
 41
-30.0
 62
     5
 63
     7
421
 16777215
 74
     1
 91
        4
 64
     7
 65
   257
 75
     1
175
     1
 42
1.0
 92
        8
 66
     7
 43
1.0
 76
     1
 77
     6
 78
     2
 67
     7
 79
     5
170
     0
171
     0
290
     0
174
     0
 93
        1
 44
-50.0
173
     0
291
     1
 45
0.0
  0
VISUALSTYLE
  5
8FE
102
{ACAD_REACTORS
330
267
102
}
330
267
100
AcDbVisualStyle
  2
EdgeColorOff
 70
    22
 71
     2
 72
     2
 73
     0
 90
        0
 40
0.6
 41
30.0
 62
     5
 63
     7
421
 16777215
 74
     1
 91
        4
 64
     7
 65
   257
 75
     1
175
     1
 42
1.0
 92
        8
 66
     7
 43
1.0
 76
     1
 77
     6
 78
     2
 67
     7
 79
     5
170
     0
171
     0
290
     0
174
     0
 93
        1
 44
0.0
173
     0
291
     1
 45
0.0
  0
VISUALSTYLE
  5
276
102
{ACAD_REACTORS
330
267
102
}
330
267
100
AcDbVisualStyle
  2
Facepattern
 70
    15
 71
     2
 72
     2
 73
     0
 90
        0
 40
-0.6
 41
-30.0
 62
     5
 63
     7
421
 16777215
 74
     1
 91
        4
 64
     7
 65
   257
 75
     1
175
     1
 42
1.0
 92
        8
 66
     7
 43
1.0
 76
     1
 77
     6
 78
     2
 67
     7
 79
     5
170
     0
171
     0
290
     0
174
     0
 93
        1
 44
0.0
173
     0
291
     1
 45
0.0
  0
VISUALSTYLE
  5
268
102
{ACAD_REACTORS
330
267
102
}
330
267
100
AcDbVisualStyle
  2
Flat
 70
     0
 71
     2
 72
     1
 73
     1
 90
        2
 40
-0.6
 41
30.0
 62
     5
 63
     7
421
 16777215
 74
     0
 91
        4
 64
     7
 65
   257
 75
     1
175
     1
 42
1.0
 92
        8
 66
     7
 43
1.0
 76
     1
 77
     6
 78
     2
 67
     7
 79
     5
170
     0
171
     0
290
     0
174
     0
 93
       13
 44
0.0
173
     0
291
     1
 45
0.0
  0
VISUALSTYLE
  5
269
102
{ACAD_REACTORS
330
267
102
}
330
267
100
AcDbVisualStyle
  2
FlatWithEdges
 70
     1
 71
     2
 72
     1
 73
     1
 90
        2
 40
-0.6
 41
30.0
 62
     5
 63
     7
421
 16777215
 74
     1
 91
        4
 64
     7
 65
   257
 75
     1
175
     1
 42
1.0
 92
        0
 66
   257
 43
1.0
 76
     1
 77
     6
 78
     2
 67
     7
 79
     5
170
     0
171
     0
290
     0
174
     0
 93
       13
 44
0.0
173
     0
291
     1
 45
0.0
  0
VISUALSTYLE
  5
26A
102
{ACAD_REACTORS
330
267
102
}
330
267
100
AcDbVisualStyle
  2
Gouraud
 70
     2
 71
     2
 72
     2
 73
     1
 90
        2
 40
-0.6
 41
30.0
 62
     5
 63
     7
421
 16777215
 74
     0
 91
        4
 64
     7
 65
   257
 75
     1
175
     1
 42
1.0
 92
        0
 66
     7
 43
1.0
 76
     1
 77
     6
 78
     2
 67
     7
 79
     5
170
     0
171
     0
290
     0
174
     0
 93
       13
 44
0.0
173
     0
291
     1
 45
0.0
  0
VISUALSTYLE
  5
26B
102
{ACAD_REACTORS
330
267
102
}
330
267
100
AcDbVisualStyle
  2
GouraudWithEdges
 70
     3
 71
     2
 72
     2
 73
     1
 90
        2
 40
-0.6
 41
30.0
 62
     5
 63
     7
421
 16777215
 74
     1
 91
        4
 64
     7
 65
   257
 75
     1
175
     1
 42
1.0
 92
        0
 66
   257
 43
1.0
 76
     1
 77
     6
 78
     2
 67
     7
 79
     5
170
     0
171
     0
290
     0
174
     0
 93
       13
 44
0.0
173
     0
291
     1
 45
0.0
  0
VISUALSTYLE
  5
8FB
102
{ACAD_REACTORS
330
267
102
}
330
267
100
AcDbVisualStyle
  2
Hidden
 70
     6
 71
     1
 72
     2
 73
     2
 90
        0
 40
0.6
 41
30.0
 62
     5
 63
     7
421
 16777215
 74
     2
 91
        2
 64
     7
 65
   257
 75
     2
175
     1
 42
40.0
 92
        0
 66
   257
 43
1.0
 76
     1
 77
     6
 78
     2
 67
     7
 79
     3
170
     0
171
     0
290
     0
174
     0
 93
        1
 44
0.0
173
     0
291
     0
 45
0.0
  0
VISUALSTYLE
  5
8FC
102
{ACAD_REACTORS
330
267
102
}
330
267
100
AcDbVisualStyle
  2
JitterOff
 70
    20
 71
     2
 72
     2
 73
     0
 90
        0
 40
0.6
 41
30.0
 62
     5
 63
     7
421
 16777215
 74
     1
 91
        4
 64
     7
 65
   257
 75
     1
175
     1
 42
1.0
 92
       10
 66
     7
 43
1.0
 76
     1
 77
     6
 78
     2
 67
     7
 79
     5
170
     0
171
     0
290
     0
174
     0
 93
        1
 44
0.0
173
     0
291
     1
 45
0.0
  0
VISUALSTYLE
  5
275
102
{ACAD_REACTORS
330
267
102
}
330
267
100
AcDbVisualStyle
  2
Linepattern
 70
    14
 71
     2
 72
     2
 73
     0
 90
        0
 40
-0.6
 41
-30.0
 62
     5
 63
     7
421
 16777215
 74
     1
 91
        4
 64
     7
 65
   257
 75
     7
175
     7
 42
1.0
 92
        8
 66
     7
 43
1.0
 76
     1
 77
     6
 78
     2
 67
     7
 79
     5
170
     0
171
     0
290
     0
174
     0
 93
        1
 44
0.0
173
     0
291
     1
 45
0.0
  0
VISUALSTYLE
  5
8FD
102
{ACAD_REACTORS
330
267
102
}
330
267
100
AcDbVisualStyle
  2
OverhangOff
 70
    21
 71
     2
 72
     2
 73
     0
 90
        0
 40
0.6
 41
30.0
 62
     5
 63
     7
421
 16777215
 74
     1
 91
        4
 64
     7
 65
   257
 75
     1
175
     1
 42
1.0
 92
        9
 66
     7
 43
1.0
 76
     1
 77
     6
 78
     2
 67
     7
 79
     5
170
     0
171
     0
290
     0
174
     0
 93
        1
 44
0.0
173
     0
291
     1
 45
0.0
  0
VISUALSTYLE
  5
270
102
{ACAD_REACTORS
330
267
102
}
330
267
100
AcDbVisualStyle
  2
Realistic
 70
     8
 71
     2
 72
     2
 73
     0
 90
        0
 40
-0.6
 41
-30.0
 62
     5
 63
     7
421
 16777215
 74
     1
 91
        0
 64
     7
 65
   257
 75
     1
175
     1
 42
1.0
 92
        8
 66
     8
424
  7895160
 43
1.0
 76
     1
 77
     6
 78
     2
 67
     7
 79
     5
170
     0
171
     0
290
     0
174
     0
 93
       13
 44
0.0
173
     0
291
     0
 45
0.0
  0
VISUALSTYLE
  5
903
102
{ACAD_REACTORS
330
267
102
}
330
267
100
AcDbVisualStyle
  2
Shaded
 70
    27
 71
     2
 72
     2
 73
     1
 90
        2
 40
0.6
 41
30.0
 62
     5
 63
     7
421
 16777215
 74
     0
 91
        4
 64
     7
 65
   257
 75
     1
175
     1
 42
1.0
 92
        8
 66
   257
 43
1.0
 76
     1
 77
     6
 78
     2
 67
     8
425
  7895160
 79
     3
170
     0
171
     0
290
     0
174
     0
 93
        5
 44
0.0
173
     0
291
     0
 45
0.0
  0
VISUALSTYLE
  5
902
102
{ACAD_REACTORS
330
267
102
}
330
267
100
AcDbVisualStyle
  2
Shaded with edges
 70
    26
 71
     2
 72
     2
 73
     1
 90
        2
 40
0.6
 41
30.0
 62
     5
 63
     7
421
 16777215
 74
     1
 91
       10
 64
     7
 65
   257
 75
     2
175
     1
 42
1.0
 92
        8
 66
   257
 43
1.0
 76
     1
 77
     6
 78
     2
 67
     7
 79
     3
170
     0
171
     0
290
     0
174
     0
 93
        5
 44
0.0
173
     0
291
     0
 45
0.0
  0
VISUALSTYLE
  5
8FF
102
{ACAD_REACTORS
330
267
102
}
330
267
100
AcDbVisualStyle
  2
Shades of Gray
 70
    23
 71
     2
 72
     2
 73
     3
 90
        0
 40
0.6
 41
30.0
 62
     5
 63
     7
421
 16777215
 74
     2
 91
        2
 64
     7
 65
     7
 75
     1
175
     1
 42
40.0
 92
        8
 66
     7
 43
1.0
 76
     1
 77
     6
 78
     2
 67
     7
 79
     3
170
     0
171
     0
290
     0
174
     0
 93
        1
 44
0.0
173
     0
291
     0
 45
0.0
  0
VISUALSTYLE
  5
900
102
{ACAD_REACTORS
330
267
102
}
330
267
100
AcDbVisualStyle
  2
Sketchy
 70
    24
 71
     1
 72
     2
 73
     2
 90
        0
 40
0.6
 41
30.0
 62
     5
 63
     7
421
 16777215
 74
     2
 91
        2
 64
     7
 65
     7
 75
     1
175
     1
 42
40.0
 92
       11
 66
     7
 43
1.0
 76
     1
 77
     6
 78
     2
 67
     7
 79
     6
170
     0
171
     0
290
     0
174
     0
 93
        1
 44
0.0
173
     0
291
     0
 45
0.0
  0
VISUALSTYLE
  5
274
102
{ACAD_REACTORS
330
267
102
}
330
267
100
AcDbVisualStyle
  2
Thicken
 70
    13
 71
     2
 72
     2
 73
     0
 90
        0
 40
-0.6
 41
-30.0
 62
     5
 63
     7
421
 16777215
 74
     1
 91
        4
 64
     7
 65
   257
 75
     1
175
     1
 42
1.0
 92
       12
 66
     7
 43
1.0
 76
     1
 77
     6
 78
     2
 67
     7
 79
     5
170
     0
171
     0
290
     0
174
     0
 93
        1
 44
0.0
173
     0
291
     1
 45
0.0
  0
VISUALSTYLE
  5
8FA
102
{ACAD_REACTORS
330
267
102
}
330
267
100
AcDbVisualStyle
  2
Wireframe
 70
     5
 71
     0
 72
     2
 73
     0
 90
        0
 40
0.6
 41
30.0
 62
     5
 63
     7
421
 16777215
 74
     1
 91
        4
 64
     7
 65
   257
 75
     1
175
     1
 42
1.0
 92
        0
 66
   257
 43
1.0
 76
     1
 77
     6
 78
     2
 67
     7
 79
     3
170
     0
171
     0
290
     0
174
     0
 93
        1
 44
0.0
173
     0
291
     0
 45
0.0
  0
VISUALSTYLE
  5
901
102
{ACAD_REACTORS
330
267
102
}
330
267
100
AcDbVisualStyle
  2
X-Ray
 70
    25
 71
     2
 72
     2
 73
     1
 90
        1
 40
0.5
 41
30.0
 62
     5
 63
     7
421
 16777215
 74
     1
 91
        0
 64
     7
 65
   257
 75
     1
175
     1
 42
1.0
 92
        8
 66
     7
 43
1.0
 76
     1
 77
     6
 78
     2
 67
     7
 79
     3
170
     0
171
     0
290
     0
174
     0
 93
       13
 44
0.0
173
     0
291
     0
 45
0.0
  0
DICTIONARYVAR
  5
331
102
{ACAD_REACTORS
330
330
102
}
330
330
100
DictionaryVariables
280
     0
  1
1:1
  0
DICTIONARYVAR
  5
D5E
102
{ACAD_REACTORS
330
330
102
}
330
330
100
DictionaryVariables
280
     0
  1
Standard
  0
DICTIONARYVAR
  5
335
102
{ACAD_REACTORS
330
330
102
}
330
330
100
DictionaryVariables
280
     0
  1
Standard
  0
DICTIONARYVAR
  5
D52
102
{ACAD_REACTORS
330
330
102
}
330
330
100
DictionaryVariables
280
     0
  1
ByLayer
  0
DICTIONARYVAR
  5
896
102
{ACAD_REACTORS
330
330
102
}
330
330
100
DictionaryVariables
280
     0
  1
0
  0
DICTIONARYVAR
  5
246C
102
{ACAD_REACTORS
330
E38
102
}
330
E38
100
DictionaryVariables
280
     0
  1
0.261799
  0
DICTIONARYVAR
  5
246A
102
{ACAD_REACTORS
330
E38
102
}
330
E38
100
DictionaryVariables
280
     0
  1
0.400000
  0
DICTIONARYVAR
  5
246B
102
{ACAD_REACTORS
330
E38
102
}
330
E38
100
DictionaryVariables
280
     0
  1
0.250000
  0
DICTIONARYVAR
  5
246D
102
{ACAD_REACTORS
330
E38
102
}
330
E38
100
DictionaryVariables
280
     0
  1
1
  0
DICTIONARY
  5
579F
330
279
100
AcDbDictionary
280
     1
281
     1
  3
ACAD_ROUNDTRIP_2008_TABLESTYLE_CELLSTYLEMAP
360
57A0
  0
CELLSTYLEMAP
  5
57A0
102
{ACAD_REACTORS
330
579F
102
}
330
579F
100
AcDbCellStyleMap
 90
        3
300
CELLSTYLE
  1
TABLEFORMAT_BEGIN
 90
        5
170
     1
 91
        0
 92
    32768
 62
   257
 93
        1
300
CONTENTFORMAT
  1
CONTENTFORMAT_BEGIN
 90
        0
 91
        0
 92
        4
 93
        0
300

 40
0.0
140
1.0
 94
        5
 62
     0
340
17
144
6.0
309
CONTENTFORMAT_END
171
     1
301
MARGIN
  1
CELLMARGIN_BEGIN
 40
0.06
 40
0.06
 40
0.06
 40
0.06
 40
0.18
 40
0.18
309
CELLMARGIN_END
 94
        6
 95
        1
302
GRIDFORMAT
  1
GRIDFORMAT_BEGIN
 90
        0
 91
        1
 62
     0
 92
       -2
340
0
 93
        0
 40
0.045
309
GRIDFORMAT_END
 95
        2
302
GRIDFORMAT
  1
GRIDFORMAT_BEGIN
 90
        0
 91
        1
 62
     0
 92
       -2
340
0
 93
        0
 40
0.045
309
GRIDFORMAT_END
 95
        4
302
GRIDFORMAT
  1
GRIDFORMAT_BEGIN
 90
        0
 91
        1
 62
     0
 92
       -2
340
0
 93
        0
 40
0.045
309
GRIDFORMAT_END
 95
        8
302
GRIDFORMAT
  1
GRIDFORMAT_BEGIN
 90
        0
 91
        1
 62
     0
 92
       -2
340
0
 93
        0
 40
0.045
309
GRIDFORMAT_END
 95
       16
302
GRIDFORMAT
  1
GRIDFORMAT_BEGIN
 90
        0
 91
        1
 62
     0
 92
       -2
340
0
 93
        0
 40
0.045
309
GRIDFORMAT_END
 95
       32
302
GRIDFORMAT
  1
GRIDFORMAT_BEGIN
 90
        0
 91
        1
 62
     0
 92
       -2
340
0
 93
        0
 40
0.045
309
GRIDFORMAT_END
309
TABLEFORMAT_END
  1
CELLSTYLE_BEGIN
 90
        1
 91
        1
300
_TITLE
309
CELLSTYLE_END
300
CELLSTYLE
  1
TABLEFORMAT_BEGIN
 90
        5
170
     1
 91
        0
 92
        0
 62
   257
 93
        1
300
CONTENTFORMAT
  1
CONTENTFORMAT_BEGIN
 90
        0
 91
        0
 92
        4
 93
        0
300

 40
0.0
140
1.0
 94
        5
 62
     0
340
17
144
4.5
309
CONTENTFORMAT_END
171
     1
301
MARGIN
  1
CELLMARGIN_BEGIN
 40
0.06
 40
0.06
 40
0.06
 40
0.06
 40
0.18
 40
0.18
309
CELLMARGIN_END
 94
        6
 95
        1
302
GRIDFORMAT
  1
GRIDFORMAT_BEGIN
 90
        0
 91
        1
 62
     0
 92
       -2
340
0
 93
        0
 40
0.045
309
GRIDFORMAT_END
 95
        2
302
GRIDFORMAT
  1
GRIDFORMAT_BEGIN
 90
        0
 91
        1
 62
     0
 92
       -2
340
0
 93
        0
 40
0.045
309
GRIDFORMAT_END
 95
        4
302
GRIDFORMAT
  1
GRIDFORMAT_BEGIN
 90
        0
 91
        1
 62
     0
 92
       -2
340
0
 93
        0
 40
0.045
309
GRIDFORMAT_END
 95
        8
302
GRIDFORMAT
  1
GRIDFORMAT_BEGIN
 90
        0
 91
        1
 62
     0
 92
       -2
340
0
 93
        0
 40
0.045
309
GRIDFORMAT_END
 95
       16
302
GRIDFORMAT
  1
GRIDFORMAT_BEGIN
 90
        0
 91
        1
 62
     0
 92
       -2
340
0
 93
        0
 40
0.045
309
GRIDFORMAT_END
 95
       32
302
GRIDFORMAT
  1
GRIDFORMAT_BEGIN
 90
        0
 91
        1
 62
     0
 92
       -2
340
0
 93
        0
 40
0.045
309
GRIDFORMAT_END
309
TABLEFORMAT_END
  1
CELLSTYLE_BEGIN
 90
        2
 91
        1
300
_HEADER
309
CELLSTYLE_END
300
CELLSTYLE
  1
TABLEFORMAT_BEGIN
 90
        5
170
     1
 91
        0
 92
        0
 62
   257
 93
        1
300
CONTENTFORMAT
  1
CONTENTFORMAT_BEGIN
 90
        0
 91
        0
 92
        4
 93
        0
300

 40
0.0
140
1.0
 94
        2
 62
     0
340
17
144
4.5
309
CONTENTFORMAT_END
171
     1
301
MARGIN
  1
CELLMARGIN_BEGIN
 40
0.06
 40
0.06
 40
0.06
 40
0.06
 40
0.18
 40
0.18
309
CELLMARGIN_END
 94
        6
 95
        1
302
GRIDFORMAT
  1
GRIDFORMAT_BEGIN
 90
        0
 91
        1
 62
     0
 92
       -2
340
0
 93
        0
 40
0.045
309
GRIDFORMAT_END
 95
        2
302
GRIDFORMAT
  1
GRIDFORMAT_BEGIN
 90
        0
 91
        1
 62
     0
 92
       -2
340
0
 93
        0
 40
0.045
309
GRIDFORMAT_END
 95
        4
302
GRIDFORMAT
  1
GRIDFORMAT_BEGIN
 90
        0
 91
        1
 62
     0
 92
       -2
340
0
 93
        0
 40
0.045
309
GRIDFORMAT_END
 95
        8
302
GRIDFORMAT
  1
GRIDFORMAT_BEGIN
 90
        0
 91
        1
 62
     0
 92
       -2
340
0
 93
        0
 40
0.045
309
GRIDFORMAT_END
 95
       16
302
GRIDFORMAT
  1
GRIDFORMAT_BEGIN
 90
        0
 91
        1
 62
     0
 92
       -2
340
0
 93
        0
 40
0.045
309
GRIDFORMAT_END
 95
       32
302
GRIDFORMAT
  1
GRIDFORMAT_BEGIN
 90
        0
 91
        1
 62
     0
 92
       -2
340
0
 93
        0
 40
0.045
309
GRIDFORMAT_END
309
TABLEFORMAT_END
  1
CELLSTYLE_BEGIN
 90
        3
 91
        2
300
_DATA
309
CELLSTYLE_END
  0
ENDSEC
  0
EOF
