  0
SECTION
  2
HEADER
  9
$ACADVER
  1
AC1015
  9
$ACADMAINTVER
 70
     6
  9
$DWGCODEPAGE
  3
DOS932
  9
$INSBASE
 10
0.0
 20
0.0
 30
0.0
  9
$EXTMIN
 10
0.0
 20
0.0
 30
0.0
  9
$EXTMAX
 10
594.0
 20
420.0
 30
0.0
  9
$LIMMIN
 10
0.0
 20
0.0
  9
$LIMMAX
 10
594.0
 20
420.0
  9
$ORTHOMODE
 70
     0
  9
$REGENMODE
 70
     1
  9
$FILLMODE
 70
     1
  9
$QTEXTMODE
 70
     0
  9
$MIRRTEXT
 70
     1
  9
$LTSCALE
 40
1.0
  9
$ATTMODE
 70
     1
  9
$TEXTSIZE
 40
3.5
  9
$TRACEWID
 40
1.0
  9
$TEXTSTYLE
  7
Standard
  9
$CLAYER
  8
0
  9
$CELTYPE
  6
ByLayer
  9
$CECOLOR
 62
   256
  9
$CELTSCALE
 40
1.0
  9
$DISPSILH
 70
     0
  9
$DIMSCALE
 40
1.0
  9
$DIMASZ
 40
3.302
  9
$DIMEXO
 40
1.0
  9
$DIMDLI
 40
3.75
  9
$DIMRND
 40
0.0
  9
$DIMDLE
 40
0.0
  9
$DIMEXE
 40
1.0
  9
$DIMTP
 40
0.0
  9
$DIMTM
 40
0.0
  9
$DIMTXT
 40
3.5
  9
$DIMCEN
 40
2.5
  9
$DIMTSZ
 40
0.0
  9
$DIMTOL
 70
     0
  9
$DIMLIM
 70
     0
  9
$DIMTIH
 70
     1
  9
$DIMTOH
 70
     1
  9
$DIMSE1
 70
     0
  9
$DIMSE2
 70
     0
  9
$DIMTAD
 70
     1
  9
$DIMZIN
 70
     1
  9
$DIMBLK
  1

  9
$DIMASO
 70
     1
  9
$DIMSHO
 70
     1
  9
$DIMPOST
  1

  9
$DIMAPOST
  1

  9
$DIMALT
 70
     0
  9
$DIMALTD
 70
     3
  9
$DIMALTF
 40
0.0393700787
  9
$DIMLFAC
 40
1.0
  9
$DIMTOFL
 70
     1
  9
$DIMTVP
 40
0.0
  9
$DIMTIX
 70
     0
  9
$DIMSOXD
 70
     0
  9
$DIMSAH
 70
     0
  9
$DIMBLK1
  1

  9
$DIMBLK2
  1

  9
$DIMSTYLE
  2
ISO-25
  9
$DIMCLRD
 70
     0
  9
$DIMCLRE
 70
     0
  9
$DIMCLRT
 70
     0
  9
$DIMTFAC
 40
1.0
  9
$DIMGAP
 40
1.524
  9
$DIMJUST
 70
     0
  9
$DIMSD1
 70
     0
  9
$DIMSD2
 70
     0
  9
$DIMTOLJ
 70
     0
  9
$DIMTZIN
 70
     1
  9
$DIMALTZ
 70
     0
  9
$DIMALTTZ
 70
     0
  9
$DIMUPT
 70
     0
  9
$DIMDEC
 70
     4
  9
$DIMTDEC
 70
     4
  9
$DIMALTU
 70
     2
  9
$DIMALTTD
 70
     3
  9
$DIMTXSTY
  7
Standard
  9
$DIMAUNIT
 70
     0
  9
$DIMADEC
 70
     0
  9
$DIMALTRND
 40
0.0
  9
$DIMAZIN
 70
     0
  9
$DIMDSEP
 70
    44
  9
$DIMATFIT
 70
     3
  9
$DIMFRAC
 70
     0
  9
$DIMLDRBLK
  1

  9
$DIMLUNIT
 70
     2
  9
$DIMLWD
 70
    -2
  9
$DIMLWE
 70
    -2
  9
$DIMTMOVE
 70
     0
  9
$LUNITS
 70
     2
  9
$LUPREC
 70
     4
  9
$SKETCHINC
 40
1.0
  9
$FILLETRAD
 40
10.0
  9
$AUNITS
 70
     0
  9
$AUPREC
 70
     0
  9
$MENU
  1
.
  9
$ELEVATION
 40
0.0
  9
$PELEVATION
 40
0.0
  9
$THICKNESS
 40
0.0
  9
$LIMCHECK
 70
     0
  9
$CHAMFERA
 40
0.0
  9
$CHAMFERB
 40
0.0
  9
$CHAMFERC
 40
0.0
  9
$CHAMFERD
 40
0.0
  9
$SKPOLY
 70
     0
  9
$TDCREATE
 40
2458290.399927894
  9
$TDUCREATE
 40
2458290.024927894
  9
$TDUPDATE
 40
2458290.399937315
  9
$TDUUPDATE
 40
2458290.024937315
  9
$TDINDWG
 40
0.0000000116
  9
$TDUSRTIMER
 40
0.0000000116
  9
$USRTIMER
 70
     1
  9
$ANGBASE
 50
0.0
  9
$ANGDIR
 70
     0
  9
$PDMODE
 70
     0
  9
$PDSIZE
 40
-1.0
  9
$PLINEWID
 40
0.0
  9
$SPLFRAME
 70
     0
  9
$SPLINETYPE
 70
     6
  9
$SPLINESEGS
 70
     8
  9
$HANDSEED
  5
229
  9
$SURFTAB1
 70
     6
  9
$SURFTAB2
 70
     6
  9
$SURFTYPE
 70
     6
  9
$SURFU
 70
     6
  9
$SURFV
 70
     6
  9
$UCSBASE
  2

  9
$UCSNAME
  2

  9
$UCSORG
 10
0.0
 20
0.0
 30
0.0
  9
$UCSXDIR
 10
1.0
 20
0.0
 30
0.0
  9
$UCSYDIR
 10
0.0
 20
1.0
 30
0.0
  9
$UCSORTHOREF
  2

  9
$UCSORTHOVIEW
 70
     0
  9
$UCSORGTOP
 10
0.0
 20
0.0
 30
0.0
  9
$UCSORGBOTTOM
 10
0.0
 20
0.0
 30
0.0
  9
$UCSORGLEFT
 10
0.0
 20
0.0
 30
0.0
  9
$UCSORGRIGHT
 10
0.0
 20
0.0
 30
0.0
  9
$UCSORGFRONT
 10
0.0
 20
0.0
 30
0.0
  9
$UCSORGBACK
 10
0.0
 20
0.0
 30
0.0
  9
$PUCSBASE
  2

  9
$PUCSNAME
  2

  9
$PUCSORG
 10
0.0
 20
0.0
 30
0.0
  9
$PUCSXDIR
 10
1.0
 20
0.0
 30
0.0
  9
$PUCSYDIR
 10
0.0
 20
1.0
 30
0.0
  9
$PUCSORTHOREF
  2

  9
$PUCSORTHOVIEW
 70
     0
  9
$PUCSORGTOP
 10
0.0
 20
0.0
 30
0.0
  9
$PUCSORGBOTTOM
 10
0.0
 20
0.0
 30
0.0
  9
$PUCSORGLEFT
 10
0.0
 20
0.0
 30
0.0
  9
$PUCSORGRIGHT
 10
0.0
 20
0.0
 30
0.0
  9
$PUCSORGFRONT
 10
0.0
 20
0.0
 30
0.0
  9
$PUCSORGBACK
 10
0.0
 20
0.0
 30
0.0
  9
$USERI1
 70
     0
  9
$USERI2
 70
     0
  9
$USERI3
 70
     0
  9
$USERI4
 70
     0
  9
$USERI5
 70
     0
  9
$USERR1
 40
0.0
  9
$USERR2
 40
0.0
  9
$USERR3
 40
0.0
  9
$USERR4
 40
0.0
  9
$USERR5
 40
0.0
  9
$WORLDVIEW
 70
     1
  9
$SHADEDGE
 70
     3
  9
$SHADEDIF
 70
    70
  9
$TILEMODE
 70
     0
  9
$MAXACTVP
 70
    64
  9
$PINSBASE
 10
0.0
 20
0.0
 30
0.0
  9
$PLIMCHECK
 70
     0
  9
$PEXTMIN
 10
0.0
 20
0.0
 30
0.0
  9
$PEXTMAX
 10
594.0
 20
420.0
 30
0.0
  9
$PLIMMIN
 10
0.0
 20
0.0
  9
$PLIMMAX
 10
594.0
 20
420.0
  9
$UNITMODE
 70
     0
  9
$VISRETAIN
 70
     1
  9
$PLINEGEN
 70
     0
  9
$PSLTSCALE
 70
     1
  9
$TREEDEPTH
 70
  3020
  9
$CMLSTYLE
  2
Standard
  9
$CMLJUST
 70
     0
  9
$CMLSCALE
 40
20.0
  9
$PROXYGRAPHICS
 70
     1
  9
$MEASUREMENT
 70
     1
  9
$CELWEIGHT
370
    -1
  9
$ENDCAPS
280
     0
  9
$JOINSTYLE
280
     0
  9
$LWDISPLAY
290
     1
  9
$INSUNITS
 70
     4
  9
$HYPERLINKBASE
  1

  9
$STYLESHEET
  1

  9
$XEDIT
290
     1
  9
$CEPSNTYPE
380
     0
  9
$PSTYLEMODE
290
     1
  9
$FINGERPRINTGUID
  2
{E2155257-468E-4AD6-875D-7FA35E7A3C34}
  9
$VERSIONGUID
  2
{FAEB1C32-E019-11D5-929B-00C0DF256EC4}
  9
$EXTNAMES
290
     1
  9
$PSVPSCALE
 40
0.0
  9
$OLESTARTUP
290
     0
  0
ENDSEC
  0
SECTION
  2
CLASSES
  0
CLASS
  1
ACDBDICTIONARYWDFLT
  2
AcDbDictionaryWithDefault
  3
ObjectDBX Classes
 90
        0
280
     0
281
     0
  0
CLASS
  1
VISUALSTYLE
  2
AcDbVisualStyle
  3
ObjectDBX Classes
 90
     4095
280
     0
281
     0
  0
CLASS
  1
MATERIAL
  2
AcDbMaterial
  3
ObjectDBX Classes
 90
     1153
280
     0
281
     0
  0
CLASS
  1
SCALE
  2
AcDbScale
  3
ObjectDBX Classes
 90
     1153
280
     0
281
     0
  0
CLASS
  1
TABLESTYLE
  2
AcDbTableStyle
  3
ObjectDBX Classes
 90
     4095
280
     0
281
     0
  0
CLASS
  1
MLEADERSTYLE
  2
AcDbMLeaderStyle
  3
ACDB_MLEADERSTYLE_CLASS
 90
     4095
280
     0
281
     0
  0
CLASS
  1
SUN
  2
AcDbSun
  3
SCENEOE
 90
     1153
280
     0
281
     0
  0
CLASS
  1
ACDBPLACEHOLDER
  2
AcDbPlaceHolder
  3
ObjectDBX Classes
 90
        0
280
     0
281
     0
  0
CLASS
  1
LAYOUT
  2
AcDbLayout
  3
ObjectDBX Classes
 90
        0
280
     0
281
     0
  0
ENDSEC
  0
SECTION
  2
TABLES
  0
TABLE
  2
VPORT
  5
8
330
0
100
AcDbSymbolTable
 70
     1
  0
VPORT
  5
29
330
8
100
AcDbSymbolTableRecord
100
AcDbViewportTableRecord
  2
*Active
 70
     0
 10
0.0
 20
0.0
 11
1.0
 21
1.0
 12
297.0
 22
210.0
 13
0.0
 23
0.0
 14
10.0
 24
10.0
 15
10.0
 25
10.0
 16
0.0
 26
0.0
 36
1.0
 17
0.0
 27
0.0
 37
0.0
 40
420.0
 41
1.4142857143
 42
50.0
 43
0.0
 44
0.0
 50
0.0
 51
0.0
 71
     0
 72
  2000
 73
     1
 74
     3
 75
     0
 76
     0
 77
     0
 78
     0
281
     0
 65
     1
110
0.0
120
0.0
130
0.0
111
1.0
121
0.0
131
0.0
112
0.0
122
1.0
132
0.0
 79
     0
146
0.0
  0
ENDTAB
  0
TABLE
  2
LTYPE
  5
5
330
0
100
AcDbSymbolTable
 70
     6
  0
LTYPE
  5
14
330
5
100
AcDbSymbolTableRecord
100
AcDbLinetypeTableRecord
  2
ByBlock
 70
     0
  3

 72
    65
 73
     0
 40
0.0
  0
LTYPE
  5
15
330
5
100
AcDbSymbolTableRecord
100
AcDbLinetypeTableRecord
  2
ByLayer
 70
     0
  3

 72
    65
 73
     0
 40
0.0
  0
LTYPE
  5
16
330
5
100
AcDbSymbolTableRecord
100
AcDbLinetypeTableRecord
  2
Continuous
 70
     0
  3
Solid line
 72
    65
 73
     0
 40
0.0
  0
LTYPE
  5
6E
330
5
100
AcDbSymbolTableRecord
100
AcDbLinetypeTableRecord
  2
HIDDEN
 70
     0
  3
Hidden __ __ __ __ __ __ __ __ __ __ __ __ __ __
 72
    65
 73
     2
 40
1.905
 49
1.27
 74
     0
 49
-0.635
 74
     0
  0
LTYPE
  5
6F
330
5
100
AcDbSymbolTableRecord
100
AcDbLinetypeTableRecord
  2
PHANTOM
 70
     0
  3
Phantom ______  __  __  ______  __  __  ______
 72
    65
 73
     6
 40
12.7
 49
6.35
 74
     0
 49
-1.27
 74
     0
 49
1.27
 74
     0
 49
-1.27
 74
     0
 49
1.27
 74
     0
 49
-1.27
 74
     0
  0
LTYPE
  5
70
330
5
100
AcDbSymbolTableRecord
100
AcDbLinetypeTableRecord
  2
CENTER
 70
     0
  3
Center ____ _ ____ _ ____ _ ____ _ ____ _ ____
 72
    65
 73
     4
 40
10.16
 49
6.35
 74
     0
 49
-1.27
 74
     0
 49
1.27
 74
     0
 49
-1.27
 74
     0
  0
LTYPE
  5
71
330
5
100
AcDbSymbolTableRecord
100
AcDbLinetypeTableRecord
  2
CENTERX2
 70
     0
  3
Center (2x) ________  __  ________  __  _____
 72
    65
 73
     4
 40
20.32
 49
12.7
 74
     0
 49
-2.54
 74
     0
 49
2.54
 74
     0
 49
-2.54
 74
     0
  0
LTYPE
  5
72
330
5
100
AcDbSymbolTableRecord
100
AcDbLinetypeTableRecord
  2
DOT2
 70
     0
  3
Dot (.5x) ........................................
 72
    65
 73
     2
 40
0.635
 49
0.0
 74
     0
 49
-0.635
 74
     0
  0
ENDTAB
  0
TABLE
  2
LAYER
  5
2
330
0
100
AcDbSymbolTable
 70
     5
  0
LAYER
  5
10
330
2
100
AcDbSymbolTableRecord
100
AcDbLayerTableRecord
  2
0
 70
     0
 62
     7
  6
Continuous
370
    -3
390
F
  0
LAYER
  5
73
330
2
100
AcDbSymbolTableRecord
100
AcDbLayerTableRecord
  2
SLD-0
 70
     0
 62
     7
  6
Continuous
370
    -3
390
F
  0
LAYER
  5
74
330
2
100
AcDbSymbolTableRecord
100
AcDbLayerTableRecord
  2
1
 70
     0
 62
     7
  6
Continuous
370
    -3
390
F
  0
LAYER
  5
75
330
2
100
AcDbSymbolTableRecord
100
AcDbLayerTableRecord
  2
2
 70
     0
 62
     7
  6
Continuous
370
    -3
390
F
  0
LAYER
  5
76
330
2
100
AcDbSymbolTableRecord
100
AcDbLayerTableRecord
  2
SLD-DEFPOINTS
 70
     0
 62
     7
  6
Continuous
290
     0
370
    -3
390
F
  0
ENDTAB
  0
TABLE
  2
STYLE
  5
3
330
0
100
AcDbSymbolTable
 70
    13
  0
STYLE
  5
11
330
3
100
AcDbSymbolTableRecord
100
AcDbTextStyleTableRecord
  2
Standard
 70
     0
 40
0.0
 41
1.0
 50
0.0
 71
     0
 42
3.5
  3
txt
  4
bigfont
  0
STYLE
  5
15E
330
3
100
AcDbSymbolTableRecord
100
AcDbTextStyleTableRecord
  2
SLDTEXTSTYLE0
 70
     0
 40
0.0
 41
1.0
 50
0.0
 71
     0
 42
3.5
  3
TXT
  4
bigfont
  0
STYLE
  5
16F
330
3
100
AcDbSymbolTableRecord
100
AcDbTextStyleTableRecord
  2
SLDTEXTSTYLE1
 70
     0
 40
0.0
 41
0.96
 50
0.0
 71
     0
 42
3.5
  3
TXT
  4
bigfont
  0
STYLE
  5
1FB
330
3
100
AcDbSymbolTableRecord
100
AcDbTextStyleTableRecord
  2
SLDTEXTSTYLE2
 70
     0
 40
0.0
 41
1.00000003
 50
0.0
 71
     0
 42
3.5
  3
TXT
  4
bigfont
  0
STYLE
  5
1FE
330
3
100
AcDbSymbolTableRecord
100
AcDbTextStyleTableRecord
  2
SLDTEXTSTYLE3
 70
     0
 40
0.0
 41
0.7000000113
 50
0.0
 71
     0
 42
3.5
  3
TXT
  4
bigfont
  0
STYLE
  5
201
330
3
100
AcDbSymbolTableRecord
100
AcDbTextStyleTableRecord
  2
SLDTEXTSTYLE4
 70
     0
 40
0.0
 41
1.0000000141
 50
0.0
 71
     0
 42
3.5
  3
TXT
  4
bigfont
  0
STYLE
  5
203
330
3
100
AcDbSymbolTableRecord
100
AcDbTextStyleTableRecord
  2
SLDTEXTSTYLE5
 70
     0
 40
0.0
 41
0.6999999936
 50
0.0
 71
     0
 42
3.5
  3
TXT
  4
bigfont
  0
STYLE
  5
205
330
3
100
AcDbSymbolTableRecord
100
AcDbTextStyleTableRecord
  2
SLDTEXTSTYLE6
 70
     0
 40
0.0
 41
0.7000000287
 50
0.0
 71
     0
 42
3.5
  3
TXT
  4
bigfont
  0
STYLE
  5
207
330
3
100
AcDbSymbolTableRecord
100
AcDbTextStyleTableRecord
  2
SLDTEXTSTYLE7
 70
     0
 40
0.0
 41
1.0000000776
 50
0.0
 71
     0
 42
3.5
  3
TXT
  4
bigfont
  0
STYLE
  5
21F
330
3
100
AcDbSymbolTableRecord
100
AcDbTextStyleTableRecord
  2
SLDTEXTSTYLE8
 70
     0
 40
0.0
 41
0.999999988
 50
0.0
 71
     0
 42
3.5
  3
TXT
  4
bigfont
  0
STYLE
  5
222
330
3
100
AcDbSymbolTableRecord
100
AcDbTextStyleTableRecord
  2
SLDTEXTSTYLE9
 70
     0
 40
0.0
 41
0.5942489394
 50
0.0
 71
     0
 42
3.5
  3
TXT
  4
bigfont
  0
STYLE
  5
224
330
3
100
AcDbSymbolTableRecord
100
AcDbTextStyleTableRecord
  2
SLDTEXTSTYLE10
 70
     0
 40
0.0
 41
0.6303308571
 50
0.0
 71
     0
 42
3.5
  3
TXT
  4
bigfont
  0
STYLE
  5
227
330
3
100
AcDbSymbolTableRecord
100
AcDbTextStyleTableRecord
  2
SLDTEXTSTYLE11
 70
     0
 40
0.0
 41
0.3054298643
 50
0.0
 71
     0
 42
3.5
  3
TXT
  4
bigfont
  0
ENDTAB
  0
TABLE
  2
VIEW
  5
6
330
0
100
AcDbSymbolTable
 70
     0
  0
ENDTAB
  0
TABLE
  2
UCS
  5
7
330
0
100
AcDbSymbolTable
 70
     0
  0
ENDTAB
  0
TABLE
  2
APPID
  5
9
330
0
100
AcDbSymbolTable
 70
     1
  0
APPID
  5
12
330
9
100
AcDbSymbolTableRecord
100
AcDbRegAppTableRecord
  2
ACAD
 70
     0
  0
ENDTAB
  0
TABLE
  2
DIMSTYLE
  5
A
330
0
100
AcDbSymbolTable
 70
     3
100
AcDbDimStyleTable
  0
DIMSTYLE
105
27
330
A
100
AcDbSymbolTableRecord
100
AcDbDimStyleTableRecord
  2
ISO-25
 70
     0
 41
2.5
 42
0.625
 43
3.75
 44
1.25
 73
     0
 74
     0
 77
     1
 78
     8
140
2.5
141
2.5
143
0.0393700787
147
0.625
171
     3
172
     1
178
     0
271
     2
272
     2
274
     3
278
    44
283
     0
284
     8
340
11
  0
DIMSTYLE
105
15F
102
{ACAD_REACTORS
330
15D
330
171
330
17F
330
18D
330
19B
330
1DC
330
1ED
102
}
330
A
100
AcDbSymbolTableRecord
100
AcDbDimStyleTableRecord
  2
SLDDIMSTYLE0
 70
     0
 41
3.302
 44
0.0
 45
0.000000001
 73
     0
 74
     0
 77
     1
 78
    12
 79
     3
140
2.9104166031
147
0.7276041508
173
     1
178
     0
271
     0
276
     2
284
    12
340
15E
341
160
343
160
344
160
  0
DIMSTYLE
105
1AA
102
{ACAD_REACTORS
330
1A9
330
1BA
330
1CB
102
}
330
A
100
AcDbSymbolTableRecord
100
AcDbDimStyleTableRecord
  2
SLDDIMSTYLE1
 70
     0
 41
3.302
 44
0.0
 45
0.000000001
 73
     0
 74
     0
 77
     1
 78
     4
 79
     1
140
2.9104166031
147
0.7276041508
173
     1
178
     0
276
     2
284
    12
340
15E
341
160
343
160
344
160
  0
ENDTAB
  0
TABLE
  2
BLOCK_RECORD
  5
1
330
0
100
AcDbSymbolTable
 70
    12
  0
BLOCK_RECORD
  5
1F
330
1
100
AcDbSymbolTableRecord
100
AcDbBlockTableRecord
  2
*Model_Space
340
22
  0
BLOCK_RECORD
  5
1B
330
1
100
AcDbSymbolTableRecord
100
AcDbBlockTableRecord
  2
*Paper_Space
340
1E
  0
BLOCK_RECORD
  5
160
330
1
100
AcDbSymbolTableRecord
100
AcDbBlockTableRecord
  2
_NONE
340
0
  0
BLOCK_RECORD
  5
163
330
1
100
AcDbSymbolTableRecord
100
AcDbBlockTableRecord
  2
_D
340
0
  0
BLOCK_RECORD
  5
172
330
1
100
AcDbSymbolTableRecord
100
AcDbBlockTableRecord
  2
_D_1
340
0
  0
BLOCK_RECORD
  5
180
330
1
100
AcDbSymbolTableRecord
100
AcDbBlockTableRecord
  2
_D_2
340
0
  0
BLOCK_RECORD
  5
18E
330
1
100
AcDbSymbolTableRecord
100
AcDbBlockTableRecord
  2
_D_3
340
0
  0
BLOCK_RECORD
  5
19C
330
1
100
AcDbSymbolTableRecord
100
AcDbBlockTableRecord
  2
_D_4
340
0
  0
BLOCK_RECORD
  5
1AB
330
1
100
AcDbSymbolTableRecord
100
AcDbBlockTableRecord
  2
_D_5
340
0
  0
BLOCK_RECORD
  5
1BB
330
1
100
AcDbSymbolTableRecord
100
AcDbBlockTableRecord
  2
_D_6
340
0
  0
BLOCK_RECORD
  5
1CC
330
1
100
AcDbSymbolTableRecord
100
AcDbBlockTableRecord
  2
_D_7
340
0
  0
BLOCK_RECORD
  5
1DD
330
1
100
AcDbSymbolTableRecord
100
AcDbBlockTableRecord
  2
_D_8
340
0
  0
BLOCK_RECORD
  5
1EE
330
1
100
AcDbSymbolTableRecord
100
AcDbBlockTableRecord
  2
_D_9
340
0
  0
ENDTAB
  0
ENDSEC
  0
SECTION
  2
BLOCKS
  0
BLOCK
  5
20
330
1F
100
AcDbEntity
  8
0
100
AcDbBlockBegin
  2
*Model_Space
 70
     0
 10
0.0
 20
0.0
 30
0.0
  3
*Model_Space
  1

  0
ENDBLK
  5
21
330
1F
100
AcDbEntity
  8
0
100
AcDbBlockEnd
  0
BLOCK
  5
1C
330
1B
100
AcDbEntity
 67
     1
  8
0
100
AcDbBlockBegin
  2
*Paper_Space
 70
     0
 10
0.0
 20
0.0
 30
0.0
  3
*Paper_Space
  1

  0
ENDBLK
  5
1D
330
1B
100
AcDbEntity
 67
     1
  8
0
100
AcDbBlockEnd
  0
BLOCK
  5
161
330
160
100
AcDbEntity
  8
0
100
AcDbBlockBegin
  2
_NONE
 70
     0
 10
0.0
 20
0.0
 30
0.0
  3
_NONE
  1

  0
ENDBLK
  5
162
330
160
100
AcDbEntity
  8
0
100
AcDbBlockEnd
  0
BLOCK
  5
164
330
163
100
AcDbEntity
  8
0
100
AcDbBlockBegin
  2
_D
 70
     0
 10
0.0
 20
0.0
 30
0.0
  3
_D
  1

  0
LINE
  5
166
330
163
100
AcDbEntity
  8
SLD-0
 62
     7
100
AcDbLine
 10
91.9316350125
 20
192.459516376
 30
0.0
 11
91.9316350125
 21
128.4595162858
 31
0.0
  0
LINE
  5
167
330
163
100
AcDbEntity
  8
SLD-0
 62
     7
100
AcDbLine
 10
91.9316350125
 20
195.4595163309
 30
0.0
 11
92.9316349975
 21
192.459516376
 31
0.0
  0
LINE
  5
168
330
163
100
AcDbEntity
  8
SLD-0
 62
     7
100
AcDbLine
 10
91.9316350125
 20
195.4595163309
 30
0.0
 11
90.9316350275
 21
192.459516376
 31
0.0
  0
LINE
  5
169
330
163
100
AcDbEntity
  8
SLD-0
 62
     7
100
AcDbLine
 10
91.9316350125
 20
195.4595163309
 30
0.0
 11
91.9316350125
 21
192.459516376
 31
0.0
  0
LINE
  5
16A
330
163
100
AcDbEntity
  8
SLD-0
 62
     7
100
AcDbLine
 10
91.9316350125
 20
125.4595163309
 30
0.0
 11
90.9316350275
 21
128.4595162858
 31
0.0
  0
LINE
  5
16B
330
163
100
AcDbEntity
  8
SLD-0
 62
     7
100
AcDbLine
 10
91.9316350125
 20
125.4595163309
 30
0.0
 11
92.9316349975
 21
128.4595162858
 31
0.0
  0
LINE
  5
16C
330
163
100
AcDbEntity
  8
SLD-0
 62
     7
100
AcDbLine
 10
91.9316350125
 20
125.4595163309
 30
0.0
 11
91.9316350125
 21
128.4595162858
 31
0.0
  0
LINE
  5
16D
330
163
100
AcDbEntity
  8
SLD-0
 62
     7
100
AcDbLine
 10
107.431635035
 20
195.4595163309
 30
0.0
 11
90.4316350125
 21
195.4595163309
 31
0.0
  0
LINE
  5
16E
330
163
100
AcDbEntity
  8
SLD-0
 62
     7
100
AcDbLine
 10
107.431635035
 20
125.4595163309
 30
0.0
 11
90.4316350125
 21
125.4595163309
 31
0.0
  0
MTEXT
  5
170
330
163
100
AcDbEntity
  8
SLD-0
 62
     7
100
AcDbMText
 10
88.5117822223
 20
157.9647437179
 30
0.0
 40
2.9104166031
 41
0.0
 71
     1
 72
     1
  1
70
  7
SLDTEXTSTYLE1
 11
-3.828568698926949E-16
 21
1.0
 31
0.0
 73
     1
 44
1.0
  0
ENDBLK
  5
165
330
163
100
AcDbEntity
  8
0
100
AcDbBlockEnd
  0
BLOCK
  5
173
330
172
100
AcDbEntity
  8
0
100
AcDbBlockBegin
  2
_D_1
 70
     0
 10
0.0
 20
0.0
 30
0.0
  3
_D_1
  1

  0
LINE
  5
175
330
172
100
AcDbEntity
  8
SLD-0
 62
     7
100
AcDbLine
 10
110.9316349674
 20
97.4595163309
 30
0.0
 11
384.9316350576
 21
97.4595163309
 31
0.0
  0
LINE
  5
176
330
172
100
AcDbEntity
  8
SLD-0
 62
     7
100
AcDbLine
 10
107.9316350125
 20
97.4595163309
 30
0.0
 11
110.9316349674
 21
98.4595163159
 31
0.0
  0
LINE
  5
177
330
172
100
AcDbEntity
  8
SLD-0
 62
     7
100
AcDbLine
 10
107.9316350125
 20
97.4595163309
 30
0.0
 11
110.9316349674
 21
96.4595163459
 31
0.0
  0
LINE
  5
178
330
172
100
AcDbEntity
  8
SLD-0
 62
     7
100
AcDbLine
 10
107.9316350125
 20
97.4595163309
 30
0.0
 11
110.9316349674
 21
97.4595163309
 31
0.0
  0
LINE
  5
179
330
172
100
AcDbEntity
  8
SLD-0
 62
     7
100
AcDbLine
 10
387.9316350125
 20
97.4595163309
 30
0.0
 11
384.9316350576
 21
96.4595163459
 31
0.0
  0
LINE
  5
17A
330
172
100
AcDbEntity
  8
SLD-0
 62
     7
100
AcDbLine
 10
387.9316350125
 20
97.4595163309
 30
0.0
 11
384.9316350576
 21
98.4595163159
 31
0.0
  0
LINE
  5
17B
330
172
100
AcDbEntity
  8
SLD-0
 62
     7
100
AcDbLine
 10
387.9316350125
 20
97.4595163309
 30
0.0
 11
384.9316350576
 21
97.4595163309
 31
0.0
  0
LINE
  5
17C
330
172
100
AcDbEntity
  8
SLD-0
 62
     7
100
AcDbLine
 10
107.9316350125
 20
124.9595163534
 30
0.0
 11
107.9316350125
 21
95.9595163309
 31
0.0
  0
LINE
  5
17D
330
172
100
AcDbEntity
  8
SLD-0
 62
     7
100
AcDbLine
 10
387.9316350125
 20
124.9595163534
 30
0.0
 11
387.9316350125
 21
95.9595163309
 31
0.0
  0
MTEXT
  5
17E
330
172
100
AcDbEntity
  8
SLD-0
 62
     7
100
AcDbMText
 10
243.9816541575
 20
100.8793691211
 30
0.0
 40
2.9104166031
 41
0.0
 71
     1
 72
     1
  1
280
  7
SLDTEXTSTYLE1
 73
     1
 44
1.0
  0
ENDBLK
  5
174
330
172
100
AcDbEntity
  8
0
100
AcDbBlockEnd
  0
BLOCK
  5
181
330
180
100
AcDbEntity
  8
0
100
AcDbBlockBegin
  2
_D_2
 70
     0
 10
0.0
 20
0.0
 30
0.0
  3
_D_2
  1

  0
LINE
  5
183
330
180
100
AcDbEntity
  8
SLD-0
 62
     7
100
AcDbLine
 10
145.9316349674
 20
103.4595163309
 30
0.0
 11
349.9316350576
 21
103.4595163309
 31
0.0
  0
LINE
  5
184
330
180
100
AcDbEntity
  8
SLD-0
 62
     7
100
AcDbLine
 10
142.9316350125
 20
103.4595163309
 30
0.0
 11
145.9316349674
 21
104.4595163159
 31
0.0
  0
LINE
  5
185
330
180
100
AcDbEntity
  8
SLD-0
 62
     7
100
AcDbLine
 10
142.9316350125
 20
103.4595163309
 30
0.0
 11
145.9316349674
 21
102.4595163459
 31
0.0
  0
LINE
  5
186
330
180
100
AcDbEntity
  8
SLD-0
 62
     7
100
AcDbLine
 10
142.9316350125
 20
103.4595163309
 30
0.0
 11
145.9316349674
 21
103.4595163309
 31
0.0
  0
LINE
  5
187
330
180
100
AcDbEntity
  8
SLD-0
 62
     7
100
AcDbLine
 10
352.9316350125
 20
103.4595163309
 30
0.0
 11
349.9316350576
 21
102.4595163459
 31
0.0
  0
LINE
  5
188
330
180
100
AcDbEntity
  8
SLD-0
 62
     7
100
AcDbLine
 10
352.9316350125
 20
103.4595163309
 30
0.0
 11
349.9316350576
 21
104.4595163159
 31
0.0
  0
LINE
  5
189
330
180
100
AcDbEntity
  8
SLD-0
 62
     7
100
AcDbLine
 10
352.9316350125
 20
103.4595163309
 30
0.0
 11
349.9316350576
 21
103.4595163309
 31
0.0
  0
LINE
  5
18A
330
180
100
AcDbEntity
  8
SLD-0
 62
     7
100
AcDbLine
 10
142.9316350125
 20
147.1575003781
 30
0.0
 11
142.9316350125
 21
101.9595163309
 31
0.0
  0
LINE
  5
18B
330
180
100
AcDbEntity
  8
SLD-0
 62
     7
100
AcDbLine
 10
352.9316350125
 20
145.6123985257
 30
0.0
 11
352.9316350125
 21
101.9595163309
 31
0.0
  0
MTEXT
  5
18C
330
180
100
AcDbEntity
  8
SLD-0
 62
     7
100
AcDbMText
 10
243.9816541575
 20
106.8793691211
 30
0.0
 40
2.9104166031
 41
0.0
 71
     1
 72
     1
  1
210
  7
SLDTEXTSTYLE1
 73
     1
 44
1.0
  0
ENDBLK
  5
182
330
180
100
AcDbEntity
  8
0
100
AcDbBlockEnd
  0
BLOCK
  5
18F
330
18E
100
AcDbEntity
  8
0
100
AcDbBlockBegin
  2
_D_3
 70
     0
 10
0.0
 20
0.0
 30
0.0
  3
_D_3
  1

  0
LINE
  5
191
330
18E
100
AcDbEntity
  8
SLD-0
 62
     7
100
AcDbLine
 10
160.9316349674
 20
109.4595163309
 30
0.0
 11
334.9316350576
 21
109.4595163309
 31
0.0
  0
LINE
  5
192
330
18E
100
AcDbEntity
  8
SLD-0
 62
     7
100
AcDbLine
 10
157.9316350125
 20
109.4595163309
 30
0.0
 11
160.9316349674
 21
110.4595163159
 31
0.0
  0
LINE
  5
193
330
18E
100
AcDbEntity
  8
SLD-0
 62
     7
100
AcDbLine
 10
157.9316350125
 20
109.4595163309
 30
0.0
 11
160.9316349674
 21
108.4595163459
 31
0.0
  0
LINE
  5
194
330
18E
100
AcDbEntity
  8
SLD-0
 62
     7
100
AcDbLine
 10
157.9316350125
 20
109.4595163309
 30
0.0
 11
160.9316349674
 21
109.4595163309
 31
0.0
  0
LINE
  5
195
330
18E
100
AcDbEntity
  8
SLD-0
 62
     7
100
AcDbLine
 10
337.9316350125
 20
109.4595163309
 30
0.0
 11
334.9316350576
 21
108.4595163459
 31
0.0
  0
LINE
  5
196
330
18E
100
AcDbEntity
  8
SLD-0
 62
     7
100
AcDbLine
 10
337.9316350125
 20
109.4595163309
 30
0.0
 11
334.9316350576
 21
110.4595163159
 31
0.0
  0
LINE
  5
197
330
18E
100
AcDbEntity
  8
SLD-0
 62
     7
100
AcDbLine
 10
337.9316350125
 20
109.4595163309
 30
0.0
 11
334.9316350576
 21
109.4595163309
 31
0.0
  0
LINE
  5
198
330
18E
100
AcDbEntity
  8
SLD-0
 62
     7
100
AcDbLine
 10
157.9316350125
 20
152.9595163534
 30
0.0
 11
157.9316350125
 21
107.9595163309
 31
0.0
  0
LINE
  5
199
330
18E
100
AcDbEntity
  8
SLD-0
 62
     7
100
AcDbLine
 10
337.9316350125
 20
152.9595163534
 30
0.0
 11
337.9316350125
 21
107.9595163309
 31
0.0
  0
MTEXT
  5
19A
330
18E
100
AcDbEntity
  8
SLD-0
 62
     7
100
AcDbMText
 10
243.9816541575
 20
112.8793691211
 30
0.0
 40
2.9104166031
 41
0.0
 71
     1
 72
     1
  1
180
  7
SLDTEXTSTYLE1
 73
     1
 44
1.0
  0
ENDBLK
  5
190
330
18E
100
AcDbEntity
  8
0
100
AcDbBlockEnd
  0
BLOCK
  5
19D
330
19C
100
AcDbEntity
  8
0
100
AcDbBlockBegin
  2
_D_4
 70
     0
 10
0.0
 20
0.0
 30
0.0
  3
_D_4
  1

  0
LINE
  5
19F
330
19C
100
AcDbEntity
  8
SLD-0
 62
     7
100
AcDbLine
 10
91.9316350125
 20
328.791336012
 30
0.0
 11
91.9316350125
 21
276.7913359218
 31
0.0
  0
LINE
  5
1A0
330
19C
100
AcDbEntity
  8
SLD-0
 62
     7
100
AcDbLine
 10
91.9316350125
 20
331.7913359669
 30
0.0
 11
92.9316349975
 21
328.791336012
 31
0.0
  0
LINE
  5
1A1
330
19C
100
AcDbEntity
  8
SLD-0
 62
     7
100
AcDbLine
 10
91.9316350125
 20
331.7913359669
 30
0.0
 11
90.9316350275
 21
328.791336012
 31
0.0
  0
LINE
  5
1A2
330
19C
100
AcDbEntity
  8
SLD-0
 62
     7
100
AcDbLine
 10
91.9316350125
 20
331.7913359669
 30
0.0
 11
91.9316350125
 21
328.791336012
 31
0.0
  0
LINE
  5
1A3
330
19C
100
AcDbEntity
  8
SLD-0
 62
     7
100
AcDbLine
 10
91.9316350125
 20
273.7913359669
 30
0.0
 11
90.9316350275
 21
276.7913359218
 31
0.0
  0
LINE
  5
1A4
330
19C
100
AcDbEntity
  8
SLD-0
 62
     7
100
AcDbLine
 10
91.9316350125
 20
273.7913359669
 30
0.0
 11
92.9316349975
 21
276.7913359218
 31
0.0
  0
LINE
  5
1A5
330
19C
100
AcDbEntity
  8
SLD-0
 62
     7
100
AcDbLine
 10
91.9316350125
 20
273.7913359669
 30
0.0
 11
91.9316350125
 21
276.7913359218
 31
0.0
  0
LINE
  5
1A6
330
19C
100
AcDbEntity
  8
SLD-0
 62
     7
100
AcDbLine
 10
106.431635035
 20
331.7913359669
 30
0.0
 11
90.4316350125
 21
331.7913359669
 31
0.0
  0
LINE
  5
1A7
330
19C
100
AcDbEntity
  8
SLD-0
 62
     7
100
AcDbLine
 10
138.3976054609
 20
273.7913359669
 30
0.0
 11
90.4316350125
 21
273.7913359669
 31
0.0
  0
MTEXT
  5
1A8
330
19C
100
AcDbEntity
  8
SLD-0
 62
     7
100
AcDbMText
 10
88.5117822223
 20
300.2965633539
 30
0.0
 40
2.9104166031
 41
0.0
 71
     1
 72
     1
  1
58
  7
SLDTEXTSTYLE1
 11
-3.828568698926949E-16
 21
1.0
 31
0.0
 73
     1
 44
1.0
  0
ENDBLK
  5
19E
330
19C
100
AcDbEntity
  8
0
100
AcDbBlockEnd
  0
BLOCK
  5
1AC
330
1AB
100
AcDbEntity
  8
0
100
AcDbBlockBegin
  2
_D_5
 70
     0
 10
0.0
 20
0.0
 30
0.0
  3
_D_5
  1

  0
LINE
  5
1AE
330
1AB
100
AcDbEntity
  8
SLD-0
 62
     7
100
AcDbLine
 10
97.9316350125
 20
279.7913359669
 30
0.0
 11
97.9316350125
 21
289.9424383606
 31
0.0
  0
LINE
  5
1AF
330
1AB
100
AcDbEntity
  8
SLD-0
 62
     7
100
AcDbLine
 10
97.9316350125
 20
276.791336012
 30
0.0
 11
97.9316350125
 21
270.7913359218
 31
0.0
  0
LINE
  5
1B0
330
1AB
100
AcDbEntity
  8
SLD-0
 62
     7
100
AcDbLine
 10
97.9316350125
 20
279.7913359669
 30
0.0
 11
98.9316349975
 21
276.791336012
 31
0.0
  0
LINE
  5
1B1
330
1AB
100
AcDbEntity
  8
SLD-0
 62
     7
100
AcDbLine
 10
97.9316350125
 20
279.7913359669
 30
0.0
 11
96.9316350275
 21
276.791336012
 31
0.0
  0
LINE
  5
1B2
330
1AB
100
AcDbEntity
  8
SLD-0
 62
     7
100
AcDbLine
 10
97.9316350125
 20
279.7913359669
 30
0.0
 11
97.9316350125
 21
276.791336012
 31
0.0
  0
LINE
  5
1B3
330
1AB
100
AcDbEntity
  8
SLD-0
 62
     7
100
AcDbLine
 10
97.9316350125
 20
267.7913359669
 30
0.0
 11
96.9316350275
 21
270.7913359218
 31
0.0
  0
LINE
  5
1B4
330
1AB
100
AcDbEntity
  8
SLD-0
 62
     7
100
AcDbLine
 10
97.9316350125
 20
267.7913359669
 30
0.0
 11
98.9316349975
 21
270.7913359218
 31
0.0
  0
LINE
  5
1B5
330
1AB
100
AcDbEntity
  8
SLD-0
 62
     7
100
AcDbLine
 10
97.9316350125
 20
267.7913359669
 30
0.0
 11
97.9316350125
 21
270.7913359218
 31
0.0
  0
LINE
  5
1B6
330
1AB
100
AcDbEntity
  8
SLD-0
 62
     7
100
AcDbLine
 10
149.931635035
 20
279.7913359669
 30
0.0
 11
96.4316350125
 21
279.7913359669
 31
0.0
  0
LINE
  5
1B7
330
1AB
100
AcDbEntity
  8
SLD-0
 62
     7
100
AcDbLine
 10
136.931635035
 20
267.7913359669
 30
0.0
 11
96.4316350125
 21
267.7913359669
 31
0.0
  0
MTEXT
  5
1B8
330
1AB
100
AcDbEntity
  8
SLD-0
 62
     7
100
AcDbMText
 10
94.5117822223
 20
282.0424766506
 30
0.0
 40
2.9104166031
 41
0.0
 71
     1
 72
     1
  1
%%c
  7
SLDTEXTSTYLE1
 11
-3.828568698926949E-16
 21
1.0
 31
0.0
 73
     1
 44
1.0
  0
MTEXT
  5
1B9
330
1AB
100
AcDbEntity
  8
SLD-0
 62
     7
100
AcDbMText
 10
94.5117822223
 20
285.8979702688
 30
0.0
 40
2.9104166031
 41
0.0
 71
     1
 72
     1
  1
１２
  7
SLDTEXTSTYLE1
 11
-3.828568698926949E-16
 21
1.0
 31
0.0
 73
     1
 44
1.0
  0
ENDBLK
  5
1AD
330
1AB
100
AcDbEntity
  8
0
100
AcDbBlockEnd
  0
BLOCK
  5
1BC
330
1BB
100
AcDbEntity
  8
0
100
AcDbBlockBegin
  2
_D_6
 70
     0
 10
0.0
 20
0.0
 30
0.0
  3
_D_6
  1

  0
LINE
  5
1BE
330
1BB
100
AcDbEntity
  8
SLD-0
 62
     7
100
AcDbLine
 10
136.9316350125
 20
251.7913359669
 30
0.0
 11
148.9316350125
 21
251.7913359669
 31
0.0
  0
LINE
  5
1BF
330
1BB
100
AcDbEntity
  8
SLD-0
 62
     7
100
AcDbLine
 10
136.9316350125
 20
251.7913359669
 30
0.0
 11
133.9316350576
 21
250.7913359819
 31
0.0
  0
LINE
  5
1C0
330
1BB
100
AcDbEntity
  8
SLD-0
 62
     7
100
AcDbLine
 10
136.9316350125
 20
251.7913359669
 30
0.0
 11
133.9316350576
 21
252.7913359519
 31
0.0
  0
LINE
  5
1C1
330
1BB
100
AcDbEntity
  8
SLD-0
 62
     7
100
AcDbLine
 10
136.9316350125
 20
251.7913359669
 30
0.0
 11
133.9316350576
 21
251.7913359669
 31
0.0
  0
LINE
  5
1C2
330
1BB
100
AcDbEntity
  8
SLD-0
 62
     7
100
AcDbLine
 10
133.9316350576
 20
251.7913359669
 30
0.0
 11
130.5816351079
 21
251.7913359669
 31
0.0
  0
LINE
  5
1C3
330
1BB
100
AcDbEntity
  8
SLD-0
 62
     7
100
AcDbLine
 10
148.9316350125
 20
251.7913359669
 30
0.0
 11
151.9316349674
 21
252.7913359519
 31
0.0
  0
LINE
  5
1C4
330
1BB
100
AcDbEntity
  8
SLD-0
 62
     7
100
AcDbLine
 10
148.9316350125
 20
251.7913359669
 30
0.0
 11
151.9316349674
 21
250.7913359819
 31
0.0
  0
LINE
  5
1C5
330
1BB
100
AcDbEntity
  8
SLD-0
 62
     7
100
AcDbLine
 10
148.9316350125
 20
251.7913359669
 30
0.0
 11
151.9316349674
 21
251.7913359669
 31
0.0
  0
LINE
  5
1C6
330
1BB
100
AcDbEntity
  8
SLD-0
 62
     7
100
AcDbLine
 10
151.9316349674
 20
251.7913359669
 30
0.0
 11
155.2816349171
 21
251.7913359669
 31
0.0
  0
LINE
  5
1C7
330
1BB
100
AcDbEntity
  8
SLD-0
 62
     7
100
AcDbLine
 10
136.9316350125
 20
267.7913359894
 30
0.0
 11
136.9316350125
 21
250.2913359669
 31
0.0
  0
LINE
  5
1C8
330
1BB
100
AcDbEntity
  8
SLD-0
 62
     7
100
AcDbLine
 10
148.9316350125
 20
280.7913359894
 30
0.0
 11
148.9316350125
 21
250.2913359669
 31
0.0
  0
MTEXT
  5
1C9
330
1BB
100
AcDbEntity
  8
SLD-0
 62
     7
100
AcDbMText
 10
138.9816541575
 20
255.2111887571
 30
0.0
 40
2.9104166031
 41
0.0
 71
     1
 72
     1
  1
%%c
  7
SLDTEXTSTYLE1
 73
     1
 44
1.0
  0
MTEXT
  5
1CA
330
1BB
100
AcDbEntity
  8
SLD-0
 62
     7
100
AcDbMText
 10
142.8371477757
 20
255.2111887571
 30
0.0
 40
2.9104166031
 41
0.0
 71
     1
 72
     1
  1
１２
  7
SLDTEXTSTYLE1
 73
     1
 44
1.0
  0
ENDBLK
  5
1BD
330
1BB
100
AcDbEntity
  8
0
100
AcDbBlockEnd
  0
BLOCK
  5
1CD
330
1CC
100
AcDbEntity
  8
0
100
AcDbBlockBegin
  2
_D_7
 70
     0
 10
0.0
 20
0.0
 30
0.0
  3
_D_7
  1

  0
LINE
  5
1CF
330
1CC
100
AcDbEntity
  8
SLD-0
 62
     7
100
AcDbLine
 10
346.9316350125
 20
251.7913359669
 30
0.0
 11
358.9316350125
 21
251.7913359669
 31
0.0
  0
LINE
  5
1D0
330
1CC
100
AcDbEntity
  8
SLD-0
 62
     7
100
AcDbLine
 10
346.9316350125
 20
251.7913359669
 30
0.0
 11
343.9316350576
 21
250.7913359819
 31
0.0
  0
LINE
  5
1D1
330
1CC
100
AcDbEntity
  8
SLD-0
 62
     7
100
AcDbLine
 10
346.9316350125
 20
251.7913359669
 30
0.0
 11
343.9316350576
 21
252.7913359519
 31
0.0
  0
LINE
  5
1D2
330
1CC
100
AcDbEntity
  8
SLD-0
 62
     7
100
AcDbLine
 10
346.9316350125
 20
251.7913359669
 30
0.0
 11
343.9316350576
 21
251.7913359669
 31
0.0
  0
LINE
  5
1D3
330
1CC
100
AcDbEntity
  8
SLD-0
 62
     7
100
AcDbLine
 10
343.9316350576
 20
251.7913359669
 30
0.0
 11
340.5816351079
 21
251.7913359669
 31
0.0
  0
LINE
  5
1D4
330
1CC
100
AcDbEntity
  8
SLD-0
 62
     7
100
AcDbLine
 10
358.9316350125
 20
251.7913359669
 30
0.0
 11
361.9316349674
 21
252.7913359519
 31
0.0
  0
LINE
  5
1D5
330
1CC
100
AcDbEntity
  8
SLD-0
 62
     7
100
AcDbLine
 10
358.9316350125
 20
251.7913359669
 30
0.0
 11
361.9316349674
 21
250.7913359819
 31
0.0
  0
LINE
  5
1D6
330
1CC
100
AcDbEntity
  8
SLD-0
 62
     7
100
AcDbLine
 10
358.9316350125
 20
251.7913359669
 30
0.0
 11
361.9316349674
 21
251.7913359669
 31
0.0
  0
LINE
  5
1D7
330
1CC
100
AcDbEntity
  8
SLD-0
 62
     7
100
AcDbLine
 10
361.9316349674
 20
251.7913359669
 30
0.0
 11
365.2816349171
 21
251.7913359669
 31
0.0
  0
LINE
  5
1D8
330
1CC
100
AcDbEntity
  8
SLD-0
 62
     7
100
AcDbLine
 10
346.9316350125
 20
280.7913359894
 30
0.0
 11
346.9316350125
 21
250.2913359669
 31
0.0
  0
LINE
  5
1D9
330
1CC
100
AcDbEntity
  8
SLD-0
 62
     7
100
AcDbLine
 10
358.9316350125
 20
267.7913359894
 30
0.0
 11
358.9316350125
 21
250.2913359669
 31
0.0
  0
MTEXT
  5
1DA
330
1CC
100
AcDbEntity
  8
SLD-0
 62
     7
100
AcDbMText
 10
348.9816541575
 20
255.2111887571
 30
0.0
 40
2.9104166031
 41
0.0
 71
     1
 72
     1
  1
%%c
  7
SLDTEXTSTYLE1
 73
     1
 44
1.0
  0
MTEXT
  5
1DB
330
1CC
100
AcDbEntity
  8
SLD-0
 62
     7
100
AcDbMText
 10
352.8371477757
 20
255.2111887571
 30
0.0
 40
2.9104166031
 41
0.0
 71
     1
 72
     1
  1
１２
  7
SLDTEXTSTYLE1
 73
     1
 44
1.0
  0
ENDBLK
  5
1CE
330
1CC
100
AcDbEntity
  8
0
100
AcDbBlockEnd
  0
BLOCK
  5
1DE
330
1DD
100
AcDbEntity
  8
0
100
AcDbBlockBegin
  2
_D_8
 70
     0
 10
0.0
 20
0.0
 30
0.0
  3
_D_8
  1

  0
LINE
  5
1E0
330
1DD
100
AcDbEntity
  8
SLD-0
 62
     7
100
AcDbLine
 10
488.4439415986
 20
109.4595163309
 30
0.0
 11
476.8432029617
 21
109.4595163309
 31
0.0
  0
LINE
  5
1E1
330
1DD
100
AcDbEntity
  8
SLD-0
 62
     7
100
AcDbLine
 10
488.4439415986
 20
109.4595163309
 30
0.0
 11
493.4439415986
 21
109.4595163309
 31
0.0
  0
LINE
  5
1E2
330
1DD
100
AcDbEntity
  8
SLD-0
 62
     7
100
AcDbLine
 10
488.4439415986
 20
109.4595163309
 30
0.0
 11
485.4439416437
 21
108.4595163459
 31
0.0
  0
LINE
  5
1E3
330
1DD
100
AcDbEntity
  8
SLD-0
 62
     7
100
AcDbLine
 10
488.4439415986
 20
109.4595163309
 30
0.0
 11
485.4439416437
 21
110.4595163159
 31
0.0
  0
LINE
  5
1E4
330
1DD
100
AcDbEntity
  8
SLD-0
 62
     7
100
AcDbLine
 10
488.4439415986
 20
109.4595163309
 30
0.0
 11
485.4439416437
 21
109.4595163309
 31
0.0
  0
LINE
  5
1E5
330
1DD
100
AcDbEntity
  8
SLD-0
 62
     7
100
AcDbLine
 10
485.4439416437
 20
109.4595163309
 30
0.0
 11
482.093941694
 21
109.4595163309
 31
0.0
  0
LINE
  5
1E6
330
1DD
100
AcDbEntity
  8
SLD-0
 62
     7
100
AcDbLine
 10
493.4439415986
 20
109.4595163309
 30
0.0
 11
496.4439415535
 21
110.4595163159
 31
0.0
  0
LINE
  5
1E7
330
1DD
100
AcDbEntity
  8
SLD-0
 62
     7
100
AcDbLine
 10
493.4439415986
 20
109.4595163309
 30
0.0
 11
496.4439415535
 21
108.4595163459
 31
0.0
  0
LINE
  5
1E8
330
1DD
100
AcDbEntity
  8
SLD-0
 62
     7
100
AcDbLine
 10
493.4439415986
 20
109.4595163309
 30
0.0
 11
496.4439415535
 21
109.4595163309
 31
0.0
  0
LINE
  5
1E9
330
1DD
100
AcDbEntity
  8
SLD-0
 62
     7
100
AcDbLine
 10
496.4439415535
 20
109.4595163309
 30
0.0
 11
499.7939415032
 21
109.4595163309
 31
0.0
  0
LINE
  5
1EA
330
1DD
100
AcDbEntity
  8
SLD-0
 62
     7
100
AcDbLine
 10
488.4439415986
 20
124.9595163534
 30
0.0
 11
488.4439415986
 21
107.9595163309
 31
0.0
  0
LINE
  5
1EB
330
1DD
100
AcDbEntity
  8
SLD-0
 62
     7
100
AcDbLine
 10
493.4439415986
 20
123.9595163534
 30
0.0
 11
493.4439415986
 21
107.9595163309
 31
0.0
  0
MTEXT
  5
1EC
330
1DD
100
AcDbEntity
  8
SLD-0
 62
     7
100
AcDbMText
 10
476.8432029617
 20
112.8793691211
 30
0.0
 40
2.9104166031
 41
0.0
 71
     1
 72
     1
  1
5
  7
SLDTEXTSTYLE1
 73
     1
 44
1.0
  0
ENDBLK
  5
1DF
330
1DD
100
AcDbEntity
  8
0
100
AcDbBlockEnd
  0
BLOCK
  5
1EF
330
1EE
100
AcDbEntity
  8
0
100
AcDbBlockBegin
  2
_D_9
 70
     0
 10
0.0
 20
0.0
 30
0.0
  3
_D_9
  1

  0
LINE
  5
1F1
330
1EE
100
AcDbEntity
  8
SLD-0
 62
     7
100
AcDbLine
 10
533.0439415986
 20
182.459516376
 30
0.0
 11
533.0439415986
 21
138.4595162858
 31
0.0
  0
LINE
  5
1F2
330
1EE
100
AcDbEntity
  8
SLD-0
 62
     7
100
AcDbLine
 10
533.0439415986
 20
185.4595163309
 30
0.0
 11
534.0439415836
 21
182.459516376
 31
0.0
  0
LINE
  5
1F3
330
1EE
100
AcDbEntity
  8
SLD-0
 62
     7
100
AcDbLine
 10
533.0439415986
 20
185.4595163309
 30
0.0
 11
532.0439416136
 21
182.459516376
 31
0.0
  0
LINE
  5
1F4
330
1EE
100
AcDbEntity
  8
SLD-0
 62
     7
100
AcDbLine
 10
533.0439415986
 20
185.4595163309
 30
0.0
 11
533.0439415986
 21
182.459516376
 31
0.0
  0
LINE
  5
1F5
330
1EE
100
AcDbEntity
  8
SLD-0
 62
     7
100
AcDbLine
 10
533.0439415986
 20
135.4595163309
 30
0.0
 11
532.0439416136
 21
138.4595162858
 31
0.0
  0
LINE
  5
1F6
330
1EE
100
AcDbEntity
  8
SLD-0
 62
     7
100
AcDbLine
 10
533.0439415986
 20
135.4595163309
 30
0.0
 11
534.0439415836
 21
138.4595162858
 31
0.0
  0
LINE
  5
1F7
330
1EE
100
AcDbEntity
  8
SLD-0
 62
     7
100
AcDbLine
 10
533.0439415986
 20
135.4595163309
 30
0.0
 11
533.0439415986
 21
138.4595162858
 31
0.0
  0
LINE
  5
1F8
330
1EE
100
AcDbEntity
  8
SLD-0
 62
     7
100
AcDbLine
 10
516.8440992663
 20
185.4595163309
 30
0.0
 11
534.5439415986
 21
185.4595163309
 31
0.0
  0
LINE
  5
1F9
330
1EE
100
AcDbEntity
  8
SLD-0
 62
     7
100
AcDbLine
 10
517.3228187514
 20
135.4595163309
 30
0.0
 11
534.5439415986
 21
135.4595163309
 31
0.0
  0
MTEXT
  5
1FA
330
1EE
100
AcDbEntity
  8
SLD-0
 62
     7
100
AcDbMText
 10
529.6240888084
 20
157.9647437179
 30
0.0
 40
2.9104166031
 41
0.0
 71
     1
 72
     1
  1
50
  7
SLDTEXTSTYLE1
 11
-3.828568698926949E-16
 21
1.0
 31
0.0
 73
     1
 44
1.0
  0
ENDBLK
  5
1F0
330
1EE
100
AcDbEntity
  8
0
100
AcDbBlockEnd
  0
ENDSEC
  0
SECTION
  2
ENTITIES
  0
VIEWPORT
  5
77
330
1B
100
AcDbEntity
 67
     1
  8
0
100
AcDbViewport
 10
297.0
 20
210.0
 30
0.0
 40
628.452
 41
444.36
 68
     1
 69
     1
 12
297.0
 22
210.0
 13
0.0
 23
0.0
 14
10.0
 24
10.0
 15
10.0
 25
10.0
 16
0.0
 26
0.0
 36
1.0
 17
0.0
 27
0.0
 37
0.0
 42
50.0
 43
0.0
 44
0.0
 45
444.36
 50
0.0
 51
0.0
 72
   100
 90
   557152
  1

281
     0
 71
     1
 74
     0
110
0.0
120
0.0
130
0.0
111
1.0
121
0.0
131
0.0
112
0.0
122
1.0
132
0.0
 79
     0
146
0.0
  0
LINE
  5
79
330
1B
100
AcDbEntity
 67
     1
  8
SLD-0
  6
Continuous
 62
     7
100
AcDbLine
 10
337.9316385888
 20
166.4595163831
 30
0.0
 11
157.9316314363
 21
166.4595163831
 31
0.0
  0
LINE
  5
7A
330
1B
100
AcDbEntity
 67
     1
  8
SLD-0
  6
Continuous
 62
     7
100
AcDbLine
 10
157.9316314363
 20
154.4595162788
 30
0.0
 11
337.9316385888
 21
154.4595162788
 31
0.0
  0
LINE
  5
7B
330
1B
100
AcDbEntity
 67
     1
  8
SLD-0
  6
Continuous
 62
     7
100
AcDbLine
 10
338.2316362166
 20
166.4595163831
 30
0.0
 11
337.9316385888
 21
166.159516427
 31
0.0
  0
LINE
  5
7C
330
1B
100
AcDbEntity
 67
     1
  8
SLD-0
  6
Continuous
 62
     7
100
AcDbLine
 10
337.9316385888
 20
154.7595162348
 30
0.0
 11
338.2316362166
 21
154.4595162788
 31
0.0
  0
LINE
  5
7D
330
1B
100
AcDbEntity
 67
     1
  8
SLD-0
  6
Continuous
 62
     7
100
AcDbLine
 10
338.2316362166
 20
154.4595162788
 30
0.0
 11
352.9316317343
 21
154.4595162788
 31
0.0
  0
LINE
  5
7E
330
1B
100
AcDbEntity
 67
     1
  8
SLD-0
  6
Continuous
 62
     7
100
AcDbLine
 10
352.9316317343
 20
166.4595163831
 30
0.0
 11
338.2316362166
 21
166.4595163831
 31
0.0
  0
LINE
  5
7F
330
1B
100
AcDbEntity
 67
     1
  8
SLD-0
  6
Continuous
 62
     7
100
AcDbLine
 10
157.6316338085
 20
166.4595163831
 30
0.0
 11
142.9316382908
 21
166.4595163831
 31
0.0
  0
LINE
  5
80
330
1B
100
AcDbEntity
 67
     1
  8
SLD-0
  6
Continuous
 62
     7
100
AcDbLine
 10
142.9316382908
 20
154.4595162788
 30
0.0
 11
157.6316338085
 21
154.4595162788
 31
0.0
  0
LINE
  5
81
330
1B
100
AcDbEntity
 67
     1
  8
SLD-0
  6
Continuous
 62
     7
100
AcDbLine
 10
157.6316338085
 20
154.4595162788
 30
0.0
 11
157.9316314363
 21
154.7595162348
 31
0.0
  0
LINE
  5
82
330
1B
100
AcDbEntity
 67
     1
  8
SLD-0
  6
Continuous
 62
     7
100
AcDbLine
 10
157.9316314363
 20
166.159516427
 30
0.0
 11
157.6316338085
 21
166.4595163831
 31
0.0
  0
LINE
  5
83
330
1B
100
AcDbEntity
 67
     1
  8
SLD-0
  6
Continuous
 62
     7
100
AcDbLine
 10
337.9316385888
 20
160.4595163309
 30
0.0
 11
337.9316385888
 21
166.4595163831
 31
0.0
  0
LINE
  5
84
330
1B
100
AcDbEntity
 67
     1
  8
SLD-0
  6
Continuous
 62
     7
100
AcDbLine
 10
337.9316385888
 20
154.4595162788
 30
0.0
 11
337.9316385888
 21
160.4595163309
 31
0.0
  0
LINE
  5
85
330
1B
100
AcDbEntity
 67
     1
  8
SLD-0
  6
Continuous
 62
     7
100
AcDbLine
 10
157.9316314363
 20
160.4595163309
 30
0.0
 11
157.9316314363
 21
166.4595163831
 31
0.0
  0
LINE
  5
86
330
1B
100
AcDbEntity
 67
     1
  8
SLD-0
  6
Continuous
 62
     7
100
AcDbLine
 10
157.9316314363
 20
154.4595162788
 30
0.0
 11
157.9316314363
 21
160.4595163309
 31
0.0
  0
LINE
  5
87
330
1B
100
AcDbEntity
 67
     1
  8
SLD-0
  6
Continuous
 62
     7
100
AcDbLine
 10
338.2316362166
 20
166.4595163831
 30
0.0
 11
338.2316362166
 21
154.4595162788
 31
0.0
  0
LINE
  5
88
330
1B
100
AcDbEntity
 67
     1
  8
SLD-0
  6
Continuous
 62
     7
100
AcDbLine
 10
157.6316338085
 20
154.4595162788
 30
0.0
 11
157.6316338085
 21
166.4595163831
 31
0.0
  0
LINE
  5
89
330
1B
100
AcDbEntity
 67
     1
  8
SLD-0
  6
Continuous
 62
     7
100
AcDbLine
 10
107.9316344165
 20
126.4595144832
 30
0.0
 11
107.9316344165
 21
194.4595181787
 31
0.0
  0
LINE
  5
8A
330
1B
100
AcDbEntity
 67
     1
  8
SLD-0
  6
Continuous
 62
     7
100
AcDbLine
 10
387.9316351615
 20
194.4595181788
 30
0.0
 11
387.9316351615
 21
126.4595144833
 31
0.0
  0
LINE
  5
8B
330
1B
100
AcDbEntity
 67
     1
  8
SLD-0
  6
Continuous
 62
     7
100
AcDbLine
 10
108.9316362196
 20
195.4595167034
 30
0.0
 11
386.9316333585
 21
195.4595167034
 31
0.0
  0
LINE
  5
8C
330
1B
100
AcDbEntity
 67
     1
  8
SLD-0
  6
Continuous
 62
     7
100
AcDbLine
 10
386.9316333585
 20
125.4595159584
 30
0.0
 11
108.9316362196
 21
125.4595159584
 31
0.0
  0
LINE
  5
8D
330
1B
100
AcDbEntity
 67
     1
  8
SLD-0
  6
CENTER
 62
     7
100
AcDbLine
 10
100.0005114214
 20
160.4595163309
 30
0.0
 11
396.0438284532
 21
160.4595163309
 31
0.0
  0
LINE
  5
8E
330
1B
100
AcDbEntity
 67
     1
  8
SLD-0
  6
CENTER
 62
     7
100
AcDbLine
 10
247.9316350125
 20
203.496511281
 30
0.0
 11
247.9316350125
 21
117.2960349452
 31
0.0
  0
LINE
  5
8F
330
1B
100
AcDbEntity
 67
     1
  8
SLD-0
  6
Continuous
 62
     7
100
AcDbLine
 10
144.9316348933
 20
343.8463809606
 30
0.0
 11
142.9316382908
 21
349.3413368878
 31
0.0
  0
LINE
  5
90
330
1B
100
AcDbEntity
 67
     1
  8
SLD-0
  6
Continuous
 62
     7
100
AcDbLine
 10
142.9316382908
 20
349.3413368878
 30
0.0
 11
140.9316342377
 21
343.8463809606
 31
0.0
  0
LINE
  5
91
330
1B
100
AcDbEntity
 67
     1
  8
SLD-0
  6
Continuous
 62
     7
100
AcDbLine
 10
140.9316342377
 20
343.8463809606
 30
0.0
 11
140.9316342377
 21
331.7913359669
 31
0.0
  0
LINE
  5
92
330
1B
100
AcDbEntity
 67
     1
  8
SLD-0
  6
Continuous
 62
     7
100
AcDbLine
 10
144.9316348933
 20
331.7913359669
 30
0.0
 11
144.9316348933
 21
343.8463809606
 31
0.0
  0
LINE
  5
93
330
1B
100
AcDbEntity
 67
     1
  8
SLD-0
  6
Continuous
 62
     7
100
AcDbLine
 10
354.9316357874
 20
343.8463809606
 30
0.0
 11
352.9316317343
 21
349.3413368878
 31
0.0
  0
LINE
  5
94
330
1B
100
AcDbEntity
 67
     1
  8
SLD-0
  6
Continuous
 62
     7
100
AcDbLine
 10
352.9316317343
 20
349.3413368878
 30
0.0
 11
350.9316351318
 21
343.8463809606
 31
0.0
  0
LINE
  5
95
330
1B
100
AcDbEntity
 67
     1
  8
SLD-0
  6
Continuous
 62
     7
100
AcDbLine
 10
350.9316351318
 20
343.8463809606
 30
0.0
 11
350.9316351318
 21
331.7913359669
 31
0.0
  0
LINE
  5
96
330
1B
100
AcDbEntity
 67
     1
  8
SLD-0
  6
Continuous
 62
     7
100
AcDbLine
 10
354.9316357874
 20
331.7913359669
 30
0.0
 11
354.9316357874
 21
343.8463809606
 31
0.0
  0
LINE
  5
97
330
1B
100
AcDbEntity
 67
     1
  8
SLD-0
  6
Continuous
 62
     7
100
AcDbLine
 10
161.100579431
 20
279.791334894
 30
0.0
 11
157.9316314363
 21
279.791334894
 31
0.0
  0
LINE
  5
98
330
1B
100
AcDbEntity
 67
     1
  8
SLD-0
  6
Continuous
 62
     7
100
AcDbLine
 10
329.100577166
 20
279.791334894
 30
0.0
 11
166.7692344689
 21
279.791334894
 31
0.0
  0
LINE
  5
99
330
1B
100
AcDbEntity
 67
     1
  8
SLD-0
  6
Continuous
 62
     7
100
AcDbLine
 10
337.9316385888
 20
279.791334894
 30
0.0
 11
334.7692322039
 21
279.791334894
 31
0.0
  0
LINE
  5
9A
330
1B
100
AcDbEntity
 67
     1
  8
SLD-0
  6
Continuous
 62
     7
100
AcDbLine
 10
157.9316314363
 20
267.791332927
 30
0.0
 11
337.9316385888
 21
267.791332927
 31
0.0
  0
LINE
  5
9B
330
1B
100
AcDbEntity
 67
     1
  8
SLD-0
  6
Continuous
 62
     7
100
AcDbLine
 10
346.9316344761
 20
326.7913360786
 30
0.0
 11
346.9316344761
 21
282.2913362351
 31
0.0
  0
LINE
  5
9C
330
1B
100
AcDbEntity
 67
     1
  8
SLD-0
  6
Continuous
 62
     7
100
AcDbLine
 10
358.9316372478
 20
269.2913351622
 30
0.0
 11
358.9316372478
 21
326.7913352739
 31
0.0
  0
LINE
  5
9D
330
1B
100
AcDbEntity
 67
     1
  8
SLD-0
  6
Continuous
 62
     7
100
AcDbLine
 10
338.2316362166
 20
267.791332927
 30
0.0
 11
357.4316350125
 21
267.791332927
 31
0.0
  0
LINE
  5
9E
330
1B
100
AcDbEntity
 67
     1
  8
SLD-0
  6
Continuous
 62
     7
100
AcDbLine
 10
344.4316368603
 20
279.791334894
 30
0.0
 11
338.2316362166
 21
279.791334894
 31
0.0
  0
LINE
  5
9F
330
1B
100
AcDbEntity
 67
     1
  8
SLD-0
  6
Continuous
 62
     7
100
AcDbLine
 10
338.2316362166
 20
279.791334894
 30
0.0
 11
337.9316385889
 21
279.4913372663
 31
0.0
  0
LINE
  5
A0
330
1B
100
AcDbEntity
 67
     1
  8
SLD-0
  6
Continuous
 62
     7
100
AcDbLine
 10
337.9316385888
 20
268.0913380054
 30
0.0
 11
338.2316362166
 21
267.791332927
 31
0.0
  0
LINE
  5
A1
330
1B
100
AcDbEntity
 67
     1
  8
SLD-0
  6
Continuous
 62
     7
100
AcDbLine
 10
136.931633582
 20
326.7913360786
 30
0.0
 11
136.931633582
 21
269.2913359669
 31
0.0
  0
LINE
  5
A2
330
1B
100
AcDbEntity
 67
     1
  8
SLD-0
  6
Continuous
 62
     7
100
AcDbLine
 10
148.931635549
 20
282.2913362351
 30
0.0
 11
148.931635549
 21
326.7913360786
 31
0.0
  0
LINE
  5
A3
330
1B
100
AcDbEntity
 67
     1
  8
SLD-0
  6
Continuous
 62
     7
100
AcDbLine
 10
157.6316346132
 20
279.7913356987
 30
0.0
 11
151.4316339695
 21
279.7913356987
 31
0.0
  0
LINE
  5
A4
330
1B
100
AcDbEntity
 67
     1
  8
SLD-0
  6
Continuous
 62
     7
100
AcDbLine
 10
138.4316374266
 20
267.7913337317
 30
0.0
 11
157.6316346132
 21
267.7913337317
 31
0.0
  0
LINE
  5
A5
330
1B
100
AcDbEntity
 67
     1
  8
SLD-0
  6
Continuous
 62
     7
100
AcDbLine
 10
157.6316346132
 20
267.7913337317
 30
0.0
 11
157.931632241
 21
268.0913388101
 31
0.0
  0
LINE
  5
A6
330
1B
100
AcDbEntity
 67
     1
  8
SLD-0
  6
Continuous
 62
     7
100
AcDbLine
 10
157.9316322409
 20
279.491338071
 30
0.0
 11
157.6316346132
 21
279.7913356987
 31
0.0
  0
LINE
  5
A7
330
1B
100
AcDbEntity
 67
     1
  8
SLD-0
  6
Continuous
 62
     7
100
AcDbLine
 10
140.9316342377
 20
343.8463809606
 30
0.0
 11
144.9316348933
 21
343.8463809606
 31
0.0
  0
LINE
  5
A8
330
1B
100
AcDbEntity
 67
     1
  8
SLD-0
  6
Continuous
 62
     7
100
AcDbLine
 10
350.9316351318
 20
343.8463809606
 30
0.0
 11
354.9316357874
 21
343.8463809606
 31
0.0
  0
LINE
  5
A9
330
1B
100
AcDbEntity
 67
     1
  8
SLD-0
  6
Continuous
 62
     7
100
AcDbLine
 10
157.9316314363
 20
267.791332927
 30
0.0
 11
157.9316314363
 21
279.791334894
 31
0.0
  0
LINE
  5
AA
330
1B
100
AcDbEntity
 67
     1
  8
SLD-0
  6
Continuous
 62
     7
100
AcDbLine
 10
337.9316385888
 20
267.791332927
 30
0.0
 11
337.9316385888
 21
279.791334894
 31
0.0
  0
LINE
  5
AB
330
1B
100
AcDbEntity
 67
     1
  8
SLD-0
  6
Continuous
 62
     7
100
AcDbLine
 10
338.2316362166
 20
279.791334894
 30
0.0
 11
338.2316362166
 21
267.791332927
 31
0.0
  0
LINE
  5
AC
330
1B
100
AcDbEntity
 67
     1
  8
SLD-0
  6
Continuous
 62
     7
100
AcDbLine
 10
157.6316346132
 20
267.7913337317
 30
0.0
 11
157.6316346132
 21
279.7913356987
 31
0.0
  0
LINE
  5
AD
330
1B
100
AcDbEntity
 67
     1
  8
SLD-0
  6
Continuous
 62
     7
100
AcDbLine
 10
386.931633582
 20
331.7913359669
 30
0.0
 11
108.9316364431
 21
331.7913359669
 31
0.0
  0
LINE
  5
AE
330
1B
100
AcDbEntity
 67
     1
  8
SLD-0
  6
Continuous
 62
     7
100
AcDbLine
 10
387.9316349009
 20
331.7913359669
 30
0.0
 11
387.9316349009
 21
327.2913361607
 31
0.0
  0
LINE
  5
AF
330
1B
100
AcDbEntity
 67
     1
  8
SLD-0
  6
Continuous
 62
     7
100
AcDbLine
 10
386.931633582
 20
331.7913359669
 30
0.0
 11
387.9316349009
 21
331.7913359669
 31
0.0
  0
LINE
  5
B0
330
1B
100
AcDbEntity
 67
     1
  8
SLD-0
  6
Continuous
 62
     7
100
AcDbLine
 10
107.9316344165
 20
327.2913361606
 30
0.0
 11
107.9316344165
 21
331.7913359669
 31
0.0
  0
LINE
  5
B1
330
1B
100
AcDbEntity
 67
     1
  8
SLD-0
  6
Continuous
 62
     7
100
AcDbLine
 10
107.9316344165
 20
331.7913359669
 30
0.0
 11
108.9316364431
 21
331.7913359669
 31
0.0
  0
LINE
  5
B2
330
1B
100
AcDbEntity
 67
     1
  8
SLD-0
  6
Continuous
 62
     7
100
AcDbLine
 10
387.4316416921
 20
326.7913357248
 30
0.0
 11
386.9316332282
 21
326.7913357248
 31
0.0
  0
LINE
  5
B3
330
1B
100
AcDbEntity
 67
     1
  8
SLD-0
  6
Continuous
 62
     7
100
AcDbLine
 10
108.9316360893
 20
326.7913357248
 30
0.0
 11
108.4316276254
 21
326.7913357248
 31
0.0
  0
LINE
  5
B4
330
1B
100
AcDbEntity
 67
     1
  8
SLD-0
  6
Continuous
 62
     7
100
AcDbLine
 10
386.9316332282
 20
326.7913357248
 30
0.0
 11
108.9316360893
 21
326.7913357248
 31
0.0
  0
LINE
  5
B5
330
1B
100
AcDbEntity
 67
     1
  8
SLD-0
  6
CENTER
 62
     7
100
AcDbLine
 10
331.9316350125
 20
281.5194676989
 30
0.0
 11
331.9316350125
 21
276.8913359669
 31
0.0
  0
LINE
  5
B6
330
1B
100
AcDbEntity
 67
     1
  8
SLD-0
  6
CENTER
 62
     7
100
AcDbLine
 10
163.9316350125
 20
281.5194676989
 30
0.0
 11
163.9316350125
 21
276.8913359669
 31
0.0
  0
LINE
  5
B7
330
1B
100
AcDbEntity
 67
     1
  8
SLD-0
  6
CENTER
 62
     7
100
AcDbLine
 10
139.8976054384
 20
273.7913359669
 30
0.0
 11
356.1975840837
 21
273.7913359669
 31
0.0
  0
LINE
  5
B8
330
1B
100
AcDbEntity
 67
     1
  8
SLD-0
  6
CENTER
 62
     7
100
AcDbLine
 10
352.9316350125
 20
271.7913359669
 30
0.0
 11
352.9316350125
 21
356.4682207838
 31
0.0
  0
LINE
  5
B9
330
1B
100
AcDbEntity
 67
     1
  8
SLD-0
  6
CENTER
 62
     7
100
AcDbLine
 10
142.9316350125
 20
271.7913359669
 30
0.0
 11
142.9316350125
 21
355.9000783215
 31
0.0
  0
LINE
  5
BA
330
1B
100
AcDbEntity
 67
     1
  8
SLD-0
  6
Continuous
 62
     7
100
AcDbLine
 10
505.4989865924
 20
183.4595163756
 30
0.0
 11
510.9939425195
 21
185.4595167035
 31
0.0
  0
LINE
  5
BB
330
1B
100
AcDbEntity
 67
     1
  8
SLD-0
  6
Continuous
 62
     7
100
AcDbLine
 10
510.9939425195
 20
185.4595167035
 30
0.0
 11
505.4989865924
 21
187.4595170313
 31
0.0
  0
LINE
  5
BC
330
1B
100
AcDbEntity
 67
     1
  8
SLD-0
  6
Continuous
 62
     7
100
AcDbLine
 10
505.4989865924
 20
187.4595170313
 30
0.0
 11
493.4439415986
 21
187.4595170313
 31
0.0
  0
LINE
  5
BD
330
1B
100
AcDbEntity
 67
     1
  8
SLD-0
  6
Continuous
 62
     7
100
AcDbLine
 10
493.4439415986
 20
183.4595163756
 30
0.0
 11
505.4989865924
 21
183.4595163756
 31
0.0
  0
LINE
  5
BE
330
1B
100
AcDbEntity
 67
     1
  8
SLD-0
  6
Continuous
 62
     7
100
AcDbLine
 10
505.4989865924
 20
133.4595156306
 30
0.0
 11
510.9939425195
 21
135.4595159584
 31
0.0
  0
LINE
  5
BF
330
1B
100
AcDbEntity
 67
     1
  8
SLD-0
  6
Continuous
 62
     7
100
AcDbLine
 10
510.9939425195
 20
135.4595159584
 30
0.0
 11
505.4989865924
 21
137.4595162862
 31
0.0
  0
LINE
  5
C0
330
1B
100
AcDbEntity
 67
     1
  8
SLD-0
  6
Continuous
 62
     7
100
AcDbLine
 10
505.4989865924
 20
137.4595162862
 30
0.0
 11
493.4439415986
 21
137.4595162862
 31
0.0
  0
LINE
  5
C1
330
1B
100
AcDbEntity
 67
     1
  8
SLD-0
  6
Continuous
 62
     7
100
AcDbLine
 10
493.4439415986
 20
133.4595156306
 30
0.0
 11
505.4989865924
 21
133.4595156306
 31
0.0
  0
LINE
  5
C2
330
1B
100
AcDbEntity
 67
     1
  8
SLD-0
  6
Continuous
 62
     7
100
AcDbLine
 10
488.4439417104
 20
166.4595163831
 30
0.0
 11
435.4439432676
 21
166.4595163831
 31
0.0
  0
LINE
  5
C3
330
1B
100
AcDbEntity
 67
     1
  8
SLD-0
  6
Continuous
 62
     7
100
AcDbLine
 10
466.6787533964
 20
154.4595162788
 30
0.0
 11
488.4439417104
 21
154.4595162788
 31
0.0
  0
LINE
  5
C4
330
1B
100
AcDbEntity
 67
     1
  8
SLD-0
  6
Continuous
 62
     7
100
AcDbLine
 10
435.4439432676
 20
154.4595162788
 30
0.0
 11
464.1984364892
 21
154.4595162788
 31
0.0
  0
LINE
  5
C5
330
1B
100
AcDbEntity
 67
     1
  8
SLD-0
  6
Continuous
 62
     7
100
AcDbLine
 10
505.4989865924
 20
185.4595167035
 30
0.0
 11
505.4989865924
 21
183.4595163756
 31
0.0
  0
LINE
  5
C6
330
1B
100
AcDbEntity
 67
     1
  8
SLD-0
  6
Continuous
 62
     7
100
AcDbLine
 10
505.4989865924
 20
187.4595170313
 30
0.0
 11
505.4989865924
 21
185.4595167035
 31
0.0
  0
LINE
  5
C7
330
1B
100
AcDbEntity
 67
     1
  8
SLD-0
  6
Continuous
 62
     7
100
AcDbLine
 10
505.4989865924
 20
135.4595159584
 30
0.0
 11
505.4989865924
 21
133.4595156306
 31
0.0
  0
LINE
  5
C8
330
1B
100
AcDbEntity
 67
     1
  8
SLD-0
  6
Continuous
 62
     7
100
AcDbLine
 10
505.4989865924
 20
137.4595162862
 30
0.0
 11
505.4989865924
 21
135.4595159584
 31
0.0
  0
LINE
  5
C9
330
1B
100
AcDbEntity
 67
     1
  8
SLD-0
  6
Continuous
 62
     7
100
AcDbLine
 10
466.0159702356
 20
154.4595162788
 30
0.0
 11
466.6439424212
 21
154.4595162788
 31
0.0
  0
LINE
  5
CA
330
1B
100
AcDbEntity
 67
     1
  8
SLD-0
  6
Continuous
 62
     7
100
AcDbLine
 10
464.2439409102
 20
154.4595162788
 30
0.0
 11
466.0159702356
 21
154.4595162788
 31
0.0
  0
LINE
  5
CB
330
1B
100
AcDbEntity
 67
     1
  8
SLD-0
  6
Continuous
 62
     7
100
AcDbLine
 10
493.443941729
 20
195.4595163495
 30
0.0
 11
493.443941729
 21
194.4595183091
 31
0.0
  0
LINE
  5
CC
330
1B
100
AcDbEntity
 67
     1
  8
SLD-0
  6
Continuous
 62
     7
100
AcDbLine
 10
488.9439419227
 20
195.4595163495
 30
0.0
 11
493.443941729
 21
195.4595163495
 31
0.0
  0
LINE
  5
CD
330
1B
100
AcDbEntity
 67
     1
  8
SLD-0
  6
Continuous
 62
     7
100
AcDbLine
 10
493.443941729
 20
126.4595146136
 30
0.0
 11
493.443941729
 21
125.4595163123
 31
0.0
  0
LINE
  5
CE
330
1B
100
AcDbEntity
 67
     1
  8
SLD-0
  6
Continuous
 62
     7
100
AcDbLine
 10
493.443941729
 20
125.4595163123
 30
0.0
 11
488.9439419227
 21
125.4595163123
 31
0.0
  0
LINE
  5
CF
330
1B
100
AcDbEntity
 67
     1
  8
SLD-0
  6
Continuous
 62
     7
100
AcDbLine
 10
493.443941729
 20
126.4595146136
 30
0.0
 11
493.443941729
 21
194.4595183091
 31
0.0
  0
LINE
  5
D0
330
1B
100
AcDbEntity
 67
     1
  8
SLD-0
  6
Continuous
 62
     7
100
AcDbLine
 10
488.4439417104
 20
194.4595181787
 30
0.0
 11
488.4439417104
 21
194.9595154667
 31
0.0
  0
LINE
  5
D1
330
1B
100
AcDbEntity
 67
     1
  8
SLD-0
  6
Continuous
 62
     7
100
AcDbLine
 10
488.4439417104
 20
125.9595171952
 30
0.0
 11
488.4439417104
 21
126.4595144832
 31
0.0
  0
LINE
  5
D2
330
1B
100
AcDbEntity
 67
     1
  8
SLD-0
  6
Continuous
 62
     7
100
AcDbLine
 10
488.4439417104
 20
126.4595144832
 30
0.0
 11
488.4439417104
 21
194.4595181787
 31
0.0
  0
LINE
  5
D3
330
1B
100
AcDbEntity
 67
     1
  8
SLD-0
  6
CENTER
 62
     7
100
AcDbLine
 10
421.2869879196
 20
160.4595163309
 30
0.0
 11
518.9719924228
 21
160.4595163309
 31
0.0
  0
LINE
  5
D4
330
1B
100
AcDbEntity
 67
     1
  8
SLD-0
  6
CENTER
 62
     7
100
AcDbLine
 10
489.3939415986
 20
185.4595163309
 30
0.0
 11
515.3440992888
 21
185.4595163309
 31
0.0
  0
LINE
  5
D5
330
1B
100
AcDbEntity
 67
     1
  8
SLD-0
  6
CENTER
 62
     7
100
AcDbLine
 10
489.3939415986
 20
135.4595163309
 30
0.0
 11
515.8228187739
 21
135.4595163309
 31
0.0
  0
LINE
  5
D6
330
1B
100
AcDbEntity
 67
     1
  8
SLD-0
  6
CENTER
 62
     7
100
AcDbLine
 10
131.1296190371
 20
160.4595163309
 30
0.0
 11
154.7336509879
 21
160.4595163309
 31
0.0
  0
LINE
  5
D7
330
1B
100
AcDbEntity
 67
     1
  8
SLD-0
  6
CENTER
 62
     7
100
AcDbLine
 10
142.9316350125
 20
148.6575003555
 30
0.0
 11
142.9316350125
 21
172.2615323063
 31
0.0
  0
LINE
  5
D8
330
1B
100
AcDbEntity
 67
     1
  8
SLD-0
  6
CENTER
 62
     7
100
AcDbLine
 10
352.9316350125
 20
148.6575003555
 30
0.0
 11
352.9316350125
 21
172.2615323063
 31
0.0
  0
LINE
  5
D9
330
1B
100
AcDbEntity
 67
     1
  8
SLD-0
  6
CENTER
 62
     7
100
AcDbLine
 10
435.4439415986
 20
148.6575003555
 30
0.0
 11
435.4439415986
 21
172.2615323063
 31
0.0
  0
LINE
  5
DA
330
1B
100
AcDbEntity
 67
     1
  8
SLD-0
  6
Continuous
 62
     7
100
AcDbLine
 10
514.4056697985
 20
42.7197415391
 30
0.0
 11
512.154552146
 21
42.7197415391
 31
0.0
  0
LINE
  5
DB
330
1B
100
AcDbEntity
 67
     1
  8
SLD-0
  6
Continuous
 62
     7
100
AcDbLine
 10
514.4056697985
 20
42.7197415391
 30
0.0
 11
514.4056697985
 21
36.9311529971
 31
0.0
  0
LINE
  5
DC
330
1B
100
AcDbEntity
 67
     1
  8
SLD-0
  6
Continuous
 62
     7
100
AcDbLine
 10
516.1744049174
 20
36.9311529971
 30
0.0
 11
514.4056697985
 21
36.9311529971
 31
0.0
  0
LINE
  5
DD
330
1B
100
AcDbEntity
 67
     1
  8
SLD-0
  6
Continuous
 62
     7
100
AcDbLine
 10
516.1744049174
 20
42.7197415391
 30
0.0
 11
516.1744049174
 21
36.9311529971
 31
0.0
  0
LINE
  5
DE
330
1B
100
AcDbEntity
 67
     1
  8
SLD-0
  6
Continuous
 62
     7
100
AcDbLine
 10
518.7471108326
 20
42.7197415391
 30
0.0
 11
516.1744049174
 21
42.7197415391
 31
0.0
  0
LINE
  5
DF
330
1B
100
AcDbEntity
 67
     1
  8
SLD-0
  6
Continuous
 62
     7
100
AcDbLine
 10
518.7471108326
 20
42.7197415391
 30
0.0
 11
518.7471108326
 21
35.6448003188
 31
0.0
  0
LINE
  5
E0
330
1B
100
AcDbEntity
 67
     1
  8
SLD-0
  6
Continuous
 62
     7
100
AcDbLine
 10
514.4056697985
 20
35.6448003188
 30
0.0
 11
518.7471108326
 21
35.6448003188
 31
0.0
  0
LINE
  5
E1
330
1B
100
AcDbEntity
 67
     1
  8
SLD-0
  6
Continuous
 62
     7
100
AcDbLine
 10
514.4056697985
 20
35.6448003188
 30
0.0
 11
514.4056697985
 21
34.0368590985
 31
0.0
  0
LINE
  5
E2
330
1B
100
AcDbEntity
 67
     1
  8
SLD-0
  6
Continuous
 62
     7
100
AcDbLine
 10
507.8131108326
 20
34.0368590985
 30
0.0
 11
514.4056697985
 21
34.0368590985
 31
0.0
  0
LINE
  5
E3
330
1B
100
AcDbEntity
 67
     1
  8
SLD-0
  6
Continuous
 62
     7
100
AcDbLine
 10
507.8131108326
 20
42.7197415391
 30
0.0
 11
507.8131108326
 21
34.0368590985
 31
0.0
  0
LINE
  5
E4
330
1B
100
AcDbEntity
 67
     1
  8
SLD-0
  6
Continuous
 62
     7
100
AcDbLine
 10
512.154552146
 20
42.7197415391
 30
0.0
 11
512.154552146
 21
35.6448003188
 31
0.0
  0
LINE
  5
E5
330
1B
100
AcDbEntity
 67
     1
  8
SLD-0
  6
Continuous
 62
     7
100
AcDbLine
 10
510.3858167478
 20
42.7197415391
 30
0.0
 11
510.3858167478
 21
35.6448003188
 31
0.0
  0
LINE
  5
E6
330
1B
100
AcDbEntity
 67
     1
  8
SLD-0
  6
Continuous
 62
     7
100
AcDbLine
 10
512.154552146
 20
35.6448003188
 30
0.0
 11
510.3858167478
 21
35.6448003188
 31
0.0
  0
LINE
  5
E7
330
1B
100
AcDbEntity
 67
     1
  8
SLD-0
  6
Continuous
 62
     7
100
AcDbLine
 10
510.3858167478
 20
42.7197415391
 30
0.0
 11
507.8131108326
 21
42.7197415391
 31
0.0
  0
LINE
  5
E8
330
1B
100
AcDbEntity
 67
     1
  8
SLD-0
  6
Continuous
 62
     7
100
AcDbLine
 10
411.885
 20
12.74475
 30
0.0
 11
411.885
 21
43.98475
 31
0.0
  0
LINE
  5
E9
330
1B
100
AcDbEntity
 67
     1
  8
SLD-0
  6
Continuous
 62
     7
370
    35
100
AcDbLine
 10
28.485
 20
12.74475
 30
0.0
 11
578.735
 21
12.74475
 31
0.0
  0
LINE
  5
EA
330
1B
100
AcDbEntity
 67
     1
  8
SLD-0
  6
Continuous
 62
     7
370
    35
100
AcDbLine
 10
28.485
 20
406.08475
 30
0.0
 11
28.485
 21
12.74475
 31
0.0
  0
LINE
  5
EB
330
1B
100
AcDbEntity
 67
     1
  8
SLD-0
  6
Continuous
 62
     7
370
    35
100
AcDbLine
 10
28.485
 20
43.98475
 30
0.0
 11
194.625
 21
43.98475
 31
0.0
  0
LINE
  5
EC
330
1B
100
AcDbEntity
 67
     1
  8
SLD-0
  6
Continuous
 62
     7
370
    35
100
AcDbLine
 10
578.735
 20
406.08475
 30
0.0
 11
578.735
 21
12.74475
 31
0.0
  0
LINE
  5
ED
330
1B
100
AcDbEntity
 67
     1
  8
SLD-0
  6
Continuous
 62
     7
370
    35
100
AcDbLine
 10
194.625
 20
43.98475
 30
0.0
 11
578.735
 21
43.98475
 31
0.0
  0
LINE
  5
EE
330
1B
100
AcDbEntity
 67
     1
  8
SLD-0
  6
Continuous
 62
     7
370
    35
100
AcDbLine
 10
28.485
 20
406.08475
 30
0.0
 11
578.735
 21
406.08475
 31
0.0
  0
LINE
  5
EF
330
1B
100
AcDbEntity
 67
     1
  8
SLD-0
  6
Continuous
 62
     7
100
AcDbLine
 10
36.295
 20
28.36475
 30
0.0
 11
194.625
 21
28.36475
 31
0.0
  0
LINE
  5
F0
330
1B
100
AcDbEntity
 67
     1
  8
SLD-0
  6
Continuous
 62
     7
100
AcDbLine
 10
68.955
 20
43.98475
 30
0.0
 11
68.955
 21
12.74475
 31
0.0
  0
LINE
  5
F1
330
1B
100
AcDbEntity
 67
     1
  8
SLD-0
  6
Continuous
 62
     7
100
AcDbLine
 10
36.295
 20
36.17475
 30
0.0
 11
194.625
 21
36.17475
 31
0.0
  0
LINE
  5
F2
330
1B
100
AcDbEntity
 67
     1
  8
SLD-0
  6
Continuous
 62
     7
100
AcDbLine
 10
47.655
 20
43.98475
 30
0.0
 11
47.655
 21
12.74475
 31
0.0
  0
LINE
  5
F3
330
1B
100
AcDbEntity
 67
     1
  8
SLD-0
  6
Continuous
 62
     7
100
AcDbLine
 10
36.295
 20
43.98475
 30
0.0
 11
36.295
 21
12.74475
 31
0.0
  0
LINE
  5
F4
330
1B
100
AcDbEntity
 67
     1
  8
SLD-0
  6
Continuous
 62
     7
100
AcDbLine
 10
36.295
 20
20.55475
 30
0.0
 11
194.625
 21
20.55475
 31
0.0
  0
LINE
  5
F5
330
1B
100
AcDbEntity
 67
     1
  8
SLD-0
  6
Continuous
 62
     7
100
AcDbLine
 10
286.925
 20
43.98475
 30
0.0
 11
286.925
 21
12.74475
 31
0.0
  0
LINE
  5
F6
330
1B
100
AcDbEntity
 67
     1
  8
SLD-0
  6
Continuous
 62
     7
100
AcDbLine
 10
279.825
 20
43.98475
 30
0.0
 11
279.825
 21
12.74475
 31
0.0
  0
LINE
  5
F7
330
1B
100
AcDbEntity
 67
     1
  8
SLD-0
  6
Continuous
 62
     7
100
AcDbLine
 10
201.725
 20
43.98475
 30
0.0
 11
201.725
 21
12.74475
 31
0.0
  0
LINE
  5
F8
330
1B
100
AcDbEntity
 67
     1
  8
SLD-0
  6
Continuous
 62
     7
100
AcDbLine
 10
194.625
 20
43.98475
 30
0.0
 11
194.625
 21
28.36475
 31
0.0
  0
LINE
  5
F9
330
1B
100
AcDbEntity
 67
     1
  8
SLD-0
  6
Continuous
 62
     7
100
AcDbLine
 10
83.155
 20
43.98475
 30
0.0
 11
83.155
 21
12.74475
 31
0.0
  0
LINE
  5
FA
330
1B
100
AcDbEntity
 67
     1
  8
SLD-0
  6
Continuous
 62
     7
100
AcDbLine
 10
326.685
 20
43.98475
 30
0.0
 11
326.685
 21
28.36475
 31
0.0
  0
LINE
  5
FB
330
1B
100
AcDbEntity
 67
     1
  8
SLD-0
  6
Continuous
 62
     7
100
AcDbLine
 10
333.785
 20
43.98475
 30
0.0
 11
333.785
 21
28.36475
 31
0.0
  0
LINE
  5
FC
330
1B
100
AcDbEntity
 67
     1
  8
SLD-0
  6
Continuous
 62
     7
100
AcDbLine
 10
355.085
 20
43.98475
 30
0.0
 11
355.085
 21
28.36475
 31
0.0
  0
LINE
  5
FD
330
1B
100
AcDbEntity
 67
     1
  8
SLD-0
  6
Continuous
 62
     7
100
AcDbLine
 10
362.185
 20
43.98475
 30
0.0
 11
362.185
 21
28.36475
 31
0.0
  0
LINE
  5
FE
330
1B
100
AcDbEntity
 67
     1
  8
SLD-0
  6
Continuous
 62
     7
100
AcDbLine
 10
418.985
 20
43.98475
 30
0.0
 11
418.985
 21
28.36475
 31
0.0
  0
LINE
  5
FF
330
1B
100
AcDbEntity
 67
     1
  8
SLD-0
  6
Continuous
 62
     7
100
AcDbLine
 10
440.285
 20
43.98475
 30
0.0
 11
440.285
 21
12.74475
 31
0.0
  0
LINE
  5
100
330
1B
100
AcDbEntity
 67
     1
  8
SLD-0
  6
Continuous
 62
     7
100
AcDbLine
 10
461.585
 20
43.98475
 30
0.0
 11
461.585
 21
12.74475
 31
0.0
  0
LINE
  5
101
330
1B
100
AcDbEntity
 67
     1
  8
SLD-0
  6
Continuous
 62
     7
100
AcDbLine
 10
482.885
 20
43.98475
 30
0.0
 11
482.885
 21
12.74475
 31
0.0
  0
LINE
  5
102
330
1B
100
AcDbEntity
 67
     1
  8
SLD-0
  6
Continuous
 62
     7
100
AcDbLine
 10
504.185
 20
43.98475
 30
0.0
 11
504.185
 21
12.74475
 31
0.0
  0
LINE
  5
103
330
1B
100
AcDbEntity
 67
     1
  8
SLD-0
  6
Continuous
 62
     7
100
AcDbLine
 10
504.185
 20
28.36475
 30
0.0
 11
578.735
 21
28.36475
 31
0.0
  0
LINE
  5
104
330
1B
100
AcDbEntity
 67
     1
  8
SLD-0
  6
Continuous
 62
     7
100
AcDbLine
 10
511.285
 20
28.36475
 30
0.0
 11
511.285
 21
12.74475
 31
0.0
  0
LINE
  5
105
330
1B
100
AcDbEntity
 67
     1
  8
SLD-0
  6
Continuous
 62
     7
100
AcDbLine
 10
440.285
 20
36.88475
 30
0.0
 11
504.185
 21
36.88475
 31
0.0
  0
LINE
  5
106
330
1B
100
AcDbEntity
 67
     1
  8
SLD-0
  6
Continuous
 62
     7
100
AcDbLine
 10
194.625
 20
28.36475
 30
0.0
 11
440.285
 21
28.36475
 31
0.0
  0
LINE
  5
107
330
1B
100
AcDbEntity
 67
     1
  8
SLD-0
  6
Continuous
 62
     7
100
AcDbLine
 10
194.625
 20
28.36475
 30
0.0
 11
194.625
 21
12.74475
 31
0.0
  0
LINE
  5
108
330
1B
100
AcDbEntity
 67
     1
  8
SLD-0
  6
Continuous
 62
     7
100
AcDbLine
 10
41.3873265892
 20
27.1115576482
 30
0.0
 11
38.3373265892
 21
21.8288026851
 31
0.0
  0
LINE
  5
109
330
1B
100
AcDbEntity
 67
     1
  8
SLD-0
  6
Continuous
 62
     7
100
AcDbLine
 10
38.3373265892
 20
21.8288026851
 30
0.0
 11
44.4373265892
 21
21.8288026851
 31
0.0
  0
LINE
  5
10A
330
1B
100
AcDbEntity
 67
     1
  8
SLD-0
  6
Continuous
 62
     7
100
AcDbLine
 10
44.4373265892
 20
21.8288026851
 30
0.0
 11
41.3873265892
 21
27.1115576482
 31
0.0
  0
LINE
  5
10B
330
1B
100
AcDbEntity
 67
     1
  8
SLD-0
  6
Continuous
 62
     7
100
AcDbLine
 10
41.3440309427
 20
34.5208790554
 30
0.0
 11
38.2940309427
 21
29.2381240923
 31
0.0
  0
LINE
  5
10C
330
1B
100
AcDbEntity
 67
     1
  8
SLD-0
  6
Continuous
 62
     7
100
AcDbLine
 10
38.2940309427
 20
29.2381240923
 30
0.0
 11
44.3940309427
 21
29.2381240923
 31
0.0
  0
LINE
  5
10D
330
1B
100
AcDbEntity
 67
     1
  8
SLD-0
  6
Continuous
 62
     7
100
AcDbLine
 10
44.3940309427
 20
29.2381240923
 30
0.0
 11
41.3440309427
 21
34.5208790554
 31
0.0
  0
LINE
  5
10E
330
1B
100
AcDbEntity
 67
     1
  8
SLD-0
  6
Continuous
 62
     7
100
AcDbLine
 10
41.1834490337
 20
42.881404091
 30
0.0
 11
38.1334490337
 21
37.5986491279
 31
0.0
  0
LINE
  5
10F
330
1B
100
AcDbEntity
 67
     1
  8
SLD-0
  6
Continuous
 62
     7
100
AcDbLine
 10
38.1334490337
 20
37.5986491279
 30
0.0
 11
44.2334490337
 21
37.5986491279
 31
0.0
  0
LINE
  5
110
330
1B
100
AcDbEntity
 67
     1
  8
SLD-0
  6
Continuous
 62
     7
100
AcDbLine
 10
44.2334490337
 20
37.5986491279
 30
0.0
 11
41.1834490337
 21
42.881404091
 31
0.0
  0
LINE
  5
111
330
1B
100
AcDbEntity
 67
     1
  8
SLD-0
  6
Continuous
 62
     7
100
AcDbLine
 10
173.325
 20
43.98475
 30
0.0
 11
173.325
 21
12.74475
 31
0.0
  0
LINE
  5
112
330
1B
100
AcDbEntity
 67
     1
  8
SLD-0
  6
Continuous
 62
     7
100
AcDbLine
 10
334.7692322039
 20
279.7873972622
 30
0.0
 11
334.5860826727
 21
279.7285886537
 31
0.0
  0
LINE
  5
113
330
1B
100
AcDbEntity
 67
     1
  8
SLD-0
  6
Continuous
 62
     7
100
AcDbLine
 10
334.3036847281
 20
279.645446018
 30
0.0
 11
334.0202554021
 21
279.5689828268
 31
0.0
  0
LINE
  5
114
330
1B
100
AcDbEntity
 67
     1
  8
SLD-0
  6
Continuous
 62
     7
100
AcDbLine
 10
334.0202554021
 20
279.5689828268
 30
0.0
 11
333.7344904482
 21
279.4981704056
 31
0.0
  0
LINE
  5
115
330
1B
100
AcDbEntity
 67
     1
  8
SLD-0
  6
Continuous
 62
     7
100
AcDbLine
 10
329.9481919694
 20
279.5393382656
 30
0.0
 11
329.66374371
 21
279.6144380344
 31
0.0
  0
LINE
  5
116
330
1B
100
AcDbEntity
 67
     1
  8
SLD-0
  6
Continuous
 62
     7
100
AcDbLine
 10
329.66374371
 20
279.6144380344
 30
0.0
 11
329.3811644769
 21
279.696277497
 31
0.0
  0
LINE
  5
117
330
1B
100
AcDbEntity
 67
     1
  8
SLD-0
  6
Continuous
 62
     7
100
AcDbLine
 10
166.7692344689
 20
279.7873972622
 30
0.0
 11
166.5860848433
 21
279.7285879523
 31
0.0
  0
LINE
  5
118
330
1B
100
AcDbEntity
 67
     1
  8
SLD-0
  6
Continuous
 62
     7
100
AcDbLine
 10
166.3036857161
 20
279.645449235
 30
0.0
 11
166.0202565106
 21
279.568985899
 31
0.0
  0
LINE
  5
119
330
1B
100
AcDbEntity
 67
     1
  8
SLD-0
  6
Continuous
 62
     7
100
AcDbLine
 10
166.0202565106
 20
279.568985899
 30
0.0
 11
165.7344920434
 21
279.498171687
 31
0.0
  0
LINE
  5
11A
330
1B
100
AcDbEntity
 67
     1
  8
SLD-0
  6
Continuous
 62
     7
100
AcDbLine
 10
161.9481942058
 20
279.5393386689
 30
0.0
 11
161.6637458677
 21
279.6144381247
 31
0.0
  0
LINE
  5
11B
330
1B
100
AcDbEntity
 67
     1
  8
SLD-0
  6
Continuous
 62
     7
100
AcDbLine
 10
161.6637458677
 20
279.6144381247
 30
0.0
 11
161.3811666196
 21
279.6962774754
 31
0.0
  0
LINE
  5
11C
330
1B
100
AcDbEntity
 67
     1
  8
SLD-0
  6
Continuous
 62
     7
100
AcDbLine
 10
465.4439407344
 20
154.5911689693
 30
0.0
 11
465.5827187641
 21
154.5882216051
 31
0.0
  0
LINE
  5
11D
330
1B
100
AcDbEntity
 67
     1
  8
SLD-0
  6
Continuous
 62
     7
100
AcDbLine
 10
465.5827187641
 20
154.5882216051
 30
0.0
 11
465.7209603276
 21
154.5865677005
 31
0.0
  0
LINE
  5
11E
330
1B
100
AcDbEntity
 67
     1
  8
SLD-0
  6
Continuous
 62
     7
100
AcDbLine
 10
465.7209603276
 20
154.5865677005
 30
0.0
 11
465.8591123381
 21
154.5823859336
 31
0.0
  0
LINE
  5
11F
330
1B
100
AcDbEntity
 67
     1
  8
SLD-0
  6
Continuous
 62
     7
100
AcDbLine
 10
465.9967821076
 20
154.5715214928
 30
0.0
 11
466.1339821073
 21
154.5550367536
 31
0.0
  0
LINE
  5
120
330
1B
100
AcDbEntity
 67
     1
  8
SLD-0
  6
Continuous
 62
     7
100
AcDbLine
 10
466.1339821073
 20
154.5550367536
 30
0.0
 11
466.2707912967
 21
154.5353057185
 31
0.0
  0
LINE
  5
121
330
1B
100
AcDbEntity
 67
     1
  8
SLD-0
  6
Continuous
 62
     7
100
AcDbLine
 10
466.2707912967
 20
154.5353057185
 30
0.0
 11
466.4073142908
 21
154.5138738008
 31
0.0
  0
LINE
  5
122
330
1B
100
AcDbEntity
 67
     1
  8
SLD-0
  6
Continuous
 62
     7
100
AcDbLine
 10
466.4073142908
 20
154.5138738008
 30
0.0
 11
466.5435884602
 21
154.4908277088
 31
0.0
  0
LINE
  5
123
330
1B
100
AcDbEntity
 67
     1
  8
SLD-0
  6
Continuous
 62
     7
100
AcDbLine
 10
464.1984364892
 20
154.4604327002
 30
0.0
 11
464.3101503504
 21
154.483677873
 31
0.0
  0
LINE
  5
124
330
1B
100
AcDbEntity
 67
     1
  8
SLD-0
  6
Continuous
 62
     7
100
AcDbLine
 10
464.3101503504
 20
154.483677873
 30
0.0
 11
464.4223027935
 21
154.5047073112
 31
0.0
  0
LINE
  5
125
330
1B
100
AcDbEntity
 67
     1
  8
SLD-0
  6
Continuous
 62
     7
100
AcDbLine
 10
464.4223027935
 20
154.5047073112
 30
0.0
 11
464.5348463497
 21
154.5233336746
 31
0.0
  0
LINE
  5
126
330
1B
100
AcDbEntity
 67
     1
  8
SLD-0
  6
Continuous
 62
     7
100
AcDbLine
 10
464.5348463497
 20
154.5233336746
 30
0.0
 11
464.6477098035
 21
154.539931172
 31
0.0
  0
LINE
  5
127
330
1B
100
AcDbEntity
 67
     1
  8
SLD-0
  6
Continuous
 62
     7
100
AcDbLine
 10
464.6477098035
 20
154.539931172
 30
0.0
 11
464.7608257497
 21
154.5550074565
 31
0.0
  0
LINE
  5
128
330
1B
100
AcDbEntity
 67
     1
  8
SLD-0
  6
Continuous
 62
     7
100
AcDbLine
 10
464.7608257497
 20
154.5550074565
 30
0.0
 11
464.8742008005
 21
154.5684771172
 31
0.0
  0
LINE
  5
129
330
1B
100
AcDbEntity
 67
     1
  8
SLD-0
  6
Continuous
 62
     7
100
AcDbLine
 10
464.8742008005
 20
154.5684771172
 30
0.0
 11
464.987840911
 21
154.5791914216
 31
0.0
  0
LINE
  5
12A
330
1B
100
AcDbEntity
 67
     1
  8
SLD-0
  6
Continuous
 62
     7
100
AcDbLine
 10
464.987840911
 20
154.5791914216
 30
0.0
 11
465.1017398327
 21
154.5858917305
 31
0.0
  0
LINE
  5
12B
330
1B
100
AcDbEntity
 67
     1
  8
SLD-0
  6
Continuous
 62
     7
100
AcDbLine
 10
465.1017398327
 20
154.5858917305
 30
0.0
 11
465.2157874331
 21
154.5883630884
 31
0.0
  0
LINE
  5
12C
330
1B
100
AcDbEntity
 67
     1
  8
SLD-0
  6
Continuous
 62
     7
100
AcDbLine
 10
465.2157874331
 20
154.5883630884
 30
0.0
 11
465.3298908315
 21
154.589333981
 31
0.0
  0
LINE
  5
12D
330
1B
100
AcDbEntity
 67
     1
  8
SLD-0
  6
Continuous
 62
     7
100
AcDbLine
 10
465.3298908315
 20
154.589333981
 30
0.0
 11
465.4439407344
 21
154.5911689693
 31
0.0
  0
ARC
  5
12E
330
1B
100
AcDbEntity
 67
     1
  8
SLD-0
  6
Continuous
 62
     7
100
AcDbCircle
 10
352.9316350125
 20
160.459516331
 30
0.0
 40
6.000000052150924
100
AcDbArc
 50
269.9999686955
 51
90.0000313045
  0
ARC
  5
12F
330
1B
100
AcDbEntity
 67
     1
  8
SLD-0
  6
Continuous
 62
     7
100
AcDbCircle
 10
142.9316350125
 20
160.459516331
 30
0.0
 40
6.000000052150924
100
AcDbArc
 50
89.9999686945
 51
270.0000313055
  0
ARC
  5
130
330
1B
100
AcDbEntity
 67
     1
  8
SLD-0
  6
Continuous
 62
     7
100
AcDbCircle
 10
386.931634789
 20
194.4595163309
 30
0.0
 40
1.000000372551398
100
AcDbArc
 50
0.0001058768
 51
90.0000819616
  0
ARC
  5
131
330
1B
100
AcDbEntity
 67
     1
  8
SLD-0
  6
Continuous
 62
     7
100
AcDbCircle
 10
108.931634789
 20
126.4595163309
 30
0.0
 40
1.000000372501362
100
AcDbArc
 50
180.0001058653
 51
270.0000819673
  0
ARC
  5
132
330
1B
100
AcDbEntity
 67
     1
  8
SLD-0
  6
Continuous
 62
     7
100
AcDbCircle
 10
108.931634789
 20
194.4595163309
 30
0.0
 40
1.000000372501376
100
AcDbArc
 50
89.9999180327
 51
179.9998941289
  0
ARC
  5
133
330
1B
100
AcDbEntity
 67
     1
  8
SLD-0
  6
Continuous
 62
     7
100
AcDbCircle
 10
386.931634789
 20
126.4595163309
 30
0.0
 40
1.000000372551384
100
AcDbArc
 50
269.9999180384
 51
359.9998941347
  0
ARC
  5
134
330
1B
100
AcDbEntity
 67
     1
  8
SLD-0
  6
Continuous
 62
     7
100
AcDbCircle
 10
344.4316350125
 20
282.2913354304
 30
0.0
 40
2.500000536450407
100
AcDbArc
 50
270.0000423484
 51
0.0375328925
  0
ARC
  5
135
330
1B
100
AcDbEntity
 67
     1
  8
SLD-0
  6
Continuous
 62
     7
100
AcDbCircle
 10
357.4316350125
 20
269.2913351622
 30
0.0
 40
1.500002235250008
100
AcDbArc
 50
270.0
 51
0.0
  0
ARC
  5
136
330
1B
100
AcDbEntity
 67
     1
  8
SLD-0
  6
Continuous
 62
     7
100
AcDbCircle
 10
151.4316358172
 20
282.2913362352
 30
0.0
 40
2.500000536450387
100
AcDbArc
 50
179.9624636115
 51
269.9999576539
  0
ARC
  5
137
330
1B
100
AcDbEntity
 67
     1
  8
SLD-0
  6
Continuous
 62
     7
100
AcDbCircle
 10
138.4316358172
 20
269.2913359669
 30
0.0
 40
1.500002235200469
100
AcDbArc
 50
180.0
 51
270.0000614744
  0
ARC
  5
138
330
1B
100
AcDbEntity
 67
     1
  8
SLD-0
  6
Continuous
 62
     7
100
AcDbCircle
 10
387.4316346587
 20
327.291335967
 30
0.0
 40
0.5000002422247951
100
AcDbArc
 50
270.0008059685
 51
0.0000221964
  0
ARC
  5
139
330
1B
100
AcDbEntity
 67
     1
  8
SLD-0
  6
Continuous
 62
     7
100
AcDbCircle
 10
108.4316346587
 20
327.2913359669
 30
0.0
 40
0.5000002421747587
100
AcDbArc
 50
179.9999778036
 51
269.999194043
  0
ARC
  5
13A
330
1B
100
AcDbEntity
 67
     1
  8
SLD-0
  6
Continuous
 62
     7
100
AcDbCircle
 10
435.4439415986
 20
160.459516331
 30
0.0
 40
6.00000005215026
100
AcDbArc
 50
89.9999840622
 51
270.0000159378
  0
ARC
  5
13B
330
1B
100
AcDbEntity
 67
     1
  8
SLD-0
  6
Continuous
 62
     7
100
AcDbCircle
 10
488.943941729
 20
194.9595163309
 30
0.0
 40
0.5000000186004263
100
AcDbArc
 50
89.9999778036
 51
180.00009903
  0
ARC
  5
13C
330
1B
100
AcDbEntity
 67
     1
  8
SLD-0
  6
Continuous
 62
     7
100
AcDbCircle
 10
488.943941729
 20
125.9595163309
 30
0.0
 40
0.5000000186004252
100
AcDbArc
 50
179.9999009585
 51
270.0000221964
  0
ARC
  5
13D
330
1B
100
AcDbEntity
 67
     1
  8
SLD-0
  6
Continuous
 62
     7
100
AcDbCircle
 10
332.339916927
 20
286.8366378093
 30
0.0
 40
7.454503562049558
100
AcDbArc
 50
285.2739065075
 51
287.5366989645
  0
ARC
  5
13E
330
1B
100
AcDbEntity
 67
     1
  8
SLD-0
  6
Continuous
 62
     7
100
AcDbCircle
 10
331.7966157345
 20
287.8128906288
 30
0.0
 40
8.537560002536104
100
AcDbArc
 50
281.1445540663
 51
283.1194699537
  0
ARC
  5
13F
330
1B
100
AcDbEntity
 67
     1
  8
SLD-0
  6
Continuous
 62
     7
100
AcDbCircle
 10
331.8779116352
 20
287.4132760195
 30
0.0
 40
8.129768177451542
100
AcDbArc
 50
279.0496547407
 51
281.1267701901
  0
ARC
  5
140
330
1B
100
AcDbEntity
 67
     1
  8
SLD-0
  6
Continuous
 62
     7
100
AcDbCircle
 10
331.7845394956
 20
288.0026174139
 30
0.0
 40
8.726460236957106
100
AcDbArc
 50
277.1184603317
 51
279.0464516466
  0
ARC
  5
141
330
1B
100
AcDbEntity
 67
     1
  8
SLD-0
  6
Continuous
 62
     7
100
AcDbCircle
 10
331.8234386742
 20
287.6830774013
 30
0.0
 40
8.404562845399095
100
AcDbArc
 50
275.1234108215
 51
277.1252668758
  0
ARC
  5
142
330
1B
100
AcDbEntity
 67
     1
  8
SLD-0
  6
Continuous
 62
     7
100
AcDbCircle
 10
331.8723713162
 20
287.1320119971
 30
0.0
 40
7.851329401888149
100
AcDbArc
 50
272.9811385099
 51
275.1268676878
  0
ARC
  5
143
330
1B
100
AcDbEntity
 67
     1
  8
SLD-0
  6
Continuous
 62
     7
100
AcDbCircle
 10
331.9062288851
 20
286.4744055683
 30
0.0
 40
7.192852078509311
100
AcDbArc
 50
270.6379429785
 51
272.9842333697
  0
ARC
  5
144
330
1B
100
AcDbEntity
 67
     1
  8
SLD-0
  6
Continuous
 62
     7
100
AcDbCircle
 10
331.9092883455
 20
286.379840777
 30
0.0
 40
7.098259368439416
100
AcDbArc
 50
268.2415656006
 51
270.621747796
  0
ARC
  5
145
330
1B
100
AcDbEntity
 67
     1
  8
SLD-0
  6
Continuous
 62
     7
100
AcDbCircle
 10
331.9138564197
 20
286.5255688018
 30
0.0
 40
7.24405894255069
100
AcDbArc
 50
265.91249396
 51
268.2408208285
  0
ARC
  5
146
330
1B
100
AcDbEntity
 67
     1
  8
SLD-0
  6
Continuous
 62
     7
100
AcDbCircle
 10
331.9273685534
 20
286.7134759696
 30
0.0
 40
7.432451284856673
100
AcDbArc
 50
263.6440026255
 51
265.9118483277
  0
ARC
  5
147
330
1B
100
AcDbEntity
 67
     1
  8
SLD-0
  6
Continuous
 62
     7
100
AcDbCircle
 10
331.9625646283
 20
287.0222527399
 30
0.0
 40
7.743226523264815
100
AcDbArc
 50
261.4622582871
 51
263.6381097913
  0
ARC
  5
148
330
1B
100
AcDbEntity
 67
     1
  8
SLD-0
  6
Continuous
 62
     7
100
AcDbCircle
 10
332.0605968988
 20
287.6751526082
 30
0.0
 40
8.40344509602589
100
AcDbArc
 50
259.4567166072
 51
261.4621503673
  0
ARC
  5
149
330
1B
100
AcDbEntity
 67
     1
  8
SLD-0
  6
Continuous
 62
     7
100
AcDbCircle
 10
332.1995745174
 20
288.4222449045
 30
0.0
 40
9.163354086025668
100
AcDbArc
 50
257.61752651
 51
259.4571567705
  0
ARC
  5
14A
330
1B
100
AcDbEntity
 67
     1
  8
SLD-0
  6
Continuous
 62
     7
100
AcDbCircle
 10
332.3948818748
 20
289.3107827584
 30
0.0
 40
10.07310374054931
100
AcDbArc
 50
255.9426286716
 51
257.6162233723
  0
ARC
  5
14B
330
1B
100
AcDbEntity
 67
     1
  8
SLD-0
  6
Continuous
 62
     7
100
AcDbCircle
 10
332.2974439393
 20
289.3751178168
 30
0.0
 40
10.10864164159708
100
AcDbArc
 50
251.5636554487
 51
253.2322022914
  0
ARC
  5
14C
330
1B
100
AcDbEntity
 67
     1
  8
SLD-0
  6
Continuous
 62
     7
100
AcDbCircle
 10
164.3403529851
 20
286.8355301749
 30
0.0
 40
7.453317337565942
100
AcDbArc
 50
285.2729297102
 51
287.5360825597
  0
ARC
  5
14D
330
1B
100
AcDbEntity
 67
     1
  8
SLD-0
  6
Continuous
 62
     7
100
AcDbCircle
 10
163.796717108
 20
287.8122489698
 30
0.0
 40
8.536911195729965
100
AcDbArc
 50
281.1447313123
 51
283.1197972222
  0
ARC
  5
14E
330
1B
100
AcDbEntity
 67
     1
  8
SLD-0
  6
Continuous
 62
     7
100
AcDbCircle
 10
163.8779938499
 20
287.4127383416
 30
0.0
 40
8.129225086276398
100
AcDbArc
 50
279.04969159
 51
281.126945971
  0
ARC
  5
14F
330
1B
100
AcDbEntity
 67
     1
  8
SLD-0
  6
Continuous
 62
     7
100
AcDbCircle
 10
163.7846067772
 20
288.0021734707
 30
0.0
 40
8.726012062227127
100
AcDbArc
 50
277.118395443
 51
279.0464858358
  0
ARC
  5
150
330
1B
100
AcDbEntity
 67
     1
  8
SLD-0
  6
Continuous
 62
     7
100
AcDbCircle
 10
163.8234635794
 20
287.6829698164
 30
0.0
 40
8.404453686561192
100
AcDbArc
 50
275.1233202864
 51
277.1252020997
  0
ARC
  5
151
330
1B
100
AcDbEntity
 67
     1
  8
SLD-0
  6
Continuous
 62
     7
100
AcDbCircle
 10
163.8723711008
 20
287.1321745908
 30
0.0
 40
7.851491584754738
100
AcDbArc
 50
272.9810926616
 51
275.1267772214
  0
ARC
  5
152
330
1B
100
AcDbEntity
 67
     1
  8
SLD-0
  6
Continuous
 62
     7
100
AcDbCircle
 10
163.9062184236
 20
286.474753559
 30
0.0
 40
7.193199940096233
100
AcDbArc
 50
270.638011006
 51
272.9841878781
  0
ARC
  5
153
330
1B
100
AcDbEntity
 67
     1
  8
SLD-0
  6
Continuous
 62
     7
100
AcDbCircle
 10
163.9092785541
 20
286.3800455655
 30
0.0
 40
7.098464026457446
100
AcDbArc
 50
268.2417106485
 51
270.6218246593
  0
ARC
  5
154
330
1B
100
AcDbEntity
 67
     1
  8
SLD-0
  6
Continuous
 62
     7
100
AcDbCircle
 10
163.9138384041
 20
286.5255182593
 30
0.0
 40
7.24400813726059
100
AcDbArc
 50
265.9126225676
 51
268.2409660047
  0
ARC
  5
155
330
1B
100
AcDbEntity
 67
     1
  8
SLD-0
  6
Continuous
 62
     7
100
AcDbCircle
 10
163.9273299085
 20
286.713142685
 30
0.0
 40
7.43211698605675
100
AcDbArc
 50
263.6440292279
 51
265.9119769119
  0
ARC
  5
156
330
1B
100
AcDbEntity
 67
     1
  8
SLD-0
  6
Continuous
 62
     7
100
AcDbCircle
 10
163.9625068362
 20
287.0217372832
 30
0.0
 40
7.742709052168854
100
AcDbArc
 50
261.4621299622
 51
263.6381265111
  0
ARC
  5
157
330
1B
100
AcDbEntity
 67
     1
  8
SLD-0
  6
Continuous
 62
     7
100
AcDbCircle
 10
164.0605921129
 20
287.6749793747
 30
0.0
 40
8.403273925074467
100
AcDbArc
 50
259.4565468556
 51
261.4620211366
  0
ARC
  5
158
330
1B
100
AcDbEntity
 67
     1
  8
SLD-0
  6
Continuous
 62
     7
100
AcDbCircle
 10
164.1996641803
 20
288.422566882
 30
0.0
 40
9.163687047322622
100
AcDbArc
 50
257.6174237686
 51
259.4569870744
  0
ARC
  5
159
330
1B
100
AcDbEntity
 67
     1
  8
SLD-0
  6
Continuous
 62
     7
100
AcDbCircle
 10
164.3950860065
 20
289.3116245738
 30
0.0
 40
10.07396899386696
100
AcDbArc
 50
255.9426771531
 51
257.6161281282
  0
ARC
  5
15A
330
1B
100
AcDbEntity
 67
     1
  8
SLD-0
  6
Continuous
 62
     7
100
AcDbCircle
 10
164.2975533378
 20
289.3754491398
 30
0.0
 40
10.10898984067499
100
AcDbArc
 50
251.5636732812
 51
253.2321620238
  0
ARC
  5
15B
330
1B
100
AcDbEntity
 67
     1
  8
SLD-0
  6
Continuous
 62
     7
100
AcDbCircle
 10
465.7084718928
 20
151.7958516934
 30
0.0
 40
2.790603091723525
100
AcDbArc
 50
84.0699243073
 51
86.9055939662
  0
ARC
  5
15C
330
1B
100
AcDbEntity
 67
     1
  8
SLD-0
  6
Continuous
 62
     7
100
AcDbCircle
 10
466.2348191324
 20
152.671193127
 30
0.0
 40
1.845645824401575
100
AcDbArc
 50
76.0959669039
 51
80.3693550027
  0
DIMENSION
  5
15D
330
1B
100
AcDbEntity
 67
     1
  8
SLD-0
 62
     7
100
AcDbDimension
  2
_D
 10
91.9316350125
 20
195.4595163309
 30
0.0
 11
91.9316350125
 21
160.4595163309
 31
0.0
 70
   160
  1
<>
 71
     2
 42
-1.0
  3
SLDDIMSTYLE0
100
AcDbAlignedDimension
 13
108.9316350125
 23
125.4595163309
 33
0.0
 14
108.9316350125
 24
195.4595163309
 34
0.0
 50
90.0
100
AcDbRotatedDimension
  0
DIMENSION
  5
171
330
1B
100
AcDbEntity
 67
     1
  8
SLD-0
 62
     7
100
AcDbDimension
  2
_D_1
 10
107.9316350125
 20
97.4595163309
 30
0.0
 11
247.9316350125
 21
97.4595163309
 31
0.0
 70
   160
  1
<>
 71
     2
 42
-1.0
  3
SLDDIMSTYLE0
100
AcDbAlignedDimension
 13
387.9316350125
 23
126.4595163309
 33
0.0
 14
107.9316350125
 24
126.4595163309
 34
0.0
 50
0.0
100
AcDbRotatedDimension
  0
DIMENSION
  5
17F
330
1B
100
AcDbEntity
 67
     1
  8
SLD-0
 62
     7
100
AcDbDimension
  2
_D_2
 10
142.9316350125
 20
103.4595163309
 30
0.0
 11
247.9316350125
 21
103.4595163309
 31
0.0
 70
   160
  1
<>
 71
     2
 42
-1.0
  3
SLDDIMSTYLE0
100
AcDbAlignedDimension
 13
352.9316350125
 23
147.1123985032
 33
0.0
 14
142.9316350125
 24
148.6575003555
 34
0.0
 50
0.0
100
AcDbRotatedDimension
  0
DIMENSION
  5
18D
330
1B
100
AcDbEntity
 67
     1
  8
SLD-0
 62
     7
100
AcDbDimension
  2
_D_3
 10
157.9316350125
 20
109.4595163309
 30
0.0
 11
247.9316350125
 21
109.4595163309
 31
0.0
 70
   160
  1
<>
 71
     2
 42
-1.0
  3
SLDDIMSTYLE0
100
AcDbAlignedDimension
 13
337.9316350125
 23
154.4595163309
 33
0.0
 14
157.9316350125
 24
154.4595163309
 34
0.0
 50
0.0
100
AcDbRotatedDimension
  0
DIMENSION
  5
19B
330
1B
100
AcDbEntity
 67
     1
  8
SLD-0
 62
     7
100
AcDbDimension
  2
_D_4
 10
91.9316350125
 20
331.7913359669
 30
0.0
 11
91.9316350125
 21
302.7913359669
 31
0.0
 70
   160
  1
<>
 71
     2
 42
-1.0
  3
SLDDIMSTYLE0
100
AcDbAlignedDimension
 13
139.8976054384
 23
273.7913359669
 33
0.0
 14
107.9316350125
 24
331.7913359669
 34
0.0
 50
90.0
100
AcDbRotatedDimension
  0
DIMENSION
  5
1A9
330
1B
100
AcDbEntity
 67
     1
  8
SLD-0
 62
     7
100
AcDbDimension
  2
_D_5
 10
97.9316350125
 20
279.7913359669
 30
0.0
 11
97.9316350125
 21
285.9924575056
 31
0.0
 70
   160
  1
<>
 71
     2
 42
-1.0
  3
SLDDIMSTYLE1
100
AcDbAlignedDimension
 13
138.4316350125
 23
267.7913359669
 33
0.0
 14
151.4316350125
 24
279.7913359669
 34
0.0
 50
90.0
100
AcDbRotatedDimension
  0
DIMENSION
  5
1BA
330
1B
100
AcDbEntity
 67
     1
  8
SLD-0
 62
     7
100
AcDbDimension
  2
_D_6
 10
136.9316350125
 20
251.7913359669
 30
0.0
 11
142.9316350125
 21
251.7913359669
 31
0.0
 70
   160
  1
<>
 71
     2
 42
-1.0
  3
SLDDIMSTYLE1
100
AcDbAlignedDimension
 13
148.9316350125
 23
282.2913359669
 33
0.0
 14
136.9316350125
 24
269.2913359669
 34
0.0
100
AcDbRotatedDimension
  0
DIMENSION
  5
1CB
330
1B
100
AcDbEntity
 67
     1
  8
SLD-0
 62
     7
100
AcDbDimension
  2
_D_7
 10
346.9316350125
 20
251.7913359669
 30
0.0
 11
352.9316350125
 21
251.7913359669
 31
0.0
 70
   160
  1
<>
 71
     2
 42
-1.0
  3
SLDDIMSTYLE1
100
AcDbAlignedDimension
 13
358.9316350125
 23
269.2913359669
 33
0.0
 14
346.9316350125
 24
282.2913359669
 34
0.0
100
AcDbRotatedDimension
  0
DIMENSION
  5
1DC
330
1B
100
AcDbEntity
 67
     1
  8
SLD-0
 62
     7
100
AcDbDimension
  2
_D_8
 10
488.4439415986
 20
109.4595163309
 30
0.0
 11
477.8827673328
 21
109.4595163309
 31
0.0
 70
   160
  1
<>
 71
     2
 42
-1.0
  3
SLDDIMSTYLE0
100
AcDbAlignedDimension
 13
493.4439415986
 23
125.4595163309
 33
0.0
 14
488.4439415986
 24
126.4595163309
 34
0.0
100
AcDbRotatedDimension
  0
DIMENSION
  5
1ED
330
1B
100
AcDbEntity
 67
     1
  8
SLD-0
 62
     7
100
AcDbDimension
  2
_D_9
 10
533.0439415986
 20
185.4595163309
 30
0.0
 11
533.0439415986
 21
160.4595163309
 31
0.0
 70
   160
  1
<>
 71
     2
 42
-1.0
  3
SLDDIMSTYLE0
100
AcDbAlignedDimension
 13
515.8228187739
 23
135.4595163309
 33
0.0
 14
515.3440992888
 24
185.4595163309
 34
0.0
 50
90.0
100
AcDbRotatedDimension
  0
MTEXT
  5
1FC
330
1B
100
AcDbEntity
 67
     1
  8
SLD-0
 62
     7
100
AcDbMText
 10
521.0439524058
 20
21.1238190005
 30
0.0
 40
4.7624998093
 41
0.0
 71
     1
 72
     1
  1
11548B
  7
SLDTEXTSTYLE2
 73
     1
 44
1.0
  0
MTEXT
  5
1FD
330
1B
100
AcDbEntity
 67
     1
  8
SLD-0
 62
     7
100
AcDbMText
 10
203.8600144348
 20
22.4712830762
 30
0.0
 40
4.9699997902
 41
0.0
 71
     1
 72
     1
  1
11M
  7
SLDTEXTSTYLE2
 73
     1
 44
1.0
  0
MTEXT
  5
1FF
330
1B
100
AcDbEntity
 67
     1
  8
SLD-0
 62
     7
100
AcDbMText
 10
203.8307925291
 20
38.9628730721
 30
0.0
 40
4.9699997902
 41
0.0
 71
     1
 72
     1
  1
承認図
  7
SLDTEXTSTYLE3
 73
     1
 44
1.0
  0
MTEXT
  5
200
330
1B
100
AcDbEntity
 67
     1
  8
SLD-0
 62
     7
100
AcDbMText
 10
424.1197137166
 20
37.8823764765
 30
0.0
 40
4.7624998093
 41
0.0
 71
     1
 72
     1
  1
1/1
  7
SLDTEXTSTYLE0
 73
     1
 44
1.0
  0
MTEXT
  5
202
330
1B
100
AcDbEntity
 67
     1
  8
SLD-0
 62
     7
100
AcDbMText
 10
507.9479548555
 20
32.2299420537
 30
0.0
 40
3.1749999523
 41
0.0
 71
     1
 72
     1
  1
WEST
  7
SLDTEXTSTYLE4
 73
     1
 44
1.0
  0
MTEXT
  5
204
330
1B
100
AcDbEntity
 67
     1
  8
SLD-0
 62
     7
100
AcDbMText
 10
488.5383241848
 20
42.5020345617
 30
0.0
 40
3.5
 41
0.0
 71
     1
 72
     1
  1
承　認
  7
SLDTEXTSTYLE5
 73
     1
 44
1.0
  0
MTEXT
  5
206
330
1B
100
AcDbEntity
 67
     1
  8
SLD-0
 62
     7
100
AcDbMText
 10
114.9868478385
 20
18.5449151837
 30
0.0
 40
3.1749999523
 41
0.0
 71
     1
 72
     1
  1
変　更　内　容
  7
SLDTEXTSTYLE6
 73
     1
 44
1.0
  0
MTEXT
  5
208
330
1B
100
AcDbEntity
 67
     1
  8
SLD-0
 62
     7
100
AcDbMText
 10
512.6464247343
 20
21.1238190587
 30
0.0
 40
4.7624998093
 41
0.0
 71
     1
 72
     1
  1
No.
  7
SLDTEXTSTYLE7
 73
     1
 44
1.0
  0
MTEXT
  5
209
330
1B
100
AcDbEntity
 67
     1
  8
SLD-0
 62
     7
100
AcDbMText
 10
506.1792863947
 20
19.9301796904
 30
0.0
 40
5.0
 41
0.0
 71
     1
 72
     1
  1
番
  7
SLDTEXTSTYLE3
 73
     1
 44
1.0
  0
MTEXT
  5
20A
330
1B
100
AcDbEntity
 67
     1
  8
SLD-0
 62
     7
100
AcDbMText
 10
506.1809172984
 20
26.9324205507
 30
0.0
 40
5.0
 41
0.0
 71
     1
 72
     1
  1
図
  7
SLDTEXTSTYLE3
 73
     1
 44
1.0
  0
MTEXT
  5
20B
330
1B
100
AcDbEntity
 67
     1
  8
SLD-0
 62
     7
100
AcDbMText
 10
467.2109099641
 20
42.5168357257
 30
0.0
 40
3.5
 41
0.0
 71
     1
 72
     1
  1
照　査
  7
SLDTEXTSTYLE5
 73
     1
 44
1.0
  0
MTEXT
  5
20C
330
1B
100
AcDbEntity
 67
     1
  8
SLD-0
 62
     7
100
AcDbMText
 10
441.7864149466
 20
42.5205830192
 30
0.0
 40
3.5
 41
0.0
 71
     1
 72
     1
  1
製図・設計
  7
SLDTEXTSTYLE5
 73
     1
 44
1.0
  0
MTEXT
  5
20D
330
1B
100
AcDbEntity
 67
     1
  8
SLD-0
 62
     7
100
AcDbMText
 10
416.8440157056
 20
23.2305638895
 30
0.0
 40
4.2333331108
 41
0.0
 71
     1
 72
     1
  1
第三角法
  7
SLDTEXTSTYLE6
 73
     1
 44
1.0
  0
MTEXT
  5
20E
330
1B
100
AcDbEntity
 67
     1
  8
SLD-0
 62
     7
100
AcDbMText
 10
413.6427239016
 20
35.5538263859
 30
0.0
 40
5.0
 41
0.0
 71
     1
 72
     1
  1
度
  7
SLDTEXTSTYLE3
 73
     1
 44
1.0
  0
MTEXT
  5
20F
330
1B
100
AcDbEntity
 67
     1
  8
SLD-0
 62
     7
100
AcDbMText
 10
413.6366684396
 20
42.8056100577
 30
0.0
 40
5.0
 41
0.0
 71
     1
 72
     1
  1
尺
  7
SLDTEXTSTYLE3
 73
     1
 44
1.0
  0
MTEXT
  5
210
330
1B
100
AcDbEntity
 67
     1
  8
SLD-0
 62
     7
100
AcDbMText
 10
356.8570670177
 20
35.5538263859
 30
0.0
 40
5.0
 41
0.0
 71
     1
 72
     1
  1
考
  7
SLDTEXTSTYLE3
 73
     1
 44
1.0
  0
MTEXT
  5
211
330
1B
100
AcDbEntity
 67
     1
  8
SLD-0
 62
     7
100
AcDbMText
 10
356.8663808387
 20
42.8612677296
 30
0.0
 40
5.0
 41
0.0
 71
     1
 72
     1
  1
備
  7
SLDTEXTSTYLE3
 73
     1
 44
1.0
  0
MTEXT
  5
212
330
1B
100
AcDbEntity
 67
     1
  8
SLD-0
 62
     7
100
AcDbMText
 10
196.3818565931
 20
20.2509373794
 30
0.0
 40
5.0
 41
0.0
 71
     1
 72
     1
  1
名
  7
SLDTEXTSTYLE3
 73
     1
 44
1.0
  0
MTEXT
  5
213
330
1B
100
AcDbEntity
 67
     1
  8
SLD-0
 62
     7
100
AcDbMText
 10
196.3698432033
 20
27.479064442
 30
0.0
 40
5.0
 41
0.0
 71
     1
 72
     1
  1
品
  7
SLDTEXTSTYLE3
 73
     1
 44
1.0
  0
MTEXT
  5
214
330
1B
100
AcDbEntity
 67
     1
  8
SLD-0
 62
     7
100
AcDbMText
 10
196.4501024409
 20
35.4078562037
 30
0.0
 40
5.0
 41
0.0
 71
     1
 72
     1
  1
称
  7
SLDTEXTSTYLE3
 73
     1
 44
1.0
  0
MTEXT
  5
215
330
1B
100
AcDbEntity
 67
     1
  8
SLD-0
 62
     7
100
AcDbMText
 10
196.4501024409
 20
42.9522505813
 30
0.0
 40
5.0
 41
0.0
 71
     1
 72
     1
  1
名
  7
SLDTEXTSTYLE3
 73
     1
 44
1.0
  0
MTEXT
  5
216
330
1B
100
AcDbEntity
 67
     1
  8
SLD-0
 62
     7
100
AcDbMText
 10
31.0928532846
 20
23.7438263859
 30
0.0
 40
5.0
 41
0.0
 71
     1
 72
     1
  1
訂
  7
SLDTEXTSTYLE3
 73
     1
 44
1.0
  0
MTEXT
  5
217
330
1B
100
AcDbEntity
 67
     1
  8
SLD-0
 62
     7
100
AcDbMText
 10
31.1168324536
 20
39.9191297664
 30
0.0
 40
5.0
 41
0.0
 71
     1
 72
     1
  1
改
  7
SLDTEXTSTYLE3
 73
     1
 44
1.0
  0
MTEXT
  5
218
330
1B
100
AcDbEntity
 67
     1
  8
SLD-0
 62
     7
100
AcDbMText
 10
281.5592910401
 20
20.1714224946
 30
0.0
 40
5.0
 41
0.0
 71
     1
 72
     1
  1
番
  7
SLDTEXTSTYLE3
 73
     1
 44
1.0
  0
MTEXT
  5
219
330
1B
100
AcDbEntity
 67
     1
  8
SLD-0
 62
     7
100
AcDbMText
 10
281.6501024409
 20
35.4078562037
 30
0.0
 40
5.0
 41
0.0
 71
     1
 72
     1
  1
質
  7
SLDTEXTSTYLE3
 73
     1
 44
1.0
  0
MTEXT
  5
21A
330
1B
100
AcDbEntity
 67
     1
  8
SLD-0
 62
     7
100
AcDbMText
 10
281.5592910401
 20
27.3379097986
 30
0.0
 40
5.0
 41
0.0
 71
     1
 72
     1
  1
工
  7
SLDTEXTSTYLE3
 73
     1
 44
1.0
  0
MTEXT
  5
21B
330
1B
100
AcDbEntity
 67
     1
  8
SLD-0
 62
     7
100
AcDbMText
 10
281.6501024409
 20
42.9522505813
 30
0.0
 40
5.0
 41
0.0
 71
     1
 72
     1
  1
材
  7
SLDTEXTSTYLE3
 73
     1
 44
1.0
  0
MTEXT
  5
21C
330
1B
100
AcDbEntity
 67
     1
  8
SLD-0
 62
     7
100
AcDbMText
 10
71.2287446922
 20
18.5440393675
 30
0.0
 40
3.1749999523
 41
0.0
 71
     1
 72
     1
  1
担当者
  7
SLDTEXTSTYLE5
 73
     1
 44
1.0
  0
MTEXT
  5
21D
330
1B
100
AcDbEntity
 67
     1
  8
SLD-0
 62
     7
100
AcDbMText
 10
55.6199420963
 20
18.6943587202
 30
0.0
 40
3.1749999523
 41
0.0
 71
     1
 72
     1
  1
日付
  7
SLDTEXTSTYLE6
 73
     1
 44
1.0
  0
MTEXT
  5
21E
330
1B
100
AcDbEntity
 67
     1
  8
SLD-0
 62
     7
100
AcDbMText
 10
39.2629132992
 20
18.4976059764
 30
0.0
 40
3.1749999523
 41
0.0
 71
     1
 72
     1
  1
記号
  7
SLDTEXTSTYLE6
 73
     1
 44
1.0
  0
MTEXT
  5
220
330
1B
100
AcDbEntity
 67
     1
  8
SLD-0
 62
     7
100
AcDbMText
 10
602.2331315244
 20
21.608098364
 30
0.0
 40
7.9375
 41
0.0
 71
     1
 72
     1
  1
A2
  7
SLDTEXTSTYLE8
 73
     1
 44
1.0
  0
MTEXT
  5
221
330
1B
100
AcDbEntity
 67
     1
  8
SLD-0
 62
     7
100
AcDbMText
 10
575.196409591
 20
10.7546136612
 30
0.0
 40
2.6458332539
 41
0.0
 71
     1
 72
     1
  1
A2
  7
SLDTEXTSTYLE4
 73
     1
 44
1.0
  0
MTEXT
  5
223
330
1B
100
AcDbEntity
 67
     1
  8
SLD-0
 62
     7
100
AcDbMText
 10
176.1819999933
 20
18.439766775
 30
0.0
 40
3.2000000477
 41
0.0
 71
     1
 72
     1
  1
通　知　書
  7
SLDTEXTSTYLE9
 73
     1
 44
1.0
  0
MTEXT
  5
225
330
1B
100
AcDbEntity
 67
     1
  8
SLD-0
 62
     7
100
AcDbMText
 10
328.0433062755
 20
43.0886902341
 30
0.0
 40
5.0
 41
0.0
 71
     1
 72
     1
  1
個
  7
SLDTEXTSTYLE10
 73
     1
 44
1.0
  0
MTEXT
  5
226
330
1B
100
AcDbEntity
 67
     1
  8
SLD-0
 62
     7
100
AcDbMText
 10
328.0433062755
 20
35.5886902341
 30
0.0
 40
5.0
 41
0.0
 71
     1
 72
     1
  1
数
  7
SLDTEXTSTYLE10
 73
     1
 44
1.0
  0
MTEXT
  5
228
330
1B
100
AcDbEntity
 67
     1
  8
SLD-0
 62
     7
100
AcDbMText
 10
441.1031852711
 20
18.6929296531
 30
0.0
 40
4.3000001907
 41
0.0
 71
     1
 72
     1
  1
′０８．１０．２０
  7
SLDTEXTSTYLE11
 73
     1
 44
1.0
  0
ENDSEC
  0
SECTION
  2
OBJECTS
  0
DICTIONARY
  5
C
330
0
100
AcDbDictionary
281
     1
  3
ACAD_GROUP
350
D
  3
ACAD_LAYOUT
350
1A
  3
ACAD_MLINESTYLE
350
17
  3
ACAD_PLOTSETTINGS
350
19
  3
ACAD_PLOTSTYLENAME
350
E
  3
ACAD_SCALELIST
350
47
  0
DICTIONARY
  5
D
102
{ACAD_REACTORS
330
C
102
}
330
C
100
AcDbDictionary
281
     1
  0
DICTIONARY
  5
1A
102
{ACAD_REACTORS
330
C
102
}
330
C
100
AcDbDictionary
281
     1
  3
Model
350
22
  3
SW_Model_1
350
1E
  0
DICTIONARY
  5
17
102
{ACAD_REACTORS
330
C
102
}
330
C
100
AcDbDictionary
281
     1
  3
Standard
350
18
  0
DICTIONARY
  5
19
102
{ACAD_REACTORS
330
C
102
}
330
C
100
AcDbDictionary
281
     1
  0
ACDBDICTIONARYWDFLT
  5
E
102
{ACAD_REACTORS
330
C
102
}
330
C
100
AcDbDictionary
281
     1
  3
Normal
350
F
100
AcDbDictionaryWithDefault
340
F
  0
DICTIONARY
  5
47
102
{ACAD_REACTORS
330
C
102
}
330
C
100
AcDbDictionary
281
     1
  3
A0
350
48
  3
A1
350
49
  3
A2
350
4A
  3
A3
350
4B
  3
A4
350
4C
  3
A5
350
4D
  3
A6
350
4E
  3
A7
350
4F
  3
A8
350
50
  3
A9
350
51
  3
B0
350
52
  3
B1
350
53
  3
B2
350
54
  3
B3
350
55
  3
B4
350
56
  3
B5
350
57
  3
B6
350
58
  3
B7
350
59
  3
B8
350
5A
  3
B9
350
5B
  3
C0
350
5C
  3
C1
350
5D
  3
C2
350
5E
  3
C3
350
5F
  3
C4
350
60
  3
C5
350
61
  3
C6
350
62
  3
C7
350
63
  3
C8
350
64
  3
C9
350
65
  3
D0
350
66
  3
D1
350
67
  3
D2
350
68
  0
LAYOUT
  5
22
102
{ACAD_REACTORS
330
1A
102
}
330
1A
100
AcDbPlotSettings
  1

  2
none_device
  4
Letter_(8.50_x_11.00_Inches)
  6

 40
6.35
 41
6.35
 42
6.35000508
 43
6.35000508
 44
215.9
 45
279.4
 46
0.0
 47
0.0
 48
0.0
 49
0.0
140
0.0
141
0.0
142
1.0
143
1.0
 70
  1712
 72
     1
 73
     0
 74
     0
  7

 75
     0
147
1.0
148
0.0
149
0.0
100
AcDbLayout
  1
Model
 70
     1
 71
     0
 10
0.0
 20
0.0
 11
594.0
 21
420.0
 12
0.0
 22
0.0
 32
0.0
 14
0.0
 24
0.0
 34
0.0
 15
594.0
 25
420.0
 35
0.0
146
0.0
 13
0.0
 23
0.0
 33
0.0
 16
1.0
 26
0.0
 36
0.0
 17
0.0
 27
1.0
 37
0.0
 76
     0
330
1F
331
29
  0
LAYOUT
  5
1E
102
{ACAD_REACTORS
330
1A
102
}
330
1A
100
AcDbPlotSettings
  1

  2
none_device
  4
ISO_A2_(594.00_x_420.00_MM)
  6

 40
7.5
 41
20.0
 42
7.5
 43
20.0
 44
594.0
 45
420.0
 46
0.0
 47
0.0
 48
0.0
 49
0.0
140
0.0
141
0.0
142
1.0
143
1.0
 70
  4832
 72
     1
 73
     0
 74
     1
  7

 75
     0
147
1.0
148
0.0
149
0.0
100
AcDbLayout
  1
SW_Model_1
 70
     1
 71
     1
 10
0.0
 20
0.0
 11
594.0
 21
420.0
 12
0.0
 22
0.0
 32
0.0
 14
0.0
 24
0.0
 34
0.0
 15
594.0
 25
420.0
 35
0.0
146
0.0
 13
0.0
 23
0.0
 33
0.0
 16
1.0
 26
0.0
 36
0.0
 17
0.0
 27
1.0
 37
0.0
 76
     0
330
1B
331
77
  0
MLINESTYLE
  5
18
102
{ACAD_REACTORS
330
17
102
}
330
17
100
AcDbMlineStyle
  2
Standard
 70
     0
  3

 62
   256
 51
90.0
 52
90.0
 71
     2
 49
0.5
 62
   256
  6
BYLAYER
 49
-0.5
 62
   256
  6
BYLAYER
  0
ACDBPLACEHOLDER
  5
F
102
{ACAD_REACTORS
330
E
102
}
330
E
  0
SCALE
  5
48
102
{ACAD_REACTORS
330
47
102
}
330
47
100
AcDbScale
 70
     0
300
1:1
140
1.0
141
1.0
290
     1
  0
SCALE
  5
49
102
{ACAD_REACTORS
330
47
102
}
330
47
100
AcDbScale
 70
     0
300
1:2
140
1.0
141
2.0
290
     0
  0
SCALE
  5
4A
102
{ACAD_REACTORS
330
47
102
}
330
47
100
AcDbScale
 70
     0
300
1:4
140
1.0
141
4.0
290
     0
  0
SCALE
  5
4B
102
{ACAD_REACTORS
330
47
102
}
330
47
100
AcDbScale
 70
     0
300
1:5
140
1.0
141
5.0
290
     0
  0
SCALE
  5
4C
102
{ACAD_REACTORS
330
47
102
}
330
47
100
AcDbScale
 70
     0
300
1:8
140
1.0
141
8.0
290
     0
  0
SCALE
  5
4D
102
{ACAD_REACTORS
330
47
102
}
330
47
100
AcDbScale
 70
     0
300
1:10
140
1.0
141
10.0
290
     0
  0
SCALE
  5
4E
102
{ACAD_REACTORS
330
47
102
}
330
47
100
AcDbScale
 70
     0
300
1:16
140
1.0
141
16.0
290
     0
  0
SCALE
  5
4F
102
{ACAD_REACTORS
330
47
102
}
330
47
100
AcDbScale
 70
     0
300
1:20
140
1.0
141
20.0
290
     0
  0
SCALE
  5
50
102
{ACAD_REACTORS
330
47
102
}
330
47
100
AcDbScale
 70
     0
300
1:30
140
1.0
141
30.0
290
     0
  0
SCALE
  5
51
102
{ACAD_REACTORS
330
47
102
}
330
47
100
AcDbScale
 70
     0
300
1:40
140
1.0
141
40.0
290
     0
  0
SCALE
  5
52
102
{ACAD_REACTORS
330
47
102
}
330
47
100
AcDbScale
 70
     0
300
1:50
140
1.0
141
50.0
290
     0
  0
SCALE
  5
53
102
{ACAD_REACTORS
330
47
102
}
330
47
100
AcDbScale
 70
     0
300
1:100
140
1.0
141
100.0
290
     0
  0
SCALE
  5
54
102
{ACAD_REACTORS
330
47
102
}
330
47
100
AcDbScale
 70
     0
300
2:1
140
2.0
141
1.0
290
     0
  0
SCALE
  5
55
102
{ACAD_REACTORS
330
47
102
}
330
47
100
AcDbScale
 70
     0
300
4:1
140
4.0
141
1.0
290
     0
  0
SCALE
  5
56
102
{ACAD_REACTORS
330
47
102
}
330
47
100
AcDbScale
 70
     0
300
8:1
140
8.0
141
1.0
290
     0
  0
SCALE
  5
57
102
{ACAD_REACTORS
330
47
102
}
330
47
100
AcDbScale
 70
     0
300
10:1
140
10.0
141
1.0
290
     0
  0
SCALE
  5
58
102
{ACAD_REACTORS
330
47
102
}
330
47
100
AcDbScale
 70
     0
300
100:1
140
100.0
141
1.0
290
     0
  0
SCALE
  5
59
102
{ACAD_REACTORS
330
47
102
}
330
47
100
AcDbScale
 70
     0
300
1/128" = 1'-0"
140
0.0078125
141
12.0
290
     0
  0
SCALE
  5
5A
102
{ACAD_REACTORS
330
47
102
}
330
47
100
AcDbScale
 70
     0
300
1/64" = 1'-0"
140
0.015625
141
12.0
290
     0
  0
SCALE
  5
5B
102
{ACAD_REACTORS
330
47
102
}
330
47
100
AcDbScale
 70
     0
300
1/32" = 1'-0"
140
0.03125
141
12.0
290
     0
  0
SCALE
  5
5C
102
{ACAD_REACTORS
330
47
102
}
330
47
100
AcDbScale
 70
     0
300
1/16" = 1'-0"
140
0.0625
141
12.0
290
     0
  0
SCALE
  5
5D
102
{ACAD_REACTORS
330
47
102
}
330
47
100
AcDbScale
 70
     0
300
3/32" = 1'-0"
140
0.09375
141
12.0
290
     0
  0
SCALE
  5
5E
102
{ACAD_REACTORS
330
47
102
}
330
47
100
AcDbScale
 70
     0
300
1/8" = 1'-0"
140
0.125
141
12.0
290
     0
  0
SCALE
  5
5F
102
{ACAD_REACTORS
330
47
102
}
330
47
100
AcDbScale
 70
     0
300
3/16" = 1'-0"
140
0.1875
141
12.0
290
     0
  0
SCALE
  5
60
102
{ACAD_REACTORS
330
47
102
}
330
47
100
AcDbScale
 70
     0
300
1/4" = 1'-0"
140
0.25
141
12.0
290
     0
  0
SCALE
  5
61
102
{ACAD_REACTORS
330
47
102
}
330
47
100
AcDbScale
 70
     0
300
3/8" = 1'-0"
140
0.375
141
12.0
290
     0
  0
SCALE
  5
62
102
{ACAD_REACTORS
330
47
102
}
330
47
100
AcDbScale
 70
     0
300
1/2" = 1'-0"
140
0.5
141
12.0
290
     0
  0
SCALE
  5
63
102
{ACAD_REACTORS
330
47
102
}
330
47
100
AcDbScale
 70
     0
300
3/4" = 1'-0"
140
0.75
141
12.0
290
     0
  0
SCALE
  5
64
102
{ACAD_REACTORS
330
47
102
}
330
47
100
AcDbScale
 70
     0
300
1" = 1'-0"
140
1.0
141
12.0
290
     0
  0
SCALE
  5
65
102
{ACAD_REACTORS
330
47
102
}
330
47
100
AcDbScale
 70
     0
300
1-1/2" = 1'-0"
140
1.5
141
12.0
290
     0
  0
SCALE
  5
66
102
{ACAD_REACTORS
330
47
102
}
330
47
100
AcDbScale
 70
     0
300
3" = 1'-0"
140
3.0
141
12.0
290
     0
  0
SCALE
  5
67
102
{ACAD_REACTORS
330
47
102
}
330
47
100
AcDbScale
 70
     0
300
6" = 1'-0"
140
6.0
141
12.0
290
     0
  0
SCALE
  5
68
102
{ACAD_REACTORS
330
47
102
}
330
47
100
AcDbScale
 70
     0
300
1'-0" = 1'-0"
140
12.0
141
12.0
290
     0
  0
ENDSEC
  0
EOF
