  0
SECTION
  2
HEADER
  9
$ACADVER
  1
AC1015
  9
$ACADMAINTVER
 70
     6
  9
$DWGCODEPAGE
  3
DOS932
  9
$INSBASE
 10
0.0
 20
0.0
 30
0.0
  9
$EXTMIN
 10
0.0
 20
0.0
 30
0.0
  9
$EXTMAX
 10
420.0
 20
297.0
 30
0.0
  9
$LIMMIN
 10
0.0
 20
0.0
  9
$LIMMAX
 10
420.0
 20
297.0
  9
$ORTHOMODE
 70
     0
  9
$REGENMODE
 70
     1
  9
$FILLMODE
 70
     1
  9
$QTEXTMODE
 70
     0
  9
$MIRRTEXT
 70
     1
  9
$LTSCALE
 40
1.0
  9
$ATTMODE
 70
     1
  9
$TEXTSIZE
 40
3.5
  9
$TRACEWID
 40
1.0
  9
$TEXTSTYLE
  7
Standard
  9
$CLAYER
  8
0
  9
$CELTYPE
  6
ByLayer
  9
$CECOLOR
 62
   256
  9
$CELTSCALE
 40
1.0
  9
$DISPSILH
 70
     0
  9
$DIMSCALE
 40
1.0
  9
$DIMASZ
 40
3.302
  9
$DIMEXO
 40
1.0
  9
$DIMDLI
 40
3.75
  9
$DIMRND
 40
0.0
  9
$DIMDLE
 40
0.0
  9
$DIMEXE
 40
1.0
  9
$DIMTP
 40
0.0
  9
$DIMTM
 40
0.0
  9
$DIMTXT
 40
3.5
  9
$DIMCEN
 40
2.5
  9
$DIMTSZ
 40
0.0
  9
$DIMTOL
 70
     0
  9
$DIMLIM
 70
     0
  9
$DIMTIH
 70
     1
  9
$DIMTOH
 70
     1
  9
$DIMSE1
 70
     0
  9
$DIMSE2
 70
     0
  9
$DIMTAD
 70
     1
  9
$DIMZIN
 70
     1
  9
$DIMBLK
  1

  9
$DIMASO
 70
     1
  9
$DIMSHO
 70
     1
  9
$DIMPOST
  1

  9
$DIMAPOST
  1

  9
$DIMALT
 70
     0
  9
$DIMALTD
 70
     3
  9
$DIMALTF
 40
0.0393700787
  9
$DIMLFAC
 40
1.0
  9
$DIMTOFL
 70
     1
  9
$DIMTVP
 40
0.0
  9
$DIMTIX
 70
     0
  9
$DIMSOXD
 70
     0
  9
$DIMSAH
 70
     0
  9
$DIMBLK1
  1

  9
$DIMBLK2
  1

  9
$DIMSTYLE
  2
ISO-25
  9
$DIMCLRD
 70
     0
  9
$DIMCLRE
 70
     0
  9
$DIMCLRT
 70
     0
  9
$DIMTFAC
 40
1.0
  9
$DIMGAP
 40
1.524
  9
$DIMJUST
 70
     0
  9
$DIMSD1
 70
     0
  9
$DIMSD2
 70
     0
  9
$DIMTOLJ
 70
     0
  9
$DIMTZIN
 70
     1
  9
$DIMALTZ
 70
     0
  9
$DIMALTTZ
 70
     0
  9
$DIMUPT
 70
     0
  9
$DIMDEC
 70
     4
  9
$DIMTDEC
 70
     4
  9
$DIMALTU
 70
     2
  9
$DIMALTTD
 70
     3
  9
$DIMTXSTY
  7
Standard
  9
$DIMAUNIT
 70
     0
  9
$DIMADEC
 70
     0
  9
$DIMALTRND
 40
0.0
  9
$DIMAZIN
 70
     0
  9
$DIMDSEP
 70
    44
  9
$DIMATFIT
 70
     3
  9
$DIMFRAC
 70
     0
  9
$DIMLDRBLK
  1

  9
$DIMLUNIT
 70
     2
  9
$DIMLWD
 70
    -2
  9
$DIMLWE
 70
    -2
  9
$DIMTMOVE
 70
     0
  9
$LUNITS
 70
     2
  9
$LUPREC
 70
     4
  9
$SKETCHINC
 40
1.0
  9
$FILLETRAD
 40
10.0
  9
$AUNITS
 70
     0
  9
$AUPREC
 70
     0
  9
$MENU
  1
.
  9
$ELEVATION
 40
0.0
  9
$PELEVATION
 40
0.0
  9
$THICKNESS
 40
0.0
  9
$LIMCHECK
 70
     0
  9
$CHAMFERA
 40
0.0
  9
$CHAMFERB
 40
0.0
  9
$CHAMFERC
 40
0.0
  9
$CHAMFERD
 40
0.0
  9
$SKPOLY
 70
     0
  9
$TDCREATE
 40
2458290.396907396
  9
$TDUCREATE
 40
2458290.021907396
  9
$TDUPDATE
 40
2458290.396916377
  9
$TDUUPDATE
 40
2458290.021916377
  9
$TDINDWG
 40
0.0000000116
  9
$TDUSRTIMER
 40
0.0000000116
  9
$USRTIMER
 70
     1
  9
$ANGBASE
 50
0.0
  9
$ANGDIR
 70
     0
  9
$PDMODE
 70
     0
  9
$PDSIZE
 40
-1.0
  9
$PLINEWID
 40
0.0
  9
$SPLFRAME
 70
     0
  9
$SPLINETYPE
 70
     6
  9
$SPLINESEGS
 70
     8
  9
$HANDSEED
  5
276
  9
$SURFTAB1
 70
     6
  9
$SURFTAB2
 70
     6
  9
$SURFTYPE
 70
     6
  9
$SURFU
 70
     6
  9
$SURFV
 70
     6
  9
$UCSBASE
  2

  9
$UCSNAME
  2

  9
$UCSORG
 10
0.0
 20
0.0
 30
0.0
  9
$UCSXDIR
 10
1.0
 20
0.0
 30
0.0
  9
$UCSYDIR
 10
0.0
 20
1.0
 30
0.0
  9
$UCSORTHOREF
  2

  9
$UCSORTHOVIEW
 70
     0
  9
$UCSORGTOP
 10
0.0
 20
0.0
 30
0.0
  9
$UCSORGBOTTOM
 10
0.0
 20
0.0
 30
0.0
  9
$UCSORGLEFT
 10
0.0
 20
0.0
 30
0.0
  9
$UCSORGRIGHT
 10
0.0
 20
0.0
 30
0.0
  9
$UCSORGFRONT
 10
0.0
 20
0.0
 30
0.0
  9
$UCSORGBACK
 10
0.0
 20
0.0
 30
0.0
  9
$PUCSBASE
  2

  9
$PUCSNAME
  2

  9
$PUCSORG
 10
0.0
 20
0.0
 30
0.0
  9
$PUCSXDIR
 10
1.0
 20
0.0
 30
0.0
  9
$PUCSYDIR
 10
0.0
 20
1.0
 30
0.0
  9
$PUCSORTHOREF
  2

  9
$PUCSORTHOVIEW
 70
     0
  9
$PUCSORGTOP
 10
0.0
 20
0.0
 30
0.0
  9
$PUCSORGBOTTOM
 10
0.0
 20
0.0
 30
0.0
  9
$PUCSORGLEFT
 10
0.0
 20
0.0
 30
0.0
  9
$PUCSORGRIGHT
 10
0.0
 20
0.0
 30
0.0
  9
$PUCSORGFRONT
 10
0.0
 20
0.0
 30
0.0
  9
$PUCSORGBACK
 10
0.0
 20
0.0
 30
0.0
  9
$USERI1
 70
     0
  9
$USERI2
 70
     0
  9
$USERI3
 70
     0
  9
$USERI4
 70
     0
  9
$USERI5
 70
     0
  9
$USERR1
 40
0.0
  9
$USERR2
 40
0.0
  9
$USERR3
 40
0.0
  9
$USERR4
 40
0.0
  9
$USERR5
 40
0.0
  9
$WORLDVIEW
 70
     1
  9
$SHADEDGE
 70
     3
  9
$SHADEDIF
 70
    70
  9
$TILEMODE
 70
     0
  9
$MAXACTVP
 70
    64
  9
$PINSBASE
 10
0.0
 20
0.0
 30
0.0
  9
$PLIMCHECK
 70
     0
  9
$PEXTMIN
 10
0.0
 20
0.0
 30
0.0
  9
$PEXTMAX
 10
420.0
 20
297.0
 30
0.0
  9
$PLIMMIN
 10
0.0
 20
0.0
  9
$PLIMMAX
 10
420.0
 20
297.0
  9
$UNITMODE
 70
     0
  9
$VISRETAIN
 70
     1
  9
$PLINEGEN
 70
     0
  9
$PSLTSCALE
 70
     1
  9
$TREEDEPTH
 70
  3020
  9
$CMLSTYLE
  2
Standard
  9
$CMLJUST
 70
     0
  9
$CMLSCALE
 40
20.0
  9
$PROXYGRAPHICS
 70
     1
  9
$MEASUREMENT
 70
     1
  9
$CELWEIGHT
370
    -1
  9
$ENDCAPS
280
     0
  9
$JOINSTYLE
280
     0
  9
$LWDISPLAY
290
     1
  9
$INSUNITS
 70
     4
  9
$HYPERLINKBASE
  1

  9
$STYLESHEET
  1

  9
$XEDIT
290
     1
  9
$CEPSNTYPE
380
     0
  9
$PSTYLEMODE
290
     1
  9
$FINGERPRINTGUID
  2
{1D910625-087B-489D-BA1A-8DAD421CD6F2}
  9
$VERSIONGUID
  2
{FAEB1C32-E019-11D5-929B-00C0DF256EC4}
  9
$EXTNAMES
290
     1
  9
$PSVPSCALE
 40
0.0
  9
$OLESTARTUP
290
     0
  0
ENDSEC
  0
SECTION
  2
CLASSES
  0
CLASS
  1
ACDBDICTIONARYWDFLT
  2
AcDbDictionaryWithDefault
  3
ObjectDBX Classes
 90
        0
280
     0
281
     0
  0
CLASS
  1
VISUALSTYLE
  2
AcDbVisualStyle
  3
ObjectDBX Classes
 90
     4095
280
     0
281
     0
  0
CLASS
  1
MATERIAL
  2
AcDbMaterial
  3
ObjectDBX Classes
 90
     1153
280
     0
281
     0
  0
CLASS
  1
SCALE
  2
AcDbScale
  3
ObjectDBX Classes
 90
     1153
280
     0
281
     0
  0
CLASS
  1
TABLESTYLE
  2
AcDbTableStyle
  3
ObjectDBX Classes
 90
     4095
280
     0
281
     0
  0
CLASS
  1
MLEADERSTYLE
  2
AcDbMLeaderStyle
  3
ACDB_MLEADERSTYLE_CLASS
 90
     4095
280
     0
281
     0
  0
CLASS
  1
SUN
  2
AcDbSun
  3
SCENEOE
 90
     1153
280
     0
281
     0
  0
CLASS
  1
ACDBPLACEHOLDER
  2
AcDbPlaceHolder
  3
ObjectDBX Classes
 90
        0
280
     0
281
     0
  0
CLASS
  1
LAYOUT
  2
AcDbLayout
  3
ObjectDBX Classes
 90
        0
280
     0
281
     0
  0
ENDSEC
  0
SECTION
  2
TABLES
  0
TABLE
  2
VPORT
  5
8
330
0
100
AcDbSymbolTable
 70
     1
  0
VPORT
  5
29
330
8
100
AcDbSymbolTableRecord
100
AcDbViewportTableRecord
  2
*Active
 70
     0
 10
0.0
 20
0.0
 11
1.0
 21
1.0
 12
210.0
 22
148.5
 13
0.0
 23
0.0
 14
10.0
 24
10.0
 15
10.0
 25
10.0
 16
0.0
 26
0.0
 36
1.0
 17
0.0
 27
0.0
 37
0.0
 40
297.0
 41
1.4141414141
 42
50.0
 43
0.0
 44
0.0
 50
0.0
 51
0.0
 71
     0
 72
  2000
 73
     1
 74
     3
 75
     0
 76
     0
 77
     0
 78
     0
281
     0
 65
     1
110
0.0
120
0.0
130
0.0
111
1.0
121
0.0
131
0.0
112
0.0
122
1.0
132
0.0
 79
     0
146
0.0
  0
ENDTAB
  0
TABLE
  2
LTYPE
  5
5
330
0
100
AcDbSymbolTable
 70
     6
  0
LTYPE
  5
14
330
5
100
AcDbSymbolTableRecord
100
AcDbLinetypeTableRecord
  2
ByBlock
 70
     0
  3

 72
    65
 73
     0
 40
0.0
  0
LTYPE
  5
15
330
5
100
AcDbSymbolTableRecord
100
AcDbLinetypeTableRecord
  2
ByLayer
 70
     0
  3

 72
    65
 73
     0
 40
0.0
  0
LTYPE
  5
16
330
5
100
AcDbSymbolTableRecord
100
AcDbLinetypeTableRecord
  2
Continuous
 70
     0
  3
Solid line
 72
    65
 73
     0
 40
0.0
  0
LTYPE
  5
6E
330
5
100
AcDbSymbolTableRecord
100
AcDbLinetypeTableRecord
  2
HIDDEN
 70
     0
  3
Hidden __ __ __ __ __ __ __ __ __ __ __ __ __ __
 72
    65
 73
     2
 40
1.905
 49
1.27
 74
     0
 49
-0.635
 74
     0
  0
LTYPE
  5
6F
330
5
100
AcDbSymbolTableRecord
100
AcDbLinetypeTableRecord
  2
PHANTOM
 70
     0
  3
Phantom ______  __  __  ______  __  __  ______
 72
    65
 73
     6
 40
12.7
 49
6.35
 74
     0
 49
-1.27
 74
     0
 49
1.27
 74
     0
 49
-1.27
 74
     0
 49
1.27
 74
     0
 49
-1.27
 74
     0
  0
LTYPE
  5
70
330
5
100
AcDbSymbolTableRecord
100
AcDbLinetypeTableRecord
  2
CENTER
 70
     0
  3
Center ____ _ ____ _ ____ _ ____ _ ____ _ ____
 72
    65
 73
     4
 40
10.16
 49
6.35
 74
     0
 49
-1.27
 74
     0
 49
1.27
 74
     0
 49
-1.27
 74
     0
  0
LTYPE
  5
71
330
5
100
AcDbSymbolTableRecord
100
AcDbLinetypeTableRecord
  2
CENTERX2
 70
     0
  3
Center (2x) ________  __  ________  __  _____
 72
    65
 73
     4
 40
20.32
 49
12.7
 74
     0
 49
-2.54
 74
     0
 49
2.54
 74
     0
 49
-2.54
 74
     0
  0
LTYPE
  5
72
330
5
100
AcDbSymbolTableRecord
100
AcDbLinetypeTableRecord
  2
DOT2
 70
     0
  3
Dot (.5x) ........................................
 72
    65
 73
     2
 40
0.635
 49
0.0
 74
     0
 49
-0.635
 74
     0
  0
ENDTAB
  0
TABLE
  2
LAYER
  5
2
330
0
100
AcDbSymbolTable
 70
     5
  0
LAYER
  5
10
330
2
100
AcDbSymbolTableRecord
100
AcDbLayerTableRecord
  2
0
 70
     0
 62
     7
  6
Continuous
370
    -3
390
F
  0
LAYER
  5
73
330
2
100
AcDbSymbolTableRecord
100
AcDbLayerTableRecord
  2
SLD-0
 70
     0
 62
     7
  6
Continuous
370
    -3
390
F
  0
LAYER
  5
74
330
2
100
AcDbSymbolTableRecord
100
AcDbLayerTableRecord
  2
1
 70
     0
 62
     7
  6
Continuous
370
    -3
390
F
  0
LAYER
  5
75
330
2
100
AcDbSymbolTableRecord
100
AcDbLayerTableRecord
  2
2
 70
     0
 62
     7
  6
Continuous
370
    -3
390
F
  0
LAYER
  5
76
330
2
100
AcDbSymbolTableRecord
100
AcDbLayerTableRecord
  2
SLD-DEFPOINTS
 70
     0
 62
     7
  6
Continuous
290
     0
370
    -3
390
F
  0
ENDTAB
  0
TABLE
  2
STYLE
  5
3
330
0
100
AcDbSymbolTable
 70
    11
  0
STYLE
  5
11
330
3
100
AcDbSymbolTableRecord
100
AcDbTextStyleTableRecord
  2
Standard
 70
     0
 40
0.0
 41
1.0
 50
0.0
 71
     0
 42
3.5
  3
txt
  4
bigfont
  0
STYLE
  5
1BE
330
3
100
AcDbSymbolTableRecord
100
AcDbTextStyleTableRecord
  2
SLDTEXTSTYLE0
 70
     0
 40
0.0
 41
1.0
 50
0.0
 71
     0
 42
3.5
  3
TXT
  4
bigfont
  0
STYLE
  5
1CF
330
3
100
AcDbSymbolTableRecord
100
AcDbTextStyleTableRecord
  2
SLDTEXTSTYLE1
 70
     0
 40
0.0
 41
0.96
 50
0.0
 71
     0
 42
3.5
  3
TXT
  4
bigfont
  0
STYLE
  5
24A
330
3
100
AcDbSymbolTableRecord
100
AcDbTextStyleTableRecord
  2
SLDTEXTSTYLE2
 70
     0
 40
0.0
 41
0.6999999936
 50
0.0
 71
     0
 42
3.5
  3
TXT
  4
bigfont
  0
STYLE
  5
24C
330
3
100
AcDbSymbolTableRecord
100
AcDbTextStyleTableRecord
  2
SLDTEXTSTYLE3
 70
     0
 40
0.0
 41
0.9999999659
 50
0.0
 71
     0
 42
3.5
  3
TXT
  4
bigfont
  0
STYLE
  5
24E
330
3
100
AcDbSymbolTableRecord
100
AcDbTextStyleTableRecord
  2
SLDTEXTSTYLE4
 70
     0
 40
0.0
 41
0.9999999801
 50
0.0
 71
     0
 42
3.5
  3
TXT
  4
bigfont
  0
STYLE
  5
259
330
3
100
AcDbSymbolTableRecord
100
AcDbTextStyleTableRecord
  2
SLDTEXTSTYLE5
 70
     0
 40
0.0
 41
0.7000000362
 50
0.0
 71
     0
 42
3.5
  3
TXT
  4
bigfont
  0
STYLE
  5
25B
330
3
100
AcDbSymbolTableRecord
100
AcDbTextStyleTableRecord
  2
SLDTEXTSTYLE6
 70
     0
 40
0.0
 41
0.7000000176
 50
0.0
 71
     0
 42
3.5
  3
TXT
  4
bigfont
  0
STYLE
  5
25D
330
3
100
AcDbSymbolTableRecord
100
AcDbTextStyleTableRecord
  2
SLDTEXTSTYLE7
 70
     0
 40
0.0
 41
0.6999999741
 50
0.0
 71
     0
 42
3.5
  3
TXT
  4
bigfont
  0
STYLE
  5
262
330
3
100
AcDbSymbolTableRecord
100
AcDbTextStyleTableRecord
  2
SLDTEXTSTYLE8
 70
     0
 40
0.0
 41
1.0000000188
 50
0.0
 71
     0
 42
3.5
  3
TXT
  4
bigfont
  0
STYLE
  5
273
330
3
100
AcDbSymbolTableRecord
100
AcDbTextStyleTableRecord
  2
SLDTEXTSTYLE9
 70
     0
 40
0.0
 41
0.3054298643
 50
0.0
 71
     0
 42
3.5
  3
TXT
  4
bigfont
  0
ENDTAB
  0
TABLE
  2
VIEW
  5
6
330
0
100
AcDbSymbolTable
 70
     0
  0
ENDTAB
  0
TABLE
  2
UCS
  5
7
330
0
100
AcDbSymbolTable
 70
     0
  0
ENDTAB
  0
TABLE
  2
APPID
  5
9
330
0
100
AcDbSymbolTable
 70
     1
  0
APPID
  5
12
330
9
100
AcDbSymbolTableRecord
100
AcDbRegAppTableRecord
  2
ACAD
 70
     0
  0
ENDTAB
  0
TABLE
  2
DIMSTYLE
  5
A
330
0
100
AcDbSymbolTable
 70
     6
100
AcDbDimStyleTable
  0
DIMSTYLE
105
27
330
A
100
AcDbSymbolTableRecord
100
AcDbDimStyleTableRecord
  2
ISO-25
 70
     0
 41
2.5
 42
0.625
 43
3.75
 44
1.25
 73
     0
 74
     0
 77
     1
 78
     8
140
2.5
141
2.5
143
0.0393700787
147
0.625
171
     3
172
     1
178
     0
271
     2
272
     2
274
     3
278
    44
283
     0
284
     8
340
11
  0
DIMSTYLE
105
1BF
102
{ACAD_REACTORS
330
1BD
330
1D1
330
1DF
330
21D
102
}
330
A
100
AcDbSymbolTableRecord
100
AcDbDimStyleTableRecord
  2
SLDDIMSTYLE0
 70
     0
 41
3.302
 44
0.0
 45
0.000000001
 73
     0
 74
     0
 77
     1
 78
    12
 79
     3
140
2.9104166031
147
0.7276041508
173
     1
178
     0
271
     0
276
     2
284
    12
340
1BE
341
1C0
343
1C0
344
1C0
  0
DIMSTYLE
105
1EE
102
{ACAD_REACTORS
330
1ED
102
}
330
A
100
AcDbSymbolTableRecord
100
AcDbDimStyleTableRecord
  2
SLDDIMSTYLE1
 70
     0
 41
3.302
 44
0.0
 45
0.000000001
 73
     0
 74
     0
 75
     1
 77
     1
 78
    12
 79
     3
140
2.9104166031
147
0.7276041508
173
     1
178
     0
271
     0
276
     2
284
    12
340
1BE
341
1C0
343
1C0
344
1C0
  0
DIMSTYLE
105
1FE
102
{ACAD_REACTORS
330
1FD
102
}
330
A
100
AcDbSymbolTableRecord
100
AcDbDimStyleTableRecord
  2
SLDDIMSTYLE2
 70
     0
 41
3.302
 44
0.0
 45
0.000000001
 73
     0
 74
     0
 77
     1
 78
    12
 79
     3
140
2.9104166031
147
0.7276041508
173
     1
178
     0
271
     1
276
     2
284
    12
340
1BE
341
1C0
343
1C0
344
1C0
  0
DIMSTYLE
105
20D
102
{ACAD_REACTORS
330
20C
330
22B
102
}
330
A
100
AcDbSymbolTableRecord
100
AcDbDimStyleTableRecord
  2
SLDDIMSTYLE3
 70
     0
 41
3.302
 44
0.0
 45
0.000000001
 73
     0
 74
     0
 77
     1
 78
     4
 79
     1
140
2.9104166031
147
0.7276041508
173
     1
178
     0
276
     2
284
    12
340
1BE
341
1C0
343
1C0
344
1C0
  0
DIMSTYLE
105
23C
102
{ACAD_REACTORS
330
23B
102
}
330
A
100
AcDbSymbolTableRecord
100
AcDbDimStyleTableRecord
  2
SLDDIMSTYLE4
 70
     0
 41
3.302
 44
0.0
 45
0.000000001
 73
     0
 74
     0
 77
     1
 78
    12
 79
     3
140
3.2000000477
147
0.8000000119
173
     1
178
     0
271
     0
276
     2
284
    12
340
1BE
341
1C0
343
1C0
344
1C0
  0
ENDTAB
  0
TABLE
  2
BLOCK_RECORD
  5
1
330
0
100
AcDbSymbolTable
 70
    11
  0
BLOCK_RECORD
  5
1F
330
1
100
AcDbSymbolTableRecord
100
AcDbBlockTableRecord
  2
*Model_Space
340
22
  0
BLOCK_RECORD
  5
1B
330
1
100
AcDbSymbolTableRecord
100
AcDbBlockTableRecord
  2
*Paper_Space
340
1E
  0
BLOCK_RECORD
  5
1C0
330
1
100
AcDbSymbolTableRecord
100
AcDbBlockTableRecord
  2
_NONE
340
0
  0
BLOCK_RECORD
  5
1C3
330
1
100
AcDbSymbolTableRecord
100
AcDbBlockTableRecord
  2
_D
340
0
  0
BLOCK_RECORD
  5
1D2
330
1
100
AcDbSymbolTableRecord
100
AcDbBlockTableRecord
  2
_D_1
340
0
  0
BLOCK_RECORD
  5
1E0
330
1
100
AcDbSymbolTableRecord
100
AcDbBlockTableRecord
  2
_D_2
340
0
  0
BLOCK_RECORD
  5
1EF
330
1
100
AcDbSymbolTableRecord
100
AcDbBlockTableRecord
  2
_D_3
340
0
  0
BLOCK_RECORD
  5
1FF
330
1
100
AcDbSymbolTableRecord
100
AcDbBlockTableRecord
  2
_D_4
340
0
  0
BLOCK_RECORD
  5
20E
330
1
100
AcDbSymbolTableRecord
100
AcDbBlockTableRecord
  2
_D_5
340
0
  0
BLOCK_RECORD
  5
21E
330
1
100
AcDbSymbolTableRecord
100
AcDbBlockTableRecord
  2
_D_6
340
0
  0
BLOCK_RECORD
  5
22C
330
1
100
AcDbSymbolTableRecord
100
AcDbBlockTableRecord
  2
_D_7
340
0
  0
BLOCK_RECORD
  5
23D
330
1
100
AcDbSymbolTableRecord
100
AcDbBlockTableRecord
  2
_D_8
340
0
  0
ENDTAB
  0
ENDSEC
  0
SECTION
  2
BLOCKS
  0
BLOCK
  5
20
330
1F
100
AcDbEntity
  8
0
100
AcDbBlockBegin
  2
*Model_Space
 70
     0
 10
0.0
 20
0.0
 30
0.0
  3
*Model_Space
  1

  0
ENDBLK
  5
21
330
1F
100
AcDbEntity
  8
0
100
AcDbBlockEnd
  0
BLOCK
  5
1C
330
1B
100
AcDbEntity
 67
     1
  8
0
100
AcDbBlockBegin
  2
*Paper_Space
 70
     0
 10
0.0
 20
0.0
 30
0.0
  3
*Paper_Space
  1

  0
ENDBLK
  5
1D
330
1B
100
AcDbEntity
 67
     1
  8
0
100
AcDbBlockEnd
  0
BLOCK
  5
1C1
330
1C0
100
AcDbEntity
  8
0
100
AcDbBlockBegin
  2
_NONE
 70
     0
 10
0.0
 20
0.0
 30
0.0
  3
_NONE
  1

  0
ENDBLK
  5
1C2
330
1C0
100
AcDbEntity
  8
0
100
AcDbBlockEnd
  0
BLOCK
  5
1C4
330
1C3
100
AcDbEntity
  8
0
100
AcDbBlockBegin
  2
_D
 70
     0
 10
0.0
 20
0.0
 30
0.0
  3
_D
  1

  0
LINE
  5
1C6
330
1C3
100
AcDbEntity
  8
SLD-0
 62
     7
100
AcDbLine
 10
100.2194073072
 20
48.9675686094
 30
0.0
 11
164.2194073974
 21
48.9675686094
 31
0.0
  0
LINE
  5
1C7
330
1C3
100
AcDbEntity
  8
SLD-0
 62
     7
100
AcDbLine
 10
97.2194073523
 20
48.9675686094
 30
0.0
 11
100.2194073072
 21
49.9675685944
 31
0.0
  0
LINE
  5
1C8
330
1C3
100
AcDbEntity
  8
SLD-0
 62
     7
100
AcDbLine
 10
97.2194073523
 20
48.9675686094
 30
0.0
 11
100.2194073072
 21
47.9675686244
 31
0.0
  0
LINE
  5
1C9
330
1C3
100
AcDbEntity
  8
SLD-0
 62
     7
100
AcDbLine
 10
97.2194073523
 20
48.9675686094
 30
0.0
 11
100.2194073072
 21
48.9675686094
 31
0.0
  0
LINE
  5
1CA
330
1C3
100
AcDbEntity
  8
SLD-0
 62
     7
100
AcDbLine
 10
167.2194073523
 20
48.9675686094
 30
0.0
 11
164.2194073974
 21
47.9675686244
 31
0.0
  0
LINE
  5
1CB
330
1C3
100
AcDbEntity
  8
SLD-0
 62
     7
100
AcDbLine
 10
167.2194073523
 20
48.9675686094
 30
0.0
 11
164.2194073974
 21
49.9675685944
 31
0.0
  0
LINE
  5
1CC
330
1C3
100
AcDbEntity
  8
SLD-0
 62
     7
100
AcDbLine
 10
167.2194073523
 20
48.9675686094
 30
0.0
 11
164.2194073974
 21
48.9675686094
 31
0.0
  0
LINE
  5
1CD
330
1C3
100
AcDbEntity
  8
SLD-0
 62
     7
100
AcDbLine
 10
97.2194073523
 20
70.4675686319
 30
0.0
 11
97.2194073523
 21
47.4675686094
 31
0.0
  0
LINE
  5
1CE
330
1C3
100
AcDbEntity
  8
SLD-0
 62
     7
100
AcDbLine
 10
167.2194073523
 20
70.4675686319
 30
0.0
 11
167.2194073523
 21
47.4675686094
 31
0.0
  0
MTEXT
  5
1D0
330
1C3
100
AcDbEntity
  8
SLD-0
 62
     7
100
AcDbMText
 10
129.7246347393
 20
52.3874213996
 30
0.0
 40
2.9104166031
 41
0.0
 71
     1
 72
     1
  1
70
  7
SLDTEXTSTYLE1
 73
     1
 44
1.0
  0
ENDBLK
  5
1C5
330
1C3
100
AcDbEntity
  8
0
100
AcDbBlockEnd
  0
BLOCK
  5
1D3
330
1D2
100
AcDbEntity
  8
0
100
AcDbBlockBegin
  2
_D_1
 70
     0
 10
0.0
 20
0.0
 30
0.0
  3
_D_1
  1

  0
LINE
  5
1D5
330
1D2
100
AcDbEntity
  8
SLD-0
 62
     7
100
AcDbLine
 10
185.2997248716
 20
73.9675685643
 30
0.0
 11
185.2997248716
 21
137.9675686545
 31
0.0
  0
LINE
  5
1D6
330
1D2
100
AcDbEntity
  8
SLD-0
 62
     7
100
AcDbLine
 10
185.2997248716
 20
70.9675686094
 30
0.0
 11
184.2997248866
 21
73.9675685643
 31
0.0
  0
LINE
  5
1D7
330
1D2
100
AcDbEntity
  8
SLD-0
 62
     7
100
AcDbLine
 10
185.2997248716
 20
70.9675686094
 30
0.0
 11
186.2997248566
 21
73.9675685643
 31
0.0
  0
LINE
  5
1D8
330
1D2
100
AcDbEntity
  8
SLD-0
 62
     7
100
AcDbLine
 10
185.2997248716
 20
70.9675686094
 30
0.0
 11
185.2997248716
 21
73.9675685643
 31
0.0
  0
LINE
  5
1D9
330
1D2
100
AcDbEntity
  8
SLD-0
 62
     7
100
AcDbLine
 10
185.2997248716
 20
140.9675686094
 30
0.0
 11
186.2997248566
 21
137.9675686545
 31
0.0
  0
LINE
  5
1DA
330
1D2
100
AcDbEntity
  8
SLD-0
 62
     7
100
AcDbLine
 10
185.2997248716
 20
140.9675686094
 30
0.0
 11
184.2997248866
 21
137.9675686545
 31
0.0
  0
LINE
  5
1DB
330
1D2
100
AcDbEntity
  8
SLD-0
 62
     7
100
AcDbLine
 10
185.2997248716
 20
140.9675686094
 30
0.0
 11
185.2997248716
 21
137.9675686545
 31
0.0
  0
LINE
  5
1DC
330
1D2
100
AcDbEntity
  8
SLD-0
 62
     7
100
AcDbLine
 10
167.7194073298
 20
70.9675686094
 30
0.0
 11
186.7997248716
 21
70.9675686094
 31
0.0
  0
LINE
  5
1DD
330
1D2
100
AcDbEntity
  8
SLD-0
 62
     7
100
AcDbLine
 10
167.7194073298
 20
140.9675686094
 30
0.0
 11
186.7997248716
 21
140.9675686094
 31
0.0
  0
MTEXT
  5
1DE
330
1D2
100
AcDbEntity
  8
SLD-0
 62
     7
100
AcDbMText
 10
181.8798720814
 20
103.4727959964
 30
0.0
 40
2.9104166031
 41
0.0
 71
     1
 72
     1
  1
70
  7
SLDTEXTSTYLE1
 11
-3.828568698926949E-16
 21
1.0
 31
0.0
 73
     1
 44
1.0
  0
ENDBLK
  5
1D4
330
1D2
100
AcDbEntity
  8
0
100
AcDbBlockEnd
  0
BLOCK
  5
1E1
330
1E0
100
AcDbEntity
  8
0
100
AcDbBlockBegin
  2
_D_2
 70
     0
 10
0.0
 20
0.0
 30
0.0
  3
_D_2
  1

  0
LINE
  5
1E3
330
1E0
100
AcDbEntity
  8
SLD-0
 62
     7
100
AcDbLine
 10
274.9486809925
 20
55.7013806006
 30
0.0
 11
308.9568883494
 21
55.7013806006
 31
0.0
  0
LINE
  5
1E4
330
1E0
100
AcDbEntity
  8
SLD-0
 62
     7
100
AcDbLine
 10
271.9486810376
 20
55.7013806006
 30
0.0
 11
274.9486809925
 21
56.7013805856
 31
0.0
  0
LINE
  5
1E5
330
1E0
100
AcDbEntity
  8
SLD-0
 62
     7
100
AcDbLine
 10
271.9486810376
 20
55.7013806006
 30
0.0
 11
274.9486809925
 21
54.7013806156
 31
0.0
  0
LINE
  5
1E6
330
1E0
100
AcDbEntity
  8
SLD-0
 62
     7
100
AcDbLine
 10
271.9486810376
 20
55.7013806006
 30
0.0
 11
274.9486809925
 21
55.7013806006
 31
0.0
  0
LINE
  5
1E7
330
1E0
100
AcDbEntity
  8
SLD-0
 62
     7
100
AcDbLine
 10
311.9568883043
 20
55.7013806006
 30
0.0
 11
308.9568883494
 21
54.7013806156
 31
0.0
  0
LINE
  5
1E8
330
1E0
100
AcDbEntity
  8
SLD-0
 62
     7
100
AcDbLine
 10
311.9568883043
 20
55.7013806006
 30
0.0
 11
308.9568883494
 21
56.7013805856
 31
0.0
  0
LINE
  5
1E9
330
1E0
100
AcDbEntity
  8
SLD-0
 62
     7
100
AcDbLine
 10
311.9568883043
 20
55.7013806006
 30
0.0
 11
308.9568883494
 21
55.7013806006
 31
0.0
  0
LINE
  5
1EA
330
1E0
100
AcDbEntity
  8
SLD-0
 62
     7
100
AcDbLine
 10
271.9486810376
 20
110.4675686319
 30
0.0
 11
271.9486810376
 21
54.2013806006
 31
0.0
  0
LINE
  5
1EB
330
1E0
100
AcDbEntity
  8
SLD-0
 62
     7
100
AcDbLine
 10
311.9568883043
 20
70.4675686319
 30
0.0
 11
311.9568883043
 21
54.2013806006
 31
0.0
  0
MTEXT
  5
1EC
330
1E0
100
AcDbEntity
  8
SLD-0
 62
     7
100
AcDbMText
 10
286.547595574
 20
59.1212333908
 30
0.0
 40
2.9104166031
 41
0.0
 71
     1
 72
     1
  1
(40)
  7
SLDTEXTSTYLE1
 73
     1
 44
1.0
  0
ENDBLK
  5
1E2
330
1E0
100
AcDbEntity
  8
0
100
AcDbBlockEnd
  0
BLOCK
  5
1F0
330
1EF
100
AcDbEntity
  8
0
100
AcDbBlockBegin
  2
_D_3
 70
     0
 10
0.0
 20
0.0
 30
0.0
  3
_D_3
  1

  0
LINE
  5
1F2
330
1EF
100
AcDbEntity
  8
SLD-0
 62
     7
100
AcDbLine
 10
316.9568883043
 20
55.7013806006
 30
0.0
 11
311.9568883043
 21
55.7013806006
 31
0.0
  0
LINE
  5
1F3
330
1EF
100
AcDbEntity
  8
SLD-0
 62
     7
100
AcDbLine
 10
316.9568883043
 20
55.7013806006
 30
0.0
 11
319.9568882592
 21
56.7013805856
 31
0.0
  0
LINE
  5
1F4
330
1EF
100
AcDbEntity
  8
SLD-0
 62
     7
100
AcDbLine
 10
316.9568883043
 20
55.7013806006
 30
0.0
 11
319.9568882592
 21
54.7013806156
 31
0.0
  0
LINE
  5
1F5
330
1EF
100
AcDbEntity
  8
SLD-0
 62
     7
100
AcDbLine
 10
316.9568883043
 20
55.7013806006
 30
0.0
 11
319.9568882592
 21
55.7013806006
 31
0.0
  0
LINE
  5
1F6
330
1EF
100
AcDbEntity
  8
SLD-0
 62
     7
100
AcDbLine
 10
319.9568882592
 20
55.7013806006
 30
0.0
 11
323.3068882089
 21
55.7013806006
 31
0.0
  0
LINE
  5
1F7
330
1EF
100
AcDbEntity
  8
SLD-0
 62
     7
100
AcDbLine
 10
311.9568883043
 20
55.7013806006
 30
0.0
 11
308.9568883494
 21
54.7013806156
 31
0.0
  0
LINE
  5
1F8
330
1EF
100
AcDbEntity
  8
SLD-0
 62
     7
100
AcDbLine
 10
311.9568883043
 20
55.7013806006
 30
0.0
 11
308.9568883494
 21
56.7013805856
 31
0.0
  0
LINE
  5
1F9
330
1EF
100
AcDbEntity
  8
SLD-0
 62
     7
100
AcDbLine
 10
311.9568883043
 20
55.7013806006
 30
0.0
 11
308.9568883494
 21
55.7013806006
 31
0.0
  0
LINE
  5
1FA
330
1EF
100
AcDbEntity
  8
SLD-0
 62
     7
100
AcDbLine
 10
308.9568883494
 20
55.7013806006
 30
0.0
 11
305.6068883997
 21
55.7013806006
 31
0.0
  0
LINE
  5
1FB
330
1EF
100
AcDbEntity
  8
SLD-0
 62
     7
100
AcDbLine
 10
311.9568883043
 20
70.4675686319
 30
0.0
 11
311.9568883043
 21
54.2013806006
 31
0.0
  0
MTEXT
  5
1FC
330
1EF
100
AcDbEntity
  8
SLD-0
 62
     7
100
AcDbMText
 10
313.4173239332
 20
59.1212333908
 30
0.0
 40
2.9104166031
 41
0.0
 71
     1
 72
     1
  1
5
  7
SLDTEXTSTYLE1
 73
     1
 44
1.0
  0
ENDBLK
  5
1F1
330
1EF
100
AcDbEntity
  8
0
100
AcDbBlockEnd
  0
BLOCK
  5
200
330
1FF
100
AcDbEntity
  8
0
100
AcDbBlockBegin
  2
_D_4
 70
     0
 10
0.0
 20
0.0
 30
0.0
  3
_D_4
  1

  0
LINE
  5
202
330
1FF
100
AcDbEntity
  8
SLD-0
 62
     7
100
AcDbLine
 10
313.9568883494
 20
48.9675686094
 30
0.0
 11
243.7167470083
 21
48.9675686094
 31
0.0
  0
LINE
  5
203
330
1FF
100
AcDbEntity
  8
SLD-0
 62
     7
100
AcDbLine
 10
316.9568883043
 20
48.9675686094
 30
0.0
 11
313.9568883494
 21
47.9675686244
 31
0.0
  0
LINE
  5
204
330
1FF
100
AcDbEntity
  8
SLD-0
 62
     7
100
AcDbLine
 10
316.9568883043
 20
48.9675686094
 30
0.0
 11
313.9568883494
 21
49.9675685944
 31
0.0
  0
LINE
  5
205
330
1FF
100
AcDbEntity
  8
SLD-0
 62
     7
100
AcDbLine
 10
316.9568883043
 20
48.9675686094
 30
0.0
 11
313.9568883494
 21
48.9675686094
 31
0.0
  0
LINE
  5
206
330
1FF
100
AcDbEntity
  8
SLD-0
 62
     7
100
AcDbLine
 10
240.7167470534
 20
48.9675686094
 30
0.0
 11
243.7167470083
 21
49.9675685944
 31
0.0
  0
LINE
  5
207
330
1FF
100
AcDbEntity
  8
SLD-0
 62
     7
100
AcDbLine
 10
240.7167470534
 20
48.9675686094
 30
0.0
 11
243.7167470083
 21
47.9675686244
 31
0.0
  0
LINE
  5
208
330
1FF
100
AcDbEntity
  8
SLD-0
 62
     7
100
AcDbLine
 10
240.7167470534
 20
48.9675686094
 30
0.0
 11
243.7167470083
 21
48.9675686094
 31
0.0
  0
LINE
  5
209
330
1FF
100
AcDbEntity
  8
SLD-0
 62
     7
100
AcDbLine
 10
316.9568883043
 20
69.4675686319
 30
0.0
 11
316.9568883043
 21
47.4675686094
 31
0.0
  0
LINE
  5
20A
330
1FF
100
AcDbEntity
  8
SLD-0
 62
     7
100
AcDbLine
 10
240.7167470534
 20
118.1035628158
 30
0.0
 11
240.7167470534
 21
47.4675686094
 31
0.0
  0
MTEXT
  5
20B
330
1FF
100
AcDbEntity
  8
SLD-0
 62
     7
100
AcDbMText
 10
271.3943370433
 20
52.3874213996
 30
0.0
 40
2.9104166031
 41
0.0
 71
     1
 72
     1
  1
(76.2)
  7
SLDTEXTSTYLE1
 73
     1
 44
1.0
  0
ENDBLK
  5
201
330
1FF
100
AcDbEntity
  8
0
100
AcDbBlockEnd
  0
BLOCK
  5
20F
330
20E
100
AcDbEntity
  8
0
100
AcDbBlockBegin
  2
_D_5
 70
     0
 10
0.0
 20
0.0
 30
0.0
  3
_D_5
  1

  0
LINE
  5
211
330
20E
100
AcDbEntity
  8
SLD-0
 62
     7
100
AcDbLine
 10
226.9502474404
 20
99.9675686094
 30
0.0
 11
226.9502474404
 21
90.7362919861
 31
0.0
  0
LINE
  5
212
330
20E
100
AcDbEntity
  8
SLD-0
 62
     7
100
AcDbLine
 10
226.9502474404
 20
102.9675685643
 30
0.0
 11
226.9502474404
 21
108.9675686545
 31
0.0
  0
LINE
  5
213
330
20E
100
AcDbEntity
  8
SLD-0
 62
     7
100
AcDbLine
 10
226.9502474404
 20
99.9675686094
 30
0.0
 11
225.9502474554
 21
102.9675685643
 31
0.0
  0
LINE
  5
214
330
20E
100
AcDbEntity
  8
SLD-0
 62
     7
100
AcDbLine
 10
226.9502474404
 20
99.9675686094
 30
0.0
 11
227.9502474254
 21
102.9675685643
 31
0.0
  0
LINE
  5
215
330
20E
100
AcDbEntity
  8
SLD-0
 62
     7
100
AcDbLine
 10
226.9502474404
 20
99.9675686094
 30
0.0
 11
226.9502474404
 21
102.9675685643
 31
0.0
  0
LINE
  5
216
330
20E
100
AcDbEntity
  8
SLD-0
 62
     7
100
AcDbLine
 10
226.9502474404
 20
111.9675686094
 30
0.0
 11
227.9502474254
 21
108.9675686545
 31
0.0
  0
LINE
  5
217
330
20E
100
AcDbEntity
  8
SLD-0
 62
     7
100
AcDbLine
 10
226.9502474404
 20
111.9675686094
 30
0.0
 11
225.9502474554
 21
108.9675686545
 31
0.0
  0
LINE
  5
218
330
20E
100
AcDbEntity
  8
SLD-0
 62
     7
100
AcDbLine
 10
226.9502474404
 20
111.9675686094
 30
0.0
 11
226.9502474404
 21
108.9675686545
 31
0.0
  0
LINE
  5
219
330
20E
100
AcDbEntity
  8
SLD-0
 62
     7
100
AcDbLine
 10
266.9803943824
 20
99.9675686094
 30
0.0
 11
225.4502474404
 21
99.9675686094
 31
0.0
  0
LINE
  5
21A
330
20E
100
AcDbEntity
  8
SLD-0
 62
     7
100
AcDbLine
 10
270.7639798489
 20
111.9675686094
 30
0.0
 11
225.4502474404
 21
111.9675686094
 31
0.0
  0
MTEXT
  5
21B
330
20E
100
AcDbEntity
  8
SLD-0
 62
     7
100
AcDbMText
 10
223.5303946502
 20
90.7362919861
 30
0.0
 40
2.9104166031
 41
0.0
 71
     1
 72
     1
  1
%%c
  7
SLDTEXTSTYLE1
 11
-3.828568698926949E-16
 21
1.0
 31
0.0
 73
     1
 44
1.0
  0
MTEXT
  5
21C
330
20E
100
AcDbEntity
  8
SLD-0
 62
     7
100
AcDbMText
 10
223.5303946502
 20
94.5917856043
 30
0.0
 40
2.9104166031
 41
0.0
 71
     1
 72
     1
  1
１２
  7
SLDTEXTSTYLE1
 11
-3.828568698926949E-16
 21
1.0
 31
0.0
 73
     1
 44
1.0
  0
ENDBLK
  5
210
330
20E
100
AcDbEntity
  8
0
100
AcDbBlockEnd
  0
BLOCK
  5
21F
330
21E
100
AcDbEntity
  8
0
100
AcDbBlockBegin
  2
_D_6
 70
     0
 10
0.0
 20
0.0
 30
0.0
  3
_D_6
  1

  0
LINE
  5
221
330
21E
100
AcDbEntity
  8
SLD-0
 62
     7
100
AcDbLine
 10
226.9502474404
 20
114.9675685643
 30
0.0
 11
226.9502474404
 21
125.922744099
 31
0.0
  0
LINE
  5
222
330
21E
100
AcDbEntity
  8
SLD-0
 62
     7
100
AcDbLine
 10
226.9502474404
 20
111.9675686094
 30
0.0
 11
225.9502474554
 21
114.9675685643
 31
0.0
  0
LINE
  5
223
330
21E
100
AcDbEntity
  8
SLD-0
 62
     7
100
AcDbLine
 10
226.9502474404
 20
111.9675686094
 30
0.0
 11
227.9502474254
 21
114.9675685643
 31
0.0
  0
LINE
  5
224
330
21E
100
AcDbEntity
  8
SLD-0
 62
     7
100
AcDbLine
 10
226.9502474404
 20
111.9675686094
 30
0.0
 11
226.9502474404
 21
114.9675685643
 31
0.0
  0
LINE
  5
225
330
21E
100
AcDbEntity
  8
SLD-0
 62
     7
100
AcDbLine
 10
226.9502474404
 20
128.9227440539
 30
0.0
 11
227.9502474254
 21
125.922744099
 31
0.0
  0
LINE
  5
226
330
21E
100
AcDbEntity
  8
SLD-0
 62
     7
100
AcDbLine
 10
226.9502474404
 20
128.9227440539
 30
0.0
 11
225.9502474554
 21
125.922744099
 31
0.0
  0
LINE
  5
227
330
21E
100
AcDbEntity
  8
SLD-0
 62
     7
100
AcDbLine
 10
226.9502474404
 20
128.9227440539
 30
0.0
 11
226.9502474404
 21
125.922744099
 31
0.0
  0
LINE
  5
228
330
21E
100
AcDbEntity
  8
SLD-0
 62
     7
100
AcDbLine
 10
270.7639798489
 20
111.9675686094
 30
0.0
 11
225.4502474404
 21
111.9675686094
 31
0.0
  0
LINE
  5
229
330
21E
100
AcDbEntity
  8
SLD-0
 62
     7
100
AcDbLine
 10
245.981942014
 20
128.9227440539
 30
0.0
 11
225.4502474404
 21
128.9227440539
 31
0.0
  0
MTEXT
  5
22A
330
21E
100
AcDbEntity
  8
SLD-0
 62
     7
100
AcDbMText
 10
223.5303946502
 20
115.0399672347
 30
0.0
 40
2.9104166031
 41
0.0
 71
     1
 72
     1
  1
(17)
  7
SLDTEXTSTYLE1
 11
-3.828568698926949E-16
 21
1.0
 31
0.0
 73
     1
 44
1.0
  0
ENDBLK
  5
220
330
21E
100
AcDbEntity
  8
0
100
AcDbBlockEnd
  0
BLOCK
  5
22D
330
22C
100
AcDbEntity
  8
0
100
AcDbBlockBegin
  2
_D_7
 70
     0
 10
0.0
 20
0.0
 30
0.0
  3
_D_7
  1

  0
LINE
  5
22F
330
22C
100
AcDbEntity
  8
SLD-0
 62
     7
100
AcDbLine
 10
240.3196473122
 20
134.1144564502
 30
0.0
 11
246.114648545
 21
142.39057591
 31
0.0
  0
LINE
  5
230
330
22C
100
AcDbEntity
  8
SLD-0
 62
     7
100
AcDbLine
 10
238.598918029
 20
131.6570003543
 30
0.0
 11
235.1574593592
 21
126.7420880147
 31
0.0
  0
LINE
  5
231
330
22C
100
AcDbEntity
  8
SLD-0
 62
     7
100
AcDbLine
 10
240.3196473122
 20
134.1144564502
 30
0.0
 11
239.418070061
 21
131.0834239265
 31
0.0
  0
LINE
  5
232
330
22C
100
AcDbEntity
  8
SLD-0
 62
     7
100
AcDbLine
 10
240.3196473122
 20
134.1144564502
 30
0.0
 11
237.779765997
 21
132.230576782
 31
0.0
  0
LINE
  5
233
330
22C
100
AcDbEntity
  8
SLD-0
 62
     7
100
AcDbLine
 10
240.3196473122
 20
134.1144564502
 30
0.0
 11
238.598918029
 21
131.6570003543
 31
0.0
  0
LINE
  5
234
330
22C
100
AcDbEntity
  8
SLD-0
 62
     7
100
AcDbLine
 10
233.436730076
 20
124.2846319187
 30
0.0
 11
234.3383073272
 21
127.3156644424
 31
0.0
  0
LINE
  5
235
330
22C
100
AcDbEntity
  8
SLD-0
 62
     7
100
AcDbLine
 10
233.436730076
 20
124.2846319187
 30
0.0
 11
235.9766113912
 21
126.168511587
 31
0.0
  0
LINE
  5
236
330
22C
100
AcDbEntity
  8
SLD-0
 62
     7
100
AcDbLine
 10
233.436730076
 20
124.2846319187
 30
0.0
 11
235.1574593592
 21
126.7420880147
 31
0.0
  0
LINE
  5
237
330
22C
100
AcDbEntity
  8
SLD-0
 62
     7
100
AcDbLine
 10
246.7120750926
 20
129.6384303309
 30
0.0
 11
239.0909192458
 21
134.9748211047
 31
0.0
  0
LINE
  5
238
330
22C
100
AcDbEntity
  8
SLD-0
 62
     7
100
AcDbLine
 10
239.8291578564
 20
119.8086057994
 30
0.0
 11
232.2080020095
 21
125.1449965733
 31
0.0
  0
MTEXT
  5
239
330
22C
100
AcDbEntity
  8
SLD-0
 62
     7
100
AcDbMText
 10
238.7820372559
 20
137.8808531017
 30
0.0
 40
2.9104166031
 41
0.0
 71
     1
 72
     1
  1
%%c
  7
SLDTEXTSTYLE1
 11
0.5735764363510462
 21
0.8191520442889918
 31
0.0
 73
     1
 44
1.0
  0
MTEXT
  5
23A
330
22C
100
AcDbEntity
  8
SLD-0
 62
     7
100
AcDbMText
 10
240.9934575458
 20
141.0390885807
 30
0.0
 40
2.9104166031
 41
0.0
 71
     1
 72
     1
  1
１２
  7
SLDTEXTSTYLE1
 11
0.5735764363510462
 21
0.8191520442889918
 31
0.0
 73
     1
 44
1.0
  0
ENDBLK
  5
22E
330
22C
100
AcDbEntity
  8
0
100
AcDbBlockEnd
  0
BLOCK
  5
23E
330
23D
100
AcDbEntity
  8
0
100
AcDbBlockBegin
  2
_D_8
 70
     0
 10
0.0
 20
0.0
 30
0.0
  3
_D_8
  1

  0
LINE
  5
240
330
23D
100
AcDbEntity
  8
SLD-0
 62
     7
100
AcDbLine
 10
352.4502564993
 20
83.9675685643
 30
0.0
 11
352.4502564993
 21
127.9675686545
 31
0.0
  0
LINE
  5
241
330
23D
100
AcDbEntity
  8
SLD-0
 62
     7
100
AcDbLine
 10
352.4502564993
 20
80.9675686094
 30
0.0
 11
351.4502565143
 21
83.9675685643
 31
0.0
  0
LINE
  5
242
330
23D
100
AcDbEntity
  8
SLD-0
 62
     7
100
AcDbLine
 10
352.4502564993
 20
80.9675686094
 30
0.0
 11
353.4502564842
 21
83.9675685643
 31
0.0
  0
LINE
  5
243
330
23D
100
AcDbEntity
  8
SLD-0
 62
     7
100
AcDbLine
 10
352.4502564993
 20
80.9675686094
 30
0.0
 11
352.4502564993
 21
83.9675685643
 31
0.0
  0
LINE
  5
244
330
23D
100
AcDbEntity
  8
SLD-0
 62
     7
100
AcDbLine
 10
352.4502564993
 20
130.9675686094
 30
0.0
 11
353.4502564842
 21
127.9675686545
 31
0.0
  0
LINE
  5
245
330
23D
100
AcDbEntity
  8
SLD-0
 62
     7
100
AcDbLine
 10
352.4502564993
 20
130.9675686094
 30
0.0
 11
351.4502565143
 21
127.9675686545
 31
0.0
  0
LINE
  5
246
330
23D
100
AcDbEntity
  8
SLD-0
 62
     7
100
AcDbLine
 10
352.4502564993
 20
130.9675686094
 30
0.0
 11
352.4502564993
 21
127.9675686545
 31
0.0
  0
LINE
  5
247
330
23D
100
AcDbEntity
  8
SLD-0
 62
     7
100
AcDbLine
 10
339.0520326185
 20
80.9675686094
 30
0.0
 11
353.9502564993
 21
80.9675686094
 31
0.0
  0
LINE
  5
248
330
23D
100
AcDbEntity
  8
SLD-0
 62
     7
100
AcDbLine
 10
339.1659308636
 20
130.9675686094
 30
0.0
 11
353.9502564993
 21
130.9675686094
 31
0.0
  0
MTEXT
  5
249
330
23D
100
AcDbEntity
  8
SLD-0
 62
     7
100
AcDbMText
 10
348.6901319951
 20
103.2245686087
 30
0.0
 40
3.2000000477
 41
0.0
 71
     1
 72
     1
  1
50
  7
SLDTEXTSTYLE1
 11
-3.828568698926949E-16
 21
1.0
 31
0.0
 73
     1
 44
1.0
  0
ENDBLK
  5
23F
330
23D
100
AcDbEntity
  8
0
100
AcDbBlockEnd
  0
ENDSEC
  0
SECTION
  2
ENTITIES
  0
VIEWPORT
  5
77
330
1B
100
AcDbEntity
 67
     1
  8
0
100
AcDbViewport
 10
210.0
 20
148.5
 30
0.0
 40
444.36
 41
314.226
 68
     1
 69
     1
 12
210.0
 22
148.5
 13
0.0
 23
0.0
 14
10.0
 24
10.0
 15
10.0
 25
10.0
 16
0.0
 26
0.0
 36
1.0
 17
0.0
 27
0.0
 37
0.0
 42
50.0
 43
0.0
 44
0.0
 45
314.226
 50
0.0
 51
0.0
 72
   100
 90
   557152
  1

281
     0
 71
     1
 74
     0
110
0.0
120
0.0
130
0.0
111
1.0
121
0.0
131
0.0
112
0.0
122
1.0
132
0.0
 79
     0
146
0.0
  0
LINE
  5
79
330
1B
100
AcDbEntity
 67
     1
  8
SLD-0
  6
Continuous
 62
     7
100
AcDbLine
 10
130.8644018077
 20
100.1225741613
 30
0.0
 11
131.0194072953
 21
99.9675685573
 31
0.0
  0
LINE
  5
7A
330
1B
100
AcDbEntity
 67
     1
  8
SLD-0
  6
Continuous
 62
     7
100
AcDbLine
 10
133.4194074093
 20
99.9675685573
 30
0.0
 11
133.5744128969
 21
100.1225741613
 31
0.0
  0
LINE
  5
7B
330
1B
100
AcDbEntity
 67
     1
  8
SLD-0
  6
Continuous
 62
     7
100
AcDbLine
 10
126.2194073001
 20
123.8631535354
 30
0.0
 11
126.2194073001
 21
105.9675686094
 31
0.0
  0
LINE
  5
7C
330
1B
100
AcDbEntity
 67
     1
  8
SLD-0
  6
Continuous
 62
     7
100
AcDbLine
 10
138.2194074044
 20
105.9675686094
 30
0.0
 11
138.2194074044
 21
123.8631535354
 31
0.0
  0
LINE
  5
7D
330
1B
100
AcDbEntity
 67
     1
  8
SLD-0
  6
Continuous
 62
     7
100
AcDbLine
 10
131.0194072953
 20
99.9675685573
 30
0.0
 11
133.4194074093
 21
99.9675685573
 31
0.0
  0
LINE
  5
7E
330
1B
100
AcDbEntity
 67
     1
  8
SLD-0
  6
Continuous
 62
     7
100
AcDbLine
 10
167.2194075013
 20
139.9675704571
 30
0.0
 11
167.2194075013
 21
71.9675667617
 31
0.0
  0
LINE
  5
7F
330
1B
100
AcDbEntity
 67
     1
  8
SLD-0
  6
Continuous
 62
     7
100
AcDbLine
 10
97.2194072033
 20
71.9675667617
 30
0.0
 11
97.2194072033
 21
139.9675704571
 31
0.0
  0
LINE
  5
80
330
1B
100
AcDbEntity
 67
     1
  8
SLD-0
  6
Continuous
 62
     7
100
AcDbLine
 10
166.2194092
 20
70.9675684604
 30
0.0
 11
98.2194055045
 21
70.9675684604
 31
0.0
  0
LINE
  5
81
330
1B
100
AcDbEntity
 67
     1
  8
SLD-0
  6
Continuous
 62
     7
100
AcDbLine
 10
98.2194055045
 20
140.9675687584
 30
0.0
 11
166.2194092
 21
140.9675687584
 31
0.0
  0
LINE
  5
82
330
1B
100
AcDbEntity
 67
     1
  8
SLD-0
  6
Continuous
 62
     7
100
AcDbLine
 10
138.216470013
 20
124.016927931
 30
0.0
 11
138.2194074044
 21
123.8631535354
 31
0.0
  0
LINE
  5
83
330
1B
100
AcDbEntity
 67
     1
  8
SLD-0
  6
CENTER
 62
     7
100
AcDbLine
 10
172.2194075013
 20
105.9675686094
 30
0.0
 11
92.2194072033
 21
105.9675686094
 31
0.0
  0
LINE
  5
84
330
1B
100
AcDbEntity
 67
     1
  8
SLD-0
  6
CENTER
 62
     7
100
AcDbLine
 10
132.2194073523
 20
65.9675684604
 30
0.0
 11
132.2194073523
 21
145.9675687584
 31
0.0
  0
LINE
  5
85
330
1B
100
AcDbEntity
 67
     1
  8
SLD-0
  6
Continuous
 62
     7
100
AcDbLine
 10
329.011933298
 20
128.9675686541
 30
0.0
 11
334.5068892252
 21
130.9675689819
 31
0.0
  0
LINE
  5
86
330
1B
100
AcDbEntity
 67
     1
  8
SLD-0
  6
Continuous
 62
     7
100
AcDbLine
 10
334.5068892252
 20
130.9675689819
 30
0.0
 11
329.011933298
 21
132.9675693098
 31
0.0
  0
LINE
  5
87
330
1B
100
AcDbEntity
 67
     1
  8
SLD-0
  6
Continuous
 62
     7
100
AcDbLine
 10
329.011933298
 20
132.9675693098
 30
0.0
 11
316.9568883043
 21
132.9675693098
 31
0.0
  0
LINE
  5
88
330
1B
100
AcDbEntity
 67
     1
  8
SLD-0
  6
Continuous
 62
     7
100
AcDbLine
 10
316.9568883043
 20
128.9675686541
 30
0.0
 11
329.011933298
 21
128.9675686541
 31
0.0
  0
LINE
  5
89
330
1B
100
AcDbEntity
 67
     1
  8
SLD-0
  6
Continuous
 62
     7
100
AcDbLine
 10
329.011933298
 20
78.967567909
 30
0.0
 11
334.5068892252
 21
80.9675682369
 31
0.0
  0
LINE
  5
8A
330
1B
100
AcDbEntity
 67
     1
  8
SLD-0
  6
Continuous
 62
     7
100
AcDbLine
 10
334.5068892252
 20
80.9675682369
 30
0.0
 11
329.011933298
 21
82.9675685647
 31
0.0
  0
LINE
  5
8B
330
1B
100
AcDbEntity
 67
     1
  8
SLD-0
  6
Continuous
 62
     7
100
AcDbLine
 10
329.011933298
 20
82.9675685647
 30
0.0
 11
316.9568883043
 21
82.9675685647
 31
0.0
  0
LINE
  5
8C
330
1B
100
AcDbEntity
 67
     1
  8
SLD-0
  6
Continuous
 62
     7
100
AcDbLine
 10
316.9568883043
 20
78.967567909
 30
0.0
 11
329.011933298
 21
78.967567909
 31
0.0
  0
LINE
  5
8D
330
1B
100
AcDbEntity
 67
     1
  8
SLD-0
  6
Continuous
 62
     7
100
AcDbLine
 10
311.9568894391
 20
111.967568842
 30
0.0
 11
272.263981845
 21
111.967568842
 31
0.0
  0
LINE
  5
8E
330
1B
100
AcDbEntity
 67
     1
  8
SLD-0
  6
Continuous
 62
     7
100
AcDbLine
 10
290.3060385745
 20
99.9675685573
 30
0.0
 11
311.956888416
 21
99.9675685573
 31
0.0
  0
LINE
  5
8F
330
1B
100
AcDbEntity
 67
     1
  8
SLD-0
  6
Continuous
 62
     7
100
AcDbLine
 10
268.4803934556
 20
99.9675685573
 30
0.0
 11
287.8076949876
 21
99.9675685573
 31
0.0
  0
LINE
  5
90
330
1B
100
AcDbEntity
 67
     1
  8
SLD-0
  6
Continuous
 62
     7
100
AcDbLine
 10
241.0578843912
 20
118.9482413206
 30
0.0
 11
267.906818982
 21
100.1484166805
 31
0.0
  0
LINE
  5
91
330
1B
100
AcDbEntity
 67
     1
  8
SLD-0
  6
Continuous
 62
     7
100
AcDbLine
 10
271.6904016072
 20
112.1484165632
 30
0.0
 11
247.9408042366
 21
128.7780649581
 31
0.0
  0
LINE
  5
92
330
1B
100
AcDbEntity
 67
     1
  8
SLD-0
  6
Continuous
 62
     7
100
AcDbLine
 10
287.856887446
 20
99.9675685573
 30
0.0
 11
290.256888957
 21
99.9675685573
 31
0.0
  0
LINE
  5
93
330
1B
100
AcDbEntity
 67
     1
  8
SLD-0
  6
Continuous
 62
     7
100
AcDbLine
 10
329.011933298
 20
130.9675689819
 30
0.0
 11
329.011933298
 21
128.9675686541
 31
0.0
  0
LINE
  5
94
330
1B
100
AcDbEntity
 67
     1
  8
SLD-0
  6
Continuous
 62
     7
100
AcDbLine
 10
329.011933298
 20
132.9675693098
 30
0.0
 11
329.011933298
 21
130.9675689819
 31
0.0
  0
LINE
  5
95
330
1B
100
AcDbEntity
 67
     1
  8
SLD-0
  6
Continuous
 62
     7
100
AcDbLine
 10
329.011933298
 20
80.9675682369
 30
0.0
 11
329.011933298
 21
78.967567909
 31
0.0
  0
LINE
  5
96
330
1B
100
AcDbEntity
 67
     1
  8
SLD-0
  6
Continuous
 62
     7
100
AcDbLine
 10
329.011933298
 20
82.9675685647
 30
0.0
 11
329.011933298
 21
80.9675682369
 31
0.0
  0
LINE
  5
97
330
1B
100
AcDbEntity
 67
     1
  8
SLD-0
  6
Continuous
 62
     7
100
AcDbLine
 10
312.4568886283
 20
140.9675686281
 30
0.0
 11
316.9568884346
 21
140.9675686281
 31
0.0
  0
LINE
  5
98
330
1B
100
AcDbEntity
 67
     1
  8
SLD-0
  6
Continuous
 62
     7
100
AcDbLine
 10
316.9568884346
 20
140.9675686281
 30
0.0
 11
316.9568884346
 21
139.9675705874
 31
0.0
  0
LINE
  5
99
330
1B
100
AcDbEntity
 67
     1
  8
SLD-0
  6
Continuous
 62
     7
100
AcDbLine
 10
316.9568884346
 20
71.967566892
 30
0.0
 11
316.9568884346
 21
139.9675705874
 31
0.0
  0
LINE
  5
9A
330
1B
100
AcDbEntity
 67
     1
  8
SLD-0
  6
Continuous
 62
     7
100
AcDbLine
 10
316.9568884346
 20
70.9675685907
 30
0.0
 11
312.4568886283
 21
70.9675685907
 31
0.0
  0
LINE
  5
9B
330
1B
100
AcDbEntity
 67
     1
  8
SLD-0
  6
Continuous
 62
     7
100
AcDbLine
 10
316.9568884346
 20
71.967566892
 30
0.0
 11
316.9568884346
 21
70.9675685907
 31
0.0
  0
LINE
  5
9C
330
1B
100
AcDbEntity
 67
     1
  8
SLD-0
  6
Continuous
 62
     7
100
AcDbLine
 10
311.956888416
 20
139.9675704571
 30
0.0
 11
311.956888416
 21
140.4675677451
 31
0.0
  0
LINE
  5
9D
330
1B
100
AcDbEntity
 67
     1
  8
SLD-0
  6
Continuous
 62
     7
100
AcDbLine
 10
311.956888416
 20
71.9675667617
 30
0.0
 11
311.956888416
 21
139.9675704571
 31
0.0
  0
LINE
  5
9E
330
1B
100
AcDbEntity
 67
     1
  8
SLD-0
  6
Continuous
 62
     7
100
AcDbLine
 10
311.956888416
 20
71.4675694737
 30
0.0
 11
311.956888416
 21
71.9675667617
 31
0.0
  0
LINE
  5
9F
330
1B
100
AcDbEntity
 67
     1
  8
SLD-0
  6
CENTER
 62
     7
100
AcDbLine
 10
314.8068883043
 20
130.9675686094
 30
0.0
 11
337.6659308861
 21
130.9675686094
 31
0.0
  0
LINE
  5
A0
330
1B
100
AcDbEntity
 67
     1
  8
SLD-0
  6
CENTER
 62
     7
100
AcDbLine
 10
327.6604214965
 20
105.9675687898
 30
0.0
 11
270.0568893274
 21
105.9675687898
 31
0.0
  0
LINE
  5
A1
330
1B
100
AcDbEntity
 67
     1
  8
SLD-0
  6
CENTER
 62
     7
100
AcDbLine
 10
270.0568893274
 20
105.9675687898
 30
0.0
 11
243.0109319076
 21
124.9053520533
 31
0.0
  0
LINE
  5
A2
330
1B
100
AcDbEntity
 67
     1
  8
SLD-0
  6
CENTER
 62
     7
100
AcDbLine
 10
314.8068883043
 20
80.9675686094
 30
0.0
 11
337.5520326411
 21
80.9675686094
 31
0.0
  0
LINE
  5
A3
330
1B
100
AcDbEntity
 67
     1
  8
SLD-0
  6
Continuous
 62
     7
100
AcDbLine
 10
134.2194074473
 20
272.335148162
 30
0.0
 11
132.2194073523
 21
277.8301040891
 31
0.0
  0
LINE
  5
A4
330
1B
100
AcDbEntity
 67
     1
  8
SLD-0
  6
Continuous
 62
     7
100
AcDbLine
 10
132.2194073523
 20
277.8301040891
 30
0.0
 11
130.2194072573
 21
272.335148162
 31
0.0
  0
LINE
  5
A5
330
1B
100
AcDbEntity
 67
     1
  8
SLD-0
  6
Continuous
 62
     7
100
AcDbLine
 10
130.2194072573
 20
272.335148162
 30
0.0
 11
130.2194072573
 21
260.2801031682
 31
0.0
  0
LINE
  5
A6
330
1B
100
AcDbEntity
 67
     1
  8
SLD-0
  6
Continuous
 62
     7
100
AcDbLine
 10
134.2194074473
 20
260.2801031682
 30
0.0
 11
134.2194074473
 21
272.335148162
 31
0.0
  0
LINE
  5
A7
330
1B
100
AcDbEntity
 67
     1
  8
SLD-0
  6
Continuous
 62
     7
100
AcDbLine
 10
138.2194074379
 20
187.8225586626
 30
0.0
 11
138.2194074379
 21
213.380102745
 31
0.0
  0
LINE
  5
A8
330
1B
100
AcDbEntity
 67
     1
  8
SLD-0
  6
Continuous
 62
     7
100
AcDbLine
 10
126.2194073001
 20
213.380102745
 30
0.0
 11
126.2194073001
 21
187.8225586626
 31
0.0
  0
LINE
  5
A9
330
1B
100
AcDbEntity
 67
     1
  8
SLD-0
  6
Continuous
 62
     7
100
AcDbLine
 10
126.2194073001
 20
255.28010328
 30
0.0
 11
126.2194073001
 21
213.380102745
 31
0.0
  0
LINE
  5
AA
330
1B
100
AcDbEntity
 67
     1
  8
SLD-0
  6
Continuous
 62
     7
100
AcDbLine
 10
138.2194074379
 20
213.380102745
 30
0.0
 11
138.2194074379
 21
255.28010328
 31
0.0
  0
LINE
  5
AB
330
1B
100
AcDbEntity
 67
     1
  8
SLD-0
  6
Continuous
 62
     7
100
AcDbLine
 10
130.2194072573
 20
272.335148162
 30
0.0
 11
134.2194074473
 21
272.335148162
 31
0.0
  0
LINE
  5
AC
330
1B
100
AcDbEntity
 67
     1
  8
SLD-0
  6
Continuous
 62
     7
100
AcDbLine
 10
166.2194092
 20
260.2801031682
 30
0.0
 11
98.2194055045
 21
260.2801031682
 31
0.0
  0
LINE
  5
AD
330
1B
100
AcDbEntity
 67
     1
  8
SLD-0
  6
Continuous
 62
     7
100
AcDbLine
 10
166.2194092
 20
260.2801031682
 30
0.0
 11
167.2194072405
 21
260.2801031682
 31
0.0
  0
LINE
  5
AE
330
1B
100
AcDbEntity
 67
     1
  8
SLD-0
  6
Continuous
 62
     7
100
AcDbLine
 10
167.2194072405
 20
260.2801031682
 30
0.0
 11
167.2194072405
 21
255.7801033619
 31
0.0
  0
LINE
  5
AF
330
1B
100
AcDbEntity
 67
     1
  8
SLD-0
  6
Continuous
 62
     7
100
AcDbLine
 10
97.2194072033
 20
260.2801031682
 30
0.0
 11
98.2194055045
 21
260.2801031682
 31
0.0
  0
LINE
  5
B0
330
1B
100
AcDbEntity
 67
     1
  8
SLD-0
  6
Continuous
 62
     7
100
AcDbLine
 10
97.2194072033
 20
255.7801033619
 30
0.0
 11
97.2194072033
 21
260.2801031682
 31
0.0
  0
LINE
  5
B1
330
1B
100
AcDbEntity
 67
     1
  8
SLD-0
  6
Continuous
 62
     7
100
AcDbLine
 10
166.7194063576
 20
255.2801031496
 30
0.0
 11
166.2194090696
 21
255.2801031496
 31
0.0
  0
LINE
  5
B2
330
1B
100
AcDbEntity
 67
     1
  8
SLD-0
  6
Continuous
 62
     7
100
AcDbLine
 10
98.2194053741
 20
255.2801031496
 30
0.0
 11
97.7194080861
 21
255.2801031496
 31
0.0
  0
LINE
  5
B3
330
1B
100
AcDbEntity
 67
     1
  8
SLD-0
  6
Continuous
 62
     7
100
AcDbLine
 10
166.2194090696
 20
255.2801031496
 30
0.0
 11
98.2194053741
 21
255.2801031496
 31
0.0
  0
LINE
  5
B4
330
1B
100
AcDbEntity
 67
     1
  8
SLD-0
  6
CENTER
 62
     7
100
AcDbLine
 10
132.2194073523
 20
181.0532211014
 30
0.0
 11
132.2194073523
 21
280.9088983303
 31
0.0
  0
LINE
  5
B5
330
1B
100
AcDbEntity
 67
     1
  8
SLD-0
  6
Continuous
 62
     7
100
AcDbLine
 10
30.1718109004
 20
19.8435834722
 30
0.0
 11
27.7302342086
 21
15.8657439043
 31
0.0
  0
LINE
  5
B6
330
1B
100
AcDbEntity
 67
     1
  8
SLD-0
  6
Continuous
 62
     7
100
AcDbLine
 10
27.7302342086
 20
15.8657439043
 30
0.0
 11
32.6523479069
 21
15.8657439043
 31
0.0
  0
LINE
  5
B7
330
1B
100
AcDbEntity
 67
     1
  8
SLD-0
  6
Continuous
 62
     7
100
AcDbLine
 10
32.6523479069
 20
15.8657439043
 30
0.0
 11
30.1718109004
 21
19.8435834722
 31
0.0
  0
LINE
  5
B8
330
1B
100
AcDbEntity
 67
     1
  8
SLD-0
  6
Continuous
 62
     7
100
AcDbLine
 10
30.2126559815
 20
25.2324736862
 30
0.0
 11
27.7710792897
 21
21.2546341184
 31
0.0
  0
LINE
  5
B9
330
1B
100
AcDbEntity
 67
     1
  8
SLD-0
  6
Continuous
 62
     7
100
AcDbLine
 10
27.7710792897
 20
21.2546341184
 30
0.0
 11
32.6931929881
 21
21.2546341184
 31
0.0
  0
LINE
  5
BA
330
1B
100
AcDbEntity
 67
     1
  8
SLD-0
  6
Continuous
 62
     7
100
AcDbLine
 10
32.6931929881
 20
21.2546341184
 30
0.0
 11
30.2126559815
 21
25.2324736862
 31
0.0
  0
LINE
  5
BB
330
1B
100
AcDbEntity
 67
     1
  8
SLD-0
  6
Continuous
 62
     7
100
AcDbLine
 10
30.2427566899
 20
30.7865477178
 30
0.0
 11
27.8011799981
 21
26.8087081499
 31
0.0
  0
LINE
  5
BC
330
1B
100
AcDbEntity
 67
     1
  8
SLD-0
  6
Continuous
 62
     7
100
AcDbLine
 10
27.8011799981
 20
26.8087081499
 30
0.0
 11
32.7232936965
 21
26.8087081499
 31
0.0
  0
LINE
  5
BD
330
1B
100
AcDbEntity
 67
     1
  8
SLD-0
  6
Continuous
 62
     7
100
AcDbLine
 10
32.7232936965
 20
26.8087081499
 30
0.0
 11
30.2427566899
 21
30.7865477178
 31
0.0
  0
LINE
  5
BE
330
1B
100
AcDbEntity
 67
     1
  8
SLD-0
  6
Continuous
 62
     7
100
AcDbLine
 10
291.0
 20
9.5
 30
0.0
 11
291.0
 21
31.5
 31
0.0
  0
LINE
  5
BF
330
1B
100
AcDbEntity
 67
     1
  8
SLD-0
  6
Continuous
 62
     7
100
AcDbLine
 10
358.5550076286
 20
30.9049236191
 30
0.0
 11
360.3667723576
 21
30.9049236191
 31
0.0
  0
LINE
  5
C0
330
1B
100
AcDbEntity
 67
     1
  8
SLD-0
  6
Continuous
 62
     7
370
    35
100
AcDbLine
 10
21.0
 20
9.5
 30
0.0
 11
408.5
 21
9.5
 31
0.0
  0
LINE
  5
C1
330
1B
100
AcDbEntity
 67
     1
  8
SLD-0
  6
Continuous
 62
     7
370
    35
100
AcDbLine
 10
21.0
 20
286.5
 30
0.0
 11
21.0
 21
9.5
 31
0.0
  0
LINE
  5
C2
330
1B
100
AcDbEntity
 67
     1
  8
SLD-0
  6
Continuous
 62
     7
370
    35
100
AcDbLine
 10
21.0
 20
31.5
 30
0.0
 11
138.0
 21
31.5
 31
0.0
  0
LINE
  5
C3
330
1B
100
AcDbEntity
 67
     1
  8
SLD-0
  6
Continuous
 62
     7
370
    35
100
AcDbLine
 10
408.5
 20
286.5
 30
0.0
 11
408.5
 21
9.5
 31
0.0
  0
LINE
  5
C4
330
1B
100
AcDbEntity
 67
     1
  8
SLD-0
  6
Continuous
 62
     7
370
    35
100
AcDbLine
 10
138.0
 20
31.5
 30
0.0
 11
408.5
 21
31.5
 31
0.0
  0
LINE
  5
C5
330
1B
100
AcDbEntity
 67
     1
  8
SLD-0
  6
Continuous
 62
     7
370
    35
100
AcDbLine
 10
21.0
 20
286.5
 30
0.0
 11
408.5
 21
286.5
 31
0.0
  0
LINE
  5
C6
330
1B
100
AcDbEntity
 67
     1
  8
SLD-0
  6
Continuous
 62
     7
100
AcDbLine
 10
26.5
 20
20.5
 30
0.0
 11
138.0
 21
20.5
 31
0.0
  0
LINE
  5
C7
330
1B
100
AcDbEntity
 67
     1
  8
SLD-0
  6
Continuous
 62
     7
100
AcDbLine
 10
49.5
 20
31.5
 30
0.0
 11
49.5
 21
9.5
 31
0.0
  0
LINE
  5
C8
330
1B
100
AcDbEntity
 67
     1
  8
SLD-0
  6
Continuous
 62
     7
100
AcDbLine
 10
26.5
 20
26.0
 30
0.0
 11
138.0
 21
26.0
 31
0.0
  0
LINE
  5
C9
330
1B
100
AcDbEntity
 67
     1
  8
SLD-0
  6
Continuous
 62
     7
100
AcDbLine
 10
34.5
 20
31.5
 30
0.0
 11
34.5
 21
9.5
 31
0.0
  0
LINE
  5
CA
330
1B
100
AcDbEntity
 67
     1
  8
SLD-0
  6
Continuous
 62
     7
100
AcDbLine
 10
26.5
 20
31.5
 30
0.0
 11
26.5
 21
9.5
 31
0.0
  0
LINE
  5
CB
330
1B
100
AcDbEntity
 67
     1
  8
SLD-0
  6
Continuous
 62
     7
100
AcDbLine
 10
26.5
 20
15.0
 30
0.0
 11
138.0
 21
15.0
 31
0.0
  0
LINE
  5
CC
330
1B
100
AcDbEntity
 67
     1
  8
SLD-0
  6
Continuous
 62
     7
100
AcDbLine
 10
203.0
 20
31.5
 30
0.0
 11
203.0
 21
9.5
 31
0.0
  0
LINE
  5
CD
330
1B
100
AcDbEntity
 67
     1
  8
SLD-0
  6
Continuous
 62
     7
100
AcDbLine
 10
198.0
 20
31.5
 30
0.0
 11
198.0
 21
9.5
 31
0.0
  0
LINE
  5
CE
330
1B
100
AcDbEntity
 67
     1
  8
SLD-0
  6
Continuous
 62
     7
100
AcDbLine
 10
143.0
 20
31.5
 30
0.0
 11
143.0
 21
9.5
 31
0.0
  0
LINE
  5
CF
330
1B
100
AcDbEntity
 67
     1
  8
SLD-0
  6
Continuous
 62
     7
100
AcDbLine
 10
138.0
 20
31.5
 30
0.0
 11
138.0
 21
20.5
 31
0.0
  0
LINE
  5
D0
330
1B
100
AcDbEntity
 67
     1
  8
SLD-0
  6
Continuous
 62
     7
100
AcDbLine
 10
59.5
 20
31.5
 30
0.0
 11
59.5
 21
9.5
 31
0.0
  0
LINE
  5
D1
330
1B
100
AcDbEntity
 67
     1
  8
SLD-0
  6
Continuous
 62
     7
100
AcDbLine
 10
231.0
 20
31.5
 30
0.0
 11
231.0
 21
20.5
 31
0.0
  0
LINE
  5
D2
330
1B
100
AcDbEntity
 67
     1
  8
SLD-0
  6
Continuous
 62
     7
100
AcDbLine
 10
236.0
 20
31.5
 30
0.0
 11
236.0
 21
20.5
 31
0.0
  0
LINE
  5
D3
330
1B
100
AcDbEntity
 67
     1
  8
SLD-0
  6
Continuous
 62
     7
100
AcDbLine
 10
251.0
 20
31.5
 30
0.0
 11
251.0
 21
20.5
 31
0.0
  0
LINE
  5
D4
330
1B
100
AcDbEntity
 67
     1
  8
SLD-0
  6
Continuous
 62
     7
100
AcDbLine
 10
256.0
 20
31.5
 30
0.0
 11
256.0
 21
20.5
 31
0.0
  0
LINE
  5
D5
330
1B
100
AcDbEntity
 67
     1
  8
SLD-0
  6
Continuous
 62
     7
100
AcDbLine
 10
296.0
 20
31.5
 30
0.0
 11
296.0
 21
20.5
 31
0.0
  0
LINE
  5
D6
330
1B
100
AcDbEntity
 67
     1
  8
SLD-0
  6
Continuous
 62
     7
100
AcDbLine
 10
311.0
 20
31.5
 30
0.0
 11
311.0
 21
9.5
 31
0.0
  0
LINE
  5
D7
330
1B
100
AcDbEntity
 67
     1
  8
SLD-0
  6
Continuous
 62
     7
100
AcDbLine
 10
326.0
 20
31.5
 30
0.0
 11
326.0
 21
9.5
 31
0.0
  0
LINE
  5
D8
330
1B
100
AcDbEntity
 67
     1
  8
SLD-0
  6
Continuous
 62
     7
100
AcDbLine
 10
341.0
 20
31.5
 30
0.0
 11
341.0
 21
9.5
 31
0.0
  0
LINE
  5
D9
330
1B
100
AcDbEntity
 67
     1
  8
SLD-0
  6
Continuous
 62
     7
100
AcDbLine
 10
356.0
 20
31.5
 30
0.0
 11
356.0
 21
9.5
 31
0.0
  0
LINE
  5
DA
330
1B
100
AcDbEntity
 67
     1
  8
SLD-0
  6
Continuous
 62
     7
100
AcDbLine
 10
356.0
 20
20.5
 30
0.0
 11
408.5
 21
20.5
 31
0.0
  0
LINE
  5
DB
330
1B
100
AcDbEntity
 67
     1
  8
SLD-0
  6
Continuous
 62
     7
100
AcDbLine
 10
361.0
 20
20.5
 30
0.0
 11
361.0
 21
9.5
 31
0.0
  0
LINE
  5
DC
330
1B
100
AcDbEntity
 67
     1
  8
SLD-0
  6
Continuous
 62
     7
100
AcDbLine
 10
311.0
 20
26.5
 30
0.0
 11
356.0
 21
26.5
 31
0.0
  0
LINE
  5
DD
330
1B
100
AcDbEntity
 67
     1
  8
SLD-0
  6
Continuous
 62
     7
100
AcDbLine
 10
138.0
 20
20.5
 30
0.0
 11
311.0
 21
20.5
 31
0.0
  0
LINE
  5
DE
330
1B
100
AcDbEntity
 67
     1
  8
SLD-0
  6
Continuous
 62
     7
100
AcDbLine
 10
138.0
 20
20.5
 30
0.0
 11
138.0
 21
9.5
 31
0.0
  0
LINE
  5
DF
330
1B
100
AcDbEntity
 67
     1
  8
SLD-0
  6
Continuous
 62
     7
100
AcDbLine
 10
360.3667723576
 20
25.922570647
 30
0.0
 11
361.6123606662
 21
25.922570647
 31
0.0
  0
LINE
  5
E0
330
1B
100
AcDbEntity
 67
     1
  8
SLD-0
  6
Continuous
 62
     7
100
AcDbLine
 10
358.5550076286
 20
24.790217675
 30
0.0
 11
363.1976547877
 21
24.790217675
 31
0.0
  0
LINE
  5
E1
330
1B
100
AcDbEntity
 67
     1
  8
SLD-0
  6
Continuous
 62
     7
100
AcDbLine
 10
358.5550076286
 20
30.9049236191
 30
0.0
 11
358.5550076286
 21
24.790217675
 31
0.0
  0
LINE
  5
E2
330
1B
100
AcDbEntity
 67
     1
  8
SLD-0
  6
Continuous
 62
     7
100
AcDbLine
 10
360.3667723576
 20
30.9049236191
 30
0.0
 11
360.3667723576
 21
25.922570647
 31
0.0
  0
LINE
  5
E3
330
1B
100
AcDbEntity
 67
     1
  8
SLD-0
  6
Continuous
 62
     7
100
AcDbLine
 10
361.6123606662
 20
30.9049236191
 30
0.0
 11
361.6123606662
 21
25.922570647
 31
0.0
  0
LINE
  5
E4
330
1B
100
AcDbEntity
 67
     1
  8
SLD-0
  6
Continuous
 62
     7
100
AcDbLine
 10
363.1976547877
 20
30.9049236191
 30
0.0
 11
363.1976547877
 21
26.8284528149
 31
0.0
  0
LINE
  5
E5
330
1B
100
AcDbEntity
 67
     1
  8
SLD-0
  6
Continuous
 62
     7
100
AcDbLine
 10
364.4432428996
 20
30.9049236191
 30
0.0
 11
364.4432428996
 21
26.8284528149
 31
0.0
  0
LINE
  5
E6
330
1B
100
AcDbEntity
 67
     1
  8
SLD-0
  6
Continuous
 62
     7
100
AcDbLine
 10
366.2550076286
 20
30.9049236191
 30
0.0
 11
366.2550076286
 21
25.922570647
 31
0.0
  0
LINE
  5
E7
330
1B
100
AcDbEntity
 67
     1
  8
SLD-0
  6
Continuous
 62
     7
100
AcDbLine
 10
361.6123606662
 20
30.9049236191
 30
0.0
 11
363.1976547877
 21
30.9049236191
 31
0.0
  0
LINE
  5
E8
330
1B
100
AcDbEntity
 67
     1
  8
SLD-0
  6
Continuous
 62
     7
100
AcDbLine
 10
364.4432428996
 20
30.9049236191
 30
0.0
 11
366.2550076286
 21
30.9049236191
 31
0.0
  0
LINE
  5
E9
330
1B
100
AcDbEntity
 67
     1
  8
SLD-0
  6
Continuous
 62
     7
100
AcDbLine
 10
363.1976547877
 20
26.8284528149
 30
0.0
 11
364.4432428996
 21
26.8284528149
 31
0.0
  0
LINE
  5
EA
330
1B
100
AcDbEntity
 67
     1
  8
SLD-0
  6
Continuous
 62
     7
100
AcDbLine
 10
363.1976547877
 20
25.922570647
 30
0.0
 11
366.2550076286
 21
25.922570647
 31
0.0
  0
LINE
  5
EB
330
1B
100
AcDbEntity
 67
     1
  8
SLD-0
  6
Continuous
 62
     7
100
AcDbLine
 10
363.1976547877
 20
25.922570647
 30
0.0
 11
363.1976547877
 21
24.790217675
 31
0.0
  0
LINE
  5
EC
330
1B
100
AcDbEntity
 67
     1
  8
SLD-0
  6
Continuous
 62
     7
100
AcDbLine
 10
123.0
 20
31.5
 30
0.0
 11
123.0
 21
9.5
 31
0.0
  0
LINE
  5
ED
330
1B
100
AcDbEntity
 67
     1
  8
SLD-0
  6
PHANTOM
 62
     7
100
AcDbLine
 10
237.7224750929
 20
9.5
 30
0.0
 11
291.0
 21
9.5
 31
0.0
  0
LINE
  5
EE
330
1B
100
AcDbEntity
 67
     1
  8
SLD-0
  6
Continuous
 62
     7
100
AcDbLine
 10
133.3194073463
 20
99.9675685573
 30
0.0
 11
133.1736575753
 21
99.9426696482
 31
0.0
  0
LINE
  5
EF
330
1B
100
AcDbEntity
 67
     1
  8
SLD-0
  6
Continuous
 62
     7
100
AcDbLine
 10
133.1736575753
 20
99.9426696482
 30
0.0
 11
132.2194073523
 21
99.8675687271
 31
0.0
  0
LINE
  5
F0
330
1B
100
AcDbEntity
 67
     1
  8
SLD-0
  6
Continuous
 62
     7
100
AcDbLine
 10
133.1561747879
 20
99.9675685573
 30
0.0
 11
133.0404919112
 21
99.9436575012
 31
0.0
  0
LINE
  5
F1
330
1B
100
AcDbEntity
 67
     1
  8
SLD-0
  6
Continuous
 62
     7
100
AcDbLine
 10
133.0404919112
 20
99.9436575012
 30
0.0
 11
132.9249524069
 21
99.9189280712
 31
0.0
  0
LINE
  5
F2
330
1B
100
AcDbEntity
 67
     1
  8
SLD-0
  6
Continuous
 62
     7
100
AcDbLine
 10
132.6915656559
 20
99.883654987
 30
0.0
 11
132.5737390635
 21
99.8752514261
 31
0.0
  0
LINE
  5
F3
330
1B
100
AcDbEntity
 67
     1
  8
SLD-0
  6
Continuous
 62
     7
100
AcDbLine
 10
132.5737390635
 20
99.8752514261
 30
0.0
 11
132.4556563842
 21
99.871363011
 31
0.0
  0
LINE
  5
F4
330
1B
100
AcDbEntity
 67
     1
  8
SLD-0
  6
Continuous
 62
     7
100
AcDbLine
 10
132.4556563842
 20
99.871363011
 30
0.0
 11
132.337540165
 21
99.8696652244
 31
0.0
  0
LINE
  5
F5
330
1B
100
AcDbEntity
 67
     1
  8
SLD-0
  6
Continuous
 62
     7
100
AcDbLine
 10
132.337540165
 20
99.8696652244
 30
0.0
 11
132.2194073523
 21
99.8675687271
 31
0.0
  0
LINE
  5
F6
330
1B
100
AcDbEntity
 67
     1
  8
SLD-0
  6
Continuous
 62
     7
100
AcDbLine
 10
132.2194073523
 20
99.8675687271
 30
0.0
 11
131.2651571293
 21
99.9426696482
 31
0.0
  0
LINE
  5
F7
330
1B
100
AcDbEntity
 67
     1
  8
SLD-0
  6
Continuous
 62
     7
100
AcDbLine
 10
131.2651571293
 20
99.9426696482
 30
0.0
 11
131.1194073582
 21
99.9675685573
 31
0.0
  0
LINE
  5
F8
330
1B
100
AcDbEntity
 67
     1
  8
SLD-0
  6
Continuous
 62
     7
100
AcDbLine
 10
132.2194073523
 20
99.8675687271
 30
0.0
 11
132.0752589252
 21
99.869515343
 31
0.0
  0
LINE
  5
F9
330
1B
100
AcDbEntity
 67
     1
  8
SLD-0
  6
Continuous
 62
     7
100
AcDbLine
 10
132.0752589252
 20
99.869515343
 30
0.0
 11
131.9306031431
 21
99.8668469925
 31
0.0
  0
LINE
  5
FA
330
1B
100
AcDbEntity
 67
     1
  8
SLD-0
  6
Continuous
 62
     7
100
AcDbLine
 10
131.645260942
 20
99.8982673926
 30
0.0
 11
131.5057802143
 21
99.9349631833
 31
0.0
  0
LINE
  5
FB
330
1B
100
AcDbEntity
 67
     1
  8
SLD-0
  6
Continuous
 62
     7
100
AcDbLine
 10
131.5057802143
 20
99.9349631833
 30
0.0
 11
131.365398463
 21
99.9675685573
 31
0.0
  0
LINE
  5
FC
330
1B
100
AcDbEntity
 67
     1
  8
SLD-0
  6
Continuous
 62
     7
100
AcDbLine
 10
138.2194074044
 20
123.8631535354
 30
0.0
 11
138.1798196757
 21
123.2994947615
 31
0.0
  0
LINE
  5
FD
330
1B
100
AcDbEntity
 67
     1
  8
SLD-0
  6
Continuous
 62
     7
100
AcDbLine
 10
138.1798196757
 20
123.2994947615
 30
0.0
 11
138.0049284721
 21
122.5607920471
 31
0.0
  0
LINE
  5
FE
330
1B
100
AcDbEntity
 67
     1
  8
SLD-0
  6
Continuous
 62
     7
100
AcDbLine
 10
138.0049284721
 20
122.5607920471
 30
0.0
 11
137.694429251
 21
121.852616224
 31
0.0
  0
LINE
  5
FF
330
1B
100
AcDbEntity
 67
     1
  8
SLD-0
  6
Continuous
 62
     7
100
AcDbLine
 10
137.694429251
 20
121.852616224
 30
0.0
 11
137.2555998327
 21
121.1915662545
 31
0.0
  0
LINE
  5
100
330
1B
100
AcDbEntity
 67
     1
  8
SLD-0
  6
Continuous
 62
     7
100
AcDbLine
 10
137.2555998327
 20
121.1915662545
 30
0.0
 11
136.6987266751
 21
120.5931356209
 31
0.0
  0
LINE
  5
101
330
1B
100
AcDbEntity
 67
     1
  8
SLD-0
  6
Continuous
 62
     7
100
AcDbLine
 10
136.6987266751
 20
120.5931356209
 30
0.0
 11
136.0368620312
 21
120.071351904
 31
0.0
  0
LINE
  5
102
330
1B
100
AcDbEntity
 67
     1
  8
SLD-0
  6
Continuous
 62
     7
100
AcDbLine
 10
136.0368620312
 20
120.071351904
 30
0.0
 11
135.2855194068
 21
119.6384443003
 31
0.0
  0
LINE
  5
103
330
1B
100
AcDbEntity
 67
     1
  8
SLD-0
  6
Continuous
 62
     7
100
AcDbLine
 10
135.2855194068
 20
119.6384443003
 30
0.0
 11
134.4623098789
 21
119.3045605007
 31
0.0
  0
LINE
  5
104
330
1B
100
AcDbEntity
 67
     1
  8
SLD-0
  6
Continuous
 62
     7
100
AcDbLine
 10
134.4623098789
 20
119.3045605007
 30
0.0
 11
133.5865283558
 21
119.0775254774
 31
0.0
  0
LINE
  5
105
330
1B
100
AcDbEntity
 67
     1
  8
SLD-0
  6
Continuous
 62
     7
100
AcDbLine
 10
133.5865283558
 20
119.0775254774
 30
0.0
 11
132.6787028752
 21
118.9626626703
 31
0.0
  0
LINE
  5
106
330
1B
100
AcDbEntity
 67
     1
  8
SLD-0
  6
Continuous
 62
     7
100
AcDbLine
 10
132.6787028752
 20
118.9626626703
 30
0.0
 11
131.7601118294
 21
118.9626626703
 31
0.0
  0
LINE
  5
107
330
1B
100
AcDbEntity
 67
     1
  8
SLD-0
  6
Continuous
 62
     7
100
AcDbLine
 10
131.7601118294
 20
118.9626626703
 30
0.0
 11
130.8522863487
 21
119.0775254774
 31
0.0
  0
LINE
  5
108
330
1B
100
AcDbEntity
 67
     1
  8
SLD-0
  6
Continuous
 62
     7
100
AcDbLine
 10
130.8522863487
 20
119.0775254774
 30
0.0
 11
129.9765048256
 21
119.3045605007
 31
0.0
  0
LINE
  5
109
330
1B
100
AcDbEntity
 67
     1
  8
SLD-0
  6
Continuous
 62
     7
100
AcDbLine
 10
129.9765048256
 20
119.3045605007
 30
0.0
 11
129.1532952978
 21
119.6384443003
 31
0.0
  0
LINE
  5
10A
330
1B
100
AcDbEntity
 67
     1
  8
SLD-0
  6
Continuous
 62
     7
100
AcDbLine
 10
129.1532952978
 20
119.6384443003
 30
0.0
 11
128.4019526733
 21
120.071351904
 31
0.0
  0
LINE
  5
10B
330
1B
100
AcDbEntity
 67
     1
  8
SLD-0
  6
Continuous
 62
     7
100
AcDbLine
 10
128.4019526733
 20
120.071351904
 30
0.0
 11
127.7400880294
 21
120.5931356209
 31
0.0
  0
LINE
  5
10C
330
1B
100
AcDbEntity
 67
     1
  8
SLD-0
  6
Continuous
 62
     7
100
AcDbLine
 10
127.7400880294
 20
120.5931356209
 30
0.0
 11
127.1832148718
 21
121.1915662545
 31
0.0
  0
LINE
  5
10D
330
1B
100
AcDbEntity
 67
     1
  8
SLD-0
  6
Continuous
 62
     7
100
AcDbLine
 10
127.1832148718
 20
121.1915662545
 30
0.0
 11
126.7443854535
 21
121.852616224
 31
0.0
  0
LINE
  5
10E
330
1B
100
AcDbEntity
 67
     1
  8
SLD-0
  6
Continuous
 62
     7
100
AcDbLine
 10
126.7443854535
 20
121.852616224
 30
0.0
 11
126.4338862324
 21
122.5607920471
 31
0.0
  0
LINE
  5
10F
330
1B
100
AcDbEntity
 67
     1
  8
SLD-0
  6
Continuous
 62
     7
100
AcDbLine
 10
126.4338862324
 20
122.5607920471
 30
0.0
 11
126.2589950288
 21
123.2994947615
 31
0.0
  0
LINE
  5
110
330
1B
100
AcDbEntity
 67
     1
  8
SLD-0
  6
Continuous
 62
     7
100
AcDbLine
 10
126.2589950288
 20
123.2994947615
 30
0.0
 11
126.2194603855
 21
123.8837767425
 31
0.0
  0
LINE
  5
111
330
1B
100
AcDbEntity
 67
     1
  8
SLD-0
  6
Continuous
 62
     7
100
AcDbLine
 10
287.8076949876
 20
99.967736661
 30
0.0
 11
287.8544934319
 21
99.9773829676
 31
0.0
  0
LINE
  5
112
330
1B
100
AcDbEntity
 67
     1
  8
SLD-0
  6
Continuous
 62
     7
100
AcDbLine
 10
287.8544934319
 20
99.9773829676
 30
0.0
 11
287.9051506796
 21
99.9875380242
 31
0.0
  0
LINE
  5
113
330
1B
100
AcDbEntity
 67
     1
  8
SLD-0
  6
Continuous
 62
     7
100
AcDbLine
 10
287.9051506796
 20
99.9875380242
 30
0.0
 11
287.9561707734
 21
99.9970958267
 31
0.0
  0
LINE
  5
114
330
1B
100
AcDbEntity
 67
     1
  8
SLD-0
  6
Continuous
 62
     7
100
AcDbLine
 10
287.9561707734
 20
99.9970958267
 30
0.0
 11
288.0061369113
 21
100.0060621114
 31
0.0
  0
LINE
  5
115
330
1B
100
AcDbEntity
 67
     1
  8
SLD-0
  6
Continuous
 62
     7
100
AcDbLine
 10
288.0061369113
 20
100.0060621114
 30
0.0
 11
288.0563456642
 21
100.01481022
 31
0.0
  0
LINE
  5
116
330
1B
100
AcDbEntity
 67
     1
  8
SLD-0
  6
Continuous
 62
     7
100
AcDbLine
 10
288.0563456642
 20
100.01481022
 30
0.0
 11
288.1068341424
 21
100.0230553529
 31
0.0
  0
LINE
  5
117
330
1B
100
AcDbEntity
 67
     1
  8
SLD-0
  6
Continuous
 62
     7
100
AcDbLine
 10
288.1068341424
 20
100.0230553529
 30
0.0
 11
288.1572884653
 21
100.0308120995
 31
0.0
  0
LINE
  5
118
330
1B
100
AcDbEntity
 67
     1
  8
SLD-0
  6
Continuous
 62
     7
100
AcDbLine
 10
288.1572884653
 20
100.0308120995
 30
0.0
 11
288.2077682959
 21
100.0382576351
 31
0.0
  0
LINE
  5
119
330
1B
100
AcDbEntity
 67
     1
  8
SLD-0
  6
Continuous
 62
     7
100
AcDbLine
 10
288.2077682959
 20
100.0382576351
 30
0.0
 11
288.2583284874
 21
100.0453212604
 31
0.0
  0
LINE
  5
11A
330
1B
100
AcDbEntity
 67
     1
  8
SLD-0
  6
Continuous
 62
     7
100
AcDbLine
 10
288.2583284874
 20
100.0453212604
 30
0.0
 11
288.3089434119
 21
100.0519468072
 31
0.0
  0
LINE
  5
11B
330
1B
100
AcDbEntity
 67
     1
  8
SLD-0
  6
Continuous
 62
     7
100
AcDbLine
 10
288.3089434119
 20
100.0519468072
 30
0.0
 11
288.3596081227
 21
100.0581559475
 31
0.0
  0
LINE
  5
11C
330
1B
100
AcDbEntity
 67
     1
  8
SLD-0
  6
Continuous
 62
     7
100
AcDbLine
 10
288.3596081227
 20
100.0581559475
 30
0.0
 11
288.4103248457
 21
100.0639439709
 31
0.0
  0
LINE
  5
11D
330
1B
100
AcDbEntity
 67
     1
  8
SLD-0
  6
Continuous
 62
     7
100
AcDbLine
 10
288.4103248457
 20
100.0639439709
 30
0.0
 11
288.4610891666
 21
100.0692998641
 31
0.0
  0
LINE
  5
11E
330
1B
100
AcDbEntity
 67
     1
  8
SLD-0
  6
Continuous
 62
     7
100
AcDbLine
 10
288.4610891666
 20
100.0692998641
 30
0.0
 11
288.5118967807
 21
100.0742235548
 31
0.0
  0
LINE
  5
11F
330
1B
100
AcDbEntity
 67
     1
  8
SLD-0
  6
Continuous
 62
     7
100
AcDbLine
 10
288.5118967807
 20
100.0742235548
 30
0.0
 11
288.5627444311
 21
100.078715634
 31
0.0
  0
LINE
  5
120
330
1B
100
AcDbEntity
 67
     1
  8
SLD-0
  6
Continuous
 62
     7
100
AcDbLine
 10
288.5627444311
 20
100.078715634
 30
0.0
 11
288.6136284749
 21
100.0827751293
 31
0.0
  0
LINE
  5
121
330
1B
100
AcDbEntity
 67
     1
  8
SLD-0
  6
Continuous
 62
     7
100
AcDbLine
 10
288.6136284749
 20
100.0827751293
 30
0.0
 11
288.6645450796
 21
100.0864025141
 31
0.0
  0
LINE
  5
122
330
1B
100
AcDbEntity
 67
     1
  8
SLD-0
  6
Continuous
 62
     7
100
AcDbLine
 10
288.6645450796
 20
100.0864025141
 30
0.0
 11
288.7152453477
 21
100.0895850964
 31
0.0
  0
LINE
  5
123
330
1B
100
AcDbEntity
 67
     1
  8
SLD-0
  6
Continuous
 62
     7
100
AcDbLine
 10
288.7152453477
 20
100.0895850964
 30
0.0
 11
288.7662167848
 21
100.0923415843
 31
0.0
  0
LINE
  5
124
330
1B
100
AcDbEntity
 67
     1
  8
SLD-0
  6
Continuous
 62
     7
100
AcDbLine
 10
288.7662167848
 20
100.0923415843
 30
0.0
 11
288.8172109099
 21
100.0946314357
 31
0.0
  0
LINE
  5
125
330
1B
100
AcDbEntity
 67
     1
  8
SLD-0
  6
Continuous
 62
     7
100
AcDbLine
 10
288.8172109099
 20
100.0946314357
 30
0.0
 11
288.8682229145
 21
100.0964788128
 31
0.0
  0
LINE
  5
126
330
1B
100
AcDbEntity
 67
     1
  8
SLD-0
  6
Continuous
 62
     7
100
AcDbLine
 10
288.8682229145
 20
100.0964788128
 30
0.0
 11
288.9192473134
 21
100.0979583929
 31
0.0
  0
LINE
  5
127
330
1B
100
AcDbEntity
 67
     1
  8
SLD-0
  6
Continuous
 62
     7
100
AcDbLine
 10
288.9192473134
 20
100.0979583929
 30
0.0
 11
288.9702806916
 21
100.0990821719
 31
0.0
  0
LINE
  5
128
330
1B
100
AcDbEntity
 67
     1
  8
SLD-0
  6
Continuous
 62
     7
100
AcDbLine
 10
288.9702806916
 20
100.0990821719
 30
0.0
 11
289.0213213682
 21
100.0997828445
 31
0.0
  0
LINE
  5
129
330
1B
100
AcDbEntity
 67
     1
  8
SLD-0
  6
Continuous
 62
     7
100
AcDbLine
 10
289.0213213682
 20
100.0997828445
 30
0.0
 11
289.07236702
 21
100.0999907885
 31
0.0
  0
LINE
  5
12A
330
1B
100
AcDbEntity
 67
     1
  8
SLD-0
  6
Continuous
 62
     7
100
AcDbLine
 10
289.07236702
 20
100.0999907885
 30
0.0
 11
289.1234126937
 21
100.099662051
 31
0.0
  0
LINE
  5
12B
330
1B
100
AcDbEntity
 67
     1
  8
SLD-0
  6
Continuous
 62
     7
100
AcDbLine
 10
289.1234126937
 20
100.099662051
 30
0.0
 11
289.1744508471
 21
100.098767917
 31
0.0
  0
LINE
  5
12C
330
1B
100
AcDbEntity
 67
     1
  8
SLD-0
  6
Continuous
 62
     7
100
AcDbLine
 10
289.1744508471
 20
100.098767917
 30
0.0
 11
289.2254737817
 21
100.0973106653
 31
0.0
  0
LINE
  5
12D
330
1B
100
AcDbEntity
 67
     1
  8
SLD-0
  6
Continuous
 62
     7
100
AcDbLine
 10
289.2254737817
 20
100.0973106653
 30
0.0
 11
289.2764835074
 21
100.0954311606
 31
0.0
  0
LINE
  5
12E
330
1B
100
AcDbEntity
 67
     1
  8
SLD-0
  6
Continuous
 62
     7
100
AcDbLine
 10
289.2764835074
 20
100.0954311606
 30
0.0
 11
289.3274858576
 21
100.0933079289
 31
0.0
  0
LINE
  5
12F
330
1B
100
AcDbEntity
 67
     1
  8
SLD-0
  6
Continuous
 62
     7
100
AcDbLine
 10
289.3274858576
 20
100.0933079289
 30
0.0
 11
289.3784827304
 21
100.0909993468
 31
0.0
  0
LINE
  5
130
330
1B
100
AcDbEntity
 67
     1
  8
SLD-0
  6
Continuous
 62
     7
100
AcDbLine
 10
289.3784827304
 20
100.0909993468
 30
0.0
 11
289.4294614752
 21
100.0883480353
 31
0.0
  0
LINE
  5
131
330
1B
100
AcDbEntity
 67
     1
  8
SLD-0
  6
Continuous
 62
     7
100
AcDbLine
 10
289.4294614752
 20
100.0883480353
 30
0.0
 11
289.4806478138
 21
100.0851575924
 31
0.0
  0
LINE
  5
132
330
1B
100
AcDbEntity
 67
     1
  8
SLD-0
  6
Continuous
 62
     7
100
AcDbLine
 10
289.4806478138
 20
100.0851575924
 30
0.0
 11
289.5315458968
 21
100.0813242568
 31
0.0
  0
LINE
  5
133
330
1B
100
AcDbEntity
 67
     1
  8
SLD-0
  6
Continuous
 62
     7
100
AcDbLine
 10
289.5315458968
 20
100.0813242568
 30
0.0
 11
289.582397166
 21
100.0768874212
 31
0.0
  0
LINE
  5
134
330
1B
100
AcDbEntity
 67
     1
  8
SLD-0
  6
Continuous
 62
     7
100
AcDbLine
 10
289.582397166
 20
100.0768874212
 30
0.0
 11
289.6332033123
 21
100.0719467327
 31
0.0
  0
LINE
  5
135
330
1B
100
AcDbEntity
 67
     1
  8
SLD-0
  6
Continuous
 62
     7
100
AcDbLine
 10
289.6332033123
 20
100.0719467327
 30
0.0
 11
289.6839683604
 21
100.0665902265
 31
0.0
  0
LINE
  5
136
330
1B
100
AcDbEntity
 67
     1
  8
SLD-0
  6
Continuous
 62
     7
100
AcDbLine
 10
289.6839683604
 20
100.0665902265
 30
0.0
 11
289.7346891343
 21
100.0608406341
 31
0.0
  0
LINE
  5
137
330
1B
100
AcDbEntity
 67
     1
  8
SLD-0
  6
Continuous
 62
     7
100
AcDbLine
 10
289.7346891343
 20
100.0608406341
 30
0.0
 11
289.7853632935
 21
100.0546967704
 31
0.0
  0
LINE
  5
138
330
1B
100
AcDbEntity
 67
     1
  8
SLD-0
  6
Continuous
 62
     7
100
AcDbLine
 10
289.7853632935
 20
100.0546967704
 30
0.0
 11
289.8359895395
 21
100.0481574849
 31
0.0
  0
LINE
  5
139
330
1B
100
AcDbEntity
 67
     1
  8
SLD-0
  6
Continuous
 62
     7
100
AcDbLine
 10
289.8359895395
 20
100.0481574849
 30
0.0
 11
289.8865651747
 21
100.0412266579
 31
0.0
  0
LINE
  5
13A
330
1B
100
AcDbEntity
 67
     1
  8
SLD-0
  6
Continuous
 62
     7
100
AcDbLine
 10
289.8865651747
 20
100.0412266579
 30
0.0
 11
289.9370816419
 21
100.0339139108
 31
0.0
  0
LINE
  5
13B
330
1B
100
AcDbEntity
 67
     1
  8
SLD-0
  6
Continuous
 62
     7
100
AcDbLine
 10
289.9370816419
 20
100.0339139108
 30
0.0
 11
289.9875317023
 21
100.0262113833
 31
0.0
  0
LINE
  5
13C
330
1B
100
AcDbEntity
 67
     1
  8
SLD-0
  6
Continuous
 62
     7
100
AcDbLine
 10
289.9875317023
 20
100.0262113833
 30
0.0
 11
290.0379231433
 21
100.0180836704
 31
0.0
  0
LINE
  5
13D
330
1B
100
AcDbEntity
 67
     1
  8
SLD-0
  6
Continuous
 62
     7
100
AcDbLine
 10
290.0379231433
 20
100.0180836704
 30
0.0
 11
290.088275687
 21
100.0095038603
 31
0.0
  0
LINE
  5
13E
330
1B
100
AcDbEntity
 67
     1
  8
SLD-0
  6
Continuous
 62
     7
100
AcDbLine
 10
290.088275687
 20
100.0095038603
 30
0.0
 11
290.1384841217
 21
100.0005127449
 31
0.0
  0
LINE
  5
13F
330
1B
100
AcDbEntity
 67
     1
  8
SLD-0
  6
Continuous
 62
     7
100
AcDbLine
 10
290.1384841217
 20
100.0005127449
 30
0.0
 11
290.1886353944
 21
99.9911399632
 31
0.0
  0
LINE
  5
140
330
1B
100
AcDbEntity
 67
     1
  8
SLD-0
  6
Continuous
 62
     7
100
AcDbLine
 10
290.1886353944
 20
99.9911399632
 30
0.0
 11
290.2386178087
 21
99.9814558514
 31
0.0
  0
LINE
  5
141
330
1B
100
AcDbEntity
 67
     1
  8
SLD-0
  6
Continuous
 62
     7
100
AcDbLine
 10
290.2386178087
 20
99.9814558514
 30
0.0
 11
290.2879785947
 21
99.9714967489
 31
0.0
  0
LINE
  5
142
330
1B
100
AcDbEntity
 67
     1
  8
SLD-0
  6
Continuous
 62
     7
100
AcDbLine
 10
290.2879785947
 20
99.9714967489
 30
0.0
 11
290.2790004175
 21
99.9733092296
 31
0.0
  0
LINE
  5
143
330
1B
100
AcDbEntity
 67
     1
  8
SLD-0
  6
Continuous
 62
     7
100
AcDbLine
 10
240.861425418
 20
120.0624239424
 30
0.0
 11
240.9021066289
 21
120.1205192166
 31
0.0
  0
LINE
  5
144
330
1B
100
AcDbEntity
 67
     1
  8
SLD-0
  6
Continuous
 62
     7
100
AcDbLine
 10
240.9021066289
 20
120.1205192166
 30
0.0
 11
241.023029552
 21
120.2932199496
 31
0.0
  0
LINE
  5
145
330
1B
100
AcDbEntity
 67
     1
  8
SLD-0
  6
Continuous
 62
     7
100
AcDbLine
 10
241.023029552
 20
120.2932199496
 30
0.0
 11
241.2209095221
 21
120.5758167463
 31
0.0
  0
LINE
  5
146
330
1B
100
AcDbEntity
 67
     1
  8
SLD-0
  6
Continuous
 62
     7
100
AcDbLine
 10
241.2209095221
 20
120.5758167463
 30
0.0
 11
241.4903374177
 21
120.9605991873
 31
0.0
  0
LINE
  5
147
330
1B
100
AcDbEntity
 67
     1
  8
SLD-0
  6
Continuous
 62
     7
100
AcDbLine
 10
241.4903374177
 20
120.9605991873
 30
0.0
 11
241.8239669662
 21
121.4370721984
 31
0.0
  0
LINE
  5
148
330
1B
100
AcDbEntity
 67
     1
  8
SLD-0
  6
Continuous
 62
     7
100
AcDbLine
 10
241.8239669662
 20
121.4370721984
 30
0.0
 11
242.2126935583
 21
121.9922401044
 31
0.0
  0
LINE
  5
149
330
1B
100
AcDbEntity
 67
     1
  8
SLD-0
  6
Continuous
 62
     7
100
AcDbLine
 10
242.2126935583
 20
121.9922401044
 30
0.0
 11
242.6459299188
 21
122.6109568062
 31
0.0
  0
LINE
  5
14A
330
1B
100
AcDbEntity
 67
     1
  8
SLD-0
  6
Continuous
 62
     7
100
AcDbLine
 10
242.6459299188
 20
122.6109568062
 30
0.0
 11
243.1118370753
 21
123.2763476702
 31
0.0
  0
LINE
  5
14B
330
1B
100
AcDbEntity
 67
     1
  8
SLD-0
  6
Continuous
 62
     7
100
AcDbLine
 10
243.1118370753
 20
123.2763476702
 30
0.0
 11
243.5977192383
 21
123.9702612194
 31
0.0
  0
LINE
  5
14C
330
1B
100
AcDbEntity
 67
     1
  8
SLD-0
  6
Continuous
 62
     7
100
AcDbLine
 10
243.5977192383
 20
123.9702612194
 30
0.0
 11
244.0903218251
 21
124.6737692538
 31
0.0
  0
LINE
  5
14D
330
1B
100
AcDbEntity
 67
     1
  8
SLD-0
  6
Continuous
 62
     7
100
AcDbLine
 10
244.0903218251
 20
124.6737692538
 30
0.0
 11
244.5762039881
 21
125.367682803
 31
0.0
  0
LINE
  5
14E
330
1B
100
AcDbEntity
 67
     1
  8
SLD-0
  6
Continuous
 62
     7
100
AcDbLine
 10
244.5762039881
 20
125.367682803
 30
0.0
 11
245.0421185952
 21
126.0330718043
 31
0.0
  0
LINE
  5
14F
330
1B
100
AcDbEntity
 67
     1
  8
SLD-0
  6
Continuous
 62
     7
100
AcDbLine
 10
245.0421185952
 20
126.0330718043
 30
0.0
 11
245.4753475051
 21
126.6517903688
 31
0.0
  0
LINE
  5
150
330
1B
100
AcDbEntity
 67
     1
  8
SLD-0
  6
Continuous
 62
     7
100
AcDbLine
 10
245.4753475051
 20
126.6517903688
 30
0.0
 11
245.8640815478
 21
127.2069573435
 31
0.0
  0
LINE
  5
151
330
1B
100
AcDbEntity
 67
     1
  8
SLD-0
  6
Continuous
 62
     7
100
AcDbLine
 10
245.8640815478
 20
127.2069573435
 30
0.0
 11
246.1977110963
 21
127.6834294233
 31
0.0
  0
LINE
  5
152
330
1B
100
AcDbEntity
 67
     1
  8
SLD-0
  6
Continuous
 62
     7
100
AcDbLine
 10
246.1977110963
 20
127.6834294233
 30
0.0
 11
246.4671389919
 21
128.0682127955
 31
0.0
  0
LINE
  5
153
330
1B
100
AcDbEntity
 67
     1
  8
SLD-0
  6
Continuous
 62
     7
100
AcDbLine
 10
246.4671389919
 20
128.0682127955
 30
0.0
 11
246.6650115114
 21
128.3508095923
 31
0.0
  0
LINE
  5
154
330
1B
100
AcDbEntity
 67
     1
  8
SLD-0
  6
Continuous
 62
     7
100
AcDbLine
 10
246.6650115114
 20
128.3508095923
 30
0.0
 11
246.785941885
 21
128.5235103252
 31
0.0
  0
LINE
  5
155
330
1B
100
AcDbEntity
 67
     1
  8
SLD-0
  6
Continuous
 62
     7
100
AcDbLine
 10
246.785941885
 20
128.5235103252
 30
0.0
 11
246.8266203561
 21
128.581605203
 31
0.0
  0
LINE
  5
156
330
1B
100
AcDbEntity
 67
     1
  8
SLD-0
  6
Continuous
 62
     7
100
AcDbLine
 10
272.263981845
 20
111.967568842
 30
0.0
 11
272.257809039
 21
111.9507915314
 31
0.0
  0
LINE
  5
157
330
1B
100
AcDbEntity
 67
     1
  8
SLD-0
  6
Continuous
 62
     7
100
AcDbLine
 10
272.257809039
 20
111.9507915314
 30
0.0
 11
272.2086426576
 21
111.8171360318
 31
0.0
  0
LINE
  5
158
330
1B
100
AcDbEntity
 67
     1
  8
SLD-0
  6
Continuous
 62
     7
100
AcDbLine
 10
272.2086426576
 20
111.8171360318
 30
0.0
 11
272.1114125808
 21
111.5528113183
 31
0.0
  0
LINE
  5
159
330
1B
100
AcDbEntity
 67
     1
  8
SLD-0
  6
Continuous
 62
     7
100
AcDbLine
 10
272.1114125808
 20
111.5528113183
 30
0.0
 11
271.9682869276
 21
111.1637210447
 31
0.0
  0
LINE
  5
15A
330
1B
100
AcDbEntity
 67
     1
  8
SLD-0
  6
Continuous
 62
     7
100
AcDbLine
 10
271.9682869276
 20
111.1637210447
 30
0.0
 11
271.7824619969
 21
110.6585577104
 31
0.0
  0
LINE
  5
15B
330
1B
100
AcDbEntity
 67
     1
  8
SLD-0
  6
Continuous
 62
     7
100
AcDbLine
 10
271.7824619969
 20
110.6585577104
 30
0.0
 11
271.5580914875
 21
110.0486052197
 31
0.0
  0
LINE
  5
15C
330
1B
100
AcDbEntity
 67
     1
  8
SLD-0
  6
Continuous
 62
     7
100
AcDbLine
 10
271.5580914875
 20
110.0486052197
 30
0.0
 11
271.3001896401
 21
109.3474890545
 31
0.0
  0
LINE
  5
15D
330
1B
100
AcDbEntity
 67
     1
  8
SLD-0
  6
Continuous
 62
     7
100
AcDbLine
 10
271.3001896401
 20
109.3474890545
 30
0.0
 11
271.0145120283
 21
108.5708712667
 31
0.0
  0
LINE
  5
15E
330
1B
100
AcDbEntity
 67
     1
  8
SLD-0
  6
Continuous
 62
     7
100
AcDbLine
 10
271.0145120283
 20
108.5708712667
 30
0.0
 11
270.7074400743
 21
107.7360998347
 31
0.0
  0
LINE
  5
15F
330
1B
100
AcDbEntity
 67
     1
  8
SLD-0
  6
Continuous
 62
     7
100
AcDbLine
 10
270.7074400743
 20
107.7360998347
 30
0.0
 11
270.3858394881
 21
106.8618223976
 31
0.0
  0
LINE
  5
160
330
1B
100
AcDbEntity
 67
     1
  8
SLD-0
  6
Continuous
 62
     7
100
AcDbLine
 10
270.3858394881
 20
106.8618223976
 30
0.0
 11
270.0568893274
 21
105.9675687898
 31
0.0
  0
LINE
  5
161
330
1B
100
AcDbEntity
 67
     1
  8
SLD-0
  6
Continuous
 62
     7
100
AcDbLine
 10
267.906818982
 20
100.1484166805
 30
0.0
 11
267.9128316005
 21
100.1646882828
 31
0.0
  0
LINE
  5
162
330
1B
100
AcDbEntity
 67
     1
  8
SLD-0
  6
Continuous
 62
     7
100
AcDbLine
 10
267.9128316005
 20
100.1646882828
 30
0.0
 11
267.9607239326
 21
100.2943148811
 31
0.0
  0
LINE
  5
163
330
1B
100
AcDbEntity
 67
     1
  8
SLD-0
  6
Continuous
 62
     7
100
AcDbLine
 10
267.9607239326
 20
100.2943148811
 30
0.0
 11
268.055446889
 21
100.5506730612
 31
0.0
  0
LINE
  5
164
330
1B
100
AcDbEntity
 67
     1
  8
SLD-0
  6
Continuous
 62
     7
100
AcDbLine
 10
268.055446889
 20
100.5506730612
 30
0.0
 11
268.194873329
 21
100.9280351896
 31
0.0
  0
LINE
  5
165
330
1B
100
AcDbEntity
 67
     1
  8
SLD-0
  6
Continuous
 62
     7
100
AcDbLine
 10
268.194873329
 20
100.9280351896
 30
0.0
 11
268.3758963605
 21
101.4179723311
 31
0.0
  0
LINE
  5
166
330
1B
100
AcDbEntity
 67
     1
  8
SLD-0
  6
Continuous
 62
     7
100
AcDbLine
 10
268.3758963605
 20
101.4179723311
 30
0.0
 11
268.5944703182
 21
102.0095400486
 31
0.0
  0
LINE
  5
167
330
1B
100
AcDbEntity
 67
     1
  8
SLD-0
  6
Continuous
 62
     7
100
AcDbLine
 10
268.5944703182
 20
102.0095400486
 30
0.0
 11
268.8457113465
 21
102.6895238061
 31
0.0
  0
LINE
  5
168
330
1B
100
AcDbEntity
 67
     1
  8
SLD-0
  6
Continuous
 62
     7
100
AcDbLine
 10
268.8457113465
 20
102.6895238061
 30
0.0
 11
269.1240091582
 21
103.4427332666
 31
0.0
  0
LINE
  5
169
330
1B
100
AcDbEntity
 67
     1
  8
SLD-0
  6
Continuous
 62
     7
100
AcDbLine
 10
269.1240091582
 20
103.4427332666
 30
0.0
 11
269.4231462439
 21
104.2523436222
 31
0.0
  0
LINE
  5
16A
330
1B
100
AcDbEntity
 67
     1
  8
SLD-0
  6
Continuous
 62
     7
100
AcDbLine
 10
269.4231462439
 20
104.2523436222
 30
0.0
 11
269.7364394327
 21
105.1002691707
 31
0.0
  0
LINE
  5
16B
330
1B
100
AcDbEntity
 67
     1
  8
SLD-0
  6
Continuous
 62
     7
100
AcDbLine
 10
269.7364394327
 20
105.1002691707
 30
0.0
 11
270.0568893274
 21
105.9675687898
 31
0.0
  0
LINE
  5
16C
330
1B
100
AcDbEntity
 67
     1
  8
SLD-0
  6
Continuous
 62
     7
100
AcDbLine
 10
126.2289235542
 20
187.7927041862
 30
0.0
 11
126.2661815794
 21
187.3391426418
 31
0.0
  0
LINE
  5
16D
330
1B
100
AcDbEntity
 67
     1
  8
SLD-0
  6
Continuous
 62
     7
100
AcDbLine
 10
126.2661815794
 20
187.3391426418
 30
0.0
 11
126.4300109992
 21
186.8057928297
 31
0.0
  0
LINE
  5
16E
330
1B
100
AcDbEntity
 67
     1
  8
SLD-0
  6
Continuous
 62
     7
100
AcDbLine
 10
126.4300109992
 20
186.8057928297
 30
0.0
 11
126.7050231049
 21
186.3011724565
 31
0.0
  0
LINE
  5
16F
330
1B
100
AcDbEntity
 67
     1
  8
SLD-0
  6
Continuous
 62
     7
100
AcDbLine
 10
126.7050231049
 20
186.3011724565
 30
0.0
 11
127.0895033317
 21
185.8274868939
 31
0.0
  0
LINE
  5
170
330
1B
100
AcDbEntity
 67
     1
  8
SLD-0
  6
Continuous
 62
     7
100
AcDbLine
 10
127.0895033317
 20
185.8274868939
 30
0.0
 11
127.5822973052
 21
185.3907636616
 31
0.0
  0
LINE
  5
171
330
1B
100
AcDbEntity
 67
     1
  8
SLD-0
  6
Continuous
 62
     7
100
AcDbLine
 10
127.5822973052
 20
185.3907636616
 30
0.0
 11
128.1766659754
 21
185.0012324068
 31
0.0
  0
LINE
  5
172
330
1B
100
AcDbEntity
 67
     1
  8
SLD-0
  6
Continuous
 62
     7
100
AcDbLine
 10
128.1766659754
 20
185.0012324068
 30
0.0
 11
128.8585314701
 21
184.6697486255
 31
0.0
  0
LINE
  5
173
330
1B
100
AcDbEntity
 67
     1
  8
SLD-0
  6
Continuous
 62
     7
100
AcDbLine
 10
128.8585314701
 20
184.6697486255
 30
0.0
 11
129.6092284551
 21
184.4045228574
 31
0.0
  0
LINE
  5
174
330
1B
100
AcDbEntity
 67
     1
  8
SLD-0
  6
Continuous
 62
     7
100
AcDbLine
 10
129.6092284551
 20
184.4045228574
 30
0.0
 11
130.4110010328
 21
184.209898791
 31
0.0
  0
LINE
  5
175
330
1B
100
AcDbEntity
 67
     1
  8
SLD-0
  6
Continuous
 62
     7
100
AcDbLine
 10
130.4110010328
 20
184.209898791
 30
0.0
 11
131.2473574594
 21
184.0881861064
 31
0.0
  0
LINE
  5
176
330
1B
100
AcDbEntity
 67
     1
  8
SLD-0
  6
Continuous
 62
     7
100
AcDbLine
 10
131.2473574594
 20
184.0881861064
 30
0.0
 11
132.1020247865
 21
184.0406588528
 31
0.0
  0
LINE
  5
177
330
1B
100
AcDbEntity
 67
     1
  8
SLD-0
  6
Continuous
 62
     7
100
AcDbLine
 10
132.1020247865
 20
184.0406588528
 30
0.0
 11
132.9587814921
 21
184.0677789662
 31
0.0
  0
LINE
  5
178
330
1B
100
AcDbEntity
 67
     1
  8
SLD-0
  6
Continuous
 62
     7
100
AcDbLine
 10
132.9587814921
 20
184.0677789662
 30
0.0
 11
133.8013607251
 21
184.169218621
 31
0.0
  0
LINE
  5
179
330
1B
100
AcDbEntity
 67
     1
  8
SLD-0
  6
Continuous
 62
     7
100
AcDbLine
 10
133.8013607251
 20
184.169218621
 30
0.0
 11
134.6137475861
 21
184.3439123842
 31
0.0
  0
LINE
  5
17A
330
1B
100
AcDbEntity
 67
     1
  8
SLD-0
  6
Continuous
 62
     7
100
AcDbLine
 10
134.6137475861
 20
184.3439123842
 30
0.0
 11
135.3808554063
 21
184.5903254363
 31
0.0
  0
LINE
  5
17B
330
1B
100
AcDbEntity
 67
     1
  8
SLD-0
  6
Continuous
 62
     7
100
AcDbLine
 10
135.3808554063
 20
184.5903254363
 30
0.0
 11
136.0881667292
 21
184.9067664954
 31
0.0
  0
LINE
  5
17C
330
1B
100
AcDbEntity
 67
     1
  8
SLD-0
  6
Continuous
 62
     7
100
AcDbLine
 10
136.0881667292
 20
184.9067664954
 30
0.0
 11
136.7212590935
 21
185.2915144775
 31
0.0
  0
LINE
  5
17D
330
1B
100
AcDbEntity
 67
     1
  8
SLD-0
  6
Continuous
 62
     7
100
AcDbLine
 10
136.7212590935
 20
185.2915144775
 30
0.0
 11
137.2644785965
 21
185.741946778
 31
0.0
  0
LINE
  5
17E
330
1B
100
AcDbEntity
 67
     1
  8
SLD-0
  6
Continuous
 62
     7
100
AcDbLine
 10
137.2644785965
 20
185.741946778
 30
0.0
 11
137.6987440685
 21
186.2501806829
 31
0.0
  0
LINE
  5
17F
330
1B
100
AcDbEntity
 67
     1
  8
SLD-0
  6
Continuous
 62
     7
100
AcDbLine
 10
137.6987440685
 20
186.2501806829
 30
0.0
 11
138.0065322096
 21
186.8004433129
 31
0.0
  0
LINE
  5
180
330
1B
100
AcDbEntity
 67
     1
  8
SLD-0
  6
Continuous
 62
     7
100
AcDbLine
 10
138.0065322096
 20
186.8004433129
 30
0.0
 11
138.1783873016
 21
187.3697123739
 31
0.0
  0
LINE
  5
181
330
1B
100
AcDbEntity
 67
     1
  8
SLD-0
  6
Continuous
 62
     7
100
AcDbLine
 10
138.1783873016
 20
187.3697123739
 30
0.0
 11
138.2108764896
 21
187.8484792325
 31
0.0
  0
LINE
  5
182
330
1B
100
AcDbEntity
 67
     1
  8
SLD-0
  6
Continuous
 62
     7
100
AcDbLine
 10
126.2195469985
 20
187.7990967843
 30
0.0
 11
126.2238101276
 21
187.9543743345
 31
0.0
  0
LINE
  5
183
330
1B
100
AcDbEntity
 67
     1
  8
SLD-0
  6
Continuous
 62
     7
100
AcDbLine
 10
126.2238101276
 20
187.9543743345
 30
0.0
 11
126.3291576119
 21
188.4777850721
 31
0.0
  0
LINE
  5
184
330
1B
100
AcDbEntity
 67
     1
  8
SLD-0
  6
Continuous
 62
     7
100
AcDbLine
 10
126.3291576119
 20
188.4777850721
 30
0.0
 11
126.5725671487
 21
188.9858327124
 31
0.0
  0
LINE
  5
185
330
1B
100
AcDbEntity
 67
     1
  8
SLD-0
  6
Continuous
 62
     7
100
AcDbLine
 10
126.5725671487
 20
188.9858327124
 30
0.0
 11
126.9483339215
 21
189.4666112277
 31
0.0
  0
LINE
  5
186
330
1B
100
AcDbEntity
 67
     1
  8
SLD-0
  6
Continuous
 62
     7
100
AcDbLine
 10
126.9483339215
 20
189.4666112277
 30
0.0
 11
127.447649947
 21
189.9088553402
 31
0.0
  0
LINE
  5
187
330
1B
100
AcDbEntity
 67
     1
  8
SLD-0
  6
Continuous
 62
     7
100
AcDbLine
 10
127.447649947
 20
189.9088553402
 30
0.0
 11
128.0588122258
 21
190.3022012922
 31
0.0
  0
LINE
  5
188
330
1B
100
AcDbEntity
 67
     1
  8
SLD-0
  6
Continuous
 62
     7
100
AcDbLine
 10
128.0588122258
 20
190.3022012922
 30
0.0
 11
128.7674953869
 21
190.6374327156
 31
0.0
  0
LINE
  5
189
330
1B
100
AcDbEntity
 67
     1
  8
SLD-0
  6
Continuous
 62
     7
100
AcDbLine
 10
128.7674953869
 20
190.6374327156
 30
0.0
 11
129.5570883608
 21
190.9066743467
 31
0.0
  0
LINE
  5
18A
330
1B
100
AcDbEntity
 67
     1
  8
SLD-0
  6
Continuous
 62
     7
100
AcDbLine
 10
129.5570883608
 20
190.9066743467
 30
0.0
 11
130.4090837889
 21
191.1036304447
 31
0.0
  0
LINE
  5
18B
330
1B
100
AcDbEntity
 67
     1
  8
SLD-0
  6
Continuous
 62
     7
100
AcDbLine
 10
130.4090837889
 20
191.1036304447
 30
0.0
 11
131.3035116704
 21
191.2236891005
 31
0.0
  0
LINE
  5
18C
330
1B
100
AcDbEntity
 67
     1
  8
SLD-0
  6
Continuous
 62
     7
100
AcDbLine
 10
131.3035116704
 20
191.2236891005
 30
0.0
 11
132.2194073523
 21
191.2640190932
 31
0.0
  0
LINE
  5
18D
330
1B
100
AcDbEntity
 67
     1
  8
SLD-0
  6
Continuous
 62
     7
100
AcDbLine
 10
132.2194073523
 20
191.2640190932
 30
0.0
 11
133.1353030341
 21
191.2236891005
 31
0.0
  0
LINE
  5
18E
330
1B
100
AcDbEntity
 67
     1
  8
SLD-0
  6
Continuous
 62
     7
100
AcDbLine
 10
133.1353030341
 20
191.2236891005
 30
0.0
 11
134.0297309157
 21
191.1036304447
 31
0.0
  0
LINE
  5
18F
330
1B
100
AcDbEntity
 67
     1
  8
SLD-0
  6
Continuous
 62
     7
100
AcDbLine
 10
134.0297309157
 20
191.1036304447
 30
0.0
 11
134.8817263438
 21
190.9066743467
 31
0.0
  0
LINE
  5
190
330
1B
100
AcDbEntity
 67
     1
  8
SLD-0
  6
Continuous
 62
     7
100
AcDbLine
 10
134.8817263438
 20
190.9066743467
 30
0.0
 11
135.6713193177
 21
190.6374327156
 31
0.0
  0
LINE
  5
191
330
1B
100
AcDbEntity
 67
     1
  8
SLD-0
  6
Continuous
 62
     7
100
AcDbLine
 10
135.6713193177
 20
190.6374327156
 30
0.0
 11
136.3800024787
 21
190.3022012922
 31
0.0
  0
LINE
  5
192
330
1B
100
AcDbEntity
 67
     1
  8
SLD-0
  6
Continuous
 62
     7
100
AcDbLine
 10
136.3800024787
 20
190.3022012922
 30
0.0
 11
136.9911647575
 21
189.9088553402
 31
0.0
  0
LINE
  5
193
330
1B
100
AcDbEntity
 67
     1
  8
SLD-0
  6
Continuous
 62
     7
100
AcDbLine
 10
136.9911647575
 20
189.9088553402
 30
0.0
 11
137.490480783
 21
189.4666112277
 31
0.0
  0
LINE
  5
194
330
1B
100
AcDbEntity
 67
     1
  8
SLD-0
  6
Continuous
 62
     7
100
AcDbLine
 10
137.490480783
 20
189.4666112277
 30
0.0
 11
137.8662475558
 21
188.9858327124
 31
0.0
  0
LINE
  5
195
330
1B
100
AcDbEntity
 67
     1
  8
SLD-0
  6
Continuous
 62
     7
100
AcDbLine
 10
137.8662475558
 20
188.9858327124
 30
0.0
 11
138.1096570926
 21
188.4777850721
 31
0.0
  0
LINE
  5
196
330
1B
100
AcDbEntity
 67
     1
  8
SLD-0
  6
Continuous
 62
     7
100
AcDbLine
 10
138.1096570926
 20
188.4777850721
 30
0.0
 11
138.215004577
 21
187.9543743345
 31
0.0
  0
LINE
  5
197
330
1B
100
AcDbEntity
 67
     1
  8
SLD-0
  6
Continuous
 62
     7
100
AcDbLine
 10
138.215004577
 20
187.9543743345
 30
0.0
 11
138.2192998367
 21
187.8431520674
 31
0.0
  0
ARC
  5
198
330
1B
100
AcDbEntity
 67
     1
  8
SLD-0
  6
Continuous
 62
     7
100
AcDbCircle
 10
132.6278013753
 20
123.3177563202
 30
0.0
 40
5.619846410134249
100
AcDbArc
 50
7.251702669
 51
94.1673555164
  0
ARC
  5
199
330
1B
100
AcDbEntity
 67
     1
  8
SLD-0
  6
Continuous
 62
     7
100
AcDbCircle
 10
131.7591647393
 20
123.392337496
 30
0.0
 40
5.54952434469872
100
AcDbArc
 50
85.2427847249
 51
174.909060687
  0
ARC
  5
19A
330
1B
100
AcDbEntity
 67
     1
  8
SLD-0
  6
Continuous
 62
     7
100
AcDbCircle
 10
166.2194073523
 20
139.9675686094
 30
0.0
 40
1.000000149001723
100
AcDbArc
 50
0.0001058654
 51
89.9998941346
  0
ARC
  5
19B
330
1B
100
AcDbEntity
 67
     1
  8
SLD-0
  6
Continuous
 62
     7
100
AcDbCircle
 10
98.2194073523
 20
71.9675686094
 30
0.0
 40
1.000000149001723
100
AcDbArc
 50
180.0001058654
 51
269.9998941289
  0
ARC
  5
19C
330
1B
100
AcDbEntity
 67
     1
  8
SLD-0
  6
Continuous
 62
     7
100
AcDbCircle
 10
98.2194073523
 20
139.9675686094
 30
0.0
 40
1.000000149001723
100
AcDbArc
 50
90.0001058711
 51
179.9998941346
  0
ARC
  5
19D
330
1B
100
AcDbEntity
 67
     1
  8
SLD-0
  6
Continuous
 62
     7
100
AcDbCircle
 10
166.2194073523
 20
71.9675686094
 30
0.0
 40
1.000000149001723
100
AcDbArc
 50
270.0001058654
 51
359.9998941346
  0
ARC
  5
19E
330
1B
100
AcDbEntity
 67
     1
  8
SLD-0
  6
Continuous
 62
     7
100
AcDbCircle
 10
132.2194073523
 20
105.9675686094
 30
0.0
 40
6.100000000000016
100
AcDbArc
 50
281.5760660398
 51
10.3888578155
  0
ARC
  5
19F
330
1B
100
AcDbEntity
 67
     1
  8
SLD-0
  6
Continuous
 62
     7
100
AcDbCircle
 10
132.2194073523
 20
105.9675686094
 30
0.0
 40
6.1
100
AcDbArc
 50
169.6111421845
 51
258.4239339602
  0
ARC
  5
1A0
330
1B
100
AcDbEntity
 67
     1
  8
SLD-0
  6
Continuous
 62
     7
100
AcDbCircle
 10
132.2194073523
 20
105.9675686094
 30
0.0
 40
6.000000052150014
100
AcDbArc
 50
180.0
 51
0.0
  0
ARC
  5
1A1
330
1B
100
AcDbEntity
 67
     1
  8
SLD-0
  6
Continuous
 62
     7
100
AcDbCircle
 10
272.2639798264
 20
112.9675686094
 30
0.0
 40
1.000000000000004
100
AcDbArc
 50
235.757597683
 51
269.0117696895
  0
ARC
  5
1A2
330
1B
100
AcDbEntity
 67
     1
  8
SLD-0
  6
Continuous
 62
     7
100
AcDbCircle
 10
268.4803943599
 20
100.9675686094
 30
0.0
 40
1.000000000000043
100
AcDbArc
 50
234.3815255846
 51
270.4169829105
  0
ARC
  5
1A3
330
1B
100
AcDbEntity
 67
     1
  8
SLD-0
  6
Continuous
 62
     7
100
AcDbCircle
 10
241.5167476551
 20
119.603562372
 30
0.0
 40
0.8000007345958299
100
AcDbArc
 50
145.0
 51
234.9998519326
  0
ARC
  5
1A4
330
1B
100
AcDbEntity
 67
     1
  8
SLD-0
  6
Continuous
 62
     7
100
AcDbCircle
 10
247.4819420158
 20
128.1227440369
 30
0.0
 40
0.8000000296121188
100
AcDbArc
 50
54.9999077816
 51
145.0
  0
ARC
  5
1A5
330
1B
100
AcDbEntity
 67
     1
  8
SLD-0
  6
Continuous
 62
     7
100
AcDbCircle
 10
312.4568884346
 20
140.4675686094
 30
0.0
 40
0.5000000186503348
100
AcDbArc
 50
89.9999778036
 51
180.0000990415
  0
ARC
  5
1A6
330
1B
100
AcDbEntity
 67
     1
  8
SLD-0
  6
Continuous
 62
     7
100
AcDbCircle
 10
312.4568884346
 20
71.4675686094
 30
0.0
 40
0.5000000186503633
100
AcDbArc
 50
179.9999009585
 51
270.0000221964
  0
ARC
  5
1A7
330
1B
100
AcDbEntity
 67
     1
  8
SLD-0
  6
Continuous
 62
     7
100
AcDbCircle
 10
166.7194072219
 20
255.7801031682
 30
0.0
 40
0.5000000186003695
100
AcDbArc
 50
269.9999009585
 51
0.0000221964
  0
ARC
  5
1A8
330
1B
100
AcDbEntity
 67
     1
  8
SLD-0
  6
Continuous
 62
     7
100
AcDbCircle
 10
97.7194072219
 20
255.7801031682
 30
0.0
 40
0.5000000186003979
100
AcDbArc
 50
179.9999778036
 51
270.00009903
  0
ARC
  5
1A9
330
1B
100
AcDbEntity
 67
     1
  8
SLD-0
  6
Continuous
 62
     7
100
AcDbCircle
 10
132.4811747905
 20
102.0407193761
 30
0.0
 40
2.167703142516264
100
AcDbArc
 50
278.6917947888
 51
281.8132552152
  0
ARC
  5
1AA
330
1B
100
AcDbEntity
 67
     1
  8
SLD-0
  6
Continuous
 62
     7
100
AcDbCircle
 10
132.4930093977
 20
102.0046649127
 30
0.0
 40
2.130283477046536
100
AcDbArc
 50
275.3481015468
 51
278.5236909464
  0
ARC
  5
1AB
330
1B
100
AcDbEntity
 67
     1
  8
SLD-0
  6
Continuous
 62
     7
100
AcDbCircle
 10
131.8995707378
 20
101.0752704792
 30
0.0
 40
1.208821878305451
100
AcDbArc
 50
264.6252687426
 51
271.4710365869
  0
ARC
  5
1AC
330
1B
100
AcDbEntity
 67
     1
  8
SLD-0
  6
Continuous
 62
     7
100
AcDbCircle
 10
131.9058470167
 20
100.8966246589
 30
0.0
 40
1.031805375738562
100
AcDbArc
 50
255.3713323339
 51
263.3489642431
  0
ARC
  5
1AD
330
1B
100
AcDbEntity
 67
     1
  8
SLD-0
  6
Continuous
 62
     7
100
AcDbCircle
 10
135.9758760187
 20
213.0101232986
 30
0.0
 40
2.273833331497677
100
AcDbArc
 50
9.3643322556
 51
20.6143429909
  0
ARC
  5
1AE
330
1B
100
AcDbEntity
 67
     1
  8
SLD-0
  6
Continuous
 62
     7
100
AcDbCircle
 10
135.8315170273
 20
212.2843816781
 30
0.0
 40
2.737576097179129
100
AcDbArc
 50
33.8857291486
 51
45.1357291486
  0
ARC
  5
1AF
330
1B
100
AcDbEntity
 67
     1
  8
SLD-0
  6
Continuous
 62
     7
100
AcDbCircle
 10
135.5483466956
 20
211.6007480228
 30
0.0
 40
3.433441986882163
100
AcDbArc
 50
49.8393952112
 51
61.0893952112
  0
ARC
  5
1B0
330
1B
100
AcDbEntity
 67
     1
  8
SLD-0
  6
Continuous
 62
     7
100
AcDbCircle
 10
135.1372470924
 20
210.9854939877
 30
0.0
 40
4.171230975842694
100
AcDbArc
 50
60.2318941823
 51
71.4818941823
  0
ARC
  5
1B1
330
1B
100
AcDbEntity
 67
     1
  8
SLD-0
  6
Continuous
 62
     7
100
AcDbCircle
 10
134.6140165451
 20
210.4622634403
 30
0.0
 40
4.84479980315571
100
AcDbArc
 50
67.576694322
 51
78.826694322
  0
ARC
  5
1B2
330
1B
100
AcDbEntity
 67
     1
  8
SLD-0
  6
Continuous
 62
     7
100
AcDbCircle
 10
133.99876251
 20
210.0511638371
 30
0.0
 40
5.392840541792131
100
AcDbArc
 50
73.2514452694
 51
84.5014452694
  0
ARC
  5
1B3
330
1B
100
AcDbEntity
 67
     1
  8
SLD-0
  6
Continuous
 62
     7
100
AcDbCircle
 10
133.3151288547
 20
209.7679935054
 30
0.0
 40
5.777277048803641
100
AcDbArc
 50
78.0079522136
 51
89.2579522136
  0
ARC
  5
1B4
330
1B
100
AcDbEntity
 67
     1
  8
SLD-0
  6
Continuous
 62
     7
100
AcDbCircle
 10
132.5893872372
 20
209.6236345222
 30
0.0
 40
5.975025935288572
100
AcDbArc
 50
82.3000858198
 51
93.5500858198
  0
ARC
  5
1B5
330
1B
100
AcDbEntity
 67
     1
  8
SLD-0
  6
Continuous
 62
     7
100
AcDbCircle
 10
131.8494275008
 20
209.6236345222
 30
0.0
 40
5.975025935288428
100
AcDbArc
 50
86.4499141802
 51
97.6999141802
  0
ARC
  5
1B6
330
1B
100
AcDbEntity
 67
     1
  8
SLD-0
  6
Continuous
 62
     7
100
AcDbCircle
 10
131.1236858833
 20
209.7679935054
 30
0.0
 40
5.77727704880378
100
AcDbArc
 50
90.7420477864
 51
101.9920477864
  0
ARC
  5
1B7
330
1B
100
AcDbEntity
 67
     1
  8
SLD-0
  6
Continuous
 62
     7
100
AcDbCircle
 10
130.440052228
 20
210.0511638371
 30
0.0
 40
5.392840541792275
100
AcDbArc
 50
95.4985547306
 51
106.7485547306
  0
ARC
  5
1B8
330
1B
100
AcDbEntity
 67
     1
  8
SLD-0
  6
Continuous
 62
     7
100
AcDbCircle
 10
129.8247981929
 20
210.4622634403
 30
0.0
 40
4.844799803155576
100
AcDbArc
 50
101.173305678
 51
112.423305678
  0
ARC
  5
1B9
330
1B
100
AcDbEntity
 67
     1
  8
SLD-0
  6
Continuous
 62
     7
100
AcDbCircle
 10
129.3015676455
 20
210.9854939877
 30
0.0
 40
4.171230975842326
100
AcDbArc
 50
108.5181058177
 51
119.7681058177
  0
ARC
  5
1BA
330
1B
100
AcDbEntity
 67
     1
  8
SLD-0
  6
Continuous
 62
     7
100
AcDbCircle
 10
128.8904680424
 20
211.6007480228
 30
0.0
 40
3.433441986882498
100
AcDbArc
 50
118.9106047888
 51
130.1606047888
  0
ARC
  5
1BB
330
1B
100
AcDbEntity
 67
     1
  8
SLD-0
  6
Continuous
 62
     7
100
AcDbCircle
 10
128.6072977107
 20
212.2843816781
 30
0.0
 40
2.73757609717886
100
AcDbArc
 50
134.8642708514
 51
146.1142708514
  0
ARC
  5
1BC
330
1B
100
AcDbEntity
 67
     1
  8
SLD-0
  6
Continuous
 62
     7
100
AcDbCircle
 10
128.4629387193
 20
213.0101232986
 30
0.0
 40
2.273833331547135
100
AcDbArc
 50
159.3856570091
 51
170.6356677448
  0
DIMENSION
  5
1BD
330
1B
100
AcDbEntity
 67
     1
  8
SLD-0
 62
     7
100
AcDbDimension
  2
_D
 10
97.2194073523
 20
48.9675686094
 30
0.0
 11
132.2194073523
 21
48.9675686094
 31
0.0
 70
   160
  1
<>
 71
     2
 42
-1.0
  3
SLDDIMSTYLE0
100
AcDbAlignedDimension
 13
167.2194073523
 23
71.9675686094
 33
0.0
 14
97.2194073523
 24
71.9675686094
 34
0.0
 50
0.0
100
AcDbRotatedDimension
  0
DIMENSION
  5
1D1
330
1B
100
AcDbEntity
 67
     1
  8
SLD-0
 62
     7
100
AcDbDimension
  2
_D_1
 10
185.2997248716
 20
70.9675686094
 30
0.0
 11
185.2997248716
 21
105.9675686094
 31
0.0
 70
   160
  1
<>
 71
     2
 42
-1.0
  3
SLDDIMSTYLE0
100
AcDbAlignedDimension
 13
166.2194073523
 23
140.9675686094
 33
0.0
 14
166.2194073523
 24
70.9675686094
 34
0.0
 50
90.0
100
AcDbRotatedDimension
  0
DIMENSION
  5
1DF
330
1B
100
AcDbEntity
 67
     1
  8
SLD-0
 62
     7
100
AcDbDimension
  2
_D_2
 10
271.9486810376
 20
55.7013806006
 30
0.0
 11
291.9527846709
 21
55.7013806006
 31
0.0
 70
   160
  1
(<>)
 71
     2
 42
-1.0
  3
SLDDIMSTYLE0
100
AcDbAlignedDimension
 13
311.9568883043
 23
71.9675686094
 33
0.0
 14
271.9486810376
 24
111.9675686094
 34
0.0
100
AcDbRotatedDimension
  0
DIMENSION
  5
1ED
330
1B
100
AcDbEntity
 67
     1
  8
SLD-0
 62
     7
100
AcDbDimension
  2
_D_3
 10
316.9568883043
 20
55.7013806006
 30
0.0
 11
314.4568883043
 21
55.7013806006
 31
0.0
 70
   160
  1
<>
 71
     2
 42
-1.0
  3
SLDDIMSTYLE1
100
AcDbAlignedDimension
 13
311.9568883043
 23
71.9675686094
 33
0.0
 14
316.9568883043
 24
70.9675686094
 34
0.0
100
AcDbRotatedDimension
  0
DIMENSION
  5
1FD
330
1B
100
AcDbEntity
 67
     1
  8
SLD-0
 62
     7
100
AcDbDimension
  2
_D_4
 10
316.9568883043
 20
48.9675686094
 30
0.0
 11
278.8368176789
 21
48.9675686094
 31
0.0
 70
   160
  1
(<>)
 71
     2
 42
-1.0
  3
SLDDIMSTYLE2
100
AcDbAlignedDimension
 13
240.7167470534
 23
119.6035627933
 33
0.0
 14
316.9568883043
 24
70.9675686094
 34
0.0
100
AcDbRotatedDimension
  0
DIMENSION
  5
20C
330
1B
100
AcDbEntity
 67
     1
  8
SLD-0
 62
     7
100
AcDbDimension
  2
_D_5
 10
226.9502474404
 20
99.9675686094
 30
0.0
 11
226.9502474404
 21
94.6862728411
 31
0.0
 70
   160
  1
<>
 71
     2
 42
-1.0
  3
SLDDIMSTYLE3
100
AcDbAlignedDimension
 13
272.2639798264
 23
111.9675686094
 33
0.0
 14
268.4803943599
 24
99.9675686094
 34
0.0
 50
90.0
100
AcDbRotatedDimension
  0
DIMENSION
  5
21D
330
1B
100
AcDbEntity
 67
     1
  8
SLD-0
 62
     7
100
AcDbDimension
  2
_D_6
 10
226.9502474404
 20
111.9675686094
 30
0.0
 11
226.9502474404
 21
120.4451563316
 31
0.0
 70
   160
  1
(<>)
 71
     2
 42
-1.0
  3
SLDDIMSTYLE0
100
AcDbAlignedDimension
 13
247.4819419915
 23
128.9227440539
 33
0.0
 14
272.2639798264
 24
111.9675686094
 34
0.0
 50
90.0
100
AcDbRotatedDimension
  0
DIMENSION
  5
22B
330
1B
100
AcDbEntity
 67
     1
  8
SLD-0
 62
     7
100
AcDbDimension
  2
_D_7
 10
240.3196473122
 20
134.1144564502
 30
0.0
 11
243.8490326026
 21
139.1549410177
 31
0.0
 70
   160
  1
<>
 71
     2
 42
-1.0
  3
SLDDIMSTYLE3
100
AcDbAlignedDimension
 13
241.0578859044
 23
118.9482411578
 33
0.0
 14
247.9408031406
 24
128.7780656893
 34
0.0
 50
55.0
100
AcDbRotatedDimension
  0
DIMENSION
  5
23B
330
1B
100
AcDbEntity
 67
     1
  8
SLD-0
 62
     7
100
AcDbDimension
  2
_D_8
 10
352.4502564993
 20
80.9675686094
 30
0.0
 11
352.4502564993
 21
105.9675686094
 31
0.0
 70
   160
  1
<>
 71
     2
 42
-1.0
  3
SLDDIMSTYLE4
100
AcDbAlignedDimension
 13
337.6659308861
 23
130.9675686094
 33
0.0
 14
337.5520326411
 24
80.9675686094
 34
0.0
 50
90.0
100
AcDbRotatedDimension
  0
MTEXT
  5
24B
330
1B
100
AcDbEntity
 67
     1
  8
SLD-0
 62
     7
100
AcDbMText
 10
144.4829525239
 20
28.2161130323
 30
0.0
 40
3.5
 41
0.0
 71
     1
 72
     1
  1
承認図
  7
SLDTEXTSTYLE2
 73
     1
 44
1.0
  0
MTEXT
  5
24D
330
1B
100
AcDbEntity
 67
     1
  8
SLD-0
 62
     7
100
AcDbMText
 10
144.5035312913
 20
16.6880415195
 30
0.0
 40
3.5
 41
0.0
 71
     1
 72
     1
  1
14C
  7
SLDTEXTSTYLE3
 73
     1
 44
1.0
  0
MTEXT
  5
24F
330
1B
100
AcDbEntity
 67
     1
  8
SLD-0
 62
     7
100
AcDbMText
 10
368.8137910498
 20
15.8225795688
 30
0.0
 40
4.0
 41
0.0
 71
     1
 72
     1
  1
11458XJ
  7
SLDTEXTSTYLE4
 73
     1
 44
1.0
  0
MTEXT
  5
250
330
1B
100
AcDbEntity
 67
     1
  8
SLD-0
 62
     7
100
AcDbMText
 10
300.033957724
 20
27.6916428957
 30
0.0
 40
3.5
 41
0.0
 71
     1
 72
     1
  1
1/1
  7
SLDTEXTSTYLE0
 73
     1
 44
1.0
  0
MTEXT
  5
251
330
1B
100
AcDbEntity
 67
     1
  8
SLD-0
 62
     7
100
AcDbMText
 10
22.8306485705
 20
28.652303021
 30
0.0
 40
3.5
 41
0.0
 71
     1
 72
     1
  1
改
  7
SLDTEXTSTYLE2
 73
     1
 44
1.0
  0
MTEXT
  5
252
330
1B
100
AcDbEntity
 67
     1
  8
SLD-0
 62
     7
100
AcDbMText
 10
22.7900805826
 20
17.010853051
 30
0.0
 40
3.5
 41
0.0
 71
     1
 72
     1
  1
訂
  7
SLDTEXTSTYLE2
 73
     1
 44
1.0
  0
MTEXT
  5
253
330
1B
100
AcDbEntity
 67
     1
  8
SLD-0
 62
     7
100
AcDbMText
 10
232.357657574
 20
30.9382425667
 30
0.0
 40
3.5
 41
0.0
 71
     1
 72
     1
  1
個
  7
SLDTEXTSTYLE2
 73
     1
 44
1.0
  0
MTEXT
  5
254
330
1B
100
AcDbEntity
 67
     1
  8
SLD-0
 62
     7
100
AcDbMText
 10
232.3785618998
 20
25.621660061
 30
0.0
 40
3.5
 41
0.0
 71
     1
 72
     1
  1
数
  7
SLDTEXTSTYLE2
 73
     1
 44
1.0
  0
MTEXT
  5
255
330
1B
100
AcDbEntity
 67
     1
  8
SLD-0
 62
     7
100
AcDbMText
 10
252.3573601132
 20
31.0252717962
 30
0.0
 40
3.5
 41
0.0
 71
     1
 72
     1
  1
備
  7
SLDTEXTSTYLE2
 73
     1
 44
1.0
  0
MTEXT
  5
256
330
1B
100
AcDbEntity
 67
     1
  8
SLD-0
 62
     7
100
AcDbMText
 10
252.3573601132
 20
25.7026862461
 30
0.0
 40
3.5
 41
0.0
 71
     1
 72
     1
  1
考
  7
SLDTEXTSTYLE2
 73
     1
 44
1.0
  0
MTEXT
  5
257
330
1B
100
AcDbEntity
 67
     1
  8
SLD-0
 62
     7
100
AcDbMText
 10
292.3664626113
 20
31.0257741408
 30
0.0
 40
3.5
 41
0.0
 71
     1
 72
     1
  1
尺
  7
SLDTEXTSTYLE2
 73
     1
 44
1.0
  0
MTEXT
  5
258
330
1B
100
AcDbEntity
 67
     1
  8
SLD-0
 62
     7
100
AcDbMText
 10
292.3664626113
 20
25.6874134086
 30
0.0
 40
3.5
 41
0.0
 71
     1
 72
     1
  1
度
  7
SLDTEXTSTYLE2
 73
     1
 44
1.0
  0
MTEXT
  5
25A
330
1B
100
AcDbEntity
 67
     1
  8
SLD-0
 62
     7
100
AcDbMText
 10
294.8445745199
 20
16.7950380054
 30
0.0
 40
2.9104166031
 41
0.0
 71
     1
 72
     1
  1
第三角法
  7
SLDTEXTSTYLE5
 73
     1
 44
1.0
  0
MTEXT
  5
25C
330
1B
100
AcDbEntity
 67
     1
  8
SLD-0
 62
     7
100
AcDbMText
 10
311.7573695107
 20
30.5891874116
 30
0.0
 40
2.5
 41
0.0
 71
     1
 72
     1
  1
製図・設計
  7
SLDTEXTSTYLE6
 73
     1
 44
1.0
  0
MTEXT
  5
25E
330
1B
100
AcDbEntity
 67
     1
  8
SLD-0
 62
     7
100
AcDbMText
 10
329.6575469962
 20
30.5994410061
 30
0.0
 40
2.5
 41
0.0
 71
     1
 72
     1
  1
照　査
  7
SLDTEXTSTYLE7
 73
     1
 44
1.0
  0
MTEXT
  5
25F
330
1B
100
AcDbEntity
 67
     1
  8
SLD-0
 62
     7
100
AcDbMText
 10
361.958749754
 20
15.3927401502
 30
0.0
 40
3.4395833015
 41
0.0
 71
     1
 72
     1
  1
No.
  7
SLDTEXTSTYLE4
 73
     1
 44
1.0
  0
MTEXT
  5
260
330
1B
100
AcDbEntity
 67
     1
  8
SLD-0
 62
     7
100
AcDbMText
 10
81.6248333904
 20
13.5625189928
 30
0.0
 40
2.5
 41
0.0
 71
     1
 72
     1
  1
変　更　内　容
  7
SLDTEXTSTYLE2
 73
     1
 44
1.0
  0
MTEXT
  5
261
330
1B
100
AcDbEntity
 67
     1
  8
SLD-0
 62
     7
100
AcDbMText
 10
344.6694607343
 20
30.5721772849
 30
0.0
 40
2.5
 41
0.0
 71
     1
 72
     1
  1
承　認
  7
SLDTEXTSTYLE7
 73
     1
 44
1.0
  0
MTEXT
  5
263
330
1B
100
AcDbEntity
 67
     1
  8
SLD-0
 62
     7
100
AcDbMText
 10
358.6499682217
 20
23.4386037729
 30
0.0
 40
2.3812499046
 41
0.0
 71
     1
 72
     1
  1
WEST
  7
SLDTEXTSTYLE8
 73
     1
 44
1.0
  0
MTEXT
  5
264
330
1B
100
AcDbEntity
 67
     1
  8
SLD-0
 62
     7
100
AcDbMText
 10
126.6394502878
 20
13.5842648164
 30
0.0
 40
2.5
 41
0.0
 71
     1
 72
     1
  1
通知書
  7
SLDTEXTSTYLE7
 73
     1
 44
1.0
  0
MTEXT
  5
265
330
1B
100
AcDbEntity
 67
     1
  8
SLD-0
 62
     7
100
AcDbMText
 10
39.6073654972
 20
13.5858501847
 30
0.0
 40
2.5
 41
0.0
 71
     1
 72
     1
  1
日付
  7
SLDTEXTSTYLE5
 73
     1
 44
1.0
  0
MTEXT
  5
266
330
1B
100
AcDbEntity
 67
     1
  8
SLD-0
 62
     7
100
AcDbMText
 10
50.6471155245
 20
13.5906682699
 30
0.0
 40
2.5
 41
0.0
 71
     1
 72
     1
  1
担当者
  7
SLDTEXTSTYLE7
 73
     1
 44
1.0
  0
MTEXT
  5
267
330
1B
100
AcDbEntity
 67
     1
  8
SLD-0
 62
     7
100
AcDbMText
 10
28.0997329878
 20
13.572333007
 30
0.0
 40
2.5
 41
0.0
 71
     1
 72
     1
  1
記号
  7
SLDTEXTSTYLE5
 73
     1
 44
1.0
  0
MTEXT
  5
268
330
1B
100
AcDbEntity
 67
     1
  8
SLD-0
 62
     7
100
AcDbMText
 10
199.3534685856
 20
30.9382425667
 30
0.0
 40
3.5
 41
0.0
 71
     1
 72
     1
  1
材
  7
SLDTEXTSTYLE2
 73
     1
 44
1.0
  0
MTEXT
  5
269
330
1B
100
AcDbEntity
 67
     1
  8
SLD-0
 62
     7
100
AcDbMText
 10
199.349337611
 20
25.621660061
 30
0.0
 40
3.5
 41
0.0
 71
     1
 72
     1
  1
質
  7
SLDTEXTSTYLE2
 73
     1
 44
1.0
  0
MTEXT
  5
26A
330
1B
100
AcDbEntity
 67
     1
  8
SLD-0
 62
     7
100
AcDbMText
 10
139.3570394312
 20
30.9382425667
 30
0.0
 40
3.5
 41
0.0
 71
     1
 72
     1
  1
名
  7
SLDTEXTSTYLE2
 73
     1
 44
1.0
  0
MTEXT
  5
26B
330
1B
100
AcDbEntity
 67
     1
  8
SLD-0
 62
     7
100
AcDbMText
 10
139.3779437571
 20
25.621660061
 30
0.0
 40
3.5
 41
0.0
 71
     1
 72
     1
  1
称
  7
SLDTEXTSTYLE2
 73
     1
 44
1.0
  0
MTEXT
  5
26C
330
1B
100
AcDbEntity
 67
     1
  8
SLD-0
 62
     7
100
AcDbMText
 10
139.3570394312
 20
19.9382425667
 30
0.0
 40
3.5
 41
0.0
 71
     1
 72
     1
  1
品
  7
SLDTEXTSTYLE2
 73
     1
 44
1.0
  0
MTEXT
  5
26D
330
1B
100
AcDbEntity
 67
     1
  8
SLD-0
 62
     7
100
AcDbMText
 10
139.3779437571
 20
15.0156834865
 30
0.0
 40
3.5
 41
0.0
 71
     1
 72
     1
  1
名
  7
SLDTEXTSTYLE2
 73
     1
 44
1.0
  0
MTEXT
  5
26E
330
1B
100
AcDbEntity
 67
     1
  8
SLD-0
 62
     7
100
AcDbMText
 10
199.3534685856
 20
19.9382425667
 30
0.0
 40
3.5
 41
0.0
 71
     1
 72
     1
  1
工
  7
SLDTEXTSTYLE2
 73
     1
 44
1.0
  0
MTEXT
  5
26F
330
1B
100
AcDbEntity
 67
     1
  8
SLD-0
 62
     7
100
AcDbMText
 10
199.349337611
 20
15.0156834865
 30
0.0
 40
3.5
 41
0.0
 71
     1
 72
     1
  1
番
  7
SLDTEXTSTYLE2
 73
     1
 44
1.0
  0
MTEXT
  5
270
330
1B
100
AcDbEntity
 67
     1
  8
SLD-0
 62
     7
100
AcDbMText
 10
427.9159859778
 20
15.3701307748
 30
0.0
 40
7.4083333015
 41
0.0
 71
     1
 72
     1
  1
A3
  7
SLDTEXTSTYLE3
 73
     1
 44
1.0
  0
MTEXT
  5
271
330
1B
100
AcDbEntity
 67
     1
  8
SLD-0
 62
     7
100
AcDbMText
 10
357.444566405
 20
14.6147830727
 30
0.0
 40
3.5
 41
0.0
 71
     1
 72
     1
  1
番
  7
SLDTEXTSTYLE2
 73
     1
 44
1.0
  0
MTEXT
  5
272
330
1B
100
AcDbEntity
 67
     1
  8
SLD-0
 62
     7
100
AcDbMText
 10
357.444566405
 20
19.9531438049
 30
0.0
 40
3.5
 41
0.0
 71
     1
 72
     1
  1
図
  7
SLDTEXTSTYLE2
 73
     1
 44
1.0
  0
MTEXT
  5
274
330
1B
100
AcDbEntity
 67
     1
  8
SLD-0
 62
     7
100
AcDbMText
 10
311.5649907757
 20
13.6099772839
 30
0.0
 40
3.0
 41
0.0
 71
     1
 72
     1
  1
′０８．１０．２０
  7
SLDTEXTSTYLE9
 73
     1
 44
1.0
  0
MTEXT
  5
275
330
1B
100
AcDbEntity
 67
     1
  8
SLD-0
 62
     7
100
AcDbMText
 10
406.0292860479
 20
8.3220666762
 30
0.0
 40
1.8520833254
 41
0.0
 71
     1
 72
     1
  1
A3
  7
SLDTEXTSTYLE3
 73
     1
 44
1.0
  0
ENDSEC
  0
SECTION
  2
OBJECTS
  0
DICTIONARY
  5
C
330
0
100
AcDbDictionary
281
     1
  3
ACAD_GROUP
350
D
  3
ACAD_LAYOUT
350
1A
  3
ACAD_MLINESTYLE
350
17
  3
ACAD_PLOTSETTINGS
350
19
  3
ACAD_PLOTSTYLENAME
350
E
  3
ACAD_SCALELIST
350
47
  0
DICTIONARY
  5
D
102
{ACAD_REACTORS
330
C
102
}
330
C
100
AcDbDictionary
281
     1
  0
DICTIONARY
  5
1A
102
{ACAD_REACTORS
330
C
102
}
330
C
100
AcDbDictionary
281
     1
  3
Model
350
22
  3
SW_Model_1
350
1E
  0
DICTIONARY
  5
17
102
{ACAD_REACTORS
330
C
102
}
330
C
100
AcDbDictionary
281
     1
  3
Standard
350
18
  0
DICTIONARY
  5
19
102
{ACAD_REACTORS
330
C
102
}
330
C
100
AcDbDictionary
281
     1
  0
ACDBDICTIONARYWDFLT
  5
E
102
{ACAD_REACTORS
330
C
102
}
330
C
100
AcDbDictionary
281
     1
  3
Normal
350
F
100
AcDbDictionaryWithDefault
340
F
  0
DICTIONARY
  5
47
102
{ACAD_REACTORS
330
C
102
}
330
C
100
AcDbDictionary
281
     1
  3
A0
350
48
  3
A1
350
49
  3
A2
350
4A
  3
A3
350
4B
  3
A4
350
4C
  3
A5
350
4D
  3
A6
350
4E
  3
A7
350
4F
  3
A8
350
50
  3
A9
350
51
  3
B0
350
52
  3
B1
350
53
  3
B2
350
54
  3
B3
350
55
  3
B4
350
56
  3
B5
350
57
  3
B6
350
58
  3
B7
350
59
  3
B8
350
5A
  3
B9
350
5B
  3
C0
350
5C
  3
C1
350
5D
  3
C2
350
5E
  3
C3
350
5F
  3
C4
350
60
  3
C5
350
61
  3
C6
350
62
  3
C7
350
63
  3
C8
350
64
  3
C9
350
65
  3
D0
350
66
  3
D1
350
67
  3
D2
350
68
  0
LAYOUT
  5
22
102
{ACAD_REACTORS
330
1A
102
}
330
1A
100
AcDbPlotSettings
  1

  2
none_device
  4
Letter_(8.50_x_11.00_Inches)
  6

 40
6.35
 41
6.35
 42
6.35000508
 43
6.35000508
 44
215.9
 45
279.4
 46
0.0
 47
0.0
 48
0.0
 49
0.0
140
0.0
141
0.0
142
1.0
143
1.0
 70
  1712
 72
     1
 73
     0
 74
     0
  7

 75
     0
147
1.0
148
0.0
149
0.0
100
AcDbLayout
  1
Model
 70
     1
 71
     0
 10
0.0
 20
0.0
 11
420.0
 21
297.0
 12
0.0
 22
0.0
 32
0.0
 14
0.0
 24
0.0
 34
0.0
 15
420.0
 25
297.0
 35
0.0
146
0.0
 13
0.0
 23
0.0
 33
0.0
 16
1.0
 26
0.0
 36
0.0
 17
0.0
 27
1.0
 37
0.0
 76
     0
330
1F
331
29
  0
LAYOUT
  5
1E
102
{ACAD_REACTORS
330
1A
102
}
330
1A
100
AcDbPlotSettings
  1

  2
none_device
  4
ISO_A3_(420.00_x_297.00_MM)
  6

 40
7.5
 41
20.0
 42
7.5
 43
20.0
 44
420.0
 45
297.0
 46
0.0
 47
0.0
 48
0.0
 49
0.0
140
0.0
141
0.0
142
1.0
143
1.0
 70
  4832
 72
     1
 73
     0
 74
     1
  7

 75
     0
147
1.0
148
0.0
149
0.0
100
AcDbLayout
  1
SW_Model_1
 70
     1
 71
     1
 10
0.0
 20
0.0
 11
420.0
 21
297.0
 12
0.0
 22
0.0
 32
0.0
 14
0.0
 24
0.0
 34
0.0
 15
420.0
 25
297.0
 35
0.0
146
0.0
 13
0.0
 23
0.0
 33
0.0
 16
1.0
 26
0.0
 36
0.0
 17
0.0
 27
1.0
 37
0.0
 76
     0
330
1B
331
77
  0
MLINESTYLE
  5
18
102
{ACAD_REACTORS
330
17
102
}
330
17
100
AcDbMlineStyle
  2
Standard
 70
     0
  3

 62
   256
 51
90.0
 52
90.0
 71
     2
 49
0.5
 62
   256
  6
BYLAYER
 49
-0.5
 62
   256
  6
BYLAYER
  0
ACDBPLACEHOLDER
  5
F
102
{ACAD_REACTORS
330
E
102
}
330
E
  0
SCALE
  5
48
102
{ACAD_REACTORS
330
47
102
}
330
47
100
AcDbScale
 70
     0
300
1:1
140
1.0
141
1.0
290
     1
  0
SCALE
  5
49
102
{ACAD_REACTORS
330
47
102
}
330
47
100
AcDbScale
 70
     0
300
1:2
140
1.0
141
2.0
290
     0
  0
SCALE
  5
4A
102
{ACAD_REACTORS
330
47
102
}
330
47
100
AcDbScale
 70
     0
300
1:4
140
1.0
141
4.0
290
     0
  0
SCALE
  5
4B
102
{ACAD_REACTORS
330
47
102
}
330
47
100
AcDbScale
 70
     0
300
1:5
140
1.0
141
5.0
290
     0
  0
SCALE
  5
4C
102
{ACAD_REACTORS
330
47
102
}
330
47
100
AcDbScale
 70
     0
300
1:8
140
1.0
141
8.0
290
     0
  0
SCALE
  5
4D
102
{ACAD_REACTORS
330
47
102
}
330
47
100
AcDbScale
 70
     0
300
1:10
140
1.0
141
10.0
290
     0
  0
SCALE
  5
4E
102
{ACAD_REACTORS
330
47
102
}
330
47
100
AcDbScale
 70
     0
300
1:16
140
1.0
141
16.0
290
     0
  0
SCALE
  5
4F
102
{ACAD_REACTORS
330
47
102
}
330
47
100
AcDbScale
 70
     0
300
1:20
140
1.0
141
20.0
290
     0
  0
SCALE
  5
50
102
{ACAD_REACTORS
330
47
102
}
330
47
100
AcDbScale
 70
     0
300
1:30
140
1.0
141
30.0
290
     0
  0
SCALE
  5
51
102
{ACAD_REACTORS
330
47
102
}
330
47
100
AcDbScale
 70
     0
300
1:40
140
1.0
141
40.0
290
     0
  0
SCALE
  5
52
102
{ACAD_REACTORS
330
47
102
}
330
47
100
AcDbScale
 70
     0
300
1:50
140
1.0
141
50.0
290
     0
  0
SCALE
  5
53
102
{ACAD_REACTORS
330
47
102
}
330
47
100
AcDbScale
 70
     0
300
1:100
140
1.0
141
100.0
290
     0
  0
SCALE
  5
54
102
{ACAD_REACTORS
330
47
102
}
330
47
100
AcDbScale
 70
     0
300
2:1
140
2.0
141
1.0
290
     0
  0
SCALE
  5
55
102
{ACAD_REACTORS
330
47
102
}
330
47
100
AcDbScale
 70
     0
300
4:1
140
4.0
141
1.0
290
     0
  0
SCALE
  5
56
102
{ACAD_REACTORS
330
47
102
}
330
47
100
AcDbScale
 70
     0
300
8:1
140
8.0
141
1.0
290
     0
  0
SCALE
  5
57
102
{ACAD_REACTORS
330
47
102
}
330
47
100
AcDbScale
 70
     0
300
10:1
140
10.0
141
1.0
290
     0
  0
SCALE
  5
58
102
{ACAD_REACTORS
330
47
102
}
330
47
100
AcDbScale
 70
     0
300
100:1
140
100.0
141
1.0
290
     0
  0
SCALE
  5
59
102
{ACAD_REACTORS
330
47
102
}
330
47
100
AcDbScale
 70
     0
300
1/128" = 1'-0"
140
0.0078125
141
12.0
290
     0
  0
SCALE
  5
5A
102
{ACAD_REACTORS
330
47
102
}
330
47
100
AcDbScale
 70
     0
300
1/64" = 1'-0"
140
0.015625
141
12.0
290
     0
  0
SCALE
  5
5B
102
{ACAD_REACTORS
330
47
102
}
330
47
100
AcDbScale
 70
     0
300
1/32" = 1'-0"
140
0.03125
141
12.0
290
     0
  0
SCALE
  5
5C
102
{ACAD_REACTORS
330
47
102
}
330
47
100
AcDbScale
 70
     0
300
1/16" = 1'-0"
140
0.0625
141
12.0
290
     0
  0
SCALE
  5
5D
102
{ACAD_REACTORS
330
47
102
}
330
47
100
AcDbScale
 70
     0
300
3/32" = 1'-0"
140
0.09375
141
12.0
290
     0
  0
SCALE
  5
5E
102
{ACAD_REACTORS
330
47
102
}
330
47
100
AcDbScale
 70
     0
300
1/8" = 1'-0"
140
0.125
141
12.0
290
     0
  0
SCALE
  5
5F
102
{ACAD_REACTORS
330
47
102
}
330
47
100
AcDbScale
 70
     0
300
3/16" = 1'-0"
140
0.1875
141
12.0
290
     0
  0
SCALE
  5
60
102
{ACAD_REACTORS
330
47
102
}
330
47
100
AcDbScale
 70
     0
300
1/4" = 1'-0"
140
0.25
141
12.0
290
     0
  0
SCALE
  5
61
102
{ACAD_REACTORS
330
47
102
}
330
47
100
AcDbScale
 70
     0
300
3/8" = 1'-0"
140
0.375
141
12.0
290
     0
  0
SCALE
  5
62
102
{ACAD_REACTORS
330
47
102
}
330
47
100
AcDbScale
 70
     0
300
1/2" = 1'-0"
140
0.5
141
12.0
290
     0
  0
SCALE
  5
63
102
{ACAD_REACTORS
330
47
102
}
330
47
100
AcDbScale
 70
     0
300
3/4" = 1'-0"
140
0.75
141
12.0
290
     0
  0
SCALE
  5
64
102
{ACAD_REACTORS
330
47
102
}
330
47
100
AcDbScale
 70
     0
300
1" = 1'-0"
140
1.0
141
12.0
290
     0
  0
SCALE
  5
65
102
{ACAD_REACTORS
330
47
102
}
330
47
100
AcDbScale
 70
     0
300
1-1/2" = 1'-0"
140
1.5
141
12.0
290
     0
  0
SCALE
  5
66
102
{ACAD_REACTORS
330
47
102
}
330
47
100
AcDbScale
 70
     0
300
3" = 1'-0"
140
3.0
141
12.0
290
     0
  0
SCALE
  5
67
102
{ACAD_REACTORS
330
47
102
}
330
47
100
AcDbScale
 70
     0
300
6" = 1'-0"
140
6.0
141
12.0
290
     0
  0
SCALE
  5
68
102
{ACAD_REACTORS
330
47
102
}
330
47
100
AcDbScale
 70
     0
300
1'-0" = 1'-0"
140
12.0
141
12.0
290
     0
  0
ENDSEC
  0
EOF
