  0
SECTION
  2
HEADER
  9
$ACADVER
  1
AC1015
  9
$ACADMAINTVER
 70
     6
  9
$DWGCODEPAGE
  3
DOS932
  9
$INSBASE
 10
0.0
 20
0.0
 30
0.0
  9
$EXTMIN
 10
0.0
 20
0.0
 30
0.0
  9
$EXTMAX
 10
297.0
 20
210.0
 30
0.0
  9
$LIMMIN
 10
0.0
 20
0.0
  9
$LIMMAX
 10
297.0
 20
210.0
  9
$ORTHOMODE
 70
     0
  9
$REGENMODE
 70
     1
  9
$FILLMODE
 70
     1
  9
$QTEXTMODE
 70
     0
  9
$MIRRTEXT
 70
     1
  9
$LTSCALE
 40
1.0
  9
$ATTMODE
 70
     1
  9
$TEXTSIZE
 40
3.5
  9
$TRACEWID
 40
1.0
  9
$TEXTSTYLE
  7
Standard
  9
$CLAYER
  8
0
  9
$CELTYPE
  6
ByLayer
  9
$CECOLOR
 62
   256
  9
$CELTSCALE
 40
1.0
  9
$DISPSILH
 70
     0
  9
$DIMSCALE
 40
1.0
  9
$DIMASZ
 40
3.302
  9
$DIMEXO
 40
1.0
  9
$DIMDLI
 40
3.75
  9
$DIMRND
 40
0.0
  9
$DIMDLE
 40
0.0
  9
$DIMEXE
 40
1.0
  9
$DIMTP
 40
0.0
  9
$DIMTM
 40
0.0
  9
$DIMTXT
 40
3.5
  9
$DIMCEN
 40
2.5
  9
$DIMTSZ
 40
0.0
  9
$DIMTOL
 70
     0
  9
$DIMLIM
 70
     0
  9
$DIMTIH
 70
     1
  9
$DIMTOH
 70
     1
  9
$DIMSE1
 70
     0
  9
$DIMSE2
 70
     0
  9
$DIMTAD
 70
     1
  9
$DIMZIN
 70
     1
  9
$DIMBLK
  1

  9
$DIMASO
 70
     1
  9
$DIMSHO
 70
     1
  9
$DIMPOST
  1

  9
$DIMAPOST
  1

  9
$DIMALT
 70
     0
  9
$DIMALTD
 70
     3
  9
$DIMALTF
 40
0.0393700787
  9
$DIMLFAC
 40
1.0
  9
$DIMTOFL
 70
     1
  9
$DIMTVP
 40
0.0
  9
$DIMTIX
 70
     0
  9
$DIMSOXD
 70
     0
  9
$DIMSAH
 70
     0
  9
$DIMBLK1
  1

  9
$DIMBLK2
  1

  9
$DIMSTYLE
  2
ISO-25
  9
$DIMCLRD
 70
     0
  9
$DIMCLRE
 70
     0
  9
$DIMCLRT
 70
     0
  9
$DIMTFAC
 40
1.0
  9
$DIMGAP
 40
1.524
  9
$DIMJUST
 70
     0
  9
$DIMSD1
 70
     0
  9
$DIMSD2
 70
     0
  9
$DIMTOLJ
 70
     0
  9
$DIMTZIN
 70
     1
  9
$DIMALTZ
 70
     0
  9
$DIMALTTZ
 70
     0
  9
$DIMUPT
 70
     0
  9
$DIMDEC
 70
     4
  9
$DIMTDEC
 70
     4
  9
$DIMALTU
 70
     2
  9
$DIMALTTD
 70
     3
  9
$DIMTXSTY
  7
Standard
  9
$DIMAUNIT
 70
     0
  9
$DIMADEC
 70
     0
  9
$DIMALTRND
 40
0.0
  9
$DIMAZIN
 70
     0
  9
$DIMDSEP
 70
    44
  9
$DIMATFIT
 70
     3
  9
$DIMFRAC
 70
     0
  9
$DIMLDRBLK
  1

  9
$DIMLUNIT
 70
     2
  9
$DIMLWD
 70
    -2
  9
$DIMLWE
 70
    -2
  9
$DIMTMOVE
 70
     0
  9
$LUNITS
 70
     2
  9
$LUPREC
 70
     4
  9
$SKETCHINC
 40
1.0
  9
$FILLETRAD
 40
10.0
  9
$AUNITS
 70
     0
  9
$AUPREC
 70
     0
  9
$MENU
  1
.
  9
$ELEVATION
 40
0.0
  9
$PELEVATION
 40
0.0
  9
$THICKNESS
 40
0.0
  9
$LIMCHECK
 70
     0
  9
$CHAMFERA
 40
0.0
  9
$CHAMFERB
 40
0.0
  9
$CHAMFERC
 40
0.0
  9
$CHAMFERD
 40
0.0
  9
$SKPOLY
 70
     0
  9
$TDCREATE
 40
2458290.4686825
  9
$TDUCREATE
 40
2458290.0936825
  9
$TDUPDATE
 40
2458290.468691516
  9
$TDUUPDATE
 40
2458290.093691516
  9
$TDINDWG
 40
0.0000000116
  9
$TDUSRTIMER
 40
0.0000000116
  9
$USRTIMER
 70
     1
  9
$ANGBASE
 50
0.0
  9
$ANGDIR
 70
     0
  9
$PDMODE
 70
     0
  9
$PDSIZE
 40
-1.0
  9
$PLINEWID
 40
0.0
  9
$SPLFRAME
 70
     0
  9
$SPLINETYPE
 70
     6
  9
$SPLINESEGS
 70
     8
  9
$HANDSEED
  5
43B
  9
$SURFTAB1
 70
     6
  9
$SURFTAB2
 70
     6
  9
$SURFTYPE
 70
     6
  9
$SURFU
 70
     6
  9
$SURFV
 70
     6
  9
$UCSBASE
  2

  9
$UCSNAME
  2

  9
$UCSORG
 10
0.0
 20
0.0
 30
0.0
  9
$UCSXDIR
 10
1.0
 20
0.0
 30
0.0
  9
$UCSYDIR
 10
0.0
 20
1.0
 30
0.0
  9
$UCSORTHOREF
  2

  9
$UCSORTHOVIEW
 70
     0
  9
$UCSORGTOP
 10
0.0
 20
0.0
 30
0.0
  9
$UCSORGBOTTOM
 10
0.0
 20
0.0
 30
0.0
  9
$UCSORGLEFT
 10
0.0
 20
0.0
 30
0.0
  9
$UCSORGRIGHT
 10
0.0
 20
0.0
 30
0.0
  9
$UCSORGFRONT
 10
0.0
 20
0.0
 30
0.0
  9
$UCSORGBACK
 10
0.0
 20
0.0
 30
0.0
  9
$PUCSBASE
  2

  9
$PUCSNAME
  2

  9
$PUCSORG
 10
0.0
 20
0.0
 30
0.0
  9
$PUCSXDIR
 10
1.0
 20
0.0
 30
0.0
  9
$PUCSYDIR
 10
0.0
 20
1.0
 30
0.0
  9
$PUCSORTHOREF
  2

  9
$PUCSORTHOVIEW
 70
     0
  9
$PUCSORGTOP
 10
0.0
 20
0.0
 30
0.0
  9
$PUCSORGBOTTOM
 10
0.0
 20
0.0
 30
0.0
  9
$PUCSORGLEFT
 10
0.0
 20
0.0
 30
0.0
  9
$PUCSORGRIGHT
 10
0.0
 20
0.0
 30
0.0
  9
$PUCSORGFRONT
 10
0.0
 20
0.0
 30
0.0
  9
$PUCSORGBACK
 10
0.0
 20
0.0
 30
0.0
  9
$USERI1
 70
     0
  9
$USERI2
 70
     0
  9
$USERI3
 70
     0
  9
$USERI4
 70
     0
  9
$USERI5
 70
     0
  9
$USERR1
 40
0.0
  9
$USERR2
 40
0.0
  9
$USERR3
 40
0.0
  9
$USERR4
 40
0.0
  9
$USERR5
 40
0.0
  9
$WORLDVIEW
 70
     1
  9
$SHADEDGE
 70
     3
  9
$SHADEDIF
 70
    70
  9
$TILEMODE
 70
     0
  9
$MAXACTVP
 70
    64
  9
$PINSBASE
 10
0.0
 20
0.0
 30
0.0
  9
$PLIMCHECK
 70
     0
  9
$PEXTMIN
 10
0.0
 20
0.0
 30
0.0
  9
$PEXTMAX
 10
297.0
 20
210.0
 30
0.0
  9
$PLIMMIN
 10
0.0
 20
0.0
  9
$PLIMMAX
 10
297.0
 20
210.0
  9
$UNITMODE
 70
     0
  9
$VISRETAIN
 70
     1
  9
$PLINEGEN
 70
     0
  9
$PSLTSCALE
 70
     1
  9
$TREEDEPTH
 70
  3020
  9
$CMLSTYLE
  2
Standard
  9
$CMLJUST
 70
     0
  9
$CMLSCALE
 40
20.0
  9
$PROXYGRAPHICS
 70
     1
  9
$MEASUREMENT
 70
     1
  9
$CELWEIGHT
370
    -1
  9
$ENDCAPS
280
     0
  9
$JOINSTYLE
280
     0
  9
$LWDISPLAY
290
     1
  9
$INSUNITS
 70
     4
  9
$HYPERLINKBASE
  1

  9
$STYLESHEET
  1

  9
$XEDIT
290
     1
  9
$CEPSNTYPE
380
     0
  9
$PSTYLEMODE
290
     1
  9
$FINGERPRINTGUID
  2
{7717038A-4C82-4C65-9D06-1AB48538A9D2}
  9
$VERSIONGUID
  2
{FAEB1C32-E019-11D5-929B-00C0DF256EC4}
  9
$EXTNAMES
290
     1
  9
$PSVPSCALE
 40
0.0
  9
$OLESTARTUP
290
     0
  0
ENDSEC
  0
SECTION
  2
CLASSES
  0
CLASS
  1
ACDBDICTIONARYWDFLT
  2
AcDbDictionaryWithDefault
  3
ObjectDBX Classes
 90
        0
280
     0
281
     0
  0
CLASS
  1
VISUALSTYLE
  2
AcDbVisualStyle
  3
ObjectDBX Classes
 90
     4095
280
     0
281
     0
  0
CLASS
  1
MATERIAL
  2
AcDbMaterial
  3
ObjectDBX Classes
 90
     1153
280
     0
281
     0
  0
CLASS
  1
SCALE
  2
AcDbScale
  3
ObjectDBX Classes
 90
     1153
280
     0
281
     0
  0
CLASS
  1
TABLESTYLE
  2
AcDbTableStyle
  3
ObjectDBX Classes
 90
     4095
280
     0
281
     0
  0
CLASS
  1
MLEADERSTYLE
  2
AcDbMLeaderStyle
  3
ACDB_MLEADERSTYLE_CLASS
 90
     4095
280
     0
281
     0
  0
CLASS
  1
SUN
  2
AcDbSun
  3
SCENEOE
 90
     1153
280
     0
281
     0
  0
CLASS
  1
ACDBPLACEHOLDER
  2
AcDbPlaceHolder
  3
ObjectDBX Classes
 90
        0
280
     0
281
     0
  0
CLASS
  1
LAYOUT
  2
AcDbLayout
  3
ObjectDBX Classes
 90
        0
280
     0
281
     0
  0
ENDSEC
  0
SECTION
  2
TABLES
  0
TABLE
  2
VPORT
  5
8
330
0
100
AcDbSymbolTable
 70
     1
  0
VPORT
  5
29
330
8
100
AcDbSymbolTableRecord
100
AcDbViewportTableRecord
  2
*Active
 70
     0
 10
0.0
 20
0.0
 11
1.0
 21
1.0
 12
148.5
 22
105.0
 13
0.0
 23
0.0
 14
10.0
 24
10.0
 15
10.0
 25
10.0
 16
0.0
 26
0.0
 36
1.0
 17
0.0
 27
0.0
 37
0.0
 40
210.0
 41
1.4142857143
 42
50.0
 43
0.0
 44
0.0
 50
0.0
 51
0.0
 71
     0
 72
  2000
 73
     1
 74
     3
 75
     0
 76
     0
 77
     0
 78
     0
281
     0
 65
     1
110
0.0
120
0.0
130
0.0
111
1.0
121
0.0
131
0.0
112
0.0
122
1.0
132
0.0
 79
     0
146
0.0
  0
ENDTAB
  0
TABLE
  2
LTYPE
  5
5
330
0
100
AcDbSymbolTable
 70
     6
  0
LTYPE
  5
14
330
5
100
AcDbSymbolTableRecord
100
AcDbLinetypeTableRecord
  2
ByBlock
 70
     0
  3

 72
    65
 73
     0
 40
0.0
  0
LTYPE
  5
15
330
5
100
AcDbSymbolTableRecord
100
AcDbLinetypeTableRecord
  2
ByLayer
 70
     0
  3

 72
    65
 73
     0
 40
0.0
  0
LTYPE
  5
16
330
5
100
AcDbSymbolTableRecord
100
AcDbLinetypeTableRecord
  2
Continuous
 70
     0
  3
Solid line
 72
    65
 73
     0
 40
0.0
  0
LTYPE
  5
6E
330
5
100
AcDbSymbolTableRecord
100
AcDbLinetypeTableRecord
  2
HIDDEN
 70
     0
  3
Hidden __ __ __ __ __ __ __ __ __ __ __ __ __ __
 72
    65
 73
     2
 40
1.905
 49
1.27
 74
     0
 49
-0.635
 74
     0
  0
LTYPE
  5
6F
330
5
100
AcDbSymbolTableRecord
100
AcDbLinetypeTableRecord
  2
PHANTOM
 70
     0
  3
Phantom ______  __  __  ______  __  __  ______
 72
    65
 73
     6
 40
12.7
 49
6.35
 74
     0
 49
-1.27
 74
     0
 49
1.27
 74
     0
 49
-1.27
 74
     0
 49
1.27
 74
     0
 49
-1.27
 74
     0
  0
LTYPE
  5
70
330
5
100
AcDbSymbolTableRecord
100
AcDbLinetypeTableRecord
  2
CENTER
 70
     0
  3
Center ____ _ ____ _ ____ _ ____ _ ____ _ ____
 72
    65
 73
     4
 40
10.16
 49
6.35
 74
     0
 49
-1.27
 74
     0
 49
1.27
 74
     0
 49
-1.27
 74
     0
  0
LTYPE
  5
71
330
5
100
AcDbSymbolTableRecord
100
AcDbLinetypeTableRecord
  2
CENTERX2
 70
     0
  3
Center (2x) ________  __  ________  __  _____
 72
    65
 73
     4
 40
20.32
 49
12.7
 74
     0
 49
-2.54
 74
     0
 49
2.54
 74
     0
 49
-2.54
 74
     0
  0
LTYPE
  5
72
330
5
100
AcDbSymbolTableRecord
100
AcDbLinetypeTableRecord
  2
DOT2
 70
     0
  3
Dot (.5x) ........................................
 72
    65
 73
     2
 40
0.635
 49
0.0
 74
     0
 49
-0.635
 74
     0
  0
ENDTAB
  0
TABLE
  2
LAYER
  5
2
330
0
100
AcDbSymbolTable
 70
     5
  0
LAYER
  5
10
330
2
100
AcDbSymbolTableRecord
100
AcDbLayerTableRecord
  2
0
 70
     0
 62
     7
  6
Continuous
370
    -3
390
F
  0
LAYER
  5
73
330
2
100
AcDbSymbolTableRecord
100
AcDbLayerTableRecord
  2
SLD-0
 70
     0
 62
     7
  6
Continuous
370
    -3
390
F
  0
LAYER
  5
74
330
2
100
AcDbSymbolTableRecord
100
AcDbLayerTableRecord
  2
1
 70
     0
 62
     7
  6
Continuous
370
    -3
390
F
  0
LAYER
  5
75
330
2
100
AcDbSymbolTableRecord
100
AcDbLayerTableRecord
  2
2
 70
     0
 62
     7
  6
Continuous
370
    -3
390
F
  0
LAYER
  5
76
330
2
100
AcDbSymbolTableRecord
100
AcDbLayerTableRecord
  2
SLD-DEFPOINTS
 70
     0
 62
     7
  6
Continuous
290
     0
370
    -3
390
F
  0
ENDTAB
  0
TABLE
  2
STYLE
  5
3
330
0
100
AcDbSymbolTable
 70
    11
  0
STYLE
  5
11
330
3
100
AcDbSymbolTableRecord
100
AcDbTextStyleTableRecord
  2
Standard
 70
     0
 40
0.0
 41
1.0
 50
0.0
 71
     0
 42
3.5
  3
txt
  4
bigfont
  0
STYLE
  5
36A
330
3
100
AcDbSymbolTableRecord
100
AcDbTextStyleTableRecord
  2
SLDTEXTSTYLE0
 70
     0
 40
0.0
 41
1.0
 50
0.0
 71
     0
 42
3.5
  3
TXT
  4
bigfont
  0
STYLE
  5
37D
330
3
100
AcDbSymbolTableRecord
100
AcDbTextStyleTableRecord
  2
SLDTEXTSTYLE1
 70
     0
 40
0.0
 41
0.96
 50
0.0
 71
     0
 42
3.5
  3
TXT
  4
bigfont
  0
STYLE
  5
40F
330
3
100
AcDbSymbolTableRecord
100
AcDbTextStyleTableRecord
  2
SLDTEXTSTYLE2
 70
     0
 40
0.0
 41
1.0000000754
 50
0.0
 71
     0
 42
3.5
  3
TXT
  4
bigfont
  0
STYLE
  5
411
330
3
100
AcDbSymbolTableRecord
100
AcDbTextStyleTableRecord
  2
SLDTEXTSTYLE3
 70
     0
 40
0.0
 41
0.7000000113
 50
0.0
 71
     0
 42
3.5
  3
TXT
  4
bigfont
  0
STYLE
  5
413
330
3
100
AcDbSymbolTableRecord
100
AcDbTextStyleTableRecord
  2
SLDTEXTSTYLE4
 70
     0
 40
0.0
 41
1.0000000132
 50
0.0
 71
     0
 42
3.5
  3
TXT
  4
bigfont
  0
STYLE
  5
415
330
3
100
AcDbSymbolTableRecord
100
AcDbTextStyleTableRecord
  2
SLDTEXTSTYLE5
 70
     0
 40
0.0
 41
1.0000000278
 50
0.0
 71
     0
 42
3.5
  3
TXT
  4
bigfont
  0
STYLE
  5
419
330
3
100
AcDbSymbolTableRecord
100
AcDbTextStyleTableRecord
  2
SLDTEXTSTYLE6
 70
     0
 40
0.0
 41
0.2776635069
 50
0.0
 71
     0
 42
3.5
  3
TXT
  4
bigfont
  0
STYLE
  5
41F
330
3
100
AcDbSymbolTableRecord
100
AcDbTextStyleTableRecord
  2
SLDTEXTSTYLE7
 70
     0
 40
0.0
 41
0.7000000249
 50
0.0
 71
     0
 42
3.5
  3
TXT
  4
bigfont
  0
STYLE
  5
431
330
3
100
AcDbSymbolTableRecord
100
AcDbTextStyleTableRecord
  2
SLDTEXTSTYLE8
 70
     0
 40
0.0
 41
0.6999999996
 50
0.0
 71
     0
 42
3.5
  3
TXT
  4
bigfont
  0
STYLE
  5
439
330
3
100
AcDbSymbolTableRecord
100
AcDbTextStyleTableRecord
  2
SLDTEXTSTYLE9
 70
     0
 40
0.0
 41
0.9999999743
 50
0.0
 71
     0
 42
3.5
  3
TXT
  4
bigfont
  0
ENDTAB
  0
TABLE
  2
VIEW
  5
6
330
0
100
AcDbSymbolTable
 70
     0
  0
ENDTAB
  0
TABLE
  2
UCS
  5
7
330
0
100
AcDbSymbolTable
 70
     0
  0
ENDTAB
  0
TABLE
  2
APPID
  5
9
330
0
100
AcDbSymbolTable
 70
     1
  0
APPID
  5
12
330
9
100
AcDbSymbolTableRecord
100
AcDbRegAppTableRecord
  2
ACAD
 70
     0
  0
ENDTAB
  0
TABLE
  2
DIMSTYLE
  5
A
330
0
100
AcDbSymbolTable
 70
     3
100
AcDbDimStyleTable
  0
DIMSTYLE
105
27
330
A
100
AcDbSymbolTableRecord
100
AcDbDimStyleTableRecord
  2
ISO-25
 70
     0
 41
2.5
 42
0.625
 43
3.75
 44
1.25
 73
     0
 74
     0
 77
     1
 78
     8
140
2.5
141
2.5
143
0.0393700787
147
0.625
171
     3
172
     1
178
     0
271
     2
272
     2
274
     3
278
    44
283
     0
284
     8
340
11
  0
DIMSTYLE
105
36B
102
{ACAD_REACTORS
330
369
330
37F
330
3AA
330
3B8
330
3C6
330
3D4
330
3E2
330
3F0
330
3FE
102
}
330
A
100
AcDbSymbolTableRecord
100
AcDbDimStyleTableRecord
  2
SLDDIMSTYLE0
 70
     0
 41
3.302
 44
0.0
 45
0.000000001
 73
     0
 74
     0
 77
     1
 78
    12
 79
     3
140
2.9104166031
147
0.7276041508
173
     1
178
     0
271
     0
276
     2
284
    12
340
36A
341
36C
343
36C
344
36C
  0
DIMSTYLE
105
38E
102
{ACAD_REACTORS
330
38D
330
39C
102
}
330
A
100
AcDbSymbolTableRecord
100
AcDbDimStyleTableRecord
  2
SLDDIMSTYLE1
 70
     0
 41
3.302
 44
0.0
 45
0.000000001
 73
     0
 74
     0
 77
     1
 78
    12
 79
     3
140
2.9104166031
147
0.7276041508
173
     1
178
     0
271
     1
276
     2
284
    12
340
36A
341
36C
343
36C
344
36C
  0
ENDTAB
  0
TABLE
  2
BLOCK_RECORD
  5
1
330
0
100
AcDbSymbolTable
 70
    13
  0
BLOCK_RECORD
  5
1F
330
1
100
AcDbSymbolTableRecord
100
AcDbBlockTableRecord
  2
*Model_Space
340
22
  0
BLOCK_RECORD
  5
1B
330
1
100
AcDbSymbolTableRecord
100
AcDbBlockTableRecord
  2
*Paper_Space
340
1E
  0
BLOCK_RECORD
  5
36C
330
1
100
AcDbSymbolTableRecord
100
AcDbBlockTableRecord
  2
_NONE
340
0
  0
BLOCK_RECORD
  5
36F
330
1
100
AcDbSymbolTableRecord
100
AcDbBlockTableRecord
  2
_D
340
0
  0
BLOCK_RECORD
  5
380
330
1
100
AcDbSymbolTableRecord
100
AcDbBlockTableRecord
  2
_D_1
340
0
  0
BLOCK_RECORD
  5
38F
330
1
100
AcDbSymbolTableRecord
100
AcDbBlockTableRecord
  2
_D_2
340
0
  0
BLOCK_RECORD
  5
39D
330
1
100
AcDbSymbolTableRecord
100
AcDbBlockTableRecord
  2
_D_3
340
0
  0
BLOCK_RECORD
  5
3AB
330
1
100
AcDbSymbolTableRecord
100
AcDbBlockTableRecord
  2
_D_4
340
0
  0
BLOCK_RECORD
  5
3B9
330
1
100
AcDbSymbolTableRecord
100
AcDbBlockTableRecord
  2
_D_5
340
0
  0
BLOCK_RECORD
  5
3C7
330
1
100
AcDbSymbolTableRecord
100
AcDbBlockTableRecord
  2
_D_6
340
0
  0
BLOCK_RECORD
  5
3D5
330
1
100
AcDbSymbolTableRecord
100
AcDbBlockTableRecord
  2
_D_7
340
0
  0
BLOCK_RECORD
  5
3E3
330
1
100
AcDbSymbolTableRecord
100
AcDbBlockTableRecord
  2
_D_8
340
0
  0
BLOCK_RECORD
  5
3F1
330
1
100
AcDbSymbolTableRecord
100
AcDbBlockTableRecord
  2
_D_9
340
0
  0
BLOCK_RECORD
  5
3FF
330
1
100
AcDbSymbolTableRecord
100
AcDbBlockTableRecord
  2
_D_10
340
0
  0
ENDTAB
  0
ENDSEC
  0
SECTION
  2
BLOCKS
  0
BLOCK
  5
20
330
1F
100
AcDbEntity
  8
0
100
AcDbBlockBegin
  2
*Model_Space
 70
     0
 10
0.0
 20
0.0
 30
0.0
  3
*Model_Space
  1

  0
ENDBLK
  5
21
330
1F
100
AcDbEntity
  8
0
100
AcDbBlockEnd
  0
BLOCK
  5
1C
330
1B
100
AcDbEntity
 67
     1
  8
0
100
AcDbBlockBegin
  2
*Paper_Space
 70
     0
 10
0.0
 20
0.0
 30
0.0
  3
*Paper_Space
  1

  0
ENDBLK
  5
1D
330
1B
100
AcDbEntity
 67
     1
  8
0
100
AcDbBlockEnd
  0
BLOCK
  5
36D
330
36C
100
AcDbEntity
  8
0
100
AcDbBlockBegin
  2
_NONE
 70
     0
 10
0.0
 20
0.0
 30
0.0
  3
_NONE
  1

  0
ENDBLK
  5
36E
330
36C
100
AcDbEntity
  8
0
100
AcDbBlockEnd
  0
BLOCK
  5
370
330
36F
100
AcDbEntity
  8
0
100
AcDbBlockBegin
  2
_D
 70
     0
 10
0.0
 20
0.0
 30
0.0
  3
_D
  1

  0
LINE
  5
372
330
36F
100
AcDbEntity
  8
SLD-0
 62
     7
100
AcDbLine
 10
231.7580854082
 20
37.2405093847
 30
0.0
 11
239.7580854082
 21
37.2405093847
 31
0.0
  0
LINE
  5
373
330
36F
100
AcDbEntity
  8
SLD-0
 62
     7
100
AcDbLine
 10
231.7580854082
 20
37.2405093847
 30
0.0
 11
228.7580854533
 21
36.2405093997
 31
0.0
  0
LINE
  5
374
330
36F
100
AcDbEntity
  8
SLD-0
 62
     7
100
AcDbLine
 10
231.7580854082
 20
37.2405093847
 30
0.0
 11
228.7580854533
 21
38.2405093697
 31
0.0
  0
LINE
  5
375
330
36F
100
AcDbEntity
  8
SLD-0
 62
     7
100
AcDbLine
 10
231.7580854082
 20
37.2405093847
 30
0.0
 11
228.7580854533
 21
37.2405093847
 31
0.0
  0
LINE
  5
376
330
36F
100
AcDbEntity
  8
SLD-0
 62
     7
100
AcDbLine
 10
228.7580854533
 20
37.2405093847
 30
0.0
 11
225.4080855036
 21
37.2405093847
 31
0.0
  0
LINE
  5
377
330
36F
100
AcDbEntity
  8
SLD-0
 62
     7
100
AcDbLine
 10
239.7580854082
 20
37.2405093847
 30
0.0
 11
242.7580853631
 21
38.2405093697
 31
0.0
  0
LINE
  5
378
330
36F
100
AcDbEntity
  8
SLD-0
 62
     7
100
AcDbLine
 10
239.7580854082
 20
37.2405093847
 30
0.0
 11
242.7580853631
 21
36.2405093997
 31
0.0
  0
LINE
  5
379
330
36F
100
AcDbEntity
  8
SLD-0
 62
     7
100
AcDbLine
 10
239.7580854082
 20
37.2405093847
 30
0.0
 11
242.7580853631
 21
37.2405093847
 31
0.0
  0
LINE
  5
37A
330
36F
100
AcDbEntity
  8
SLD-0
 62
     7
100
AcDbLine
 10
242.7580853631
 20
37.2405093847
 30
0.0
 11
246.1080853128
 21
37.2405093847
 31
0.0
  0
LINE
  5
37B
330
36F
100
AcDbEntity
  8
SLD-0
 62
     7
100
AcDbLine
 10
231.7580854082
 20
59.4916048324
 30
0.0
 11
231.7580854082
 21
35.7405093847
 31
0.0
  0
LINE
  5
37C
330
36F
100
AcDbEntity
  8
SLD-0
 62
     7
100
AcDbLine
 10
239.7580854082
 20
59.4916048324
 30
0.0
 11
239.7580854082
 21
35.7405093847
 31
0.0
  0
MTEXT
  5
37E
330
36F
100
AcDbEntity
  8
SLD-0
 62
     7
100
AcDbMText
 10
234.7185210371
 20
40.6603621749
 30
0.0
 40
2.9104166031
 41
0.0
 71
     1
 72
     1
  1
8
  7
SLDTEXTSTYLE1
 73
     1
 44
1.0
  0
ENDBLK
  5
371
330
36F
100
AcDbEntity
  8
0
100
AcDbBlockEnd
  0
BLOCK
  5
381
330
380
100
AcDbEntity
  8
0
100
AcDbBlockBegin
  2
_D_1
 70
     0
 10
0.0
 20
0.0
 30
0.0
  3
_D_1
  1

  0
LINE
  5
383
330
380
100
AcDbEntity
  8
SLD-0
 62
     7
100
AcDbLine
 10
54.3286750048
 20
37.2405093845
 30
0.0
 11
66.328675095
 21
37.2405093845
 31
0.0
  0
LINE
  5
384
330
380
100
AcDbEntity
  8
SLD-0
 62
     7
100
AcDbLine
 10
51.3286750499
 20
37.2405093845
 30
0.0
 11
54.3286750048
 21
38.2405093695
 31
0.0
  0
LINE
  5
385
330
380
100
AcDbEntity
  8
SLD-0
 62
     7
100
AcDbLine
 10
51.3286750499
 20
37.2405093845
 30
0.0
 11
54.3286750048
 21
36.2405093995
 31
0.0
  0
LINE
  5
386
330
380
100
AcDbEntity
  8
SLD-0
 62
     7
100
AcDbLine
 10
51.3286750499
 20
37.2405093845
 30
0.0
 11
54.3286750048
 21
37.2405093845
 31
0.0
  0
LINE
  5
387
330
380
100
AcDbEntity
  8
SLD-0
 62
     7
100
AcDbLine
 10
69.3286750499
 20
37.2405093845
 30
0.0
 11
66.328675095
 21
36.2405093995
 31
0.0
  0
LINE
  5
388
330
380
100
AcDbEntity
  8
SLD-0
 62
     7
100
AcDbLine
 10
69.3286750499
 20
37.2405093845
 30
0.0
 11
66.328675095
 21
38.2405093695
 31
0.0
  0
LINE
  5
389
330
380
100
AcDbEntity
  8
SLD-0
 62
     7
100
AcDbLine
 10
69.3286750499
 20
37.2405093845
 30
0.0
 11
66.328675095
 21
37.2405093845
 31
0.0
  0
LINE
  5
38A
330
380
100
AcDbEntity
  8
SLD-0
 62
     7
100
AcDbLine
 10
51.3286750499
 20
51.0640002999
 30
0.0
 11
51.3286750499
 21
35.7405093845
 31
0.0
  0
LINE
  5
38B
330
380
100
AcDbEntity
  8
SLD-0
 62
     7
100
AcDbLine
 10
69.3286750499
 20
51.0640002999
 30
0.0
 11
69.3286750499
 21
35.7405093845
 31
0.0
  0
MTEXT
  5
38C
330
380
100
AcDbEntity
  8
SLD-0
 62
     7
100
AcDbMText
 10
57.8339024369
 20
40.6603621747
 30
0.0
 40
2.9104166031
 41
0.0
 71
     1
 72
     1
  1
18
  7
SLDTEXTSTYLE1
 73
     1
 44
1.0
  0
ENDBLK
  5
382
330
380
100
AcDbEntity
  8
0
100
AcDbBlockEnd
  0
BLOCK
  5
390
330
38F
100
AcDbEntity
  8
0
100
AcDbBlockBegin
  2
_D_2
 70
     0
 10
0.0
 20
0.0
 30
0.0
  3
_D_2
  1

  0
LINE
  5
392
330
38F
100
AcDbEntity
  8
SLD-0
 62
     7
100
AcDbLine
 10
92.4608389242
 20
114.0639909973
 30
0.0
 11
92.4608389242
 21
54.5640001751
 31
0.0
  0
LINE
  5
393
330
38F
100
AcDbEntity
  8
SLD-0
 62
     7
100
AcDbLine
 10
92.4608389242
 20
117.0639909522
 30
0.0
 11
93.4608389092
 21
114.0639909973
 31
0.0
  0
LINE
  5
394
330
38F
100
AcDbEntity
  8
SLD-0
 62
     7
100
AcDbLine
 10
92.4608389242
 20
117.0639909522
 30
0.0
 11
91.4608389392
 21
114.0639909973
 31
0.0
  0
LINE
  5
395
330
38F
100
AcDbEntity
  8
SLD-0
 62
     7
100
AcDbLine
 10
92.4608389242
 20
117.0639909522
 30
0.0
 11
92.4608389242
 21
114.0639909973
 31
0.0
  0
LINE
  5
396
330
38F
100
AcDbEntity
  8
SLD-0
 62
     7
100
AcDbLine
 10
92.4608389242
 20
51.5640002202
 30
0.0
 11
91.4608389392
 21
54.5640001751
 31
0.0
  0
LINE
  5
397
330
38F
100
AcDbEntity
  8
SLD-0
 62
     7
100
AcDbLine
 10
92.4608389242
 20
51.5640002202
 30
0.0
 11
93.4608389092
 21
54.5640001751
 31
0.0
  0
LINE
  5
398
330
38F
100
AcDbEntity
  8
SLD-0
 62
     7
100
AcDbLine
 10
92.4608389242
 20
51.5640002202
 30
0.0
 11
92.4608389242
 21
54.5640001751
 31
0.0
  0
LINE
  5
399
330
38F
100
AcDbEntity
  8
SLD-0
 62
     7
100
AcDbLine
 10
69.3286750274
 20
117.0639909522
 30
0.0
 11
93.9608389242
 21
117.0639909522
 31
0.0
  0
LINE
  5
39A
330
38F
100
AcDbEntity
  8
SLD-0
 62
     7
100
AcDbLine
 10
69.8286750277
 20
51.5640002202
 30
0.0
 11
93.9608389242
 21
51.5640002202
 31
0.0
  0
MTEXT
  5
39B
330
38F
100
AcDbEntity
  8
SLD-0
 62
     7
100
AcDbMText
 10
89.040986134
 20
79.7819314344
 30
0.0
 40
2.9104166031
 41
0.0
 71
     1
 72
     1
  1
65.5
  7
SLDTEXTSTYLE1
 11
-3.828568698926949E-16
 21
1.0
 31
0.0
 73
     1
 44
1.0
  0
ENDBLK
  5
391
330
38F
100
AcDbEntity
  8
0
100
AcDbBlockEnd
  0
BLOCK
  5
39E
330
39D
100
AcDbEntity
  8
0
100
AcDbBlockBegin
  2
_D_3
 70
     0
 10
0.0
 20
0.0
 30
0.0
  3
_D_3
  1

  0
LINE
  5
3A0
330
39D
100
AcDbEntity
  8
SLD-0
 62
     7
100
AcDbLine
 10
80.4608389242
 20
84.3238594859
 30
0.0
 11
80.4608389242
 21
54.5640001751
 31
0.0
  0
LINE
  5
3A1
330
39D
100
AcDbEntity
  8
SLD-0
 62
     7
100
AcDbLine
 10
80.4608389242
 20
87.3238594408
 30
0.0
 11
81.4608389092
 21
84.3238594859
 31
0.0
  0
LINE
  5
3A2
330
39D
100
AcDbEntity
  8
SLD-0
 62
     7
100
AcDbLine
 10
80.4608389242
 20
87.3238594408
 30
0.0
 11
79.4608389392
 21
84.3238594859
 31
0.0
  0
LINE
  5
3A3
330
39D
100
AcDbEntity
  8
SLD-0
 62
     7
100
AcDbLine
 10
80.4608389242
 20
87.3238594408
 30
0.0
 11
80.4608389242
 21
84.3238594859
 31
0.0
  0
LINE
  5
3A4
330
39D
100
AcDbEntity
  8
SLD-0
 62
     7
100
AcDbLine
 10
80.4608389242
 20
51.5640002202
 30
0.0
 11
79.4608389392
 21
54.5640001751
 31
0.0
  0
LINE
  5
3A5
330
39D
100
AcDbEntity
  8
SLD-0
 62
     7
100
AcDbLine
 10
80.4608389242
 20
51.5640002202
 30
0.0
 11
81.4608389092
 21
54.5640001751
 31
0.0
  0
LINE
  5
3A6
330
39D
100
AcDbEntity
  8
SLD-0
 62
     7
100
AcDbLine
 10
80.4608389242
 20
51.5640002202
 30
0.0
 11
80.4608389242
 21
54.5640001751
 31
0.0
  0
LINE
  5
3A7
330
39D
100
AcDbEntity
  8
SLD-0
 62
     7
100
AcDbLine
 10
61.8286750274
 20
87.3238594408
 30
0.0
 11
81.9608389242
 21
87.3238594408
 31
0.0
  0
LINE
  5
3A8
330
39D
100
AcDbEntity
  8
SLD-0
 62
     7
100
AcDbLine
 10
69.8286750277
 20
51.5640002202
 30
0.0
 11
81.9608389242
 21
51.5640002202
 31
0.0
  0
MTEXT
  5
3A9
330
39D
100
AcDbEntity
  8
SLD-0
 62
     7
100
AcDbMText
 10
77.040986134
 20
62.0014491949
 30
0.0
 40
2.9104166031
 41
0.0
 71
     1
 72
     1
  1
(35.8)
  7
SLDTEXTSTYLE1
 11
-3.828568698926949E-16
 21
1.0
 31
0.0
 73
     1
 44
1.0
  0
ENDBLK
  5
39F
330
39D
100
AcDbEntity
  8
0
100
AcDbBlockEnd
  0
BLOCK
  5
3AC
330
3AB
100
AcDbEntity
  8
0
100
AcDbBlockBegin
  2
_D_4
 70
     0
 10
0.0
 20
0.0
 30
0.0
  3
_D_4
  1

  0
LINE
  5
3AE
330
3AB
100
AcDbEntity
  8
SLD-0
 62
     7
100
AcDbLine
 10
202.6335893675
 20
114.0639909973
 30
0.0
 11
202.6335893675
 21
62.0639909071
 31
0.0
  0
LINE
  5
3AF
330
3AB
100
AcDbEntity
  8
SLD-0
 62
     7
100
AcDbLine
 10
202.6335893675
 20
117.0639909522
 30
0.0
 11
203.6335893525
 21
114.0639909973
 31
0.0
  0
LINE
  5
3B0
330
3AB
100
AcDbEntity
  8
SLD-0
 62
     7
100
AcDbLine
 10
202.6335893675
 20
117.0639909522
 30
0.0
 11
201.6335893825
 21
114.0639909973
 31
0.0
  0
LINE
  5
3B1
330
3AB
100
AcDbEntity
  8
SLD-0
 62
     7
100
AcDbLine
 10
202.6335893675
 20
117.0639909522
 30
0.0
 11
202.6335893675
 21
114.0639909973
 31
0.0
  0
LINE
  5
3B2
330
3AB
100
AcDbEntity
  8
SLD-0
 62
     7
100
AcDbLine
 10
202.6335893675
 20
59.0639909522
 30
0.0
 11
201.6335893825
 21
62.0639909071
 31
0.0
  0
LINE
  5
3B3
330
3AB
100
AcDbEntity
  8
SLD-0
 62
     7
100
AcDbLine
 10
202.6335893675
 20
59.0639909522
 30
0.0
 11
203.6335893525
 21
62.0639909071
 31
0.0
  0
LINE
  5
3B4
330
3AB
100
AcDbEntity
  8
SLD-0
 62
     7
100
AcDbLine
 10
202.6335893675
 20
59.0639909522
 30
0.0
 11
202.6335893675
 21
62.0639909071
 31
0.0
  0
LINE
  5
3B5
330
3AB
100
AcDbEntity
  8
SLD-0
 62
     7
100
AcDbLine
 10
166.6276987039
 20
117.0639909522
 30
0.0
 11
204.1335893675
 21
117.0639909522
 31
0.0
  0
LINE
  5
3B6
330
3AB
100
AcDbEntity
  8
SLD-0
 62
     7
100
AcDbLine
 10
167.1276987039
 20
59.0639909522
 30
0.0
 11
204.1335893675
 21
59.0639909522
 31
0.0
  0
MTEXT
  5
3B7
330
3AB
100
AcDbEntity
  8
SLD-0
 62
     7
100
AcDbMText
 10
199.2137365773
 20
85.5692183392
 30
0.0
 40
2.9104166031
 41
0.0
 71
     1
 72
     1
  1
58
  7
SLDTEXTSTYLE1
 11
-3.828568698926949E-16
 21
1.0
 31
0.0
 73
     1
 44
1.0
  0
ENDBLK
  5
3AD
330
3AB
100
AcDbEntity
  8
0
100
AcDbBlockEnd
  0
BLOCK
  5
3BA
330
3B9
100
AcDbEntity
  8
0
100
AcDbBlockBegin
  2
_D_5
 70
     0
 10
0.0
 20
0.0
 30
0.0
  3
_D_5
  1

  0
LINE
  5
3BC
330
3B9
100
AcDbEntity
  8
SLD-0
 62
     7
100
AcDbLine
 10
115.4696751346
 20
95.3295534419
 30
0.0
 11
119.0951874894
 21
97.0201576176
 31
0.0
  0
LINE
  5
3BD
330
3B9
100
AcDbEntity
  8
SLD-0
 62
     7
100
AcDbLine
 10
112.7507518143
 20
94.0616986757
 30
0.0
 11
115.0470568792
 21
96.2358612153
 31
0.0
  0
LINE
  5
3BE
330
3B9
100
AcDbEntity
  8
SLD-0
 62
     7
100
AcDbLine
 10
112.7507518143
 20
94.0616986757
 30
0.0
 11
115.89229339
 21
94.4232456684
 31
0.0
  0
LINE
  5
3BF
330
3B9
100
AcDbEntity
  8
SLD-0
 62
     7
100
AcDbLine
 10
112.7507518143
 20
94.0616986757
 30
0.0
 11
115.4696751346
 21
95.3295534419
 31
0.0
  0
LINE
  5
3C0
330
3B9
100
AcDbEntity
  8
SLD-0
 62
     7
100
AcDbLine
 10
121.8141108096
 20
98.2880123838
 30
0.0
 11
119.5178057448
 21
96.1138498442
 31
0.0
  0
LINE
  5
3C1
330
3B9
100
AcDbEntity
  8
SLD-0
 62
     7
100
AcDbLine
 10
121.8141108096
 20
98.2880123838
 30
0.0
 11
118.672569234
 21
97.9264653911
 31
0.0
  0
LINE
  5
3C2
330
3B9
100
AcDbEntity
  8
SLD-0
 62
     7
100
AcDbLine
 10
121.8141108096
 20
98.2880123838
 30
0.0
 11
119.0951874894
 21
97.0201576176
 31
0.0
  0
LINE
  5
3C3
330
3B9
100
AcDbEntity
  8
SLD-0
 62
     7
100
AcDbLine
 10
116.2716234272
 20
86.5111651355
 30
0.0
 11
112.1168244217
 21
95.4211603562
 31
0.0
  0
LINE
  5
3C4
330
3B9
100
AcDbEntity
  8
SLD-0
 62
     7
100
AcDbLine
 10
128.7159285165
 20
83.4870165473
 30
0.0
 11
121.180183417
 21
99.6474740644
 31
0.0
  0
MTEXT
  5
3C5
330
3B9
100
AcDbEntity
  8
SLD-0
 62
     7
100
AcDbMText
 10
113.5761072243
 20
98.2199582788
 30
0.0
 40
2.9104166031
 41
0.0
 71
     1
 72
     1
  1
10
  7
SLDTEXTSTYLE1
 11
0.9063077870366499
 21
0.4226182617406996
 31
0.0
 73
     1
 44
1.0
  0
ENDBLK
  5
3BB
330
3B9
100
AcDbEntity
  8
0
100
AcDbBlockEnd
  0
BLOCK
  5
3C8
330
3C7
100
AcDbEntity
  8
0
100
AcDbBlockBegin
  2
_D_6
 70
     0
 10
0.0
 20
0.0
 30
0.0
  3
_D_6
  1

  0
LINE
  5
3CA
330
3C7
100
AcDbEntity
  8
SLD-0
 62
     7
100
AcDbLine
 10
192.5246131152
 20
108.0639909071
 30
0.0
 11
192.5246131152
 21
114.0639909973
 31
0.0
  0
LINE
  5
3CB
330
3C7
100
AcDbEntity
  8
SLD-0
 62
     7
100
AcDbLine
 10
192.5246131152
 20
105.0639909522
 30
0.0
 11
191.5246131302
 21
108.0639909071
 31
0.0
  0
LINE
  5
3CC
330
3C7
100
AcDbEntity
  8
SLD-0
 62
     7
100
AcDbLine
 10
192.5246131152
 20
105.0639909522
 30
0.0
 11
193.5246131002
 21
108.0639909071
 31
0.0
  0
LINE
  5
3CD
330
3C7
100
AcDbEntity
  8
SLD-0
 62
     7
100
AcDbLine
 10
192.5246131152
 20
105.0639909522
 30
0.0
 11
192.5246131152
 21
108.0639909071
 31
0.0
  0
LINE
  5
3CE
330
3C7
100
AcDbEntity
  8
SLD-0
 62
     7
100
AcDbLine
 10
192.5246131152
 20
117.0639909522
 30
0.0
 11
193.5246131002
 21
114.0639909973
 31
0.0
  0
LINE
  5
3CF
330
3C7
100
AcDbEntity
  8
SLD-0
 62
     7
100
AcDbLine
 10
192.5246131152
 20
117.0639909522
 30
0.0
 11
191.5246131302
 21
114.0639909973
 31
0.0
  0
LINE
  5
3D0
330
3C7
100
AcDbEntity
  8
SLD-0
 62
     7
100
AcDbLine
 10
192.5246131152
 20
117.0639909522
 30
0.0
 11
192.5246131152
 21
114.0639909973
 31
0.0
  0
LINE
  5
3D1
330
3C7
100
AcDbEntity
  8
SLD-0
 62
     7
100
AcDbLine
 10
184.9774328495
 20
105.0639909522
 30
0.0
 11
194.0246131152
 21
105.0639909522
 31
0.0
  0
LINE
  5
3D2
330
3C7
100
AcDbEntity
  8
SLD-0
 62
     7
100
AcDbLine
 10
165.8276987039
 20
117.0639909522
 30
0.0
 11
194.0246131152
 21
117.0639909522
 31
0.0
  0
MTEXT
  5
3D3
330
3C7
100
AcDbEntity
  8
SLD-0
 62
     7
100
AcDbMText
 10
189.104760325
 20
108.5692183392
 30
0.0
 40
2.9104166031
 41
0.0
 71
     1
 72
     1
  1
12
  7
SLDTEXTSTYLE1
 11
-3.828568698926949E-16
 21
1.0
 31
0.0
 73
     1
 44
1.0
  0
ENDBLK
  5
3C9
330
3C7
100
AcDbEntity
  8
0
100
AcDbBlockEnd
  0
BLOCK
  5
3D6
330
3D5
100
AcDbEntity
  8
0
100
AcDbBlockBegin
  2
_D_7
 70
     0
 10
0.0
 20
0.0
 30
0.0
  3
_D_7
  1

  0
LINE
  5
3D8
330
3D5
100
AcDbEntity
  8
SLD-0
 62
     7
100
AcDbLine
 10
192.5246131152
 20
102.0639909973
 30
0.0
 11
192.5246131152
 21
88.0639909071
 31
0.0
  0
LINE
  5
3D9
330
3D5
100
AcDbEntity
  8
SLD-0
 62
     7
100
AcDbLine
 10
192.5246131152
 20
105.0639909522
 30
0.0
 11
193.5246131002
 21
102.0639909973
 31
0.0
  0
LINE
  5
3DA
330
3D5
100
AcDbEntity
  8
SLD-0
 62
     7
100
AcDbLine
 10
192.5246131152
 20
105.0639909522
 30
0.0
 11
191.5246131302
 21
102.0639909973
 31
0.0
  0
LINE
  5
3DB
330
3D5
100
AcDbEntity
  8
SLD-0
 62
     7
100
AcDbLine
 10
192.5246131152
 20
105.0639909522
 30
0.0
 11
192.5246131152
 21
102.0639909973
 31
0.0
  0
LINE
  5
3DC
330
3D5
100
AcDbEntity
  8
SLD-0
 62
     7
100
AcDbLine
 10
192.5246131152
 20
85.0639909522
 30
0.0
 11
191.5246131302
 21
88.0639909071
 31
0.0
  0
LINE
  5
3DD
330
3D5
100
AcDbEntity
  8
SLD-0
 62
     7
100
AcDbLine
 10
192.5246131152
 20
85.0639909522
 30
0.0
 11
193.5246131002
 21
88.0639909071
 31
0.0
  0
LINE
  5
3DE
330
3D5
100
AcDbEntity
  8
SLD-0
 62
     7
100
AcDbLine
 10
192.5246131152
 20
85.0639909522
 30
0.0
 11
192.5246131152
 21
88.0639909071
 31
0.0
  0
LINE
  5
3DF
330
3D5
100
AcDbEntity
  8
SLD-0
 62
     7
100
AcDbLine
 10
184.9774328495
 20
105.0639909522
 30
0.0
 11
194.0246131152
 21
105.0639909522
 31
0.0
  0
LINE
  5
3E0
330
3D5
100
AcDbEntity
  8
SLD-0
 62
     7
100
AcDbLine
 10
184.9774328495
 20
85.0639909522
 30
0.0
 11
194.0246131152
 21
85.0639909522
 31
0.0
  0
MTEXT
  5
3E1
330
3D5
100
AcDbEntity
  8
SLD-0
 62
     7
100
AcDbMText
 10
189.104760325
 20
92.5692183392
 30
0.0
 40
2.9104166031
 41
0.0
 71
     1
 72
     1
  1
20
  7
SLDTEXTSTYLE1
 11
-3.828568698926949E-16
 21
1.0
 31
0.0
 73
     1
 44
1.0
  0
ENDBLK
  5
3D7
330
3D5
100
AcDbEntity
  8
0
100
AcDbBlockEnd
  0
BLOCK
  5
3E4
330
3E3
100
AcDbEntity
  8
0
100
AcDbBlockBegin
  2
_D_8
 70
     0
 10
0.0
 20
0.0
 30
0.0
  3
_D_8
  1

  0
LINE
  5
3E6
330
3E3
100
AcDbEntity
  8
SLD-0
 62
     7
100
AcDbLine
 10
159.1273884942
 20
127.1485477629
 30
0.0
 11
163.1276987715
 21
127.1485477629
 31
0.0
  0
LINE
  5
3E7
330
3E3
100
AcDbEntity
  8
SLD-0
 62
     7
100
AcDbLine
 10
156.1273885393
 20
127.1485477629
 30
0.0
 11
159.1273884942
 21
128.1485477479
 31
0.0
  0
LINE
  5
3E8
330
3E3
100
AcDbEntity
  8
SLD-0
 62
     7
100
AcDbLine
 10
156.1273885393
 20
127.1485477629
 30
0.0
 11
159.1273884942
 21
126.1485477779
 31
0.0
  0
LINE
  5
3E9
330
3E3
100
AcDbEntity
  8
SLD-0
 62
     7
100
AcDbLine
 10
156.1273885393
 20
127.1485477629
 30
0.0
 11
159.1273884942
 21
127.1485477629
 31
0.0
  0
LINE
  5
3EA
330
3E3
100
AcDbEntity
  8
SLD-0
 62
     7
100
AcDbLine
 10
166.1276987264
 20
127.1485477629
 30
0.0
 11
163.1276987715
 21
126.1485477779
 31
0.0
  0
LINE
  5
3EB
330
3E3
100
AcDbEntity
  8
SLD-0
 62
     7
100
AcDbLine
 10
166.1276987264
 20
127.1485477629
 30
0.0
 11
163.1276987715
 21
128.1485477479
 31
0.0
  0
LINE
  5
3EC
330
3E3
100
AcDbEntity
  8
SLD-0
 62
     7
100
AcDbLine
 10
166.1276987264
 20
127.1485477629
 30
0.0
 11
163.1276987715
 21
127.1485477629
 31
0.0
  0
LINE
  5
3ED
330
3E3
100
AcDbEntity
  8
SLD-0
 62
     7
100
AcDbLine
 10
156.1273885393
 20
117.0639909297
 30
0.0
 11
156.1273885393
 21
128.6485477629
 31
0.0
  0
LINE
  5
3EE
330
3E3
100
AcDbEntity
  8
SLD-0
 62
     7
100
AcDbLine
 10
166.1276987264
 20
117.0639909297
 30
0.0
 11
166.1276987264
 21
128.6485477629
 31
0.0
  0
MTEXT
  5
3EF
330
3E3
100
AcDbEntity
  8
SLD-0
 62
     7
100
AcDbMText
 10
158.6327710198
 20
130.5684005531
 30
0.0
 40
2.9104166031
 41
0.0
 71
     1
 72
     1
  1
10
  7
SLDTEXTSTYLE1
 73
     1
 44
1.0
  0
ENDBLK
  5
3E5
330
3E3
100
AcDbEntity
  8
0
100
AcDbBlockEnd
  0
BLOCK
  5
3F2
330
3F1
100
AcDbEntity
  8
0
100
AcDbBlockBegin
  2
_D_9
 70
     0
 10
0.0
 20
0.0
 30
0.0
  3
_D_9
  1

  0
LINE
  5
3F4
330
3F1
100
AcDbEntity
  8
SLD-0
 62
     7
100
AcDbLine
 10
119.8118585523
 20
37.2405093847
 30
0.0
 11
163.1276987715
 21
37.2405093847
 31
0.0
  0
LINE
  5
3F5
330
3F1
100
AcDbEntity
  8
SLD-0
 62
     7
100
AcDbLine
 10
116.8118585974
 20
37.2405093847
 30
0.0
 11
119.8118585523
 21
38.2405093697
 31
0.0
  0
LINE
  5
3F6
330
3F1
100
AcDbEntity
  8
SLD-0
 62
     7
100
AcDbLine
 10
116.8118585974
 20
37.2405093847
 30
0.0
 11
119.8118585523
 21
36.2405093997
 31
0.0
  0
LINE
  5
3F7
330
3F1
100
AcDbEntity
  8
SLD-0
 62
     7
100
AcDbLine
 10
116.8118585974
 20
37.2405093847
 30
0.0
 11
119.8118585523
 21
37.2405093847
 31
0.0
  0
LINE
  5
3F8
330
3F1
100
AcDbEntity
  8
SLD-0
 62
     7
100
AcDbLine
 10
166.1276987264
 20
37.2405093847
 30
0.0
 11
163.1276987715
 21
36.2405093997
 31
0.0
  0
LINE
  5
3F9
330
3F1
100
AcDbEntity
  8
SLD-0
 62
     7
100
AcDbLine
 10
166.1276987264
 20
37.2405093847
 30
0.0
 11
163.1276987715
 21
38.2405093697
 31
0.0
  0
LINE
  5
3FA
330
3F1
100
AcDbEntity
  8
SLD-0
 62
     7
100
AcDbLine
 10
166.1276987264
 20
37.2405093847
 30
0.0
 11
163.1276987715
 21
37.2405093847
 31
0.0
  0
LINE
  5
3FB
330
3F1
100
AcDbEntity
  8
SLD-0
 62
     7
100
AcDbLine
 10
116.8118585974
 20
84.0743217596
 30
0.0
 11
116.8118585974
 21
35.7405093847
 31
0.0
  0
LINE
  5
3FC
330
3F1
100
AcDbEntity
  8
SLD-0
 62
     7
100
AcDbLine
 10
166.1276987264
 20
58.0639909747
 30
0.0
 11
166.1276987264
 21
35.7405093847
 31
0.0
  0
MTEXT
  5
3FD
330
3F1
100
AcDbEntity
  8
SLD-0
 62
     7
100
AcDbMText
 10
136.064589565
 20
40.6603621749
 30
0.0
 40
2.9104166031
 41
0.0
 71
     1
 72
     1
  1
(49)
  7
SLDTEXTSTYLE1
 73
     1
 44
1.0
  0
ENDBLK
  5
3F3
330
3F1
100
AcDbEntity
  8
0
100
AcDbBlockEnd
  0
BLOCK
  5
400
330
3FF
100
AcDbEntity
  8
0
100
AcDbBlockBegin
  2
_D_10
 70
     0
 10
0.0
 20
0.0
 30
0.0
  3
_D_10
  1

  0
LINE
  5
402
330
3FF
100
AcDbEntity
  8
SLD-0
 62
     7
100
AcDbLine
 10
166.1276987264
 20
145.7620907643
 30
0.0
 11
173.1634922337
 21
145.7620907643
 31
0.0
  0
LINE
  5
403
330
3FF
100
AcDbEntity
  8
SLD-0
 62
     7
100
AcDbLine
 10
163.1276987264
 20
145.7620907643
 30
0.0
 11
166.1276987264
 21
145.7620907643
 31
0.0
  0
LINE
  5
404
330
3FF
100
AcDbEntity
  8
SLD-0
 62
     7
100
AcDbLine
 10
163.1276987264
 20
145.7620907643
 30
0.0
 11
160.1276987715
 21
144.7620907793
 31
0.0
  0
LINE
  5
405
330
3FF
100
AcDbEntity
  8
SLD-0
 62
     7
100
AcDbLine
 10
163.1276987264
 20
145.7620907643
 30
0.0
 11
160.1276987715
 21
146.7620907493
 31
0.0
  0
LINE
  5
406
330
3FF
100
AcDbEntity
  8
SLD-0
 62
     7
100
AcDbLine
 10
163.1276987264
 20
145.7620907643
 30
0.0
 11
160.1276987715
 21
145.7620907643
 31
0.0
  0
LINE
  5
407
330
3FF
100
AcDbEntity
  8
SLD-0
 62
     7
100
AcDbLine
 10
160.1276987715
 20
145.7620907643
 30
0.0
 11
156.7776988218
 21
145.7620907643
 31
0.0
  0
LINE
  5
408
330
3FF
100
AcDbEntity
  8
SLD-0
 62
     7
100
AcDbLine
 10
166.1276987264
 20
145.7620907643
 30
0.0
 11
169.1276986813
 21
146.7620907493
 31
0.0
  0
LINE
  5
409
330
3FF
100
AcDbEntity
  8
SLD-0
 62
     7
100
AcDbLine
 10
166.1276987264
 20
145.7620907643
 30
0.0
 11
169.1276986813
 21
144.7620907793
 31
0.0
  0
LINE
  5
40A
330
3FF
100
AcDbEntity
  8
SLD-0
 62
     7
100
AcDbLine
 10
166.1276987264
 20
145.7620907643
 30
0.0
 11
169.1276986813
 21
145.7620907643
 31
0.0
  0
LINE
  5
40B
330
3FF
100
AcDbEntity
  8
SLD-0
 62
     7
100
AcDbLine
 10
169.1276986813
 20
145.7620907643
 30
0.0
 11
172.477698631
 21
145.7620907643
 31
0.0
  0
LINE
  5
40C
330
3FF
100
AcDbEntity
  8
SLD-0
 62
     7
100
AcDbLine
 10
163.1276987264
 20
158.4037470251
 30
0.0
 11
163.1276987264
 21
144.2620907643
 31
0.0
  0
LINE
  5
40D
330
3FF
100
AcDbEntity
  8
SLD-0
 62
     7
100
AcDbLine
 10
166.1276987264
 20
155.5037470251
 30
0.0
 11
166.1276987264
 21
144.2620907643
 31
0.0
  0
MTEXT
  5
40E
330
3FF
100
AcDbEntity
  8
SLD-0
 62
     7
100
AcDbMText
 10
171.0843634915
 20
149.1819435545
 30
0.0
 40
2.9104166031
 41
0.0
 71
     1
 72
     1
  1
3
  7
SLDTEXTSTYLE1
 73
     1
 44
1.0
  0
ENDBLK
  5
401
330
3FF
100
AcDbEntity
  8
0
100
AcDbBlockEnd
  0
ENDSEC
  0
SECTION
  2
ENTITIES
  0
VIEWPORT
  5
77
330
1B
100
AcDbEntity
 67
     1
  8
0
100
AcDbViewport
 10
148.5
 20
105.0
 30
0.0
 40
314.226
 41
222.18
 68
     1
 69
     1
 12
148.5
 22
105.0
 13
0.0
 23
0.0
 14
10.0
 24
10.0
 15
10.0
 25
10.0
 16
0.0
 26
0.0
 36
1.0
 17
0.0
 27
0.0
 37
0.0
 42
50.0
 43
0.0
 44
0.0
 45
222.18
 50
0.0
 51
0.0
 72
   100
 90
   557152
  1

281
     0
 71
     1
 74
     0
110
0.0
120
0.0
130
0.0
111
1.0
121
0.0
131
0.0
112
0.0
122
1.0
132
0.0
 79
     0
146
0.0
  0
LINE
  5
79
330
1B
100
AcDbEntity
 67
     1
  8
SLD-0
  6
Continuous
 62
     7
100
AcDbLine
 10
234.5080854082
 20
79.4916048099
 30
0.0
 11
234.5080854082
 21
73.491607408
 31
0.0
  0
LINE
  5
7A
330
1B
100
AcDbEntity
 67
     1
  8
SLD-0
  6
Continuous
 62
     7
100
AcDbLine
 10
237.0080854082
 20
73.4916082461
 30
0.0
 11
237.0080854082
 21
79.4916048099
 31
0.0
  0
LINE
  5
7B
330
1B
100
AcDbEntity
 67
     1
  8
SLD-0
  6
Continuous
 62
     7
100
AcDbLine
 10
237.2580854212
 20
73.4916047652
 30
0.0
 11
237.2580854212
 21
79.491603886
 31
0.0
  0
LINE
  5
7C
330
1B
100
AcDbEntity
 67
     1
  8
SLD-0
  6
Continuous
 62
     7
100
AcDbLine
 10
234.2580853952
 20
79.491603886
 30
0.0
 11
234.2580853952
 21
73.4916047652
 31
0.0
  0
LINE
  5
7D
330
1B
100
AcDbEntity
 67
     1
  8
SLD-0
  6
Continuous
 62
     7
100
AcDbLine
 10
227.7580850282
 20
52.9916135122
 30
0.0
 11
243.7580857882
 21
52.9916135122
 31
0.0
  0
LINE
  5
7E
330
1B
100
AcDbEntity
 67
     1
  8
SLD-0
  6
Continuous
 62
     7
100
AcDbLine
 10
237.2580854212
 20
113.9916048844
 30
0.0
 11
237.2580854212
 21
114.3528146197
 31
0.0
  0
LINE
  5
7F
330
1B
100
AcDbEntity
 67
     1
  8
SLD-0
  6
Continuous
 62
     7
100
AcDbLine
 10
234.2580853952
 20
114.3528146197
 30
0.0
 11
234.2580853952
 21
113.9916048844
 31
0.0
  0
LINE
  5
80
330
1B
100
AcDbEntity
 67
     1
  8
SLD-0
  6
Continuous
 62
     7
100
AcDbLine
 10
227.7580850282
 20
73.4916047652
 30
0.0
 11
232.2317223521
 21
73.4916047652
 31
0.0
  0
LINE
  5
81
330
1B
100
AcDbEntity
 67
     1
  8
SLD-0
  6
Continuous
 62
     7
100
AcDbLine
 10
239.2844484644
 20
73.4916047652
 30
0.0
 11
243.7580857882
 21
73.4916047652
 31
0.0
  0
LINE
  5
82
330
1B
100
AcDbEntity
 67
     1
  8
SLD-0
  6
Continuous
 62
     7
100
AcDbLine
 10
244.7580850208
 20
116.9916053761
 30
0.0
 11
244.7580850208
 21
73.4916047652
 31
0.0
  0
LINE
  5
83
330
1B
100
AcDbEntity
 67
     1
  8
SLD-0
  6
Continuous
 62
     7
100
AcDbLine
 10
236.5260345351
 20
114.4916050446
 30
0.0
 11
234.9901361113
 21
114.4916050446
 31
0.0
  0
LINE
  5
84
330
1B
100
AcDbEntity
 67
     1
  8
SLD-0
  6
Continuous
 62
     7
100
AcDbLine
 10
232.3443853864
 20
113.491605257
 30
0.0
 11
232.2580857771
 21
113.491605257
 31
0.0
  0
LINE
  5
85
330
1B
100
AcDbEntity
 67
     1
  8
SLD-0
  6
Continuous
 62
     7
100
AcDbLine
 10
230.258085438
 20
111.4916044746
 30
0.0
 11
230.258085438
 21
75.491605093
 31
0.0
  0
LINE
  5
86
330
1B
100
AcDbEntity
 67
     1
  8
SLD-0
  6
Continuous
 62
     7
100
AcDbLine
 10
232.258081845
 20
73.4916048025
 30
0.0
 11
239.2580855535
 21
73.4916048025
 31
0.0
  0
LINE
  5
87
330
1B
100
AcDbEntity
 67
     1
  8
SLD-0
  6
Continuous
 62
     7
100
AcDbLine
 10
241.2580854529
 20
75.491605093
 30
0.0
 11
241.2580854529
 21
111.4916044746
 31
0.0
  0
LINE
  5
88
330
1B
100
AcDbEntity
 67
     1
  8
SLD-0
  6
Continuous
 62
     7
100
AcDbLine
 10
239.2580848694
 20
113.491605257
 30
0.0
 11
239.1717852601
 21
113.491605257
 31
0.0
  0
LINE
  5
89
330
1B
100
AcDbEntity
 67
     1
  8
SLD-0
  6
Continuous
 62
     7
100
AcDbLine
 10
226.7580857956
 20
73.4916047652
 30
0.0
 11
226.7580857956
 21
116.9916053761
 31
0.0
  0
LINE
  5
8A
330
1B
100
AcDbEntity
 67
     1
  8
SLD-0
  6
Continuous
 62
     7
100
AcDbLine
 10
228.2580857099
 20
118.4916045566
 30
0.0
 11
243.2580853747
 21
118.4916045566
 31
0.0
  0
LINE
  5
8B
330
1B
100
AcDbEntity
 67
     1
  8
SLD-0
  6
Continuous
 62
     7
100
AcDbLine
 10
239.2580846463
 20
60.4916054897
 30
0.0
 11
232.2580844303
 21
60.4916054897
 31
0.0
  0
LINE
  5
8C
330
1B
100
AcDbEntity
 67
     1
  8
SLD-0
  6
Continuous
 62
     7
100
AcDbLine
 10
239.7580838585
 20
67.0930759509
 30
0.0
 11
239.7580838585
 21
60.9916036476
 31
0.0
  0
LINE
  5
8D
330
1B
100
AcDbEntity
 67
     1
  8
SLD-0
  6
Continuous
 62
     7
100
AcDbLine
 10
231.7580852182
 20
60.9916036476
 30
0.0
 11
231.7580852182
 21
67.0930759509
 31
0.0
  0
LINE
  5
8E
330
1B
100
AcDbEntity
 67
     1
  8
SLD-0
  6
Continuous
 62
     7
100
AcDbLine
 10
241.0080863321
 20
111.4916044746
 30
0.0
 11
241.0080863321
 21
81.4916051452
 31
0.0
  0
LINE
  5
8F
330
1B
100
AcDbEntity
 67
     1
  8
SLD-0
  6
Continuous
 62
     7
100
AcDbLine
 10
240.7080856776
 20
81.4916051452
 30
0.0
 11
240.7080856776
 21
111.4916044746
 31
0.0
  0
LINE
  5
90
330
1B
100
AcDbEntity
 67
     1
  8
SLD-0
  6
Continuous
 62
     7
100
AcDbLine
 10
237.6911408724
 20
95.1571621692
 30
0.0
 11
237.6911408724
 21
93.9321685575
 31
0.0
  0
LINE
  5
91
330
1B
100
AcDbEntity
 67
     1
  8
SLD-0
  6
Continuous
 62
     7
100
AcDbLine
 10
237.6911408724
 20
93.9321685575
 30
0.0
 11
237.844264972
 21
93.9321685575
 31
0.0
  0
LINE
  5
92
330
1B
100
AcDbEntity
 67
     1
  8
SLD-0
  6
Continuous
 62
     7
100
AcDbLine
 10
237.844264972
 20
93.9321685575
 30
0.0
 11
237.844264972
 21
95.1571621692
 31
0.0
  0
LINE
  5
93
330
1B
100
AcDbEntity
 67
     1
  8
SLD-0
  6
Continuous
 62
     7
100
AcDbLine
 10
237.844264972
 20
95.1571621692
 30
0.0
 11
238.3036375036
 21
95.1571621692
 31
0.0
  0
LINE
  5
94
330
1B
100
AcDbEntity
 67
     1
  8
SLD-0
  6
Continuous
 62
     7
100
AcDbLine
 10
238.3036375036
 20
95.1571621692
 30
0.0
 11
238.3036375036
 21
95.3102863852
 31
0.0
  0
LINE
  5
95
330
1B
100
AcDbEntity
 67
     1
  8
SLD-0
  6
Continuous
 62
     7
100
AcDbLine
 10
238.3036375036
 20
95.3102863852
 30
0.0
 11
237.2317681079
 21
95.3102863852
 31
0.0
  0
LINE
  5
96
330
1B
100
AcDbEntity
 67
     1
  8
SLD-0
  6
Continuous
 62
     7
100
AcDbLine
 10
237.2317681079
 20
95.3102863852
 30
0.0
 11
237.2317681079
 21
95.1571621692
 31
0.0
  0
LINE
  5
97
330
1B
100
AcDbEntity
 67
     1
  8
SLD-0
  6
Continuous
 62
     7
100
AcDbLine
 10
237.2317681079
 20
95.1571621692
 30
0.0
 11
237.6911408724
 21
95.1571621692
 31
0.0
  0
LINE
  5
98
330
1B
100
AcDbEntity
 67
     1
  8
SLD-0
  6
Continuous
 62
     7
100
AcDbLine
 10
235.9788527761
 20
93.9714414992
 30
0.0
 11
235.9788527761
 21
94.1186198026
 31
0.0
  0
LINE
  5
99
330
1B
100
AcDbEntity
 67
     1
  8
SLD-0
  6
Continuous
 62
     7
100
AcDbLine
 10
235.9788527761
 20
94.1186198026
 30
0.0
 11
235.1693724272
 21
94.1186198026
 31
0.0
  0
LINE
  5
9A
330
1B
100
AcDbEntity
 67
     1
  8
SLD-0
  6
Continuous
 62
     7
100
AcDbLine
 10
235.1693724272
 20
94.1186198026
 30
0.0
 11
235.1693724272
 21
94.5601544802
 31
0.0
  0
LINE
  5
9B
330
1B
100
AcDbEntity
 67
     1
  8
SLD-0
  6
Continuous
 62
     7
100
AcDbLine
 10
235.1693724272
 20
94.5601544802
 30
0.0
 11
235.9052636535
 21
94.5601544802
 31
0.0
  0
LINE
  5
9C
330
1B
100
AcDbEntity
 67
     1
  8
SLD-0
  6
Continuous
 62
     7
100
AcDbLine
 10
235.9052636535
 20
94.5601544802
 30
0.0
 11
235.9052636535
 21
94.7073327836
 31
0.0
  0
LINE
  5
9D
330
1B
100
AcDbEntity
 67
     1
  8
SLD-0
  6
Continuous
 62
     7
100
AcDbLine
 10
235.9052636535
 20
94.7073327836
 30
0.0
 11
235.1693724272
 21
94.7073327836
 31
0.0
  0
LINE
  5
9E
330
1B
100
AcDbEntity
 67
     1
  8
SLD-0
  6
Continuous
 62
     7
100
AcDbLine
 10
235.1693724272
 20
94.7073327836
 30
0.0
 11
235.1693724272
 21
95.1488674611
 31
0.0
  0
LINE
  5
9F
330
1B
100
AcDbEntity
 67
     1
  8
SLD-0
  6
Continuous
 62
     7
100
AcDbLine
 10
235.1693724272
 20
95.1488674611
 30
0.0
 11
235.9788527761
 21
95.1488674611
 31
0.0
  0
LINE
  5
A0
330
1B
100
AcDbEntity
 67
     1
  8
SLD-0
  6
Continuous
 62
     7
100
AcDbLine
 10
235.9788527761
 20
95.1488674611
 30
0.0
 11
235.9788527761
 21
95.2960456482
 31
0.0
  0
LINE
  5
A1
330
1B
100
AcDbEntity
 67
     1
  8
SLD-0
  6
Continuous
 62
     7
100
AcDbLine
 10
235.9788527761
 20
95.2960456482
 30
0.0
 11
235.022194182
 21
95.2960456482
 31
0.0
  0
LINE
  5
A2
330
1B
100
AcDbEntity
 67
     1
  8
SLD-0
  6
Continuous
 62
     7
100
AcDbLine
 10
235.022194182
 20
95.2960456482
 30
0.0
 11
235.022194182
 21
93.9714414992
 31
0.0
  0
LINE
  5
A3
330
1B
100
AcDbEntity
 67
     1
  8
SLD-0
  6
Continuous
 62
     7
100
AcDbLine
 10
235.022194182
 20
93.9714414992
 30
0.0
 11
235.9788527761
 21
93.9714414992
 31
0.0
  0
LINE
  5
A4
330
1B
100
AcDbEntity
 67
     1
  8
SLD-0
  6
Continuous
 62
     7
100
AcDbLine
 10
236.2732093539
 20
96.2536833242
 30
0.0
 11
238.2601156355
 21
96.2536833242
 31
0.0
  0
LINE
  5
A5
330
1B
100
AcDbEntity
 67
     1
  8
SLD-0
  6
Continuous
 62
     7
100
AcDbLine
 10
238.2601156355
 20
96.2536833242
 30
0.0
 11
238.2601156355
 21
99.491604836
 31
0.0
  0
LINE
  5
A6
330
1B
100
AcDbEntity
 67
     1
  8
SLD-0
  6
Continuous
 62
     7
100
AcDbLine
 10
238.2601156355
 20
99.491604836
 30
0.0
 11
237.0826896736
 21
99.491604836
 31
0.0
  0
LINE
  5
A7
330
1B
100
AcDbEntity
 67
     1
  8
SLD-0
  6
Continuous
 62
     7
100
AcDbLine
 10
237.0826896736
 20
99.491604836
 30
0.0
 11
237.0826896736
 21
96.8423961888
 31
0.0
  0
LINE
  5
A8
330
1B
100
AcDbEntity
 67
     1
  8
SLD-0
  6
Continuous
 62
     7
100
AcDbLine
 10
237.0826896736
 20
96.8423961888
 30
0.0
 11
236.2732093539
 21
96.8423961888
 31
0.0
  0
LINE
  5
A9
330
1B
100
AcDbEntity
 67
     1
  8
SLD-0
  6
Continuous
 62
     7
100
AcDbLine
 10
236.2732093539
 20
96.8423961888
 30
0.0
 11
236.2732093539
 21
99.491604836
 31
0.0
  0
LINE
  5
AA
330
1B
100
AcDbEntity
 67
     1
  8
SLD-0
  6
Continuous
 62
     7
100
AcDbLine
 10
236.2732093539
 20
99.491604836
 30
0.0
 11
235.242961579
 21
99.491604836
 31
0.0
  0
LINE
  5
AB
330
1B
100
AcDbEntity
 67
     1
  8
SLD-0
  6
Continuous
 62
     7
100
AcDbLine
 10
235.242961579
 20
99.491604836
 30
0.0
 11
235.242961579
 21
96.2536833242
 31
0.0
  0
LINE
  5
AC
330
1B
100
AcDbEntity
 67
     1
  8
SLD-0
  6
Continuous
 62
     7
100
AcDbLine
 10
235.242961579
 20
96.2536833242
 30
0.0
 11
234.4334811428
 21
96.2536833242
 31
0.0
  0
LINE
  5
AD
330
1B
100
AcDbEntity
 67
     1
  8
SLD-0
  6
Continuous
 62
     7
100
AcDbLine
 10
234.4334811428
 20
96.2536833242
 30
0.0
 11
234.4334811428
 21
99.491604836
 31
0.0
  0
LINE
  5
AE
330
1B
100
AcDbEntity
 67
     1
  8
SLD-0
  6
Continuous
 62
     7
100
AcDbLine
 10
234.4334811428
 20
99.491604836
 30
0.0
 11
233.2560551809
 21
99.491604836
 31
0.0
  0
LINE
  5
AF
330
1B
100
AcDbEntity
 67
     1
  8
SLD-0
  6
Continuous
 62
     7
100
AcDbLine
 10
233.2560551809
 20
99.491604836
 30
0.0
 11
233.2560551809
 21
95.517792098
 31
0.0
  0
LINE
  5
B0
330
1B
100
AcDbEntity
 67
     1
  8
SLD-0
  6
Continuous
 62
     7
100
AcDbLine
 10
233.2560551809
 20
95.517792098
 30
0.0
 11
236.2732093539
 21
95.517792098
 31
0.0
  0
LINE
  5
B1
330
1B
100
AcDbEntity
 67
     1
  8
SLD-0
  6
Continuous
 62
     7
100
AcDbLine
 10
236.2732093539
 20
95.517792098
 30
0.0
 11
236.2732093539
 21
96.2536833242
 31
0.0
  0
LINE
  5
B2
330
1B
100
AcDbEntity
 67
     1
  8
SLD-0
  6
Continuous
 62
     7
100
AcDbLine
 10
236.207900271
 20
94.4129761767
 30
0.0
 11
236.0536435959
 21
94.4129761767
 31
0.0
  0
LINE
  5
B3
330
1B
100
AcDbEntity
 67
     1
  8
SLD-0
  6
Continuous
 62
     7
100
AcDbLine
 10
237.0386578858
 20
94.6567522061
 30
0.0
 11
236.9575676292
 21
94.676127441
 31
0.0
  0
LINE
  5
B4
330
1B
100
AcDbEntity
 67
     1
  8
SLD-0
  6
Continuous
 62
     7
100
AcDbLine
 10
237.029956094
 20
94.9435536743
 30
0.0
 11
237.1828303663
 21
94.9435536743
 31
0.0
  0
LINE
  5
B5
330
1B
100
AcDbEntity
 67
     1
  8
SLD-0
  6
Continuous
 62
     7
100
AcDbLine
 10
234.4493970964
 20
94.3025925655
 30
0.0
 11
234.1458420492
 21
95.2960456482
 31
0.0
  0
LINE
  5
B6
330
1B
100
AcDbEntity
 67
     1
  8
SLD-0
  6
Continuous
 62
     7
100
AcDbLine
 10
234.1458420492
 20
95.2960456482
 30
0.0
 11
233.9852293012
 21
95.2960456482
 31
0.0
  0
LINE
  5
B7
330
1B
100
AcDbEntity
 67
     1
  8
SLD-0
  6
Continuous
 62
     7
100
AcDbLine
 10
233.9852293012
 20
95.2960456482
 30
0.0
 11
233.6816742541
 21
94.3025925655
 31
0.0
  0
LINE
  5
B8
330
1B
100
AcDbEntity
 67
     1
  8
SLD-0
  6
Continuous
 62
     7
100
AcDbLine
 10
233.6816742541
 20
94.3025925655
 30
0.0
 11
233.6561262132
 21
94.3025925655
 31
0.0
  0
LINE
  5
B9
330
1B
100
AcDbEntity
 67
     1
  8
SLD-0
  6
Continuous
 62
     7
100
AcDbLine
 10
233.6561262132
 20
94.3025925655
 30
0.0
 11
233.4077629717
 21
95.296045881
 31
0.0
  0
LINE
  5
BA
330
1B
100
AcDbEntity
 67
     1
  8
SLD-0
  6
Continuous
 62
     7
100
AcDbLine
 10
233.4077629717
 20
95.296045881
 30
0.0
 11
233.2560551809
 21
95.2960456482
 31
0.0
  0
LINE
  5
BB
330
1B
100
AcDbEntity
 67
     1
  8
SLD-0
  6
Continuous
 62
     7
100
AcDbLine
 10
233.2560551809
 20
95.2960456482
 30
0.0
 11
233.5872062472
 21
93.9714414992
 31
0.0
  0
LINE
  5
BC
330
1B
100
AcDbEntity
 67
     1
  8
SLD-0
  6
Continuous
 62
     7
100
AcDbLine
 10
233.5872062472
 20
93.9714414992
 30
0.0
 11
233.7343843178
 21
93.9714414992
 31
0.0
  0
LINE
  5
BD
330
1B
100
AcDbEntity
 67
     1
  8
SLD-0
  6
Continuous
 62
     7
100
AcDbLine
 10
233.7343843178
 20
93.9714414992
 30
0.0
 11
234.0491824075
 21
95.0016892741
 31
0.0
  0
LINE
  5
BE
330
1B
100
AcDbEntity
 67
     1
  8
SLD-0
  6
Continuous
 62
     7
100
AcDbLine
 10
234.0491824075
 20
95.0016892741
 30
0.0
 11
234.0818884773
 21
95.0016892741
 31
0.0
  0
LINE
  5
BF
330
1B
100
AcDbEntity
 67
     1
  8
SLD-0
  6
Continuous
 62
     7
100
AcDbLine
 10
234.0818884773
 20
95.0016892741
 30
0.0
 11
234.396686567
 21
93.9714414992
 31
0.0
  0
LINE
  5
C0
330
1B
100
AcDbEntity
 67
     1
  8
SLD-0
  6
Continuous
 62
     7
100
AcDbLine
 10
234.396686567
 20
93.9714414992
 30
0.0
 11
234.5438648704
 21
93.9714414992
 31
0.0
  0
LINE
  5
C1
330
1B
100
AcDbEntity
 67
     1
  8
SLD-0
  6
Continuous
 62
     7
100
AcDbLine
 10
234.5438648704
 20
93.9714414992
 30
0.0
 11
234.8750159368
 21
95.2960457646
 31
0.0
  0
LINE
  5
C2
330
1B
100
AcDbEntity
 67
     1
  8
SLD-0
  6
Continuous
 62
     7
100
AcDbLine
 10
234.8750159368
 20
95.2960457646
 30
0.0
 11
234.7233080295
 21
95.2960456482
 31
0.0
  0
LINE
  5
C3
330
1B
100
AcDbEntity
 67
     1
  8
SLD-0
  6
Continuous
 62
     7
100
AcDbLine
 10
234.7233080295
 20
95.2960456482
 30
0.0
 11
234.474944788
 21
94.3025925655
 31
0.0
  0
LINE
  5
C4
330
1B
100
AcDbEntity
 67
     1
  8
SLD-0
  6
Continuous
 62
     7
100
AcDbLine
 10
234.474944788
 20
94.3025925655
 30
0.0
 11
234.4493970964
 21
94.3025925655
 31
0.0
  0
LINE
  5
C5
330
1B
100
AcDbEntity
 67
     1
  8
SLD-0
  6
Continuous
 62
     7
100
AcDbLine
 10
230.8080861335
 20
111.4916044746
 30
0.0
 11
230.8080861335
 21
81.4916051452
 31
0.0
  0
LINE
  5
C6
330
1B
100
AcDbEntity
 67
     1
  8
SLD-0
  6
Continuous
 62
     7
100
AcDbLine
 10
239.0080859726
 20
113.1916045819
 30
0.0
 11
232.5080858385
 21
113.1916045819
 31
0.0
  0
LINE
  5
C7
330
1B
100
AcDbEntity
 67
     1
  8
SLD-0
  6
Continuous
 62
     7
100
AcDbLine
 10
232.5080858386
 20
79.7916050378
 30
0.0
 11
239.0080859727
 21
79.7916050378
 31
0.0
  0
LINE
  5
C8
330
1B
100
AcDbEntity
 67
     1
  8
SLD-0
  6
Continuous
 62
     7
100
AcDbLine
 10
239.0080859727
 20
79.4916043833
 30
0.0
 11
232.5080858386
 21
79.4916043833
 31
0.0
  0
LINE
  5
C9
330
1B
100
AcDbEntity
 67
     1
  8
SLD-0
  6
Continuous
 62
     7
100
AcDbLine
 10
232.5080858385
 20
113.4916052364
 30
0.0
 11
239.0080859726
 21
113.4916052364
 31
0.0
  0
LINE
  5
CA
330
1B
100
AcDbEntity
 67
     1
  8
SLD-0
  6
Continuous
 62
     7
100
AcDbLine
 10
230.508085479
 20
81.4916051452
 30
0.0
 11
230.508085479
 21
111.4916044746
 31
0.0
  0
LINE
  5
CB
330
1B
100
AcDbEntity
 67
     1
  8
SLD-0
  6
CENTER
 62
     7
100
AcDbLine
 10
235.7580859737
 20
122.063990833
 30
0.0
 11
235.7580859737
 21
46.5639996545
 31
0.0
  0
LINE
  5
CC
330
1B
100
AcDbEntity
 67
     1
  8
SLD-0
  6
Continuous
 62
     7
100
AcDbLine
 10
52.32867467
 20
51.5639996545
 30
0.0
 11
68.3286754299
 21
51.5639996545
 31
0.0
  0
LINE
  5
CD
330
1B
100
AcDbEntity
 67
     1
  8
SLD-0
  6
Continuous
 62
     7
100
AcDbLine
 10
51.3286754374
 20
63.8398351536
 30
0.0
 11
51.3286754374
 21
78.3238588289
 31
0.0
  0
LINE
  5
CE
330
1B
100
AcDbEntity
 67
     1
  8
SLD-0
  6
Continuous
 62
     7
100
AcDbLine
 10
69.3286746625
 20
78.3238588289
 30
0.0
 11
69.3286746625
 21
63.8398351536
 31
0.0
  0
LINE
  5
CF
330
1B
100
AcDbEntity
 67
     1
  8
SLD-0
  6
Continuous
 62
     7
100
AcDbLine
 10
51.3286754374
 20
115.5639915184
 30
0.0
 11
51.3286754374
 21
78.3259766565
 31
0.0
  0
LINE
  5
D0
330
1B
100
AcDbEntity
 67
     1
  8
SLD-0
  6
Continuous
 62
     7
100
AcDbLine
 10
69.3286748562
 20
78.3259768502
 30
0.0
 11
69.3286748562
 21
115.5639917121
 31
0.0
  0
LINE
  5
D1
330
1B
100
AcDbEntity
 67
     1
  8
SLD-0
  6
CENTER
 62
     7
100
AcDbLine
 10
60.3286744844
 20
122.063990833
 30
0.0
 11
60.3286744844
 21
46.5639996545
 31
0.0
  0
LINE
  5
D2
330
1B
100
AcDbEntity
 67
     1
  8
SLD-0
  6
Continuous
 62
     7
100
AcDbLine
 10
175.932743817
 20
103.0639913322
 30
0.0
 11
181.4276988128
 21
105.0639907287
 31
0.0
  0
LINE
  5
D3
330
1B
100
AcDbEntity
 67
     1
  8
SLD-0
  6
Continuous
 62
     7
100
AcDbLine
 10
181.4276988128
 20
105.0639907287
 30
0.0
 11
175.932743817
 21
107.0639910565
 31
0.0
  0
LINE
  5
D4
330
1B
100
AcDbEntity
 67
     1
  8
SLD-0
  6
Continuous
 62
     7
100
AcDbLine
 10
175.932743817
 20
107.0639910565
 30
0.0
 11
166.1276987264
 21
107.0639910565
 31
0.0
  0
LINE
  5
D5
330
1B
100
AcDbEntity
 67
     1
  8
SLD-0
  6
Continuous
 62
     7
100
AcDbLine
 10
166.1276987264
 20
103.0639913322
 30
0.0
 11
175.932743817
 21
103.0639913322
 31
0.0
  0
LINE
  5
D6
330
1B
100
AcDbEntity
 67
     1
  8
SLD-0
  6
Continuous
 62
     7
100
AcDbLine
 10
175.932743817
 20
83.0639908479
 30
0.0
 11
181.4276988128
 21
85.0639911757
 31
0.0
  0
LINE
  5
D7
330
1B
100
AcDbEntity
 67
     1
  8
SLD-0
  6
Continuous
 62
     7
100
AcDbLine
 10
181.4276988128
 20
85.0639911757
 30
0.0
 11
175.932743817
 21
87.0639905722
 31
0.0
  0
LINE
  5
D8
330
1B
100
AcDbEntity
 67
     1
  8
SLD-0
  6
Continuous
 62
     7
100
AcDbLine
 10
175.932743817
 20
87.0639905722
 30
0.0
 11
166.1276987264
 21
87.0639905722
 31
0.0
  0
LINE
  5
D9
330
1B
100
AcDbEntity
 67
     1
  8
SLD-0
  6
Continuous
 62
     7
100
AcDbLine
 10
166.1276987264
 20
83.0639908479
 30
0.0
 11
175.932743817
 21
83.0639908479
 31
0.0
  0
LINE
  5
DA
330
1B
100
AcDbEntity
 67
     1
  8
SLD-0
  6
Continuous
 62
     7
100
AcDbLine
 10
136.1117477039
 20
67.6266299949
 30
0.0
 11
129.3498559365
 21
82.1275553123
 31
0.0
  0
LINE
  5
DB
330
1B
100
AcDbEntity
 67
     1
  8
SLD-0
  6
Continuous
 62
     7
100
AcDbLine
 10
156.1273888195
 20
115.5639915184
 30
0.0
 11
156.1273888195
 21
72.0639909075
 31
0.0
  0
LINE
  5
DC
330
1B
100
AcDbEntity
 67
     1
  8
SLD-0
  6
Continuous
 62
     7
100
AcDbLine
 10
175.932743817
 20
107.0639910565
 30
0.0
 11
175.932743817
 21
103.0639913322
 31
0.0
  0
LINE
  5
DD
330
1B
100
AcDbEntity
 67
     1
  8
SLD-0
  6
Continuous
 62
     7
100
AcDbLine
 10
175.932743817
 20
87.0639905722
 30
0.0
 11
175.932743817
 21
83.0639908479
 31
0.0
  0
LINE
  5
DE
330
1B
100
AcDbEntity
 67
     1
  8
SLD-0
  6
Continuous
 62
     7
100
AcDbLine
 10
127.0483902165
 20
63.400316091
 30
0.0
 11
120.2864965865
 21
77.9012414084
 31
0.0
  0
LINE
  5
DF
330
1B
100
AcDbEntity
 67
     1
  8
SLD-0
  6
Continuous
 62
     7
100
AcDbLine
 10
166.1276987264
 20
115.5639915184
 30
0.0
 11
166.1276987264
 21
72.0639909075
 31
0.0
  0
LINE
  5
E0
330
1B
100
AcDbEntity
 67
     1
  8
SLD-0
  6
Continuous
 62
     7
100
AcDbLine
 10
166.1276987264
 20
115.5639915184
 30
0.0
 11
166.1276987264
 21
116.0639906691
 31
0.0
  0
LINE
  5
E1
330
1B
100
AcDbEntity
 67
     1
  8
SLD-0
  6
Continuous
 62
     7
100
AcDbLine
 10
166.1276979515
 20
72.0546691434
 30
0.0
 11
166.1276979515
 21
59.5639905648
 31
0.0
  0
LINE
  5
E2
330
1B
100
AcDbEntity
 67
     1
  8
SLD-0
  6
Continuous
 62
     7
100
AcDbLine
 10
165.6276987026
 20
59.0639925019
 30
0.0
 11
161.713233448
 21
59.0639925019
 31
0.0
  0
LINE
  5
E3
330
1B
100
AcDbEntity
 67
     1
  8
SLD-0
  6
CENTER
 62
     7
100
AcDbLine
 10
183.477432872
 20
105.0639909522
 30
0.0
 11
161.7276987264
 21
105.0639909522
 31
0.0
  0
LINE
  5
E4
330
1B
100
AcDbEntity
 67
     1
  8
SLD-0
  6
CENTER
 62
     7
100
AcDbLine
 10
161.7276987264
 20
85.0639909522
 30
0.0
 11
183.477432872
 21
85.0639909522
 31
0.0
  0
LINE
  5
E5
330
1B
100
AcDbEntity
 67
     1
  8
SLD-0
  6
Continuous
 62
     7
100
AcDbLine
 10
175.932743817
 20
166.5037470976
 30
0.0
 11
166.1276987264
 21
166.5037470976
 31
0.0
  0
LINE
  5
E6
330
1B
100
AcDbEntity
 67
     1
  8
SLD-0
  6
Continuous
 62
     7
100
AcDbLine
 10
166.1276987264
 20
162.5037469076
 30
0.0
 11
175.932743817
 21
162.5037469076
 31
0.0
  0
LINE
  5
E7
330
1B
100
AcDbEntity
 67
     1
  8
SLD-0
  6
Continuous
 62
     7
100
AcDbLine
 10
175.932743817
 20
162.5037469076
 30
0.0
 11
181.4276988128
 21
164.5037470026
 31
0.0
  0
LINE
  5
E8
330
1B
100
AcDbEntity
 67
     1
  8
SLD-0
  6
Continuous
 62
     7
100
AcDbLine
 10
181.4276988128
 20
164.5037470026
 30
0.0
 11
175.932743817
 21
166.5037470976
 31
0.0
  0
LINE
  5
E9
330
1B
100
AcDbEntity
 67
     1
  8
SLD-0
  6
Continuous
 62
     7
100
AcDbLine
 10
175.932743817
 20
166.5037470976
 30
0.0
 11
175.932743817
 21
162.5037469076
 31
0.0
  0
LINE
  5
EA
330
1B
100
AcDbEntity
 67
     1
  8
SLD-0
  6
Continuous
 62
     7
100
AcDbLine
 10
166.1276987264
 20
172.003746835
 30
0.0
 11
166.1276987264
 21
172.5037473826
 31
0.0
  0
LINE
  5
EB
330
1B
100
AcDbEntity
 67
     1
  8
SLD-0
  6
Continuous
 62
     7
100
AcDbLine
 10
166.1276987264
 20
172.003746835
 30
0.0
 11
166.1276987264
 21
157.0037471703
 31
0.0
  0
LINE
  5
EC
330
1B
100
AcDbEntity
 67
     1
  8
SLD-0
  6
Continuous
 62
     7
100
AcDbLine
 10
166.1276987264
 20
156.5037466226
 30
0.0
 11
166.1276987264
 21
157.0037471703
 31
0.0
  0
LINE
  5
ED
330
1B
100
AcDbEntity
 67
     1
  8
SLD-0
  6
Continuous
 62
     7
100
AcDbLine
 10
127.9468147525
 20
173.5037466152
 30
0.0
 11
121.1928038368
 21
173.5037466152
 31
0.0
  0
LINE
  5
EE
330
1B
100
AcDbEntity
 67
     1
  8
SLD-0
  6
Continuous
 62
     7
100
AcDbLine
 10
121.1928038368
 20
155.50374739
 30
0.0
 11
127.9468147525
 21
155.50374739
 31
0.0
  0
LINE
  5
EF
330
1B
100
AcDbEntity
 67
     1
  8
SLD-0
  6
CENTER
 62
     7
100
AcDbLine
 10
110.7904263002
 20
164.5037478429
 30
0.0
 11
183.8349942536
 21
164.5037467086
 31
0.0
  0
LINE
  5
F0
330
1B
100
AcDbEntity
 67
     1
  8
SLD-0
  6
CENTER
 62
     7
100
AcDbLine
 10
228.7961674283
 20
106.4916048099
 30
0.0
 11
243.042180313
 21
106.4916048099
 31
0.0
  0
LINE
  5
F1
330
1B
100
AcDbEntity
 67
     1
  8
SLD-0
  6
CENTER
 62
     7
100
AcDbLine
 10
228.7961674283
 20
86.4916048099
 30
0.0
 11
243.042180313
 21
86.4916048099
 31
0.0
  0
LINE
  5
F2
330
1B
100
AcDbEntity
 67
     1
  8
SLD-0
  6
CENTER
 62
     7
100
AcDbLine
 10
163.1276987264
 20
169.1037470026
 30
0.0
 11
163.1276987264
 21
159.9037470026
 31
0.0
  0
LINE
  5
F3
330
1B
100
AcDbEntity
 67
     1
  8
SLD-0
  6
Continuous
 62
     7
100
AcDbLine
 10
254.9393054163
 20
21.3598707695
 30
0.0
 11
254.9393054163
 21
17.0184295493
 31
0.0
  0
LINE
  5
F4
330
1B
100
AcDbEntity
 67
     1
  8
SLD-0
  6
Continuous
 62
     7
100
AcDbLine
 10
254.9393054163
 20
21.3598707695
 30
0.0
 11
256.2256583739
 21
21.3598707695
 31
0.0
  0
LINE
  5
F5
330
1B
100
AcDbEntity
 67
     1
  8
SLD-0
  6
Continuous
 62
     7
100
AcDbLine
 10
256.2256583739
 20
21.3598707695
 30
0.0
 11
256.2256583739
 21
17.8224001594
 31
0.0
  0
LINE
  5
F6
330
1B
100
AcDbEntity
 67
     1
  8
SLD-0
  6
Continuous
 62
     7
100
AcDbLine
 10
256.2256583739
 20
17.8224001594
 30
0.0
 11
257.110026073
 21
17.8224001594
 31
0.0
  0
LINE
  5
F7
330
1B
100
AcDbEntity
 67
     1
  8
SLD-0
  6
Continuous
 62
     7
100
AcDbLine
 10
257.110026073
 20
21.3598707695
 30
0.0
 11
257.110026073
 21
17.8224001594
 31
0.0
  0
LINE
  5
F8
330
1B
100
AcDbEntity
 67
     1
  8
SLD-0
  6
Continuous
 62
     7
100
AcDbLine
 10
257.110026073
 20
21.3598707695
 30
0.0
 11
258.2355848993
 21
21.3598707695
 31
0.0
  0
LINE
  5
F9
330
1B
100
AcDbEntity
 67
     1
  8
SLD-0
  6
Continuous
 62
     7
100
AcDbLine
 10
258.2355848993
 20
21.3598707695
 30
0.0
 11
258.2355848993
 21
18.4655764986
 31
0.0
  0
LINE
  5
FA
330
1B
100
AcDbEntity
 67
     1
  8
SLD-0
  6
Continuous
 62
     7
100
AcDbLine
 10
258.2355848993
 20
18.4655764986
 30
0.0
 11
259.1199524587
 21
18.4655764986
 31
0.0
  0
LINE
  5
FB
330
1B
100
AcDbEntity
 67
     1
  8
SLD-0
  6
Continuous
 62
     7
100
AcDbLine
 10
259.1199524587
 20
21.3598707695
 30
0.0
 11
259.1199524587
 21
18.4655764986
 31
0.0
  0
LINE
  5
FC
330
1B
100
AcDbEntity
 67
     1
  8
SLD-0
  6
Continuous
 62
     7
100
AcDbLine
 10
259.1199524587
 20
21.3598707695
 30
0.0
 11
260.4063054163
 21
21.3598707695
 31
0.0
  0
LINE
  5
FD
330
1B
100
AcDbEntity
 67
     1
  8
SLD-0
  6
Continuous
 62
     7
100
AcDbLine
 10
260.4063054163
 20
21.3598707695
 30
0.0
 11
260.4063054163
 21
17.8224001594
 31
0.0
  0
LINE
  5
FE
330
1B
100
AcDbEntity
 67
     1
  8
SLD-0
  6
Continuous
 62
     7
100
AcDbLine
 10
260.4063054163
 20
17.8224001594
 30
0.0
 11
258.2355848993
 21
17.8224001594
 31
0.0
  0
LINE
  5
FF
330
1B
100
AcDbEntity
 67
     1
  8
SLD-0
  6
Continuous
 62
     7
100
AcDbLine
 10
258.2355848993
 20
17.8224001594
 30
0.0
 11
258.2355848993
 21
17.0184295493
 31
0.0
  0
LINE
  5
100
330
1B
100
AcDbEntity
 67
     1
  8
SLD-0
  6
Continuous
 62
     7
100
AcDbLine
 10
254.9393054163
 20
17.0184295493
 30
0.0
 11
258.2355848993
 21
17.0184295493
 31
0.0
  0
LINE
  5
101
330
1B
100
AcDbEntity
 67
     1
  8
SLD-0
  6
Continuous
 62
     7
100
AcDbLine
 10
206.97525
 20
6.372375
 30
0.0
 11
206.97525
 21
21.992375
 31
0.0
  0
LINE
  5
102
330
1B
100
AcDbEntity
 67
     1
  8
SLD-0
  6
Continuous
 62
     7
370
    35
100
AcDbLine
 10
15.27525
 20
6.372375
 30
0.0
 11
290.40025
 21
6.372375
 31
0.0
  0
LINE
  5
103
330
1B
100
AcDbEntity
 67
     1
  8
SLD-0
  6
Continuous
 62
     7
370
    35
100
AcDbLine
 10
15.27525
 20
203.042375
 30
0.0
 11
15.27525
 21
6.372375
 31
0.0
  0
LINE
  5
104
330
1B
100
AcDbEntity
 67
     1
  8
SLD-0
  6
Continuous
 62
     7
370
    35
100
AcDbLine
 10
15.27525
 20
21.992375
 30
0.0
 11
98.34525
 21
21.992375
 31
0.0
  0
LINE
  5
105
330
1B
100
AcDbEntity
 67
     1
  8
SLD-0
  6
Continuous
 62
     7
370
    35
100
AcDbLine
 10
290.40025
 20
203.042375
 30
0.0
 11
290.40025
 21
6.372375
 31
0.0
  0
LINE
  5
106
330
1B
100
AcDbEntity
 67
     1
  8
SLD-0
  6
Continuous
 62
     7
370
    35
100
AcDbLine
 10
98.34525
 20
21.992375
 30
0.0
 11
290.40025
 21
21.992375
 31
0.0
  0
LINE
  5
107
330
1B
100
AcDbEntity
 67
     1
  8
SLD-0
  6
Continuous
 62
     7
370
    35
100
AcDbLine
 10
15.27525
 20
203.042375
 30
0.0
 11
290.40025
 21
203.042375
 31
0.0
  0
LINE
  5
108
330
1B
100
AcDbEntity
 67
     1
  8
SLD-0
  6
Continuous
 62
     7
100
AcDbLine
 10
19.18025
 20
14.182375
 30
0.0
 11
98.34525
 21
14.182375
 31
0.0
  0
LINE
  5
109
330
1B
100
AcDbEntity
 67
     1
  8
SLD-0
  6
Continuous
 62
     7
100
AcDbLine
 10
35.51025
 20
21.992375
 30
0.0
 11
35.51025
 21
6.372375
 31
0.0
  0
LINE
  5
10A
330
1B
100
AcDbEntity
 67
     1
  8
SLD-0
  6
Continuous
 62
     7
100
AcDbLine
 10
19.18025
 20
18.087375
 30
0.0
 11
98.34525
 21
18.087375
 31
0.0
  0
LINE
  5
10B
330
1B
100
AcDbEntity
 67
     1
  8
SLD-0
  6
Continuous
 62
     7
100
AcDbLine
 10
24.86025
 20
21.992375
 30
0.0
 11
24.86025
 21
6.372375
 31
0.0
  0
LINE
  5
10C
330
1B
100
AcDbEntity
 67
     1
  8
SLD-0
  6
Continuous
 62
     7
100
AcDbLine
 10
19.18025
 20
21.992375
 30
0.0
 11
19.18025
 21
6.372375
 31
0.0
  0
LINE
  5
10D
330
1B
100
AcDbEntity
 67
     1
  8
SLD-0
  6
Continuous
 62
     7
100
AcDbLine
 10
19.18025
 20
10.277375
 30
0.0
 11
98.34525
 21
10.277375
 31
0.0
  0
LINE
  5
10E
330
1B
100
AcDbEntity
 67
     1
  8
SLD-0
  6
Continuous
 62
     7
100
AcDbLine
 10
144.49525
 20
21.992375
 30
0.0
 11
144.49525
 21
6.372375
 31
0.0
  0
LINE
  5
10F
330
1B
100
AcDbEntity
 67
     1
  8
SLD-0
  6
Continuous
 62
     7
100
AcDbLine
 10
140.94525
 20
21.992375
 30
0.0
 11
140.94525
 21
6.372375
 31
0.0
  0
LINE
  5
110
330
1B
100
AcDbEntity
 67
     1
  8
SLD-0
  6
Continuous
 62
     7
100
AcDbLine
 10
101.89525
 20
21.992375
 30
0.0
 11
101.89525
 21
6.372375
 31
0.0
  0
LINE
  5
111
330
1B
100
AcDbEntity
 67
     1
  8
SLD-0
  6
Continuous
 62
     7
100
AcDbLine
 10
98.34525
 20
21.992375
 30
0.0
 11
98.34525
 21
14.182375
 31
0.0
  0
LINE
  5
112
330
1B
100
AcDbEntity
 67
     1
  8
SLD-0
  6
Continuous
 62
     7
100
AcDbLine
 10
42.61025
 20
21.992375
 30
0.0
 11
42.61025
 21
6.372375
 31
0.0
  0
LINE
  5
113
330
1B
100
AcDbEntity
 67
     1
  8
SLD-0
  6
Continuous
 62
     7
100
AcDbLine
 10
164.37525
 20
21.992375
 30
0.0
 11
164.37525
 21
14.182375
 31
0.0
  0
LINE
  5
114
330
1B
100
AcDbEntity
 67
     1
  8
SLD-0
  6
Continuous
 62
     7
100
AcDbLine
 10
167.92525
 20
21.992375
 30
0.0
 11
167.92525
 21
14.182375
 31
0.0
  0
LINE
  5
115
330
1B
100
AcDbEntity
 67
     1
  8
SLD-0
  6
Continuous
 62
     7
100
AcDbLine
 10
178.57525
 20
21.992375
 30
0.0
 11
178.57525
 21
14.182375
 31
0.0
  0
LINE
  5
116
330
1B
100
AcDbEntity
 67
     1
  8
SLD-0
  6
Continuous
 62
     7
100
AcDbLine
 10
182.12525
 20
21.992375
 30
0.0
 11
182.12525
 21
14.182375
 31
0.0
  0
LINE
  5
117
330
1B
100
AcDbEntity
 67
     1
  8
SLD-0
  6
Continuous
 62
     7
100
AcDbLine
 10
210.52525
 20
21.992375
 30
0.0
 11
210.52525
 21
14.182375
 31
0.0
  0
LINE
  5
118
330
1B
100
AcDbEntity
 67
     1
  8
SLD-0
  6
Continuous
 62
     7
100
AcDbLine
 10
221.17525
 20
21.992375
 30
0.0
 11
221.17525
 21
6.372375
 31
0.0
  0
LINE
  5
119
330
1B
100
AcDbEntity
 67
     1
  8
SLD-0
  6
Continuous
 62
     7
100
AcDbLine
 10
231.82525
 20
21.992375
 30
0.0
 11
231.82525
 21
6.372375
 31
0.0
  0
LINE
  5
11A
330
1B
100
AcDbEntity
 67
     1
  8
SLD-0
  6
Continuous
 62
     7
100
AcDbLine
 10
242.47525
 20
21.992375
 30
0.0
 11
242.47525
 21
6.372375
 31
0.0
  0
LINE
  5
11B
330
1B
100
AcDbEntity
 67
     1
  8
SLD-0
  6
Continuous
 62
     7
100
AcDbLine
 10
253.12525
 20
21.992375
 30
0.0
 11
253.12525
 21
6.372375
 31
0.0
  0
LINE
  5
11C
330
1B
100
AcDbEntity
 67
     1
  8
SLD-0
  6
Continuous
 62
     7
100
AcDbLine
 10
253.12525
 20
14.182375
 30
0.0
 11
290.40025
 21
14.182375
 31
0.0
  0
LINE
  5
11D
330
1B
100
AcDbEntity
 67
     1
  8
SLD-0
  6
Continuous
 62
     7
100
AcDbLine
 10
256.67525
 20
14.182375
 30
0.0
 11
256.67525
 21
6.372375
 31
0.0
  0
LINE
  5
11E
330
1B
100
AcDbEntity
 67
     1
  8
SLD-0
  6
Continuous
 62
     7
100
AcDbLine
 10
221.17525
 20
18.442375
 30
0.0
 11
253.12525
 21
18.442375
 31
0.0
  0
LINE
  5
11F
330
1B
100
AcDbEntity
 67
     1
  8
SLD-0
  6
Continuous
 62
     7
100
AcDbLine
 10
98.34525
 20
14.182375
 30
0.0
 11
221.17525
 21
14.182375
 31
0.0
  0
LINE
  5
120
330
1B
100
AcDbEntity
 67
     1
  8
SLD-0
  6
Continuous
 62
     7
100
AcDbLine
 10
98.34525
 20
14.182375
 30
0.0
 11
98.34525
 21
6.372375
 31
0.0
  0
LINE
  5
121
330
1B
100
AcDbEntity
 67
     1
  8
SLD-0
  6
Continuous
 62
     7
100
AcDbLine
 10
21.8298292042
 20
13.8078799214
 30
0.0
 11
19.9435077931
 21
10.7346674469
 31
0.0
  0
LINE
  5
122
330
1B
100
AcDbEntity
 67
     1
  8
SLD-0
  6
Continuous
 62
     7
100
AcDbLine
 10
19.9435077931
 20
10.7346674469
 30
0.0
 11
23.7462507043
 21
10.7346674469
 31
0.0
  0
LINE
  5
123
330
1B
100
AcDbEntity
 67
     1
  8
SLD-0
  6
Continuous
 62
     7
100
AcDbLine
 10
23.7462507043
 20
10.7346674469
 30
0.0
 11
21.8298292042
 21
13.8078799214
 31
0.0
  0
LINE
  5
124
330
1B
100
AcDbEntity
 67
     1
  8
SLD-0
  6
Continuous
 62
     7
100
AcDbLine
 10
21.7708059363
 20
17.7808237228
 30
0.0
 11
19.8844845252
 21
14.7076112483
 31
0.0
  0
LINE
  5
125
330
1B
100
AcDbEntity
 67
     1
  8
SLD-0
  6
Continuous
 62
     7
100
AcDbLine
 10
19.8844845252
 20
14.7076112483
 30
0.0
 11
23.6872274364
 21
14.7076112483
 31
0.0
  0
LINE
  5
126
330
1B
100
AcDbEntity
 67
     1
  8
SLD-0
  6
Continuous
 62
     7
100
AcDbLine
 10
23.6872274364
 20
14.7076112483
 30
0.0
 11
21.7708059363
 21
17.7808237228
 31
0.0
  0
LINE
  5
127
330
1B
100
AcDbEntity
 67
     1
  8
SLD-0
  6
Continuous
 62
     7
100
AcDbLine
 10
21.8888328788
 20
21.5992068096
 30
0.0
 11
20.0025114678
 21
18.5259943352
 31
0.0
  0
LINE
  5
128
330
1B
100
AcDbEntity
 67
     1
  8
SLD-0
  6
Continuous
 62
     7
100
AcDbLine
 10
20.0025114678
 20
18.5259943352
 30
0.0
 11
23.8052543789
 21
18.5259943352
 31
0.0
  0
LINE
  5
129
330
1B
100
AcDbEntity
 67
     1
  8
SLD-0
  6
Continuous
 62
     7
100
AcDbLine
 10
23.8052543789
 20
18.5259943352
 30
0.0
 11
21.8888328788
 21
21.5992068096
 31
0.0
  0
LINE
  5
12A
330
1B
100
AcDbEntity
 67
     1
  8
SLD-0
  6
Continuous
 62
     7
100
AcDbLine
 10
87.69525
 20
21.992375
 30
0.0
 11
87.69525
 21
6.372375
 31
0.0
  0
LINE
  5
12B
330
1B
100
AcDbEntity
 67
     1
  8
SLD-0
  6
PHANTOM
 62
     7
100
AcDbLine
 10
169.1482073159
 20
6.372375
 30
0.0
 11
206.97525
 21
6.372375
 31
0.0
  0
LINE
  5
12C
330
1B
100
AcDbEntity
 67
     1
  8
SLD-0
  6
Continuous
 62
     7
100
AcDbLine
 10
244.7580850208
 20
73.4916345675
 30
0.0
 11
244.7580850208
 21
72.8411954337
 31
0.0
  0
LINE
  5
12D
330
1B
100
AcDbEntity
 67
     1
  8
SLD-0
  6
Continuous
 62
     7
100
AcDbLine
 10
244.7580850208
 20
72.8411954337
 30
0.0
 11
244.7580850208
 21
72.1907562994
 31
0.0
  0
LINE
  5
12E
330
1B
100
AcDbEntity
 67
     1
  8
SLD-0
  6
Continuous
 62
     7
100
AcDbLine
 10
244.7580850208
 20
72.1907562994
 30
0.0
 11
244.7580850208
 21
71.5403171675
 31
0.0
  0
LINE
  5
12F
330
1B
100
AcDbEntity
 67
     1
  8
SLD-0
  6
Continuous
 62
     7
100
AcDbLine
 10
244.7580850208
 20
71.5403171675
 30
0.0
 11
244.7580850208
 21
70.8898780372
 31
0.0
  0
LINE
  5
130
330
1B
100
AcDbEntity
 67
     1
  8
SLD-0
  6
Continuous
 62
     7
100
AcDbLine
 10
244.7580850208
 20
70.8898780372
 30
0.0
 11
244.7580850208
 21
70.239438902
 31
0.0
  0
LINE
  5
131
330
1B
100
AcDbEntity
 67
     1
  8
SLD-0
  6
Continuous
 62
     7
100
AcDbLine
 10
244.7580850208
 20
70.239438902
 30
0.0
 11
244.7580850208
 21
69.5889997547
 31
0.0
  0
LINE
  5
132
330
1B
100
AcDbEntity
 67
     1
  8
SLD-0
  6
Continuous
 62
     7
100
AcDbLine
 10
244.7580850208
 20
69.5889997547
 30
0.0
 11
244.7580850208
 21
68.9385606131
 31
0.0
  0
LINE
  5
133
330
1B
100
AcDbEntity
 67
     1
  8
SLD-0
  6
Continuous
 62
     7
100
AcDbLine
 10
244.7580850208
 20
68.9385606131
 30
0.0
 11
244.7580850208
 21
68.2881215153
 31
0.0
  0
LINE
  5
134
330
1B
100
AcDbEntity
 67
     1
  8
SLD-0
  6
Continuous
 62
     7
100
AcDbLine
 10
244.7580850208
 20
68.2881215153
 30
0.0
 11
244.7580850208
 21
67.6376824272
 31
0.0
  0
LINE
  5
135
330
1B
100
AcDbEntity
 67
     1
  8
SLD-0
  6
Continuous
 62
     7
100
AcDbLine
 10
244.7580850208
 20
67.6376824272
 30
0.0
 11
244.7580850208
 21
66.9872432428
 31
0.0
  0
LINE
  5
136
330
1B
100
AcDbEntity
 67
     1
  8
SLD-0
  6
Continuous
 62
     7
100
AcDbLine
 10
244.7580850208
 20
66.9872432428
 30
0.0
 11
244.7580850208
 21
66.3368039217
 31
0.0
  0
LINE
  5
137
330
1B
100
AcDbEntity
 67
     1
  8
SLD-0
  6
Continuous
 62
     7
100
AcDbLine
 10
244.7580850208
 20
66.3368039217
 30
0.0
 11
244.7580850208
 21
65.6863647421
 31
0.0
  0
LINE
  5
138
330
1B
100
AcDbEntity
 67
     1
  8
SLD-0
  6
Continuous
 62
     7
100
AcDbLine
 10
244.7580850208
 20
65.6863647421
 30
0.0
 11
244.7580850208
 21
65.0359262527
 31
0.0
  0
LINE
  5
139
330
1B
100
AcDbEntity
 67
     1
  8
SLD-0
  6
Continuous
 62
     7
100
AcDbLine
 10
244.7580850208
 20
65.0359262527
 30
0.0
 11
244.7580850208
 21
64.3854875232
 31
0.0
  0
LINE
  5
13A
330
1B
100
AcDbEntity
 67
     1
  8
SLD-0
  6
Continuous
 62
     7
100
AcDbLine
 10
244.7580850208
 20
64.3854875232
 30
0.0
 11
244.7580850208
 21
63.735046575
 31
0.0
  0
LINE
  5
13B
330
1B
100
AcDbEntity
 67
     1
  8
SLD-0
  6
Continuous
 62
     7
100
AcDbLine
 10
244.7580850208
 20
63.735046575
 30
0.0
 11
244.7580850208
 21
63.0846056011
 31
0.0
  0
LINE
  5
13C
330
1B
100
AcDbEntity
 67
     1
  8
SLD-0
  6
Continuous
 62
     7
100
AcDbLine
 10
244.7580850208
 20
63.0846056011
 30
0.0
 11
244.7580850208
 21
62.4341717911
 31
0.0
  0
LINE
  5
13D
330
1B
100
AcDbEntity
 67
     1
  8
SLD-0
  6
Continuous
 62
     7
100
AcDbLine
 10
244.7580850208
 20
62.4341717911
 30
0.0
 11
244.7580850208
 21
61.7837398098
 31
0.0
  0
LINE
  5
13E
330
1B
100
AcDbEntity
 67
     1
  8
SLD-0
  6
Continuous
 62
     7
100
AcDbLine
 10
244.7580850208
 20
61.7837398098
 30
0.0
 11
244.7580850208
 21
61.1332828103
 31
0.0
  0
LINE
  5
13F
330
1B
100
AcDbEntity
 67
     1
  8
SLD-0
  6
Continuous
 62
     7
100
AcDbLine
 10
244.7580850208
 20
61.1332828103
 30
0.0
 11
244.7580850208
 21
60.4828193865
 31
0.0
  0
LINE
  5
140
330
1B
100
AcDbEntity
 67
     1
  8
SLD-0
  6
Continuous
 62
     7
100
AcDbLine
 10
244.7580850208
 20
60.4828193865
 30
0.0
 11
244.7580850208
 21
59.832454285
 31
0.0
  0
LINE
  5
141
330
1B
100
AcDbEntity
 67
     1
  8
SLD-0
  6
Continuous
 62
     7
100
AcDbLine
 10
244.7580850208
 20
59.832454285
 30
0.0
 11
244.7580850208
 21
59.1820742656
 31
0.0
  0
LINE
  5
142
330
1B
100
AcDbEntity
 67
     1
  8
SLD-0
  6
Continuous
 62
     7
100
AcDbLine
 10
244.7580850208
 20
59.1820742656
 30
0.0
 11
244.7580850208
 21
58.5312871621
 31
0.0
  0
LINE
  5
143
330
1B
100
AcDbEntity
 67
     1
  8
SLD-0
  6
Continuous
 62
     7
100
AcDbLine
 10
244.7580850208
 20
58.5312871621
 30
0.0
 11
244.7580850208
 21
57.8811370849
 31
0.0
  0
LINE
  5
144
330
1B
100
AcDbEntity
 67
     1
  8
SLD-0
  6
Continuous
 62
     7
100
AcDbLine
 10
244.7580850208
 20
57.8811370849
 30
0.0
 11
244.7580850208
 21
57.2316734754
 31
0.0
  0
LINE
  5
145
330
1B
100
AcDbEntity
 67
     1
  8
SLD-0
  6
Continuous
 62
     7
100
AcDbLine
 10
244.7580850208
 20
57.2316734754
 30
0.0
 11
244.7580850208
 21
56.5812270146
 31
0.0
  0
LINE
  5
146
330
1B
100
AcDbEntity
 67
     1
  8
SLD-0
  6
Continuous
 62
     7
100
AcDbLine
 10
244.7580850208
 20
56.5812270146
 30
0.0
 11
244.7580850208
 21
55.9309384264
 31
0.0
  0
LINE
  5
147
330
1B
100
AcDbEntity
 67
     1
  8
SLD-0
  6
Continuous
 62
     7
100
AcDbLine
 10
244.7580850208
 20
55.9309384264
 30
0.0
 11
244.7580850208
 21
55.2809207762
 31
0.0
  0
LINE
  5
148
330
1B
100
AcDbEntity
 67
     1
  8
SLD-0
  6
Continuous
 62
     7
100
AcDbLine
 10
244.7580850208
 20
55.2809207762
 30
0.0
 11
244.7580850208
 21
54.6302665353
 31
0.0
  0
LINE
  5
149
330
1B
100
AcDbEntity
 67
     1
  8
SLD-0
  6
Continuous
 62
     7
100
AcDbLine
 10
244.7580850208
 20
54.6302665353
 30
0.0
 11
244.7580850208
 21
54.0086955054
 31
0.0
  0
LINE
  5
14A
330
1B
100
AcDbEntity
 67
     1
  8
SLD-0
  6
Continuous
 62
     7
100
AcDbLine
 10
244.6471739278
 20
73.4857189101
 30
0.0
 11
244.5360810997
 21
73.4860423715
 31
0.0
  0
LINE
  5
14B
330
1B
100
AcDbEntity
 67
     1
  8
SLD-0
  6
Continuous
 62
     7
100
AcDbLine
 10
244.5360810997
 20
73.4860423715
 30
0.0
 11
244.424929958
 21
73.4879604156
 31
0.0
  0
LINE
  5
14C
330
1B
100
AcDbEntity
 67
     1
  8
SLD-0
  6
Continuous
 62
     7
100
AcDbLine
 10
244.424929958
 20
73.4879604156
 30
0.0
 11
244.3137763169
 21
73.4890621845
 31
0.0
  0
LINE
  5
14D
330
1B
100
AcDbEntity
 67
     1
  8
SLD-0
  6
Continuous
 62
     7
100
AcDbLine
 10
244.3137763169
 20
73.4890621845
 30
0.0
 11
244.2026434595
 21
73.4896430929
 31
0.0
  0
LINE
  5
14E
330
1B
100
AcDbEntity
 67
     1
  8
SLD-0
  6
Continuous
 62
     7
100
AcDbLine
 10
244.2026434595
 20
73.4896430929
 30
0.0
 11
244.0915167751
 21
73.4900992873
 31
0.0
  0
LINE
  5
14F
330
1B
100
AcDbEntity
 67
     1
  8
SLD-0
  6
Continuous
 62
     7
100
AcDbLine
 10
244.0915167751
 20
73.4900992873
 30
0.0
 11
243.9803862579
 21
73.4906000743
 31
0.0
  0
LINE
  5
150
330
1B
100
AcDbEntity
 67
     1
  8
SLD-0
  6
Continuous
 62
     7
100
AcDbLine
 10
243.9803862579
 20
73.4906000743
 30
0.0
 11
243.8692522513
 21
73.4911093217
 31
0.0
  0
LINE
  5
151
330
1B
100
AcDbEntity
 67
     1
  8
SLD-0
  6
Continuous
 62
     7
100
AcDbLine
 10
243.8692522513
 20
73.4911093217
 30
0.0
 11
243.7580857882
 21
73.4916047652
 31
0.0
  0
LINE
  5
152
330
1B
100
AcDbEntity
 67
     1
  8
SLD-0
  6
Continuous
 62
     7
100
AcDbLine
 10
227.7580850282
 20
73.4916047652
 30
0.0
 11
227.6469524521
 21
73.4911094742
 31
0.0
  0
LINE
  5
153
330
1B
100
AcDbEntity
 67
     1
  8
SLD-0
  6
Continuous
 62
     7
100
AcDbLine
 10
227.6469524521
 20
73.4911094742
 30
0.0
 11
227.5358140365
 21
73.4906002102
 31
0.0
  0
LINE
  5
154
330
1B
100
AcDbEntity
 67
     1
  8
SLD-0
  6
Continuous
 62
     7
100
AcDbLine
 10
227.5358140365
 20
73.4906002102
 30
0.0
 11
227.4246739025
 21
73.4900993734
 31
0.0
  0
LINE
  5
155
330
1B
100
AcDbEntity
 67
     1
  8
SLD-0
  6
Continuous
 62
     7
100
AcDbLine
 10
227.4246739025
 20
73.4900993734
 30
0.0
 11
227.3135522903
 21
73.4896431953
 31
0.0
  0
LINE
  5
156
330
1B
100
AcDbEntity
 67
     1
  8
SLD-0
  6
Continuous
 62
     7
100
AcDbLine
 10
227.3135522903
 20
73.4896431953
 30
0.0
 11
227.2024567828
 21
73.4890626178
 31
0.0
  0
LINE
  5
157
330
1B
100
AcDbEntity
 67
     1
  8
SLD-0
  6
Continuous
 62
     7
100
AcDbLine
 10
227.2024567828
 20
73.4890626178
 30
0.0
 11
227.0913562288
 21
73.4879619697
 31
0.0
  0
LINE
  5
158
330
1B
100
AcDbEntity
 67
     1
  8
SLD-0
  6
Continuous
 62
     7
100
AcDbLine
 10
227.0913562288
 20
73.4879619697
 30
0.0
 11
226.980203783
 21
73.4860443687
 31
0.0
  0
LINE
  5
159
330
1B
100
AcDbEntity
 67
     1
  8
SLD-0
  6
Continuous
 62
     7
100
AcDbLine
 10
226.980203783
 20
73.4860443687
 30
0.0
 11
226.8690264116
 21
73.4857183285
 31
0.0
  0
LINE
  5
15A
330
1B
100
AcDbEntity
 67
     1
  8
SLD-0
  6
Continuous
 62
     7
100
AcDbLine
 10
226.7580857956
 20
54.0354361285
 30
0.0
 11
226.7580857956
 21
54.7668233298
 31
0.0
  0
LINE
  5
15B
330
1B
100
AcDbEntity
 67
     1
  8
SLD-0
  6
Continuous
 62
     7
100
AcDbLine
 10
226.7580857956
 20
54.7668233298
 30
0.0
 11
226.7580857956
 21
55.5807165228
 31
0.0
  0
LINE
  5
15C
330
1B
100
AcDbEntity
 67
     1
  8
SLD-0
  6
Continuous
 62
     7
100
AcDbLine
 10
226.7580857956
 20
55.5807165228
 30
0.0
 11
226.7580857956
 21
56.3950575146
 31
0.0
  0
LINE
  5
15D
330
1B
100
AcDbEntity
 67
     1
  8
SLD-0
  6
Continuous
 62
     7
100
AcDbLine
 10
226.7580857956
 20
56.3950575146
 30
0.0
 11
226.7580857956
 21
57.2091349381
 31
0.0
  0
LINE
  5
15E
330
1B
100
AcDbEntity
 67
     1
  8
SLD-0
  6
Continuous
 62
     7
100
AcDbLine
 10
226.7580857956
 20
57.2091349381
 30
0.0
 11
226.7580857956
 21
58.0233119089
 31
0.0
  0
LINE
  5
15F
330
1B
100
AcDbEntity
 67
     1
  8
SLD-0
  6
Continuous
 62
     7
100
AcDbLine
 10
226.7580857956
 20
58.0233119089
 30
0.0
 11
226.7580857956
 21
58.8389826217
 31
0.0
  0
LINE
  5
160
330
1B
100
AcDbEntity
 67
     1
  8
SLD-0
  6
Continuous
 62
     7
100
AcDbLine
 10
226.7580857956
 20
58.8389826217
 30
0.0
 11
226.7580857956
 21
59.6531233764
 31
0.0
  0
LINE
  5
161
330
1B
100
AcDbEntity
 67
     1
  8
SLD-0
  6
Continuous
 62
     7
100
AcDbLine
 10
226.7580857956
 20
59.6531233764
 30
0.0
 11
226.7580857956
 21
60.4668269075
 31
0.0
  0
LINE
  5
162
330
1B
100
AcDbEntity
 67
     1
  8
SLD-0
  6
Continuous
 62
     7
100
AcDbLine
 10
226.7580857956
 20
60.4668269075
 30
0.0
 11
226.7580857956
 21
61.2809760404
 31
0.0
  0
LINE
  5
163
330
1B
100
AcDbEntity
 67
     1
  8
SLD-0
  6
Continuous
 62
     7
100
AcDbLine
 10
226.7580857956
 20
61.2809760404
 30
0.0
 11
226.7580857956
 21
62.0952510475
 31
0.0
  0
LINE
  5
164
330
1B
100
AcDbEntity
 67
     1
  8
SLD-0
  6
Continuous
 62
     7
100
AcDbLine
 10
226.7580857956
 20
62.0952510475
 30
0.0
 11
226.7580857956
 21
62.9093956089
 31
0.0
  0
LINE
  5
165
330
1B
100
AcDbEntity
 67
     1
  8
SLD-0
  6
Continuous
 62
     7
100
AcDbLine
 10
226.7580857956
 20
62.9093956089
 30
0.0
 11
226.7580857956
 21
63.7234937134
 31
0.0
  0
LINE
  5
166
330
1B
100
AcDbEntity
 67
     1
  8
SLD-0
  6
Continuous
 62
     7
100
AcDbLine
 10
226.7580857956
 20
63.7234937134
 30
0.0
 11
226.7580857956
 21
64.5376275799
 31
0.0
  0
LINE
  5
167
330
1B
100
AcDbEntity
 67
     1
  8
SLD-0
  6
Continuous
 62
     7
100
AcDbLine
 10
226.7580857956
 20
64.5376275799
 30
0.0
 11
226.7580857956
 21
65.3517759293
 31
0.0
  0
LINE
  5
168
330
1B
100
AcDbEntity
 67
     1
  8
SLD-0
  6
Continuous
 62
     7
100
AcDbLine
 10
226.7580857956
 20
65.3517759293
 30
0.0
 11
226.7580857956
 21
66.1659212369
 31
0.0
  0
LINE
  5
169
330
1B
100
AcDbEntity
 67
     1
  8
SLD-0
  6
Continuous
 62
     7
100
AcDbLine
 10
226.7580857956
 20
66.1659212369
 30
0.0
 11
226.7580857956
 21
66.9800609987
 31
0.0
  0
LINE
  5
16A
330
1B
100
AcDbEntity
 67
     1
  8
SLD-0
  6
Continuous
 62
     7
100
AcDbLine
 10
226.7580857956
 20
66.9800609987
 30
0.0
 11
226.7580857956
 21
67.7941974417
 31
0.0
  0
LINE
  5
16B
330
1B
100
AcDbEntity
 67
     1
  8
SLD-0
  6
Continuous
 62
     7
100
AcDbLine
 10
226.7580857956
 20
67.7941974417
 30
0.0
 11
226.7580857956
 21
68.6083369354
 31
0.0
  0
LINE
  5
16C
330
1B
100
AcDbEntity
 67
     1
  8
SLD-0
  6
Continuous
 62
     7
100
AcDbLine
 10
226.7580857956
 20
68.6083369354
 30
0.0
 11
226.7580857956
 21
69.4224774227
 31
0.0
  0
LINE
  5
16D
330
1B
100
AcDbEntity
 67
     1
  8
SLD-0
  6
Continuous
 62
     7
100
AcDbLine
 10
226.7580857956
 20
69.4224774227
 30
0.0
 11
226.7580857956
 21
70.2366178422
 31
0.0
  0
LINE
  5
16E
330
1B
100
AcDbEntity
 67
     1
  8
SLD-0
  6
Continuous
 62
     7
100
AcDbLine
 10
226.7580857956
 20
70.2366178422
 30
0.0
 11
226.7580857956
 21
71.0507577375
 31
0.0
  0
LINE
  5
16F
330
1B
100
AcDbEntity
 67
     1
  8
SLD-0
  6
Continuous
 62
     7
100
AcDbLine
 10
226.7580857956
 20
71.0507577375
 30
0.0
 11
226.7580857956
 21
71.8648975191
 31
0.0
  0
LINE
  5
170
330
1B
100
AcDbEntity
 67
     1
  8
SLD-0
  6
Continuous
 62
     7
100
AcDbLine
 10
226.7580857956
 20
71.8648975191
 30
0.0
 11
226.7580857956
 21
72.679037428
 31
0.0
  0
LINE
  5
171
330
1B
100
AcDbEntity
 67
     1
  8
SLD-0
  6
Continuous
 62
     7
100
AcDbLine
 10
226.7580857956
 20
72.679037428
 30
0.0
 11
226.7580857956
 21
73.4916345675
 31
0.0
  0
LINE
  5
172
330
1B
100
AcDbEntity
 67
     1
  8
SLD-0
  6
Continuous
 62
     7
100
AcDbLine
 10
232.2317223521
 20
73.4916047652
 30
0.0
 11
232.2361339041
 21
73.4913049207
 31
0.0
  0
LINE
  5
173
330
1B
100
AcDbEntity
 67
     1
  8
SLD-0
  6
Continuous
 62
     7
100
AcDbLine
 10
232.2361339041
 20
73.4913049207
 30
0.0
 11
232.2397685578
 21
73.4911833579
 31
0.0
  0
LINE
  5
174
330
1B
100
AcDbEntity
 67
     1
  8
SLD-0
  6
Continuous
 62
     7
100
AcDbLine
 10
232.2397685578
 20
73.4911833579
 30
0.0
 11
232.2441876862
 21
73.4907575212
 31
0.0
  0
LINE
  5
175
330
1B
100
AcDbEntity
 67
     1
  8
SLD-0
  6
Continuous
 62
     7
100
AcDbLine
 10
232.2441876862
 20
73.4907575212
 30
0.0
 11
232.2476739998
 21
73.4897818343
 31
0.0
  0
LINE
  5
176
330
1B
100
AcDbEntity
 67
     1
  8
SLD-0
  6
Continuous
 62
     7
100
AcDbLine
 10
232.2476739998
 20
73.4897818343
 30
0.0
 11
232.2509534526
 21
73.4882080108
 31
0.0
  0
LINE
  5
177
330
1B
100
AcDbEntity
 67
     1
  8
SLD-0
  6
Continuous
 62
     7
100
AcDbLine
 10
232.2509534526
 20
73.4882080108
 30
0.0
 11
232.2545373464
 21
73.4855409089
 31
0.0
  0
LINE
  5
178
330
1B
100
AcDbEntity
 67
     1
  8
SLD-0
  6
Continuous
 62
     7
100
AcDbLine
 10
232.2545373464
 20
73.4855409089
 30
0.0
 11
232.2569707055
 21
73.4832826147
 31
0.0
  0
LINE
  5
179
330
1B
100
AcDbEntity
 67
     1
  8
SLD-0
  6
Continuous
 62
     7
100
AcDbLine
 10
232.2569707055
 20
73.4832826147
 30
0.0
 11
232.2580853002
 21
73.4822822262
 31
0.0
  0
LINE
  5
17A
330
1B
100
AcDbEntity
 67
     1
  8
SLD-0
  6
Continuous
 62
     7
100
AcDbLine
 10
239.2580855162
 20
73.4822822262
 30
0.0
 11
239.2605314419
 21
73.4845115833
 31
0.0
  0
LINE
  5
17B
330
1B
100
AcDbEntity
 67
     1
  8
SLD-0
  6
Continuous
 62
     7
100
AcDbLine
 10
239.2605314419
 20
73.4845115833
 30
0.0
 11
239.2637513866
 21
73.4871829124
 31
0.0
  0
LINE
  5
17C
330
1B
100
AcDbEntity
 67
     1
  8
SLD-0
  6
Continuous
 62
     7
100
AcDbLine
 10
239.2637513866
 20
73.4871829124
 30
0.0
 11
239.2668817758
 21
73.4890579287
 31
0.0
  0
LINE
  5
17D
330
1B
100
AcDbEntity
 67
     1
  8
SLD-0
  6
Continuous
 62
     7
100
AcDbLine
 10
239.2668817758
 20
73.4890579287
 30
0.0
 11
239.2709604757
 21
73.4905182139
 31
0.0
  0
LINE
  5
17E
330
1B
100
AcDbEntity
 67
     1
  8
SLD-0
  6
Continuous
 62
     7
100
AcDbLine
 10
239.2709604757
 20
73.4905182139
 30
0.0
 11
239.2745386049
 21
73.4909859362
 31
0.0
  0
LINE
  5
17F
330
1B
100
AcDbEntity
 67
     1
  8
SLD-0
  6
Continuous
 62
     7
100
AcDbLine
 10
239.2745386049
 20
73.4909859362
 30
0.0
 11
239.2790556542
 21
73.4911703368
 31
0.0
  0
LINE
  5
180
330
1B
100
AcDbEntity
 67
     1
  8
SLD-0
  6
Continuous
 62
     7
100
AcDbLine
 10
239.2790556542
 20
73.4911703368
 30
0.0
 11
239.2826762329
 21
73.4914510772
 31
0.0
  0
LINE
  5
181
330
1B
100
AcDbEntity
 67
     1
  8
SLD-0
  6
Continuous
 62
     7
100
AcDbLine
 10
239.2826762329
 20
73.4914510772
 30
0.0
 11
239.2844484644
 21
73.4916047652
 31
0.0
  0
LINE
  5
182
330
1B
100
AcDbEntity
 67
     1
  8
SLD-0
  6
Continuous
 62
     7
100
AcDbLine
 10
236.2851227934
 20
94.7751869642
 30
0.0
 11
236.3224175475
 21
94.7556128267
 31
0.0
  0
LINE
  5
183
330
1B
100
AcDbEntity
 67
     1
  8
SLD-0
  6
Continuous
 62
     7
100
AcDbLine
 10
236.3224175475
 20
94.7556128267
 30
0.0
 11
236.3598029433
 21
94.7362152495
 31
0.0
  0
LINE
  5
184
330
1B
100
AcDbEntity
 67
     1
  8
SLD-0
  6
Continuous
 62
     7
100
AcDbLine
 10
236.3598029433
 20
94.7362152495
 30
0.0
 11
236.3976793135
 21
94.7178043122
 31
0.0
  0
LINE
  5
185
330
1B
100
AcDbEntity
 67
     1
  8
SLD-0
  6
Continuous
 62
     7
100
AcDbLine
 10
236.3976793135
 20
94.7178043122
 30
0.0
 11
236.4358892003
 21
94.7000820097
 31
0.0
  0
LINE
  5
186
330
1B
100
AcDbEntity
 67
     1
  8
SLD-0
  6
Continuous
 62
     7
100
AcDbLine
 10
236.4358892003
 20
94.7000820097
 30
0.0
 11
236.4742841102
 21
94.682762602
 31
0.0
  0
LINE
  5
187
330
1B
100
AcDbEntity
 67
     1
  8
SLD-0
  6
Continuous
 62
     7
100
AcDbLine
 10
236.4742841102
 20
94.682762602
 30
0.0
 11
236.5129140348
 21
94.6659807343
 31
0.0
  0
LINE
  5
188
330
1B
100
AcDbEntity
 67
     1
  8
SLD-0
  6
Continuous
 62
     7
100
AcDbLine
 10
236.5129140348
 20
94.6659807343
 30
0.0
 11
236.5518122251
 21
94.6498301328
 31
0.0
  0
LINE
  5
189
330
1B
100
AcDbEntity
 67
     1
  8
SLD-0
  6
Continuous
 62
     7
100
AcDbLine
 10
236.5518122251
 20
94.6498301328
 30
0.0
 11
236.5909531015
 21
94.6342738401
 31
0.0
  0
LINE
  5
18A
330
1B
100
AcDbEntity
 67
     1
  8
SLD-0
  6
Continuous
 62
     7
100
AcDbLine
 10
236.5909531015
 20
94.6342738401
 30
0.0
 11
236.6303197741
 21
94.6192984425
 31
0.0
  0
LINE
  5
18B
330
1B
100
AcDbEntity
 67
     1
  8
SLD-0
  6
Continuous
 62
     7
100
AcDbLine
 10
236.6303197741
 20
94.6192984425
 30
0.0
 11
236.6699100115
 21
94.6049267041
 31
0.0
  0
LINE
  5
18C
330
1B
100
AcDbEntity
 67
     1
  8
SLD-0
  6
Continuous
 62
     7
100
AcDbLine
 10
236.6699100115
 20
94.6049267041
 30
0.0
 11
236.7097105238
 21
94.5911474748
 31
0.0
  0
LINE
  5
18D
330
1B
100
AcDbEntity
 67
     1
  8
SLD-0
  6
Continuous
 62
     7
100
AcDbLine
 10
236.7097105238
 20
94.5911474748
 30
0.0
 11
236.7497037242
 21
94.5779339993
 31
0.0
  0
LINE
  5
18E
330
1B
100
AcDbEntity
 67
     1
  8
SLD-0
  6
Continuous
 62
     7
100
AcDbLine
 10
236.7497037242
 20
94.5779339993
 30
0.0
 11
236.7898949322
 21
94.5653388653
 31
0.0
  0
LINE
  5
18F
330
1B
100
AcDbEntity
 67
     1
  8
SLD-0
  6
Continuous
 62
     7
100
AcDbLine
 10
236.7898949322
 20
94.5653388653
 30
0.0
 11
236.8302782919
 21
94.5533811728
 31
0.0
  0
LINE
  5
190
330
1B
100
AcDbEntity
 67
     1
  8
SLD-0
  6
Continuous
 62
     7
100
AcDbLine
 10
236.8302782919
 20
94.5533811728
 30
0.0
 11
236.8708004825
 21
94.5418898645
 31
0.0
  0
LINE
  5
191
330
1B
100
AcDbEntity
 67
     1
  8
SLD-0
  6
Continuous
 62
     7
100
AcDbLine
 10
236.8708004825
 20
94.5418898645
 30
0.0
 11
236.9114860301
 21
94.5309897413
 31
0.0
  0
LINE
  5
192
330
1B
100
AcDbEntity
 67
     1
  8
SLD-0
  6
Continuous
 62
     7
100
AcDbLine
 10
236.9114860301
 20
94.5309897413
 30
0.0
 11
236.9524347653
 21
94.5211390439
 31
0.0
  0
LINE
  5
193
330
1B
100
AcDbEntity
 67
     1
  8
SLD-0
  6
Continuous
 62
     7
100
AcDbLine
 10
236.9524347653
 20
94.5211390439
 30
0.0
 11
236.9934630959
 21
94.5116155584
 31
0.0
  0
LINE
  5
194
330
1B
100
AcDbEntity
 67
     1
  8
SLD-0
  6
Continuous
 62
     7
100
AcDbLine
 10
232.1346704993
 20
72.7882398954
 30
0.0
 11
232.1092475563
 21
72.432144843
 31
0.0
  0
LINE
  5
195
330
1B
100
AcDbEntity
 67
     1
  8
SLD-0
  6
Continuous
 62
     7
100
AcDbLine
 10
232.1092475563
 20
72.432144843
 30
0.0
 11
232.0863106776
 21
72.0758629342
 31
0.0
  0
LINE
  5
196
330
1B
100
AcDbEntity
 67
     1
  8
SLD-0
  6
Continuous
 62
     7
100
AcDbLine
 10
232.0863106776
 20
72.0758629342
 30
0.0
 11
232.0626693917
 21
71.7196967273
 31
0.0
  0
LINE
  5
197
330
1B
100
AcDbEntity
 67
     1
  8
SLD-0
  6
Continuous
 62
     7
100
AcDbLine
 10
232.0626693917
 20
71.7196967273
 30
0.0
 11
232.0353124175
 21
71.3638422541
 31
0.0
  0
LINE
  5
198
330
1B
100
AcDbEntity
 67
     1
  8
SLD-0
  6
Continuous
 62
     7
100
AcDbLine
 10
232.0353124175
 20
71.3638422541
 30
0.0
 11
232.001595181
 21
71.008548227
 31
0.0
  0
LINE
  5
199
330
1B
100
AcDbEntity
 67
     1
  8
SLD-0
  6
Continuous
 62
     7
100
AcDbLine
 10
232.001595181
 20
71.008548227
 30
0.0
 11
231.9626098474
 21
70.6536696108
 31
0.0
  0
LINE
  5
19A
330
1B
100
AcDbEntity
 67
     1
  8
SLD-0
  6
Continuous
 62
     7
100
AcDbLine
 10
231.9626098474
 20
70.6536696108
 30
0.0
 11
231.9216770327
 21
70.2989126682
 31
0.0
  0
LINE
  5
19B
330
1B
100
AcDbEntity
 67
     1
  8
SLD-0
  6
Continuous
 62
     7
100
AcDbLine
 10
231.9216770327
 20
70.2989126682
 30
0.0
 11
231.8821504944
 21
69.944008013
 31
0.0
  0
LINE
  5
19C
330
1B
100
AcDbEntity
 67
     1
  8
SLD-0
  6
Continuous
 62
     7
100
AcDbLine
 10
231.8821504944
 20
69.944008013
 30
0.0
 11
231.8473902672
 21
69.5887046735
 31
0.0
  0
LINE
  5
19D
330
1B
100
AcDbEntity
 67
     1
  8
SLD-0
  6
Continuous
 62
     7
100
AcDbLine
 10
231.8207637045
 20
69.2328284171
 30
0.0
 11
231.8039117546
 21
68.8765491772
 31
0.0
  0
LINE
  5
19E
330
1B
100
AcDbEntity
 67
     1
  8
SLD-0
  6
Continuous
 62
     7
100
AcDbLine
 10
231.8039117546
 20
68.8765491772
 30
0.0
 11
231.7938841493
 21
68.5198756625
 31
0.0
  0
LINE
  5
19F
330
1B
100
AcDbEntity
 67
     1
  8
SLD-0
  6
Continuous
 62
     7
100
AcDbLine
 10
231.7938841493
 20
68.5198756625
 30
0.0
 11
231.7870086531
 21
68.1630195313
 31
0.0
  0
LINE
  5
1A0
330
1B
100
AcDbEntity
 67
     1
  8
SLD-0
  6
Continuous
 62
     7
100
AcDbLine
 10
231.7870086531
 20
68.1630195313
 30
0.0
 11
231.7796156738
 21
67.8061674055
 31
0.0
  0
LINE
  5
1A1
330
1B
100
AcDbEntity
 67
     1
  8
SLD-0
  6
Continuous
 62
     7
100
AcDbLine
 10
231.7796156738
 20
67.8061674055
 30
0.0
 11
231.7693067364
 21
67.4493792093
 31
0.0
  0
LINE
  5
1A2
330
1B
100
AcDbEntity
 67
     1
  8
SLD-0
  6
Continuous
 62
     7
100
AcDbLine
 10
231.7693067364
 20
67.4493792093
 30
0.0
 11
231.7580852182
 21
67.0930759509
 31
0.0
  0
LINE
  5
1A3
330
1B
100
AcDbEntity
 67
     1
  8
SLD-0
  6
Continuous
 62
     7
100
AcDbLine
 10
239.7580838585
 20
67.0930759509
 30
0.0
 11
239.7486969623
 21
67.4140902153
 31
0.0
  0
LINE
  5
1A4
330
1B
100
AcDbEntity
 67
     1
  8
SLD-0
  6
Continuous
 62
     7
100
AcDbLine
 10
239.7486969623
 20
67.4140902153
 30
0.0
 11
239.7402239126
 21
67.7351387858
 31
0.0
  0
LINE
  5
1A5
330
1B
100
AcDbEntity
 67
     1
  8
SLD-0
  6
Continuous
 62
     7
100
AcDbLine
 10
239.7402239126
 20
67.7351387858
 30
0.0
 11
239.734533268
 21
68.0563833408
 31
0.0
  0
LINE
  5
1A6
330
1B
100
AcDbEntity
 67
     1
  8
SLD-0
  6
Continuous
 62
     7
100
AcDbLine
 10
239.734533268
 20
68.0563833408
 30
0.0
 11
239.729907173
 21
68.3777421308
 31
0.0
  0
LINE
  5
1A7
330
1B
100
AcDbEntity
 67
     1
  8
SLD-0
  6
Continuous
 62
     7
100
AcDbLine
 10
239.729907173
 20
68.3777421308
 30
0.0
 11
239.7237160514
 21
68.6990649536
 31
0.0
  0
LINE
  5
1A8
330
1B
100
AcDbEntity
 67
     1
  8
SLD-0
  6
Continuous
 62
     7
100
AcDbLine
 10
239.7237160514
 20
68.6990649536
 30
0.0
 11
239.7133266522
 21
69.0201853391
 31
0.0
  0
LINE
  5
1A9
330
1B
100
AcDbEntity
 67
     1
  8
SLD-0
  6
Continuous
 62
     7
100
AcDbLine
 10
239.7133266522
 20
69.0201853391
 30
0.0
 11
239.6961020728
 21
69.3409072436
 31
0.0
  0
LINE
  5
1AA
330
1B
100
AcDbEntity
 67
     1
  8
SLD-0
  6
Continuous
 62
     7
100
AcDbLine
 10
239.6961020728
 20
69.3409072436
 30
0.0
 11
239.6702303173
 21
69.6607341236
 31
0.0
  0
LINE
  5
1AB
330
1B
100
AcDbEntity
 67
     1
  8
SLD-0
  6
Continuous
 62
     7
100
AcDbLine
 10
239.6702303173
 20
69.6607341236
 30
0.0
 11
239.6374439462
 21
69.9800187343
 31
0.0
  0
LINE
  5
1AC
330
1B
100
AcDbEntity
 67
     1
  8
SLD-0
  6
Continuous
 62
     7
100
AcDbLine
 10
239.6374439462
 20
69.9800187343
 30
0.0
 11
239.6004855223
 21
70.2989962987
 31
0.0
  0
LINE
  5
1AD
330
1B
100
AcDbEntity
 67
     1
  8
SLD-0
  6
Continuous
 62
     7
100
AcDbLine
 10
239.6004855223
 20
70.2989962987
 30
0.0
 11
239.5620936811
 21
70.6179058324
 31
0.0
  0
LINE
  5
1AE
330
1B
100
AcDbEntity
 67
     1
  8
SLD-0
  6
Continuous
 62
     7
100
AcDbLine
 10
239.5620936811
 20
70.6179058324
 30
0.0
 11
239.5250058478
 21
70.9369880104
 31
0.0
  0
LINE
  5
1AF
330
1B
100
AcDbEntity
 67
     1
  8
SLD-0
  6
Continuous
 62
     7
100
AcDbLine
 10
239.5250058478
 20
70.9369880104
 30
0.0
 11
239.491962397
 21
71.2564713703
 31
0.0
  0
LINE
  5
1B0
330
1B
100
AcDbEntity
 67
     1
  8
SLD-0
  6
Continuous
 62
     7
100
AcDbLine
 10
239.491962397
 20
71.2564713703
 30
0.0
 11
239.465031075
 21
71.5765295761
 31
0.0
  0
LINE
  5
1B1
330
1B
100
AcDbEntity
 67
     1
  8
SLD-0
  6
Continuous
 62
     7
100
AcDbLine
 10
239.465031075
 20
71.5765295761
 30
0.0
 11
239.4424777873
 21
71.8969496324
 31
0.0
  0
LINE
  5
1B2
330
1B
100
AcDbEntity
 67
     1
  8
SLD-0
  6
Continuous
 62
     7
100
AcDbLine
 10
239.4424777873
 20
71.8969496324
 30
0.0
 11
239.4212281822
 21
72.2174726259
 31
0.0
  0
LINE
  5
1B3
330
1B
100
AcDbEntity
 67
     1
  8
SLD-0
  6
Continuous
 62
     7
100
AcDbLine
 10
239.4212281822
 20
72.2174726259
 30
0.0
 11
239.3982050284
 21
72.5378458837
 31
0.0
  0
LINE
  5
1B4
330
1B
100
AcDbEntity
 67
     1
  8
SLD-0
  6
Continuous
 62
     7
100
AcDbLine
 10
239.3982050284
 20
72.5378458837
 30
0.0
 11
239.3703660093
 21
72.8577524712
 31
0.0
  0
LINE
  5
1B5
330
1B
100
AcDbEntity
 67
     1
  8
SLD-0
  6
Continuous
 62
     7
100
AcDbLine
 10
239.3703660093
 20
72.8577524712
 30
0.0
 11
239.3352994013
 21
73.1769745121
 31
0.0
  0
LINE
  5
1B6
330
1B
100
AcDbEntity
 67
     1
  8
SLD-0
  6
Continuous
 62
     7
100
AcDbLine
 10
51.3286754374
 20
63.823293002
 30
0.0
 11
51.3286754374
 21
63.8315640778
 31
0.0
  0
LINE
  5
1B7
330
1B
100
AcDbEntity
 67
     1
  8
SLD-0
  6
Continuous
 62
     7
100
AcDbLine
 10
51.3286754374
 20
63.8315640778
 30
0.0
 11
51.3286754374
 21
63.8398351536
 31
0.0
  0
LINE
  5
1B8
330
1B
100
AcDbEntity
 67
     1
  8
SLD-0
  6
Continuous
 62
     7
100
AcDbLine
 10
69.3286746625
 20
63.8398351536
 30
0.0
 11
69.3286746625
 21
63.8315640778
 31
0.0
  0
LINE
  5
1B9
330
1B
100
AcDbEntity
 67
     1
  8
SLD-0
  6
Continuous
 62
     7
100
AcDbLine
 10
69.3286746625
 20
63.8315640778
 30
0.0
 11
69.3286746625
 21
63.823293002
 31
0.0
  0
LINE
  5
1BA
330
1B
100
AcDbEntity
 67
     1
  8
SLD-0
  6
Continuous
 62
     7
100
AcDbLine
 10
51.3286754374
 20
72.0640207098
 30
0.0
 11
51.3286754374
 21
71.4797561911
 31
0.0
  0
LINE
  5
1BB
330
1B
100
AcDbEntity
 67
     1
  8
SLD-0
  6
Continuous
 62
     7
100
AcDbLine
 10
51.3286754374
 20
71.4797561911
 30
0.0
 11
51.3286754374
 21
70.8954916724
 31
0.0
  0
LINE
  5
1BC
330
1B
100
AcDbEntity
 67
     1
  8
SLD-0
  6
Continuous
 62
     7
100
AcDbLine
 10
51.3286754374
 20
70.8954916724
 30
0.0
 11
51.3286754374
 21
70.3112271537
 31
0.0
  0
LINE
  5
1BD
330
1B
100
AcDbEntity
 67
     1
  8
SLD-0
  6
Continuous
 62
     7
100
AcDbLine
 10
51.3286754374
 20
70.3112271537
 30
0.0
 11
51.3286754374
 21
69.726962635
 31
0.0
  0
LINE
  5
1BE
330
1B
100
AcDbEntity
 67
     1
  8
SLD-0
  6
Continuous
 62
     7
100
AcDbLine
 10
51.3286754374
 20
69.726962635
 30
0.0
 11
51.3286754374
 21
69.1426981163
 31
0.0
  0
LINE
  5
1BF
330
1B
100
AcDbEntity
 67
     1
  8
SLD-0
  6
Continuous
 62
     7
100
AcDbLine
 10
51.3286754374
 20
69.1426981163
 30
0.0
 11
51.3286754374
 21
68.5584335976
 31
0.0
  0
LINE
  5
1C0
330
1B
100
AcDbEntity
 67
     1
  8
SLD-0
  6
Continuous
 62
     7
100
AcDbLine
 10
51.3286754374
 20
68.5584335976
 30
0.0
 11
51.3286754374
 21
67.9741690789
 31
0.0
  0
LINE
  5
1C1
330
1B
100
AcDbEntity
 67
     1
  8
SLD-0
  6
Continuous
 62
     7
100
AcDbLine
 10
51.3286754374
 20
67.9741690789
 30
0.0
 11
51.3286754374
 21
67.3899045602
 31
0.0
  0
LINE
  5
1C2
330
1B
100
AcDbEntity
 67
     1
  8
SLD-0
  6
Continuous
 62
     7
100
AcDbLine
 10
51.3286754374
 20
63.9322186277
 30
0.0
 11
51.3286754374
 21
63.8818908871
 31
0.0
  0
LINE
  5
1C3
330
1B
100
AcDbEntity
 67
     1
  8
SLD-0
  6
Continuous
 62
     7
100
AcDbLine
 10
51.3286754374
 20
63.8818908871
 30
0.0
 11
51.3286754374
 21
63.8315640778
 31
0.0
  0
LINE
  5
1C4
330
1B
100
AcDbEntity
 67
     1
  8
SLD-0
  6
Continuous
 62
     7
100
AcDbLine
 10
51.3286754374
 20
52.5813838855
 30
0.0
 11
51.3286754374
 21
52.9983261251
 31
0.0
  0
LINE
  5
1C5
330
1B
100
AcDbEntity
 67
     1
  8
SLD-0
  6
Continuous
 62
     7
100
AcDbLine
 10
51.3286754374
 20
52.9983261251
 30
0.0
 11
51.3286754374
 21
53.4691087699
 31
0.0
  0
LINE
  5
1C6
330
1B
100
AcDbEntity
 67
     1
  8
SLD-0
  6
Continuous
 62
     7
100
AcDbLine
 10
51.3286754374
 20
53.4691087699
 30
0.0
 11
51.3286754374
 21
53.9397877395
 31
0.0
  0
LINE
  5
1C7
330
1B
100
AcDbEntity
 67
     1
  8
SLD-0
  6
Continuous
 62
     7
100
AcDbLine
 10
51.3286754374
 20
53.9397877395
 30
0.0
 11
51.3286754374
 21
54.4103762953
 31
0.0
  0
LINE
  5
1C8
330
1B
100
AcDbEntity
 67
     1
  8
SLD-0
  6
Continuous
 62
     7
100
AcDbLine
 10
51.3286754374
 20
54.4103762953
 30
0.0
 11
51.3286754374
 21
54.8819308826
 31
0.0
  0
LINE
  5
1C9
330
1B
100
AcDbEntity
 67
     1
  8
SLD-0
  6
Continuous
 62
     7
100
AcDbLine
 10
51.3286754374
 20
54.8819308826
 30
0.0
 11
51.3286754374
 21
55.3525967179
 31
0.0
  0
LINE
  5
1CA
330
1B
100
AcDbEntity
 67
     1
  8
SLD-0
  6
Continuous
 62
     7
100
AcDbLine
 10
51.3286754374
 20
55.3525967179
 30
0.0
 11
51.3286754374
 21
55.823009298
 31
0.0
  0
LINE
  5
1CB
330
1B
100
AcDbEntity
 67
     1
  8
SLD-0
  6
Continuous
 62
     7
100
AcDbLine
 10
51.3286754374
 20
55.823009298
 30
0.0
 11
51.3286754374
 21
56.2937073339
 31
0.0
  0
LINE
  5
1CC
330
1B
100
AcDbEntity
 67
     1
  8
SLD-0
  6
Continuous
 62
     7
100
AcDbLine
 10
51.3286754374
 20
56.2937073339
 30
0.0
 11
51.3286754374
 21
56.7644471037
 31
0.0
  0
LINE
  5
1CD
330
1B
100
AcDbEntity
 67
     1
  8
SLD-0
  6
Continuous
 62
     7
100
AcDbLine
 10
51.3286754374
 20
56.7644471037
 30
0.0
 11
51.3286754374
 21
57.2351166006
 31
0.0
  0
LINE
  5
1CE
330
1B
100
AcDbEntity
 67
     1
  8
SLD-0
  6
Continuous
 62
     7
100
AcDbLine
 10
51.3286754374
 20
57.2351166006
 30
0.0
 11
51.3286754374
 21
57.7057552871
 31
0.0
  0
LINE
  5
1CF
330
1B
100
AcDbEntity
 67
     1
  8
SLD-0
  6
Continuous
 62
     7
100
AcDbLine
 10
51.3286754374
 20
57.7057552871
 30
0.0
 11
51.3286754374
 21
58.1764207253
 31
0.0
  0
LINE
  5
1D0
330
1B
100
AcDbEntity
 67
     1
  8
SLD-0
  6
Continuous
 62
     7
100
AcDbLine
 10
51.3286754374
 20
58.1764207253
 30
0.0
 11
51.3286754374
 21
58.6470952504
 31
0.0
  0
LINE
  5
1D1
330
1B
100
AcDbEntity
 67
     1
  8
SLD-0
  6
Continuous
 62
     7
100
AcDbLine
 10
51.3286754374
 20
58.6470952504
 30
0.0
 11
51.3286754374
 21
59.1177666323
 31
0.0
  0
LINE
  5
1D2
330
1B
100
AcDbEntity
 67
     1
  8
SLD-0
  6
Continuous
 62
     7
100
AcDbLine
 10
51.3286754374
 20
59.1177666323
 30
0.0
 11
51.3286754374
 21
59.5884346215
 31
0.0
  0
LINE
  5
1D3
330
1B
100
AcDbEntity
 67
     1
  8
SLD-0
  6
Continuous
 62
     7
100
AcDbLine
 10
51.3286754374
 20
59.5884346215
 30
0.0
 11
51.3286754374
 21
60.059100154
 31
0.0
  0
LINE
  5
1D4
330
1B
100
AcDbEntity
 67
     1
  8
SLD-0
  6
Continuous
 62
     7
100
AcDbLine
 10
51.3286754374
 20
60.059100154
 30
0.0
 11
51.3286754374
 21
60.5297677606
 31
0.0
  0
LINE
  5
1D5
330
1B
100
AcDbEntity
 67
     1
  8
SLD-0
  6
Continuous
 62
     7
100
AcDbLine
 10
51.3286754374
 20
60.5297677606
 30
0.0
 11
51.3286754374
 21
61.0004360684
 31
0.0
  0
LINE
  5
1D6
330
1B
100
AcDbEntity
 67
     1
  8
SLD-0
  6
Continuous
 62
     7
100
AcDbLine
 10
51.3286754374
 20
61.0004360684
 30
0.0
 11
51.3286754374
 21
61.4711046526
 31
0.0
  0
LINE
  5
1D7
330
1B
100
AcDbEntity
 67
     1
  8
SLD-0
  6
Continuous
 62
     7
100
AcDbLine
 10
51.3286754374
 20
61.4711046526
 30
0.0
 11
51.3286754374
 21
61.9417727494
 31
0.0
  0
LINE
  5
1D8
330
1B
100
AcDbEntity
 67
     1
  8
SLD-0
  6
Continuous
 62
     7
100
AcDbLine
 10
51.3286754374
 20
61.9417727494
 30
0.0
 11
51.3286754374
 21
62.412440723
 31
0.0
  0
LINE
  5
1D9
330
1B
100
AcDbEntity
 67
     1
  8
SLD-0
  6
Continuous
 62
     7
100
AcDbLine
 10
51.3286754374
 20
62.412440723
 30
0.0
 11
51.3286754374
 21
62.8831086804
 31
0.0
  0
LINE
  5
1DA
330
1B
100
AcDbEntity
 67
     1
  8
SLD-0
  6
Continuous
 62
     7
100
AcDbLine
 10
51.3286754374
 20
62.8831086804
 30
0.0
 11
51.3286754374
 21
63.35377672
 31
0.0
  0
LINE
  5
1DB
330
1B
100
AcDbEntity
 67
     1
  8
SLD-0
  6
Continuous
 62
     7
100
AcDbLine
 10
51.3286754374
 20
63.35377672
 30
0.0
 11
51.3286754374
 21
63.823293002
 31
0.0
  0
LINE
  5
1DC
330
1B
100
AcDbEntity
 67
     1
  8
SLD-0
  6
Continuous
 62
     7
100
AcDbLine
 10
69.3286746625
 20
63.823293002
 30
0.0
 11
69.3286746625
 21
63.2565352551
 31
0.0
  0
LINE
  5
1DD
330
1B
100
AcDbEntity
 67
     1
  8
SLD-0
  6
Continuous
 62
     7
100
AcDbLine
 10
69.3286746625
 20
63.2565352551
 30
0.0
 11
69.3286746625
 21
62.6897816936
 31
0.0
  0
LINE
  5
1DE
330
1B
100
AcDbEntity
 67
     1
  8
SLD-0
  6
Continuous
 62
     7
100
AcDbLine
 10
69.3286746625
 20
62.6897816936
 30
0.0
 11
69.3286746625
 21
62.1230204408
 31
0.0
  0
LINE
  5
1DF
330
1B
100
AcDbEntity
 67
     1
  8
SLD-0
  6
Continuous
 62
     7
100
AcDbLine
 10
69.3286746625
 20
62.1230204408
 30
0.0
 11
69.3286746625
 21
61.5562385256
 31
0.0
  0
LINE
  5
1E0
330
1B
100
AcDbEntity
 67
     1
  8
SLD-0
  6
Continuous
 62
     7
100
AcDbLine
 10
69.3286746625
 20
61.5562385256
 30
0.0
 11
69.3286746625
 21
60.9894595549
 31
0.0
  0
LINE
  5
1E1
330
1B
100
AcDbEntity
 67
     1
  8
SLD-0
  6
Continuous
 62
     7
100
AcDbLine
 10
69.3286746625
 20
60.9894595549
 30
0.0
 11
69.3286746625
 21
60.4227243079
 31
0.0
  0
LINE
  5
1E2
330
1B
100
AcDbEntity
 67
     1
  8
SLD-0
  6
Continuous
 62
     7
100
AcDbLine
 10
69.3286746625
 20
60.4227243079
 30
0.0
 11
69.3286746625
 21
59.8560630261
 31
0.0
  0
LINE
  5
1E3
330
1B
100
AcDbEntity
 67
     1
  8
SLD-0
  6
Continuous
 62
     7
100
AcDbLine
 10
69.3286746625
 20
59.8560630261
 30
0.0
 11
69.3286746625
 21
59.2893817849
 31
0.0
  0
LINE
  5
1E4
330
1B
100
AcDbEntity
 67
     1
  8
SLD-0
  6
Continuous
 62
     7
100
AcDbLine
 10
69.3286746625
 20
59.2893817849
 30
0.0
 11
69.3286746625
 21
58.7225263317
 31
0.0
  0
LINE
  5
1E5
330
1B
100
AcDbEntity
 67
     1
  8
SLD-0
  6
Continuous
 62
     7
100
AcDbLine
 10
69.3286746625
 20
58.7225263317
 30
0.0
 11
69.3286746625
 21
58.1554202076
 31
0.0
  0
LINE
  5
1E6
330
1B
100
AcDbEntity
 67
     1
  8
SLD-0
  6
Continuous
 62
     7
100
AcDbLine
 10
69.3286746625
 20
58.1554202076
 30
0.0
 11
69.3286746625
 21
57.5884544192
 31
0.0
  0
LINE
  5
1E7
330
1B
100
AcDbEntity
 67
     1
  8
SLD-0
  6
Continuous
 62
     7
100
AcDbLine
 10
69.3286746625
 20
57.5884544192
 30
0.0
 11
69.3286746625
 21
57.0224432019
 31
0.0
  0
LINE
  5
1E8
330
1B
100
AcDbEntity
 67
     1
  8
SLD-0
  6
Continuous
 62
     7
100
AcDbLine
 10
69.3286746625
 20
57.0224432019
 30
0.0
 11
69.3286746625
 21
56.4567694137
 31
0.0
  0
LINE
  5
1E9
330
1B
100
AcDbEntity
 67
     1
  8
SLD-0
  6
Continuous
 62
     7
100
AcDbLine
 10
69.3286746625
 20
56.4567694137
 30
0.0
 11
69.3286746625
 21
55.8901634606
 31
0.0
  0
LINE
  5
1EA
330
1B
100
AcDbEntity
 67
     1
  8
SLD-0
  6
Continuous
 62
     7
100
AcDbLine
 10
69.3286746625
 20
55.8901634606
 30
0.0
 11
69.3286746625
 21
55.3233966556
 31
0.0
  0
LINE
  5
1EB
330
1B
100
AcDbEntity
 67
     1
  8
SLD-0
  6
Continuous
 62
     7
100
AcDbLine
 10
69.3286746625
 20
55.3233966556
 30
0.0
 11
69.3286746625
 21
54.7560709099
 31
0.0
  0
LINE
  5
1EC
330
1B
100
AcDbEntity
 67
     1
  8
SLD-0
  6
Continuous
 62
     7
100
AcDbLine
 10
69.3286746625
 20
54.7560709099
 30
0.0
 11
69.3286746625
 21
54.1895771427
 31
0.0
  0
LINE
  5
1ED
330
1B
100
AcDbEntity
 67
     1
  8
SLD-0
  6
Continuous
 62
     7
100
AcDbLine
 10
69.3286746625
 20
54.1895771427
 30
0.0
 11
69.3286746625
 21
53.6223074882
 31
0.0
  0
LINE
  5
1EE
330
1B
100
AcDbEntity
 67
     1
  8
SLD-0
  6
Continuous
 62
     7
100
AcDbLine
 10
69.3286746625
 20
53.6223074882
 30
0.0
 11
69.3286746625
 21
53.0554030747
 31
0.0
  0
LINE
  5
1EF
330
1B
100
AcDbEntity
 67
     1
  8
SLD-0
  6
Continuous
 62
     7
100
AcDbLine
 10
69.3286746625
 20
53.0554030747
 30
0.0
 11
69.3286746625
 21
52.6078222708
 31
0.0
  0
LINE
  5
1F0
330
1B
100
AcDbEntity
 67
     1
  8
SLD-0
  6
Continuous
 62
     7
100
AcDbLine
 10
69.3286746625
 20
63.839775549
 30
0.0
 11
69.3286746625
 21
64.7535805668
 31
0.0
  0
LINE
  5
1F1
330
1B
100
AcDbEntity
 67
     1
  8
SLD-0
  6
Continuous
 62
     7
100
AcDbLine
 10
69.3286746625
 20
64.7535805668
 30
0.0
 11
69.3286746625
 21
65.6673855847
 31
0.0
  0
LINE
  5
1F2
330
1B
100
AcDbEntity
 67
     1
  8
SLD-0
  6
Continuous
 62
     7
100
AcDbLine
 10
69.3286746625
 20
65.6673855847
 30
0.0
 11
69.3286746625
 21
66.5811906026
 31
0.0
  0
LINE
  5
1F3
330
1B
100
AcDbEntity
 67
     1
  8
SLD-0
  6
Continuous
 62
     7
100
AcDbLine
 10
69.3286746625
 20
66.5811906026
 30
0.0
 11
69.3286746625
 21
67.4949956204
 31
0.0
  0
LINE
  5
1F4
330
1B
100
AcDbEntity
 67
     1
  8
SLD-0
  6
Continuous
 62
     7
100
AcDbLine
 10
69.3286746625
 20
67.4949956204
 30
0.0
 11
69.3286746625
 21
68.4088006383
 31
0.0
  0
LINE
  5
1F5
330
1B
100
AcDbEntity
 67
     1
  8
SLD-0
  6
Continuous
 62
     7
100
AcDbLine
 10
69.3286746625
 20
68.4088006383
 30
0.0
 11
69.3286746625
 21
69.3226056562
 31
0.0
  0
LINE
  5
1F6
330
1B
100
AcDbEntity
 67
     1
  8
SLD-0
  6
Continuous
 62
     7
100
AcDbLine
 10
69.3286746625
 20
69.3226056562
 30
0.0
 11
69.3286746625
 21
70.2364106741
 31
0.0
  0
LINE
  5
1F7
330
1B
100
AcDbEntity
 67
     1
  8
SLD-0
  6
Continuous
 62
     7
100
AcDbLine
 10
69.3286746625
 20
70.2364106741
 30
0.0
 11
69.3286746625
 21
71.1502156919
 31
0.0
  0
LINE
  5
1F8
330
1B
100
AcDbEntity
 67
     1
  8
SLD-0
  6
Continuous
 62
     7
100
AcDbLine
 10
69.3286746625
 20
71.1502156919
 30
0.0
 11
69.3286746625
 21
72.0640207098
 31
0.0
  0
LINE
  5
1F9
330
1B
100
AcDbEntity
 67
     1
  8
SLD-0
  6
Continuous
 62
     7
100
AcDbLine
 10
52.8286752176
 20
117.063990833
 30
0.0
 11
53.3286752064
 21
117.063990833
 31
0.0
  0
LINE
  5
1FA
330
1B
100
AcDbEntity
 67
     1
  8
SLD-0
  6
Continuous
 62
     7
100
AcDbLine
 10
53.3286752064
 20
117.063990833
 30
0.0
 11
53.8286751952
 21
117.063990833
 31
0.0
  0
LINE
  5
1FB
330
1B
100
AcDbEntity
 67
     1
  8
SLD-0
  6
Continuous
 62
     7
100
AcDbLine
 10
53.8286751952
 20
117.063990833
 30
0.0
 11
54.328675184
 21
117.063990833
 31
0.0
  0
LINE
  5
1FC
330
1B
100
AcDbEntity
 67
     1
  8
SLD-0
  6
Continuous
 62
     7
100
AcDbLine
 10
54.328675184
 20
117.063990833
 30
0.0
 11
54.8286751729
 21
117.063990833
 31
0.0
  0
LINE
  5
1FD
330
1B
100
AcDbEntity
 67
     1
  8
SLD-0
  6
Continuous
 62
     7
100
AcDbLine
 10
54.8286751729
 20
117.063990833
 30
0.0
 11
55.3286751617
 21
117.063990833
 31
0.0
  0
LINE
  5
1FE
330
1B
100
AcDbEntity
 67
     1
  8
SLD-0
  6
Continuous
 62
     7
100
AcDbLine
 10
55.3286751617
 20
117.063990833
 30
0.0
 11
55.8286751505
 21
117.063990833
 31
0.0
  0
LINE
  5
1FF
330
1B
100
AcDbEntity
 67
     1
  8
SLD-0
  6
Continuous
 62
     7
100
AcDbLine
 10
55.8286751505
 20
117.063990833
 30
0.0
 11
56.3286751393
 21
117.063990833
 31
0.0
  0
LINE
  5
200
330
1B
100
AcDbEntity
 67
     1
  8
SLD-0
  6
Continuous
 62
     7
100
AcDbLine
 10
56.3286751393
 20
117.063990833
 30
0.0
 11
56.8286751282
 21
117.063990833
 31
0.0
  0
LINE
  5
201
330
1B
100
AcDbEntity
 67
     1
  8
SLD-0
  6
Continuous
 62
     7
100
AcDbLine
 10
56.8286751282
 20
117.063990833
 30
0.0
 11
57.328675117
 21
117.063990833
 31
0.0
  0
LINE
  5
202
330
1B
100
AcDbEntity
 67
     1
  8
SLD-0
  6
Continuous
 62
     7
100
AcDbLine
 10
57.328675117
 20
117.063990833
 30
0.0
 11
57.8286751058
 21
117.063990833
 31
0.0
  0
LINE
  5
203
330
1B
100
AcDbEntity
 67
     1
  8
SLD-0
  6
Continuous
 62
     7
100
AcDbLine
 10
57.8286751058
 20
117.063990833
 30
0.0
 11
58.3286750946
 21
117.063990833
 31
0.0
  0
LINE
  5
204
330
1B
100
AcDbEntity
 67
     1
  8
SLD-0
  6
Continuous
 62
     7
100
AcDbLine
 10
58.3286750946
 20
117.063990833
 30
0.0
 11
58.8286750835
 21
117.063990833
 31
0.0
  0
LINE
  5
205
330
1B
100
AcDbEntity
 67
     1
  8
SLD-0
  6
Continuous
 62
     7
100
AcDbLine
 10
58.8286750835
 20
117.063990833
 30
0.0
 11
59.3286750723
 21
117.063990833
 31
0.0
  0
LINE
  5
206
330
1B
100
AcDbEntity
 67
     1
  8
SLD-0
  6
Continuous
 62
     7
100
AcDbLine
 10
59.3286750723
 20
117.063990833
 30
0.0
 11
59.8286750611
 21
117.063990833
 31
0.0
  0
LINE
  5
207
330
1B
100
AcDbEntity
 67
     1
  8
SLD-0
  6
Continuous
 62
     7
100
AcDbLine
 10
59.8286750611
 20
117.063990833
 30
0.0
 11
60.3286750499
 21
117.063990833
 31
0.0
  0
LINE
  5
208
330
1B
100
AcDbEntity
 67
     1
  8
SLD-0
  6
Continuous
 62
     7
100
AcDbLine
 10
60.3286750499
 20
117.063990833
 30
0.0
 11
60.8286750388
 21
117.063990833
 31
0.0
  0
LINE
  5
209
330
1B
100
AcDbEntity
 67
     1
  8
SLD-0
  6
Continuous
 62
     7
100
AcDbLine
 10
60.8286750388
 20
117.063990833
 30
0.0
 11
61.3286750276
 21
117.063990833
 31
0.0
  0
LINE
  5
20A
330
1B
100
AcDbEntity
 67
     1
  8
SLD-0
  6
Continuous
 62
     7
100
AcDbLine
 10
61.3286750276
 20
117.063990833
 30
0.0
 11
61.8286750164
 21
117.063990833
 31
0.0
  0
LINE
  5
20B
330
1B
100
AcDbEntity
 67
     1
  8
SLD-0
  6
Continuous
 62
     7
100
AcDbLine
 10
61.8286750164
 20
117.063990833
 30
0.0
 11
62.3286750052
 21
117.063990833
 31
0.0
  0
LINE
  5
20C
330
1B
100
AcDbEntity
 67
     1
  8
SLD-0
  6
Continuous
 62
     7
100
AcDbLine
 10
62.3286750052
 20
117.063990833
 30
0.0
 11
62.8286749941
 21
117.063990833
 31
0.0
  0
LINE
  5
20D
330
1B
100
AcDbEntity
 67
     1
  8
SLD-0
  6
Continuous
 62
     7
100
AcDbLine
 10
62.8286749941
 20
117.063990833
 30
0.0
 11
63.3286749829
 21
117.063990833
 31
0.0
  0
LINE
  5
20E
330
1B
100
AcDbEntity
 67
     1
  8
SLD-0
  6
Continuous
 62
     7
100
AcDbLine
 10
63.3286749829
 20
117.063990833
 30
0.0
 11
63.8286749717
 21
117.063990833
 31
0.0
  0
LINE
  5
20F
330
1B
100
AcDbEntity
 67
     1
  8
SLD-0
  6
Continuous
 62
     7
100
AcDbLine
 10
63.8286749717
 20
117.063990833
 30
0.0
 11
64.3286749605
 21
117.063990833
 31
0.0
  0
LINE
  5
210
330
1B
100
AcDbEntity
 67
     1
  8
SLD-0
  6
Continuous
 62
     7
100
AcDbLine
 10
64.3286749605
 20
117.063990833
 30
0.0
 11
64.8286749493
 21
117.063990833
 31
0.0
  0
LINE
  5
211
330
1B
100
AcDbEntity
 67
     1
  8
SLD-0
  6
Continuous
 62
     7
100
AcDbLine
 10
64.8286749493
 20
117.063990833
 30
0.0
 11
65.3286749382
 21
117.063990833
 31
0.0
  0
LINE
  5
212
330
1B
100
AcDbEntity
 67
     1
  8
SLD-0
  6
Continuous
 62
     7
100
AcDbLine
 10
65.3286749382
 20
117.063990833
 30
0.0
 11
65.828674927
 21
117.063990833
 31
0.0
  0
LINE
  5
213
330
1B
100
AcDbEntity
 67
     1
  8
SLD-0
  6
Continuous
 62
     7
100
AcDbLine
 10
65.828674927
 20
117.063990833
 30
0.0
 11
66.3286749158
 21
117.063990833
 31
0.0
  0
LINE
  5
214
330
1B
100
AcDbEntity
 67
     1
  8
SLD-0
  6
Continuous
 62
     7
100
AcDbLine
 10
66.3286749158
 20
117.063990833
 30
0.0
 11
66.8286749046
 21
117.063990833
 31
0.0
  0
LINE
  5
215
330
1B
100
AcDbEntity
 67
     1
  8
SLD-0
  6
Continuous
 62
     7
100
AcDbLine
 10
66.8286749046
 20
117.063990833
 30
0.0
 11
67.3286748935
 21
117.063990833
 31
0.0
  0
LINE
  5
216
330
1B
100
AcDbEntity
 67
     1
  8
SLD-0
  6
Continuous
 62
     7
100
AcDbLine
 10
67.3286748935
 20
117.063990833
 30
0.0
 11
67.8286750499
 21
117.0639909522
 31
0.0
  0
LINE
  5
217
330
1B
100
AcDbEntity
 67
     1
  8
SLD-0
  6
Continuous
 62
     7
100
AcDbLine
 10
127.6440797052
 20
62.2194729524
 30
0.0
 11
127.0483902165
 21
63.400316091
 31
0.0
  0
LINE
  5
218
330
1B
100
AcDbEntity
 67
     1
  8
SLD-0
  6
Continuous
 62
     7
100
AcDbLine
 10
127.9468147525
 20
63.8398351536
 30
0.0
 11
127.9511044243
 21
63.8315640778
 31
0.0
  0
LINE
  5
219
330
1B
100
AcDbEntity
 67
     1
  8
SLD-0
  6
Continuous
 62
     7
100
AcDbLine
 10
127.9511044243
 20
63.8315640778
 30
0.0
 11
127.9553940961
 21
63.823293002
 31
0.0
  0
LINE
  5
21A
330
1B
100
AcDbEntity
 67
     1
  8
SLD-0
  6
Continuous
 62
     7
100
AcDbLine
 10
120.2864965865
 20
77.9012414084
 30
0.0
 11
119.9079512128
 21
78.7130361811
 31
0.0
  0
LINE
  5
21B
330
1B
100
AcDbEntity
 67
     1
  8
SLD-0
  6
Continuous
 62
     7
100
AcDbLine
 10
119.9079512128
 20
78.7130361811
 30
0.0
 11
119.5341667602
 21
79.5146208645
 31
0.0
  0
LINE
  5
21C
330
1B
100
AcDbEntity
 67
     1
  8
SLD-0
  6
Continuous
 62
     7
100
AcDbLine
 10
119.5341667602
 20
79.5146208645
 30
0.0
 11
119.1698408195
 21
80.2959166856
 31
0.0
  0
LINE
  5
21D
330
1B
100
AcDbEntity
 67
     1
  8
SLD-0
  6
Continuous
 62
     7
100
AcDbLine
 10
119.1698408195
 20
80.2959166856
 30
0.0
 11
118.8195592234
 21
81.0470991225
 31
0.0
  0
LINE
  5
21E
330
1B
100
AcDbEntity
 67
     1
  8
SLD-0
  6
Continuous
 62
     7
100
AcDbLine
 10
118.8195592234
 20
81.0470991225
 30
0.0
 11
118.4877252647
 21
81.7587199078
 31
0.0
  0
LINE
  5
21F
330
1B
100
AcDbEntity
 67
     1
  8
SLD-0
  6
Continuous
 62
     7
100
AcDbLine
 10
118.4877252647
 20
81.7587199078
 30
0.0
 11
118.1785112688
 21
82.4218308942
 31
0.0
  0
LINE
  5
220
330
1B
100
AcDbEntity
 67
     1
  8
SLD-0
  6
Continuous
 62
     7
100
AcDbLine
 10
118.1785112688
 20
82.4218308942
 30
0.0
 11
117.8958064386
 21
83.0280920879
 31
0.0
  0
LINE
  5
221
330
1B
100
AcDbEntity
 67
     1
  8
SLD-0
  6
Continuous
 62
     7
100
AcDbLine
 10
117.8958064386
 20
83.0280920879
 30
0.0
 11
117.6431684265
 21
83.5698806138
 31
0.0
  0
LINE
  5
222
330
1B
100
AcDbEntity
 67
     1
  8
SLD-0
  6
Continuous
 62
     7
100
AcDbLine
 10
117.6431684265
 20
83.5698806138
 30
0.0
 11
117.4237674543
 21
84.0403829158
 31
0.0
  0
LINE
  5
223
330
1B
100
AcDbEntity
 67
     1
  8
SLD-0
  6
Continuous
 62
     7
100
AcDbLine
 10
117.4237674543
 20
84.0403829158
 30
0.0
 11
117.2403714129
 21
84.4336823017
 31
0.0
  0
LINE
  5
224
330
1B
100
AcDbEntity
 67
     1
  8
SLD-0
  6
Continuous
 62
     7
100
AcDbLine
 10
117.2403714129
 20
84.4336823017
 30
0.0
 11
117.0952788064
 21
84.744831586
 31
0.0
  0
LINE
  5
225
330
1B
100
AcDbEntity
 67
     1
  8
SLD-0
  6
Continuous
 62
     7
100
AcDbLine
 10
117.0952788064
 20
84.744831586
 30
0.0
 11
116.9903187522
 21
84.9699192138
 31
0.0
  0
LINE
  5
226
330
1B
100
AcDbEntity
 67
     1
  8
SLD-0
  6
Continuous
 62
     7
100
AcDbLine
 10
116.9903187522
 20
84.9699192138
 30
0.0
 11
116.9268100032
 21
85.1061139644
 31
0.0
  0
LINE
  5
227
330
1B
100
AcDbEntity
 67
     1
  8
SLD-0
  6
Continuous
 62
     7
100
AcDbLine
 10
116.9268100032
 20
85.1061139644
 30
0.0
 11
116.9055508104
 21
85.1517034754
 31
0.0
  0
LINE
  5
228
330
1B
100
AcDbEntity
 67
     1
  8
SLD-0
  6
Continuous
 62
     7
100
AcDbLine
 10
157.6278984988
 20
117.063990833
 30
0.0
 11
157.9853027388
 21
117.063990833
 31
0.0
  0
LINE
  5
229
330
1B
100
AcDbEntity
 67
     1
  8
SLD-0
  6
Continuous
 62
     7
100
AcDbLine
 10
157.9853027388
 20
117.063990833
 30
0.0
 11
158.4317060253
 21
117.063990833
 31
0.0
  0
LINE
  5
22A
330
1B
100
AcDbEntity
 67
     1
  8
SLD-0
  6
Continuous
 62
     7
100
AcDbLine
 10
158.4317060253
 20
117.063990833
 30
0.0
 11
158.8783297649
 21
117.063990833
 31
0.0
  0
LINE
  5
22B
330
1B
100
AcDbEntity
 67
     1
  8
SLD-0
  6
Continuous
 62
     7
100
AcDbLine
 10
158.8783297649
 20
117.063990833
 30
0.0
 11
159.3255648032
 21
117.063990833
 31
0.0
  0
LINE
  5
22C
330
1B
100
AcDbEntity
 67
     1
  8
SLD-0
  6
Continuous
 62
     7
100
AcDbLine
 10
159.3255648032
 20
117.063990833
 30
0.0
 11
159.7712050308
 21
117.063990833
 31
0.0
  0
LINE
  5
22D
330
1B
100
AcDbEntity
 67
     1
  8
SLD-0
  6
Continuous
 62
     7
100
AcDbLine
 10
159.7712050308
 20
117.063990833
 30
0.0
 11
160.2177201502
 21
117.063990833
 31
0.0
  0
LINE
  5
22E
330
1B
100
AcDbEntity
 67
     1
  8
SLD-0
  6
Continuous
 62
     7
100
AcDbLine
 10
160.2177201502
 20
117.063990833
 30
0.0
 11
160.6652465476
 21
117.063990833
 31
0.0
  0
LINE
  5
22F
330
1B
100
AcDbEntity
 67
     1
  8
SLD-0
  6
Continuous
 62
     7
100
AcDbLine
 10
160.6652465476
 20
117.063990833
 30
0.0
 11
161.1117989462
 21
117.063990833
 31
0.0
  0
LINE
  5
230
330
1B
100
AcDbEntity
 67
     1
  8
SLD-0
  6
Continuous
 62
     7
100
AcDbLine
 10
161.1117989462
 20
117.063990833
 30
0.0
 11
161.557989124
 21
117.063990833
 31
0.0
  0
LINE
  5
231
330
1B
100
AcDbEntity
 67
     1
  8
SLD-0
  6
Continuous
 62
     7
100
AcDbLine
 10
161.557989124
 20
117.063990833
 30
0.0
 11
162.0043812266
 21
117.063990833
 31
0.0
  0
LINE
  5
232
330
1B
100
AcDbEntity
 67
     1
  8
SLD-0
  6
Continuous
 62
     7
100
AcDbLine
 10
162.0043812266
 20
117.063990833
 30
0.0
 11
162.4508956249
 21
117.063990833
 31
0.0
  0
LINE
  5
233
330
1B
100
AcDbEntity
 67
     1
  8
SLD-0
  6
Continuous
 62
     7
100
AcDbLine
 10
162.4508956249
 20
117.063990833
 30
0.0
 11
162.897476119
 21
117.063990833
 31
0.0
  0
LINE
  5
234
330
1B
100
AcDbEntity
 67
     1
  8
SLD-0
  6
Continuous
 62
     7
100
AcDbLine
 10
162.897476119
 20
117.063990833
 30
0.0
 11
163.3439794826
 21
117.063990833
 31
0.0
  0
LINE
  5
235
330
1B
100
AcDbEntity
 67
     1
  8
SLD-0
  6
Continuous
 62
     7
100
AcDbLine
 10
163.3439794826
 20
117.063990833
 30
0.0
 11
163.7904628341
 21
117.063990833
 31
0.0
  0
LINE
  5
236
330
1B
100
AcDbEntity
 67
     1
  8
SLD-0
  6
Continuous
 62
     7
100
AcDbLine
 10
163.7904628341
 20
117.063990833
 30
0.0
 11
164.2369429053
 21
117.063990833
 31
0.0
  0
LINE
  5
237
330
1B
100
AcDbEntity
 67
     1
  8
SLD-0
  6
Continuous
 62
     7
100
AcDbLine
 10
164.2369429053
 20
117.063990833
 30
0.0
 11
164.6834353717
 21
117.063990833
 31
0.0
  0
LINE
  5
238
330
1B
100
AcDbEntity
 67
     1
  8
SLD-0
  6
Continuous
 62
     7
100
AcDbLine
 10
164.6834353717
 20
117.063990833
 30
0.0
 11
165.1276987264
 21
117.0639909522
 31
0.0
  0
LINE
  5
239
330
1B
100
AcDbEntity
 67
     1
  8
SLD-0
  6
Continuous
 62
     7
100
AcDbLine
 10
121.1928038368
 20
173.5037466152
 30
0.0
 11
120.8810044894
 21
173.4836905835
 31
0.0
  0
LINE
  5
23A
330
1B
100
AcDbEntity
 67
     1
  8
SLD-0
  6
Continuous
 62
     7
100
AcDbLine
 10
120.8810044894
 20
173.4836905835
 30
0.0
 11
120.4370877215
 21
173.3846947191
 31
0.0
  0
LINE
  5
23B
330
1B
100
AcDbEntity
 67
     1
  8
SLD-0
  6
Continuous
 62
     7
100
AcDbLine
 10
120.4370877215
 20
173.3846947191
 30
0.0
 11
120.0124679574
 21
173.2079846425
 31
0.0
  0
LINE
  5
23C
330
1B
100
AcDbEntity
 67
     1
  8
SLD-0
  6
Continuous
 62
     7
100
AcDbLine
 10
120.0124679574
 20
173.2079846425
 30
0.0
 11
119.6048317918
 21
172.9546956359
 31
0.0
  0
LINE
  5
23D
330
1B
100
AcDbEntity
 67
     1
  8
SLD-0
  6
Continuous
 62
     7
100
AcDbLine
 10
119.6048317918
 20
172.9546956359
 30
0.0
 11
119.212104238
 21
172.6217385022
 31
0.0
  0
LINE
  5
23E
330
1B
100
AcDbEntity
 67
     1
  8
SLD-0
  6
Continuous
 62
     7
100
AcDbLine
 10
119.212104238
 20
172.6217385022
 30
0.0
 11
118.8350936839
 21
172.2050731642
 31
0.0
  0
LINE
  5
23F
330
1B
100
AcDbEntity
 67
     1
  8
SLD-0
  6
Continuous
 62
     7
100
AcDbLine
 10
118.8350936839
 20
172.2050731642
 30
0.0
 11
118.4788329968
 21
171.7050530588
 31
0.0
  0
LINE
  5
240
330
1B
100
AcDbEntity
 67
     1
  8
SLD-0
  6
Continuous
 62
     7
100
AcDbLine
 10
118.4788329968
 20
171.7050530588
 30
0.0
 11
118.1504114041
 21
171.1290961704
 31
0.0
  0
LINE
  5
241
330
1B
100
AcDbEntity
 67
     1
  8
SLD-0
  6
Continuous
 62
     7
100
AcDbLine
 10
118.1504114041
 20
171.1290961704
 30
0.0
 11
117.8556366333
 21
170.4893050356
 31
0.0
  0
LINE
  5
242
330
1B
100
AcDbEntity
 67
     1
  8
SLD-0
  6
Continuous
 62
     7
100
AcDbLine
 10
117.8556366333
 20
170.4893050356
 30
0.0
 11
117.5968481669
 21
169.796181248
 31
0.0
  0
LINE
  5
243
330
1B
100
AcDbEntity
 67
     1
  8
SLD-0
  6
Continuous
 62
     7
100
AcDbLine
 10
117.5968481669
 20
169.796181248
 30
0.0
 11
117.374422259
 21
169.0572587414
 31
0.0
  0
LINE
  5
244
330
1B
100
AcDbEntity
 67
     1
  8
SLD-0
  6
Continuous
 62
     7
100
AcDbLine
 10
117.374422259
 20
169.0572587414
 30
0.0
 11
117.1885228226
 21
168.2793019446
 31
0.0
  0
LINE
  5
245
330
1B
100
AcDbEntity
 67
     1
  8
SLD-0
  6
Continuous
 62
     7
100
AcDbLine
 10
117.1885228226
 20
168.2793019446
 30
0.0
 11
117.0394106278
 21
167.4689877419
 31
0.0
  0
LINE
  5
246
330
1B
100
AcDbEntity
 67
     1
  8
SLD-0
  6
Continuous
 62
     7
100
AcDbLine
 10
117.0394106278
 20
167.4689877419
 30
0.0
 11
116.9274209508
 21
166.6332020996
 31
0.0
  0
LINE
  5
247
330
1B
100
AcDbEntity
 67
     1
  8
SLD-0
  6
Continuous
 62
     7
100
AcDbLine
 10
116.9274209508
 20
166.6332020996
 30
0.0
 11
116.8528927931
 21
165.7791137569
 31
0.0
  0
LINE
  5
248
330
1B
100
AcDbEntity
 67
     1
  8
SLD-0
  6
Continuous
 62
     7
100
AcDbLine
 10
116.8528927931
 20
165.7791137569
 30
0.0
 11
116.816086925
 21
164.914138195
 31
0.0
  0
LINE
  5
249
330
1B
100
AcDbEntity
 67
     1
  8
SLD-0
  6
Continuous
 62
     7
100
AcDbLine
 10
116.816086925
 20
164.914138195
 30
0.0
 11
116.8171225557
 21
164.0458540515
 31
0.0
  0
LINE
  5
24A
330
1B
100
AcDbEntity
 67
     1
  8
SLD-0
  6
Continuous
 62
     7
100
AcDbLine
 10
116.8171225557
 20
164.0458540515
 30
0.0
 11
116.8559549818
 21
163.1819056221
 31
0.0
  0
LINE
  5
24B
330
1B
100
AcDbEntity
 67
     1
  8
SLD-0
  6
Continuous
 62
     7
100
AcDbLine
 10
116.8559549818
 20
163.1819056221
 30
0.0
 11
116.9323420593
 21
162.3301404635
 31
0.0
  0
LINE
  5
24C
330
1B
100
AcDbEntity
 67
     1
  8
SLD-0
  6
Continuous
 62
     7
100
AcDbLine
 10
116.9323420593
 20
162.3301404635
 30
0.0
 11
117.0458851823
 21
161.497961135
 31
0.0
  0
LINE
  5
24D
330
1B
100
AcDbEntity
 67
     1
  8
SLD-0
  6
Continuous
 62
     7
100
AcDbLine
 10
117.0458851823
 20
161.497961135
 30
0.0
 11
117.1960888872
 21
160.6924860845
 31
0.0
  0
LINE
  5
24E
330
1B
100
AcDbEntity
 67
     1
  8
SLD-0
  6
Continuous
 62
     7
100
AcDbLine
 10
117.1960888872
 20
160.6924860845
 30
0.0
 11
117.3824651608
 21
159.9204455143
 31
0.0
  0
LINE
  5
24F
330
1B
100
AcDbEntity
 67
     1
  8
SLD-0
  6
Continuous
 62
     7
100
AcDbLine
 10
117.3824651608
 20
159.9204455143
 30
0.0
 11
117.6046638259
 21
159.1881023361
 31
0.0
  0
LINE
  5
250
330
1B
100
AcDbEntity
 67
     1
  8
SLD-0
  6
Continuous
 62
     7
100
AcDbLine
 10
117.6046638259
 20
159.1881023361
 30
0.0
 11
117.8626886079
 21
158.5012319138
 31
0.0
  0
LINE
  5
251
330
1B
100
AcDbEntity
 67
     1
  8
SLD-0
  6
Continuous
 62
     7
100
AcDbLine
 10
117.8626886079
 20
158.5012319138
 30
0.0
 11
118.1571616301
 21
157.8652415065
 31
0.0
  0
LINE
  5
252
330
1B
100
AcDbEntity
 67
     1
  8
SLD-0
  6
Continuous
 62
     7
100
AcDbLine
 10
118.1571616301
 20
157.8652415065
 30
0.0
 11
118.4895916352
 21
157.285590527
 31
0.0
  0
LINE
  5
253
330
1B
100
AcDbEntity
 67
     1
  8
SLD-0
  6
Continuous
 62
     7
100
AcDbLine
 10
118.4895916352
 20
157.285590527
 30
0.0
 11
118.8622659513
 21
156.7688047527
 31
0.0
  0
LINE
  5
254
330
1B
100
AcDbEntity
 67
     1
  8
SLD-0
  6
Continuous
 62
     7
100
AcDbLine
 10
118.8622659513
 20
156.7688047527
 30
0.0
 11
119.2756204376
 21
156.325390899
 31
0.0
  0
LINE
  5
255
330
1B
100
AcDbEntity
 67
     1
  8
SLD-0
  6
Continuous
 62
     7
100
AcDbLine
 10
119.2756204376
 20
156.325390899
 30
0.0
 11
119.6728555927
 21
156.0043742521
 31
0.0
  0
LINE
  5
256
330
1B
100
AcDbEntity
 67
     1
  8
SLD-0
  6
Continuous
 62
     7
100
AcDbLine
 10
119.6728555927
 20
156.0043742521
 30
0.0
 11
120.0830100545
 21
155.7642764984
 31
0.0
  0
LINE
  5
257
330
1B
100
AcDbEntity
 67
     1
  8
SLD-0
  6
Continuous
 62
     7
100
AcDbLine
 10
120.0830100545
 20
155.7642764984
 30
0.0
 11
120.5032563278
 21
155.6026547788
 31
0.0
  0
LINE
  5
258
330
1B
100
AcDbEntity
 67
     1
  8
SLD-0
  6
Continuous
 62
     7
100
AcDbLine
 10
120.5032563278
 20
155.6026547788
 30
0.0
 11
120.9747663209
 21
155.5135439722
 31
0.0
  0
LINE
  5
259
330
1B
100
AcDbEntity
 67
     1
  8
SLD-0
  6
Continuous
 62
     7
100
AcDbLine
 10
120.9747663209
 20
155.5135439722
 30
0.0
 11
121.1928038368
 21
155.50374739
 31
0.0
  0
LINE
  5
25A
330
1B
100
AcDbEntity
 67
     1
  8
SLD-0
  6
Continuous
 62
     7
100
AcDbLine
 10
164.2678006846
 20
173.4793107571
 30
0.0
 11
165.1276987264
 21
173.5037470026
 31
0.0
  0
LINE
  5
25B
330
1B
100
AcDbEntity
 67
     1
  8
SLD-0
  6
Continuous
 62
     7
100
AcDbLine
 10
127.9553940961
 20
173.5037466152
 30
0.0
 11
127.9511044243
 21
173.5037466152
 31
0.0
  0
LINE
  5
25C
330
1B
100
AcDbEntity
 67
     1
  8
SLD-0
  6
Continuous
 62
     7
100
AcDbLine
 10
127.9511044243
 20
173.5037466152
 30
0.0
 11
127.9468147525
 21
173.5037466152
 31
0.0
  0
LINE
  5
25D
330
1B
100
AcDbEntity
 67
     1
  8
SLD-0
  6
Continuous
 62
     7
100
AcDbLine
 10
127.9546974668
 20
173.5037466152
 30
0.0
 11
129.545996196
 21
173.3303939564
 31
0.0
  0
LINE
  5
25E
330
1B
100
AcDbEntity
 67
     1
  8
SLD-0
  6
Continuous
 62
     7
100
AcDbLine
 10
129.545996196
 20
173.3303939564
 30
0.0
 11
131.0762448678
 21
172.8189972801
 31
0.0
  0
LINE
  5
25F
330
1B
100
AcDbEntity
 67
     1
  8
SLD-0
  6
Continuous
 62
     7
100
AcDbLine
 10
131.0762448678
 20
172.8189972801
 30
0.0
 11
132.4862001905
 21
171.9867795347
 31
0.0
  0
LINE
  5
260
330
1B
100
AcDbEntity
 67
     1
  8
SLD-0
  6
Continuous
 62
     7
100
AcDbLine
 10
132.4862001905
 20
171.9867795347
 30
0.0
 11
133.7226128647
 21
170.8678601882
 31
0.0
  0
LINE
  5
261
330
1B
100
AcDbEntity
 67
     1
  8
SLD-0
  6
Continuous
 62
     7
100
AcDbLine
 10
133.7226128647
 20
170.8678601882
 30
0.0
 11
134.7366145322
 21
169.5036733164
 31
0.0
  0
LINE
  5
262
330
1B
100
AcDbEntity
 67
     1
  8
SLD-0
  6
Continuous
 62
     7
100
AcDbLine
 10
134.7366145322
 20
169.5036733164
 30
0.0
 11
135.4908312181
 21
167.9480209587
 31
0.0
  0
LINE
  5
263
330
1B
100
AcDbEntity
 67
     1
  8
SLD-0
  6
Continuous
 62
     7
100
AcDbLine
 10
135.4908312181
 20
167.9480209587
 30
0.0
 11
135.9544957498
 21
166.2595273102
 31
0.0
  0
LINE
  5
264
330
1B
100
AcDbEntity
 67
     1
  8
SLD-0
  6
Continuous
 62
     7
100
AcDbLine
 10
135.9544957498
 20
166.2595273102
 30
0.0
 11
136.1117477039
 21
164.5037470026
 31
0.0
  0
LINE
  5
265
330
1B
100
AcDbEntity
 67
     1
  8
SLD-0
  6
Continuous
 62
     7
100
AcDbLine
 10
136.1117477039
 20
164.5037470026
 30
0.0
 11
135.9544957498
 21
162.747966695
 31
0.0
  0
LINE
  5
266
330
1B
100
AcDbEntity
 67
     1
  8
SLD-0
  6
Continuous
 62
     7
100
AcDbLine
 10
135.9544957498
 20
162.747966695
 30
0.0
 11
135.4908312181
 21
161.0594730465
 31
0.0
  0
LINE
  5
267
330
1B
100
AcDbEntity
 67
     1
  8
SLD-0
  6
Continuous
 62
     7
100
AcDbLine
 10
135.4908312181
 20
161.0594730465
 30
0.0
 11
134.7366145322
 21
159.5038206889
 31
0.0
  0
LINE
  5
268
330
1B
100
AcDbEntity
 67
     1
  8
SLD-0
  6
Continuous
 62
     7
100
AcDbLine
 10
134.7366145322
 20
159.5038206889
 30
0.0
 11
133.7226128647
 21
158.1396338171
 31
0.0
  0
LINE
  5
269
330
1B
100
AcDbEntity
 67
     1
  8
SLD-0
  6
Continuous
 62
     7
100
AcDbLine
 10
133.7226128647
 20
158.1396338171
 30
0.0
 11
132.4862001905
 21
157.0207144706
 31
0.0
  0
LINE
  5
26A
330
1B
100
AcDbEntity
 67
     1
  8
SLD-0
  6
Continuous
 62
     7
100
AcDbLine
 10
132.4862001905
 20
157.0207144706
 30
0.0
 11
131.0762448678
 21
156.1884967251
 31
0.0
  0
LINE
  5
26B
330
1B
100
AcDbEntity
 67
     1
  8
SLD-0
  6
Continuous
 62
     7
100
AcDbLine
 10
131.0762448678
 20
156.1884967251
 30
0.0
 11
129.545996196
 21
155.6771000488
 31
0.0
  0
LINE
  5
26C
330
1B
100
AcDbEntity
 67
     1
  8
SLD-0
  6
Continuous
 62
     7
100
AcDbLine
 10
129.545996196
 20
155.6771000488
 30
0.0
 11
127.9546974668
 21
155.50374739
 31
0.0
  0
LINE
  5
26D
330
1B
100
AcDbEntity
 67
     1
  8
SLD-0
  6
Continuous
 62
     7
100
AcDbLine
 10
127.9468147525
 20
155.50374739
 30
0.0
 11
127.9511044243
 21
155.50374739
 31
0.0
  0
LINE
  5
26E
330
1B
100
AcDbEntity
 67
     1
  8
SLD-0
  6
Continuous
 62
     7
100
AcDbLine
 10
127.9511044243
 20
155.50374739
 30
0.0
 11
127.9553940961
 21
155.50374739
 31
0.0
  0
LINE
  5
26F
330
1B
100
AcDbEntity
 67
     1
  8
SLD-0
  6
Continuous
 62
     7
100
AcDbLine
 10
165.1269160187
 20
173.5037466152
 30
0.0
 11
164.3834855802
 21
173.5037466152
 31
0.0
  0
LINE
  5
270
330
1B
100
AcDbEntity
 67
     1
  8
SLD-0
  6
Continuous
 62
     7
100
AcDbLine
 10
164.3834855802
 20
173.5037466152
 30
0.0
 11
163.6400551418
 21
173.5037466152
 31
0.0
  0
LINE
  5
271
330
1B
100
AcDbEntity
 67
     1
  8
SLD-0
  6
Continuous
 62
     7
100
AcDbLine
 10
163.6400551418
 20
173.5037466152
 30
0.0
 11
162.8966247033
 21
173.5037466152
 31
0.0
  0
LINE
  5
272
330
1B
100
AcDbEntity
 67
     1
  8
SLD-0
  6
Continuous
 62
     7
100
AcDbLine
 10
162.8966247033
 20
173.5037466152
 30
0.0
 11
162.1531942649
 21
173.5037466152
 31
0.0
  0
LINE
  5
273
330
1B
100
AcDbEntity
 67
     1
  8
SLD-0
  6
Continuous
 62
     7
100
AcDbLine
 10
162.1531942649
 20
173.5037466152
 30
0.0
 11
161.4097638264
 21
173.5037466152
 31
0.0
  0
LINE
  5
274
330
1B
100
AcDbEntity
 67
     1
  8
SLD-0
  6
Continuous
 62
     7
100
AcDbLine
 10
161.4097638264
 20
173.5037466152
 30
0.0
 11
160.666333388
 21
173.5037466152
 31
0.0
  0
LINE
  5
275
330
1B
100
AcDbEntity
 67
     1
  8
SLD-0
  6
Continuous
 62
     7
100
AcDbLine
 10
160.666333388
 20
173.5037466152
 30
0.0
 11
159.9229029495
 21
173.5037466152
 31
0.0
  0
LINE
  5
276
330
1B
100
AcDbEntity
 67
     1
  8
SLD-0
  6
Continuous
 62
     7
100
AcDbLine
 10
159.9229029495
 20
173.5037466152
 30
0.0
 11
159.179472511
 21
173.5037466152
 31
0.0
  0
LINE
  5
277
330
1B
100
AcDbEntity
 67
     1
  8
SLD-0
  6
Continuous
 62
     7
100
AcDbLine
 10
159.179472511
 20
173.5037466152
 30
0.0
 11
158.4360420726
 21
173.5037466152
 31
0.0
  0
LINE
  5
278
330
1B
100
AcDbEntity
 67
     1
  8
SLD-0
  6
Continuous
 62
     7
100
AcDbLine
 10
158.4360420726
 20
173.5037466152
 30
0.0
 11
157.6926116341
 21
173.5037466152
 31
0.0
  0
LINE
  5
279
330
1B
100
AcDbEntity
 67
     1
  8
SLD-0
  6
Continuous
 62
     7
100
AcDbLine
 10
157.6926116341
 20
173.5037466152
 30
0.0
 11
156.9491811957
 21
173.5037466152
 31
0.0
  0
LINE
  5
27A
330
1B
100
AcDbEntity
 67
     1
  8
SLD-0
  6
Continuous
 62
     7
100
AcDbLine
 10
156.9491811957
 20
173.5037466152
 30
0.0
 11
156.2057507572
 21
173.5037466152
 31
0.0
  0
LINE
  5
27B
330
1B
100
AcDbEntity
 67
     1
  8
SLD-0
  6
Continuous
 62
     7
100
AcDbLine
 10
156.2057507572
 20
173.5037466152
 30
0.0
 11
155.4623203188
 21
173.5037466152
 31
0.0
  0
LINE
  5
27C
330
1B
100
AcDbEntity
 67
     1
  8
SLD-0
  6
Continuous
 62
     7
100
AcDbLine
 10
155.4623203188
 20
173.5037466152
 30
0.0
 11
154.7188898803
 21
173.5037466152
 31
0.0
  0
LINE
  5
27D
330
1B
100
AcDbEntity
 67
     1
  8
SLD-0
  6
Continuous
 62
     7
100
AcDbLine
 10
154.7188898803
 20
173.5037466152
 30
0.0
 11
153.9754594419
 21
173.5037466152
 31
0.0
  0
LINE
  5
27E
330
1B
100
AcDbEntity
 67
     1
  8
SLD-0
  6
Continuous
 62
     7
100
AcDbLine
 10
153.9754594419
 20
173.5037466152
 30
0.0
 11
153.2320290034
 21
173.5037466152
 31
0.0
  0
LINE
  5
27F
330
1B
100
AcDbEntity
 67
     1
  8
SLD-0
  6
Continuous
 62
     7
100
AcDbLine
 10
153.2320290034
 20
173.5037466152
 30
0.0
 11
152.488598565
 21
173.5037466152
 31
0.0
  0
LINE
  5
280
330
1B
100
AcDbEntity
 67
     1
  8
SLD-0
  6
Continuous
 62
     7
100
AcDbLine
 10
152.488598565
 20
173.5037466152
 30
0.0
 11
151.7451681265
 21
173.5037466152
 31
0.0
  0
LINE
  5
281
330
1B
100
AcDbEntity
 67
     1
  8
SLD-0
  6
Continuous
 62
     7
100
AcDbLine
 10
151.7451681265
 20
173.5037466152
 30
0.0
 11
151.0017376881
 21
173.5037466152
 31
0.0
  0
LINE
  5
282
330
1B
100
AcDbEntity
 67
     1
  8
SLD-0
  6
Continuous
 62
     7
100
AcDbLine
 10
151.0017376881
 20
173.5037466152
 30
0.0
 11
150.2583072496
 21
173.5037466152
 31
0.0
  0
LINE
  5
283
330
1B
100
AcDbEntity
 67
     1
  8
SLD-0
  6
Continuous
 62
     7
100
AcDbLine
 10
150.2583072496
 20
173.5037466152
 30
0.0
 11
149.5148768112
 21
173.5037466152
 31
0.0
  0
LINE
  5
284
330
1B
100
AcDbEntity
 67
     1
  8
SLD-0
  6
Continuous
 62
     7
100
AcDbLine
 10
149.5148768112
 20
173.5037466152
 30
0.0
 11
148.7714463727
 21
173.5037466152
 31
0.0
  0
LINE
  5
285
330
1B
100
AcDbEntity
 67
     1
  8
SLD-0
  6
Continuous
 62
     7
100
AcDbLine
 10
148.7714463727
 20
173.5037466152
 30
0.0
 11
148.0280159343
 21
173.5037466152
 31
0.0
  0
LINE
  5
286
330
1B
100
AcDbEntity
 67
     1
  8
SLD-0
  6
Continuous
 62
     7
100
AcDbLine
 10
148.0280159343
 20
173.5037466152
 30
0.0
 11
147.2845854958
 21
173.5037466152
 31
0.0
  0
LINE
  5
287
330
1B
100
AcDbEntity
 67
     1
  8
SLD-0
  6
Continuous
 62
     7
100
AcDbLine
 10
147.2845854958
 20
173.5037466152
 30
0.0
 11
146.5411550574
 21
173.5037466152
 31
0.0
  0
LINE
  5
288
330
1B
100
AcDbEntity
 67
     1
  8
SLD-0
  6
Continuous
 62
     7
100
AcDbLine
 10
146.5411550574
 20
173.5037466152
 30
0.0
 11
145.7977246189
 21
173.5037466152
 31
0.0
  0
LINE
  5
289
330
1B
100
AcDbEntity
 67
     1
  8
SLD-0
  6
Continuous
 62
     7
100
AcDbLine
 10
145.7977246189
 20
173.5037466152
 30
0.0
 11
145.0542941805
 21
173.5037466152
 31
0.0
  0
LINE
  5
28A
330
1B
100
AcDbEntity
 67
     1
  8
SLD-0
  6
Continuous
 62
     7
100
AcDbLine
 10
145.0542941805
 20
173.5037466152
 30
0.0
 11
144.310863742
 21
173.5037466152
 31
0.0
  0
LINE
  5
28B
330
1B
100
AcDbEntity
 67
     1
  8
SLD-0
  6
Continuous
 62
     7
100
AcDbLine
 10
144.310863742
 20
173.5037466152
 30
0.0
 11
143.5674333036
 21
173.5037466152
 31
0.0
  0
LINE
  5
28C
330
1B
100
AcDbEntity
 67
     1
  8
SLD-0
  6
Continuous
 62
     7
100
AcDbLine
 10
143.5674333036
 20
173.5037466152
 30
0.0
 11
142.8240028651
 21
173.5037466152
 31
0.0
  0
LINE
  5
28D
330
1B
100
AcDbEntity
 67
     1
  8
SLD-0
  6
Continuous
 62
     7
100
AcDbLine
 10
142.8240028651
 20
173.5037466152
 30
0.0
 11
142.0805724267
 21
173.5037466152
 31
0.0
  0
LINE
  5
28E
330
1B
100
AcDbEntity
 67
     1
  8
SLD-0
  6
Continuous
 62
     7
100
AcDbLine
 10
142.0805724267
 20
173.5037466152
 30
0.0
 11
141.3371419882
 21
173.5037466152
 31
0.0
  0
LINE
  5
28F
330
1B
100
AcDbEntity
 67
     1
  8
SLD-0
  6
Continuous
 62
     7
100
AcDbLine
 10
141.3371419882
 20
173.5037466152
 30
0.0
 11
140.5937115498
 21
173.5037466152
 31
0.0
  0
LINE
  5
290
330
1B
100
AcDbEntity
 67
     1
  8
SLD-0
  6
Continuous
 62
     7
100
AcDbLine
 10
140.5937115498
 20
173.5037466152
 30
0.0
 11
139.8502811113
 21
173.5037466152
 31
0.0
  0
LINE
  5
291
330
1B
100
AcDbEntity
 67
     1
  8
SLD-0
  6
Continuous
 62
     7
100
AcDbLine
 10
139.8502811113
 20
173.5037466152
 30
0.0
 11
139.1068506729
 21
173.5037466152
 31
0.0
  0
LINE
  5
292
330
1B
100
AcDbEntity
 67
     1
  8
SLD-0
  6
Continuous
 62
     7
100
AcDbLine
 10
139.1068506729
 20
173.5037466152
 30
0.0
 11
138.3634202344
 21
173.5037466152
 31
0.0
  0
LINE
  5
293
330
1B
100
AcDbEntity
 67
     1
  8
SLD-0
  6
Continuous
 62
     7
100
AcDbLine
 10
138.3634202344
 20
173.5037466152
 30
0.0
 11
137.619989796
 21
173.5037466152
 31
0.0
  0
LINE
  5
294
330
1B
100
AcDbEntity
 67
     1
  8
SLD-0
  6
Continuous
 62
     7
100
AcDbLine
 10
137.619989796
 20
173.5037466152
 30
0.0
 11
136.8765593575
 21
173.5037466152
 31
0.0
  0
LINE
  5
295
330
1B
100
AcDbEntity
 67
     1
  8
SLD-0
  6
Continuous
 62
     7
100
AcDbLine
 10
136.8765593575
 20
173.5037466152
 30
0.0
 11
136.1331289191
 21
173.5037466152
 31
0.0
  0
LINE
  5
296
330
1B
100
AcDbEntity
 67
     1
  8
SLD-0
  6
Continuous
 62
     7
100
AcDbLine
 10
136.1331289191
 20
173.5037466152
 30
0.0
 11
135.3896984806
 21
173.5037466152
 31
0.0
  0
LINE
  5
297
330
1B
100
AcDbEntity
 67
     1
  8
SLD-0
  6
Continuous
 62
     7
100
AcDbLine
 10
135.3896984806
 20
173.5037466152
 30
0.0
 11
134.6462680422
 21
173.5037466152
 31
0.0
  0
LINE
  5
298
330
1B
100
AcDbEntity
 67
     1
  8
SLD-0
  6
Continuous
 62
     7
100
AcDbLine
 10
134.6462680422
 20
173.5037466152
 30
0.0
 11
133.9028376037
 21
173.5037466152
 31
0.0
  0
LINE
  5
299
330
1B
100
AcDbEntity
 67
     1
  8
SLD-0
  6
Continuous
 62
     7
100
AcDbLine
 10
133.9028376037
 20
173.5037466152
 30
0.0
 11
133.1594071652
 21
173.5037466152
 31
0.0
  0
LINE
  5
29A
330
1B
100
AcDbEntity
 67
     1
  8
SLD-0
  6
Continuous
 62
     7
100
AcDbLine
 10
133.1594071652
 20
173.5037466152
 30
0.0
 11
132.4159767268
 21
173.5037466152
 31
0.0
  0
LINE
  5
29B
330
1B
100
AcDbEntity
 67
     1
  8
SLD-0
  6
Continuous
 62
     7
100
AcDbLine
 10
132.4159767268
 20
173.5037466152
 30
0.0
 11
131.6725462883
 21
173.5037466152
 31
0.0
  0
LINE
  5
29C
330
1B
100
AcDbEntity
 67
     1
  8
SLD-0
  6
Continuous
 62
     7
100
AcDbLine
 10
131.6725462883
 20
173.5037466152
 30
0.0
 11
130.9291158499
 21
173.5037466152
 31
0.0
  0
LINE
  5
29D
330
1B
100
AcDbEntity
 67
     1
  8
SLD-0
  6
Continuous
 62
     7
100
AcDbLine
 10
130.9291158499
 20
173.5037466152
 30
0.0
 11
130.1856854114
 21
173.5037466152
 31
0.0
  0
LINE
  5
29E
330
1B
100
AcDbEntity
 67
     1
  8
SLD-0
  6
Continuous
 62
     7
100
AcDbLine
 10
130.1856854114
 20
173.5037466152
 30
0.0
 11
129.442254973
 21
173.5037466152
 31
0.0
  0
LINE
  5
29F
330
1B
100
AcDbEntity
 67
     1
  8
SLD-0
  6
Continuous
 62
     7
100
AcDbLine
 10
129.442254973
 20
173.5037466152
 30
0.0
 11
128.6988245345
 21
173.5037466152
 31
0.0
  0
LINE
  5
2A0
330
1B
100
AcDbEntity
 67
     1
  8
SLD-0
  6
Continuous
 62
     7
100
AcDbLine
 10
128.6988245345
 20
173.5037466152
 30
0.0
 11
127.9553940961
 21
173.5037466152
 31
0.0
  0
LINE
  5
2A1
330
1B
100
AcDbEntity
 67
     1
  8
SLD-0
  6
Continuous
 62
     7
100
AcDbLine
 10
127.9553940961
 20
155.50374739
 30
0.0
 11
128.9085100428
 21
155.50374739
 31
0.0
  0
LINE
  5
2A2
330
1B
100
AcDbEntity
 67
     1
  8
SLD-0
  6
Continuous
 62
     7
100
AcDbLine
 10
128.9085100428
 20
155.50374739
 30
0.0
 11
129.8616259896
 21
155.50374739
 31
0.0
  0
LINE
  5
2A3
330
1B
100
AcDbEntity
 67
     1
  8
SLD-0
  6
Continuous
 62
     7
100
AcDbLine
 10
129.8616259896
 20
155.50374739
 30
0.0
 11
130.8147419363
 21
155.50374739
 31
0.0
  0
LINE
  5
2A4
330
1B
100
AcDbEntity
 67
     1
  8
SLD-0
  6
Continuous
 62
     7
100
AcDbLine
 10
130.8147419363
 20
155.50374739
 30
0.0
 11
131.767857883
 21
155.50374739
 31
0.0
  0
LINE
  5
2A5
330
1B
100
AcDbEntity
 67
     1
  8
SLD-0
  6
Continuous
 62
     7
100
AcDbLine
 10
131.767857883
 20
155.50374739
 30
0.0
 11
132.7209738298
 21
155.50374739
 31
0.0
  0
LINE
  5
2A6
330
1B
100
AcDbEntity
 67
     1
  8
SLD-0
  6
Continuous
 62
     7
100
AcDbLine
 10
132.7209738298
 20
155.50374739
 30
0.0
 11
133.6740897765
 21
155.50374739
 31
0.0
  0
LINE
  5
2A7
330
1B
100
AcDbEntity
 67
     1
  8
SLD-0
  6
Continuous
 62
     7
100
AcDbLine
 10
133.6740897765
 20
155.50374739
 30
0.0
 11
134.6272057232
 21
155.50374739
 31
0.0
  0
LINE
  5
2A8
330
1B
100
AcDbEntity
 67
     1
  8
SLD-0
  6
Continuous
 62
     7
100
AcDbLine
 10
134.6272057232
 20
155.50374739
 30
0.0
 11
135.5803216699
 21
155.50374739
 31
0.0
  0
LINE
  5
2A9
330
1B
100
AcDbEntity
 67
     1
  8
SLD-0
  6
Continuous
 62
     7
100
AcDbLine
 10
135.5803216699
 20
155.50374739
 30
0.0
 11
136.5334376167
 21
155.50374739
 31
0.0
  0
LINE
  5
2AA
330
1B
100
AcDbEntity
 67
     1
  8
SLD-0
  6
Continuous
 62
     7
100
AcDbLine
 10
136.5334376167
 20
155.50374739
 30
0.0
 11
137.4865535634
 21
155.50374739
 31
0.0
  0
LINE
  5
2AB
330
1B
100
AcDbEntity
 67
     1
  8
SLD-0
  6
Continuous
 62
     7
100
AcDbLine
 10
137.4865535634
 20
155.50374739
 30
0.0
 11
138.4396695101
 21
155.50374739
 31
0.0
  0
LINE
  5
2AC
330
1B
100
AcDbEntity
 67
     1
  8
SLD-0
  6
Continuous
 62
     7
100
AcDbLine
 10
138.4396695101
 20
155.50374739
 30
0.0
 11
139.3927854569
 21
155.50374739
 31
0.0
  0
LINE
  5
2AD
330
1B
100
AcDbEntity
 67
     1
  8
SLD-0
  6
Continuous
 62
     7
100
AcDbLine
 10
139.3927854569
 20
155.50374739
 30
0.0
 11
140.3459014036
 21
155.50374739
 31
0.0
  0
LINE
  5
2AE
330
1B
100
AcDbEntity
 67
     1
  8
SLD-0
  6
Continuous
 62
     7
100
AcDbLine
 10
140.3459014036
 20
155.50374739
 30
0.0
 11
141.2990173503
 21
155.50374739
 31
0.0
  0
LINE
  5
2AF
330
1B
100
AcDbEntity
 67
     1
  8
SLD-0
  6
Continuous
 62
     7
100
AcDbLine
 10
141.2990173503
 20
155.50374739
 30
0.0
 11
142.2521332971
 21
155.50374739
 31
0.0
  0
LINE
  5
2B0
330
1B
100
AcDbEntity
 67
     1
  8
SLD-0
  6
Continuous
 62
     7
100
AcDbLine
 10
142.2521332971
 20
155.50374739
 30
0.0
 11
143.2052492438
 21
155.50374739
 31
0.0
  0
LINE
  5
2B1
330
1B
100
AcDbEntity
 67
     1
  8
SLD-0
  6
Continuous
 62
     7
100
AcDbLine
 10
143.2052492438
 20
155.50374739
 30
0.0
 11
144.1583651905
 21
155.50374739
 31
0.0
  0
LINE
  5
2B2
330
1B
100
AcDbEntity
 67
     1
  8
SLD-0
  6
Continuous
 62
     7
100
AcDbLine
 10
144.1583651905
 20
155.50374739
 30
0.0
 11
145.1114811373
 21
155.50374739
 31
0.0
  0
LINE
  5
2B3
330
1B
100
AcDbEntity
 67
     1
  8
SLD-0
  6
Continuous
 62
     7
100
AcDbLine
 10
145.1114811373
 20
155.50374739
 30
0.0
 11
146.064597084
 21
155.50374739
 31
0.0
  0
LINE
  5
2B4
330
1B
100
AcDbEntity
 67
     1
  8
SLD-0
  6
Continuous
 62
     7
100
AcDbLine
 10
146.064597084
 20
155.50374739
 30
0.0
 11
147.0177130307
 21
155.50374739
 31
0.0
  0
LINE
  5
2B5
330
1B
100
AcDbEntity
 67
     1
  8
SLD-0
  6
Continuous
 62
     7
100
AcDbLine
 10
147.0177130307
 20
155.50374739
 30
0.0
 11
147.9708289775
 21
155.50374739
 31
0.0
  0
LINE
  5
2B6
330
1B
100
AcDbEntity
 67
     1
  8
SLD-0
  6
Continuous
 62
     7
100
AcDbLine
 10
147.9708289775
 20
155.50374739
 30
0.0
 11
148.9239449242
 21
155.50374739
 31
0.0
  0
LINE
  5
2B7
330
1B
100
AcDbEntity
 67
     1
  8
SLD-0
  6
Continuous
 62
     7
100
AcDbLine
 10
148.9239449242
 20
155.50374739
 30
0.0
 11
149.8770608709
 21
155.50374739
 31
0.0
  0
LINE
  5
2B8
330
1B
100
AcDbEntity
 67
     1
  8
SLD-0
  6
Continuous
 62
     7
100
AcDbLine
 10
149.8770608709
 20
155.50374739
 30
0.0
 11
150.8301768177
 21
155.50374739
 31
0.0
  0
LINE
  5
2B9
330
1B
100
AcDbEntity
 67
     1
  8
SLD-0
  6
Continuous
 62
     7
100
AcDbLine
 10
150.8301768177
 20
155.50374739
 30
0.0
 11
151.7832927644
 21
155.50374739
 31
0.0
  0
LINE
  5
2BA
330
1B
100
AcDbEntity
 67
     1
  8
SLD-0
  6
Continuous
 62
     7
100
AcDbLine
 10
151.7832927644
 20
155.50374739
 30
0.0
 11
152.7364087111
 21
155.50374739
 31
0.0
  0
LINE
  5
2BB
330
1B
100
AcDbEntity
 67
     1
  8
SLD-0
  6
Continuous
 62
     7
100
AcDbLine
 10
152.7364087111
 20
155.50374739
 30
0.0
 11
153.6895246579
 21
155.50374739
 31
0.0
  0
LINE
  5
2BC
330
1B
100
AcDbEntity
 67
     1
  8
SLD-0
  6
Continuous
 62
     7
100
AcDbLine
 10
153.6895246579
 20
155.50374739
 30
0.0
 11
154.6426406046
 21
155.50374739
 31
0.0
  0
LINE
  5
2BD
330
1B
100
AcDbEntity
 67
     1
  8
SLD-0
  6
Continuous
 62
     7
100
AcDbLine
 10
154.6426406046
 20
155.50374739
 30
0.0
 11
155.5957565513
 21
155.50374739
 31
0.0
  0
LINE
  5
2BE
330
1B
100
AcDbEntity
 67
     1
  8
SLD-0
  6
Continuous
 62
     7
100
AcDbLine
 10
155.5957565513
 20
155.50374739
 30
0.0
 11
156.5488724981
 21
155.50374739
 31
0.0
  0
LINE
  5
2BF
330
1B
100
AcDbEntity
 67
     1
  8
SLD-0
  6
Continuous
 62
     7
100
AcDbLine
 10
156.5488724981
 20
155.50374739
 30
0.0
 11
157.5019884448
 21
155.50374739
 31
0.0
  0
LINE
  5
2C0
330
1B
100
AcDbEntity
 67
     1
  8
SLD-0
  6
Continuous
 62
     7
100
AcDbLine
 10
157.5019884448
 20
155.50374739
 30
0.0
 11
158.4551043915
 21
155.50374739
 31
0.0
  0
LINE
  5
2C1
330
1B
100
AcDbEntity
 67
     1
  8
SLD-0
  6
Continuous
 62
     7
100
AcDbLine
 10
158.4551043915
 20
155.50374739
 30
0.0
 11
159.4082203383
 21
155.50374739
 31
0.0
  0
LINE
  5
2C2
330
1B
100
AcDbEntity
 67
     1
  8
SLD-0
  6
Continuous
 62
     7
100
AcDbLine
 10
159.4082203383
 20
155.50374739
 30
0.0
 11
160.361336285
 21
155.50374739
 31
0.0
  0
LINE
  5
2C3
330
1B
100
AcDbEntity
 67
     1
  8
SLD-0
  6
Continuous
 62
     7
100
AcDbLine
 10
160.361336285
 20
155.50374739
 30
0.0
 11
161.3144522317
 21
155.50374739
 31
0.0
  0
LINE
  5
2C4
330
1B
100
AcDbEntity
 67
     1
  8
SLD-0
  6
Continuous
 62
     7
100
AcDbLine
 10
161.3144522317
 20
155.50374739
 30
0.0
 11
162.2675681785
 21
155.50374739
 31
0.0
  0
LINE
  5
2C5
330
1B
100
AcDbEntity
 67
     1
  8
SLD-0
  6
Continuous
 62
     7
100
AcDbLine
 10
162.2675681785
 20
155.50374739
 30
0.0
 11
163.2206841252
 21
155.50374739
 31
0.0
  0
LINE
  5
2C6
330
1B
100
AcDbEntity
 67
     1
  8
SLD-0
  6
Continuous
 62
     7
100
AcDbLine
 10
163.2206841252
 20
155.50374739
 30
0.0
 11
164.1738000719
 21
155.50374739
 31
0.0
  0
LINE
  5
2C7
330
1B
100
AcDbEntity
 67
     1
  8
SLD-0
  6
Continuous
 62
     7
100
AcDbLine
 10
164.1738000719
 20
155.50374739
 30
0.0
 11
165.1269160187
 21
155.50374739
 31
0.0
  0
ARC
  5
2C8
330
1B
100
AcDbEntity
 67
     1
  8
SLD-0
  6
Continuous
 62
     7
100
AcDbCircle
 10
243.7580965725
 20
53.9920084497
 30
0.0
 40
0.9999885518471086
100
AcDbArc
 50
270.1493279807
 51
0.9354741623
  0
ARC
  5
2C9
330
1B
100
AcDbEntity
 67
     1
  8
SLD-0
  6
Continuous
 62
     7
100
AcDbCircle
 10
227.7580882457
 20
53.9916157258
 30
0.0
 40
1.000002763059871
100
AcDbArc
 50
179.8804826528
 51
270.0600599004
  0
ARC
  5
2CA
330
1B
100
AcDbEntity
 67
     1
  8
SLD-0
  6
Continuous
 62
     7
100
AcDbCircle
 10
237.7580854147
 20
113.9916048099
 30
0.0
 40
0.4999999935000119
100
AcDbArc
 50
179.9999914629
 51
270.0
  0
ARC
  5
2CB
330
1B
100
AcDbEntity
 67
     1
  8
SLD-0
  6
Continuous
 62
     7
100
AcDbCircle
 10
233.7580854017
 20
113.9916048099
 30
0.0
 40
0.4999999935000174
100
AcDbArc
 50
270.0
 51
0.0000085371
  0
CIRCLE
  5
2CC
330
1B
100
AcDbEntity
 67
     1
  8
SLD-0
  6
Continuous
 62
     7
100
AcDbCircle
 10
235.7580854082
 20
106.4916048099
 30
0.0
 40
2.0
  0
CIRCLE
  5
2CD
330
1B
100
AcDbEntity
 67
     1
  8
SLD-0
  6
Continuous
 62
     7
100
AcDbCircle
 10
235.7580854082
 20
86.4916048099
 30
0.0
 40
2.0
  0
ARC
  5
2CE
330
1B
100
AcDbEntity
 67
     1
  8
SLD-0
  6
Continuous
 62
     7
100
AcDbCircle
 10
234.9901361308
 20
112.4916054321
 30
0.0
 40
1.999999612549999
100
AcDbArc
 50
90.0000005586
 51
131.4096221093
  0
ARC
  5
2CF
330
1B
100
AcDbEntity
 67
     1
  8
SLD-0
  6
Continuous
 62
     7
100
AcDbCircle
 10
232.3443853816
 20
115.491604795
 30
0.0
 40
1.999999538061715
100
AcDbArc
 50
270.0000001404
 51
311.40962211
  0
ARC
  5
2D0
330
1B
100
AcDbEntity
 67
     1
  8
SLD-0
  6
Continuous
 62
     7
100
AcDbCircle
 10
232.258085885
 20
111.4916048099
 30
0.0
 40
2.000000447050016
100
AcDbArc
 50
90.000003094
 51
180.0000096056
  0
ARC
  5
2D1
330
1B
100
AcDbEntity
 67
     1
  8
SLD-0
  6
Continuous
 62
     7
100
AcDbCircle
 10
232.2580854455
 20
75.4916048099
 30
0.0
 40
2.000000007451652
100
AcDbArc
 50
179.9999918898
 51
269.9998968533
  0
ARC
  5
2D2
330
1B
100
AcDbEntity
 67
     1
  8
SLD-0
  6
Continuous
 62
     7
100
AcDbCircle
 10
239.2580854455
 20
75.4916048099
 30
0.0
 40
2.000000007450004
100
AcDbArc
 50
270.000003094
 51
0.0000081102
  0
ARC
  5
2D3
330
1B
100
AcDbEntity
 67
     1
  8
SLD-0
  6
Continuous
 62
     7
100
AcDbCircle
 10
239.2580850059
 20
111.4916048099
 30
0.0
 40
2.000000447050017
100
AcDbArc
 50
359.9999903944
 51
90.0000039095
  0
ARC
  5
2D4
330
1B
100
AcDbEntity
 67
     1
  8
SLD-0
  6
Continuous
 62
     7
100
AcDbCircle
 10
239.1717852649
 20
115.491604795
 30
0.0
 40
1.999999538049991
100
AcDbArc
 50
228.5903778907
 51
269.9999998625
  0
ARC
  5
2D5
330
1B
100
AcDbEntity
 67
     1
  8
SLD-0
  6
Continuous
 62
     7
100
AcDbCircle
 10
236.5260345156
 20
112.4916054321
 30
0.0
 40
1.999999612561709
100
AcDbArc
 50
48.59037789
 51
89.9999994414
  0
ARC
  5
2D6
330
1B
100
AcDbEntity
 67
     1
  8
SLD-0
  6
Continuous
 62
     7
100
AcDbCircle
 10
239.2580845383
 20
60.9916048099
 30
0.0
 40
0.4999993201506899
100
AcDbArc
 50
270.0000123759
 51
359.9998668103
  0
ARC
  5
2D7
330
1B
100
AcDbEntity
 67
     1
  8
SLD-0
  6
Continuous
 62
     7
100
AcDbCircle
 10
232.2580845383
 20
60.9916048099
 30
0.0
 40
0.4999993201507076
100
AcDbArc
 50
180.0001331897
 51
269.9999876241
  0
ARC
  5
2D8
330
1B
100
AcDbEntity
 67
     1
  8
SLD-0
  6
Continuous
 62
     7
100
AcDbCircle
 10
228.2580855423
 20
116.9916048099
 30
0.0
 40
1.499999746700051
100
AcDbArc
 50
89.9999935982
 51
179.9999783727
  0
ARC
  5
2D9
330
1B
100
AcDbEntity
 67
     1
  8
SLD-0
  6
Continuous
 62
     7
100
AcDbCircle
 10
239.0080859056
 20
111.4916048099
 30
0.0
 40
2.000000426500037
100
AcDbArc
 50
359.9999903944
 51
89.9999980806
  0
ARC
  5
2DA
330
1B
100
AcDbEntity
 67
     1
  8
SLD-0
  6
Continuous
 62
     7
100
AcDbCircle
 10
239.0080859056
 20
111.4916048099
 30
0.0
 40
1.699999772000017
100
AcDbArc
 50
359.9999886993
 51
89.9999977419
  0
ARC
  5
2DB
330
1B
100
AcDbEntity
 67
     1
  8
SLD-0
  6
Continuous
 62
     7
100
AcDbCircle
 10
239.0080859055
 20
81.4916048099
 30
0.0
 40
2.000000426550046
100
AcDbArc
 50
270.0000019223
 51
0.0000096056
  0
ARC
  5
2DC
330
1B
100
AcDbEntity
 67
     1
  8
SLD-0
  6
Continuous
 62
     7
100
AcDbCircle
 10
239.0080859055
 20
81.4916048099
 30
0.0
 40
1.699999772050022
100
AcDbArc
 50
270.0000022615
 51
0.0000113007
  0
CIRCLE
  5
2DD
330
1B
100
AcDbEntity
 67
     1
  8
SLD-0
  6
Continuous
 62
     7
100
AcDbCircle
 10
235.7580854082
 20
86.4916048099
 30
0.0
 40
2.25
  0
CIRCLE
  5
2DE
330
1B
100
AcDbEntity
 67
     1
  8
SLD-0
  6
Continuous
 62
     7
100
AcDbCircle
 10
235.7580854082
 20
106.4916048099
 30
0.0
 40
2.25
  0
ARC
  5
2DF
330
1B
100
AcDbEntity
 67
     1
  8
SLD-0
  6
Continuous
 62
     7
100
AcDbCircle
 10
236.7147898905
 20
94.8707883971
 30
0.0
 40
0.7609994033274744
100
AcDbArc
 50
245.4704370132
 51
290.9829576053
  0
ARC
  5
2E0
330
1B
100
AcDbEntity
 67
     1
  8
SLD-0
  6
Continuous
 62
     7
100
AcDbCircle
 10
236.5404573056
 20
94.4887729202
 30
0.0
 40
0.3410855136215745
100
AcDbArc
 50
192.8395819764
 51
245.4704370239
  0
ARC
  5
2E1
330
1B
100
AcDbEntity
 67
     1
  8
SLD-0
  6
Continuous
 62
     7
100
AcDbCircle
 10
236.5404573056
 20
94.4887729202
 30
0.0
 40
0.4926791392994719
100
AcDbArc
 50
188.8498775455
 51
245.4704370132
  0
ARC
  5
2E2
330
1B
100
AcDbEntity
 67
     1
  8
SLD-0
  6
Continuous
 62
     7
100
AcDbCircle
 10
236.7147898905
 20
94.8707883971
 30
0.0
 40
0.912593029005374
100
AcDbArc
 50
245.4704370092
 51
290.9829576053
  0
ARC
  5
2E3
330
1B
100
AcDbEntity
 67
     1
  8
SLD-0
  6
Continuous
 62
     7
100
AcDbCircle
 10
236.919441233
 20
94.3371793981
 30
0.0
 40
0.341085604903125
100
AcDbArc
 50
290.9829378952
 51
69.5419671202
  0
ARC
  5
2E4
330
1B
100
AcDbEntity
 67
     1
  8
SLD-0
  6
Continuous
 62
     7
100
AcDbCircle
 10
236.3888638293
 20
95.0193506381
 30
0.0
 40
0.1136951956077808
100
AcDbArc
 50
109.6554568868
 51
249.6263182525
  0
ARC
  5
2E5
330
1B
100
AcDbEntity
 67
     1
  8
SLD-0
  6
Continuous
 62
     7
100
AcDbCircle
 10
236.6076409071
 20
94.4068299312
 30
0.0
 40
0.7641143113886073
100
AcDbArc
 50
68.3398365874
 51
109.655456888
  0
ARC
  5
2E6
330
1B
100
AcDbEntity
 67
     1
  8
SLD-0
  6
Continuous
 62
     7
100
AcDbCircle
 10
236.8057460218
 20
94.9056553682
 30
0.0
 40
0.2273904969067868
100
AcDbArc
 50
9.5940401085
 51
68.33983658
  0
ARC
  5
2E7
330
1B
100
AcDbEntity
 67
     1
  8
SLD-0
  6
Continuous
 62
     7
100
AcDbCircle
 10
236.8057460218
 20
94.9056553682
 30
0.0
 40
0.3789840161210144
100
AcDbArc
 50
5.7391559675
 51
68.3398365874
  0
ARC
  5
2E8
330
1B
100
AcDbEntity
 67
     1
  8
SLD-0
  6
Continuous
 62
     7
100
AcDbCircle
 10
236.6076409071
 20
94.4068299312
 30
0.0
 40
0.9157078306028307
100
AcDbArc
 50
68.3398365892
 51
109.6554568869
  0
ARC
  5
2E9
330
1B
100
AcDbEntity
 67
     1
  8
SLD-0
  6
Continuous
 62
     7
100
AcDbCircle
 10
236.3888638293
 20
95.0193506381
 30
0.0
 40
0.2652887148219798
100
AcDbArc
 50
109.6554568836
 51
246.9801779813
  0
ARC
  5
2EA
330
1B
100
AcDbEntity
 67
     1
  8
SLD-0
  6
Continuous
 62
     7
100
AcDbCircle
 10
236.919441233
 20
94.3371793981
 30
0.0
 40
0.1894919792252357
100
AcDbArc
 50
290.982922127
 51
67.0060937684
  0
ARC
  5
2EB
330
1B
100
AcDbEntity
 67
     1
  8
SLD-0
  6
Continuous
 62
     7
100
AcDbCircle
 10
232.5080859055
 20
111.4916048099
 30
0.0
 40
1.699999772000017
100
AcDbArc
 50
90.0000022581
 51
180.0000113008
  0
ARC
  5
2EC
330
1B
100
AcDbEntity
 67
     1
  8
SLD-0
  6
Continuous
 62
     7
100
AcDbCircle
 10
232.5080859055
 20
81.4916048099
 30
0.0
 40
1.699999772050022
100
AcDbArc
 50
179.9999886993
 51
269.9999977419
  0
ARC
  5
2ED
330
1B
100
AcDbEntity
 67
     1
  8
SLD-0
  6
Continuous
 62
     7
100
AcDbCircle
 10
232.5080859055
 20
111.4916048099
 30
0.0
 40
2.000000426500037
100
AcDbArc
 50
90.0000019194
 51
180.0000096056
  0
ARC
  5
2EE
330
1B
100
AcDbEntity
 67
     1
  8
SLD-0
  6
Continuous
 62
     7
100
AcDbCircle
 10
232.5080859055
 20
81.4916048099
 30
0.0
 40
2.000000426550046
100
AcDbArc
 50
179.9999903944
 51
269.9999980806
  0
ARC
  5
2EF
330
1B
100
AcDbEntity
 67
     1
  8
SLD-0
  6
Continuous
 62
     7
100
AcDbCircle
 10
60.3286750499
 20
78.3238594408
 30
0.0
 40
8.999999612550035
100
AcDbArc
 50
359.9999961045
 51
180.0000038955
  0
ARC
  5
2F0
330
1B
100
AcDbEntity
 67
     1
  8
SLD-0
  6
Continuous
 62
     7
100
AcDbCircle
 10
52.3286688659
 20
52.5643980723
 30
0.0
 40
0.999993474587848
100
AcDbArc
 50
179.0647298789
 51
270.1782390831
  0
ARC
  5
2F1
330
1B
100
AcDbEntity
 67
     1
  8
SLD-0
  6
Continuous
 62
     7
100
AcDbCircle
 10
68.328669592
 20
52.5640044746
 30
0.0
 40
1.000005378086411
100
AcDbArc
 50
270.060525217
 51
0.1193676949
  0
ARC
  5
2F2
330
1B
100
AcDbEntity
 67
     1
  8
SLD-0
  6
Continuous
 62
     7
100
AcDbCircle
 10
67.8286750499
 20
115.5639911459
 30
0.0
 40
1.499999806300061
100
AcDbArc
 50
0.0000216273
 51
90.0
  0
ARC
  5
2F3
330
1B
100
AcDbEntity
 67
     1
  8
SLD-0
  6
Continuous
 62
     7
100
AcDbCircle
 10
121.1928046913
 20
78.3238594408
 30
0.0
 40
9.000000000000016
100
AcDbArc
 50
24.9967364858
 51
115.0
  0
ARC
  5
2F4
330
1B
100
AcDbEntity
 67
     1
  8
SLD-0
  6
Continuous
 62
     7
100
AcDbCircle
 10
117.8118585974
 20
85.5743217371
 30
0.0
 40
1.000000000004666
100
AcDbArc
 50
115.0000000015
 51
205.0
  0
ARC
  5
2F5
330
1B
100
AcDbEntity
 67
     1
  8
SLD-0
  6
Continuous
 62
     7
100
AcDbCircle
 10
145.627674776
 20
72.064098526
 30
0.0
 40
10.49971404403192
100
AcDbArc
 50
205.0005878511
 51
359.9994127377
  0
ARC
  5
2F6
330
1B
100
AcDbEntity
 67
     1
  8
SLD-0
  6
Continuous
 62
     7
100
AcDbCircle
 10
157.6273911654
 20
115.5639912314
 30
0.0
 40
1.499999601594596
100
AcDbArc
 50
89.9998311992
 51
179.9852614363
  0
ARC
  5
2F7
330
1B
100
AcDbEntity
 67
     1
  8
SLD-0
  6
Continuous
 62
     7
100
AcDbCircle
 10
165.1276987264
 20
116.0639909522
 30
0.0
 40
1.000000000000014
100
AcDbArc
 50
359.9999837796
 51
90.0
  0
ARC
  5
2F8
330
1B
100
AcDbEntity
 67
     1
  8
SLD-0
  6
Continuous
 62
     7
100
AcDbCircle
 10
161.713233412
 20
58.5639917271
 30
0.0
 40
0.5000007748500065
100
AcDbArc
 50
89.9999958747
 51
139.9990596452
  0
ARC
  5
2F9
330
1B
100
AcDbEntity
 67
     1
  8
SLD-0
  6
Continuous
 62
     7
100
AcDbCircle
 10
165.6276987264
 20
59.5639917271
 30
0.0
 40
0.4999992251506891
100
AcDbArc
 50
269.9999972727
 51
359.9998668102
  0
ARC
  5
2FA
330
1B
100
AcDbEntity
 67
     1
  8
SLD-0
  6
Continuous
 62
     7
100
AcDbCircle
 10
165.1276987264
 20
172.5037470026
 30
0.0
 40
1.000000000000072
100
AcDbArc
 50
0.0000217724
 51
90.0
  0
CIRCLE
  5
2FB
330
1B
100
AcDbEntity
 67
     1
  8
SLD-0
  6
Continuous
 62
     7
100
AcDbCircle
 10
163.1276987264
 20
164.5037470026
 30
0.0
 40
1.600000000000023
  0
ARC
  5
2FC
330
1B
100
AcDbEntity
 67
     1
  8
SLD-0
  6
Continuous
 62
     7
100
AcDbCircle
 10
165.1276987264
 20
156.5037470026
 30
0.0
 40
1.000000000000072
100
AcDbArc
 50
270.0
 51
359.9999782276
  0
CIRCLE
  5
2FD
330
1B
100
AcDbEntity
 67
     1
  8
SLD-0
  6
Continuous
 62
     7
100
AcDbCircle
 10
163.1276987264
 20
164.5037470026
 30
0.0
 40
1.200000000000017
  0
CIRCLE
  5
2FE
330
1B
100
AcDbEntity
 67
     1
  8
SLD-0
  6
Continuous
 62
     7
100
AcDbCircle
 10
163.1276987264
 20
164.5037470026
 30
0.0
 40
1.500000000000028
  0
ARC
  5
2FF
330
1B
100
AcDbEntity
 67
     1
  8
SLD-0
  6
Continuous
 62
     7
100
AcDbCircle
 10
244.6110635029
 20
75.2097507056
 30
0.0
 40
1.724409926544328
100
AcDbArc
 50
271.1999038937
 51
274.8909202752
  0
ARC
  5
300
330
1B
100
AcDbEntity
 67
     1
  8
SLD-0
  6
Continuous
 62
     7
100
AcDbCircle
 10
226.9051086472
 20
75.2097864505
 30
0.0
 40
1.72444565497887
100
AcDbArc
 50
265.109136832
 51
268.8010577841
  0
ARC
  5
301
330
1B
100
AcDbEntity
 67
     1
  8
SLD-0
  6
Continuous
 62
     7
100
AcDbCircle
 10
243.5588664481
 20
122.6713165571
 30
0.0
 40
4.190520452331368
100
AcDbArc
 50
265.8839676068
 51
268.8656200159
  0
ARC
  5
302
330
1B
100
AcDbEntity
 67
     1
  8
SLD-0
  6
Continuous
 62
     7
100
AcDbCircle
 10
243.4649776132
 20
117.4329008254
 30
0.0
 40
1.048773498167497
100
AcDbArc
 50
77.528740764
 51
89.4030042323
  0
ARC
  5
303
330
1B
100
AcDbEntity
 67
     1
  8
SLD-0
  6
Continuous
 62
     7
100
AcDbCircle
 10
243.4499710829
 20
117.4595127418
 30
0.0
 40
1.026232929224651
100
AcDbArc
 50
64.2655149728
 51
76.3897500458
  0
ARC
  5
304
330
1B
100
AcDbEntity
 67
     1
  8
SLD-0
  6
Continuous
 62
     7
100
AcDbCircle
 10
243.2629791521
 20
117.0661794836
 30
0.0
 40
1.46174778349873
100
AcDbArc
 50
55.8109147784
 51
64.3572563804
  0
ARC
  5
305
330
1B
100
AcDbEntity
 67
     1
  8
SLD-0
  6
Continuous
 62
     7
100
AcDbCircle
 10
243.114986989
 20
116.8420135776
 30
0.0
 40
1.730339301433653
100
AcDbArc
 50
48.7520259015
 51
55.928375358
  0
ARC
  5
306
330
1B
100
AcDbEntity
 67
     1
  8
SLD-0
  6
Continuous
 62
     7
100
AcDbCircle
 10
242.8851391075
 20
116.5813438452
 30
0.0
 40
2.077870605219858
100
AcDbArc
 50
42.7400259946
 51
48.7258419721
  0
ARC
  5
307
330
1B
100
AcDbEntity
 67
     1
  8
SLD-0
  6
Continuous
 62
     7
100
AcDbCircle
 10
243.0507517285
 20
116.7152558508
 30
0.0
 40
1.865408396994994
100
AcDbArc
 50
36.4800297651
 51
43.1714627195
  0
ARC
  5
308
330
1B
100
AcDbEntity
 67
     1
  8
SLD-0
  6
Continuous
 62
     7
100
AcDbCircle
 10
243.7104866452
 20
117.2003089957
 30
0.0
 40
1.046556837584938
100
AcDbArc
 50
24.6340195433
 51
36.6019323923
  0
ARC
  5
309
330
1B
100
AcDbEntity
 67
     1
  8
SLD-0
  6
Continuous
 62
     7
100
AcDbCircle
 10
244.0103727755
 20
117.341673014
 30
0.0
 40
0.7150488413122771
100
AcDbArc
 50
6.9696013075
 51
24.3536011268
  0
ARC
  5
30A
330
1B
100
AcDbEntity
 67
     1
  8
SLD-0
  6
Continuous
 62
     7
100
AcDbCircle
 10
241.6130448533
 20
117.0840625796
 30
0.0
 40
3.126119354814709
100
AcDbArc
 50
2.3371089576
 51
6.3245961161
  0
ARC
  5
30B
330
1B
100
AcDbEntity
 67
     1
  8
SLD-0
  6
Continuous
 62
     7
100
AcDbCircle
 10
249.2554242954
 20
117.5438173207
 30
0.0
 40
4.531060148406342
100
AcDbArc
 50
184.2054297999
 51
186.9614416285
  0
ARC
  5
30C
330
1B
100
AcDbEntity
 67
     1
  8
SLD-0
  6
Continuous
 62
     7
100
AcDbCircle
 10
237.2957714795
 20
96.4489021825
 30
0.0
 40
1.804747109367557
100
AcDbArc
 50
255.0325971336
 51
259.1990961944
  0
ARC
  5
30D
330
1B
100
AcDbEntity
 67
     1
  8
SLD-0
  6
Continuous
 62
     7
100
AcDbCircle
 10
237.2896472767
 20
96.4261778356
 30
0.0
 40
1.781212039238902
100
AcDbArc
 50
250.8116945198
 51
255.0341225328
  0
ARC
  5
30E
330
1B
100
AcDbEntity
 67
     1
  8
SLD-0
  6
Continuous
 62
     7
100
AcDbCircle
 10
237.2945535293
 20
96.4397194323
 30
0.0
 40
1.795613878312812
100
AcDbArc
 50
246.6175214651
 51
250.8058581227
  0
ARC
  5
30F
330
1B
100
AcDbEntity
 67
     1
  8
SLD-0
  6
Continuous
 62
     7
100
AcDbCircle
 10
237.3025831921
 20
96.4583671351
 30
0.0
 40
1.815916867942915
100
AcDbArc
 50
242.4762631298
 51
246.618481491
  0
ARC
  5
310
330
1B
100
AcDbEntity
 67
     1
  8
SLD-0
  6
Continuous
 62
     7
100
AcDbCircle
 10
237.3067701807
 20
96.4665623221
 30
0.0
 40
1.825119395465178
100
AcDbArc
 50
238.3575474877
 51
242.4785869742
  0
ARC
  5
311
330
1B
100
AcDbEntity
 67
     1
  8
SLD-0
  6
Continuous
 62
     7
100
AcDbCircle
 10
233.0242948107
 20
73.1045877351
 30
0.0
 40
0.8542424378111613
100
AcDbArc
 50
153.7595180018
 51
177.4093844503
  0
ARC
  5
312
330
1B
100
AcDbEntity
 67
     1
  8
SLD-0
  6
Continuous
 62
     7
100
AcDbCircle
 10
239.2628576559
 20
72.2395098861
 30
0.0
 40
7.14927666007137
100
AcDbArc
 50
172.7382232099
 51
175.5980351168
  0
ARC
  5
313
330
1B
100
AcDbEntity
 67
     1
  8
SLD-0
  6
Continuous
 62
     7
100
AcDbCircle
 10
244.7528408595
 20
68.4441882195
 30
0.0
 40
12.95610176342973
100
AcDbArc
 50
174.9319978595
 51
176.5102385056
  0
ARC
  5
314
330
1B
100
AcDbEntity
 67
     1
  8
SLD-0
  6
Continuous
 62
     7
100
AcDbCircle
 10
238.5248076408
 20
73.1357507116
 30
0.0
 40
0.8115394602428906
100
AcDbArc
 50
2.911708986
 51
25.2751516395
  0
ARC
  5
315
330
1B
100
AcDbEntity
 67
     1
  8
SLD-0
  6
Continuous
 62
     7
100
AcDbCircle
 10
52.5278941441
 20
121.2437028343
 30
0.0
 40
4.190520453103488
100
AcDbArc
 50
271.1343799844
 51
274.1160323933
  0
ARC
  5
316
330
1B
100
AcDbEntity
 67
     1
  8
SLD-0
  6
Continuous
 62
     7
100
AcDbCircle
 10
52.621782979
 20
116.0052871016
 30
0.0
 40
1.048773498366646
100
AcDbArc
 50
90.5969957688
 51
102.4712592348
  0
ARC
  5
317
330
1B
100
AcDbEntity
 67
     1
  8
SLD-0
  6
Continuous
 62
     7
100
AcDbCircle
 10
52.6367895092
 20
116.0318990185
 30
0.0
 40
1.026232928915997
100
AcDbArc
 50
103.6102499523
 51
115.734485029
  0
ARC
  5
318
330
1B
100
AcDbEntity
 67
     1
  8
SLD-0
  6
Continuous
 62
     7
100
AcDbCircle
 10
52.8237814398
 20
115.6385657606
 30
0.0
 40
1.461747782799598
100
AcDbArc
 50
115.6427436176
 51
124.1890852237
  0
ARC
  5
319
330
1B
100
AcDbEntity
 67
     1
  8
SLD-0
  6
Continuous
 62
     7
100
AcDbCircle
 10
52.9717736035
 20
115.4143998536
 30
0.0
 40
1.73033930191096
100
AcDbArc
 50
124.071624643
 51
131.2479740975
  0
ARC
  5
31A
330
1B
100
AcDbEntity
 67
     1
  8
SLD-0
  6
Continuous
 62
     7
100
AcDbCircle
 10
53.2016214849
 20
115.1537301214
 30
0.0
 40
2.077870605532528
100
AcDbArc
 50
131.2741580284
 51
137.259974005
  0
ARC
  5
31B
330
1B
100
AcDbEntity
 67
     1
  8
SLD-0
  6
Continuous
 62
     7
100
AcDbCircle
 10
53.0360088637
 20
115.2876421272
 30
0.0
 40
1.865408396917405
100
AcDbArc
 50
136.8285372803
 51
143.5199702351
  0
ARC
  5
31C
330
1B
100
AcDbEntity
 67
     1
  8
SLD-0
  6
Continuous
 62
     7
100
AcDbCircle
 10
52.3762739476
 20
115.7726952717
 30
0.0
 40
1.046556838128026
100
AcDbArc
 50
143.3980676109
 51
155.3659804536
  0
ARC
  5
31D
330
1B
100
AcDbEntity
 67
     1
  8
SLD-0
  6
Continuous
 62
     7
100
AcDbCircle
 10
52.0763878171
 20
115.9140592902
 30
0.0
 40
0.715048841721171
100
AcDbArc
 50
155.6463988782
 51
173.0303986875
  0
ARC
  5
31E
330
1B
100
AcDbEntity
 67
     1
  8
SLD-0
  6
Continuous
 62
     7
100
AcDbCircle
 10
54.4737157385
 20
115.656448856
 30
0.0
 40
3.126119354376784
100
AcDbArc
 50
173.6754038836
 51
177.6628910427
  0
ARC
  5
31F
330
1B
100
AcDbEntity
 67
     1
  8
SLD-0
  6
Continuous
 62
     7
100
AcDbCircle
 10
46.8313363
 20
116.1162035968
 30
0.0
 40
4.531060145197383
100
AcDbArc
 50
353.0385583706
 51
355.7945702011
  0
ARC
  5
320
330
1B
100
AcDbEntity
 67
     1
  8
SLD-0
  6
Continuous
 62
     7
100
AcDbCircle
 10
258.645109453
 20
67.885598539
 30
0.0
 40
92.61171767305066
100
AcDbArc
 50
177.414090256
 51
178.2324320138
  0
ARC
  5
321
330
1B
100
AcDbEntity
 67
     1
  8
SLD-0
  6
Continuous
 62
     7
100
AcDbCircle
 10
149.6153646703
 20
71.2188170222
 30
0.0
 40
16.46899158988499
100
AcDbArc
 50
353.7400267029
 51
358.3416336458
  0
ARC
  5
322
330
1B
100
AcDbEntity
 67
     1
  8
SLD-0
  6
Continuous
 62
     7
100
AcDbCircle
 10
151.4217940592
 20
71.0563403614
 30
0.0
 40
14.65565973651735
100
AcDbArc
 50
348.4299127052
 51
353.6013773481
  0
ARC
  5
323
330
1B
100
AcDbEntity
 67
     1
  8
SLD-0
  6
Continuous
 62
     7
100
AcDbCircle
 10
145.695682078
 20
72.2975748158
 30
0.0
 40
20.5144788906827
100
AcDbArc
 50
344.5472689302
 51
348.2412586638
  0
ARC
  5
324
330
1B
100
AcDbEntity
 67
     1
  8
SLD-0
  6
Continuous
 62
     7
100
AcDbCircle
 10
137.8955502922
 20
74.3081961123
 30
0.0
 40
28.56870189454141
100
AcDbArc
 50
342.1756491293
 51
344.8287566451
  0
ARC
  5
325
330
1B
100
AcDbEntity
 67
     1
  8
SLD-0
  6
Continuous
 62
     7
100
AcDbCircle
 10
146.4069173051
 20
71.5821301438
 30
0.0
 40
19.63143971991273
100
AcDbArc
 50
338.2859122917
 51
342.146125539
  0
ARC
  5
326
330
1B
100
AcDbEntity
 67
     1
  8
SLD-0
  6
Continuous
 62
     7
100
AcDbCircle
 10
146.9553060965
 20
71.3719024938
 30
0.0
 40
19.04418619453874
100
AcDbArc
 50
334.2835611666
 51
338.2631072867
  0
ARC
  5
327
330
1B
100
AcDbEntity
 67
     1
  8
SLD-0
  6
Continuous
 62
     7
100
AcDbCircle
 10
146.4292518573
 20
71.6359704743
 30
0.0
 40
19.63272222361352
100
AcDbArc
 50
330.3954330602
 51
334.2554030632
  0
ARC
  5
328
330
1B
100
AcDbEntity
 67
     1
  8
SLD-0
  6
Continuous
 62
     7
100
AcDbCircle
 10
145.0475085359
 20
72.4202586939
 30
0.0
 40
21.22153378367663
100
AcDbArc
 50
326.8259823226
 51
330.3973037761
  0
ARC
  5
329
330
1B
100
AcDbEntity
 67
     1
  8
SLD-0
  6
Continuous
 62
     7
100
AcDbCircle
 10
145.460353371
 20
72.1360055002
 30
0.0
 40
20.72044225083954
100
AcDbArc
 50
323.2013347038
 51
326.859223996
  0
ARC
  5
32A
330
1B
100
AcDbEntity
 67
     1
  8
SLD-0
  6
Continuous
 62
     7
100
AcDbCircle
 10
146.3696898253
 20
71.4589235912
 30
0.0
 40
19.58672008736199
100
AcDbArc
 50
319.3247906337
 51
323.1939430425
  0
ARC
  5
32B
330
1B
100
AcDbEntity
 67
     1
  8
SLD-0
  6
Continuous
 62
     7
100
AcDbCircle
 10
145.7954372862
 20
71.9568397479
 30
0.0
 40
20.34676988421425
100
AcDbArc
 50
315.5906414668
 51
319.3153655219
  0
ARC
  5
32C
330
1B
100
AcDbEntity
 67
     1
  8
SLD-0
  6
Continuous
 62
     7
100
AcDbCircle
 10
145.273725163
 20
72.4625902515
 30
0.0
 40
21.07337376123065
100
AcDbArc
 50
312.0045585286
 51
315.600963961
  0
ARC
  5
32D
330
1B
100
AcDbEntity
 67
     1
  8
SLD-0
  6
Continuous
 62
     7
100
AcDbCircle
 10
145.2880573942
 20
72.4460324748
 30
0.0
 40
21.05147883918181
100
AcDbArc
 50
308.4056683997
 51
312.0057292228
  0
ARC
  5
32E
330
1B
100
AcDbEntity
 67
     1
  8
SLD-0
  6
Continuous
 62
     7
100
AcDbCircle
 10
145.5658147813
 20
72.0890159294
 30
0.0
 40
20.59915974374724
100
AcDbArc
 50
304.7378201108
 51
308.4171506552
  0
ARC
  5
32F
330
1B
100
AcDbEntity
 67
     1
  8
SLD-0
  6
Continuous
 62
     7
100
AcDbCircle
 10
146.0515462327
 20
71.3883701609
 30
0.0
 40
19.74661090154407
100
AcDbArc
 50
300.9001205577
 51
304.7380662374
  0
ARC
  5
330
330
1B
100
AcDbEntity
 67
     1
  8
SLD-0
  6
Continuous
 62
     7
100
AcDbCircle
 10
145.7784472848
 20
71.8604610151
 30
0.0
 40
20.29194467215442
100
AcDbArc
 50
297.1426031695
 51
300.8772421284
  0
ARC
  5
331
330
1B
100
AcDbEntity
 67
     1
  8
SLD-0
  6
Continuous
 62
     7
100
AcDbCircle
 10
145.3461088578
 20
72.6975393735
 30
0.0
 40
21.23407468115363
100
AcDbArc
 50
293.5809980816
 51
297.1502822071
  0
ARC
  5
332
330
1B
100
AcDbEntity
 67
     1
  8
SLD-0
  6
Continuous
 62
     7
100
AcDbCircle
 10
145.6337030605
 20
72.0313622313
 30
0.0
 40
20.50847591511828
100
AcDbArc
 50
289.893664539
 51
293.5891617976
  0
ARC
  5
333
330
1B
100
AcDbEntity
 67
     1
  8
SLD-0
  6
Continuous
 62
     7
100
AcDbCircle
 10
145.8601769193
 20
71.4156233243
 30
0.0
 40
19.85241753524288
100
AcDbArc
 50
286.0661664096
 51
289.883741334
  0
ARC
  5
334
330
1B
100
AcDbEntity
 67
     1
  8
SLD-0
  6
Continuous
 62
     7
100
AcDbCircle
 10
145.870268425
 20
71.3796918652
 30
0.0
 40
19.81509666539125
100
AcDbArc
 50
282.2420945676
 51
286.0668793825
  0
ARC
  5
335
330
1B
100
AcDbEntity
 67
     1
  8
SLD-0
  6
Continuous
 62
     7
100
AcDbCircle
 10
145.7088497651
 20
72.1592048515
 30
0.0
 40
20.61111286715022
100
AcDbArc
 50
278.5440996502
 51
282.2211287119
  0
ARC
  5
336
330
1B
100
AcDbEntity
 67
     1
  8
SLD-0
  6
Continuous
 62
     7
100
AcDbCircle
 10
145.5195262988
 20
73.3962825343
 30
0.0
 40
21.86258938852763
100
AcDbArc
 50
275.0865355188
 51
278.5530859698
  0
ARC
  5
337
330
1B
100
AcDbEntity
 67
     1
  8
SLD-0
  6
Continuous
 62
     7
100
AcDbCircle
 10
145.5154672097
 20
73.4270428308
 30
0.0
 40
21.89358846807623
100
AcDbArc
 50
271.6283931509
 51
275.0899792164
  0
ARC
  5
338
330
1B
100
AcDbEntity
 67
     1
  8
SLD-0
  6
Continuous
 62
     7
100
AcDbCircle
 10
145.5374241853
 20
72.4483445762
 30
0.0
 40
20.91466232584142
100
AcDbArc
 50
268.0208111495
 51
271.6444563803
  0
ARC
  5
339
330
1B
100
AcDbEntity
 67
     1
  8
SLD-0
  6
Continuous
 62
     7
100
AcDbCircle
 10
145.5047889995
 20
71.3845932833
 30
0.0
 40
19.85041895045804
100
AcDbArc
 50
264.1910584368
 51
268.008912
  0
ARC
  5
33A
330
1B
100
AcDbEntity
 67
     1
  8
SLD-0
  6
Continuous
 62
     7
100
AcDbCircle
 10
145.509890454
 20
71.4327508743
 30
0.0
 40
19.89884557578887
100
AcDbArc
 50
260.3818376657
 51
264.1904792454
  0
ARC
  5
33B
330
1B
100
AcDbEntity
 67
     1
  8
SLD-0
  6
Continuous
 62
     7
100
AcDbCircle
 10
145.5830407171
 20
71.8399898128
 30
0.0
 40
20.31258245689712
100
AcDbArc
 50
256.6394713718
 51
260.3703292194
  0
ARC
  5
33C
330
1B
100
AcDbEntity
 67
     1
  8
SLD-0
  6
Continuous
 62
     7
100
AcDbCircle
 10
145.751851808
 20
72.554019171
 30
0.0
 40
21.04629531635344
100
AcDbArc
 50
253.0404638586
 51
256.6415240137
  0
ARC
  5
33D
330
1B
100
AcDbEntity
 67
     1
  8
SLD-0
  6
Continuous
 62
     7
100
AcDbCircle
 10
145.5739142469
 20
71.9908960311
 30
0.0
 40
20.45575897986555
100
AcDbArc
 50
249.3519496885
 51
253.0570968567
  0
ARC
  5
33E
330
1B
100
AcDbEntity
 67
     1
  8
SLD-0
  6
Continuous
 62
     7
100
AcDbCircle
 10
145.3114645876
 20
71.2844936221
 30
0.0
 40
19.70218653449983
100
AcDbArc
 50
245.4952757976
 51
249.341756079
  0
ARC
  5
33F
330
1B
100
AcDbEntity
 67
     1
  8
SLD-0
  6
Continuous
 62
     7
100
AcDbCircle
 10
145.6925373018
 20
72.1162269633
 30
0.0
 40
20.61706016761846
100
AcDbArc
 50
241.8144567841
 51
245.4903519347
  0
ARC
  5
340
330
1B
100
AcDbEntity
 67
     1
  8
SLD-0
  6
Continuous
 62
     7
100
AcDbCircle
 10
145.9537429189
 20
72.6177879878
 30
0.0
 40
21.18252329458181
100
AcDbArc
 50
238.2545815
 51
241.8324953868
  0
ARC
  5
341
330
1B
100
AcDbEntity
 67
     1
  8
SLD-0
  6
Continuous
 62
     7
100
AcDbCircle
 10
145.7217899208
 20
72.2435249779
 30
0.0
 40
20.74221104216717
100
AcDbArc
 50
234.6017502026
 51
238.2555056188
  0
ARC
  5
342
330
1B
100
AcDbEntity
 67
     1
  8
SLD-0
  6
Continuous
 62
     7
100
AcDbCircle
 10
145.4616860743
 20
71.8774652486
 30
0.0
 40
20.29315231995245
100
AcDbArc
 50
230.8669144359
 51
234.6016939696
  0
ARC
  5
343
330
1B
100
AcDbEntity
 67
     1
  8
SLD-0
  6
Continuous
 62
     7
100
AcDbCircle
 10
145.1916451018
 20
71.5443313288
 30
0.0
 40
19.86431702603136
100
AcDbArc
 50
227.0495023275
 51
230.8646565344
  0
ARC
  5
344
330
1B
100
AcDbEntity
 67
     1
  8
SLD-0
  6
Continuous
 62
     7
100
AcDbCircle
 10
145.9855465952
 20
72.389606133
 30
0.0
 40
21.0239480145023
100
AcDbArc
 50
223.4308342408
 51
227.0354708679
  0
ARC
  5
345
330
1B
100
AcDbEntity
 67
     1
  8
SLD-0
  6
Continuous
 62
     7
100
AcDbCircle
 10
146.5328358896
 20
72.924803462
 30
0.0
 40
21.78933228105852
100
AcDbArc
 50
219.9852640139
 51
223.4634754033
  0
ARC
  5
346
330
1B
100
AcDbEntity
 67
     1
  8
SLD-0
  6
Continuous
 62
     7
100
AcDbCircle
 10
144.6028106595
 20
71.3086303067
 30
0.0
 40
19.27199062274347
100
AcDbArc
 50
216.0585555913
 51
219.9908782443
  0
ARC
  5
347
330
1B
100
AcDbEntity
 67
     1
  8
SLD-0
  6
Continuous
 62
     7
100
AcDbCircle
 10
142.6819279423
 20
69.9153237355
 30
0.0
 40
16.8990024865559
100
AcDbArc
 50
211.5871263938
 51
216.0730770488
  0
ARC
  5
348
330
1B
100
AcDbEntity
 67
     1
  8
SLD-0
  6
Continuous
 62
     7
100
AcDbCircle
 10
141.4803817769
 20
69.1550714852
 30
0.0
 40
15.47726661998646
100
AcDbArc
 50
206.6228217357
 51
211.5195531343
  0
ARC
  5
349
330
1B
100
AcDbEntity
 67
     1
  8
SLD-0
  6
Continuous
 62
     7
100
AcDbCircle
 10
164.9874190839
 20
168.4771681558
 30
0.0
 40
12.97417954227993
100
AcDbArc
 50
266.8192642794
 51
270.6195064627
  0
ARC
  5
34A
330
1B
100
AcDbEntity
 67
     1
  8
SLD-0
  6
Continuous
 62
     7
100
AcDbCircle
 10
164.7677609856
 20
163.1709633453
 30
0.0
 40
7.664329101386903
100
AcDbArc
 50
259.8246811989
 51
266.2578397172
  0
ARC
  5
34B
330
1B
100
AcDbEntity
 67
     1
  8
SLD-0
  6
Continuous
 62
     7
100
AcDbCircle
 10
164.8209125051
 20
163.4252495911
 30
0.0
 40
7.924009118981841
100
AcDbArc
 50
253.5498656569
 51
259.771223948
  0
ARC
  5
34C
330
1B
100
AcDbEntity
 67
     1
  8
SLD-0
  6
Continuous
 62
     7
100
AcDbCircle
 10
165.0854217986
 20
164.3231594734
 30
0.0
 40
8.860068418933517
100
AcDbArc
 50
247.9882049585
 51
253.5536731668
  0
ARC
  5
34D
330
1B
100
AcDbEntity
 67
     1
  8
SLD-0
  6
Continuous
 62
     7
100
AcDbCircle
 10
165.2164808135
 20
164.6699065263
 30
0.0
 40
9.230664398084553
100
AcDbArc
 50
242.6979940802
 51
248.0406812723
  0
ARC
  5
34E
330
1B
100
AcDbEntity
 67
     1
  8
SLD-0
  6
Continuous
 62
     7
100
AcDbCircle
 10
165.1635189237
 20
164.5678740966
 30
0.0
 40
9.115705670100612
100
AcDbArc
 50
237.2904541832
 51
242.6996389347
  0
ARC
  5
34F
330
1B
100
AcDbEntity
 67
     1
  8
SLD-0
  6
Continuous
 62
     7
100
AcDbCircle
 10
165.1327181206
 20
164.519460096
 30
0.0
 40
9.0583249743862
100
AcDbArc
 50
231.8453601071
 51
237.2889010462
  0
ARC
  5
350
330
1B
100
AcDbEntity
 67
     1
  8
SLD-0
  6
Continuous
 62
     7
100
AcDbCircle
 10
165.0816213795
 20
164.4541790472
 30
0.0
 40
8.975424615015273
100
AcDbArc
 50
226.3505237485
 51
231.8444026158
  0
ARC
  5
351
330
1B
100
AcDbEntity
 67
     1
  8
SLD-0
  6
Continuous
 62
     7
100
AcDbCircle
 10
165.113322607
 20
164.4875721165
 30
0.0
 40
9.021468644062988
100
AcDbArc
 50
220.885362669
 51
226.3512295812
  0
ARC
  5
352
330
1B
100
AcDbEntity
 67
     1
  8
SLD-0
  6
Continuous
 62
     7
100
AcDbCircle
 10
165.1260253171
 20
164.4981407296
 30
0.0
 40
9.037989823207983
100
AcDbArc
 50
215.4273934016
 51
220.8833059067
  0
ARC
  5
353
330
1B
100
AcDbEntity
 67
     1
  8
SLD-0
  6
Continuous
 62
     7
100
AcDbCircle
 10
165.1542081269
 20
164.5187518344
 30
0.0
 40
9.072902274450362
100
AcDbArc
 50
209.995401487
 51
215.4302870908
  0
ARC
  5
354
330
1B
100
AcDbEntity
 67
     1
  8
SLD-0
  6
Continuous
 62
     7
100
AcDbCircle
 10
165.1888564582
 20
164.5377398308
 30
0.0
 40
9.112402720469417
100
AcDbArc
 50
204.57874405
 51
209.9898877783
  0
ARC
  5
355
330
1B
100
AcDbEntity
 67
     1
  8
SLD-0
  6
Continuous
 62
     7
100
AcDbCircle
 10
165.2312011322
 20
164.5576349096
 30
0.0
 40
9.159185804081785
100
AcDbArc
 50
199.1981281125
 51
204.5817429969
  0
ARC
  5
356
330
1B
100
AcDbEntity
 67
     1
  8
SLD-0
  6
Continuous
 62
     7
100
AcDbCircle
 10
165.1703702421
 20
164.5372400075
 30
0.0
 40
9.095031351943664
100
AcDbArc
 50
193.7812746788
 51
199.2028068292
  0
ARC
  5
357
330
1B
100
AcDbEntity
 67
     1
  8
SLD-0
  6
Continuous
 62
     7
100
AcDbCircle
 10
165.0276252092
 20
164.5025339544
 30
0.0
 40
8.948128102284167
100
AcDbArc
 50
188.272429874
 51
193.7831777937
  0
ARC
  5
358
330
1B
100
AcDbEntity
 67
     1
  8
SLD-0
  6
Continuous
 62
     7
100
AcDbCircle
 10
164.9228608656
 20
164.4873696232
 30
0.0
 40
8.842271973070053
100
AcDbArc
 50
182.695810854
 51
188.2728636875
  0
ARC
  5
359
330
1B
100
AcDbEntity
 67
     1
  8
SLD-0
  6
Continuous
 62
     7
100
AcDbCircle
 10
164.8294854787
 20
164.4815130701
 30
0.0
 40
8.748724590956636
100
AcDbArc
 50
177.0504684671
 51
182.6862603301
  0
ARC
  5
35A
330
1B
100
AcDbEntity
 67
     1
  8
SLD-0
  6
Continuous
 62
     7
100
AcDbCircle
 10
165.2560718032
 20
164.4589343715
 30
0.0
 40
9.175907629793757
100
AcDbArc
 50
171.6731996778
 51
177.0467330107
  0
ARC
  5
35B
330
1B
100
AcDbEntity
 67
     1
  8
SLD-0
  6
Continuous
 62
     7
100
AcDbCircle
 10
165.4894158898
 20
164.4293646303
 30
0.0
 40
9.411075193807594
100
AcDbArc
 50
166.4605510182
 51
171.7008071532
  0
ARC
  5
35C
330
1B
100
AcDbEntity
 67
     1
  8
SLD-0
  6
Continuous
 62
     7
100
AcDbCircle
 10
165.1105252501
 20
164.5212705946
 30
0.0
 40
9.021197796180143
100
AcDbArc
 50
160.9985292432
 51
166.4646659592
  0
ARC
  5
35D
330
1B
100
AcDbEntity
 67
     1
  8
SLD-0
  6
Continuous
 62
     7
100
AcDbCircle
 10
164.9958639702
 20
164.5554743752
 30
0.0
 40
8.901649292695936
100
AcDbArc
 50
155.4273674267
 51
160.9663927785
  0
ARC
  5
35E
330
1B
100
AcDbEntity
 67
     1
  8
SLD-0
  6
Continuous
 62
     7
100
AcDbCircle
 10
165.135701788
 20
164.4921843967
 30
0.0
 40
9.055141608687029
100
AcDbArc
 50
149.9855291125
 51
155.4311192638
  0
ARC
  5
35F
330
1B
100
AcDbEntity
 67
     1
  8
SLD-0
  6
Continuous
 62
     7
100
AcDbCircle
 10
165.1952817905
 20
164.4582253971
 30
0.0
 40
9.123718814506962
100
AcDbArc
 50
144.5837456111
 51
149.9880282823
  0
ARC
  5
360
330
1B
100
AcDbEntity
 67
     1
  8
SLD-0
  6
Continuous
 62
     7
100
AcDbCircle
 10
165.1939631659
 20
164.4598130236
 30
0.0
 40
9.12172414984829
100
AcDbArc
 50
139.1808938464
 51
144.5870727747
  0
ARC
  5
361
330
1B
100
AcDbEntity
 67
     1
  8
SLD-0
  6
Continuous
 62
     7
100
AcDbCircle
 10
165.0576545312
 20
164.5788667369
 30
0.0
 40
8.940746751384877
100
AcDbArc
 50
133.6710922925
 51
139.187275655
  0
ARC
  5
362
330
1B
100
AcDbEntity
 67
     1
  8
SLD-0
  6
Continuous
 62
     7
100
AcDbCircle
 10
164.9736583355
 20
164.6617035858
 30
0.0
 40
8.822829432236421
100
AcDbArc
 50
128.0609934142
 51
133.6480029894
  0
ARC
  5
363
330
1B
100
AcDbEntity
 67
     1
  8
SLD-0
  6
Continuous
 62
     7
100
AcDbCircle
 10
165.3705497251
 20
164.1538696748
 30
0.0
 40
9.46735851389292
100
AcDbArc
 50
122.8503714393
 51
128.0574517265
  0
ARC
  5
364
330
1B
100
AcDbEntity
 67
     1
  8
SLD-0
  6
Continuous
 62
     7
100
AcDbCircle
 10
165.2556758003
 20
164.3626347273
 30
0.0
 40
9.229679239204634
100
AcDbArc
 50
117.6069351442
 51
122.9542867645
  0
ARC
  5
365
330
1B
100
AcDbEntity
 67
     1
  8
SLD-0
  6
Continuous
 62
     7
100
AcDbCircle
 10
164.5670967598
 20
165.681444067
 30
0.0
 40
7.741929907035066
100
AcDbArc
 50
111.2441949819
 51
117.6140250743
  0
ARC
  5
366
330
1B
100
AcDbEntity
 67
     1
  8
SLD-0
  6
Continuous
 62
     7
100
AcDbCircle
 10
164.9891793324
 20
164.4839962671
 30
0.0
 40
9.01103452671013
100
AcDbArc
 50
105.5206858267
 51
110.9867565345
  0
ARC
  5
367
330
1B
100
AcDbEntity
 67
     1
  8
SLD-0
  6
Continuous
 62
     7
100
AcDbCircle
 10
165.8621851689
 20
161.4971032481
 30
0.0
 40
12.12268407616297
100
AcDbArc
 50
101.6470386132
 51
105.7188100195
  0
ARC
  5
368
330
1B
100
AcDbEntity
 67
     1
  8
SLD-0
  6
Continuous
 62
     7
100
AcDbCircle
 10
164.5380985778
 20
167.9787197028
 30
0.0
 40
5.507228240885875
100
AcDbArc
 50
92.8132396759
 51
101.7687486556
  0
DIMENSION
  5
369
330
1B
100
AcDbEntity
 67
     1
  8
SLD-0
 62
     7
100
AcDbDimension
  2
_D
 10
231.7580854082
 20
37.2405093847
 30
0.0
 11
235.7580854082
 21
37.2405093847
 31
0.0
 70
   160
  1
<>
 71
     2
 42
-1.0
  3
SLDDIMSTYLE0
100
AcDbAlignedDimension
 13
239.7580854082
 23
60.9916048099
 33
0.0
 14
231.7580854082
 24
60.9916048099
 34
0.0
100
AcDbRotatedDimension
  0
DIMENSION
  5
37F
330
1B
100
AcDbEntity
 67
     1
  8
SLD-0
 62
     7
100
AcDbDimension
  2
_D_1
 10
51.3286750499
 20
37.2405093845
 30
0.0
 11
60.3286750499
 21
37.2405093845
 31
0.0
 70
   160
  1
<>
 71
     2
 42
-1.0
  3
SLDDIMSTYLE0
100
AcDbAlignedDimension
 13
69.3286750499
 23
52.5640002774
 33
0.0
 14
51.3286750499
 24
52.5640002774
 34
0.0
100
AcDbRotatedDimension
  0
DIMENSION
  5
38D
330
1B
100
AcDbEntity
 67
     1
  8
SLD-0
 62
     7
100
AcDbDimension
  2
_D_2
 10
92.4608389242
 20
117.0639909522
 30
0.0
 11
92.4608389242
 21
84.3139955862
 31
0.0
 70
   160
  1
<>
 71
     2
 42
-1.0
  3
SLDDIMSTYLE1
100
AcDbAlignedDimension
 13
68.3286750502
 23
51.5640002202
 33
0.0
 14
67.8286750499
 24
117.0639909522
 34
0.0
 50
90.0
100
AcDbRotatedDimension
  0
DIMENSION
  5
39C
330
1B
100
AcDbEntity
 67
     1
  8
SLD-0
 62
     7
100
AcDbDimension
  2
_D_3
 10
80.4608389242
 20
87.3238594408
 30
0.0
 11
80.4608389242
 21
69.4439298305
 31
0.0
 70
   160
  1
(<>)
 71
     2
 42
-1.0
  3
SLDDIMSTYLE1
100
AcDbAlignedDimension
 13
68.3286750502
 23
51.5640002202
 33
0.0
 14
60.3286750499
 24
87.3238594408
 34
0.0
 50
90.0
100
AcDbRotatedDimension
  0
DIMENSION
  5
3AA
330
1B
100
AcDbEntity
 67
     1
  8
SLD-0
 62
     7
100
AcDbDimension
  2
_D_4
 10
202.6335893675
 20
117.0639909522
 30
0.0
 11
202.6335893675
 21
88.0639909522
 31
0.0
 70
   160
  1
<>
 71
     2
 42
-1.0
  3
SLDDIMSTYLE0
100
AcDbAlignedDimension
 13
165.6276987264
 23
59.0639909522
 33
0.0
 14
165.1276987264
 24
117.0639909522
 34
0.0
 50
90.0
100
AcDbRotatedDimension
  0
DIMENSION
  5
3B8
330
1B
100
AcDbEntity
 67
     1
  8
SLD-0
 62
     7
100
AcDbDimension
  2
_D_5
 10
112.7507518143
 20
94.0616986757
 30
0.0
 11
117.282431312
 21
96.1748555298
 31
0.0
 70
   160
  1
<>
 71
     2
 42
-1.0
  3
SLDDIMSTYLE0
100
AcDbAlignedDimension
 13
129.3498558996
 23
82.1275548872
 33
0.0
 14
116.9055508103
 24
85.1517034754
 34
0.0
 50
25.0
100
AcDbRotatedDimension
  0
DIMENSION
  5
3C6
330
1B
100
AcDbEntity
 67
     1
  8
SLD-0
 62
     7
100
AcDbDimension
  2
_D_6
 10
192.5246131152
 20
105.0639909522
 30
0.0
 11
192.5246131152
 21
111.0639909522
 31
0.0
 70
   160
  1
<>
 71
     2
 42
-1.0
  3
SLDDIMSTYLE0
100
AcDbAlignedDimension
 13
164.3276987264
 23
117.0639909522
 33
0.0
 14
183.477432872
 24
105.0639909522
 34
0.0
 50
90.0
100
AcDbRotatedDimension
  0
DIMENSION
  5
3D4
330
1B
100
AcDbEntity
 67
     1
  8
SLD-0
 62
     7
100
AcDbDimension
  2
_D_7
 10
192.5246131152
 20
105.0639909522
 30
0.0
 11
192.5246131152
 21
95.0639909522
 31
0.0
 70
   160
  1
<>
 71
     2
 42
-1.0
  3
SLDDIMSTYLE0
100
AcDbAlignedDimension
 13
183.477432872
 23
85.0639909522
 33
0.0
 14
183.477432872
 24
105.0639909522
 34
0.0
 50
90.0
100
AcDbRotatedDimension
  0
DIMENSION
  5
3E2
330
1B
100
AcDbEntity
 67
     1
  8
SLD-0
 62
     7
100
AcDbDimension
  2
_D_8
 10
156.1273885393
 20
127.1485477629
 30
0.0
 11
161.1275436328
 21
127.1485477629
 31
0.0
 70
   160
  1
<>
 71
     2
 42
-1.0
  3
SLDDIMSTYLE0
100
AcDbAlignedDimension
 13
166.1276987264
 23
115.5639909522
 33
0.0
 14
156.1273885393
 24
115.5639909522
 34
0.0
100
AcDbRotatedDimension
  0
DIMENSION
  5
3F0
330
1B
100
AcDbEntity
 67
     1
  8
SLD-0
 62
     7
100
AcDbDimension
  2
_D_9
 10
116.8118585974
 20
37.2405093847
 30
0.0
 11
141.4697786619
 21
37.2405093847
 31
0.0
 70
   160
  1
(<>)
 71
     2
 42
-1.0
  3
SLDDIMSTYLE0
100
AcDbAlignedDimension
 13
166.1276987264
 23
59.5639909522
 33
0.0
 14
116.8118585974
 24
85.5743217371
 34
0.0
 50
0.0
100
AcDbRotatedDimension
  0
DIMENSION
  5
3FE
330
1B
100
AcDbEntity
 67
     1
  8
SLD-0
 62
     7
100
AcDbDimension
  2
_D_10
 10
163.1276987264
 20
145.7620907643
 30
0.0
 11
172.1239278626
 21
145.7620907643
 31
0.0
 70
   160
  1
<>
 71
     2
 42
-1.0
  3
SLDDIMSTYLE0
100
AcDbAlignedDimension
 13
166.1276987264
 23
157.0037470026
 33
0.0
 14
163.1276987264
 24
159.9037470026
 34
0.0
100
AcDbRotatedDimension
  0
MTEXT
  5
410
330
1B
100
AcDbEntity
 67
     1
  8
SLD-0
 62
     7
100
AcDbMText
 10
102.9627572473
 20
11.2180430912
 30
0.0
 40
2.4849998951
 41
0.0
 71
     1
 72
     1
  1
17C
  7
SLDTEXTSTYLE2
 73
     1
 44
1.0
  0
MTEXT
  5
412
330
1B
100
AcDbEntity
 67
     1
  8
SLD-0
 62
     7
100
AcDbMText
 10
102.9481462645
 20
19.4337755135
 30
0.0
 40
2.4849998951
 41
0.0
 71
     1
 72
     1
  1
承認図
  7
SLDTEXTSTYLE3
 73
     1
 44
1.0
  0
MTEXT
  5
414
330
1B
100
AcDbEntity
 67
     1
  8
SLD-0
 62
     7
100
AcDbMText
 10
262.7201508597
 20
10.8833598938
 30
0.0
 40
3.0
 41
0.0
 71
     1
 72
     1
  1
11458XQ
  7
SLDTEXTSTYLE4
 73
     1
 44
1.0
  0
MTEXT
  5
416
330
1B
100
AcDbEntity
 67
     1
  8
SLD-0
 62
     7
100
AcDbMText
 10
213.292072493
 20
19.3179719201
 30
0.0
 40
2.4849998951
 41
0.0
 71
     1
 72
     1
  1
1/1
  7
SLDTEXTSTYLE5
 73
     1
 44
1.0
  0
MTEXT
  5
417
330
1B
100
AcDbEntity
 67
     1
  8
SLD-0
 62
     7
100
AcDbMText
 10
254.9344766334
 20
16.0716205503
 30
0.0
 40
1.5874999762
 41
0.0
 71
     1
 72
     1
  1
WEST
  7
SLDTEXTSTYLE4
 73
     1
 44
1.0
  0
MTEXT
  5
418
330
1B
100
AcDbEntity
 67
     1
  8
SLD-0
 62
     7
100
AcDbMText
 10
245.1814549999
 20
21.2995957318
 30
0.0
 40
1.7999999523
 41
0.0
 71
     1
 72
     1
  1
承　認
  7
SLDTEXTSTYLE3
 73
     1
 44
1.0
  0
MTEXT
  5
41A
330
1B
100
AcDbEntity
 67
     1
  8
SLD-0
 62
     7
100
AcDbMText
 10
221.7690138854
 20
9.4437131983
 30
0.0
 40
2.2000000477
 41
0.0
 71
     1
 72
     1
  1
′０８．１０．２０
  7
SLDTEXTSTYLE6
 73
     1
 44
1.0
  0
MTEXT
  5
41B
330
1B
100
AcDbEntity
 67
     1
  8
SLD-0
 62
     7
100
AcDbMText
 10
90.436285205
 20
9.448689325
 30
0.0
 40
1.7749999762
 41
0.0
 71
     1
 72
     1
  1
通知書
  7
SLDTEXTSTYLE3
 73
     1
 44
1.0
  0
MTEXT
  5
41C
330
1B
100
AcDbEntity
 67
     1
  8
SLD-0
 62
     7
100
AcDbMText
 10
257.3559623514
 20
10.8833598355
 30
0.0
 40
3.0
 41
0.0
 71
     1
 72
     1
  1
No.
  7
SLDTEXTSTYLE0
 73
     1
 44
1.0
  0
MTEXT
  5
41D
330
1B
100
AcDbEntity
 67
     1
  8
SLD-0
 62
     7
100
AcDbMText
 10
234.5104219725
 20
21.2543940564
 30
0.0
 40
1.7999999523
 41
0.0
 71
     1
 72
     1
  1
照　査
  7
SLDTEXTSTYLE3
 73
     1
 44
1.0
  0
MTEXT
  5
41E
330
1B
100
AcDbEntity
 67
     1
  8
SLD-0
 62
     7
100
AcDbMText
 10
221.785798196
 20
21.2497322712
 30
0.0
 40
1.7999999523
 41
0.0
 71
     1
 72
     1
  1
製図・設計
  7
SLDTEXTSTYLE3
 73
     1
 44
1.0
  0
MTEXT
  5
420
330
1B
100
AcDbEntity
 67
     1
  8
SLD-0
 62
     7
100
AcDbMText
 10
209.7472443058
 20
11.4690400881
 30
0.0
 40
2.1166665554
 41
0.0
 71
     1
 72
     1
  1
第三角法
  7
SLDTEXTSTYLE7
 73
     1
 44
1.0
  0
MTEXT
  5
421
330
1B
100
AcDbEntity
 67
     1
  8
SLD-0
 62
     7
100
AcDbMText
 10
99.3407138431
 20
21.3924297631
 30
0.0
 40
2.4849998951
 41
0.0
 71
     1
 72
     1
  1
名
  7
SLDTEXTSTYLE3
 73
     1
 44
1.0
  0
MTEXT
  5
422
330
1B
100
AcDbEntity
 67
     1
  8
SLD-0
 62
     7
100
AcDbMText
 10
16.5389192458
 20
11.8250805804
 30
0.0
 40
2.4849998951
 41
0.0
 71
     1
 72
     1
  1
訂
  7
SLDTEXTSTYLE3
 73
     1
 44
1.0
  0
MTEXT
  5
423
330
1B
100
AcDbEntity
 67
     1
  8
SLD-0
 62
     7
100
AcDbMText
 10
16.5389192458
 20
19.6924273471
 30
0.0
 40
2.4849998951
 41
0.0
 71
     1
 72
     1
  1
改
  7
SLDTEXTSTYLE3
 73
     1
 44
1.0
  0
MTEXT
  5
424
330
1B
100
AcDbEntity
 67
     1
  8
SLD-0
 62
     7
100
AcDbMText
 10
99.3541109871
 20
17.6736508251
 30
0.0
 40
2.4849998951
 41
0.0
 71
     1
 72
     1
  1
称
  7
SLDTEXTSTYLE3
 73
     1
 44
1.0
  0
MTEXT
  5
425
330
1B
100
AcDbEntity
 67
     1
  8
SLD-0
 62
     7
100
AcDbMText
 10
99.3407138431
 20
13.5824297631
 30
0.0
 40
2.4849998951
 41
0.0
 71
     1
 72
     1
  1
品
  7
SLDTEXTSTYLE3
 73
     1
 44
1.0
  0
MTEXT
  5
426
330
1B
100
AcDbEntity
 67
     1
  8
SLD-0
 62
     7
100
AcDbMText
 10
99.3541109871
 20
9.8636508251
 30
0.0
 40
2.4849998951
 41
0.0
 71
     1
 72
     1
  1
名
  7
SLDTEXTSTYLE3
 73
     1
 44
1.0
  0
MTEXT
  5
427
330
1B
100
AcDbEntity
 67
     1
  8
SLD-0
 62
     7
100
AcDbMText
 10
141.9307922944
 20
21.3924297631
 30
0.0
 40
2.4849998951
 41
0.0
 71
     1
 72
     1
  1
材
  7
SLDTEXTSTYLE3
 73
     1
 44
1.0
  0
MTEXT
  5
428
330
1B
100
AcDbEntity
 67
     1
  8
SLD-0
 62
     7
100
AcDbMText
 10
141.9283972236
 20
17.6736508251
 30
0.0
 40
2.4849998951
 41
0.0
 71
     1
 72
     1
  1
質
  7
SLDTEXTSTYLE3
 73
     1
 44
1.0
  0
MTEXT
  5
429
330
1B
100
AcDbEntity
 67
     1
  8
SLD-0
 62
     7
100
AcDbMText
 10
141.9307922944
 20
13.5824297631
 30
0.0
 40
2.4849998951
 41
0.0
 71
     1
 72
     1
  1
工
  7
SLDTEXTSTYLE3
 73
     1
 44
1.0
  0
MTEXT
  5
42A
330
1B
100
AcDbEntity
 67
     1
  8
SLD-0
 62
     7
100
AcDbMText
 10
141.9283972236
 20
9.8636508251
 30
0.0
 40
2.4849998951
 41
0.0
 71
     1
 72
     1
  1
番
  7
SLDTEXTSTYLE3
 73
     1
 44
1.0
  0
MTEXT
  5
42B
330
1B
100
AcDbEntity
 67
     1
  8
SLD-0
 62
     7
100
AcDbMText
 10
165.3890561839
 20
21.3924297631
 30
0.0
 40
2.4849998951
 41
0.0
 71
     1
 72
     1
  1
個
  7
SLDTEXTSTYLE3
 73
     1
 44
1.0
  0
MTEXT
  5
42C
330
1B
100
AcDbEntity
 67
     1
  8
SLD-0
 62
     7
100
AcDbMText
 10
165.4024533279
 20
17.6736508251
 30
0.0
 40
2.4849998951
 41
0.0
 71
     1
 72
     1
  1
数
  7
SLDTEXTSTYLE3
 73
     1
 44
1.0
  0
MTEXT
  5
42D
330
1B
100
AcDbEntity
 67
     1
  8
SLD-0
 62
     7
100
AcDbMText
 10
179.5630122799
 20
21.3924297631
 30
0.0
 40
2.4849998951
 41
0.0
 71
     1
 72
     1
  1
備
  7
SLDTEXTSTYLE3
 73
     1
 44
1.0
  0
MTEXT
  5
42E
330
1B
100
AcDbEntity
 67
     1
  8
SLD-0
 62
     7
100
AcDbMText
 10
179.5764094239
 20
17.6736508251
 30
0.0
 40
2.4849998951
 41
0.0
 71
     1
 72
     1
  1
考
  7
SLDTEXTSTYLE3
 73
     1
 44
1.0
  0
MTEXT
  5
42F
330
1B
100
AcDbEntity
 67
     1
  8
SLD-0
 62
     7
100
AcDbMText
 10
207.9574637936
 20
21.3924297631
 30
0.0
 40
2.4849998951
 41
0.0
 71
     1
 72
     1
  1
尺
  7
SLDTEXTSTYLE3
 73
     1
 44
1.0
  0
MTEXT
  5
430
330
1B
100
AcDbEntity
 67
     1
  8
SLD-0
 62
     7
100
AcDbMText
 10
207.9596187472
 20
17.6736508251
 30
0.0
 40
2.4849998951
 41
0.0
 71
     1
 72
     1
  1
度
  7
SLDTEXTSTYLE3
 73
     1
 44
1.0
  0
MTEXT
  5
432
330
1B
100
AcDbEntity
 67
     1
  8
SLD-0
 62
     7
100
AcDbMText
 10
58.5115751687
 20
9.4465641831
 30
0.0
 40
1.7749999762
 41
0.0
 71
     1
 72
     1
  1
変　更　内　容
  7
SLDTEXTSTYLE8
 73
     1
 44
1.0
  0
MTEXT
  5
433
330
1B
100
AcDbEntity
 67
     1
  8
SLD-0
 62
     7
100
AcDbMText
 10
36.4962377895
 20
9.4514523855
 30
0.0
 40
1.7749999762
 41
0.0
 71
     1
 72
     1
  1
担当者
  7
SLDTEXTSTYLE3
 73
     1
 44
1.0
  0
MTEXT
  5
434
330
1B
100
AcDbEntity
 67
     1
  8
SLD-0
 62
     7
100
AcDbMText
 10
28.631283698
 20
9.4708876794
 30
0.0
 40
1.7749999762
 41
0.0
 71
     1
 72
     1
  1
日付
  7
SLDTEXTSTYLE8
 73
     1
 44
1.0
  0
MTEXT
  5
435
330
1B
100
AcDbEntity
 67
     1
  8
SLD-0
 62
     7
100
AcDbMText
 10
20.4618483646
 20
9.4760029367
 30
0.0
 40
1.7749999762
 41
0.0
 71
     1
 72
     1
  1
記号
  7
SLDTEXTSTYLE8
 73
     1
 44
1.0
  0
MTEXT
  5
436
330
1B
100
AcDbEntity
 67
     1
  8
SLD-0
 62
     7
100
AcDbMText
 10
301.7895250875
 20
10.7991176637
 30
0.0
 40
5.2916665077
 41
0.0
 71
     1
 72
     1
  1
A4
  7
SLDTEXTSTYLE4
 73
     1
 44
1.0
  0
MTEXT
  5
437
330
1B
100
AcDbEntity
 67
     1
  8
SLD-0
 62
     7
100
AcDbMText
 10
254.1623180679
 20
13.5429668507
 30
0.0
 40
2.5
 41
0.0
 71
     1
 72
     1
  1
図
  7
SLDTEXTSTYLE3
 73
     1
 44
1.0
  0
MTEXT
  5
438
330
1B
100
AcDbEntity
 67
     1
  8
SLD-0
 62
     7
100
AcDbMText
 10
254.1623180679
 20
9.8627749725
 30
0.0
 40
2.5
 41
0.0
 71
     1
 72
     1
  1
番
  7
SLDTEXTSTYLE3
 73
     1
 44
1.0
  0
MTEXT
  5
43A
330
1B
100
AcDbEntity
 67
     1
  8
SLD-0
 62
     7
100
AcDbMText
 10
287.8961995152
 20
5.0457232506
 30
0.0
 40
1.8520833254
 41
0.0
 71
     1
 72
     1
  1
A4
  7
SLDTEXTSTYLE9
 73
     1
 44
1.0
  0
ENDSEC
  0
SECTION
  2
OBJECTS
  0
DICTIONARY
  5
C
330
0
100
AcDbDictionary
281
     1
  3
ACAD_GROUP
350
D
  3
ACAD_LAYOUT
350
1A
  3
ACAD_MLINESTYLE
350
17
  3
ACAD_PLOTSETTINGS
350
19
  3
ACAD_PLOTSTYLENAME
350
E
  3
ACAD_SCALELIST
350
47
  0
DICTIONARY
  5
D
102
{ACAD_REACTORS
330
C
102
}
330
C
100
AcDbDictionary
281
     1
  0
DICTIONARY
  5
1A
102
{ACAD_REACTORS
330
C
102
}
330
C
100
AcDbDictionary
281
     1
  3
Model
350
22
  3
SW_Model_1
350
1E
  0
DICTIONARY
  5
17
102
{ACAD_REACTORS
330
C
102
}
330
C
100
AcDbDictionary
281
     1
  3
Standard
350
18
  0
DICTIONARY
  5
19
102
{ACAD_REACTORS
330
C
102
}
330
C
100
AcDbDictionary
281
     1
  0
ACDBDICTIONARYWDFLT
  5
E
102
{ACAD_REACTORS
330
C
102
}
330
C
100
AcDbDictionary
281
     1
  3
Normal
350
F
100
AcDbDictionaryWithDefault
340
F
  0
DICTIONARY
  5
47
102
{ACAD_REACTORS
330
C
102
}
330
C
100
AcDbDictionary
281
     1
  3
A0
350
48
  3
A1
350
49
  3
A2
350
4A
  3
A3
350
4B
  3
A4
350
4C
  3
A5
350
4D
  3
A6
350
4E
  3
A7
350
4F
  3
A8
350
50
  3
A9
350
51
  3
B0
350
52
  3
B1
350
53
  3
B2
350
54
  3
B3
350
55
  3
B4
350
56
  3
B5
350
57
  3
B6
350
58
  3
B7
350
59
  3
B8
350
5A
  3
B9
350
5B
  3
C0
350
5C
  3
C1
350
5D
  3
C2
350
5E
  3
C3
350
5F
  3
C4
350
60
  3
C5
350
61
  3
C6
350
62
  3
C7
350
63
  3
C8
350
64
  3
C9
350
65
  3
D0
350
66
  3
D1
350
67
  3
D2
350
68
  0
LAYOUT
  5
22
102
{ACAD_REACTORS
330
1A
102
}
330
1A
100
AcDbPlotSettings
  1

  2
none_device
  4
Letter_(8.50_x_11.00_Inches)
  6

 40
6.35
 41
6.35
 42
6.35000508
 43
6.35000508
 44
215.9
 45
279.4
 46
0.0
 47
0.0
 48
0.0
 49
0.0
140
0.0
141
0.0
142
1.0
143
1.0
 70
  1712
 72
     1
 73
     0
 74
     0
  7

 75
     0
147
1.0
148
0.0
149
0.0
100
AcDbLayout
  1
Model
 70
     1
 71
     0
 10
0.0
 20
0.0
 11
297.0
 21
210.0
 12
0.0
 22
0.0
 32
0.0
 14
0.0
 24
0.0
 34
0.0
 15
297.0
 25
210.0
 35
0.0
146
0.0
 13
0.0
 23
0.0
 33
0.0
 16
1.0
 26
0.0
 36
0.0
 17
0.0
 27
1.0
 37
0.0
 76
     0
330
1F
331
29
  0
LAYOUT
  5
1E
102
{ACAD_REACTORS
330
1A
102
}
330
1A
100
AcDbPlotSettings
  1

  2
none_device
  4
ISO_A4_(297.00_x_210.00_MM)
  6

 40
7.5
 41
20.0
 42
7.5
 43
20.0
 44
297.0
 45
210.0
 46
0.0
 47
0.0
 48
0.0
 49
0.0
140
0.0
141
0.0
142
1.0
143
1.0
 70
  4832
 72
     1
 73
     0
 74
     1
  7

 75
     0
147
1.0
148
0.0
149
0.0
100
AcDbLayout
  1
SW_Model_1
 70
     1
 71
     1
 10
0.0
 20
0.0
 11
297.0
 21
210.0
 12
0.0
 22
0.0
 32
0.0
 14
0.0
 24
0.0
 34
0.0
 15
297.0
 25
210.0
 35
0.0
146
0.0
 13
0.0
 23
0.0
 33
0.0
 16
1.0
 26
0.0
 36
0.0
 17
0.0
 27
1.0
 37
0.0
 76
     0
330
1B
331
77
  0
MLINESTYLE
  5
18
102
{ACAD_REACTORS
330
17
102
}
330
17
100
AcDbMlineStyle
  2
Standard
 70
     0
  3

 62
   256
 51
90.0
 52
90.0
 71
     2
 49
0.5
 62
   256
  6
BYLAYER
 49
-0.5
 62
   256
  6
BYLAYER
  0
ACDBPLACEHOLDER
  5
F
102
{ACAD_REACTORS
330
E
102
}
330
E
  0
SCALE
  5
48
102
{ACAD_REACTORS
330
47
102
}
330
47
100
AcDbScale
 70
     0
300
1:1
140
1.0
141
1.0
290
     1
  0
SCALE
  5
49
102
{ACAD_REACTORS
330
47
102
}
330
47
100
AcDbScale
 70
     0
300
1:2
140
1.0
141
2.0
290
     0
  0
SCALE
  5
4A
102
{ACAD_REACTORS
330
47
102
}
330
47
100
AcDbScale
 70
     0
300
1:4
140
1.0
141
4.0
290
     0
  0
SCALE
  5
4B
102
{ACAD_REACTORS
330
47
102
}
330
47
100
AcDbScale
 70
     0
300
1:5
140
1.0
141
5.0
290
     0
  0
SCALE
  5
4C
102
{ACAD_REACTORS
330
47
102
}
330
47
100
AcDbScale
 70
     0
300
1:8
140
1.0
141
8.0
290
     0
  0
SCALE
  5
4D
102
{ACAD_REACTORS
330
47
102
}
330
47
100
AcDbScale
 70
     0
300
1:10
140
1.0
141
10.0
290
     0
  0
SCALE
  5
4E
102
{ACAD_REACTORS
330
47
102
}
330
47
100
AcDbScale
 70
     0
300
1:16
140
1.0
141
16.0
290
     0
  0
SCALE
  5
4F
102
{ACAD_REACTORS
330
47
102
}
330
47
100
AcDbScale
 70
     0
300
1:20
140
1.0
141
20.0
290
     0
  0
SCALE
  5
50
102
{ACAD_REACTORS
330
47
102
}
330
47
100
AcDbScale
 70
     0
300
1:30
140
1.0
141
30.0
290
     0
  0
SCALE
  5
51
102
{ACAD_REACTORS
330
47
102
}
330
47
100
AcDbScale
 70
     0
300
1:40
140
1.0
141
40.0
290
     0
  0
SCALE
  5
52
102
{ACAD_REACTORS
330
47
102
}
330
47
100
AcDbScale
 70
     0
300
1:50
140
1.0
141
50.0
290
     0
  0
SCALE
  5
53
102
{ACAD_REACTORS
330
47
102
}
330
47
100
AcDbScale
 70
     0
300
1:100
140
1.0
141
100.0
290
     0
  0
SCALE
  5
54
102
{ACAD_REACTORS
330
47
102
}
330
47
100
AcDbScale
 70
     0
300
2:1
140
2.0
141
1.0
290
     0
  0
SCALE
  5
55
102
{ACAD_REACTORS
330
47
102
}
330
47
100
AcDbScale
 70
     0
300
4:1
140
4.0
141
1.0
290
     0
  0
SCALE
  5
56
102
{ACAD_REACTORS
330
47
102
}
330
47
100
AcDbScale
 70
     0
300
8:1
140
8.0
141
1.0
290
     0
  0
SCALE
  5
57
102
{ACAD_REACTORS
330
47
102
}
330
47
100
AcDbScale
 70
     0
300
10:1
140
10.0
141
1.0
290
     0
  0
SCALE
  5
58
102
{ACAD_REACTORS
330
47
102
}
330
47
100
AcDbScale
 70
     0
300
100:1
140
100.0
141
1.0
290
     0
  0
SCALE
  5
59
102
{ACAD_REACTORS
330
47
102
}
330
47
100
AcDbScale
 70
     0
300
1/128" = 1'-0"
140
0.0078125
141
12.0
290
     0
  0
SCALE
  5
5A
102
{ACAD_REACTORS
330
47
102
}
330
47
100
AcDbScale
 70
     0
300
1/64" = 1'-0"
140
0.015625
141
12.0
290
     0
  0
SCALE
  5
5B
102
{ACAD_REACTORS
330
47
102
}
330
47
100
AcDbScale
 70
     0
300
1/32" = 1'-0"
140
0.03125
141
12.0
290
     0
  0
SCALE
  5
5C
102
{ACAD_REACTORS
330
47
102
}
330
47
100
AcDbScale
 70
     0
300
1/16" = 1'-0"
140
0.0625
141
12.0
290
     0
  0
SCALE
  5
5D
102
{ACAD_REACTORS
330
47
102
}
330
47
100
AcDbScale
 70
     0
300
3/32" = 1'-0"
140
0.09375
141
12.0
290
     0
  0
SCALE
  5
5E
102
{ACAD_REACTORS
330
47
102
}
330
47
100
AcDbScale
 70
     0
300
1/8" = 1'-0"
140
0.125
141
12.0
290
     0
  0
SCALE
  5
5F
102
{ACAD_REACTORS
330
47
102
}
330
47
100
AcDbScale
 70
     0
300
3/16" = 1'-0"
140
0.1875
141
12.0
290
     0
  0
SCALE
  5
60
102
{ACAD_REACTORS
330
47
102
}
330
47
100
AcDbScale
 70
     0
300
1/4" = 1'-0"
140
0.25
141
12.0
290
     0
  0
SCALE
  5
61
102
{ACAD_REACTORS
330
47
102
}
330
47
100
AcDbScale
 70
     0
300
3/8" = 1'-0"
140
0.375
141
12.0
290
     0
  0
SCALE
  5
62
102
{ACAD_REACTORS
330
47
102
}
330
47
100
AcDbScale
 70
     0
300
1/2" = 1'-0"
140
0.5
141
12.0
290
     0
  0
SCALE
  5
63
102
{ACAD_REACTORS
330
47
102
}
330
47
100
AcDbScale
 70
     0
300
3/4" = 1'-0"
140
0.75
141
12.0
290
     0
  0
SCALE
  5
64
102
{ACAD_REACTORS
330
47
102
}
330
47
100
AcDbScale
 70
     0
300
1" = 1'-0"
140
1.0
141
12.0
290
     0
  0
SCALE
  5
65
102
{ACAD_REACTORS
330
47
102
}
330
47
100
AcDbScale
 70
     0
300
1-1/2" = 1'-0"
140
1.5
141
12.0
290
     0
  0
SCALE
  5
66
102
{ACAD_REACTORS
330
47
102
}
330
47
100
AcDbScale
 70
     0
300
3" = 1'-0"
140
3.0
141
12.0
290
     0
  0
SCALE
  5
67
102
{ACAD_REACTORS
330
47
102
}
330
47
100
AcDbScale
 70
     0
300
6" = 1'-0"
140
6.0
141
12.0
290
     0
  0
SCALE
  5
68
102
{ACAD_REACTORS
330
47
102
}
330
47
100
AcDbScale
 70
     0
300
1'-0" = 1'-0"
140
12.0
141
12.0
290
     0
  0
ENDSEC
  0
EOF
