  0
SECTION
  2
HEADER
  9
$ACADVER
  1
AC1015
  9
$ACADMAINTVER
 70
     6
  9
$DWGCODEPAGE
  3
DOS932
  9
$INSBASE
 10
0.0
 20
0.0
 30
0.0
  9
$EXTMIN
 10
0.0
 20
0.0
 30
0.0
  9
$EXTMAX
 10
420.0
 20
297.0
 30
0.0
  9
$LIMMIN
 10
0.0
 20
0.0
  9
$LIMMAX
 10
420.0
 20
297.0
  9
$ORTHOMODE
 70
     0
  9
$REGENMODE
 70
     1
  9
$FILLMODE
 70
     1
  9
$QTEXTMODE
 70
     0
  9
$MIRRTEXT
 70
     1
  9
$LTSCALE
 40
1.0
  9
$ATTMODE
 70
     1
  9
$TEXTSIZE
 40
3.5
  9
$TRACEWID
 40
1.0
  9
$TEXTSTYLE
  7
Standard
  9
$CLAYER
  8
0
  9
$CELTYPE
  6
ByLayer
  9
$CECOLOR
 62
   256
  9
$CELTSCALE
 40
1.0
  9
$DISPSILH
 70
     0
  9
$DIMSCALE
 40
1.0
  9
$DIMASZ
 40
3.302
  9
$DIMEXO
 40
1.0
  9
$DIMDLI
 40
3.75
  9
$DIMRND
 40
0.0
  9
$DIMDLE
 40
0.0
  9
$DIMEXE
 40
1.0
  9
$DIMTP
 40
0.0
  9
$DIMTM
 40
0.0
  9
$DIMTXT
 40
3.5
  9
$DIMCEN
 40
2.5
  9
$DIMTSZ
 40
0.0
  9
$DIMTOL
 70
     0
  9
$DIMLIM
 70
     0
  9
$DIMTIH
 70
     1
  9
$DIMTOH
 70
     1
  9
$DIMSE1
 70
     0
  9
$DIMSE2
 70
     0
  9
$DIMTAD
 70
     1
  9
$DIMZIN
 70
     1
  9
$DIMBLK
  1

  9
$DIMASO
 70
     1
  9
$DIMSHO
 70
     1
  9
$DIMPOST
  1

  9
$DIMAPOST
  1

  9
$DIMALT
 70
     0
  9
$DIMALTD
 70
     3
  9
$DIMALTF
 40
0.0393700787
  9
$DIMLFAC
 40
1.0
  9
$DIMTOFL
 70
     1
  9
$DIMTVP
 40
0.0
  9
$DIMTIX
 70
     0
  9
$DIMSOXD
 70
     0
  9
$DIMSAH
 70
     0
  9
$DIMBLK1
  1

  9
$DIMBLK2
  1

  9
$DIMSTYLE
  2
ISO-25
  9
$DIMCLRD
 70
     0
  9
$DIMCLRE
 70
     0
  9
$DIMCLRT
 70
     0
  9
$DIMTFAC
 40
1.0
  9
$DIMGAP
 40
1.524
  9
$DIMJUST
 70
     0
  9
$DIMSD1
 70
     0
  9
$DIMSD2
 70
     0
  9
$DIMTOLJ
 70
     0
  9
$DIMTZIN
 70
     1
  9
$DIMALTZ
 70
     0
  9
$DIMALTTZ
 70
     0
  9
$DIMUPT
 70
     0
  9
$DIMDEC
 70
     4
  9
$DIMTDEC
 70
     4
  9
$DIMALTU
 70
     2
  9
$DIMALTTD
 70
     3
  9
$DIMTXSTY
  7
Standard
  9
$DIMAUNIT
 70
     0
  9
$DIMADEC
 70
     0
  9
$DIMALTRND
 40
0.0
  9
$DIMAZIN
 70
     0
  9
$DIMDSEP
 70
    44
  9
$DIMATFIT
 70
     3
  9
$DIMFRAC
 70
     0
  9
$DIMLDRBLK
  1

  9
$DIMLUNIT
 70
     2
  9
$DIMLWD
 70
    -2
  9
$DIMLWE
 70
    -2
  9
$DIMTMOVE
 70
     0
  9
$LUNITS
 70
     2
  9
$LUPREC
 70
     4
  9
$SKETCHINC
 40
1.0
  9
$FILLETRAD
 40
10.0
  9
$AUNITS
 70
     0
  9
$AUPREC
 70
     0
  9
$MENU
  1
.
  9
$ELEVATION
 40
0.0
  9
$PELEVATION
 40
0.0
  9
$THICKNESS
 40
0.0
  9
$LIMCHECK
 70
     0
  9
$CHAMFERA
 40
0.0
  9
$CHAMFERB
 40
0.0
  9
$CHAMFERC
 40
0.0
  9
$CHAMFERD
 40
0.0
  9
$SKPOLY
 70
     0
  9
$TDCREATE
 40
2458290.470352963
  9
$TDUCREATE
 40
2458290.095352963
  9
$TDUPDATE
 40
2458290.470363472
  9
$TDUUPDATE
 40
2458290.095363472
  9
$TDINDWG
 40
0.0000000116
  9
$TDUSRTIMER
 40
0.0000000116
  9
$USRTIMER
 70
     1
  9
$ANGBASE
 50
0.0
  9
$ANGDIR
 70
     0
  9
$PDMODE
 70
     0
  9
$PDSIZE
 40
-1.0
  9
$PLINEWID
 40
0.0
  9
$SPLFRAME
 70
     0
  9
$SPLINETYPE
 70
     6
  9
$SPLINESEGS
 70
     8
  9
$HANDSEED
  5
2A6
  9
$SURFTAB1
 70
     6
  9
$SURFTAB2
 70
     6
  9
$SURFTYPE
 70
     6
  9
$SURFU
 70
     6
  9
$SURFV
 70
     6
  9
$UCSBASE
  2

  9
$UCSNAME
  2

  9
$UCSORG
 10
0.0
 20
0.0
 30
0.0
  9
$UCSXDIR
 10
1.0
 20
0.0
 30
0.0
  9
$UCSYDIR
 10
0.0
 20
1.0
 30
0.0
  9
$UCSORTHOREF
  2

  9
$UCSORTHOVIEW
 70
     0
  9
$UCSORGTOP
 10
0.0
 20
0.0
 30
0.0
  9
$UCSORGBOTTOM
 10
0.0
 20
0.0
 30
0.0
  9
$UCSORGLEFT
 10
0.0
 20
0.0
 30
0.0
  9
$UCSORGRIGHT
 10
0.0
 20
0.0
 30
0.0
  9
$UCSORGFRONT
 10
0.0
 20
0.0
 30
0.0
  9
$UCSORGBACK
 10
0.0
 20
0.0
 30
0.0
  9
$PUCSBASE
  2

  9
$PUCSNAME
  2

  9
$PUCSORG
 10
0.0
 20
0.0
 30
0.0
  9
$PUCSXDIR
 10
1.0
 20
0.0
 30
0.0
  9
$PUCSYDIR
 10
0.0
 20
1.0
 30
0.0
  9
$PUCSORTHOREF
  2

  9
$PUCSORTHOVIEW
 70
     0
  9
$PUCSORGTOP
 10
0.0
 20
0.0
 30
0.0
  9
$PUCSORGBOTTOM
 10
0.0
 20
0.0
 30
0.0
  9
$PUCSORGLEFT
 10
0.0
 20
0.0
 30
0.0
  9
$PUCSORGRIGHT
 10
0.0
 20
0.0
 30
0.0
  9
$PUCSORGFRONT
 10
0.0
 20
0.0
 30
0.0
  9
$PUCSORGBACK
 10
0.0
 20
0.0
 30
0.0
  9
$USERI1
 70
     0
  9
$USERI2
 70
     0
  9
$USERI3
 70
     0
  9
$USERI4
 70
     0
  9
$USERI5
 70
     0
  9
$USERR1
 40
0.0
  9
$USERR2
 40
0.0
  9
$USERR3
 40
0.0
  9
$USERR4
 40
0.0
  9
$USERR5
 40
0.0
  9
$WORLDVIEW
 70
     1
  9
$SHADEDGE
 70
     3
  9
$SHADEDIF
 70
    70
  9
$TILEMODE
 70
     0
  9
$MAXACTVP
 70
    64
  9
$PINSBASE
 10
0.0
 20
0.0
 30
0.0
  9
$PLIMCHECK
 70
     0
  9
$PEXTMIN
 10
0.0
 20
0.0
 30
0.0
  9
$PEXTMAX
 10
420.0
 20
297.0
 30
0.0
  9
$PLIMMIN
 10
0.0
 20
0.0
  9
$PLIMMAX
 10
420.0
 20
297.0
  9
$UNITMODE
 70
     0
  9
$VISRETAIN
 70
     1
  9
$PLINEGEN
 70
     0
  9
$PSLTSCALE
 70
     1
  9
$TREEDEPTH
 70
  3020
  9
$CMLSTYLE
  2
Standard
  9
$CMLJUST
 70
     0
  9
$CMLSCALE
 40
20.0
  9
$PROXYGRAPHICS
 70
     1
  9
$MEASUREMENT
 70
     1
  9
$CELWEIGHT
370
    -1
  9
$ENDCAPS
280
     0
  9
$JOINSTYLE
280
     0
  9
$LWDISPLAY
290
     1
  9
$INSUNITS
 70
     4
  9
$HYPERLINKBASE
  1

  9
$STYLESHEET
  1

  9
$XEDIT
290
     1
  9
$CEPSNTYPE
380
     0
  9
$PSTYLEMODE
290
     1
  9
$FINGERPRINTGUID
  2
{53531ED8-527B-4B09-A064-48279FCB3282}
  9
$VERSIONGUID
  2
{FAEB1C32-E019-11D5-929B-00C0DF256EC4}
  9
$EXTNAMES
290
     1
  9
$PSVPSCALE
 40
0.0
  9
$OLESTARTUP
290
     0
  0
ENDSEC
  0
SECTION
  2
CLASSES
  0
CLASS
  1
ACDBDICTIONARYWDFLT
  2
AcDbDictionaryWithDefault
  3
ObjectDBX Classes
 90
        0
280
     0
281
     0
  0
CLASS
  1
VISUALSTYLE
  2
AcDbVisualStyle
  3
ObjectDBX Classes
 90
     4095
280
     0
281
     0
  0
CLASS
  1
MATERIAL
  2
AcDbMaterial
  3
ObjectDBX Classes
 90
     1153
280
     0
281
     0
  0
CLASS
  1
SCALE
  2
AcDbScale
  3
ObjectDBX Classes
 90
     1153
280
     0
281
     0
  0
CLASS
  1
TABLESTYLE
  2
AcDbTableStyle
  3
ObjectDBX Classes
 90
     4095
280
     0
281
     0
  0
CLASS
  1
MLEADERSTYLE
  2
AcDbMLeaderStyle
  3
ACDB_MLEADERSTYLE_CLASS
 90
     4095
280
     0
281
     0
  0
CLASS
  1
SUN
  2
AcDbSun
  3
SCENEOE
 90
     1153
280
     0
281
     0
  0
CLASS
  1
ACDBPLACEHOLDER
  2
AcDbPlaceHolder
  3
ObjectDBX Classes
 90
        0
280
     0
281
     0
  0
CLASS
  1
LAYOUT
  2
AcDbLayout
  3
ObjectDBX Classes
 90
        0
280
     0
281
     0
  0
ENDSEC
  0
SECTION
  2
TABLES
  0
TABLE
  2
VPORT
  5
8
330
0
100
AcDbSymbolTable
 70
     1
  0
VPORT
  5
29
330
8
100
AcDbSymbolTableRecord
100
AcDbViewportTableRecord
  2
*Active
 70
     0
 10
0.0
 20
0.0
 11
1.0
 21
1.0
 12
210.0
 22
148.5
 13
0.0
 23
0.0
 14
10.0
 24
10.0
 15
10.0
 25
10.0
 16
0.0
 26
0.0
 36
1.0
 17
0.0
 27
0.0
 37
0.0
 40
297.0
 41
1.4141414141
 42
50.0
 43
0.0
 44
0.0
 50
0.0
 51
0.0
 71
     0
 72
  2000
 73
     1
 74
     3
 75
     0
 76
     0
 77
     0
 78
     0
281
     0
 65
     1
110
0.0
120
0.0
130
0.0
111
1.0
121
0.0
131
0.0
112
0.0
122
1.0
132
0.0
 79
     0
146
0.0
  0
ENDTAB
  0
TABLE
  2
LTYPE
  5
5
330
0
100
AcDbSymbolTable
 70
     6
  0
LTYPE
  5
14
330
5
100
AcDbSymbolTableRecord
100
AcDbLinetypeTableRecord
  2
ByBlock
 70
     0
  3

 72
    65
 73
     0
 40
0.0
  0
LTYPE
  5
15
330
5
100
AcDbSymbolTableRecord
100
AcDbLinetypeTableRecord
  2
ByLayer
 70
     0
  3

 72
    65
 73
     0
 40
0.0
  0
LTYPE
  5
16
330
5
100
AcDbSymbolTableRecord
100
AcDbLinetypeTableRecord
  2
Continuous
 70
     0
  3
Solid line
 72
    65
 73
     0
 40
0.0
  0
LTYPE
  5
6E
330
5
100
AcDbSymbolTableRecord
100
AcDbLinetypeTableRecord
  2
HIDDEN
 70
     0
  3
Hidden __ __ __ __ __ __ __ __ __ __ __ __ __ __
 72
    65
 73
     2
 40
1.905
 49
1.27
 74
     0
 49
-0.635
 74
     0
  0
LTYPE
  5
6F
330
5
100
AcDbSymbolTableRecord
100
AcDbLinetypeTableRecord
  2
PHANTOM
 70
     0
  3
Phantom ______  __  __  ______  __  __  ______
 72
    65
 73
     6
 40
12.7
 49
6.35
 74
     0
 49
-1.27
 74
     0
 49
1.27
 74
     0
 49
-1.27
 74
     0
 49
1.27
 74
     0
 49
-1.27
 74
     0
  0
LTYPE
  5
70
330
5
100
AcDbSymbolTableRecord
100
AcDbLinetypeTableRecord
  2
CENTER
 70
     0
  3
Center ____ _ ____ _ ____ _ ____ _ ____ _ ____
 72
    65
 73
     4
 40
10.16
 49
6.35
 74
     0
 49
-1.27
 74
     0
 49
1.27
 74
     0
 49
-1.27
 74
     0
  0
LTYPE
  5
71
330
5
100
AcDbSymbolTableRecord
100
AcDbLinetypeTableRecord
  2
CENTERX2
 70
     0
  3
Center (2x) ________  __  ________  __  _____
 72
    65
 73
     4
 40
20.32
 49
12.7
 74
     0
 49
-2.54
 74
     0
 49
2.54
 74
     0
 49
-2.54
 74
     0
  0
LTYPE
  5
72
330
5
100
AcDbSymbolTableRecord
100
AcDbLinetypeTableRecord
  2
DOT2
 70
     0
  3
Dot (.5x) ........................................
 72
    65
 73
     2
 40
0.635
 49
0.0
 74
     0
 49
-0.635
 74
     0
  0
ENDTAB
  0
TABLE
  2
LAYER
  5
2
330
0
100
AcDbSymbolTable
 70
     5
  0
LAYER
  5
10
330
2
100
AcDbSymbolTableRecord
100
AcDbLayerTableRecord
  2
0
 70
     0
 62
     7
  6
Continuous
370
    -3
390
F
  0
LAYER
  5
73
330
2
100
AcDbSymbolTableRecord
100
AcDbLayerTableRecord
  2
SLD-0
 70
     0
 62
     7
  6
Continuous
370
    -3
390
F
  0
LAYER
  5
74
330
2
100
AcDbSymbolTableRecord
100
AcDbLayerTableRecord
  2
1
 70
     0
 62
     7
  6
Continuous
370
    -3
390
F
  0
LAYER
  5
75
330
2
100
AcDbSymbolTableRecord
100
AcDbLayerTableRecord
  2
2
 70
     0
 62
     7
  6
Continuous
370
    -3
390
F
  0
LAYER
  5
76
330
2
100
AcDbSymbolTableRecord
100
AcDbLayerTableRecord
  2
SLD-DEFPOINTS
 70
     0
 62
     7
  6
Continuous
290
     0
370
    -3
390
F
  0
ENDTAB
  0
TABLE
  2
STYLE
  5
3
330
0
100
AcDbSymbolTable
 70
    10
  0
STYLE
  5
11
330
3
100
AcDbSymbolTableRecord
100
AcDbTextStyleTableRecord
  2
Standard
 70
     0
 40
0.0
 41
1.0
 50
0.0
 71
     0
 42
3.5
  3
txt
  4
bigfont
  0
STYLE
  5
1AC
330
3
100
AcDbSymbolTableRecord
100
AcDbTextStyleTableRecord
  2
SLDTEXTSTYLE0
 70
     0
 40
0.0
 41
1.0
 50
0.0
 71
     0
 42
3.5
  3
TXT
  4
bigfont
  0
STYLE
  5
1BD
330
3
100
AcDbSymbolTableRecord
100
AcDbTextStyleTableRecord
  2
SLDTEXTSTYLE1
 70
     0
 40
0.0
 41
0.96
 50
0.0
 71
     0
 42
3.5
  3
TXT
  4
bigfont
  0
STYLE
  5
279
330
3
100
AcDbSymbolTableRecord
100
AcDbTextStyleTableRecord
  2
SLDTEXTSTYLE2
 70
     0
 40
0.0
 41
0.9999999787
 50
0.0
 71
     0
 42
3.5
  3
TXT
  4
bigfont
  0
STYLE
  5
27B
330
3
100
AcDbSymbolTableRecord
100
AcDbTextStyleTableRecord
  2
SLDTEXTSTYLE3
 70
     0
 40
0.0
 41
1.0000000146
 50
0.0
 71
     0
 42
3.5
  3
TXT
  4
bigfont
  0
STYLE
  5
280
330
3
100
AcDbSymbolTableRecord
100
AcDbTextStyleTableRecord
  2
SLDTEXTSTYLE4
 70
     0
 40
0.0
 41
0.6999999936
 50
0.0
 71
     0
 42
3.5
  3
TXT
  4
bigfont
  0
STYLE
  5
28A
330
3
100
AcDbSymbolTableRecord
100
AcDbTextStyleTableRecord
  2
SLDTEXTSTYLE5
 70
     0
 40
0.0
 41
0.7000000362
 50
0.0
 71
     0
 42
3.5
  3
TXT
  4
bigfont
  0
STYLE
  5
28C
330
3
100
AcDbSymbolTableRecord
100
AcDbTextStyleTableRecord
  2
SLDTEXTSTYLE6
 70
     0
 40
0.0
 41
0.7000000176
 50
0.0
 71
     0
 42
3.5
  3
TXT
  4
bigfont
  0
STYLE
  5
28E
330
3
100
AcDbSymbolTableRecord
100
AcDbTextStyleTableRecord
  2
SLDTEXTSTYLE7
 70
     0
 40
0.0
 41
0.6999999741
 50
0.0
 71
     0
 42
3.5
  3
TXT
  4
bigfont
  0
STYLE
  5
2A3
330
3
100
AcDbSymbolTableRecord
100
AcDbTextStyleTableRecord
  2
SLDTEXTSTYLE8
 70
     0
 40
0.0
 41
0.3054298643
 50
0.0
 71
     0
 42
3.5
  3
TXT
  4
bigfont
  0
ENDTAB
  0
TABLE
  2
VIEW
  5
6
330
0
100
AcDbSymbolTable
 70
     0
  0
ENDTAB
  0
TABLE
  2
UCS
  5
7
330
0
100
AcDbSymbolTable
 70
     0
  0
ENDTAB
  0
TABLE
  2
APPID
  5
9
330
0
100
AcDbSymbolTable
 70
     1
  0
APPID
  5
12
330
9
100
AcDbSymbolTableRecord
100
AcDbRegAppTableRecord
  2
ACAD
 70
     0
  0
ENDTAB
  0
TABLE
  2
DIMSTYLE
  5
A
330
0
100
AcDbSymbolTable
 70
     4
100
AcDbDimStyleTable
  0
DIMSTYLE
105
27
330
A
100
AcDbSymbolTableRecord
100
AcDbDimStyleTableRecord
  2
ISO-25
 70
     0
 41
2.5
 42
0.625
 43
3.75
 44
1.25
 73
     0
 74
     0
 77
     1
 78
     8
140
2.5
141
2.5
143
0.0393700787
147
0.625
171
     3
172
     1
178
     0
271
     2
272
     2
274
     3
278
    44
283
     0
284
     8
340
11
  0
DIMSTYLE
105
1AD
102
{ACAD_REACTORS
330
1AB
330
1DA
330
1E8
330
1F6
330
204
330
212
330
220
330
22F
330
23E
330
24C
102
}
330
A
100
AcDbSymbolTableRecord
100
AcDbDimStyleTableRecord
  2
SLDDIMSTYLE0
 70
     0
 41
3.302
 44
0.0
 45
0.000000001
 73
     0
 74
     0
 77
     1
 78
    12
 79
     3
140
2.9104166031
147
0.7276041508
173
     1
178
     0
271
     0
276
     2
284
    12
340
1AC
341
1AE
343
1AE
344
1AE
  0
DIMSTYLE
105
1C0
102
{ACAD_REACTORS
330
1BF
330
1CD
102
}
330
A
100
AcDbSymbolTableRecord
100
AcDbDimStyleTableRecord
  2
SLDDIMSTYLE1
 70
     0
 41
3.302
 44
0.0
 45
0.000000001
 73
     0
 74
     0
 77
     1
 78
     4
 79
     1
140
2.9104166031
141
0.0
147
0.7276041508
172
     1
173
     1
178
     0
276
     2
284
    12
340
1AC
341
1AE
343
1AE
344
1AE
  0
DIMSTYLE
105
25D
102
{ACAD_REACTORS
330
25C
330
26B
102
}
330
A
100
AcDbSymbolTableRecord
100
AcDbDimStyleTableRecord
  2
SLDDIMSTYLE2
 70
     0
 41
3.302
 44
0.0
 45
0.000000001
 73
     0
 74
     0
 77
     1
 78
    12
 79
     3
140
2.9104166031
147
0.7276041508
173
     1
178
     0
271
     1
276
     2
284
    12
340
1AC
341
1AE
343
1AE
344
1AE
  0
ENDTAB
  0
TABLE
  2
BLOCK_RECORD
  5
1
330
0
100
AcDbSymbolTable
 70
    16
  0
BLOCK_RECORD
  5
1F
330
1
100
AcDbSymbolTableRecord
100
AcDbBlockTableRecord
  2
*Model_Space
340
22
  0
BLOCK_RECORD
  5
1B
330
1
100
AcDbSymbolTableRecord
100
AcDbBlockTableRecord
  2
*Paper_Space
340
1E
  0
BLOCK_RECORD
  5
1AE
330
1
100
AcDbSymbolTableRecord
100
AcDbBlockTableRecord
  2
_NONE
340
0
  0
BLOCK_RECORD
  5
1B1
330
1
100
AcDbSymbolTableRecord
100
AcDbBlockTableRecord
  2
_D
340
0
  0
BLOCK_RECORD
  5
1C1
330
1
100
AcDbSymbolTableRecord
100
AcDbBlockTableRecord
  2
_D_1
340
0
  0
BLOCK_RECORD
  5
1CE
330
1
100
AcDbSymbolTableRecord
100
AcDbBlockTableRecord
  2
_D_2
340
0
  0
BLOCK_RECORD
  5
1DB
330
1
100
AcDbSymbolTableRecord
100
AcDbBlockTableRecord
  2
_D_3
340
0
  0
BLOCK_RECORD
  5
1E9
330
1
100
AcDbSymbolTableRecord
100
AcDbBlockTableRecord
  2
_D_4
340
0
  0
BLOCK_RECORD
  5
1F7
330
1
100
AcDbSymbolTableRecord
100
AcDbBlockTableRecord
  2
_D_5
340
0
  0
BLOCK_RECORD
  5
205
330
1
100
AcDbSymbolTableRecord
100
AcDbBlockTableRecord
  2
_D_6
340
0
  0
BLOCK_RECORD
  5
213
330
1
100
AcDbSymbolTableRecord
100
AcDbBlockTableRecord
  2
_D_7
340
0
  0
BLOCK_RECORD
  5
221
330
1
100
AcDbSymbolTableRecord
100
AcDbBlockTableRecord
  2
_D_8
340
0
  0
BLOCK_RECORD
  5
230
330
1
100
AcDbSymbolTableRecord
100
AcDbBlockTableRecord
  2
_D_9
340
0
  0
BLOCK_RECORD
  5
23F
330
1
100
AcDbSymbolTableRecord
100
AcDbBlockTableRecord
  2
_D_10
340
0
  0
BLOCK_RECORD
  5
24D
330
1
100
AcDbSymbolTableRecord
100
AcDbBlockTableRecord
  2
_D_11
340
0
  0
BLOCK_RECORD
  5
25E
330
1
100
AcDbSymbolTableRecord
100
AcDbBlockTableRecord
  2
_D_12
340
0
  0
BLOCK_RECORD
  5
26C
330
1
100
AcDbSymbolTableRecord
100
AcDbBlockTableRecord
  2
_D_13
340
0
  0
ENDTAB
  0
ENDSEC
  0
SECTION
  2
BLOCKS
  0
BLOCK
  5
20
330
1F
100
AcDbEntity
  8
0
100
AcDbBlockBegin
  2
*Model_Space
 70
     0
 10
0.0
 20
0.0
 30
0.0
  3
*Model_Space
  1

  0
ENDBLK
  5
21
330
1F
100
AcDbEntity
  8
0
100
AcDbBlockEnd
  0
BLOCK
  5
1C
330
1B
100
AcDbEntity
 67
     1
  8
0
100
AcDbBlockBegin
  2
*Paper_Space
 70
     0
 10
0.0
 20
0.0
 30
0.0
  3
*Paper_Space
  1

  0
ENDBLK
  5
1D
330
1B
100
AcDbEntity
 67
     1
  8
0
100
AcDbBlockEnd
  0
BLOCK
  5
1AF
330
1AE
100
AcDbEntity
  8
0
100
AcDbBlockBegin
  2
_NONE
 70
     0
 10
0.0
 20
0.0
 30
0.0
  3
_NONE
  1

  0
ENDBLK
  5
1B0
330
1AE
100
AcDbEntity
  8
0
100
AcDbBlockEnd
  0
BLOCK
  5
1B2
330
1B1
100
AcDbEntity
  8
0
100
AcDbBlockBegin
  2
_D
 70
     0
 10
0.0
 20
0.0
 30
0.0
  3
_D
  1

  0
LINE
  5
1B4
330
1B1
100
AcDbEntity
  8
SLD-0
 62
     7
100
AcDbLine
 10
59.5256979169
 20
63.8427064942
 30
0.0
 11
263.5256980071
 21
63.8427064942
 31
0.0
  0
LINE
  5
1B5
330
1B1
100
AcDbEntity
  8
SLD-0
 62
     7
100
AcDbLine
 10
56.525697962
 20
63.8427064942
 30
0.0
 11
59.5256979169
 21
64.8427064792
 31
0.0
  0
LINE
  5
1B6
330
1B1
100
AcDbEntity
  8
SLD-0
 62
     7
100
AcDbLine
 10
56.525697962
 20
63.8427064942
 30
0.0
 11
59.5256979169
 21
62.8427065092
 31
0.0
  0
LINE
  5
1B7
330
1B1
100
AcDbEntity
  8
SLD-0
 62
     7
100
AcDbLine
 10
56.525697962
 20
63.8427064942
 30
0.0
 11
59.5256979169
 21
63.8427064942
 31
0.0
  0
LINE
  5
1B8
330
1B1
100
AcDbEntity
  8
SLD-0
 62
     7
100
AcDbLine
 10
266.525697962
 20
63.8427064942
 30
0.0
 11
263.5256980071
 21
62.8427065092
 31
0.0
  0
LINE
  5
1B9
330
1B1
100
AcDbEntity
  8
SLD-0
 62
     7
100
AcDbLine
 10
266.525697962
 20
63.8427064942
 30
0.0
 11
263.5256980071
 21
64.8427064792
 31
0.0
  0
LINE
  5
1BA
330
1B1
100
AcDbEntity
  8
SLD-0
 62
     7
100
AcDbLine
 10
266.525697962
 20
63.8427064942
 30
0.0
 11
263.5256980071
 21
63.8427064942
 31
0.0
  0
LINE
  5
1BB
330
1B1
100
AcDbEntity
  8
SLD-0
 62
     7
100
AcDbLine
 10
56.525697962
 20
66.6137911739
 30
0.0
 11
56.525697962
 21
62.3427064942
 31
0.0
  0
LINE
  5
1BC
330
1B1
100
AcDbEntity
  8
SLD-0
 62
     7
100
AcDbLine
 10
266.525697962
 20
66.7584787623
 30
0.0
 11
266.525697962
 21
62.3427064942
 31
0.0
  0
MTEXT
  5
1BE
330
1B1
100
AcDbEntity
  8
SLD-0
 62
     7
100
AcDbMText
 10
157.575717107
 20
67.2625592844
 30
0.0
 40
2.9104166031
 41
0.0
 71
     1
 72
     1
  1
210
  7
SLDTEXTSTYLE1
 73
     1
 44
1.0
  0
ENDBLK
  5
1B3
330
1B1
100
AcDbEntity
  8
0
100
AcDbBlockEnd
  0
BLOCK
  5
1C2
330
1C1
100
AcDbEntity
  8
0
100
AcDbBlockBegin
  2
_D_1
 70
     0
 10
0.0
 20
0.0
 30
0.0
  3
_D_1
  1

  0
LINE
  5
1C4
330
1C1
100
AcDbEntity
  8
SLD-0
 62
     7
100
AcDbLine
 10
74.1929842755
 20
122.5307531449
 30
0.0
 11
88.6888244619
 21
137.0436269903
 31
0.0
  0
LINE
  5
1C5
330
1C1
100
AcDbEntity
  8
SLD-0
 62
     7
100
AcDbLine
 10
40.9784859743
 20
89.2772254098
 30
0.0
 11
72.0729099497
 21
120.4081875787
 31
0.0
  0
LINE
  5
1C6
330
1C1
100
AcDbEntity
  8
SLD-0
 62
     7
100
AcDbLine
 10
38.8584116485
 20
87.1546598436
 30
0.0
 11
40.2709641189
 21
89.9839168517
 31
0.0
  0
LINE
  5
1C7
330
1C1
100
AcDbEntity
  8
SLD-0
 62
     7
100
AcDbLine
 10
38.8584116485
 20
87.1546598436
 30
0.0
 11
41.6860078297
 21
88.5705339679
 31
0.0
  0
LINE
  5
1C8
330
1C1
100
AcDbEntity
  8
SLD-0
 62
     7
100
AcDbLine
 10
38.8584116485
 20
87.1546598436
 30
0.0
 11
40.9784859743
 21
89.2772254098
 31
0.0
  0
LINE
  5
1C9
330
1C1
100
AcDbEntity
  8
SLD-0
 62
     7
100
AcDbLine
 10
74.1929842755
 20
122.5307531449
 30
0.0
 11
72.7804318051
 21
119.7014961368
 31
0.0
  0
LINE
  5
1CA
330
1C1
100
AcDbEntity
  8
SLD-0
 62
     7
100
AcDbLine
 10
74.1929842755
 20
122.5307531449
 30
0.0
 11
71.3653880943
 21
121.1148790206
 31
0.0
  0
LINE
  5
1CB
330
1C1
100
AcDbEntity
  8
SLD-0
 62
     7
100
AcDbLine
 10
74.1929842755
 20
122.5307531449
 30
0.0
 11
72.0729099497
 21
120.4081875787
 31
0.0
  0
MTEXT
  5
1CC
330
1C1
100
AcDbEntity
  8
SLD-0
 62
     7
100
AcDbMText
 10
83.7719012689
 20
136.9622430555
 30
0.0
 40
2.9104166031
 41
0.0
 71
     1
 72
     1
  1
%%c
  7
SLDTEXTSTYLE1
 11
0.7071067811865474
 21
0.7071067811865477
 31
0.0
 73
     1
 44
1.0
  0
ENDBLK
  5
1C3
330
1C1
100
AcDbEntity
  8
0
100
AcDbBlockEnd
  0
BLOCK
  5
1CF
330
1CE
100
AcDbEntity
  8
0
100
AcDbBlockBegin
  2
_D_2
 70
     0
 10
0.0
 20
0.0
 30
0.0
  3
_D_2
  1

  0
LINE
  5
1D1
330
1CE
100
AcDbEntity
  8
SLD-0
 62
     7
100
AcDbLine
 10
249.7282387449
 20
123.3587904174
 30
0.0
 11
237.5206021256
 21
136.8154460476
 31
0.0
  0
LINE
  5
1D2
330
1CE
100
AcDbEntity
  8
SLD-0
 62
     7
100
AcDbLine
 10
281.3074621033
 20
88.5485526085
 30
0.0
 11
251.7439338207
 21
121.13686038
 31
0.0
  0
LINE
  5
1D3
330
1CE
100
AcDbEntity
  8
SLD-0
 62
     7
100
AcDbLine
 10
283.3231571791
 20
86.3266225711
 30
0.0
 11
280.5668187575
 21
87.8766542499
 31
0.0
  0
LINE
  5
1D4
330
1CE
100
AcDbEntity
  8
SLD-0
 62
     7
100
AcDbLine
 10
283.3231571791
 20
86.3266225711
 30
0.0
 11
282.0481054491
 21
89.2204509671
 31
0.0
  0
LINE
  5
1D5
330
1CE
100
AcDbEntity
  8
SLD-0
 62
     7
100
AcDbLine
 10
283.3231571791
 20
86.3266225711
 30
0.0
 11
281.3074621033
 21
88.5485526085
 31
0.0
  0
LINE
  5
1D6
330
1CE
100
AcDbEntity
  8
SLD-0
 62
     7
100
AcDbLine
 10
249.7282387449
 20
123.3587904174
 30
0.0
 11
252.4845771665
 21
121.8087587386
 31
0.0
  0
LINE
  5
1D7
330
1CE
100
AcDbEntity
  8
SLD-0
 62
     7
100
AcDbLine
 10
249.7282387449
 20
123.3587904174
 30
0.0
 11
251.0032904749
 21
120.4649620214
 31
0.0
  0
LINE
  5
1D8
330
1CE
100
AcDbEntity
  8
SLD-0
 62
     7
100
AcDbLine
 10
249.7282387449
 20
123.3587904174
 30
0.0
 11
251.7439338207
 21
121.13686038
 31
0.0
  0
MTEXT
  5
1D9
330
1CE
100
AcDbEntity
  8
SLD-0
 62
     7
100
AcDbMText
 10
239.0767363988
 20
140.1908243526
 30
0.0
 40
2.9104166031
 41
0.0
 71
     1
 72
     1
  1
%%c
  7
SLDTEXTSTYLE1
 11
0.6717205893229909
 21
-0.7408045962867493
 31
0.0
 73
     1
 44
1.0
  0
ENDBLK
  5
1D0
330
1CE
100
AcDbEntity
  8
0
100
AcDbBlockEnd
  0
BLOCK
  5
1DC
330
1DB
100
AcDbEntity
  8
0
100
AcDbBlockBegin
  2
_D_3
 70
     0
 10
0.0
 20
0.0
 30
0.0
  3
_D_3
  1

  0
LINE
  5
1DE
330
1DB
100
AcDbEntity
  8
SLD-0
 62
     7
100
AcDbLine
 10
323.05073747
 20
63.8427064942
 30
0.0
 11
314.0507373798
 21
63.8427064942
 31
0.0
  0
LINE
  5
1DF
330
1DB
100
AcDbEntity
  8
SLD-0
 62
     7
100
AcDbLine
 10
326.0507374249
 20
63.8427064942
 30
0.0
 11
323.05073747
 21
62.8427065092
 31
0.0
  0
LINE
  5
1E0
330
1DB
100
AcDbEntity
  8
SLD-0
 62
     7
100
AcDbLine
 10
326.0507374249
 20
63.8427064942
 30
0.0
 11
323.05073747
 21
64.8427064792
 31
0.0
  0
LINE
  5
1E1
330
1DB
100
AcDbEntity
  8
SLD-0
 62
     7
100
AcDbLine
 10
326.0507374249
 20
63.8427064942
 30
0.0
 11
323.05073747
 21
63.8427064942
 31
0.0
  0
LINE
  5
1E2
330
1DB
100
AcDbEntity
  8
SLD-0
 62
     7
100
AcDbLine
 10
311.0507374249
 20
63.8427064942
 30
0.0
 11
314.0507373798
 21
64.8427064792
 31
0.0
  0
LINE
  5
1E3
330
1DB
100
AcDbEntity
  8
SLD-0
 62
     7
100
AcDbLine
 10
311.0507374249
 20
63.8427064942
 30
0.0
 11
314.0507373798
 21
62.8427065092
 31
0.0
  0
LINE
  5
1E4
330
1DB
100
AcDbEntity
  8
SLD-0
 62
     7
100
AcDbLine
 10
311.0507374249
 20
63.8427064942
 30
0.0
 11
314.0507373798
 21
63.8427064942
 31
0.0
  0
LINE
  5
1E5
330
1DB
100
AcDbEntity
  8
SLD-0
 62
     7
100
AcDbLine
 10
326.0507374249
 20
103.3427065167
 30
0.0
 11
326.0507374249
 21
62.3427064942
 31
0.0
  0
LINE
  5
1E6
330
1DB
100
AcDbEntity
  8
SLD-0
 62
     7
100
AcDbLine
 10
311.0507374249
 20
97.3427065167
 30
0.0
 11
311.0507374249
 21
62.3427064942
 31
0.0
  0
MTEXT
  5
1E7
330
1DB
100
AcDbEntity
  8
SLD-0
 62
     7
100
AcDbMText
 10
316.0559648119
 20
67.2625592844
 30
0.0
 40
2.9104166031
 41
0.0
 71
     1
 72
     1
  1
15
  7
SLDTEXTSTYLE1
 73
     1
 44
1.0
  0
ENDBLK
  5
1DD
330
1DB
100
AcDbEntity
  8
0
100
AcDbBlockEnd
  0
BLOCK
  5
1EA
330
1E9
100
AcDbEntity
  8
0
100
AcDbBlockBegin
  2
_D_4
 70
     0
 10
0.0
 20
0.0
 30
0.0
  3
_D_4
  1

  0
LINE
  5
1EC
330
1E9
100
AcDbEntity
  8
SLD-0
 62
     7
100
AcDbLine
 10
405.3007374249
 20
117.8427065393
 30
0.0
 11
405.3007374249
 21
91.8427064491
 31
0.0
  0
LINE
  5
1ED
330
1E9
100
AcDbEntity
  8
SLD-0
 62
     7
100
AcDbLine
 10
405.3007374249
 20
120.8427064942
 30
0.0
 11
406.3007374099
 21
117.8427065393
 31
0.0
  0
LINE
  5
1EE
330
1E9
100
AcDbEntity
  8
SLD-0
 62
     7
100
AcDbLine
 10
405.3007374249
 20
120.8427064942
 30
0.0
 11
404.3007374399
 21
117.8427065393
 31
0.0
  0
LINE
  5
1EF
330
1E9
100
AcDbEntity
  8
SLD-0
 62
     7
100
AcDbLine
 10
405.3007374249
 20
120.8427064942
 30
0.0
 11
405.3007374249
 21
117.8427065393
 31
0.0
  0
LINE
  5
1F0
330
1E9
100
AcDbEntity
  8
SLD-0
 62
     7
100
AcDbLine
 10
405.3007374249
 20
88.8427064942
 30
0.0
 11
404.3007374399
 21
91.8427064491
 31
0.0
  0
LINE
  5
1F1
330
1E9
100
AcDbEntity
  8
SLD-0
 62
     7
100
AcDbLine
 10
405.3007374249
 20
88.8427064942
 30
0.0
 11
406.3007374099
 21
91.8427064491
 31
0.0
  0
LINE
  5
1F2
330
1E9
100
AcDbEntity
  8
SLD-0
 62
     7
100
AcDbLine
 10
405.3007374249
 20
88.8427064942
 30
0.0
 11
405.3007374249
 21
91.8427064491
 31
0.0
  0
LINE
  5
1F3
330
1E9
100
AcDbEntity
  8
SLD-0
 62
     7
100
AcDbLine
 10
393.8007374024
 20
120.8427064942
 30
0.0
 11
406.8007374249
 21
120.8427064942
 31
0.0
  0
LINE
  5
1F4
330
1E9
100
AcDbEntity
  8
SLD-0
 62
     7
100
AcDbLine
 10
393.8007374024
 20
88.8427064942
 30
0.0
 11
406.8007374249
 21
88.8427064942
 31
0.0
  0
MTEXT
  5
1F5
330
1E9
100
AcDbEntity
  8
SLD-0
 62
     7
100
AcDbMText
 10
401.8808846347
 20
102.3479338812
 30
0.0
 40
2.9104166031
 41
0.0
 71
     1
 72
     1
  1
32
  7
SLDTEXTSTYLE1
 11
-3.828568698926949E-16
 21
1.0
 31
0.0
 73
     1
 44
1.0
  0
ENDBLK
  5
1EB
330
1E9
100
AcDbEntity
  8
0
100
AcDbBlockEnd
  0
BLOCK
  5
1F8
330
1F7
100
AcDbEntity
  8
0
100
AcDbBlockBegin
  2
_D_5
 70
     0
 10
0.0
 20
0.0
 30
0.0
  3
_D_5
  1

  0
LINE
  5
1FA
330
1F7
100
AcDbEntity
  8
SLD-0
 62
     7
100
AcDbLine
 10
263.5256980071
 20
166.075222182
 30
0.0
 11
243.5256979169
 21
166.075222182
 31
0.0
  0
LINE
  5
1FB
330
1F7
100
AcDbEntity
  8
SLD-0
 62
     7
100
AcDbLine
 10
266.525697962
 20
166.075222182
 30
0.0
 11
263.5256980071
 21
165.075222197
 31
0.0
  0
LINE
  5
1FC
330
1F7
100
AcDbEntity
  8
SLD-0
 62
     7
100
AcDbLine
 10
266.525697962
 20
166.075222182
 30
0.0
 11
263.5256980071
 21
167.075222167
 31
0.0
  0
LINE
  5
1FD
330
1F7
100
AcDbEntity
  8
SLD-0
 62
     7
100
AcDbLine
 10
266.525697962
 20
166.075222182
 30
0.0
 11
263.5256980071
 21
166.075222182
 31
0.0
  0
LINE
  5
1FE
330
1F7
100
AcDbEntity
  8
SLD-0
 62
     7
100
AcDbLine
 10
240.525697962
 20
166.075222182
 30
0.0
 11
243.5256979169
 21
167.075222167
 31
0.0
  0
LINE
  5
1FF
330
1F7
100
AcDbEntity
  8
SLD-0
 62
     7
100
AcDbLine
 10
240.525697962
 20
166.075222182
 30
0.0
 11
243.5256979169
 21
165.075222197
 31
0.0
  0
LINE
  5
200
330
1F7
100
AcDbEntity
  8
SLD-0
 62
     7
100
AcDbLine
 10
240.525697962
 20
166.075222182
 30
0.0
 11
243.5256979169
 21
166.075222182
 31
0.0
  0
LINE
  5
201
330
1F7
100
AcDbEntity
  8
SLD-0
 62
     7
100
AcDbLine
 10
266.525697962
 20
208.6752222045
 30
0.0
 11
266.525697962
 21
164.575222182
 31
0.0
  0
LINE
  5
202
330
1F7
100
AcDbEntity
  8
SLD-0
 62
     7
100
AcDbLine
 10
240.525697962
 20
180.8752222045
 30
0.0
 11
240.525697962
 21
164.575222182
 31
0.0
  0
MTEXT
  5
203
330
1F7
100
AcDbEntity
  8
SLD-0
 62
     7
100
AcDbMText
 10
251.030925349
 20
169.4950749722
 30
0.0
 40
2.9104166031
 41
0.0
 71
     1
 72
     1
  1
26
  7
SLDTEXTSTYLE1
 73
     1
 44
1.0
  0
ENDBLK
  5
1F9
330
1F7
100
AcDbEntity
  8
0
100
AcDbBlockEnd
  0
BLOCK
  5
206
330
205
100
AcDbEntity
  8
0
100
AcDbBlockBegin
  2
_D_6
 70
     0
 10
0.0
 20
0.0
 30
0.0
  3
_D_6
  1

  0
LINE
  5
208
330
205
100
AcDbEntity
  8
SLD-0
 62
     7
100
AcDbLine
 10
59.5256979169
 20
166.075222182
 30
0.0
 11
79.5256980071
 21
166.075222182
 31
0.0
  0
LINE
  5
209
330
205
100
AcDbEntity
  8
SLD-0
 62
     7
100
AcDbLine
 10
56.525697962
 20
166.075222182
 30
0.0
 11
59.5256979169
 21
167.075222167
 31
0.0
  0
LINE
  5
20A
330
205
100
AcDbEntity
  8
SLD-0
 62
     7
100
AcDbLine
 10
56.525697962
 20
166.075222182
 30
0.0
 11
59.5256979169
 21
165.075222197
 31
0.0
  0
LINE
  5
20B
330
205
100
AcDbEntity
  8
SLD-0
 62
     7
100
AcDbLine
 10
56.525697962
 20
166.075222182
 30
0.0
 11
59.5256979169
 21
166.075222182
 31
0.0
  0
LINE
  5
20C
330
205
100
AcDbEntity
  8
SLD-0
 62
     7
100
AcDbLine
 10
82.525697962
 20
166.075222182
 30
0.0
 11
79.5256980071
 21
165.075222197
 31
0.0
  0
LINE
  5
20D
330
205
100
AcDbEntity
  8
SLD-0
 62
     7
100
AcDbLine
 10
82.525697962
 20
166.075222182
 30
0.0
 11
79.5256980071
 21
167.075222167
 31
0.0
  0
LINE
  5
20E
330
205
100
AcDbEntity
  8
SLD-0
 62
     7
100
AcDbLine
 10
82.525697962
 20
166.075222182
 30
0.0
 11
79.5256980071
 21
166.075222182
 31
0.0
  0
LINE
  5
20F
330
205
100
AcDbEntity
  8
SLD-0
 62
     7
100
AcDbLine
 10
56.525697962
 20
208.6752222045
 30
0.0
 11
56.525697962
 21
164.575222182
 31
0.0
  0
LINE
  5
210
330
205
100
AcDbEntity
  8
SLD-0
 62
     7
100
AcDbLine
 10
82.525697962
 20
180.8752222045
 30
0.0
 11
82.525697962
 21
164.575222182
 31
0.0
  0
MTEXT
  5
211
330
205
100
AcDbEntity
  8
SLD-0
 62
     7
100
AcDbMText
 10
67.030925349
 20
169.4950749722
 30
0.0
 40
2.9104166031
 41
0.0
 71
     1
 72
     1
  1
26
  7
SLDTEXTSTYLE1
 73
     1
 44
1.0
  0
ENDBLK
  5
207
330
205
100
AcDbEntity
  8
0
100
AcDbBlockEnd
  0
BLOCK
  5
214
330
213
100
AcDbEntity
  8
0
100
AcDbBlockBegin
  2
_D_7
 70
     0
 10
0.0
 20
0.0
 30
0.0
  3
_D_7
  1

  0
LINE
  5
216
330
213
100
AcDbEntity
  8
SLD-0
 62
     7
100
AcDbLine
 10
85.5256979169
 20
166.075222182
 30
0.0
 11
237.5256980071
 21
166.075222182
 31
0.0
  0
LINE
  5
217
330
213
100
AcDbEntity
  8
SLD-0
 62
     7
100
AcDbLine
 10
82.525697962
 20
166.075222182
 30
0.0
 11
85.5256979169
 21
167.075222167
 31
0.0
  0
LINE
  5
218
330
213
100
AcDbEntity
  8
SLD-0
 62
     7
100
AcDbLine
 10
82.525697962
 20
166.075222182
 30
0.0
 11
85.5256979169
 21
165.075222197
 31
0.0
  0
LINE
  5
219
330
213
100
AcDbEntity
  8
SLD-0
 62
     7
100
AcDbLine
 10
82.525697962
 20
166.075222182
 30
0.0
 11
85.5256979169
 21
166.075222182
 31
0.0
  0
LINE
  5
21A
330
213
100
AcDbEntity
  8
SLD-0
 62
     7
100
AcDbLine
 10
240.525697962
 20
166.075222182
 30
0.0
 11
237.5256980071
 21
165.075222197
 31
0.0
  0
LINE
  5
21B
330
213
100
AcDbEntity
  8
SLD-0
 62
     7
100
AcDbLine
 10
240.525697962
 20
166.075222182
 30
0.0
 11
237.5256980071
 21
167.075222167
 31
0.0
  0
LINE
  5
21C
330
213
100
AcDbEntity
  8
SLD-0
 62
     7
100
AcDbLine
 10
240.525697962
 20
166.075222182
 30
0.0
 11
237.5256980071
 21
166.075222182
 31
0.0
  0
LINE
  5
21D
330
213
100
AcDbEntity
  8
SLD-0
 62
     7
100
AcDbLine
 10
82.525697962
 20
180.9752222045
 30
0.0
 11
82.525697962
 21
164.575222182
 31
0.0
  0
LINE
  5
21E
330
213
100
AcDbEntity
  8
SLD-0
 62
     7
100
AcDbLine
 10
240.525697962
 20
180.9752222045
 30
0.0
 11
240.525697962
 21
164.575222182
 31
0.0
  0
MTEXT
  5
21F
330
213
100
AcDbEntity
  8
SLD-0
 62
     7
100
AcDbMText
 10
157.575717107
 20
169.4950749722
 30
0.0
 40
2.9104166031
 41
0.0
 71
     1
 72
     1
  1
158
  7
SLDTEXTSTYLE1
 73
     1
 44
1.0
  0
ENDBLK
  5
215
330
213
100
AcDbEntity
  8
0
100
AcDbBlockEnd
  0
BLOCK
  5
222
330
221
100
AcDbEntity
  8
0
100
AcDbBlockBegin
  2
_D_8
 70
     0
 10
0.0
 20
0.0
 30
0.0
  3
_D_8
  1

  0
LINE
  5
224
330
221
100
AcDbEntity
  8
SLD-0
 62
     7
100
AcDbLine
 10
49.025697962
 20
172.075222182
 30
0.0
 11
37.0464704949
 21
172.075222182
 31
0.0
  0
LINE
  5
225
330
221
100
AcDbEntity
  8
SLD-0
 62
     7
100
AcDbLine
 10
52.0256979169
 20
172.075222182
 30
0.0
 11
61.0256980071
 21
172.075222182
 31
0.0
  0
LINE
  5
226
330
221
100
AcDbEntity
  8
SLD-0
 62
     7
100
AcDbLine
 10
49.025697962
 20
172.075222182
 30
0.0
 11
52.0256979169
 21
173.075222167
 31
0.0
  0
LINE
  5
227
330
221
100
AcDbEntity
  8
SLD-0
 62
     7
100
AcDbLine
 10
49.025697962
 20
172.075222182
 30
0.0
 11
52.0256979169
 21
171.075222197
 31
0.0
  0
LINE
  5
228
330
221
100
AcDbEntity
  8
SLD-0
 62
     7
100
AcDbLine
 10
49.025697962
 20
172.075222182
 30
0.0
 11
52.0256979169
 21
172.075222182
 31
0.0
  0
LINE
  5
229
330
221
100
AcDbEntity
  8
SLD-0
 62
     7
100
AcDbLine
 10
64.025697962
 20
172.075222182
 30
0.0
 11
61.0256980071
 21
171.075222197
 31
0.0
  0
LINE
  5
22A
330
221
100
AcDbEntity
  8
SLD-0
 62
     7
100
AcDbLine
 10
64.025697962
 20
172.075222182
 30
0.0
 11
61.0256980071
 21
173.075222167
 31
0.0
  0
LINE
  5
22B
330
221
100
AcDbEntity
  8
SLD-0
 62
     7
100
AcDbLine
 10
64.025697962
 20
172.075222182
 30
0.0
 11
61.0256980071
 21
172.075222182
 31
0.0
  0
LINE
  5
22C
330
221
100
AcDbEntity
  8
SLD-0
 62
     7
100
AcDbLine
 10
49.025697962
 20
208.5752222045
 30
0.0
 11
49.025697962
 21
170.575222182
 31
0.0
  0
LINE
  5
22D
330
221
100
AcDbEntity
  8
SLD-0
 62
     7
100
AcDbLine
 10
64.025697962
 20
208.5752222045
 30
0.0
 11
64.025697962
 21
170.575222182
 31
0.0
  0
MTEXT
  5
22E
330
221
100
AcDbEntity
  8
SLD-0
 62
     7
100
AcDbMText
 10
37.0464704949
 20
175.4950749722
 30
0.0
 40
2.9104166031
 41
0.0
 71
     1
 72
     1
  1
15
  7
SLDTEXTSTYLE1
 73
     1
 44
1.0
  0
ENDBLK
  5
223
330
221
100
AcDbEntity
  8
0
100
AcDbBlockEnd
  0
BLOCK
  5
231
330
230
100
AcDbEntity
  8
0
100
AcDbBlockBegin
  2
_D_9
 70
     0
 10
0.0
 20
0.0
 30
0.0
  3
_D_9
  1

  0
LINE
  5
233
330
230
100
AcDbEntity
  8
SLD-0
 62
     7
100
AcDbLine
 10
274.025697962
 20
172.075222182
 30
0.0
 11
284.0550898948
 21
172.075222182
 31
0.0
  0
LINE
  5
234
330
230
100
AcDbEntity
  8
SLD-0
 62
     7
100
AcDbLine
 10
262.0256979169
 20
172.075222182
 30
0.0
 11
271.0256980071
 21
172.075222182
 31
0.0
  0
LINE
  5
235
330
230
100
AcDbEntity
  8
SLD-0
 62
     7
100
AcDbLine
 10
259.025697962
 20
172.075222182
 30
0.0
 11
262.0256979169
 21
173.075222167
 31
0.0
  0
LINE
  5
236
330
230
100
AcDbEntity
  8
SLD-0
 62
     7
100
AcDbLine
 10
259.025697962
 20
172.075222182
 30
0.0
 11
262.0256979169
 21
171.075222197
 31
0.0
  0
LINE
  5
237
330
230
100
AcDbEntity
  8
SLD-0
 62
     7
100
AcDbLine
 10
259.025697962
 20
172.075222182
 30
0.0
 11
262.0256979169
 21
172.075222182
 31
0.0
  0
LINE
  5
238
330
230
100
AcDbEntity
  8
SLD-0
 62
     7
100
AcDbLine
 10
274.025697962
 20
172.075222182
 30
0.0
 11
271.0256980071
 21
171.075222197
 31
0.0
  0
LINE
  5
239
330
230
100
AcDbEntity
  8
SLD-0
 62
     7
100
AcDbLine
 10
274.025697962
 20
172.075222182
 30
0.0
 11
271.0256980071
 21
173.075222167
 31
0.0
  0
LINE
  5
23A
330
230
100
AcDbEntity
  8
SLD-0
 62
     7
100
AcDbLine
 10
274.025697962
 20
172.075222182
 30
0.0
 11
271.0256980071
 21
172.075222182
 31
0.0
  0
LINE
  5
23B
330
230
100
AcDbEntity
  8
SLD-0
 62
     7
100
AcDbLine
 10
259.025697962
 20
208.5752222045
 30
0.0
 11
259.025697962
 21
170.575222182
 31
0.0
  0
LINE
  5
23C
330
230
100
AcDbEntity
  8
SLD-0
 62
     7
100
AcDbLine
 10
274.025697962
 20
208.5752222045
 30
0.0
 11
274.025697962
 21
170.575222182
 31
0.0
  0
MTEXT
  5
23D
330
230
100
AcDbEntity
  8
SLD-0
 62
     7
100
AcDbMText
 10
279.0655446688
 20
175.4950749722
 30
0.0
 40
2.9104166031
 41
0.0
 71
     1
 72
     1
  1
15
  7
SLDTEXTSTYLE1
 73
     1
 44
1.0
  0
ENDBLK
  5
232
330
230
100
AcDbEntity
  8
0
100
AcDbBlockEnd
  0
BLOCK
  5
240
330
23F
100
AcDbEntity
  8
0
100
AcDbBlockBegin
  2
_D_10
 70
     0
 10
0.0
 20
0.0
 30
0.0
  3
_D_10
  1

  0
LINE
  5
242
330
23F
100
AcDbEntity
  8
SLD-0
 62
     7
100
AcDbLine
 10
52.0256979169
 20
160.075222182
 30
0.0
 11
271.0256980071
 21
160.075222182
 31
0.0
  0
LINE
  5
243
330
23F
100
AcDbEntity
  8
SLD-0
 62
     7
100
AcDbLine
 10
49.025697962
 20
160.075222182
 30
0.0
 11
52.0256979169
 21
161.075222167
 31
0.0
  0
LINE
  5
244
330
23F
100
AcDbEntity
  8
SLD-0
 62
     7
100
AcDbLine
 10
49.025697962
 20
160.075222182
 30
0.0
 11
52.0256979169
 21
159.075222197
 31
0.0
  0
LINE
  5
245
330
23F
100
AcDbEntity
  8
SLD-0
 62
     7
100
AcDbLine
 10
49.025697962
 20
160.075222182
 30
0.0
 11
52.0256979169
 21
160.075222182
 31
0.0
  0
LINE
  5
246
330
23F
100
AcDbEntity
  8
SLD-0
 62
     7
100
AcDbLine
 10
274.025697962
 20
160.075222182
 30
0.0
 11
271.0256980071
 21
159.075222197
 31
0.0
  0
LINE
  5
247
330
23F
100
AcDbEntity
  8
SLD-0
 62
     7
100
AcDbLine
 10
274.025697962
 20
160.075222182
 30
0.0
 11
271.0256980071
 21
161.075222167
 31
0.0
  0
LINE
  5
248
330
23F
100
AcDbEntity
  8
SLD-0
 62
     7
100
AcDbLine
 10
274.025697962
 20
160.075222182
 30
0.0
 11
271.0256980071
 21
160.075222182
 31
0.0
  0
LINE
  5
249
330
23F
100
AcDbEntity
  8
SLD-0
 62
     7
100
AcDbLine
 10
49.025697962
 20
208.5752222045
 30
0.0
 11
49.025697962
 21
158.575222182
 31
0.0
  0
LINE
  5
24A
330
23F
100
AcDbEntity
  8
SLD-0
 62
     7
100
AcDbLine
 10
274.025697962
 20
208.5752222045
 30
0.0
 11
274.025697962
 21
158.575222182
 31
0.0
  0
MTEXT
  5
24B
330
23F
100
AcDbEntity
  8
SLD-0
 62
     7
100
AcDbMText
 10
157.575717107
 20
163.4950749722
 30
0.0
 40
2.9104166031
 41
0.0
 71
     1
 72
     1
  1
225
  7
SLDTEXTSTYLE1
 73
     1
 44
1.0
  0
ENDBLK
  5
241
330
23F
100
AcDbEntity
  8
0
100
AcDbBlockEnd
  0
BLOCK
  5
24E
330
24D
100
AcDbEntity
  8
0
100
AcDbBlockBegin
  2
_D_11
 70
     0
 10
0.0
 20
0.0
 30
0.0
  3
_D_11
  1

  0
LINE
  5
250
330
24D
100
AcDbEntity
  8
SLD-0
 62
     7
100
AcDbLine
 10
307.525697962
 20
243.575222182
 30
0.0
 11
307.525697962
 21
236.575222182
 31
0.0
  0
LINE
  5
251
330
24D
100
AcDbEntity
  8
SLD-0
 62
     7
100
AcDbLine
 10
307.525697962
 20
243.575222182
 30
0.0
 11
306.525697977
 21
246.5752221369
 31
0.0
  0
LINE
  5
252
330
24D
100
AcDbEntity
  8
SLD-0
 62
     7
100
AcDbLine
 10
307.525697962
 20
243.575222182
 30
0.0
 11
308.525697947
 21
246.5752221369
 31
0.0
  0
LINE
  5
253
330
24D
100
AcDbEntity
  8
SLD-0
 62
     7
100
AcDbLine
 10
307.525697962
 20
243.575222182
 30
0.0
 11
307.525697962
 21
246.5752221369
 31
0.0
  0
LINE
  5
254
330
24D
100
AcDbEntity
  8
SLD-0
 62
     7
100
AcDbLine
 10
307.525697962
 20
246.5752221369
 30
0.0
 11
307.525697962
 21
249.9252220866
 31
0.0
  0
LINE
  5
255
330
24D
100
AcDbEntity
  8
SLD-0
 62
     7
100
AcDbLine
 10
307.525697962
 20
236.575222182
 30
0.0
 11
308.525697947
 21
233.5752222271
 31
0.0
  0
LINE
  5
256
330
24D
100
AcDbEntity
  8
SLD-0
 62
     7
100
AcDbLine
 10
307.525697962
 20
236.575222182
 30
0.0
 11
306.525697977
 21
233.5752222271
 31
0.0
  0
LINE
  5
257
330
24D
100
AcDbEntity
  8
SLD-0
 62
     7
100
AcDbLine
 10
307.525697962
 20
236.575222182
 30
0.0
 11
307.525697962
 21
233.5752222271
 31
0.0
  0
LINE
  5
258
330
24D
100
AcDbEntity
  8
SLD-0
 62
     7
100
AcDbLine
 10
307.525697962
 20
233.5752222271
 30
0.0
 11
307.525697962
 21
230.2252222774
 31
0.0
  0
LINE
  5
259
330
24D
100
AcDbEntity
  8
SLD-0
 62
     7
100
AcDbLine
 10
293.0256979395
 20
243.575222182
 30
0.0
 11
309.025697962
 21
243.575222182
 31
0.0
  0
LINE
  5
25A
330
24D
100
AcDbEntity
  8
SLD-0
 62
     7
100
AcDbLine
 10
292.0256979395
 20
236.575222182
 30
0.0
 11
309.025697962
 21
236.575222182
 31
0.0
  0
MTEXT
  5
25B
330
24D
100
AcDbEntity
  8
SLD-0
 62
     7
100
AcDbMText
 10
304.1058451718
 20
239.0356578109
 30
0.0
 40
2.9104166031
 41
0.0
 71
     1
 72
     1
  1
7
  7
SLDTEXTSTYLE1
 11
-3.828568698926949E-16
 21
1.0
 31
0.0
 73
     1
 44
1.0
  0
ENDBLK
  5
24F
330
24D
100
AcDbEntity
  8
0
100
AcDbBlockEnd
  0
BLOCK
  5
25F
330
25E
100
AcDbEntity
  8
0
100
AcDbBlockBegin
  2
_D_12
 70
     0
 10
0.0
 20
0.0
 30
0.0
  3
_D_12
  1

  0
LINE
  5
261
330
25E
100
AcDbEntity
  8
SLD-0
 62
     7
100
AcDbLine
 10
307.525697962
 20
233.5752222271
 30
0.0
 11
307.525697962
 21
185.0752221369
 31
0.0
  0
LINE
  5
262
330
25E
100
AcDbEntity
  8
SLD-0
 62
     7
100
AcDbLine
 10
307.525697962
 20
236.575222182
 30
0.0
 11
308.525697947
 21
233.5752222271
 31
0.0
  0
LINE
  5
263
330
25E
100
AcDbEntity
  8
SLD-0
 62
     7
100
AcDbLine
 10
307.525697962
 20
236.575222182
 30
0.0
 11
306.525697977
 21
233.5752222271
 31
0.0
  0
LINE
  5
264
330
25E
100
AcDbEntity
  8
SLD-0
 62
     7
100
AcDbLine
 10
307.525697962
 20
236.575222182
 30
0.0
 11
307.525697962
 21
233.5752222271
 31
0.0
  0
LINE
  5
265
330
25E
100
AcDbEntity
  8
SLD-0
 62
     7
100
AcDbLine
 10
307.525697962
 20
182.075222182
 30
0.0
 11
306.525697977
 21
185.0752221369
 31
0.0
  0
LINE
  5
266
330
25E
100
AcDbEntity
  8
SLD-0
 62
     7
100
AcDbLine
 10
307.525697962
 20
182.075222182
 30
0.0
 11
308.525697947
 21
185.0752221369
 31
0.0
  0
LINE
  5
267
330
25E
100
AcDbEntity
  8
SLD-0
 62
     7
100
AcDbLine
 10
307.525697962
 20
182.075222182
 30
0.0
 11
307.525697962
 21
185.0752221369
 31
0.0
  0
LINE
  5
268
330
25E
100
AcDbEntity
  8
SLD-0
 62
     7
100
AcDbLine
 10
292.0256979395
 20
236.575222182
 30
0.0
 11
309.025697962
 21
236.575222182
 31
0.0
  0
LINE
  5
269
330
25E
100
AcDbEntity
  8
SLD-0
 62
     7
100
AcDbLine
 10
247.5256979395
 20
182.075222182
 30
0.0
 11
309.025697962
 21
182.075222182
 31
0.0
  0
MTEXT
  5
26A
330
25E
100
AcDbEntity
  8
SLD-0
 62
     7
100
AcDbMText
 10
304.1058451718
 20
204.7931580302
 30
0.0
 40
2.9104166031
 41
0.0
 71
     1
 72
     1
  1
54.5
  7
SLDTEXTSTYLE1
 11
-3.828568698926949E-16
 21
1.0
 31
0.0
 73
     1
 44
1.0
  0
ENDBLK
  5
260
330
25E
100
AcDbEntity
  8
0
100
AcDbBlockEnd
  0
BLOCK
  5
26D
330
26C
100
AcDbEntity
  8
0
100
AcDbBlockBegin
  2
_D_13
 70
     0
 10
0.0
 20
0.0
 30
0.0
  3
_D_13
  1

  0
LINE
  5
26F
330
26C
100
AcDbEntity
  8
SLD-0
 62
     7
100
AcDbLine
 10
313.525697962
 20
240.5752222271
 30
0.0
 11
313.525697962
 21
185.0752221369
 31
0.0
  0
LINE
  5
270
330
26C
100
AcDbEntity
  8
SLD-0
 62
     7
100
AcDbLine
 10
313.525697962
 20
243.575222182
 30
0.0
 11
314.525697947
 21
240.5752222271
 31
0.0
  0
LINE
  5
271
330
26C
100
AcDbEntity
  8
SLD-0
 62
     7
100
AcDbLine
 10
313.525697962
 20
243.575222182
 30
0.0
 11
312.525697977
 21
240.5752222271
 31
0.0
  0
LINE
  5
272
330
26C
100
AcDbEntity
  8
SLD-0
 62
     7
100
AcDbLine
 10
313.525697962
 20
243.575222182
 30
0.0
 11
313.525697962
 21
240.5752222271
 31
0.0
  0
LINE
  5
273
330
26C
100
AcDbEntity
  8
SLD-0
 62
     7
100
AcDbLine
 10
313.525697962
 20
182.075222182
 30
0.0
 11
312.525697977
 21
185.0752221369
 31
0.0
  0
LINE
  5
274
330
26C
100
AcDbEntity
  8
SLD-0
 62
     7
100
AcDbLine
 10
313.525697962
 20
182.075222182
 30
0.0
 11
314.525697947
 21
185.0752221369
 31
0.0
  0
LINE
  5
275
330
26C
100
AcDbEntity
  8
SLD-0
 62
     7
100
AcDbLine
 10
313.525697962
 20
182.075222182
 30
0.0
 11
313.525697962
 21
185.0752221369
 31
0.0
  0
LINE
  5
276
330
26C
100
AcDbEntity
  8
SLD-0
 62
     7
100
AcDbLine
 10
293.0256979395
 20
243.575222182
 30
0.0
 11
315.025697962
 21
243.575222182
 31
0.0
  0
LINE
  5
277
330
26C
100
AcDbEntity
  8
SLD-0
 62
     7
100
AcDbLine
 10
247.5256979395
 20
182.075222182
 30
0.0
 11
315.025697962
 21
182.075222182
 31
0.0
  0
MTEXT
  5
278
330
26C
100
AcDbEntity
  8
SLD-0
 62
     7
100
AcDbMText
 10
310.1058451718
 20
208.2931580302
 30
0.0
 40
2.9104166031
 41
0.0
 71
     1
 72
     1
  1
61.5
  7
SLDTEXTSTYLE1
 11
-3.828568698926949E-16
 21
1.0
 31
0.0
 73
     1
 44
1.0
  0
ENDBLK
  5
26E
330
26C
100
AcDbEntity
  8
0
100
AcDbBlockEnd
  0
ENDSEC
  0
SECTION
  2
ENTITIES
  0
VIEWPORT
  5
77
330
1B
100
AcDbEntity
 67
     1
  8
0
100
AcDbViewport
 10
210.0
 20
148.5
 30
0.0
 40
444.36
 41
314.226
 68
     1
 69
     1
 12
210.0
 22
148.5
 13
0.0
 23
0.0
 14
10.0
 24
10.0
 15
10.0
 25
10.0
 16
0.0
 26
0.0
 36
1.0
 17
0.0
 27
0.0
 37
0.0
 42
50.0
 43
0.0
 44
0.0
 45
314.226
 50
0.0
 51
0.0
 72
   100
 90
   557152
  1

281
     0
 71
     1
 74
     0
110
0.0
120
0.0
130
0.0
111
1.0
121
0.0
131
0.0
112
0.0
122
1.0
132
0.0
 79
     0
146
0.0
  0
LINE
  5
79
330
1B
100
AcDbEntity
 67
     1
  8
SLD-0
  6
Continuous
 62
     7
100
AcDbLine
 10
240.2256932413
 20
98.8427064421
 30
0.0
 11
240.2256932413
 21
110.8427065464
 31
0.0
  0
LINE
  5
7A
330
1B
100
AcDbEntity
 67
     1
  8
SLD-0
  6
Continuous
 62
     7
100
AcDbLine
 10
82.8256979888
 20
110.8427065464
 30
0.0
 11
82.8256979888
 21
98.8427064421
 31
0.0
  0
LINE
  5
7B
330
1B
100
AcDbEntity
 67
     1
  8
SLD-0
  6
Continuous
 62
     7
100
AcDbLine
 10
82.8256979888
 20
98.8427064421
 30
0.0
 11
82.8256979888
 21
97.3427066619
 31
0.0
  0
LINE
  5
7C
330
1B
100
AcDbEntity
 67
     1
  8
SLD-0
  6
Continuous
 62
     7
100
AcDbLine
 10
82.5256984984
 20
97.6427066179
 30
0.0
 11
82.8256979888
 21
97.3427066619
 31
0.0
  0
LINE
  5
7D
330
1B
100
AcDbEntity
 67
     1
  8
SLD-0
  6
Continuous
 62
     7
100
AcDbLine
 10
240.2256932413
 20
97.3427066619
 30
0.0
 11
240.2256932413
 21
98.8427064421
 31
0.0
  0
LINE
  5
7E
330
1B
100
AcDbEntity
 67
     1
  8
SLD-0
  6
Continuous
 62
     7
100
AcDbLine
 10
240.2256932413
 20
97.3427066619
 30
0.0
 11
82.8256979888
 21
97.3427066619
 31
0.0
  0
LINE
  5
7F
330
1B
100
AcDbEntity
 67
     1
  8
SLD-0
  6
Continuous
 62
     7
100
AcDbLine
 10
240.2256932413
 20
110.8427065464
 30
0.0
 11
240.2256932413
 21
112.3427063266
 31
0.0
  0
LINE
  5
80
330
1B
100
AcDbEntity
 67
     1
  8
SLD-0
  6
Continuous
 62
     7
100
AcDbLine
 10
82.8256979888
 20
112.3427063266
 30
0.0
 11
82.8256979888
 21
110.8427065464
 31
0.0
  0
LINE
  5
81
330
1B
100
AcDbEntity
 67
     1
  8
SLD-0
  6
Continuous
 62
     7
100
AcDbLine
 10
82.8256979888
 20
112.3427063266
 30
0.0
 11
240.2256932413
 21
112.3427063266
 31
0.0
  0
LINE
  5
82
330
1B
100
AcDbEntity
 67
     1
  8
SLD-0
  6
Continuous
 62
     7
100
AcDbLine
 10
82.8256979888
 20
112.3427063266
 30
0.0
 11
82.5256984984
 21
112.0427063706
 31
0.0
  0
LINE
  5
83
330
1B
100
AcDbEntity
 67
     1
  8
SLD-0
  6
Continuous
 62
     7
100
AcDbLine
 10
240.5256983196
 20
112.0427063706
 30
0.0
 11
240.2256932413
 21
112.3427063266
 31
0.0
  0
LINE
  5
84
330
1B
100
AcDbEntity
 67
     1
  8
SLD-0
  6
Continuous
 62
     7
100
AcDbLine
 10
240.2256932413
 20
97.3427066619
 30
0.0
 11
240.5256983196
 21
97.6427066179
 31
0.0
  0
LINE
  5
85
330
1B
100
AcDbEntity
 67
     1
  8
SLD-0
  6
Continuous
 62
     7
100
AcDbLine
 10
240.8257033979
 20
112.3427063266
 30
0.0
 11
240.8257033979
 21
110.8427065464
 31
0.0
  0
LINE
  5
86
330
1B
100
AcDbEntity
 67
     1
  8
SLD-0
  6
Continuous
 62
     7
100
AcDbLine
 10
240.8257033979
 20
112.3427063266
 30
0.0
 11
246.0257020151
 21
112.3427063266
 31
0.0
  0
LINE
  5
87
330
1B
100
AcDbEntity
 67
     1
  8
SLD-0
  6
Continuous
 62
     7
100
AcDbLine
 10
246.0257020151
 20
112.3427063266
 30
0.0
 11
272.5257035648
 21
112.3427063266
 31
0.0
  0
LINE
  5
88
330
1B
100
AcDbEntity
 67
     1
  8
SLD-0
  6
Continuous
 62
     7
100
AcDbLine
 10
274.0256984742
 20
98.842707122
 30
0.0
 11
274.0256984742
 21
110.8427072263
 31
0.0
  0
LINE
  5
89
330
1B
100
AcDbEntity
 67
     1
  8
SLD-0
  6
Continuous
 62
     7
100
AcDbLine
 10
240.5256983196
 20
97.6427066179
 30
0.0
 11
240.5256983196
 21
98.8427064421
 31
0.0
  0
LINE
  5
8A
330
1B
100
AcDbEntity
 67
     1
  8
SLD-0
  6
Continuous
 62
     7
100
AcDbLine
 10
240.8257033979
 20
98.8427064421
 30
0.0
 11
240.8257033979
 21
97.3427066619
 31
0.0
  0
LINE
  5
8B
330
1B
100
AcDbEntity
 67
     1
  8
SLD-0
  6
Continuous
 62
     7
100
AcDbLine
 10
240.5256983196
 20
97.6427066179
 30
0.0
 11
240.8257033979
 21
97.3427066619
 31
0.0
  0
LINE
  5
8C
330
1B
100
AcDbEntity
 67
     1
  8
SLD-0
  6
Continuous
 62
     7
100
AcDbLine
 10
240.5256983196
 20
110.8427065464
 30
0.0
 11
240.5256983196
 21
112.0427063706
 31
0.0
  0
LINE
  5
8D
330
1B
100
AcDbEntity
 67
     1
  8
SLD-0
  6
Continuous
 62
     7
100
AcDbLine
 10
240.8257033979
 20
112.3427063266
 30
0.0
 11
240.5256983196
 21
112.0427063706
 31
0.0
  0
LINE
  5
8E
330
1B
100
AcDbEntity
 67
     1
  8
SLD-0
  6
Continuous
 62
     7
100
AcDbLine
 10
240.8257033979
 20
110.8427065464
 30
0.0
 11
240.8257033979
 21
98.8427064421
 31
0.0
  0
LINE
  5
8F
330
1B
100
AcDbEntity
 67
     1
  8
SLD-0
  6
Continuous
 62
     7
100
AcDbLine
 10
272.5257035648
 20
97.3427066619
 30
0.0
 11
246.0257020151
 21
97.3427066619
 31
0.0
  0
LINE
  5
90
330
1B
100
AcDbEntity
 67
     1
  8
SLD-0
  6
Continuous
 62
     7
100
AcDbLine
 10
246.0257020151
 20
97.3427066619
 30
0.0
 11
240.8257033979
 21
97.3427066619
 31
0.0
  0
LINE
  5
91
330
1B
100
AcDbEntity
 67
     1
  8
SLD-0
  6
Continuous
 62
     7
100
AcDbLine
 10
240.5256983196
 20
98.8427064421
 30
0.0
 11
240.5256983196
 21
110.8427065464
 31
0.0
  0
LINE
  5
92
330
1B
100
AcDbEntity
 67
     1
  8
SLD-0
  6
Continuous
 62
     7
100
AcDbLine
 10
266.5256914055
 20
97.3427066619
 30
0.0
 11
267.7757051146
 21
97.3427066619
 31
0.0
  0
LINE
  5
93
330
1B
100
AcDbEntity
 67
     1
  8
SLD-0
  6
Continuous
 62
     7
100
AcDbLine
 10
82.2256971454
 20
97.3427066619
 30
0.0
 11
82.2256971454
 21
98.8427064421
 31
0.0
  0
LINE
  5
94
330
1B
100
AcDbEntity
 67
     1
  8
SLD-0
  6
Continuous
 62
     7
100
AcDbLine
 10
82.5256984984
 20
98.8427064421
 30
0.0
 11
82.5256984984
 21
97.6427066179
 31
0.0
  0
LINE
  5
95
330
1B
100
AcDbEntity
 67
     1
  8
SLD-0
  6
Continuous
 62
     7
100
AcDbLine
 10
82.2256971454
 20
97.3427066619
 30
0.0
 11
82.5256984984
 21
97.6427066179
 31
0.0
  0
LINE
  5
96
330
1B
100
AcDbEntity
 67
     1
  8
SLD-0
  6
Continuous
 62
     7
100
AcDbLine
 10
82.2256971454
 20
98.8427064421
 30
0.0
 11
82.2256971454
 21
110.8427065464
 31
0.0
  0
LINE
  5
97
330
1B
100
AcDbEntity
 67
     1
  8
SLD-0
  6
Continuous
 62
     7
100
AcDbLine
 10
77.0256985282
 20
112.3427063266
 30
0.0
 11
82.2256971454
 21
112.3427063266
 31
0.0
  0
LINE
  5
98
330
1B
100
AcDbEntity
 67
     1
  8
SLD-0
  6
Continuous
 62
     7
100
AcDbLine
 10
82.2256971454
 20
110.8427065464
 30
0.0
 11
82.2256971454
 21
112.3427063266
 31
0.0
  0
LINE
  5
99
330
1B
100
AcDbEntity
 67
     1
  8
SLD-0
  6
Continuous
 62
     7
100
AcDbLine
 10
50.5256979098
 20
112.3427063266
 30
0.0
 11
77.0256985282
 21
112.3427063266
 31
0.0
  0
LINE
  5
9A
330
1B
100
AcDbEntity
 67
     1
  8
SLD-0
  6
Continuous
 62
     7
100
AcDbLine
 10
49.0256981296
 20
110.8427065464
 30
0.0
 11
49.0256981296
 21
98.8427064422
 31
0.0
  0
LINE
  5
9B
330
1B
100
AcDbEntity
 67
     1
  8
SLD-0
  6
Continuous
 62
     7
100
AcDbLine
 10
77.0256985282
 20
97.3427066619
 30
0.0
 11
50.5256979098
 21
97.3427066619
 31
0.0
  0
LINE
  5
9C
330
1B
100
AcDbEntity
 67
     1
  8
SLD-0
  6
Continuous
 62
     7
100
AcDbLine
 10
82.5256984984
 20
110.8427065464
 30
0.0
 11
82.5256984984
 21
98.8427064421
 31
0.0
  0
LINE
  5
9D
330
1B
100
AcDbEntity
 67
     1
  8
SLD-0
  6
Continuous
 62
     7
100
AcDbLine
 10
82.2256971454
 20
97.3427066619
 30
0.0
 11
77.0256985282
 21
97.3427066619
 31
0.0
  0
LINE
  5
9E
330
1B
100
AcDbEntity
 67
     1
  8
SLD-0
  6
Continuous
 62
     7
100
AcDbLine
 10
82.5256984984
 20
112.0427063706
 30
0.0
 11
82.5256984984
 21
110.8427065464
 31
0.0
  0
LINE
  5
9F
330
1B
100
AcDbEntity
 67
     1
  8
SLD-0
  6
Continuous
 62
     7
100
AcDbLine
 10
82.5256984984
 20
112.0427063706
 30
0.0
 11
82.2256971454
 21
112.3427063266
 31
0.0
  0
LINE
  5
A0
330
1B
100
AcDbEntity
 67
     1
  8
SLD-0
  6
Continuous
 62
     7
100
AcDbLine
 10
55.2756979899
 20
97.3427066619
 30
0.0
 11
56.525697962
 21
97.3427066619
 31
0.0
  0
LINE
  5
A1
330
1B
100
AcDbEntity
 67
     1
  8
SLD-0
  6
Continuous
 62
     7
100
AcDbLine
 10
50.2756978689
 20
97.0927066209
 30
0.0
 11
56.525697962
 21
97.0927066209
 31
0.0
  0
LINE
  5
A2
330
1B
100
AcDbEntity
 67
     1
  8
SLD-0
  6
Continuous
 62
     7
100
AcDbLine
 10
56.5256979621
 20
112.5927063676
 30
0.0
 11
50.2756978689
 21
112.5927063676
 31
0.0
  0
LINE
  5
A3
330
1B
100
AcDbEntity
 67
     1
  8
SLD-0
  6
Continuous
 62
     7
100
AcDbLine
 10
48.7756980887
 20
111.0927065874
 30
0.0
 11
48.7756980887
 21
98.5927064011
 31
0.0
  0
LINE
  5
A4
330
1B
100
AcDbEntity
 67
     1
  8
SLD-0
  6
Continuous
 62
     7
100
AcDbLine
 10
274.2756968854
 20
98.5927054511
 30
0.0
 11
274.2756968854
 21
111.0927056374
 31
0.0
  0
LINE
  5
A5
330
1B
100
AcDbEntity
 67
     1
  8
SLD-0
  6
Continuous
 62
     7
100
AcDbLine
 10
272.7757003461
 20
112.5927044676
 30
0.0
 11
266.5256914055
 21
112.5927044676
 31
0.0
  0
LINE
  5
A6
330
1B
100
AcDbEntity
 67
     1
  8
SLD-0
  6
Continuous
 62
     7
100
AcDbLine
 10
266.5256914055
 20
97.0927066209
 30
0.0
 11
272.7757003462
 21
97.0927066209
 31
0.0
  0
LINE
  5
A7
330
1B
100
AcDbEntity
 67
     1
  8
SLD-0
  6
CENTER
 62
     7
100
AcDbLine
 10
296.3682054993
 20
104.8427064942
 30
0.0
 11
25.7994062207
 21
104.8427064942
 31
0.0
  0
LINE
  5
A8
330
1B
100
AcDbEntity
 67
     1
  8
SLD-0
  6
Continuous
 62
     7
100
AcDbLine
 10
318.5507365755
 20
112.3427073436
 30
0.0
 11
312.5507365755
 21
112.3427073436
 31
0.0
  0
LINE
  5
A9
330
1B
100
AcDbEntity
 67
     1
  8
SLD-0
  6
Continuous
 62
     7
100
AcDbLine
 10
318.5507365755
 20
97.3427056448
 30
0.0
 11
312.5507365755
 21
97.3427056448
 31
0.0
  0
LINE
  5
AA
330
1B
100
AcDbEntity
 67
     1
  8
SLD-0
  6
Continuous
 62
     7
100
AcDbLine
 10
384.8057830102
 20
118.8427069264
 30
0.0
 11
390.300738006
 21
120.8427072542
 31
0.0
  0
LINE
  5
AB
330
1B
100
AcDbEntity
 67
     1
  8
SLD-0
  6
Continuous
 62
     7
100
AcDbLine
 10
390.300738006
 20
120.8427072542
 30
0.0
 11
384.8057830102
 21
122.8427057194
 31
0.0
  0
LINE
  5
AC
330
1B
100
AcDbEntity
 67
     1
  8
SLD-0
  6
Continuous
 62
     7
100
AcDbLine
 10
384.8057830102
 20
122.8427057194
 30
0.0
 11
372.5507374249
 21
122.8427057194
 31
0.0
  0
LINE
  5
AD
330
1B
100
AcDbEntity
 67
     1
  8
SLD-0
  6
Continuous
 62
     7
100
AcDbLine
 10
372.5507374249
 20
118.8427069264
 30
0.0
 11
384.8057830102
 21
118.8427069264
 31
0.0
  0
LINE
  5
AE
330
1B
100
AcDbEntity
 67
     1
  8
SLD-0
  6
Continuous
 62
     7
100
AcDbLine
 10
384.8057830102
 20
86.8427072691
 30
0.0
 11
390.300738006
 21
88.8427057343
 31
0.0
  0
LINE
  5
AF
330
1B
100
AcDbEntity
 67
     1
  8
SLD-0
  6
Continuous
 62
     7
100
AcDbLine
 10
390.300738006
 20
88.8427057343
 30
0.0
 11
384.8057830102
 21
90.8427060621
 31
0.0
  0
LINE
  5
B0
330
1B
100
AcDbEntity
 67
     1
  8
SLD-0
  6
Continuous
 62
     7
100
AcDbLine
 10
384.8057830102
 20
90.8427060621
 30
0.0
 11
372.5507374249
 21
90.8427060621
 31
0.0
  0
LINE
  5
B1
330
1B
100
AcDbEntity
 67
     1
  8
SLD-0
  6
Continuous
 62
     7
100
AcDbLine
 10
372.5507374249
 20
86.8427072691
 30
0.0
 11
384.8057830102
 21
86.8427072691
 31
0.0
  0
LINE
  5
B2
330
1B
100
AcDbEntity
 67
     1
  8
SLD-0
  6
Continuous
 62
     7
100
AcDbLine
 10
372.5507375031
 20
129.8427067885
 30
0.0
 11
366.550737451
 21
129.8427067885
 31
0.0
  0
LINE
  5
B3
330
1B
100
AcDbEntity
 67
     1
  8
SLD-0
  6
Continuous
 62
     7
100
AcDbLine
 10
366.5507374509
 20
79.8427061999
 30
0.0
 11
372.5507375031
 21
79.8427061999
 31
0.0
  0
LINE
  5
B4
330
1B
100
AcDbEntity
 67
     1
  8
SLD-0
  6
Continuous
 62
     7
100
AcDbLine
 10
384.8057830102
 20
122.8427057194
 30
0.0
 11
384.8057830102
 21
118.8427069264
 31
0.0
  0
LINE
  5
B5
330
1B
100
AcDbEntity
 67
     1
  8
SLD-0
  6
Continuous
 62
     7
100
AcDbLine
 10
384.8057830102
 20
90.8427060621
 30
0.0
 11
384.8057830102
 21
86.8427072691
 31
0.0
  0
LINE
  5
B6
330
1B
100
AcDbEntity
 67
     1
  8
SLD-0
  6
Continuous
 62
     7
100
AcDbLine
 10
339.050735741
 20
112.3427073436
 30
0.0
 11
365.5507363594
 21
112.3427073436
 31
0.0
  0
LINE
  5
B7
330
1B
100
AcDbEntity
 67
     1
  8
SLD-0
  6
Continuous
 62
     7
100
AcDbLine
 10
365.5507363594
 20
97.3427056448
 30
0.0
 11
339.050735741
 21
97.3427056448
 31
0.0
  0
LINE
  5
B8
330
1B
100
AcDbEntity
 67
     1
  8
SLD-0
  6
Continuous
 62
     7
100
AcDbLine
 10
312.5507365755
 20
112.3427073436
 30
0.0
 11
339.050735741
 21
112.3427073436
 31
0.0
  0
LINE
  5
B9
330
1B
100
AcDbEntity
 67
     1
  8
SLD-0
  6
Continuous
 62
     7
100
AcDbLine
 10
311.0507357261
 20
98.8427064421
 30
0.0
 11
311.0507357261
 21
110.8427065464
 31
0.0
  0
LINE
  5
BA
330
1B
100
AcDbEntity
 67
     1
  8
SLD-0
  6
Continuous
 62
     7
100
AcDbLine
 10
339.050735741
 20
97.3427056448
 30
0.0
 11
312.5507365755
 21
97.3427056448
 31
0.0
  0
LINE
  5
BB
330
1B
100
AcDbEntity
 67
     1
  8
SLD-0
  6
Continuous
 62
     7
100
AcDbLine
 10
372.5507375031
 20
104.8427065724
 30
0.0
 11
372.5507375031
 21
129.8427067885
 31
0.0
  0
LINE
  5
BC
330
1B
100
AcDbEntity
 67
     1
  8
SLD-0
  6
Continuous
 62
     7
100
AcDbLine
 10
372.5507375031
 20
79.8427061999
 30
0.0
 11
372.5507375031
 21
104.8427065724
 31
0.0
  0
LINE
  5
BD
330
1B
100
AcDbEntity
 67
     1
  8
SLD-0
  6
Continuous
 62
     7
100
AcDbLine
 10
365.5507372088
 20
104.8427064942
 30
0.0
 11
365.5507372088
 21
128.8427067029
 31
0.0
  0
LINE
  5
BE
330
1B
100
AcDbEntity
 67
     1
  8
SLD-0
  6
Continuous
 62
     7
100
AcDbLine
 10
365.5507372088
 20
80.8427062856
 30
0.0
 11
365.5507372088
 21
104.8427064942
 31
0.0
  0
LINE
  5
BF
330
1B
100
AcDbEntity
 67
     1
  8
SLD-0
  6
CENTER
 62
     7
100
AcDbLine
 10
392.3007374249
 20
120.8427064942
 30
0.0
 11
368.3006374249
 21
120.8427064942
 31
0.0
  0
LINE
  5
C0
330
1B
100
AcDbEntity
 67
     1
  8
SLD-0
  6
CENTER
 62
     7
100
AcDbLine
 10
392.3007374249
 20
88.8427064942
 30
0.0
 11
368.3006374249
 21
88.8427064942
 31
0.0
  0
LINE
  5
C1
330
1B
100
AcDbEntity
 67
     1
  8
SLD-0
  6
CENTER
 62
     7
100
AcDbLine
 10
396.8868732219
 20
104.8427064942
 30
0.0
 11
305.2154817532
 21
104.8427064942
 31
0.0
  0
LINE
  5
C2
330
1B
100
AcDbEntity
 67
     1
  8
SLD-0
  6
CENTER
 62
     7
100
AcDbLine
 10
266.525697962
 20
266.4242980538
 30
0.0
 11
266.525697962
 21
210.175222182
 31
0.0
  0
LINE
  5
C3
330
1B
100
AcDbEntity
 67
     1
  8
SLD-0
  6
CENTER
 62
     7
100
AcDbLine
 10
56.525697962
 20
266.4242980538
 30
0.0
 11
56.525697962
 21
210.175222182
 31
0.0
  0
LINE
  5
C4
330
1B
100
AcDbEntity
 67
     1
  8
SLD-0
  6
CENTER
 62
     7
100
AcDbLine
 10
77.025697962
 20
189.675222182
 30
0.0
 11
246.025697962
 21
189.675222182
 31
0.0
  0
LINE
  5
C5
330
1B
100
AcDbEntity
 67
     1
  8
SLD-0
  6
Continuous
 62
     7
100
AcDbLine
 10
58.525698057
 20
255.8302677674
 30
0.0
 11
56.525697962
 21
261.3252227632
 31
0.0
  0
LINE
  5
C6
330
1B
100
AcDbEntity
 67
     1
  8
SLD-0
  6
Continuous
 62
     7
100
AcDbLine
 10
56.525697962
 20
261.3252227632
 30
0.0
 11
54.525697867
 21
255.8302677674
 31
0.0
  0
LINE
  5
C7
330
1B
100
AcDbEntity
 67
     1
  8
SLD-0
  6
Continuous
 62
     7
100
AcDbLine
 10
54.525697867
 20
255.8302677674
 30
0.0
 11
54.525697867
 21
243.575222182
 31
0.0
  0
LINE
  5
C8
330
1B
100
AcDbEntity
 67
     1
  8
SLD-0
  6
Continuous
 62
     7
100
AcDbLine
 10
58.525698057
 20
243.575222182
 30
0.0
 11
58.525698057
 21
255.8302677674
 31
0.0
  0
LINE
  5
C9
330
1B
100
AcDbEntity
 67
     1
  8
SLD-0
  6
Continuous
 62
     7
100
AcDbLine
 10
268.5256954586
 20
255.8302677674
 30
0.0
 11
266.5256914055
 21
261.3252227632
 31
0.0
  0
LINE
  5
CA
330
1B
100
AcDbEntity
 67
     1
  8
SLD-0
  6
Continuous
 62
     7
100
AcDbLine
 10
266.5256914055
 20
261.3252227632
 30
0.0
 11
264.5257022535
 21
255.8302677674
 31
0.0
  0
LINE
  5
CB
330
1B
100
AcDbEntity
 67
     1
  8
SLD-0
  6
Continuous
 62
     7
100
AcDbLine
 10
264.5257022535
 20
255.8302677674
 30
0.0
 11
264.5257022535
 21
243.575222182
 31
0.0
  0
LINE
  5
CC
330
1B
100
AcDbEntity
 67
     1
  8
SLD-0
  6
Continuous
 62
     7
100
AcDbLine
 10
268.5256954586
 20
243.575222182
 30
0.0
 11
268.5256954586
 21
255.8302677674
 31
0.0
  0
LINE
  5
CD
330
1B
100
AcDbEntity
 67
     1
  8
SLD-0
  6
Continuous
 62
     7
100
AcDbLine
 10
240.5256983196
 20
196.8752214191
 30
0.0
 11
240.2256932413
 21
197.1752227721
 31
0.0
  0
LINE
  5
CE
330
1B
100
AcDbEntity
 67
     1
  8
SLD-0
  6
Continuous
 62
     7
100
AcDbLine
 10
82.8256979888
 20
197.1752227721
 30
0.0
 11
82.5256984984
 21
196.8752214191
 31
0.0
  0
LINE
  5
CF
330
1B
100
AcDbEntity
 67
     1
  8
SLD-0
  6
Continuous
 62
     7
100
AcDbLine
 10
85.2839649027
 20
197.1752227721
 30
0.0
 11
82.8256979888
 21
197.1752227721
 31
0.0
  0
LINE
  5
D0
330
1B
100
AcDbEntity
 67
     1
  8
SLD-0
  6
Continuous
 62
     7
100
AcDbLine
 10
231.2839683449
 20
197.1752227721
 30
0.0
 11
91.7512756144
 21
197.1752227721
 31
0.0
  0
LINE
  5
D1
330
1B
100
AcDbEntity
 67
     1
  8
SLD-0
  6
Continuous
 62
     7
100
AcDbLine
 10
240.2256932413
 20
197.1752227721
 30
0.0
 11
237.7512809193
 21
197.1752227721
 31
0.0
  0
LINE
  5
D2
330
1B
100
AcDbEntity
 67
     1
  8
SLD-0
  6
Continuous
 62
     7
100
AcDbLine
 10
259.0256988114
 20
236.5752217127
 30
0.0
 11
259.0256988114
 21
210.0752210943
 31
0.0
  0
LINE
  5
D3
330
1B
100
AcDbEntity
 67
     1
  8
SLD-0
  6
Continuous
 62
     7
100
AcDbLine
 10
246.0257020151
 20
197.0752210794
 30
0.0
 11
240.8257033979
 21
197.0752210794
 31
0.0
  0
LINE
  5
D4
330
1B
100
AcDbEntity
 67
     1
  8
SLD-0
  6
Continuous
 62
     7
100
AcDbLine
 10
240.8257033979
 20
197.0752210794
 30
0.0
 11
240.5256983196
 21
196.7752234517
 31
0.0
  0
LINE
  5
D5
330
1B
100
AcDbEntity
 67
     1
  8
SLD-0
  6
Continuous
 62
     7
100
AcDbLine
 10
64.0256973269
 20
210.0752204144
 30
0.0
 11
64.0256973269
 21
236.5752210328
 31
0.0
  0
LINE
  5
D6
330
1B
100
AcDbEntity
 67
     1
  8
SLD-0
  6
Continuous
 62
     7
100
AcDbLine
 10
82.2256971454
 20
197.0752206137
 30
0.0
 11
77.0256985282
 21
197.0752206137
 31
0.0
  0
LINE
  5
D7
330
1B
100
AcDbEntity
 67
     1
  8
SLD-0
  6
Continuous
 62
     7
100
AcDbLine
 10
82.5256984984
 20
196.775222986
 30
0.0
 11
82.2256971454
 21
197.0752206137
 31
0.0
  0
LINE
  5
D8
330
1B
100
AcDbEntity
 67
     1
  8
SLD-0
  6
Continuous
 62
     7
100
AcDbLine
 10
31.5256975895
 20
243.575222182
 30
0.0
 11
31.5256975895
 21
237.5752221299
 31
0.0
  0
LINE
  5
D9
330
1B
100
AcDbEntity
 67
     1
  8
SLD-0
  6
Continuous
 62
     7
100
AcDbLine
 10
81.525698178
 20
237.5752221299
 30
0.0
 11
81.525698178
 21
243.575222182
 31
0.0
  0
LINE
  5
DA
330
1B
100
AcDbEntity
 67
     1
  8
SLD-0
  6
Continuous
 62
     7
100
AcDbLine
 10
241.5257003462
 20
243.575222182
 30
0.0
 11
241.5257003462
 21
237.5752221299
 31
0.0
  0
LINE
  5
DB
330
1B
100
AcDbEntity
 67
     1
  8
SLD-0
  6
Continuous
 62
     7
100
AcDbLine
 10
291.525699072
 20
237.575223024
 30
0.0
 11
291.525699072
 21
243.575222182
 31
0.0
  0
LINE
  5
DC
330
1B
100
AcDbEntity
 67
     1
  8
SLD-0
  6
Continuous
 62
     7
100
AcDbLine
 10
87.8524351482
 20
197.8220147616
 30
0.0
 11
88.0106966559
 21
197.8220147616
 31
0.0
  0
LINE
  5
DD
330
1B
100
AcDbEntity
 67
     1
  8
SLD-0
  6
Continuous
 62
     7
100
AcDbLine
 10
88.0106966559
 20
197.5381513662
 30
0.0
 11
88.0106966559
 21
197.8220147616
 31
0.0
  0
LINE
  5
DE
330
1B
100
AcDbEntity
 67
     1
  8
SLD-0
  6
Continuous
 62
     7
100
AcDbLine
 10
89.0406984452
 20
197.8220146109
 30
0.0
 11
89.0406984452
 21
197.5381513662
 31
0.0
  0
LINE
  5
DF
330
1B
100
AcDbEntity
 67
     1
  8
SLD-0
  6
Continuous
 62
     7
100
AcDbLine
 10
89.0406984452
 20
197.8220146109
 30
0.0
 11
89.1989636409
 21
197.8220146109
 31
0.0
  0
LINE
  5
E0
330
1B
100
AcDbEntity
 67
     1
  8
SLD-0
  6
Continuous
 62
     7
100
AcDbLine
 10
91.5256978845
 20
197.1752222237
 30
0.0
 11
85.525696901
 21
197.1752222237
 31
0.0
  0
LINE
  5
E1
330
1B
100
AcDbEntity
 67
     1
  8
SLD-0
  6
Continuous
 62
     7
100
AcDbLine
 10
90.866306827
 20
196.9252222655
 30
0.0
 11
86.2286091154
 21
196.9252222655
 31
0.0
  0
LINE
  5
E2
330
1B
100
AcDbEntity
 67
     1
  8
SLD-0
  6
Continuous
 62
     7
100
AcDbLine
 10
56.525697962
 20
255.8302677674
 30
0.0
 11
58.525698057
 21
255.8302677674
 31
0.0
  0
LINE
  5
E3
330
1B
100
AcDbEntity
 67
     1
  8
SLD-0
  6
Continuous
 62
     7
100
AcDbLine
 10
54.525697867
 20
255.8302677674
 30
0.0
 11
56.525697962
 21
255.8302677674
 31
0.0
  0
LINE
  5
E4
330
1B
100
AcDbEntity
 67
     1
  8
SLD-0
  6
Continuous
 62
     7
100
AcDbLine
 10
266.5256914055
 20
255.8302677674
 30
0.0
 11
268.5256954586
 21
255.8302677674
 31
0.0
  0
LINE
  5
E5
330
1B
100
AcDbEntity
 67
     1
  8
SLD-0
  6
Continuous
 62
     7
100
AcDbLine
 10
264.5257022535
 20
255.8302677674
 30
0.0
 11
266.5256914055
 21
255.8302677674
 31
0.0
  0
LINE
  5
E6
330
1B
100
AcDbEntity
 67
     1
  8
SLD-0
  6
Continuous
 62
     7
100
AcDbLine
 10
240.5256983196
 20
196.8752214191
 30
0.0
 11
240.5256983196
 21
189.6752224741
 31
0.0
  0
LINE
  5
E7
330
1B
100
AcDbEntity
 67
     1
  8
SLD-0
  6
Continuous
 62
     7
100
AcDbLine
 10
240.2256932413
 20
189.6752224741
 30
0.0
 11
240.2256932413
 21
197.1752227721
 31
0.0
  0
LINE
  5
E8
330
1B
100
AcDbEntity
 67
     1
  8
SLD-0
  6
Continuous
 62
     7
100
AcDbLine
 10
82.8256979888
 20
197.1752227721
 30
0.0
 11
82.8256979888
 21
189.6752224741
 31
0.0
  0
LINE
  5
E9
330
1B
100
AcDbEntity
 67
     1
  8
SLD-0
  6
Continuous
 62
     7
100
AcDbLine
 10
82.5256984984
 20
189.6752224741
 30
0.0
 11
82.5256984984
 21
196.8752214191
 31
0.0
  0
LINE
  5
EA
330
1B
100
AcDbEntity
 67
     1
  8
SLD-0
  6
Continuous
 62
     7
100
AcDbLine
 10
82.8256979888
 20
189.6752224741
 30
0.0
 11
82.8256979888
 21
183.6752214906
 31
0.0
  0
LINE
  5
EB
330
1B
100
AcDbEntity
 67
     1
  8
SLD-0
  6
Continuous
 62
     7
100
AcDbLine
 10
82.5256984984
 20
183.6752214906
 30
0.0
 11
82.5256984984
 21
189.6752224741
 31
0.0
  0
LINE
  5
EC
330
1B
100
AcDbEntity
 67
     1
  8
SLD-0
  6
Continuous
 62
     7
100
AcDbLine
 10
240.5256983196
 20
189.6752224741
 30
0.0
 11
240.5256983196
 21
183.6752214906
 31
0.0
  0
LINE
  5
ED
330
1B
100
AcDbEntity
 67
     1
  8
SLD-0
  6
Continuous
 62
     7
100
AcDbLine
 10
240.2256932413
 20
183.6752214906
 30
0.0
 11
240.2256932413
 21
189.6752224741
 31
0.0
  0
LINE
  5
EE
330
1B
100
AcDbEntity
 67
     1
  8
SLD-0
  6
Continuous
 62
     7
100
AcDbLine
 10
240.5256983196
 20
182.4752235291
 30
0.0
 11
240.2256932413
 21
182.1752221761
 31
0.0
  0
LINE
  5
EF
330
1B
100
AcDbEntity
 67
     1
  8
SLD-0
  6
Continuous
 62
     7
100
AcDbLine
 10
240.2256932413
 20
182.1752221761
 30
0.0
 11
240.2256932413
 21
183.6752214906
 31
0.0
  0
LINE
  5
F0
330
1B
100
AcDbEntity
 67
     1
  8
SLD-0
  6
Continuous
 62
     7
100
AcDbLine
 10
82.8256979888
 20
183.6752214906
 30
0.0
 11
82.8256979888
 21
182.1752221761
 31
0.0
  0
LINE
  5
F1
330
1B
100
AcDbEntity
 67
     1
  8
SLD-0
  6
Continuous
 62
     7
100
AcDbLine
 10
82.8256979888
 20
182.1752221761
 30
0.0
 11
82.5256984984
 21
182.4752235291
 31
0.0
  0
LINE
  5
F2
330
1B
100
AcDbEntity
 67
     1
  8
SLD-0
  6
Continuous
 62
     7
100
AcDbLine
 10
240.2256932413
 20
182.1752221761
 30
0.0
 11
82.8256979888
 21
182.1752221761
 31
0.0
  0
LINE
  5
F3
330
1B
100
AcDbEntity
 67
     1
  8
SLD-0
  6
Continuous
 62
     7
100
AcDbLine
 10
274.0256994074
 20
236.5752217127
 30
0.0
 11
274.0256994074
 21
210.0752210943
 31
0.0
  0
LINE
  5
F4
330
1B
100
AcDbEntity
 67
     1
  8
SLD-0
  6
Continuous
 62
     7
100
AcDbLine
 10
240.8257033979
 20
189.5752207813
 30
0.0
 11
240.8257033979
 21
183.5752235231
 31
0.0
  0
LINE
  5
F5
330
1B
100
AcDbEntity
 67
     1
  8
SLD-0
  6
Continuous
 62
     7
100
AcDbLine
 10
240.8257033979
 20
197.0752210794
 30
0.0
 11
240.8257033979
 21
189.5752207813
 31
0.0
  0
LINE
  5
F6
330
1B
100
AcDbEntity
 67
     1
  8
SLD-0
  6
Continuous
 62
     7
100
AcDbLine
 10
240.5256983196
 20
183.5752235231
 30
0.0
 11
240.5256983196
 21
189.5752207813
 31
0.0
  0
LINE
  5
F7
330
1B
100
AcDbEntity
 67
     1
  8
SLD-0
  6
Continuous
 62
     7
100
AcDbLine
 10
246.0257020151
 20
182.0752204833
 30
0.0
 11
240.8257033979
 21
182.0752204833
 31
0.0
  0
LINE
  5
F8
330
1B
100
AcDbEntity
 67
     1
  8
SLD-0
  6
Continuous
 62
     7
100
AcDbLine
 10
240.8257033979
 20
183.5752235231
 30
0.0
 11
240.8257033979
 21
182.0752204833
 31
0.0
  0
LINE
  5
F9
330
1B
100
AcDbEntity
 67
     1
  8
SLD-0
  6
Continuous
 62
     7
100
AcDbLine
 10
240.8257033979
 20
182.0752204833
 30
0.0
 11
240.5256983196
 21
182.3752218363
 31
0.0
  0
LINE
  5
FA
330
1B
100
AcDbEntity
 67
     1
  8
SLD-0
  6
Continuous
 62
     7
100
AcDbLine
 10
240.5256983196
 20
182.3752218363
 30
0.0
 11
240.5256983196
 21
183.5752235231
 31
0.0
  0
LINE
  5
FB
330
1B
100
AcDbEntity
 67
     1
  8
SLD-0
  6
Continuous
 62
     7
100
AcDbLine
 10
82.2256971454
 20
183.5752235231
 30
0.0
 11
82.2256971454
 21
189.5752207813
 31
0.0
  0
LINE
  5
FC
330
1B
100
AcDbEntity
 67
     1
  8
SLD-0
  6
Continuous
 62
     7
100
AcDbLine
 10
49.0256971965
 20
210.0752204144
 30
0.0
 11
49.0256971965
 21
236.5752210328
 31
0.0
  0
LINE
  5
FD
330
1B
100
AcDbEntity
 67
     1
  8
SLD-0
  6
Continuous
 62
     7
100
AcDbLine
 10
82.2256971454
 20
189.5752207813
 30
0.0
 11
82.2256971454
 21
197.0752206137
 31
0.0
  0
LINE
  5
FE
330
1B
100
AcDbEntity
 67
     1
  8
SLD-0
  6
Continuous
 62
     7
100
AcDbLine
 10
82.5256984984
 20
189.5752207813
 30
0.0
 11
82.5256984984
 21
183.5752235231
 31
0.0
  0
LINE
  5
FF
330
1B
100
AcDbEntity
 67
     1
  8
SLD-0
  6
Continuous
 62
     7
100
AcDbLine
 10
82.2256971454
 20
182.0752204833
 30
0.0
 11
82.2256971454
 21
183.5752235231
 31
0.0
  0
LINE
  5
100
330
1B
100
AcDbEntity
 67
     1
  8
SLD-0
  6
Continuous
 62
     7
100
AcDbLine
 10
82.2256971454
 20
182.0752204833
 30
0.0
 11
77.0256985282
 21
182.0752204833
 31
0.0
  0
LINE
  5
101
330
1B
100
AcDbEntity
 67
     1
  8
SLD-0
  6
Continuous
 62
     7
100
AcDbLine
 10
82.5256984984
 20
183.5752235231
 30
0.0
 11
82.5256984984
 21
182.3752218363
 31
0.0
  0
LINE
  5
102
330
1B
100
AcDbEntity
 67
     1
  8
SLD-0
  6
Continuous
 62
     7
100
AcDbLine
 10
82.5256984984
 20
182.3752218363
 30
0.0
 11
82.2256971454
 21
182.0752204833
 31
0.0
  0
LINE
  5
103
330
1B
100
AcDbEntity
 67
     1
  8
SLD-0
  6
Continuous
 62
     7
100
AcDbLine
 10
81.525698178
 20
243.575222182
 30
0.0
 11
31.5256975895
 21
243.575222182
 31
0.0
  0
LINE
  5
104
330
1B
100
AcDbEntity
 67
     1
  8
SLD-0
  6
Continuous
 62
     7
100
AcDbLine
 10
80.5256980923
 20
236.5752218878
 30
0.0
 11
32.5256976751
 21
236.5752218878
 31
0.0
  0
LINE
  5
105
330
1B
100
AcDbEntity
 67
     1
  8
SLD-0
  6
Continuous
 62
     7
100
AcDbLine
 10
291.525699072
 20
243.575222182
 30
0.0
 11
241.5257003462
 21
243.575222182
 31
0.0
  0
LINE
  5
106
330
1B
100
AcDbEntity
 67
     1
  8
SLD-0
  6
Continuous
 62
     7
100
AcDbLine
 10
290.5256966395
 20
236.5752232661
 30
0.0
 11
242.5257036728
 21
236.5752232661
 31
0.0
  0
LINE
  5
107
330
1B
100
AcDbEntity
 67
     1
  8
SLD-0
  6
CENTER
 62
     7
100
AcDbLine
 10
234.525697962
 20
198.8471805368
 30
0.0
 11
234.525697962
 21
193.6038959659
 31
0.0
  0
LINE
  5
108
330
1B
100
AcDbEntity
 67
     1
  8
SLD-0
  6
CENTER
 62
     7
100
AcDbLine
 10
88.525697962
 20
198.8471805368
 30
0.0
 11
88.525697962
 21
193.6038959659
 31
0.0
  0
LINE
  5
109
330
1B
100
AcDbEntity
 67
     1
  8
SLD-0
  6
CENTER
 62
     7
100
AcDbLine
 10
56.525697962
 20
139.8427064942
 30
0.0
 11
56.525697962
 21
69.8427064942
 31
0.0
  0
LINE
  5
10A
330
1B
100
AcDbEntity
 67
     1
  8
SLD-0
  6
CENTER
 62
     7
100
AcDbLine
 10
266.525697962
 20
139.8427064942
 30
0.0
 11
266.525697962
 21
69.8427064942
 31
0.0
  0
LINE
  5
10B
330
1B
100
AcDbEntity
 67
     1
  8
SLD-0
  6
Continuous
 62
     7
100
AcDbLine
 10
85.525696901
 20
197.1752222237
 30
0.0
 11
85.525696901
 21
197.0995779849
 31
0.0
  0
LINE
  5
10C
330
1B
100
AcDbEntity
 67
     1
  8
SLD-0
  6
Continuous
 62
     7
100
AcDbLine
 10
91.5256978845
 20
197.1752222237
 30
0.0
 11
91.5256978845
 21
197.1001013863
 31
0.0
  0
LINE
  5
10D
330
1B
100
AcDbEntity
 67
     1
  8
SLD-0
  6
Continuous
 62
     7
100
AcDbLine
 10
233.8524351482
 20
197.8220144075
 30
0.0
 11
234.0106966559
 21
197.8220144075
 31
0.0
  0
LINE
  5
10E
330
1B
100
AcDbEntity
 67
     1
  8
SLD-0
  6
Continuous
 62
     7
100
AcDbLine
 10
234.0106966559
 20
197.5381510121
 30
0.0
 11
234.0106966559
 21
197.8220144075
 31
0.0
  0
LINE
  5
10F
330
1B
100
AcDbEntity
 67
     1
  8
SLD-0
  6
Continuous
 62
     7
100
AcDbLine
 10
235.0406984452
 20
197.8220142568
 30
0.0
 11
235.0406984452
 21
197.5381510121
 31
0.0
  0
LINE
  5
110
330
1B
100
AcDbEntity
 67
     1
  8
SLD-0
  6
Continuous
 62
     7
100
AcDbLine
 10
235.0406984452
 20
197.8220142568
 30
0.0
 11
235.1989636409
 21
197.8220142568
 31
0.0
  0
LINE
  5
111
330
1B
100
AcDbEntity
 67
     1
  8
SLD-0
  6
Continuous
 62
     7
100
AcDbLine
 10
237.5256978845
 20
197.1752218696
 30
0.0
 11
231.525696901
 21
197.1752218696
 31
0.0
  0
LINE
  5
112
330
1B
100
AcDbEntity
 67
     1
  8
SLD-0
  6
Continuous
 62
     7
100
AcDbLine
 10
236.866306827
 20
196.9252219114
 30
0.0
 11
232.2286091154
 21
196.9252219114
 31
0.0
  0
LINE
  5
113
330
1B
100
AcDbEntity
 67
     1
  8
SLD-0
  6
Continuous
 62
     7
100
AcDbLine
 10
231.525696901
 20
197.1752218696
 30
0.0
 11
231.525696901
 21
197.0995776308
 31
0.0
  0
LINE
  5
114
330
1B
100
AcDbEntity
 67
     1
  8
SLD-0
  6
Continuous
 62
     7
100
AcDbLine
 10
237.5256978845
 20
197.1752218696
 30
0.0
 11
237.5256978845
 21
197.1001010322
 31
0.0
  0
LINE
  5
115
330
1B
100
AcDbEntity
 67
     1
  8
SLD-0
  6
Continuous
 62
     7
100
AcDbLine
 10
30.1718109004
 20
19.8435834722
 30
0.0
 11
27.7302342086
 21
15.8657439043
 31
0.0
  0
LINE
  5
116
330
1B
100
AcDbEntity
 67
     1
  8
SLD-0
  6
Continuous
 62
     7
100
AcDbLine
 10
27.7302342086
 20
15.8657439043
 30
0.0
 11
32.6523479069
 21
15.8657439043
 31
0.0
  0
LINE
  5
117
330
1B
100
AcDbEntity
 67
     1
  8
SLD-0
  6
Continuous
 62
     7
100
AcDbLine
 10
32.6523479069
 20
15.8657439043
 30
0.0
 11
30.1718109004
 21
19.8435834722
 31
0.0
  0
LINE
  5
118
330
1B
100
AcDbEntity
 67
     1
  8
SLD-0
  6
Continuous
 62
     7
100
AcDbLine
 10
30.2126559815
 20
25.2324736862
 30
0.0
 11
27.7710792897
 21
21.2546341184
 31
0.0
  0
LINE
  5
119
330
1B
100
AcDbEntity
 67
     1
  8
SLD-0
  6
Continuous
 62
     7
100
AcDbLine
 10
27.7710792897
 20
21.2546341184
 30
0.0
 11
32.6931929881
 21
21.2546341184
 31
0.0
  0
LINE
  5
11A
330
1B
100
AcDbEntity
 67
     1
  8
SLD-0
  6
Continuous
 62
     7
100
AcDbLine
 10
32.6931929881
 20
21.2546341184
 30
0.0
 11
30.2126559815
 21
25.2324736862
 31
0.0
  0
LINE
  5
11B
330
1B
100
AcDbEntity
 67
     1
  8
SLD-0
  6
Continuous
 62
     7
100
AcDbLine
 10
30.2427566899
 20
30.7865477178
 30
0.0
 11
27.8011799981
 21
26.8087081499
 31
0.0
  0
LINE
  5
11C
330
1B
100
AcDbEntity
 67
     1
  8
SLD-0
  6
Continuous
 62
     7
100
AcDbLine
 10
27.8011799981
 20
26.8087081499
 30
0.0
 11
32.7232936965
 21
26.8087081499
 31
0.0
  0
LINE
  5
11D
330
1B
100
AcDbEntity
 67
     1
  8
SLD-0
  6
Continuous
 62
     7
100
AcDbLine
 10
32.7232936965
 20
26.8087081499
 30
0.0
 11
30.2427566899
 21
30.7865477178
 31
0.0
  0
LINE
  5
11E
330
1B
100
AcDbEntity
 67
     1
  8
SLD-0
  6
Continuous
 62
     7
100
AcDbLine
 10
291.0
 20
9.5
 30
0.0
 11
291.0
 21
31.5
 31
0.0
  0
LINE
  5
11F
330
1B
100
AcDbEntity
 67
     1
  8
SLD-0
  6
Continuous
 62
     7
100
AcDbLine
 10
358.5550076286
 20
30.9049236191
 30
0.0
 11
360.3667723576
 21
30.9049236191
 31
0.0
  0
LINE
  5
120
330
1B
100
AcDbEntity
 67
     1
  8
SLD-0
  6
Continuous
 62
     7
370
    35
100
AcDbLine
 10
21.0
 20
9.5
 30
0.0
 11
408.5
 21
9.5
 31
0.0
  0
LINE
  5
121
330
1B
100
AcDbEntity
 67
     1
  8
SLD-0
  6
Continuous
 62
     7
370
    35
100
AcDbLine
 10
21.0
 20
286.5
 30
0.0
 11
21.0
 21
9.5
 31
0.0
  0
LINE
  5
122
330
1B
100
AcDbEntity
 67
     1
  8
SLD-0
  6
Continuous
 62
     7
370
    35
100
AcDbLine
 10
21.0
 20
31.5
 30
0.0
 11
138.0
 21
31.5
 31
0.0
  0
LINE
  5
123
330
1B
100
AcDbEntity
 67
     1
  8
SLD-0
  6
Continuous
 62
     7
370
    35
100
AcDbLine
 10
408.5
 20
286.5
 30
0.0
 11
408.5
 21
9.5
 31
0.0
  0
LINE
  5
124
330
1B
100
AcDbEntity
 67
     1
  8
SLD-0
  6
Continuous
 62
     7
370
    35
100
AcDbLine
 10
138.0
 20
31.5
 30
0.0
 11
408.5
 21
31.5
 31
0.0
  0
LINE
  5
125
330
1B
100
AcDbEntity
 67
     1
  8
SLD-0
  6
Continuous
 62
     7
370
    35
100
AcDbLine
 10
21.0
 20
286.5
 30
0.0
 11
408.5
 21
286.5
 31
0.0
  0
LINE
  5
126
330
1B
100
AcDbEntity
 67
     1
  8
SLD-0
  6
Continuous
 62
     7
100
AcDbLine
 10
26.5
 20
20.5
 30
0.0
 11
138.0
 21
20.5
 31
0.0
  0
LINE
  5
127
330
1B
100
AcDbEntity
 67
     1
  8
SLD-0
  6
Continuous
 62
     7
100
AcDbLine
 10
49.5
 20
31.5
 30
0.0
 11
49.5
 21
9.5
 31
0.0
  0
LINE
  5
128
330
1B
100
AcDbEntity
 67
     1
  8
SLD-0
  6
Continuous
 62
     7
100
AcDbLine
 10
26.5
 20
26.0
 30
0.0
 11
138.0
 21
26.0
 31
0.0
  0
LINE
  5
129
330
1B
100
AcDbEntity
 67
     1
  8
SLD-0
  6
Continuous
 62
     7
100
AcDbLine
 10
34.5
 20
31.5
 30
0.0
 11
34.5
 21
9.5
 31
0.0
  0
LINE
  5
12A
330
1B
100
AcDbEntity
 67
     1
  8
SLD-0
  6
Continuous
 62
     7
100
AcDbLine
 10
26.5
 20
31.5
 30
0.0
 11
26.5
 21
9.5
 31
0.0
  0
LINE
  5
12B
330
1B
100
AcDbEntity
 67
     1
  8
SLD-0
  6
Continuous
 62
     7
100
AcDbLine
 10
26.5
 20
15.0
 30
0.0
 11
138.0
 21
15.0
 31
0.0
  0
LINE
  5
12C
330
1B
100
AcDbEntity
 67
     1
  8
SLD-0
  6
Continuous
 62
     7
100
AcDbLine
 10
203.0
 20
31.5
 30
0.0
 11
203.0
 21
9.5
 31
0.0
  0
LINE
  5
12D
330
1B
100
AcDbEntity
 67
     1
  8
SLD-0
  6
Continuous
 62
     7
100
AcDbLine
 10
198.0
 20
31.5
 30
0.0
 11
198.0
 21
9.5
 31
0.0
  0
LINE
  5
12E
330
1B
100
AcDbEntity
 67
     1
  8
SLD-0
  6
Continuous
 62
     7
100
AcDbLine
 10
143.0
 20
31.5
 30
0.0
 11
143.0
 21
9.5
 31
0.0
  0
LINE
  5
12F
330
1B
100
AcDbEntity
 67
     1
  8
SLD-0
  6
Continuous
 62
     7
100
AcDbLine
 10
138.0
 20
31.5
 30
0.0
 11
138.0
 21
20.5
 31
0.0
  0
LINE
  5
130
330
1B
100
AcDbEntity
 67
     1
  8
SLD-0
  6
Continuous
 62
     7
100
AcDbLine
 10
59.5
 20
31.5
 30
0.0
 11
59.5
 21
9.5
 31
0.0
  0
LINE
  5
131
330
1B
100
AcDbEntity
 67
     1
  8
SLD-0
  6
Continuous
 62
     7
100
AcDbLine
 10
231.0
 20
31.5
 30
0.0
 11
231.0
 21
20.5
 31
0.0
  0
LINE
  5
132
330
1B
100
AcDbEntity
 67
     1
  8
SLD-0
  6
Continuous
 62
     7
100
AcDbLine
 10
236.0
 20
31.5
 30
0.0
 11
236.0
 21
20.5
 31
0.0
  0
LINE
  5
133
330
1B
100
AcDbEntity
 67
     1
  8
SLD-0
  6
Continuous
 62
     7
100
AcDbLine
 10
251.0
 20
31.5
 30
0.0
 11
251.0
 21
20.5
 31
0.0
  0
LINE
  5
134
330
1B
100
AcDbEntity
 67
     1
  8
SLD-0
  6
Continuous
 62
     7
100
AcDbLine
 10
256.0
 20
31.5
 30
0.0
 11
256.0
 21
20.5
 31
0.0
  0
LINE
  5
135
330
1B
100
AcDbEntity
 67
     1
  8
SLD-0
  6
Continuous
 62
     7
100
AcDbLine
 10
296.0
 20
31.5
 30
0.0
 11
296.0
 21
20.5
 31
0.0
  0
LINE
  5
136
330
1B
100
AcDbEntity
 67
     1
  8
SLD-0
  6
Continuous
 62
     7
100
AcDbLine
 10
311.0
 20
31.5
 30
0.0
 11
311.0
 21
9.5
 31
0.0
  0
LINE
  5
137
330
1B
100
AcDbEntity
 67
     1
  8
SLD-0
  6
Continuous
 62
     7
100
AcDbLine
 10
326.0
 20
31.5
 30
0.0
 11
326.0
 21
9.5
 31
0.0
  0
LINE
  5
138
330
1B
100
AcDbEntity
 67
     1
  8
SLD-0
  6
Continuous
 62
     7
100
AcDbLine
 10
341.0
 20
31.5
 30
0.0
 11
341.0
 21
9.5
 31
0.0
  0
LINE
  5
139
330
1B
100
AcDbEntity
 67
     1
  8
SLD-0
  6
Continuous
 62
     7
100
AcDbLine
 10
356.0
 20
31.5
 30
0.0
 11
356.0
 21
9.5
 31
0.0
  0
LINE
  5
13A
330
1B
100
AcDbEntity
 67
     1
  8
SLD-0
  6
Continuous
 62
     7
100
AcDbLine
 10
356.0
 20
20.5
 30
0.0
 11
408.5
 21
20.5
 31
0.0
  0
LINE
  5
13B
330
1B
100
AcDbEntity
 67
     1
  8
SLD-0
  6
Continuous
 62
     7
100
AcDbLine
 10
361.0
 20
20.5
 30
0.0
 11
361.0
 21
9.5
 31
0.0
  0
LINE
  5
13C
330
1B
100
AcDbEntity
 67
     1
  8
SLD-0
  6
Continuous
 62
     7
100
AcDbLine
 10
311.0
 20
26.5
 30
0.0
 11
356.0
 21
26.5
 31
0.0
  0
LINE
  5
13D
330
1B
100
AcDbEntity
 67
     1
  8
SLD-0
  6
Continuous
 62
     7
100
AcDbLine
 10
138.0
 20
20.5
 30
0.0
 11
311.0
 21
20.5
 31
0.0
  0
LINE
  5
13E
330
1B
100
AcDbEntity
 67
     1
  8
SLD-0
  6
Continuous
 62
     7
100
AcDbLine
 10
138.0
 20
20.5
 30
0.0
 11
138.0
 21
9.5
 31
0.0
  0
LINE
  5
13F
330
1B
100
AcDbEntity
 67
     1
  8
SLD-0
  6
Continuous
 62
     7
100
AcDbLine
 10
360.3667723576
 20
25.922570647
 30
0.0
 11
361.6123606662
 21
25.922570647
 31
0.0
  0
LINE
  5
140
330
1B
100
AcDbEntity
 67
     1
  8
SLD-0
  6
Continuous
 62
     7
100
AcDbLine
 10
358.5550076286
 20
24.790217675
 30
0.0
 11
363.1976547877
 21
24.790217675
 31
0.0
  0
LINE
  5
141
330
1B
100
AcDbEntity
 67
     1
  8
SLD-0
  6
Continuous
 62
     7
100
AcDbLine
 10
358.5550076286
 20
30.9049236191
 30
0.0
 11
358.5550076286
 21
24.790217675
 31
0.0
  0
LINE
  5
142
330
1B
100
AcDbEntity
 67
     1
  8
SLD-0
  6
Continuous
 62
     7
100
AcDbLine
 10
360.3667723576
 20
30.9049236191
 30
0.0
 11
360.3667723576
 21
25.922570647
 31
0.0
  0
LINE
  5
143
330
1B
100
AcDbEntity
 67
     1
  8
SLD-0
  6
Continuous
 62
     7
100
AcDbLine
 10
361.6123606662
 20
30.9049236191
 30
0.0
 11
361.6123606662
 21
25.922570647
 31
0.0
  0
LINE
  5
144
330
1B
100
AcDbEntity
 67
     1
  8
SLD-0
  6
Continuous
 62
     7
100
AcDbLine
 10
363.1976547877
 20
30.9049236191
 30
0.0
 11
363.1976547877
 21
26.8284528149
 31
0.0
  0
LINE
  5
145
330
1B
100
AcDbEntity
 67
     1
  8
SLD-0
  6
Continuous
 62
     7
100
AcDbLine
 10
364.4432428996
 20
30.9049236191
 30
0.0
 11
364.4432428996
 21
26.8284528149
 31
0.0
  0
LINE
  5
146
330
1B
100
AcDbEntity
 67
     1
  8
SLD-0
  6
Continuous
 62
     7
100
AcDbLine
 10
366.2550076286
 20
30.9049236191
 30
0.0
 11
366.2550076286
 21
25.922570647
 31
0.0
  0
LINE
  5
147
330
1B
100
AcDbEntity
 67
     1
  8
SLD-0
  6
Continuous
 62
     7
100
AcDbLine
 10
361.6123606662
 20
30.9049236191
 30
0.0
 11
363.1976547877
 21
30.9049236191
 31
0.0
  0
LINE
  5
148
330
1B
100
AcDbEntity
 67
     1
  8
SLD-0
  6
Continuous
 62
     7
100
AcDbLine
 10
364.4432428996
 20
30.9049236191
 30
0.0
 11
366.2550076286
 21
30.9049236191
 31
0.0
  0
LINE
  5
149
330
1B
100
AcDbEntity
 67
     1
  8
SLD-0
  6
Continuous
 62
     7
100
AcDbLine
 10
363.1976547877
 20
26.8284528149
 30
0.0
 11
364.4432428996
 21
26.8284528149
 31
0.0
  0
LINE
  5
14A
330
1B
100
AcDbEntity
 67
     1
  8
SLD-0
  6
Continuous
 62
     7
100
AcDbLine
 10
363.1976547877
 20
25.922570647
 30
0.0
 11
366.2550076286
 21
25.922570647
 31
0.0
  0
LINE
  5
14B
330
1B
100
AcDbEntity
 67
     1
  8
SLD-0
  6
Continuous
 62
     7
100
AcDbLine
 10
363.1976547877
 20
25.922570647
 30
0.0
 11
363.1976547877
 21
24.790217675
 31
0.0
  0
LINE
  5
14C
330
1B
100
AcDbEntity
 67
     1
  8
SLD-0
  6
Continuous
 62
     7
100
AcDbLine
 10
123.0
 20
31.5
 30
0.0
 11
123.0
 21
9.5
 31
0.0
  0
LINE
  5
14D
330
1B
100
AcDbEntity
 67
     1
  8
SLD-0
  6
PHANTOM
 62
     7
100
AcDbLine
 10
237.7224750929
 20
9.5
 30
0.0
 11
291.0
 21
9.5
 31
0.0
  0
LINE
  5
14E
330
1B
100
AcDbEntity
 67
     1
  8
SLD-0
  6
Continuous
 62
     7
100
AcDbLine
 10
56.525697962
 20
97.0927066209
 30
0.0
 11
58.0376480078
 21
97.241620444
 31
0.0
  0
LINE
  5
14F
330
1B
100
AcDbEntity
 67
     1
  8
SLD-0
  6
Continuous
 62
     7
100
AcDbLine
 10
58.0376480078
 20
97.241620444
 30
0.0
 11
58.4782603267
 21
97.3427066619
 31
0.0
  0
LINE
  5
150
330
1B
100
AcDbEntity
 67
     1
  8
SLD-0
  6
Continuous
 62
     7
100
AcDbLine
 10
58.4782603268
 20
112.3427063266
 30
0.0
 11
58.0376480079
 21
112.4437925445
 31
0.0
  0
LINE
  5
151
330
1B
100
AcDbEntity
 67
     1
  8
SLD-0
  6
Continuous
 62
     7
100
AcDbLine
 10
58.0376480079
 20
112.4437925445
 30
0.0
 11
56.5256979621
 21
112.5927063676
 31
0.0
  0
LINE
  5
152
330
1B
100
AcDbEntity
 67
     1
  8
SLD-0
  6
Continuous
 62
     7
100
AcDbLine
 10
266.5256914055
 20
112.5927044676
 30
0.0
 11
265.0137450848
 21
112.4437906445
 31
0.0
  0
LINE
  5
153
330
1B
100
AcDbEntity
 67
     1
  8
SLD-0
  6
Continuous
 62
     7
100
AcDbLine
 10
265.0137450848
 20
112.4437906445
 30
0.0
 11
264.5731326495
 21
112.3427044266
 31
0.0
  0
LINE
  5
154
330
1B
100
AcDbEntity
 67
     1
  8
SLD-0
  6
Continuous
 62
     7
100
AcDbLine
 10
264.5731326496
 20
97.3427066619
 30
0.0
 11
265.0137450849
 21
97.241620444
 31
0.0
  0
LINE
  5
155
330
1B
100
AcDbEntity
 67
     1
  8
SLD-0
  6
Continuous
 62
     7
100
AcDbLine
 10
265.0137450849
 20
97.241620444
 30
0.0
 11
266.5256914055
 21
97.0927066209
 31
0.0
  0
LINE
  5
156
330
1B
100
AcDbEntity
 67
     1
  8
SLD-0
  6
Continuous
 62
     7
100
AcDbLine
 10
86.4785393108
 20
197.5381525719
 30
0.0
 11
86.4749754876
 21
197.5460119471
 31
0.0
  0
LINE
  5
157
330
1B
100
AcDbEntity
 67
     1
  8
SLD-0
  6
Continuous
 62
     7
100
AcDbLine
 10
86.4749754876
 20
197.5460119471
 30
0.0
 11
86.4724292517
 21
197.5516259596
 31
0.0
  0
LINE
  5
158
330
1B
100
AcDbEntity
 67
     1
  8
SLD-0
  6
Continuous
 62
     7
100
AcDbLine
 10
86.4724292517
 20
197.5516259596
 30
0.0
 11
86.4709018826
 21
197.5549973473
 31
0.0
  0
LINE
  5
159
330
1B
100
AcDbEntity
 67
     1
  8
SLD-0
  6
Continuous
 62
     7
100
AcDbLine
 10
90.5810038148
 20
197.5561204271
 30
0.0
 11
90.5789677357
 21
197.5516261039
 31
0.0
  0
LINE
  5
15A
330
1B
100
AcDbEntity
 67
     1
  8
SLD-0
  6
Continuous
 62
     7
100
AcDbLine
 10
90.5789677357
 20
197.5516261039
 30
0.0
 11
90.5764196372
 21
197.5460120914
 31
0.0
  0
LINE
  5
15B
330
1B
100
AcDbEntity
 67
     1
  8
SLD-0
  6
Continuous
 62
     7
100
AcDbLine
 10
90.5764196372
 20
197.5460120914
 30
0.0
 11
90.5728564995
 21
197.5381527161
 31
0.0
  0
LINE
  5
15C
330
1B
100
AcDbEntity
 67
     1
  8
SLD-0
  6
Continuous
 62
     7
100
AcDbLine
 10
91.4005256442
 20
197.0648381135
 30
0.0
 11
91.0471062501
 21
196.9712685226
 31
0.0
  0
LINE
  5
15D
330
1B
100
AcDbEntity
 67
     1
  8
SLD-0
  6
Continuous
 62
     7
100
AcDbLine
 10
85.9872486751
 20
196.972913115
 30
0.0
 11
85.6343021486
 21
197.0683032138
 31
0.0
  0
LINE
  5
15E
330
1B
100
AcDbEntity
 67
     1
  8
SLD-0
  6
Continuous
 62
     7
100
AcDbLine
 10
237.4005302431
 20
197.0648381626
 30
0.0
 11
237.047112801
 21
196.9712628175
 31
0.0
  0
LINE
  5
15F
330
1B
100
AcDbEntity
 67
     1
  8
SLD-0
  6
Continuous
 62
     7
100
AcDbLine
 10
231.9872520714
 20
196.9729123114
 30
0.0
 11
231.6343059922
 21
197.0683042627
 31
0.0
  0
LINE
  5
160
330
1B
100
AcDbEntity
 67
     1
  8
SLD-0
  6
Continuous
 62
     7
100
AcDbLine
 10
232.4785393108
 20
197.5381522178
 30
0.0
 11
232.4749754876
 21
197.546011593
 31
0.0
  0
LINE
  5
161
330
1B
100
AcDbEntity
 67
     1
  8
SLD-0
  6
Continuous
 62
     7
100
AcDbLine
 10
232.4749754876
 20
197.546011593
 30
0.0
 11
232.4724292517
 21
197.5516256055
 31
0.0
  0
LINE
  5
162
330
1B
100
AcDbEntity
 67
     1
  8
SLD-0
  6
Continuous
 62
     7
100
AcDbLine
 10
232.4724292517
 20
197.5516256055
 30
0.0
 11
232.4709018826
 21
197.5549969932
 31
0.0
  0
LINE
  5
163
330
1B
100
AcDbEntity
 67
     1
  8
SLD-0
  6
Continuous
 62
     7
100
AcDbLine
 10
236.5810038148
 20
197.556120073
 30
0.0
 11
236.5789677357
 21
197.5516257498
 31
0.0
  0
LINE
  5
164
330
1B
100
AcDbEntity
 67
     1
  8
SLD-0
  6
Continuous
 62
     7
100
AcDbLine
 10
236.5789677357
 20
197.5516257498
 30
0.0
 11
236.5764196372
 21
197.5460117373
 31
0.0
  0
LINE
  5
165
330
1B
100
AcDbEntity
 67
     1
  8
SLD-0
  6
Continuous
 62
     7
100
AcDbLine
 10
236.5764196372
 20
197.5460117373
 30
0.0
 11
236.5728564995
 21
197.5381523621
 31
0.0
  0
ARC
  5
166
330
1B
100
AcDbEntity
 67
     1
  8
SLD-0
  6
Continuous
 62
     7
100
AcDbCircle
 10
272.5256979619
 20
110.8427058144
 30
0.0
 40
1.500000512255252
100
AcDbArc
 50
0.0000539321
 51
89.9997859869
  0
ARC
  5
167
330
1B
100
AcDbEntity
 67
     1
  8
SLD-0
  6
Continuous
 62
     7
100
AcDbCircle
 10
272.525697962
 20
98.8427071741
 30
0.0
 40
1.500000512205248
100
AcDbArc
 50
270.0002140112
 51
359.9999980099
  0
ARC
  5
168
330
1B
100
AcDbEntity
 67
     1
  8
SLD-0
  6
Continuous
 62
     7
100
AcDbCircle
 10
50.525697962
 20
110.8427064942
 30
0.0
 40
1.499999832400001
100
AcDbArc
 50
90.0000019958
 51
179.9999980042
  0
ARC
  5
169
330
1B
100
AcDbEntity
 67
     1
  8
SLD-0
  6
Continuous
 62
     7
100
AcDbCircle
 10
50.525697962
 20
98.8427064943
 30
0.0
 40
1.499999832350015
100
AcDbArc
 50
180.0000019901
 51
269.9999980061
  0
ARC
  5
16A
330
1B
100
AcDbEntity
 67
     1
  8
SLD-0
  6
Continuous
 62
     7
100
AcDbCircle
 10
50.275697962
 20
98.5927064942
 30
0.0
 40
1.499999873300008
100
AcDbArc
 50
180.0000035562
 51
269.9999964438
  0
ARC
  5
16B
330
1B
100
AcDbEntity
 67
     1
  8
SLD-0
  6
Continuous
 62
     7
100
AcDbCircle
 10
50.2756979621
 20
111.0927064942
 30
0.0
 40
1.499999873350009
100
AcDbArc
 50
90.0000035562
 51
179.99999644
  0
ARC
  5
16C
330
1B
100
AcDbEntity
 67
     1
  8
SLD-0
  6
Continuous
 62
     7
100
AcDbCircle
 10
56.525697962
 20
104.8427064942
 30
0.0
 40
25.00000000000001
100
AcDbArc
 50
17.4576031237
 51
180.0
  0
ARC
  5
16D
330
1B
100
AcDbEntity
 67
     1
  8
SLD-0
  6
Continuous
 62
     7
100
AcDbCircle
 10
56.525697962
 20
104.8427064942
 30
0.0
 40
25.00000000000001
100
AcDbArc
 50
180.0
 51
342.5423968763
  0
ARC
  5
16E
330
1B
100
AcDbEntity
 67
     1
  8
SLD-0
  6
Continuous
 62
     7
100
AcDbCircle
 10
272.775697962
 20
98.5927055442
 30
0.0
 40
1.499998923351032
100
AcDbArc
 50
270.0000910697
 51
359.9999964438
  0
ARC
  5
16F
330
1B
100
AcDbEntity
 67
     1
  8
SLD-0
  6
Continuous
 62
     7
100
AcDbCircle
 10
272.775697962
 20
111.0927055442
 30
0.0
 40
1.499998923401054
100
AcDbArc
 50
0.00000356
 51
89.9999089303
  0
ARC
  5
170
330
1B
100
AcDbEntity
 67
     1
  8
SLD-0
  6
Continuous
 62
     7
100
AcDbCircle
 10
266.525697962
 20
104.8427064942
 30
0.0
 40
25.0
100
AcDbArc
 50
197.4576031237
 51
0.0
  0
ARC
  5
171
330
1B
100
AcDbEntity
 67
     1
  8
SLD-0
  6
Continuous
 62
     7
100
AcDbCircle
 10
266.525697962
 20
104.8427064942
 30
0.0
 40
25.00000000000002
100
AcDbArc
 50
0.0
 51
162.5423968763
  0
ARC
  5
172
330
1B
100
AcDbEntity
 67
     1
  8
SLD-0
  6
HIDDEN
 62
     7
100
AcDbCircle
 10
318.5507365755
 20
104.8427064942
 30
0.0
 40
7.50000084940001
100
AcDbArc
 50
270.0
 51
90.0
  0
ARC
  5
173
330
1B
100
AcDbEntity
 67
     1
  8
SLD-0
  6
Continuous
 62
     7
100
AcDbCircle
 10
366.5507375031
 20
80.8427064942
 30
0.0
 40
1.000000294300002
100
AcDbArc
 50
180.0000119519
 51
269.9999970092
  0
ARC
  5
174
330
1B
100
AcDbEntity
 67
     1
  8
SLD-0
  6
Continuous
 62
     7
100
AcDbCircle
 10
366.5507375032
 20
128.8427064942
 30
0.0
 40
1.000000294350024
100
AcDbArc
 50
90.0000029908
 51
179.9999880424
  0
ARC
  5
175
330
1B
100
AcDbEntity
 67
     1
  8
SLD-0
  6
Continuous
 62
     7
100
AcDbCircle
 10
312.5507365755
 20
110.8427064942
 30
0.0
 40
1.500000849399967
100
AcDbArc
 50
90.0
 51
179.9999980061
  0
ARC
  5
176
330
1B
100
AcDbEntity
 67
     1
  8
SLD-0
  6
Continuous
 62
     7
100
AcDbCircle
 10
312.5507365755
 20
98.8427064942
 30
0.0
 40
1.500000849399967
100
AcDbArc
 50
180.0000019901
 51
270.0
  0
ARC
  5
177
330
1B
100
AcDbEntity
 67
     1
  8
SLD-0
  6
CENTER
 62
     7
100
AcDbCircle
 10
77.025697962
 20
210.175222182
 30
0.0
 40
20.5
100
AcDbArc
 50
180.0
 51
270.0
  0
ARC
  5
178
330
1B
100
AcDbEntity
 67
     1
  8
SLD-0
  6
CENTER
 62
     7
100
AcDbCircle
 10
246.025697962
 20
210.175222182
 30
0.0
 40
20.5
100
AcDbArc
 50
270.0
 51
0.0
  0
ARC
  5
179
330
1B
100
AcDbEntity
 67
     1
  8
SLD-0
  6
Continuous
 62
     7
100
AcDbCircle
 10
88.5256978822
 20
191.0966505023
 30
0.0
 40
6.778572125355548
100
AcDbArc
 50
107.6502856946
 51
116.2680509549
  0
ARC
  5
17A
330
1B
100
AcDbEntity
 67
     1
  8
SLD-0
  6
Continuous
 62
     7
100
AcDbCircle
 10
88.5256978822
 20
191.0966505023
 30
0.0
 40
6.778571692110955
100
AcDbArc
 50
63.731956465
 51
72.3497143062
  0
ARC
  5
17B
330
1B
100
AcDbEntity
 67
     1
  8
SLD-0
  6
Continuous
 62
     7
100
AcDbCircle
 10
246.025697962
 20
210.0752219287
 30
0.0
 40
13.00000084935031
100
AcDbArc
 50
270.0000178635
 51
359.9999963225
  0
ARC
  5
17C
330
1B
100
AcDbEntity
 67
     1
  8
SLD-0
  6
Continuous
 62
     7
100
AcDbCircle
 10
77.025697962
 20
210.0752212488
 30
0.0
 40
13.00000063515001
100
AcDbArc
 50
180.0000036775
 51
270.0000024955
  0
ARC
  5
17D
330
1B
100
AcDbEntity
 67
     1
  8
SLD-0
  6
Continuous
 62
     7
100
AcDbCircle
 10
80.5256978837
 20
237.575222182
 30
0.0
 40
1.000000294250016
100
AcDbArc
 50
270.0000119519
 51
359.9999970149
  0
ARC
  5
17E
330
1B
100
AcDbEntity
 67
     1
  8
SLD-0
  6
Continuous
 62
     7
100
AcDbCircle
 10
32.5256978838
 20
237.575222182
 30
0.0
 40
1.000000294250019
100
AcDbArc
 50
180.0000029851
 51
269.9999880481
  0
ARC
  5
17F
330
1B
100
AcDbEntity
 67
     1
  8
SLD-0
  6
Continuous
 62
     7
100
AcDbCircle
 10
290.5256992621
 20
237.5752230761
 30
0.0
 40
0.9999998099517042
100
AcDbArc
 50
269.9998497361
 51
359.9999970149
  0
ARC
  5
180
330
1B
100
AcDbEntity
 67
     1
  8
SLD-0
  6
Continuous
 62
     7
100
AcDbCircle
 10
242.5256992621
 20
237.575222182
 30
0.0
 40
0.9999989159048552
100
AcDbArc
 50
180.0000029851
 51
270.0002527144
  0
ARC
  5
181
330
1B
100
AcDbEntity
 67
     1
  8
SLD-0
  6
Continuous
 62
     7
100
AcDbCircle
 10
88.5256978822
 20
191.0966505023
 30
0.0
 40
6.758979740175691
100
AcDbArc
 50
95.7167194851
 51
107.6306542148
  0
ARC
  5
182
330
1B
100
AcDbEntity
 67
     1
  8
SLD-0
  6
Continuous
 62
     7
100
AcDbCircle
 10
88.5256975506
 20
190.1667954877
 30
0.0
 40
7.38932428635982
100
AcDbArc
 50
86.0035157121
 51
93.9964842887
  0
ARC
  5
183
330
1B
100
AcDbEntity
 67
     1
  8
SLD-0
  6
Continuous
 62
     7
100
AcDbCircle
 10
88.5256978822
 20
191.0966505023
 30
0.0
 40
6.758979891578438
100
AcDbArc
 50
72.3693457852
 51
84.2832548739
  0
ARC
  5
184
330
1B
100
AcDbEntity
 67
     1
  8
SLD-0
  6
Continuous
 62
     7
100
AcDbCircle
 10
246.025697962
 20
210.0752219287
 30
0.0
 40
28.00000144540011
100
AcDbArc
 50
270.0000082938
 51
359.9999982926
  0
ARC
  5
185
330
1B
100
AcDbEntity
 67
     1
  8
SLD-0
  6
Continuous
 62
     7
100
AcDbCircle
 10
77.025697962
 20
210.0752212488
 30
0.0
 40
28.00000076555001
100
AcDbArc
 50
180.0000017074
 51
270.0000011586
  0
ARC
  5
186
330
1B
100
AcDbEntity
 67
     1
  8
SLD-0
  6
Continuous
 62
     7
100
AcDbCircle
 10
234.5256978822
 20
191.0966501483
 30
0.0
 40
6.778572125355489
100
AcDbArc
 50
107.6502856946
 51
116.2680509549
  0
ARC
  5
187
330
1B
100
AcDbEntity
 67
     1
  8
SLD-0
  6
Continuous
 62
     7
100
AcDbCircle
 10
234.5256978822
 20
191.0966501483
 30
0.0
 40
6.778571692110885
100
AcDbArc
 50
63.731956465
 51
72.3497143062
  0
ARC
  5
188
330
1B
100
AcDbEntity
 67
     1
  8
SLD-0
  6
Continuous
 62
     7
100
AcDbCircle
 10
234.5256978822
 20
191.0966501483
 30
0.0
 40
6.758979740175694
100
AcDbArc
 50
95.7167194851
 51
107.6306542148
  0
ARC
  5
189
330
1B
100
AcDbEntity
 67
     1
  8
SLD-0
  6
Continuous
 62
     7
100
AcDbCircle
 10
234.5256975506
 20
190.1667951336
 30
0.0
 40
7.389324286359808
100
AcDbArc
 50
86.0035157121
 51
93.9964842887
  0
ARC
  5
18A
330
1B
100
AcDbEntity
 67
     1
  8
SLD-0
  6
Continuous
 62
     7
100
AcDbCircle
 10
234.5256978822
 20
191.0966501483
 30
0.0
 40
6.758979891578399
100
AcDbArc
 50
72.3693457852
 51
84.2832548739
  0
ARC
  5
18B
330
1B
100
AcDbEntity
 67
     1
  8
SLD-0
  6
Continuous
 62
     7
100
AcDbCircle
 10
88.7340274345
 20
206.7885559543
 30
0.0
 40
10.08270307763386
100
AcDbArc
 50
285.3350248521
 51
287.4125576998
  0
ARC
  5
18C
330
1B
100
AcDbEntity
 67
     1
  8
SLD-0
  6
Continuous
 62
     7
100
AcDbCircle
 10
87.8362814734
 20
209.7109109745
 30
0.0
 40
13.13803202724487
100
AcDbArc
 50
282.5515427806
 51
284.1458825296
  0
ARC
  5
18D
330
1B
100
AcDbEntity
 67
     1
  8
SLD-0
  6
Continuous
 62
     7
100
AcDbCircle
 10
88.1038953234
 20
208.5101176703
 30
0.0
 40
11.90777934791769
100
AcDbArc
 50
280.791230613
 51
282.5502707321
  0
ARC
  5
18E
330
1B
100
AcDbEntity
 67
     1
  8
SLD-0
  6
Continuous
 62
     7
100
AcDbCircle
 10
88.289774105
 20
207.5349797989
 30
0.0
 40
10.91508362950647
100
AcDbArc
 50
278.8720798277
 51
280.7911483167
  0
ARC
  5
18F
330
1B
100
AcDbEntity
 67
     1
  8
SLD-0
  6
Continuous
 62
     7
100
AcDbCircle
 10
88.3991616589
 20
206.8365063098
 30
0.0
 40
10.2080965588345
100
AcDbArc
 50
276.8180423754
 51
278.8700933315
  0
ARC
  5
190
330
1B
100
AcDbEntity
 67
     1
  8
SLD-0
  6
Continuous
 62
     7
100
AcDbCircle
 10
88.4700139145
 20
206.2435686778
 30
0.0
 40
9.610940736792779
100
AcDbArc
 50
274.6387229484
 51
276.8182830202
  0
ARC
  5
191
330
1B
100
AcDbEntity
 67
     1
  8
SLD-0
  6
Continuous
 62
     7
100
AcDbCircle
 10
88.5125817227
 20
205.7210154752
 30
0.0
 40
9.086656617313096
100
AcDbArc
 50
272.3324901504
 51
274.6376626572
  0
ARC
  5
192
330
1B
100
AcDbEntity
 67
     1
  8
SLD-0
  6
Continuous
 62
     7
100
AcDbCircle
 10
88.5130755837
 20
205.736266341
 30
0.0
 40
9.101874816297775
100
AcDbArc
 50
270.0242325293
 51
272.3254767191
  0
ARC
  5
193
330
1B
100
AcDbEntity
 67
     1
  8
SLD-0
  6
Continuous
 62
     7
100
AcDbCircle
 10
88.5129829499
 20
205.8547889144
 30
0.0
 40
9.220397418344554
100
AcDbArc
 50
267.7526659679
 51
270.0244966635
  0
ARC
  5
194
330
1B
100
AcDbEntity
 67
     1
  8
SLD-0
  6
Continuous
 62
     7
100
AcDbCircle
 10
88.516992426
 20
205.9581211989
 30
0.0
 40
9.323807450986276
100
AcDbArc
 50
265.5062354553
 51
267.7529462454
  0
ARC
  5
195
330
1B
100
AcDbEntity
 67
     1
  8
SLD-0
  6
Continuous
 62
     7
100
AcDbCircle
 10
88.5318381892
 20
206.1412089141
 30
0.0
 40
9.507495515513813
100
AcDbArc
 50
263.2999439643
 51
265.5034928935
  0
ARC
  5
196
330
1B
100
AcDbEntity
 67
     1
  8
SLD-0
  6
Continuous
 62
     7
100
AcDbCircle
 10
88.56029726
 20
206.383778784
 30
0.0
 40
9.751729131542444
100
AcDbArc
 50
261.1518435107
 51
263.3001574225
  0
ARC
  5
197
330
1B
100
AcDbEntity
 67
     1
  8
SLD-0
  6
Continuous
 62
     7
100
AcDbCircle
 10
88.5970533625
 20
206.6201836426
 30
0.0
 40
9.990974332878967
100
AcDbArc
 50
259.0553820625
 51
261.1520972987
  0
ARC
  5
198
330
1B
100
AcDbEntity
 67
     1
  8
SLD-0
  6
Continuous
 62
     7
100
AcDbCircle
 10
88.7809393597
 20
207.5476166105
 30
0.0
 40
10.93645188803705
100
AcDbArc
 50
257.1166500305
 51
259.0320223196
  0
ARC
  5
199
330
1B
100
AcDbEntity
 67
     1
  8
SLD-0
  6
Continuous
 62
     7
100
AcDbCircle
 10
89.2898330138
 20
209.7725667868
 30
0.0
 40
13.21885764472041
100
AcDbArc
 50
255.5320229773
 51
257.1166818313
  0
ARC
  5
19A
330
1B
100
AcDbEntity
 67
     1
  8
SLD-0
  6
Continuous
 62
     7
100
AcDbCircle
 10
89.3267802521
 20
210.0917136249
 30
0.0
 40
13.53675046966894
100
AcDbArc
 50
252.623175484
 51
254.1705771495
  0
ARC
  5
19B
330
1B
100
AcDbEntity
 67
     1
  8
SLD-0
  6
Continuous
 62
     7
100
AcDbCircle
 10
234.7047635998
 20
206.888195325
 30
0.0
 40
10.1865354137253
100
AcDbArc
 50
285.3455737911
 51
287.4019315937
  0
ARC
  5
19C
330
1B
100
AcDbEntity
 67
     1
  8
SLD-0
  6
Continuous
 62
     7
100
AcDbCircle
 10
233.8344247481
 20
209.7200720485
 30
0.0
 40
13.14737621477816
100
AcDbArc
 50
282.5507852043
 51
284.1439933156
  0
ARC
  5
19D
330
1B
100
AcDbEntity
 67
     1
  8
SLD-0
  6
Continuous
 62
     7
100
AcDbCircle
 10
234.1027203895
 20
208.5159961009
 30
0.0
 40
11.91377118120104
100
AcDbArc
 50
280.7915090116
 51
282.5496656158
  0
ARC
  5
19E
330
1B
100
AcDbEntity
 67
     1
  8
SLD-0
  6
Continuous
 62
     7
100
AcDbCircle
 10
234.2896769764
 20
207.5352331356
 30
0.0
 40
10.91534804480155
100
AcDbArc
 50
278.8724010534
 51
280.7914230315
  0
ARC
  5
19F
330
1B
100
AcDbEntity
 67
     1
  8
SLD-0
  6
Continuous
 62
     7
100
AcDbCircle
 10
234.3992180448
 20
206.8358603429
 30
0.0
 40
10.20744875258445
100
AcDbArc
 50
276.8181830568
 51
278.8703638551
  0
ARC
  5
1A0
330
1B
100
AcDbEntity
 67
     1
  8
SLD-0
  6
Continuous
 62
     7
100
AcDbCircle
 10
234.4700427865
 20
206.2431648299
 30
0.0
 40
9.61053660371588
100
AcDbArc
 50
274.6387718856
 51
276.8184239584
  0
ARC
  5
1A1
330
1B
100
AcDbEntity
 67
     1
  8
SLD-0
  6
Continuous
 62
     7
100
AcDbCircle
 10
234.5125967516
 20
205.7207869511
 30
0.0
 40
9.086428353189797
100
AcDbArc
 50
272.3324808809
 51
274.6377119875
  0
ARC
  5
1A2
330
1B
100
AcDbEntity
 67
     1
  8
SLD-0
  6
Continuous
 62
     7
100
AcDbCircle
 10
234.5130868166
 20
205.7361293769
 30
0.0
 40
9.101738190866362
100
AcDbArc
 50
270.0241882734
 51
272.3254677783
  0
ARC
  5
1A3
330
1B
100
AcDbEntity
 67
     1
  8
SLD-0
  6
Continuous
 62
     7
100
AcDbCircle
 10
234.5129942457
 20
205.8547407369
 30
0.0
 40
9.220349579555148
100
AcDbArc
 50
267.7526093153
 51
270.0244523542
  0
ARC
  5
1A4
330
1B
100
AcDbEntity
 67
     1
  8
SLD-0
  6
Continuous
 62
     7
100
AcDbCircle
 10
234.5170076009
 20
205.9581691351
 30
0.0
 40
9.323855804063882
100
AcDbArc
 50
265.506189968
 51
267.7528895613
  0
ARC
  5
1A5
330
1B
100
AcDbEntity
 67
     1
  8
SLD-0
  6
Continuous
 62
     7
100
AcDbCircle
 10
234.5318610117
 20
206.1413527238
 30
0.0
 40
9.507640046821294
100
AcDbArc
 50
263.2999319798
 51
265.5034476503
  0
ARC
  5
1A6
330
1B
100
AcDbEntity
 67
     1
  8
SLD-0
  6
Continuous
 62
     7
100
AcDbCircle
 10
234.5603322332
 20
206.3840255247
 30
0.0
 40
9.751977308533244
100
AcDbArc
 50
261.1518858678
 51
263.3001453888
  0
ARC
  5
1A7
330
1B
100
AcDbEntity
 67
     1
  8
SLD-0
  6
Continuous
 62
     7
100
AcDbCircle
 10
234.597106066
 20
206.6205454028
 30
0.0
 40
9.991338887743114
100
AcDbArc
 50
259.0555004915
 51
261.1521396214
  0
ARC
  5
1A8
330
1B
100
AcDbEntity
 67
     1
  8
SLD-0
  6
Continuous
 62
     7
100
AcDbCircle
 10
234.7808956078
 20
207.5475111123
 30
0.0
 40
10.93633935965597
100
AcDbArc
 50
257.1167690159
 51
259.0321616425
  0
ARC
  5
1A9
330
1B
100
AcDbEntity
 67
     1
  8
SLD-0
  6
Continuous
 62
     7
100
AcDbCircle
 10
235.2893433556
 20
209.7705330613
 30
0.0
 40
13.21676600783599
100
AcDbArc
 50
255.5318908245
 51
257.1168008848
  0
ARC
  5
1AA
330
1B
100
AcDbEntity
 67
     1
  8
SLD-0
  6
Continuous
 62
     7
100
AcDbCircle
 10
235.329526063
 20
210.1010559379
 30
0.0
 40
13.54648543352029
100
AcDbArc
 50
252.6239068447
 51
254.170196787
  0
DIMENSION
  5
1AB
330
1B
100
AcDbEntity
 67
     1
  8
SLD-0
 62
     7
100
AcDbDimension
  2
_D
 10
56.525697962
 20
63.8427064942
 30
0.0
 11
161.525697962
 21
63.8427064942
 31
0.0
 70
   160
  1
<>
 71
     2
 42
-1.0
  3
SLDDIMSTYLE0
100
AcDbAlignedDimension
 13
266.525697962
 23
68.2584787398
 33
0.0
 14
56.525697962
 24
68.1137911514
 34
0.0
 50
0.0
100
AcDbRotatedDimension
  0
DIMENSION
  5
1BF
330
1B
100
AcDbEntity
 67
     1
  8
SLD-0
 62
     7
100
AcDbDimension
  2
_D_1
 10
23.7283966679
 20
44.0109439977
 30
0.0
 11
87.9541732065
 21
136.3081124666
 31
0.0
 70
   163
  1
<>
 71
     1
 42
-1.0
  3
SLDDIMSTYLE1
100
AcDbDiametricDimension
 15
0.0
 25
0.0
 35
0.0
 40
0.0
  0
DIMENSION
  5
1CD
330
1B
100
AcDbEntity
 67
     1
  8
SLD-0
 62
     7
100
AcDbDimension
  2
_D_2
 10
46.5294789341
 20
18.3032125627
 30
0.0
 11
238.2190837307
 21
136.045499602
 31
0.0
 70
   163
  1
<>
 71
     1
 42
-1.0
  3
SLDDIMSTYLE1
100
AcDbDiametricDimension
 15
0.0
 25
0.0
 35
0.0
 40
0.0
  0
DIMENSION
  5
1DA
330
1B
100
AcDbEntity
 67
     1
  8
SLD-0
 62
     7
100
AcDbDimension
  2
_D_3
 10
326.0507374249
 20
63.8427064942
 30
0.0
 11
318.5507374249
 21
63.8427064942
 31
0.0
 70
   160
  1
<>
 71
     2
 42
-1.0
  3
SLDDIMSTYLE0
100
AcDbAlignedDimension
 13
311.0507374249
 23
98.8427064942
 33
0.0
 14
326.0507374249
 24
104.8427064942
 34
0.0
100
AcDbRotatedDimension
  0
DIMENSION
  5
1E8
330
1B
100
AcDbEntity
 67
     1
  8
SLD-0
 62
     7
100
AcDbDimension
  2
_D_4
 10
405.3007374249
 20
120.8427064942
 30
0.0
 11
405.3007374249
 21
104.8427064942
 31
0.0
 70
   160
  1
<>
 71
     2
 42
-1.0
  3
SLDDIMSTYLE0
100
AcDbAlignedDimension
 13
392.3007374249
 23
88.8427064942
 33
0.0
 14
392.3007374249
 24
120.8427064942
 34
0.0
 50
90.0
100
AcDbRotatedDimension
  0
DIMENSION
  5
1F6
330
1B
100
AcDbEntity
 67
     1
  8
SLD-0
 62
     7
100
AcDbDimension
  2
_D_5
 10
266.525697962
 20
166.075222182
 30
0.0
 11
253.525697962
 21
166.075222182
 31
0.0
 70
   160
  1
<>
 71
     2
 42
-1.0
  3
SLDDIMSTYLE0
100
AcDbAlignedDimension
 13
240.525697962
 23
182.375222182
 33
0.0
 14
266.525697962
 24
210.175222182
 34
0.0
100
AcDbRotatedDimension
  0
DIMENSION
  5
204
330
1B
100
AcDbEntity
 67
     1
  8
SLD-0
 62
     7
100
AcDbDimension
  2
_D_6
 10
56.525697962
 20
166.075222182
 30
0.0
 11
69.525697962
 21
166.075222182
 31
0.0
 70
   160
  1
<>
 71
     2
 42
-1.0
  3
SLDDIMSTYLE0
100
AcDbAlignedDimension
 13
82.525697962
 23
182.375222182
 33
0.0
 14
56.525697962
 24
210.175222182
 34
0.0
100
AcDbRotatedDimension
  0
DIMENSION
  5
212
330
1B
100
AcDbEntity
 67
     1
  8
SLD-0
 62
     7
100
AcDbDimension
  2
_D_7
 10
82.525697962
 20
166.075222182
 30
0.0
 11
161.525697962
 21
166.075222182
 31
0.0
 70
   160
  1
<>
 71
     2
 42
-1.0
  3
SLDDIMSTYLE0
100
AcDbAlignedDimension
 13
240.525697962
 23
182.475222182
 33
0.0
 14
82.525697962
 24
182.475222182
 34
0.0
100
AcDbRotatedDimension
  0
DIMENSION
  5
220
330
1B
100
AcDbEntity
 67
     1
  8
SLD-0
 62
     7
100
AcDbDimension
  2
_D_8
 10
49.025697962
 20
172.075222182
 30
0.0
 11
39.5412431079
 21
172.075222182
 31
0.0
 70
   160
  1
<>
 71
     2
 42
-1.0
  3
SLDDIMSTYLE0
100
AcDbAlignedDimension
 13
64.025697962
 23
210.075222182
 33
0.0
 14
49.025697962
 24
210.075222182
 34
0.0
100
AcDbRotatedDimension
  0
DIMENSION
  5
22F
330
1B
100
AcDbEntity
 67
     1
  8
SLD-0
 62
     7
100
AcDbDimension
  2
_D_9
 10
259.025697962
 20
172.075222182
 30
0.0
 11
281.5603172818
 21
172.075222182
 31
0.0
 70
   160
  1
<>
 71
     2
 42
-1.0
  3
SLDDIMSTYLE0
100
AcDbAlignedDimension
 13
274.025697962
 23
210.075222182
 33
0.0
 14
259.025697962
 24
210.075222182
 34
0.0
100
AcDbRotatedDimension
  0
DIMENSION
  5
23E
330
1B
100
AcDbEntity
 67
     1
  8
SLD-0
 62
     7
100
AcDbDimension
  2
_D_10
 10
49.025697962
 20
160.075222182
 30
0.0
 11
161.525697962
 21
160.075222182
 31
0.0
 70
   160
  1
<>
 71
     2
 42
-1.0
  3
SLDDIMSTYLE0
100
AcDbAlignedDimension
 13
274.025697962
 23
210.075222182
 33
0.0
 14
49.025697962
 24
210.075222182
 34
0.0
100
AcDbRotatedDimension
  0
DIMENSION
  5
24C
330
1B
100
AcDbEntity
 67
     1
  8
SLD-0
 62
     7
100
AcDbDimension
  2
_D_11
 10
307.525697962
 20
243.575222182
 30
0.0
 11
307.525697962
 21
240.075222182
 31
0.0
 70
   160
  1
<>
 71
     2
 42
-1.0
  3
SLDDIMSTYLE0
100
AcDbAlignedDimension
 13
290.525697962
 23
236.575222182
 33
0.0
 14
291.525697962
 24
243.575222182
 34
0.0
 50
90.0
100
AcDbRotatedDimension
  0
DIMENSION
  5
25C
330
1B
100
AcDbEntity
 67
     1
  8
SLD-0
 62
     7
100
AcDbDimension
  2
_D_12
 10
307.525697962
 20
236.575222182
 30
0.0
 11
307.525697962
 21
209.325222182
 31
0.0
 70
   160
  1
<>
 71
     2
 42
-1.0
  3
SLDDIMSTYLE2
100
AcDbAlignedDimension
 13
246.025697962
 23
182.075222182
 33
0.0
 14
290.525697962
 24
236.575222182
 34
0.0
 50
90.0
100
AcDbRotatedDimension
  0
DIMENSION
  5
26B
330
1B
100
AcDbEntity
 67
     1
  8
SLD-0
 62
     7
100
AcDbDimension
  2
_D_13
 10
313.525697962
 20
243.575222182
 30
0.0
 11
313.525697962
 21
212.825222182
 31
0.0
 70
   160
  1
<>
 71
     2
 42
-1.0
  3
SLDDIMSTYLE2
100
AcDbAlignedDimension
 13
246.025697962
 23
182.075222182
 33
0.0
 14
291.525697962
 24
243.575222182
 34
0.0
 50
90.0
100
AcDbRotatedDimension
  0
MTEXT
  5
27A
330
1B
100
AcDbEntity
 67
     1
  8
SLD-0
 62
     7
100
AcDbMText
 10
144.5035312996
 20
16.6880415195
 30
0.0
 40
3.5
 41
0.0
 71
     1
 72
     1
  1
24M
  7
SLDTEXTSTYLE2
 73
     1
 44
1.0
  0
MTEXT
  5
27C
330
1B
100
AcDbEntity
 67
     1
  8
SLD-0
 62
     7
100
AcDbMText
 10
368.8137910497
 20
15.8225795688
 30
0.0
 40
4.0
 41
0.0
 71
     1
 72
     1
  1
11548V
  7
SLDTEXTSTYLE3
 73
     1
 44
1.0
  0
MTEXT
  5
27D
330
1B
100
AcDbEntity
 67
     1
  8
SLD-0
 62
     7
100
AcDbMText
 10
299.533957724
 20
27.6916428957
 30
0.0
 40
3.5
 41
0.0
 71
     1
 72
     1
  1
1/1
  7
SLDTEXTSTYLE0
 73
     1
 44
1.0
  0
MTEXT
  5
27E
330
1B
100
AcDbEntity
 67
     1
  8
SLD-0
 62
     7
100
AcDbMText
 10
83.5589766458
 20
136.7234938346
 30
0.0
 40
2.9104166031
 41
0.0
 71
     1
 72
     1
  1
50
  7
SLDTEXTSTYLE3
 11
0.7071067811865474
 21
0.7071067811865477
 31
0.0
 73
     1
 44
1.0
  0
MTEXT
  5
27F
330
1B
100
AcDbEntity
 67
     1
  8
SLD-0
 62
     7
100
AcDbMText
 10
242.68361276
 20
136.3872584646
 30
0.0
 40
2.9104166031
 41
0.0
 71
     1
 72
     1
  1
50
  7
SLDTEXTSTYLE3
 11
0.6730125135097728
 21
-0.7396310949786102
 31
0.0
 73
     1
 44
1.0
  0
MTEXT
  5
281
330
1B
100
AcDbEntity
 67
     1
  8
SLD-0
 62
     7
100
AcDbMText
 10
22.8306485705
 20
28.652303021
 30
0.0
 40
3.5
 41
0.0
 71
     1
 72
     1
  1
改
  7
SLDTEXTSTYLE4
 73
     1
 44
1.0
  0
MTEXT
  5
282
330
1B
100
AcDbEntity
 67
     1
  8
SLD-0
 62
     7
100
AcDbMText
 10
22.7900805826
 20
17.010853051
 30
0.0
 40
3.5
 41
0.0
 71
     1
 72
     1
  1
訂
  7
SLDTEXTSTYLE4
 73
     1
 44
1.0
  0
MTEXT
  5
283
330
1B
100
AcDbEntity
 67
     1
  8
SLD-0
 62
     7
100
AcDbMText
 10
144.4829525239
 20
28.2161130323
 30
0.0
 40
3.5
 41
0.0
 71
     1
 72
     1
  1
承認図
  7
SLDTEXTSTYLE4
 73
     1
 44
1.0
  0
MTEXT
  5
284
330
1B
100
AcDbEntity
 67
     1
  8
SLD-0
 62
     7
100
AcDbMText
 10
232.357657574
 20
30.9382425667
 30
0.0
 40
3.5
 41
0.0
 71
     1
 72
     1
  1
個
  7
SLDTEXTSTYLE4
 73
     1
 44
1.0
  0
MTEXT
  5
285
330
1B
100
AcDbEntity
 67
     1
  8
SLD-0
 62
     7
100
AcDbMText
 10
232.3785618998
 20
25.621660061
 30
0.0
 40
3.5
 41
0.0
 71
     1
 72
     1
  1
数
  7
SLDTEXTSTYLE4
 73
     1
 44
1.0
  0
MTEXT
  5
286
330
1B
100
AcDbEntity
 67
     1
  8
SLD-0
 62
     7
100
AcDbMText
 10
252.3573601132
 20
31.0252717962
 30
0.0
 40
3.5
 41
0.0
 71
     1
 72
     1
  1
備
  7
SLDTEXTSTYLE4
 73
     1
 44
1.0
  0
MTEXT
  5
287
330
1B
100
AcDbEntity
 67
     1
  8
SLD-0
 62
     7
100
AcDbMText
 10
252.3573601132
 20
25.7026862461
 30
0.0
 40
3.5
 41
0.0
 71
     1
 72
     1
  1
考
  7
SLDTEXTSTYLE4
 73
     1
 44
1.0
  0
MTEXT
  5
288
330
1B
100
AcDbEntity
 67
     1
  8
SLD-0
 62
     7
100
AcDbMText
 10
292.3664626113
 20
31.0257741408
 30
0.0
 40
3.5
 41
0.0
 71
     1
 72
     1
  1
尺
  7
SLDTEXTSTYLE4
 73
     1
 44
1.0
  0
MTEXT
  5
289
330
1B
100
AcDbEntity
 67
     1
  8
SLD-0
 62
     7
100
AcDbMText
 10
292.3664626113
 20
25.6874134086
 30
0.0
 40
3.5
 41
0.0
 71
     1
 72
     1
  1
度
  7
SLDTEXTSTYLE4
 73
     1
 44
1.0
  0
MTEXT
  5
28B
330
1B
100
AcDbEntity
 67
     1
  8
SLD-0
 62
     7
100
AcDbMText
 10
294.8445745199
 20
16.7950380054
 30
0.0
 40
2.9104166031
 41
0.0
 71
     1
 72
     1
  1
第三角法
  7
SLDTEXTSTYLE5
 73
     1
 44
1.0
  0
MTEXT
  5
28D
330
1B
100
AcDbEntity
 67
     1
  8
SLD-0
 62
     7
100
AcDbMText
 10
311.7573695107
 20
30.5891874116
 30
0.0
 40
2.5
 41
0.0
 71
     1
 72
     1
  1
製図・設計
  7
SLDTEXTSTYLE6
 73
     1
 44
1.0
  0
MTEXT
  5
28F
330
1B
100
AcDbEntity
 67
     1
  8
SLD-0
 62
     7
100
AcDbMText
 10
329.6575469962
 20
30.5994410061
 30
0.0
 40
2.5
 41
0.0
 71
     1
 72
     1
  1
照　査
  7
SLDTEXTSTYLE7
 73
     1
 44
1.0
  0
MTEXT
  5
290
330
1B
100
AcDbEntity
 67
     1
  8
SLD-0
 62
     7
100
AcDbMText
 10
361.958749754
 20
15.3927401502
 30
0.0
 40
3.4395833015
 41
0.0
 71
     1
 72
     1
  1
No.
  7
SLDTEXTSTYLE2
 73
     1
 44
1.0
  0
MTEXT
  5
291
330
1B
100
AcDbEntity
 67
     1
  8
SLD-0
 62
     7
100
AcDbMText
 10
81.6248333904
 20
13.5625189928
 30
0.0
 40
2.5
 41
0.0
 71
     1
 72
     1
  1
変　更　内　容
  7
SLDTEXTSTYLE4
 73
     1
 44
1.0
  0
MTEXT
  5
292
330
1B
100
AcDbEntity
 67
     1
  8
SLD-0
 62
     7
100
AcDbMText
 10
344.6694607343
 20
30.5721772849
 30
0.0
 40
2.5
 41
0.0
 71
     1
 72
     1
  1
承　認
  7
SLDTEXTSTYLE7
 73
     1
 44
1.0
  0
MTEXT
  5
293
330
1B
100
AcDbEntity
 67
     1
  8
SLD-0
 62
     7
100
AcDbMText
 10
358.6499682217
 20
23.4386037729
 30
0.0
 40
2.3812499046
 41
0.0
 71
     1
 72
     1
  1
WEST
  7
SLDTEXTSTYLE3
 73
     1
 44
1.0
  0
MTEXT
  5
294
330
1B
100
AcDbEntity
 67
     1
  8
SLD-0
 62
     7
100
AcDbMText
 10
126.6394502878
 20
13.5842648164
 30
0.0
 40
2.5
 41
0.0
 71
     1
 72
     1
  1
通知書
  7
SLDTEXTSTYLE7
 73
     1
 44
1.0
  0
MTEXT
  5
295
330
1B
100
AcDbEntity
 67
     1
  8
SLD-0
 62
     7
100
AcDbMText
 10
39.6073654972
 20
13.5858501847
 30
0.0
 40
2.5
 41
0.0
 71
     1
 72
     1
  1
日付
  7
SLDTEXTSTYLE5
 73
     1
 44
1.0
  0
MTEXT
  5
296
330
1B
100
AcDbEntity
 67
     1
  8
SLD-0
 62
     7
100
AcDbMText
 10
50.6471155245
 20
13.5906682699
 30
0.0
 40
2.5
 41
0.0
 71
     1
 72
     1
  1
担当者
  7
SLDTEXTSTYLE7
 73
     1
 44
1.0
  0
MTEXT
  5
297
330
1B
100
AcDbEntity
 67
     1
  8
SLD-0
 62
     7
100
AcDbMText
 10
28.0997329878
 20
13.572333007
 30
0.0
 40
2.5
 41
0.0
 71
     1
 72
     1
  1
記号
  7
SLDTEXTSTYLE5
 73
     1
 44
1.0
  0
MTEXT
  5
298
330
1B
100
AcDbEntity
 67
     1
  8
SLD-0
 62
     7
100
AcDbMText
 10
199.3534685856
 20
30.9382425667
 30
0.0
 40
3.5
 41
0.0
 71
     1
 72
     1
  1
材
  7
SLDTEXTSTYLE4
 73
     1
 44
1.0
  0
MTEXT
  5
299
330
1B
100
AcDbEntity
 67
     1
  8
SLD-0
 62
     7
100
AcDbMText
 10
199.349337611
 20
25.621660061
 30
0.0
 40
3.5
 41
0.0
 71
     1
 72
     1
  1
質
  7
SLDTEXTSTYLE4
 73
     1
 44
1.0
  0
MTEXT
  5
29A
330
1B
100
AcDbEntity
 67
     1
  8
SLD-0
 62
     7
100
AcDbMText
 10
139.3570394312
 20
30.9382425667
 30
0.0
 40
3.5
 41
0.0
 71
     1
 72
     1
  1
名
  7
SLDTEXTSTYLE4
 73
     1
 44
1.0
  0
MTEXT
  5
29B
330
1B
100
AcDbEntity
 67
     1
  8
SLD-0
 62
     7
100
AcDbMText
 10
139.3779437571
 20
25.621660061
 30
0.0
 40
3.5
 41
0.0
 71
     1
 72
     1
  1
称
  7
SLDTEXTSTYLE4
 73
     1
 44
1.0
  0
MTEXT
  5
29C
330
1B
100
AcDbEntity
 67
     1
  8
SLD-0
 62
     7
100
AcDbMText
 10
139.3570394312
 20
19.9382425667
 30
0.0
 40
3.5
 41
0.0
 71
     1
 72
     1
  1
品
  7
SLDTEXTSTYLE4
 73
     1
 44
1.0
  0
MTEXT
  5
29D
330
1B
100
AcDbEntity
 67
     1
  8
SLD-0
 62
     7
100
AcDbMText
 10
139.3779437571
 20
15.0156834865
 30
0.0
 40
3.5
 41
0.0
 71
     1
 72
     1
  1
名
  7
SLDTEXTSTYLE4
 73
     1
 44
1.0
  0
MTEXT
  5
29E
330
1B
100
AcDbEntity
 67
     1
  8
SLD-0
 62
     7
100
AcDbMText
 10
199.3534685856
 20
19.9382425667
 30
0.0
 40
3.5
 41
0.0
 71
     1
 72
     1
  1
工
  7
SLDTEXTSTYLE4
 73
     1
 44
1.0
  0
MTEXT
  5
29F
330
1B
100
AcDbEntity
 67
     1
  8
SLD-0
 62
     7
100
AcDbMText
 10
199.349337611
 20
15.0156834865
 30
0.0
 40
3.5
 41
0.0
 71
     1
 72
     1
  1
番
  7
SLDTEXTSTYLE4
 73
     1
 44
1.0
  0
MTEXT
  5
2A0
330
1B
100
AcDbEntity
 67
     1
  8
SLD-0
 62
     7
100
AcDbMText
 10
427.9159859778
 20
15.3701307748
 30
0.0
 40
7.4083333015
 41
0.0
 71
     1
 72
     1
  1
A3
  7
SLDTEXTSTYLE2
 73
     1
 44
1.0
  0
MTEXT
  5
2A1
330
1B
100
AcDbEntity
 67
     1
  8
SLD-0
 62
     7
100
AcDbMText
 10
357.444566405
 20
14.6147830727
 30
0.0
 40
3.5
 41
0.0
 71
     1
 72
     1
  1
番
  7
SLDTEXTSTYLE4
 73
     1
 44
1.0
  0
MTEXT
  5
2A2
330
1B
100
AcDbEntity
 67
     1
  8
SLD-0
 62
     7
100
AcDbMText
 10
357.444566405
 20
19.9531438049
 30
0.0
 40
3.5
 41
0.0
 71
     1
 72
     1
  1
図
  7
SLDTEXTSTYLE4
 73
     1
 44
1.0
  0
MTEXT
  5
2A4
330
1B
100
AcDbEntity
 67
     1
  8
SLD-0
 62
     7
100
AcDbMText
 10
311.5649907757
 20
13.6099772839
 30
0.0
 40
3.0
 41
0.0
 71
     1
 72
     1
  1
′０８．１０．２０
  7
SLDTEXTSTYLE8
 73
     1
 44
1.0
  0
MTEXT
  5
2A5
330
1B
100
AcDbEntity
 67
     1
  8
SLD-0
 62
     7
100
AcDbMText
 10
406.0292860479
 20
8.3220666762
 30
0.0
 40
1.8520833254
 41
0.0
 71
     1
 72
     1
  1
A3
  7
SLDTEXTSTYLE2
 73
     1
 44
1.0
  0
ENDSEC
  0
SECTION
  2
OBJECTS
  0
DICTIONARY
  5
C
330
0
100
AcDbDictionary
281
     1
  3
ACAD_GROUP
350
D
  3
ACAD_LAYOUT
350
1A
  3
ACAD_MLINESTYLE
350
17
  3
ACAD_PLOTSETTINGS
350
19
  3
ACAD_PLOTSTYLENAME
350
E
  3
ACAD_SCALELIST
350
47
  0
DICTIONARY
  5
D
102
{ACAD_REACTORS
330
C
102
}
330
C
100
AcDbDictionary
281
     1
  0
DICTIONARY
  5
1A
102
{ACAD_REACTORS
330
C
102
}
330
C
100
AcDbDictionary
281
     1
  3
Model
350
22
  3
SW_Model_1
350
1E
  0
DICTIONARY
  5
17
102
{ACAD_REACTORS
330
C
102
}
330
C
100
AcDbDictionary
281
     1
  3
Standard
350
18
  0
DICTIONARY
  5
19
102
{ACAD_REACTORS
330
C
102
}
330
C
100
AcDbDictionary
281
     1
  0
ACDBDICTIONARYWDFLT
  5
E
102
{ACAD_REACTORS
330
C
102
}
330
C
100
AcDbDictionary
281
     1
  3
Normal
350
F
100
AcDbDictionaryWithDefault
340
F
  0
DICTIONARY
  5
47
102
{ACAD_REACTORS
330
C
102
}
330
C
100
AcDbDictionary
281
     1
  3
A0
350
48
  3
A1
350
49
  3
A2
350
4A
  3
A3
350
4B
  3
A4
350
4C
  3
A5
350
4D
  3
A6
350
4E
  3
A7
350
4F
  3
A8
350
50
  3
A9
350
51
  3
B0
350
52
  3
B1
350
53
  3
B2
350
54
  3
B3
350
55
  3
B4
350
56
  3
B5
350
57
  3
B6
350
58
  3
B7
350
59
  3
B8
350
5A
  3
B9
350
5B
  3
C0
350
5C
  3
C1
350
5D
  3
C2
350
5E
  3
C3
350
5F
  3
C4
350
60
  3
C5
350
61
  3
C6
350
62
  3
C7
350
63
  3
C8
350
64
  3
C9
350
65
  3
D0
350
66
  3
D1
350
67
  3
D2
350
68
  0
LAYOUT
  5
22
102
{ACAD_REACTORS
330
1A
102
}
330
1A
100
AcDbPlotSettings
  1

  2
none_device
  4
Letter_(8.50_x_11.00_Inches)
  6

 40
6.35
 41
6.35
 42
6.35000508
 43
6.35000508
 44
215.9
 45
279.4
 46
0.0
 47
0.0
 48
0.0
 49
0.0
140
0.0
141
0.0
142
1.0
143
1.0
 70
  1712
 72
     1
 73
     0
 74
     0
  7

 75
     0
147
1.0
148
0.0
149
0.0
100
AcDbLayout
  1
Model
 70
     1
 71
     0
 10
0.0
 20
0.0
 11
420.0
 21
297.0
 12
0.0
 22
0.0
 32
0.0
 14
0.0
 24
0.0
 34
0.0
 15
420.0
 25
297.0
 35
0.0
146
0.0
 13
0.0
 23
0.0
 33
0.0
 16
1.0
 26
0.0
 36
0.0
 17
0.0
 27
1.0
 37
0.0
 76
     0
330
1F
331
29
  0
LAYOUT
  5
1E
102
{ACAD_REACTORS
330
1A
102
}
330
1A
100
AcDbPlotSettings
  1

  2
none_device
  4
ISO_A3_(420.00_x_297.00_MM)
  6

 40
7.5
 41
20.0
 42
7.5
 43
20.0
 44
420.0
 45
297.0
 46
0.0
 47
0.0
 48
0.0
 49
0.0
140
0.0
141
0.0
142
1.0
143
1.0
 70
  4832
 72
     1
 73
     0
 74
     1
  7

 75
     0
147
1.0
148
0.0
149
0.0
100
AcDbLayout
  1
SW_Model_1
 70
     1
 71
     1
 10
0.0
 20
0.0
 11
420.0
 21
297.0
 12
0.0
 22
0.0
 32
0.0
 14
0.0
 24
0.0
 34
0.0
 15
420.0
 25
297.0
 35
0.0
146
0.0
 13
0.0
 23
0.0
 33
0.0
 16
1.0
 26
0.0
 36
0.0
 17
0.0
 27
1.0
 37
0.0
 76
     0
330
1B
331
77
  0
MLINESTYLE
  5
18
102
{ACAD_REACTORS
330
17
102
}
330
17
100
AcDbMlineStyle
  2
Standard
 70
     0
  3

 62
   256
 51
90.0
 52
90.0
 71
     2
 49
0.5
 62
   256
  6
BYLAYER
 49
-0.5
 62
   256
  6
BYLAYER
  0
ACDBPLACEHOLDER
  5
F
102
{ACAD_REACTORS
330
E
102
}
330
E
  0
SCALE
  5
48
102
{ACAD_REACTORS
330
47
102
}
330
47
100
AcDbScale
 70
     0
300
1:1
140
1.0
141
1.0
290
     1
  0
SCALE
  5
49
102
{ACAD_REACTORS
330
47
102
}
330
47
100
AcDbScale
 70
     0
300
1:2
140
1.0
141
2.0
290
     0
  0
SCALE
  5
4A
102
{ACAD_REACTORS
330
47
102
}
330
47
100
AcDbScale
 70
     0
300
1:4
140
1.0
141
4.0
290
     0
  0
SCALE
  5
4B
102
{ACAD_REACTORS
330
47
102
}
330
47
100
AcDbScale
 70
     0
300
1:5
140
1.0
141
5.0
290
     0
  0
SCALE
  5
4C
102
{ACAD_REACTORS
330
47
102
}
330
47
100
AcDbScale
 70
     0
300
1:8
140
1.0
141
8.0
290
     0
  0
SCALE
  5
4D
102
{ACAD_REACTORS
330
47
102
}
330
47
100
AcDbScale
 70
     0
300
1:10
140
1.0
141
10.0
290
     0
  0
SCALE
  5
4E
102
{ACAD_REACTORS
330
47
102
}
330
47
100
AcDbScale
 70
     0
300
1:16
140
1.0
141
16.0
290
     0
  0
SCALE
  5
4F
102
{ACAD_REACTORS
330
47
102
}
330
47
100
AcDbScale
 70
     0
300
1:20
140
1.0
141
20.0
290
     0
  0
SCALE
  5
50
102
{ACAD_REACTORS
330
47
102
}
330
47
100
AcDbScale
 70
     0
300
1:30
140
1.0
141
30.0
290
     0
  0
SCALE
  5
51
102
{ACAD_REACTORS
330
47
102
}
330
47
100
AcDbScale
 70
     0
300
1:40
140
1.0
141
40.0
290
     0
  0
SCALE
  5
52
102
{ACAD_REACTORS
330
47
102
}
330
47
100
AcDbScale
 70
     0
300
1:50
140
1.0
141
50.0
290
     0
  0
SCALE
  5
53
102
{ACAD_REACTORS
330
47
102
}
330
47
100
AcDbScale
 70
     0
300
1:100
140
1.0
141
100.0
290
     0
  0
SCALE
  5
54
102
{ACAD_REACTORS
330
47
102
}
330
47
100
AcDbScale
 70
     0
300
2:1
140
2.0
141
1.0
290
     0
  0
SCALE
  5
55
102
{ACAD_REACTORS
330
47
102
}
330
47
100
AcDbScale
 70
     0
300
4:1
140
4.0
141
1.0
290
     0
  0
SCALE
  5
56
102
{ACAD_REACTORS
330
47
102
}
330
47
100
AcDbScale
 70
     0
300
8:1
140
8.0
141
1.0
290
     0
  0
SCALE
  5
57
102
{ACAD_REACTORS
330
47
102
}
330
47
100
AcDbScale
 70
     0
300
10:1
140
10.0
141
1.0
290
     0
  0
SCALE
  5
58
102
{ACAD_REACTORS
330
47
102
}
330
47
100
AcDbScale
 70
     0
300
100:1
140
100.0
141
1.0
290
     0
  0
SCALE
  5
59
102
{ACAD_REACTORS
330
47
102
}
330
47
100
AcDbScale
 70
     0
300
1/128" = 1'-0"
140
0.0078125
141
12.0
290
     0
  0
SCALE
  5
5A
102
{ACAD_REACTORS
330
47
102
}
330
47
100
AcDbScale
 70
     0
300
1/64" = 1'-0"
140
0.015625
141
12.0
290
     0
  0
SCALE
  5
5B
102
{ACAD_REACTORS
330
47
102
}
330
47
100
AcDbScale
 70
     0
300
1/32" = 1'-0"
140
0.03125
141
12.0
290
     0
  0
SCALE
  5
5C
102
{ACAD_REACTORS
330
47
102
}
330
47
100
AcDbScale
 70
     0
300
1/16" = 1'-0"
140
0.0625
141
12.0
290
     0
  0
SCALE
  5
5D
102
{ACAD_REACTORS
330
47
102
}
330
47
100
AcDbScale
 70
     0
300
3/32" = 1'-0"
140
0.09375
141
12.0
290
     0
  0
SCALE
  5
5E
102
{ACAD_REACTORS
330
47
102
}
330
47
100
AcDbScale
 70
     0
300
1/8" = 1'-0"
140
0.125
141
12.0
290
     0
  0
SCALE
  5
5F
102
{ACAD_REACTORS
330
47
102
}
330
47
100
AcDbScale
 70
     0
300
3/16" = 1'-0"
140
0.1875
141
12.0
290
     0
  0
SCALE
  5
60
102
{ACAD_REACTORS
330
47
102
}
330
47
100
AcDbScale
 70
     0
300
1/4" = 1'-0"
140
0.25
141
12.0
290
     0
  0
SCALE
  5
61
102
{ACAD_REACTORS
330
47
102
}
330
47
100
AcDbScale
 70
     0
300
3/8" = 1'-0"
140
0.375
141
12.0
290
     0
  0
SCALE
  5
62
102
{ACAD_REACTORS
330
47
102
}
330
47
100
AcDbScale
 70
     0
300
1/2" = 1'-0"
140
0.5
141
12.0
290
     0
  0
SCALE
  5
63
102
{ACAD_REACTORS
330
47
102
}
330
47
100
AcDbScale
 70
     0
300
3/4" = 1'-0"
140
0.75
141
12.0
290
     0
  0
SCALE
  5
64
102
{ACAD_REACTORS
330
47
102
}
330
47
100
AcDbScale
 70
     0
300
1" = 1'-0"
140
1.0
141
12.0
290
     0
  0
SCALE
  5
65
102
{ACAD_REACTORS
330
47
102
}
330
47
100
AcDbScale
 70
     0
300
1-1/2" = 1'-0"
140
1.5
141
12.0
290
     0
  0
SCALE
  5
66
102
{ACAD_REACTORS
330
47
102
}
330
47
100
AcDbScale
 70
     0
300
3" = 1'-0"
140
3.0
141
12.0
290
     0
  0
SCALE
  5
67
102
{ACAD_REACTORS
330
47
102
}
330
47
100
AcDbScale
 70
     0
300
6" = 1'-0"
140
6.0
141
12.0
290
     0
  0
SCALE
  5
68
102
{ACAD_REACTORS
330
47
102
}
330
47
100
AcDbScale
 70
     0
300
1'-0" = 1'-0"
140
12.0
141
12.0
290
     0
  0
ENDSEC
  0
EOF
