  0
SECTION
  2
HEADER
  9
$ACADVER
  1
AC1015
  9
$ACADMAINTVER
 70
     6
  9
$DWGCODEPAGE
  3
DOS932
  9
$INSBASE
 10
0.0
 20
0.0
 30
0.0
  9
$EXTMIN
 10
0.0
 20
0.0
 30
0.0
  9
$EXTMAX
 10
420.0
 20
297.0
 30
0.0
  9
$LIMMIN
 10
0.0
 20
0.0
  9
$LIMMAX
 10
420.0
 20
297.0
  9
$ORTHOMODE
 70
     0
  9
$REGENMODE
 70
     1
  9
$FILLMODE
 70
     1
  9
$QTEXTMODE
 70
     0
  9
$MIRRTEXT
 70
     1
  9
$LTSCALE
 40
1.0
  9
$ATTMODE
 70
     1
  9
$TEXTSIZE
 40
3.5
  9
$TRACEWID
 40
1.0
  9
$TEXTSTYLE
  7
Standard
  9
$CLAYER
  8
0
  9
$CELTYPE
  6
ByLayer
  9
$CECOLOR
 62
   256
  9
$CELTSCALE
 40
1.0
  9
$DISPSILH
 70
     0
  9
$DIMSCALE
 40
1.0
  9
$DIMASZ
 40
3.302
  9
$DIMEXO
 40
1.0
  9
$DIMDLI
 40
3.75
  9
$DIMRND
 40
0.0
  9
$DIMDLE
 40
0.0
  9
$DIMEXE
 40
1.0
  9
$DIMTP
 40
0.0
  9
$DIMTM
 40
0.0
  9
$DIMTXT
 40
3.5
  9
$DIMCEN
 40
2.5
  9
$DIMTSZ
 40
0.0
  9
$DIMTOL
 70
     0
  9
$DIMLIM
 70
     0
  9
$DIMTIH
 70
     1
  9
$DIMTOH
 70
     1
  9
$DIMSE1
 70
     0
  9
$DIMSE2
 70
     0
  9
$DIMTAD
 70
     1
  9
$DIMZIN
 70
     1
  9
$DIMBLK
  1

  9
$DIMASO
 70
     1
  9
$DIMSHO
 70
     1
  9
$DIMPOST
  1

  9
$DIMAPOST
  1

  9
$DIMALT
 70
     0
  9
$DIMALTD
 70
     3
  9
$DIMALTF
 40
0.0393700787
  9
$DIMLFAC
 40
1.0
  9
$DIMTOFL
 70
     1
  9
$DIMTVP
 40
0.0
  9
$DIMTIX
 70
     0
  9
$DIMSOXD
 70
     0
  9
$DIMSAH
 70
     0
  9
$DIMBLK1
  1

  9
$DIMBLK2
  1

  9
$DIMSTYLE
  2
ISO-25
  9
$DIMCLRD
 70
     0
  9
$DIMCLRE
 70
     0
  9
$DIMCLRT
 70
     0
  9
$DIMTFAC
 40
1.0
  9
$DIMGAP
 40
1.524
  9
$DIMJUST
 70
     0
  9
$DIMSD1
 70
     0
  9
$DIMSD2
 70
     0
  9
$DIMTOLJ
 70
     0
  9
$DIMTZIN
 70
     1
  9
$DIMALTZ
 70
     0
  9
$DIMALTTZ
 70
     0
  9
$DIMUPT
 70
     0
  9
$DIMDEC
 70
     4
  9
$DIMTDEC
 70
     4
  9
$DIMALTU
 70
     2
  9
$DIMALTTD
 70
     3
  9
$DIMTXSTY
  7
Standard
  9
$DIMAUNIT
 70
     0
  9
$DIMADEC
 70
     0
  9
$DIMALTRND
 40
0.0
  9
$DIMAZIN
 70
     0
  9
$DIMDSEP
 70
    44
  9
$DIMATFIT
 70
     3
  9
$DIMFRAC
 70
     0
  9
$DIMLDRBLK
  1

  9
$DIMLUNIT
 70
     2
  9
$DIMLWD
 70
    -2
  9
$DIMLWE
 70
    -2
  9
$DIMTMOVE
 70
     0
  9
$LUNITS
 70
     2
  9
$LUPREC
 70
     4
  9
$SKETCHINC
 40
1.0
  9
$FILLETRAD
 40
10.0
  9
$AUNITS
 70
     0
  9
$AUPREC
 70
     0
  9
$MENU
  1
.
  9
$ELEVATION
 40
0.0
  9
$PELEVATION
 40
0.0
  9
$THICKNESS
 40
0.0
  9
$LIMCHECK
 70
     0
  9
$CHAMFERA
 40
0.0
  9
$CHAMFERB
 40
0.0
  9
$CHAMFERC
 40
0.0
  9
$CHAMFERD
 40
0.0
  9
$SKPOLY
 70
     0
  9
$TDCREATE
 40
2458290.473048657
  9
$TDUCREATE
 40
2458290.098048657
  9
$TDUPDATE
 40
2458290.473057813
  9
$TDUUPDATE
 40
2458290.098057813
  9
$TDINDWG
 40
0.0000000116
  9
$TDUSRTIMER
 40
0.0000000116
  9
$USRTIMER
 70
     1
  9
$ANGBASE
 50
0.0
  9
$ANGDIR
 70
     0
  9
$PDMODE
 70
     0
  9
$PDSIZE
 40
-1.0
  9
$PLINEWID
 40
0.0
  9
$SPLFRAME
 70
     0
  9
$SPLINETYPE
 70
     6
  9
$SPLINESEGS
 70
     8
  9
$HANDSEED
  5
28F
  9
$SURFTAB1
 70
     6
  9
$SURFTAB2
 70
     6
  9
$SURFTYPE
 70
     6
  9
$SURFU
 70
     6
  9
$SURFV
 70
     6
  9
$UCSBASE
  2

  9
$UCSNAME
  2

  9
$UCSORG
 10
0.0
 20
0.0
 30
0.0
  9
$UCSXDIR
 10
1.0
 20
0.0
 30
0.0
  9
$UCSYDIR
 10
0.0
 20
1.0
 30
0.0
  9
$UCSORTHOREF
  2

  9
$UCSORTHOVIEW
 70
     0
  9
$UCSORGTOP
 10
0.0
 20
0.0
 30
0.0
  9
$UCSORGBOTTOM
 10
0.0
 20
0.0
 30
0.0
  9
$UCSORGLEFT
 10
0.0
 20
0.0
 30
0.0
  9
$UCSORGRIGHT
 10
0.0
 20
0.0
 30
0.0
  9
$UCSORGFRONT
 10
0.0
 20
0.0
 30
0.0
  9
$UCSORGBACK
 10
0.0
 20
0.0
 30
0.0
  9
$PUCSBASE
  2

  9
$PUCSNAME
  2

  9
$PUCSORG
 10
0.0
 20
0.0
 30
0.0
  9
$PUCSXDIR
 10
1.0
 20
0.0
 30
0.0
  9
$PUCSYDIR
 10
0.0
 20
1.0
 30
0.0
  9
$PUCSORTHOREF
  2

  9
$PUCSORTHOVIEW
 70
     0
  9
$PUCSORGTOP
 10
0.0
 20
0.0
 30
0.0
  9
$PUCSORGBOTTOM
 10
0.0
 20
0.0
 30
0.0
  9
$PUCSORGLEFT
 10
0.0
 20
0.0
 30
0.0
  9
$PUCSORGRIGHT
 10
0.0
 20
0.0
 30
0.0
  9
$PUCSORGFRONT
 10
0.0
 20
0.0
 30
0.0
  9
$PUCSORGBACK
 10
0.0
 20
0.0
 30
0.0
  9
$USERI1
 70
     0
  9
$USERI2
 70
     0
  9
$USERI3
 70
     0
  9
$USERI4
 70
     0
  9
$USERI5
 70
     0
  9
$USERR1
 40
0.0
  9
$USERR2
 40
0.0
  9
$USERR3
 40
0.0
  9
$USERR4
 40
0.0
  9
$USERR5
 40
0.0
  9
$WORLDVIEW
 70
     1
  9
$SHADEDGE
 70
     3
  9
$SHADEDIF
 70
    70
  9
$TILEMODE
 70
     0
  9
$MAXACTVP
 70
    64
  9
$PINSBASE
 10
0.0
 20
0.0
 30
0.0
  9
$PLIMCHECK
 70
     0
  9
$PEXTMIN
 10
0.0
 20
0.0
 30
0.0
  9
$PEXTMAX
 10
420.0
 20
297.0
 30
0.0
  9
$PLIMMIN
 10
0.0
 20
0.0
  9
$PLIMMAX
 10
420.0
 20
297.0
  9
$UNITMODE
 70
     0
  9
$VISRETAIN
 70
     1
  9
$PLINEGEN
 70
     0
  9
$PSLTSCALE
 70
     1
  9
$TREEDEPTH
 70
  3020
  9
$CMLSTYLE
  2
Standard
  9
$CMLJUST
 70
     0
  9
$CMLSCALE
 40
20.0
  9
$PROXYGRAPHICS
 70
     1
  9
$MEASUREMENT
 70
     1
  9
$CELWEIGHT
370
    -1
  9
$ENDCAPS
280
     0
  9
$JOINSTYLE
280
     0
  9
$LWDISPLAY
290
     1
  9
$INSUNITS
 70
     4
  9
$HYPERLINKBASE
  1

  9
$STYLESHEET
  1

  9
$XEDIT
290
     1
  9
$CEPSNTYPE
380
     0
  9
$PSTYLEMODE
290
     1
  9
$FINGERPRINTGUID
  2
{C212404B-E7C3-490B-ACB2-360B49C0FC8E}
  9
$VERSIONGUID
  2
{FAEB1C32-E019-11D5-929B-00C0DF256EC4}
  9
$EXTNAMES
290
     1
  9
$PSVPSCALE
 40
0.0
  9
$OLESTARTUP
290
     0
  0
ENDSEC
  0
SECTION
  2
CLASSES
  0
CLASS
  1
ACDBDICTIONARYWDFLT
  2
AcDbDictionaryWithDefault
  3
ObjectDBX Classes
 90
        0
280
     0
281
     0
  0
CLASS
  1
VISUALSTYLE
  2
AcDbVisualStyle
  3
ObjectDBX Classes
 90
     4095
280
     0
281
     0
  0
CLASS
  1
MATERIAL
  2
AcDbMaterial
  3
ObjectDBX Classes
 90
     1153
280
     0
281
     0
  0
CLASS
  1
SCALE
  2
AcDbScale
  3
ObjectDBX Classes
 90
     1153
280
     0
281
     0
  0
CLASS
  1
TABLESTYLE
  2
AcDbTableStyle
  3
ObjectDBX Classes
 90
     4095
280
     0
281
     0
  0
CLASS
  1
MLEADERSTYLE
  2
AcDbMLeaderStyle
  3
ACDB_MLEADERSTYLE_CLASS
 90
     4095
280
     0
281
     0
  0
CLASS
  1
SUN
  2
AcDbSun
  3
SCENEOE
 90
     1153
280
     0
281
     0
  0
CLASS
  1
ACDBPLACEHOLDER
  2
AcDbPlaceHolder
  3
ObjectDBX Classes
 90
        0
280
     0
281
     0
  0
CLASS
  1
LAYOUT
  2
AcDbLayout
  3
ObjectDBX Classes
 90
        0
280
     0
281
     0
  0
ENDSEC
  0
SECTION
  2
TABLES
  0
TABLE
  2
VPORT
  5
8
330
0
100
AcDbSymbolTable
 70
     1
  0
VPORT
  5
29
330
8
100
AcDbSymbolTableRecord
100
AcDbViewportTableRecord
  2
*Active
 70
     0
 10
0.0
 20
0.0
 11
1.0
 21
1.0
 12
210.0
 22
148.5
 13
0.0
 23
0.0
 14
10.0
 24
10.0
 15
10.0
 25
10.0
 16
0.0
 26
0.0
 36
1.0
 17
0.0
 27
0.0
 37
0.0
 40
297.0
 41
1.4141414141
 42
50.0
 43
0.0
 44
0.0
 50
0.0
 51
0.0
 71
     0
 72
  2000
 73
     1
 74
     3
 75
     0
 76
     0
 77
     0
 78
     0
281
     0
 65
     1
110
0.0
120
0.0
130
0.0
111
1.0
121
0.0
131
0.0
112
0.0
122
1.0
132
0.0
 79
     0
146
0.0
  0
ENDTAB
  0
TABLE
  2
LTYPE
  5
5
330
0
100
AcDbSymbolTable
 70
     6
  0
LTYPE
  5
14
330
5
100
AcDbSymbolTableRecord
100
AcDbLinetypeTableRecord
  2
ByBlock
 70
     0
  3

 72
    65
 73
     0
 40
0.0
  0
LTYPE
  5
15
330
5
100
AcDbSymbolTableRecord
100
AcDbLinetypeTableRecord
  2
ByLayer
 70
     0
  3

 72
    65
 73
     0
 40
0.0
  0
LTYPE
  5
16
330
5
100
AcDbSymbolTableRecord
100
AcDbLinetypeTableRecord
  2
Continuous
 70
     0
  3
Solid line
 72
    65
 73
     0
 40
0.0
  0
LTYPE
  5
6E
330
5
100
AcDbSymbolTableRecord
100
AcDbLinetypeTableRecord
  2
HIDDEN
 70
     0
  3
Hidden __ __ __ __ __ __ __ __ __ __ __ __ __ __
 72
    65
 73
     2
 40
1.905
 49
1.27
 74
     0
 49
-0.635
 74
     0
  0
LTYPE
  5
6F
330
5
100
AcDbSymbolTableRecord
100
AcDbLinetypeTableRecord
  2
PHANTOM
 70
     0
  3
Phantom ______  __  __  ______  __  __  ______
 72
    65
 73
     6
 40
12.7
 49
6.35
 74
     0
 49
-1.27
 74
     0
 49
1.27
 74
     0
 49
-1.27
 74
     0
 49
1.27
 74
     0
 49
-1.27
 74
     0
  0
LTYPE
  5
70
330
5
100
AcDbSymbolTableRecord
100
AcDbLinetypeTableRecord
  2
CENTER
 70
     0
  3
Center ____ _ ____ _ ____ _ ____ _ ____ _ ____
 72
    65
 73
     4
 40
10.16
 49
6.35
 74
     0
 49
-1.27
 74
     0
 49
1.27
 74
     0
 49
-1.27
 74
     0
  0
LTYPE
  5
71
330
5
100
AcDbSymbolTableRecord
100
AcDbLinetypeTableRecord
  2
CENTERX2
 70
     0
  3
Center (2x) ________  __  ________  __  _____
 72
    65
 73
     4
 40
20.32
 49
12.7
 74
     0
 49
-2.54
 74
     0
 49
2.54
 74
     0
 49
-2.54
 74
     0
  0
LTYPE
  5
72
330
5
100
AcDbSymbolTableRecord
100
AcDbLinetypeTableRecord
  2
DOT2
 70
     0
  3
Dot (.5x) ........................................
 72
    65
 73
     2
 40
0.635
 49
0.0
 74
     0
 49
-0.635
 74
     0
  0
ENDTAB
  0
TABLE
  2
LAYER
  5
2
330
0
100
AcDbSymbolTable
 70
     5
  0
LAYER
  5
10
330
2
100
AcDbSymbolTableRecord
100
AcDbLayerTableRecord
  2
0
 70
     0
 62
     7
  6
Continuous
370
    -3
390
F
  0
LAYER
  5
73
330
2
100
AcDbSymbolTableRecord
100
AcDbLayerTableRecord
  2
SLD-0
 70
     0
 62
     7
  6
Continuous
370
    -3
390
F
  0
LAYER
  5
74
330
2
100
AcDbSymbolTableRecord
100
AcDbLayerTableRecord
  2
1
 70
     0
 62
     7
  6
Continuous
370
    -3
390
F
  0
LAYER
  5
75
330
2
100
AcDbSymbolTableRecord
100
AcDbLayerTableRecord
  2
2
 70
     0
 62
     7
  6
Continuous
370
    -3
390
F
  0
LAYER
  5
76
330
2
100
AcDbSymbolTableRecord
100
AcDbLayerTableRecord
  2
SLD-DEFPOINTS
 70
     0
 62
     7
  6
Continuous
290
     0
370
    -3
390
F
  0
ENDTAB
  0
TABLE
  2
STYLE
  5
3
330
0
100
AcDbSymbolTable
 70
    10
  0
STYLE
  5
11
330
3
100
AcDbSymbolTableRecord
100
AcDbTextStyleTableRecord
  2
Standard
 70
     0
 40
0.0
 41
1.0
 50
0.0
 71
     0
 42
3.5
  3
txt
  4
bigfont
  0
STYLE
  5
192
330
3
100
AcDbSymbolTableRecord
100
AcDbTextStyleTableRecord
  2
SLDTEXTSTYLE0
 70
     0
 40
0.0
 41
1.0
 50
0.0
 71
     0
 42
3.5
  3
TXT
  4
bigfont
  0
STYLE
  5
1A3
330
3
100
AcDbSymbolTableRecord
100
AcDbTextStyleTableRecord
  2
SLDTEXTSTYLE1
 70
     0
 40
0.0
 41
0.96
 50
0.0
 71
     0
 42
3.5
  3
TXT
  4
bigfont
  0
STYLE
  5
264
330
3
100
AcDbSymbolTableRecord
100
AcDbTextStyleTableRecord
  2
SLDTEXTSTYLE2
 70
     0
 40
0.0
 41
0.9999999787
 50
0.0
 71
     0
 42
3.5
  3
TXT
  4
bigfont
  0
STYLE
  5
268
330
3
100
AcDbSymbolTableRecord
100
AcDbTextStyleTableRecord
  2
SLDTEXTSTYLE3
 70
     0
 40
0.0
 41
0.6999999936
 50
0.0
 71
     0
 42
3.5
  3
TXT
  4
bigfont
  0
STYLE
  5
272
330
3
100
AcDbSymbolTableRecord
100
AcDbTextStyleTableRecord
  2
SLDTEXTSTYLE4
 70
     0
 40
0.0
 41
0.7000000362
 50
0.0
 71
     0
 42
3.5
  3
TXT
  4
bigfont
  0
STYLE
  5
274
330
3
100
AcDbSymbolTableRecord
100
AcDbTextStyleTableRecord
  2
SLDTEXTSTYLE5
 70
     0
 40
0.0
 41
0.7000000176
 50
0.0
 71
     0
 42
3.5
  3
TXT
  4
bigfont
  0
STYLE
  5
276
330
3
100
AcDbSymbolTableRecord
100
AcDbTextStyleTableRecord
  2
SLDTEXTSTYLE6
 70
     0
 40
0.0
 41
0.6999999741
 50
0.0
 71
     0
 42
3.5
  3
TXT
  4
bigfont
  0
STYLE
  5
27B
330
3
100
AcDbSymbolTableRecord
100
AcDbTextStyleTableRecord
  2
SLDTEXTSTYLE7
 70
     0
 40
0.0
 41
1.0000000188
 50
0.0
 71
     0
 42
3.5
  3
TXT
  4
bigfont
  0
STYLE
  5
28C
330
3
100
AcDbSymbolTableRecord
100
AcDbTextStyleTableRecord
  2
SLDTEXTSTYLE8
 70
     0
 40
0.0
 41
0.3054298643
 50
0.0
 71
     0
 42
3.5
  3
TXT
  4
bigfont
  0
ENDTAB
  0
TABLE
  2
VIEW
  5
6
330
0
100
AcDbSymbolTable
 70
     0
  0
ENDTAB
  0
TABLE
  2
UCS
  5
7
330
0
100
AcDbSymbolTable
 70
     0
  0
ENDTAB
  0
TABLE
  2
APPID
  5
9
330
0
100
AcDbSymbolTable
 70
     1
  0
APPID
  5
12
330
9
100
AcDbSymbolTableRecord
100
AcDbRegAppTableRecord
  2
ACAD
 70
     0
  0
ENDTAB
  0
TABLE
  2
DIMSTYLE
  5
A
330
0
100
AcDbSymbolTable
 70
     5
100
AcDbDimStyleTable
  0
DIMSTYLE
105
27
330
A
100
AcDbSymbolTableRecord
100
AcDbDimStyleTableRecord
  2
ISO-25
 70
     0
 41
2.5
 42
0.625
 43
3.75
 44
1.25
 73
     0
 74
     0
 77
     1
 78
     8
140
2.5
141
2.5
143
0.0393700787
147
0.625
171
     3
172
     1
178
     0
271
     2
272
     2
274
     3
278
    44
283
     0
284
     8
340
11
  0
DIMSTYLE
105
193
102
{ACAD_REACTORS
330
191
330
1D0
330
1DE
330
1EC
330
1FA
330
229
330
237
102
}
330
A
100
AcDbSymbolTableRecord
100
AcDbDimStyleTableRecord
  2
SLDDIMSTYLE0
 70
     0
 41
3.302
 44
0.0
 45
0.000000001
 73
     0
 74
     0
 77
     1
 78
    12
 79
     3
140
2.9104166031
147
0.7276041508
173
     1
178
     0
271
     0
276
     2
284
    12
340
192
341
194
343
194
344
194
  0
DIMSTYLE
105
1A6
102
{ACAD_REACTORS
330
1A5
330
1B4
330
1C2
102
}
330
A
100
AcDbSymbolTableRecord
100
AcDbDimStyleTableRecord
  2
SLDDIMSTYLE1
 70
     0
 41
3.302
 44
0.0
 45
0.000000001
 73
     0
 74
     0
 77
     1
 78
     4
 79
     1
140
2.9104166031
141
0.0
147
0.7276041508
172
     1
173
     1
178
     0
276
     2
284
    12
340
192
341
194
343
194
344
194
  0
DIMSTYLE
105
209
102
{ACAD_REACTORS
330
208
330
219
102
}
330
A
100
AcDbSymbolTableRecord
100
AcDbDimStyleTableRecord
  2
SLDDIMSTYLE2
 70
     0
 41
3.302
 44
0.0
 45
0.000000001
 73
     0
 74
     0
 77
     1
 78
     4
 79
     1
140
2.9104166031
147
0.7276041508
173
     1
178
     0
276
     2
284
    12
340
192
341
194
343
194
344
194
  0
DIMSTYLE
105
248
102
{ACAD_REACTORS
330
247
330
256
102
}
330
A
100
AcDbSymbolTableRecord
100
AcDbDimStyleTableRecord
  2
SLDDIMSTYLE3
 70
     0
 41
3.302
 44
0.0
 45
0.000000001
 73
     0
 74
     0
 77
     1
 78
    12
 79
     3
140
2.9104166031
147
0.7276041508
173
     1
178
     0
271
     1
276
     2
284
    12
340
192
341
194
343
194
344
194
  0
ENDTAB
  0
TABLE
  2
BLOCK_RECORD
  5
1
330
0
100
AcDbSymbolTable
 70
    16
  0
BLOCK_RECORD
  5
1F
330
1
100
AcDbSymbolTableRecord
100
AcDbBlockTableRecord
  2
*Model_Space
340
22
  0
BLOCK_RECORD
  5
1B
330
1
100
AcDbSymbolTableRecord
100
AcDbBlockTableRecord
  2
*Paper_Space
340
1E
  0
BLOCK_RECORD
  5
194
330
1
100
AcDbSymbolTableRecord
100
AcDbBlockTableRecord
  2
_NONE
340
0
  0
BLOCK_RECORD
  5
197
330
1
100
AcDbSymbolTableRecord
100
AcDbBlockTableRecord
  2
_D
340
0
  0
BLOCK_RECORD
  5
1A7
330
1
100
AcDbSymbolTableRecord
100
AcDbBlockTableRecord
  2
_D_1
340
0
  0
BLOCK_RECORD
  5
1B5
330
1
100
AcDbSymbolTableRecord
100
AcDbBlockTableRecord
  2
_D_2
340
0
  0
BLOCK_RECORD
  5
1C3
330
1
100
AcDbSymbolTableRecord
100
AcDbBlockTableRecord
  2
_D_3
340
0
  0
BLOCK_RECORD
  5
1D1
330
1
100
AcDbSymbolTableRecord
100
AcDbBlockTableRecord
  2
_D_4
340
0
  0
BLOCK_RECORD
  5
1DF
330
1
100
AcDbSymbolTableRecord
100
AcDbBlockTableRecord
  2
_D_5
340
0
  0
BLOCK_RECORD
  5
1ED
330
1
100
AcDbSymbolTableRecord
100
AcDbBlockTableRecord
  2
_D_6
340
0
  0
BLOCK_RECORD
  5
1FB
330
1
100
AcDbSymbolTableRecord
100
AcDbBlockTableRecord
  2
_D_7
340
0
  0
BLOCK_RECORD
  5
20A
330
1
100
AcDbSymbolTableRecord
100
AcDbBlockTableRecord
  2
_D_8
340
0
  0
BLOCK_RECORD
  5
21A
330
1
100
AcDbSymbolTableRecord
100
AcDbBlockTableRecord
  2
_D_9
340
0
  0
BLOCK_RECORD
  5
22A
330
1
100
AcDbSymbolTableRecord
100
AcDbBlockTableRecord
  2
_D_10
340
0
  0
BLOCK_RECORD
  5
238
330
1
100
AcDbSymbolTableRecord
100
AcDbBlockTableRecord
  2
_D_11
340
0
  0
BLOCK_RECORD
  5
249
330
1
100
AcDbSymbolTableRecord
100
AcDbBlockTableRecord
  2
_D_12
340
0
  0
BLOCK_RECORD
  5
257
330
1
100
AcDbSymbolTableRecord
100
AcDbBlockTableRecord
  2
_D_13
340
0
  0
ENDTAB
  0
ENDSEC
  0
SECTION
  2
BLOCKS
  0
BLOCK
  5
20
330
1F
100
AcDbEntity
  8
0
100
AcDbBlockBegin
  2
*Model_Space
 70
     0
 10
0.0
 20
0.0
 30
0.0
  3
*Model_Space
  1

  0
ENDBLK
  5
21
330
1F
100
AcDbEntity
  8
0
100
AcDbBlockEnd
  0
BLOCK
  5
1C
330
1B
100
AcDbEntity
 67
     1
  8
0
100
AcDbBlockBegin
  2
*Paper_Space
 70
     0
 10
0.0
 20
0.0
 30
0.0
  3
*Paper_Space
  1

  0
ENDBLK
  5
1D
330
1B
100
AcDbEntity
 67
     1
  8
0
100
AcDbBlockEnd
  0
BLOCK
  5
195
330
194
100
AcDbEntity
  8
0
100
AcDbBlockBegin
  2
_NONE
 70
     0
 10
0.0
 20
0.0
 30
0.0
  3
_NONE
  1

  0
ENDBLK
  5
196
330
194
100
AcDbEntity
  8
0
100
AcDbBlockEnd
  0
BLOCK
  5
198
330
197
100
AcDbEntity
  8
0
100
AcDbBlockBegin
  2
_D
 70
     0
 10
0.0
 20
0.0
 30
0.0
  3
_D
  1

  0
LINE
  5
19A
330
197
100
AcDbEntity
  8
SLD-0
 62
     7
100
AcDbLine
 10
65.1050389442
 20
50.4379161924
 30
0.0
 11
269.1050390344
 21
50.4379161924
 31
0.0
  0
LINE
  5
19B
330
197
100
AcDbEntity
  8
SLD-0
 62
     7
100
AcDbLine
 10
62.1050389893
 20
50.4379161924
 30
0.0
 11
65.1050389442
 21
51.4379161774
 31
0.0
  0
LINE
  5
19C
330
197
100
AcDbEntity
  8
SLD-0
 62
     7
100
AcDbLine
 10
62.1050389893
 20
50.4379161924
 30
0.0
 11
65.1050389442
 21
49.4379162074
 31
0.0
  0
LINE
  5
19D
330
197
100
AcDbEntity
  8
SLD-0
 62
     7
100
AcDbLine
 10
62.1050389893
 20
50.4379161924
 30
0.0
 11
65.1050389442
 21
50.4379161924
 31
0.0
  0
LINE
  5
19E
330
197
100
AcDbEntity
  8
SLD-0
 62
     7
100
AcDbLine
 10
272.1050389893
 20
50.4379161924
 30
0.0
 11
269.1050390344
 21
49.4379162074
 31
0.0
  0
LINE
  5
19F
330
197
100
AcDbEntity
  8
SLD-0
 62
     7
100
AcDbLine
 10
272.1050389893
 20
50.4379161924
 30
0.0
 11
269.1050390344
 21
51.4379161774
 31
0.0
  0
LINE
  5
1A0
330
197
100
AcDbEntity
  8
SLD-0
 62
     7
100
AcDbLine
 10
272.1050389893
 20
50.4379161924
 30
0.0
 11
269.1050390344
 21
50.4379161924
 31
0.0
  0
LINE
  5
1A1
330
197
100
AcDbEntity
  8
SLD-0
 62
     7
100
AcDbLine
 10
62.1050389893
 20
65.209000872
 30
0.0
 11
62.1050389893
 21
48.9379161924
 31
0.0
  0
LINE
  5
1A2
330
197
100
AcDbEntity
  8
SLD-0
 62
     7
100
AcDbLine
 10
272.1050389893
 20
65.3536884604
 30
0.0
 11
272.1050389893
 21
48.9379161924
 31
0.0
  0
MTEXT
  5
1A4
330
197
100
AcDbEntity
  8
SLD-0
 62
     7
100
AcDbMText
 10
163.1550581343
 20
53.8577689826
 30
0.0
 40
2.9104166031
 41
0.0
 71
     1
 72
     1
  1
210
  7
SLDTEXTSTYLE1
 73
     1
 44
1.0
  0
ENDBLK
  5
199
330
197
100
AcDbEntity
  8
0
100
AcDbBlockEnd
  0
BLOCK
  5
1A8
330
1A7
100
AcDbEntity
  8
0
100
AcDbBlockBegin
  2
_D_1
 70
     0
 10
0.0
 20
0.0
 30
0.0
  3
_D_1
  1

  0
LINE
  5
1AA
330
1A7
100
AcDbEntity
  8
SLD-0
 62
     7
100
AcDbLine
 10
76.5013683545
 20
123.8767444564
 30
0.0
 11
82.458057831
 21
132.3336052397
 31
0.0
  0
LINE
  5
1AB
330
1A7
100
AcDbEntity
  8
SLD-0
 62
     7
100
AcDbLine
 10
49.4362691219
 20
85.4517472832
 30
0.0
 11
74.7738088566
 21
121.4240851015
 31
0.0
  0
LINE
  5
1AC
330
1A7
100
AcDbEntity
  8
SLD-0
 62
     7
100
AcDbLine
 10
47.708709624
 20
82.9990879283
 30
0.0
 11
48.6187160036
 21
86.0276004491
 31
0.0
  0
LINE
  5
1AD
330
1A7
100
AcDbEntity
  8
SLD-0
 62
     7
100
AcDbLine
 10
47.708709624
 20
82.9990879283
 30
0.0
 11
50.2538222402
 21
84.8758941172
 31
0.0
  0
LINE
  5
1AE
330
1A7
100
AcDbEntity
  8
SLD-0
 62
     7
100
AcDbLine
 10
47.708709624
 20
82.9990879283
 30
0.0
 11
49.4362691219
 21
85.4517472832
 31
0.0
  0
LINE
  5
1AF
330
1A7
100
AcDbEntity
  8
SLD-0
 62
     7
100
AcDbLine
 10
76.5013683545
 20
123.8767444564
 30
0.0
 11
75.5913619749
 21
120.8482319356
 31
0.0
  0
LINE
  5
1B0
330
1A7
100
AcDbEntity
  8
SLD-0
 62
     7
100
AcDbLine
 10
76.5013683545
 20
123.8767444564
 30
0.0
 11
73.9562557383
 21
121.9999382675
 31
0.0
  0
LINE
  5
1B1
330
1A7
100
AcDbEntity
  8
SLD-0
 62
     7
100
AcDbLine
 10
76.5013683545
 20
123.8767444564
 30
0.0
 11
74.7738088566
 21
121.4240851015
 31
0.0
  0
MTEXT
  5
1B2
330
1A7
100
AcDbEntity
  8
SLD-0
 62
     7
100
AcDbMText
 10
75.1120369424
 20
127.8478929867
 30
0.0
 40
2.9104166031
 41
0.0
 71
     1
 72
     1
  1
%%c
  7
SLDTEXTSTYLE1
 11
0.5764323161697931
 21
0.8171448983351286
 31
0.0
 73
     1
 44
1.0
  0
MTEXT
  5
1B3
330
1A7
100
AcDbEntity
  8
SLD-0
 62
     7
100
AcDbMText
 10
77.3344680587
 20
130.9983899274
 30
0.0
 40
2.9104166031
 41
0.0
 71
     1
 72
     1
  1
５０
  7
SLDTEXTSTYLE1
 11
0.5764323161697931
 21
0.8171448983351286
 31
0.0
 73
     1
 44
1.0
  0
ENDBLK
  5
1A9
330
1A7
100
AcDbEntity
  8
0
100
AcDbBlockEnd
  0
BLOCK
  5
1B6
330
1B5
100
AcDbEntity
  8
0
100
AcDbBlockBegin
  2
_D_2
 70
     0
 10
0.0
 20
0.0
 30
0.0
  3
_D_2
  1

  0
LINE
  5
1B8
330
1B5
100
AcDbEntity
  8
SLD-0
 62
     7
100
AcDbLine
 10
254.4273694596
 20
121.115585722
 30
0.0
 11
244.9705503445
 21
130.5724048371
 31
0.0
  0
LINE
  5
1B9
330
1B5
100
AcDbEntity
  8
SLD-0
 62
     7
100
AcDbLine
 10
287.6613882072
 20
87.8815669744
 30
0.0
 11
256.5486897713
 21
118.9942654103
 31
0.0
  0
LINE
  5
1BA
330
1B5
100
AcDbEntity
  8
SLD-0
 62
     7
100
AcDbLine
 10
289.7827085189
 20
85.7602466627
 30
0.0
 11
286.9542814366
 21
87.1744602038
 31
0.0
  0
LINE
  5
1BB
330
1B5
100
AcDbEntity
  8
SLD-0
 62
     7
100
AcDbLine
 10
289.7827085189
 20
85.7602466627
 30
0.0
 11
288.3684949778
 21
88.588673745
 31
0.0
  0
LINE
  5
1BC
330
1B5
100
AcDbEntity
  8
SLD-0
 62
     7
100
AcDbLine
 10
289.7827085189
 20
85.7602466627
 30
0.0
 11
287.6613882072
 21
87.8815669744
 31
0.0
  0
LINE
  5
1BD
330
1B5
100
AcDbEntity
  8
SLD-0
 62
     7
100
AcDbLine
 10
254.4273694596
 20
121.115585722
 30
0.0
 11
257.2557965419
 21
119.7013721809
 31
0.0
  0
LINE
  5
1BE
330
1B5
100
AcDbEntity
  8
SLD-0
 62
     7
100
AcDbLine
 10
254.4273694596
 20
121.115585722
 30
0.0
 11
255.8415830007
 21
118.2871586397
 31
0.0
  0
LINE
  5
1BF
330
1B5
100
AcDbEntity
  8
SLD-0
 62
     7
100
AcDbLine
 10
254.4273694596
 20
121.115585722
 30
0.0
 11
256.5486897713
 21
118.9942654103
 31
0.0
  0
MTEXT
  5
1C0
330
1B5
100
AcDbEntity
  8
SLD-0
 62
     7
100
AcDbMText
 10
247.3887514431
 20
132.9906059357
 30
0.0
 40
2.9104166031
 41
0.0
 71
     1
 72
     1
  1
%%c
  7
SLDTEXTSTYLE1
 11
0.7071067811865486
 21
-0.7071067811865465
 31
0.0
 73
     1
 44
1.0
  0
MTEXT
  5
1C1
330
1B5
100
AcDbEntity
  8
SLD-0
 62
     7
100
AcDbMText
 10
250.1149971254
 20
130.2643602534
 30
0.0
 40
2.9104166031
 41
0.0
 71
     1
 72
     1
  1
５０
  7
SLDTEXTSTYLE1
 11
0.7071067811865486
 21
-0.7071067811865465
 31
0.0
 73
     1
 44
1.0
  0
ENDBLK
  5
1B7
330
1B5
100
AcDbEntity
  8
0
100
AcDbBlockEnd
  0
BLOCK
  5
1C4
330
1C3
100
AcDbEntity
  8
0
100
AcDbBlockBegin
  2
_D_3
 70
     0
 10
0.0
 20
0.0
 30
0.0
  3
_D_3
  1

  0
LINE
  5
1C6
330
1C3
100
AcDbEntity
  8
SLD-0
 62
     7
100
AcDbLine
 10
313.1726189841
 20
98.1346153335
 30
0.0
 11
305.3675934079
 21
90.3295897573
 31
0.0
  0
LINE
  5
1C7
330
1C3
100
AcDbEntity
  8
SLD-0
 62
     7
100
AcDbLine
 10
321.6579003902
 20
106.6198967396
 30
0.0
 11
315.2939392958
 21
100.2559356452
 31
0.0
  0
LINE
  5
1C8
330
1C3
100
AcDbEntity
  8
SLD-0
 62
     7
100
AcDbLine
 10
323.7792207019
 20
108.7412170513
 30
0.0
 11
322.3650071608
 21
105.912789969
 31
0.0
  0
LINE
  5
1C9
330
1C3
100
AcDbEntity
  8
SLD-0
 62
     7
100
AcDbLine
 10
323.7792207019
 20
108.7412170513
 30
0.0
 11
320.9507936196
 21
107.3270035102
 31
0.0
  0
LINE
  5
1CA
330
1C3
100
AcDbEntity
  8
SLD-0
 62
     7
100
AcDbLine
 10
323.7792207019
 20
108.7412170513
 30
0.0
 11
321.6579003902
 21
106.6198967396
 31
0.0
  0
LINE
  5
1CB
330
1C3
100
AcDbEntity
  8
SLD-0
 62
     7
100
AcDbLine
 10
313.1726189841
 20
98.1346153335
 30
0.0
 11
314.5868325252
 21
100.9630424158
 31
0.0
  0
LINE
  5
1CC
330
1C3
100
AcDbEntity
  8
SLD-0
 62
     7
100
AcDbLine
 10
313.1726189841
 20
98.1346153335
 30
0.0
 11
316.0010460664
 21
99.5488288746
 31
0.0
  0
LINE
  5
1CD
330
1C3
100
AcDbEntity
  8
SLD-0
 62
     7
100
AcDbLine
 10
313.1726189841
 20
98.1346153335
 30
0.0
 11
315.2939392958
 21
100.2559356452
 31
0.0
  0
MTEXT
  5
1CE
330
1C3
100
AcDbEntity
  8
SLD-0
 62
     7
100
AcDbMText
 10
302.9493923093
 20
92.7477908559
 30
0.0
 40
2.9104166031
 41
0.0
 71
     1
 72
     1
  1
%%c
  7
SLDTEXTSTYLE1
 11
0.7071067811865474
 21
0.7071067811865477
 31
0.0
 73
     1
 44
1.0
  0
MTEXT
  5
1CF
330
1C3
100
AcDbEntity
  8
SLD-0
 62
     7
100
AcDbMText
 10
305.6756379915
 20
95.4740365381
 30
0.0
 40
2.9104166031
 41
0.0
 71
     1
 72
     1
  1
１５
  7
SLDTEXTSTYLE1
 11
0.7071067811865474
 21
0.7071067811865477
 31
0.0
 73
     1
 44
1.0
  0
ENDBLK
  5
1C5
330
1C3
100
AcDbEntity
  8
0
100
AcDbBlockEnd
  0
BLOCK
  5
1D2
330
1D1
100
AcDbEntity
  8
0
100
AcDbBlockBegin
  2
_D_4
 70
     0
 10
0.0
 20
0.0
 30
0.0
  3
_D_4
  1

  0
LINE
  5
1D4
330
1D1
100
AcDbEntity
  8
SLD-0
 62
     7
100
AcDbLine
 10
405.225919843
 20
116.4379162375
 30
0.0
 11
405.225919843
 21
90.4379161473
 31
0.0
  0
LINE
  5
1D5
330
1D1
100
AcDbEntity
  8
SLD-0
 62
     7
100
AcDbLine
 10
405.225919843
 20
119.4379161924
 30
0.0
 11
406.225919828
 21
116.4379162375
 31
0.0
  0
LINE
  5
1D6
330
1D1
100
AcDbEntity
  8
SLD-0
 62
     7
100
AcDbLine
 10
405.225919843
 20
119.4379161924
 30
0.0
 11
404.225919858
 21
116.4379162375
 31
0.0
  0
LINE
  5
1D7
330
1D1
100
AcDbEntity
  8
SLD-0
 62
     7
100
AcDbLine
 10
405.225919843
 20
119.4379161924
 30
0.0
 11
405.225919843
 21
116.4379162375
 31
0.0
  0
LINE
  5
1D8
330
1D1
100
AcDbEntity
  8
SLD-0
 62
     7
100
AcDbLine
 10
405.225919843
 20
87.4379161924
 30
0.0
 11
404.225919858
 21
90.4379161473
 31
0.0
  0
LINE
  5
1D9
330
1D1
100
AcDbEntity
  8
SLD-0
 62
     7
100
AcDbLine
 10
405.225919843
 20
87.4379161924
 30
0.0
 11
406.225919828
 21
90.4379161473
 31
0.0
  0
LINE
  5
1DA
330
1D1
100
AcDbEntity
  8
SLD-0
 62
     7
100
AcDbLine
 10
405.225919843
 20
87.4379161924
 30
0.0
 11
405.225919843
 21
90.4379161473
 31
0.0
  0
LINE
  5
1DB
330
1D1
100
AcDbEntity
  8
SLD-0
 62
     7
100
AcDbLine
 10
393.7259198205
 20
119.4379161924
 30
0.0
 11
406.725919843
 21
119.4379161924
 31
0.0
  0
LINE
  5
1DC
330
1D1
100
AcDbEntity
  8
SLD-0
 62
     7
100
AcDbLine
 10
393.7259198205
 20
87.4379161924
 30
0.0
 11
406.725919843
 21
87.4379161924
 31
0.0
  0
MTEXT
  5
1DD
330
1D1
100
AcDbEntity
  8
SLD-0
 62
     7
100
AcDbMText
 10
401.8060670528
 20
100.9431435794
 30
0.0
 40
2.9104166031
 41
0.0
 71
     1
 72
     1
  1
32
  7
SLDTEXTSTYLE1
 11
-3.828568698926949E-16
 21
1.0
 31
0.0
 73
     1
 44
1.0
  0
ENDBLK
  5
1D3
330
1D1
100
AcDbEntity
  8
0
100
AcDbBlockEnd
  0
BLOCK
  5
1E0
330
1DF
100
AcDbEntity
  8
0
100
AcDbBlockBegin
  2
_D_5
 70
     0
 10
0.0
 20
0.0
 30
0.0
  3
_D_5
  1

  0
LINE
  5
1E2
330
1DF
100
AcDbEntity
  8
SLD-0
 62
     7
100
AcDbLine
 10
249.1050389442
 20
173.1522644974
 30
0.0
 11
269.1050390344
 21
173.1522644974
 31
0.0
  0
LINE
  5
1E3
330
1DF
100
AcDbEntity
  8
SLD-0
 62
     7
100
AcDbLine
 10
246.1050389893
 20
173.1522644974
 30
0.0
 11
249.1050389442
 21
174.1522644824
 31
0.0
  0
LINE
  5
1E4
330
1DF
100
AcDbEntity
  8
SLD-0
 62
     7
100
AcDbLine
 10
246.1050389893
 20
173.1522644974
 30
0.0
 11
249.1050389442
 21
172.1522645124
 31
0.0
  0
LINE
  5
1E5
330
1DF
100
AcDbEntity
  8
SLD-0
 62
     7
100
AcDbLine
 10
246.1050389893
 20
173.1522644974
 30
0.0
 11
249.1050389442
 21
173.1522644974
 31
0.0
  0
LINE
  5
1E6
330
1DF
100
AcDbEntity
  8
SLD-0
 62
     7
100
AcDbLine
 10
272.1050389893
 20
173.1522644974
 30
0.0
 11
269.1050390344
 21
172.1522645124
 31
0.0
  0
LINE
  5
1E7
330
1DF
100
AcDbEntity
  8
SLD-0
 62
     7
100
AcDbLine
 10
272.1050389893
 20
173.1522644974
 30
0.0
 11
269.1050390344
 21
174.1522644824
 31
0.0
  0
LINE
  5
1E8
330
1DF
100
AcDbEntity
  8
SLD-0
 62
     7
100
AcDbLine
 10
272.1050389893
 20
173.1522644974
 30
0.0
 11
269.1050390344
 21
173.1522644974
 31
0.0
  0
LINE
  5
1E9
330
1DF
100
AcDbEntity
  8
SLD-0
 62
     7
100
AcDbLine
 10
246.1050389893
 20
186.4522645199
 30
0.0
 11
246.1050389893
 21
171.6522644974
 31
0.0
  0
LINE
  5
1EA
330
1DF
100
AcDbEntity
  8
SLD-0
 62
     7
100
AcDbLine
 10
272.1050389893
 20
214.1522645199
 30
0.0
 11
272.1050389893
 21
171.6522644974
 31
0.0
  0
MTEXT
  5
1EB
330
1DF
100
AcDbEntity
  8
SLD-0
 62
     7
100
AcDbMText
 10
256.6102663763
 20
176.5721172876
 30
0.0
 40
2.9104166031
 41
0.0
 71
     1
 72
     1
  1
26
  7
SLDTEXTSTYLE1
 73
     1
 44
1.0
  0
ENDBLK
  5
1E1
330
1DF
100
AcDbEntity
  8
0
100
AcDbBlockEnd
  0
BLOCK
  5
1EE
330
1ED
100
AcDbEntity
  8
0
100
AcDbBlockBegin
  2
_D_6
 70
     0
 10
0.0
 20
0.0
 30
0.0
  3
_D_6
  1

  0
LINE
  5
1F0
330
1ED
100
AcDbEntity
  8
SLD-0
 62
     7
100
AcDbLine
 10
65.1050389442
 20
173.1522644974
 30
0.0
 11
85.1050390344
 21
173.1522644974
 31
0.0
  0
LINE
  5
1F1
330
1ED
100
AcDbEntity
  8
SLD-0
 62
     7
100
AcDbLine
 10
62.1050389893
 20
173.1522644974
 30
0.0
 11
65.1050389442
 21
174.1522644824
 31
0.0
  0
LINE
  5
1F2
330
1ED
100
AcDbEntity
  8
SLD-0
 62
     7
100
AcDbLine
 10
62.1050389893
 20
173.1522644974
 30
0.0
 11
65.1050389442
 21
172.1522645124
 31
0.0
  0
LINE
  5
1F3
330
1ED
100
AcDbEntity
  8
SLD-0
 62
     7
100
AcDbLine
 10
62.1050389893
 20
173.1522644974
 30
0.0
 11
65.1050389442
 21
173.1522644974
 31
0.0
  0
LINE
  5
1F4
330
1ED
100
AcDbEntity
  8
SLD-0
 62
     7
100
AcDbLine
 10
88.1050389893
 20
173.1522644974
 30
0.0
 11
85.1050390344
 21
172.1522645124
 31
0.0
  0
LINE
  5
1F5
330
1ED
100
AcDbEntity
  8
SLD-0
 62
     7
100
AcDbLine
 10
88.1050389893
 20
173.1522644974
 30
0.0
 11
85.1050390344
 21
174.1522644824
 31
0.0
  0
LINE
  5
1F6
330
1ED
100
AcDbEntity
  8
SLD-0
 62
     7
100
AcDbLine
 10
88.1050389893
 20
173.1522644974
 30
0.0
 11
85.1050390344
 21
173.1522644974
 31
0.0
  0
LINE
  5
1F7
330
1ED
100
AcDbEntity
  8
SLD-0
 62
     7
100
AcDbLine
 10
62.1050389893
 20
214.1522645199
 30
0.0
 11
62.1050389893
 21
171.6522644974
 31
0.0
  0
LINE
  5
1F8
330
1ED
100
AcDbEntity
  8
SLD-0
 62
     7
100
AcDbLine
 10
88.1050389893
 20
186.4522645199
 30
0.0
 11
88.1050389893
 21
171.6522644974
 31
0.0
  0
MTEXT
  5
1F9
330
1ED
100
AcDbEntity
  8
SLD-0
 62
     7
100
AcDbMText
 10
72.6102663763
 20
176.5721172876
 30
0.0
 40
2.9104166031
 41
0.0
 71
     1
 72
     1
  1
26
  7
SLDTEXTSTYLE1
 73
     1
 44
1.0
  0
ENDBLK
  5
1EF
330
1ED
100
AcDbEntity
  8
0
100
AcDbBlockEnd
  0
BLOCK
  5
1FC
330
1FB
100
AcDbEntity
  8
0
100
AcDbBlockBegin
  2
_D_7
 70
     0
 10
0.0
 20
0.0
 30
0.0
  3
_D_7
  1

  0
LINE
  5
1FE
330
1FB
100
AcDbEntity
  8
SLD-0
 62
     7
100
AcDbLine
 10
91.1050389442
 20
173.1522644974
 30
0.0
 11
243.1050390344
 21
173.1522644974
 31
0.0
  0
LINE
  5
1FF
330
1FB
100
AcDbEntity
  8
SLD-0
 62
     7
100
AcDbLine
 10
88.1050389893
 20
173.1522644974
 30
0.0
 11
91.1050389442
 21
174.1522644824
 31
0.0
  0
LINE
  5
200
330
1FB
100
AcDbEntity
  8
SLD-0
 62
     7
100
AcDbLine
 10
88.1050389893
 20
173.1522644974
 30
0.0
 11
91.1050389442
 21
172.1522645124
 31
0.0
  0
LINE
  5
201
330
1FB
100
AcDbEntity
  8
SLD-0
 62
     7
100
AcDbLine
 10
88.1050389893
 20
173.1522644974
 30
0.0
 11
91.1050389442
 21
173.1522644974
 31
0.0
  0
LINE
  5
202
330
1FB
100
AcDbEntity
  8
SLD-0
 62
     7
100
AcDbLine
 10
246.1050389893
 20
173.1522644974
 30
0.0
 11
243.1050390344
 21
172.1522645124
 31
0.0
  0
LINE
  5
203
330
1FB
100
AcDbEntity
  8
SLD-0
 62
     7
100
AcDbLine
 10
246.1050389893
 20
173.1522644974
 30
0.0
 11
243.1050390344
 21
174.1522644824
 31
0.0
  0
LINE
  5
204
330
1FB
100
AcDbEntity
  8
SLD-0
 62
     7
100
AcDbLine
 10
246.1050389893
 20
173.1522644974
 30
0.0
 11
243.1050390344
 21
173.1522644974
 31
0.0
  0
LINE
  5
205
330
1FB
100
AcDbEntity
  8
SLD-0
 62
     7
100
AcDbLine
 10
88.1050389893
 20
186.4522645199
 30
0.0
 11
88.1050389893
 21
171.6522644974
 31
0.0
  0
LINE
  5
206
330
1FB
100
AcDbEntity
  8
SLD-0
 62
     7
100
AcDbLine
 10
246.1050389893
 20
186.4522645199
 30
0.0
 11
246.1050389893
 21
171.6522644974
 31
0.0
  0
MTEXT
  5
207
330
1FB
100
AcDbEntity
  8
SLD-0
 62
     7
100
AcDbMText
 10
163.1550581343
 20
176.5721172876
 30
0.0
 40
2.9104166031
 41
0.0
 71
     1
 72
     1
  1
158
  7
SLDTEXTSTYLE1
 73
     1
 44
1.0
  0
ENDBLK
  5
1FD
330
1FB
100
AcDbEntity
  8
0
100
AcDbBlockEnd
  0
BLOCK
  5
20B
330
20A
100
AcDbEntity
  8
0
100
AcDbBlockBegin
  2
_D_8
 70
     0
 10
0.0
 20
0.0
 30
0.0
  3
_D_8
  1

  0
LINE
  5
20D
330
20A
100
AcDbEntity
  8
SLD-0
 62
     7
100
AcDbLine
 10
279.6050389893
 20
179.1522644974
 30
0.0
 11
289.1557722216
 21
179.1522644974
 31
0.0
  0
LINE
  5
20E
330
20A
100
AcDbEntity
  8
SLD-0
 62
     7
100
AcDbLine
 10
267.6050389442
 20
179.1522644974
 30
0.0
 11
276.6050390344
 21
179.1522644974
 31
0.0
  0
LINE
  5
20F
330
20A
100
AcDbEntity
  8
SLD-0
 62
     7
100
AcDbLine
 10
264.6050389893
 20
179.1522644974
 30
0.0
 11
267.6050389442
 21
180.1522644824
 31
0.0
  0
LINE
  5
210
330
20A
100
AcDbEntity
  8
SLD-0
 62
     7
100
AcDbLine
 10
264.6050389893
 20
179.1522644974
 30
0.0
 11
267.6050389442
 21
178.1522645124
 31
0.0
  0
LINE
  5
211
330
20A
100
AcDbEntity
  8
SLD-0
 62
     7
100
AcDbLine
 10
264.6050389893
 20
179.1522644974
 30
0.0
 11
267.6050389442
 21
179.1522644974
 31
0.0
  0
LINE
  5
212
330
20A
100
AcDbEntity
  8
SLD-0
 62
     7
100
AcDbLine
 10
279.6050389893
 20
179.1522644974
 30
0.0
 11
276.6050390344
 21
178.1522645124
 31
0.0
  0
LINE
  5
213
330
20A
100
AcDbEntity
  8
SLD-0
 62
     7
100
AcDbLine
 10
279.6050389893
 20
179.1522644974
 30
0.0
 11
276.6050390344
 21
180.1522644824
 31
0.0
  0
LINE
  5
214
330
20A
100
AcDbEntity
  8
SLD-0
 62
     7
100
AcDbLine
 10
279.6050389893
 20
179.1522644974
 30
0.0
 11
276.6050390344
 21
179.1522644974
 31
0.0
  0
LINE
  5
215
330
20A
100
AcDbEntity
  8
SLD-0
 62
     7
100
AcDbLine
 10
264.6050389893
 20
214.1522645199
 30
0.0
 11
264.6050389893
 21
177.6522644974
 31
0.0
  0
LINE
  5
216
330
20A
100
AcDbEntity
  8
SLD-0
 62
     7
100
AcDbLine
 10
279.6050389893
 20
214.1522645199
 30
0.0
 11
279.6050389893
 21
177.6522644974
 31
0.0
  0
MTEXT
  5
217
330
20A
100
AcDbEntity
  8
SLD-0
 62
     7
100
AcDbMText
 10
281.2558105116
 20
182.5721172876
 30
0.0
 40
2.9104166031
 41
0.0
 71
     1
 72
     1
  1
%%c
  7
SLDTEXTSTYLE1
 73
     1
 44
1.0
  0
MTEXT
  5
218
330
20A
100
AcDbEntity
  8
SLD-0
 62
     7
100
AcDbMText
 10
285.1113041298
 20
182.5721172876
 30
0.0
 40
2.9104166031
 41
0.0
 71
     1
 72
     1
  1
１５
  7
SLDTEXTSTYLE1
 73
     1
 44
1.0
  0
ENDBLK
  5
20C
330
20A
100
AcDbEntity
  8
0
100
AcDbBlockEnd
  0
BLOCK
  5
21B
330
21A
100
AcDbEntity
  8
0
100
AcDbBlockBegin
  2
_D_9
 70
     0
 10
0.0
 20
0.0
 30
0.0
  3
_D_9
  1

  0
LINE
  5
21D
330
21A
100
AcDbEntity
  8
SLD-0
 62
     7
100
AcDbLine
 10
54.6050389893
 20
179.1522644974
 30
0.0
 11
45.0380909622
 21
179.1522644974
 31
0.0
  0
LINE
  5
21E
330
21A
100
AcDbEntity
  8
SLD-0
 62
     7
100
AcDbLine
 10
57.6050389442
 20
179.1522644974
 30
0.0
 11
66.6050390344
 21
179.1522644974
 31
0.0
  0
LINE
  5
21F
330
21A
100
AcDbEntity
  8
SLD-0
 62
     7
100
AcDbLine
 10
54.6050389893
 20
179.1522644974
 30
0.0
 11
57.6050389442
 21
180.1522644824
 31
0.0
  0
LINE
  5
220
330
21A
100
AcDbEntity
  8
SLD-0
 62
     7
100
AcDbLine
 10
54.6050389893
 20
179.1522644974
 30
0.0
 11
57.6050389442
 21
178.1522645124
 31
0.0
  0
LINE
  5
221
330
21A
100
AcDbEntity
  8
SLD-0
 62
     7
100
AcDbLine
 10
54.6050389893
 20
179.1522644974
 30
0.0
 11
57.6050389442
 21
179.1522644974
 31
0.0
  0
LINE
  5
222
330
21A
100
AcDbEntity
  8
SLD-0
 62
     7
100
AcDbLine
 10
69.6050389893
 20
179.1522644974
 30
0.0
 11
66.6050390344
 21
178.1522645124
 31
0.0
  0
LINE
  5
223
330
21A
100
AcDbEntity
  8
SLD-0
 62
     7
100
AcDbLine
 10
69.6050389893
 20
179.1522644974
 30
0.0
 11
66.6050390344
 21
180.1522644824
 31
0.0
  0
LINE
  5
224
330
21A
100
AcDbEntity
  8
SLD-0
 62
     7
100
AcDbLine
 10
69.6050389893
 20
179.1522644974
 30
0.0
 11
66.6050390344
 21
179.1522644974
 31
0.0
  0
LINE
  5
225
330
21A
100
AcDbEntity
  8
SLD-0
 62
     7
100
AcDbLine
 10
54.6050389893
 20
214.1522645199
 30
0.0
 11
54.6050389893
 21
177.6522644974
 31
0.0
  0
LINE
  5
226
330
21A
100
AcDbEntity
  8
SLD-0
 62
     7
100
AcDbLine
 10
69.6050389893
 20
214.1522645199
 30
0.0
 11
69.6050389893
 21
177.6522644974
 31
0.0
  0
MTEXT
  5
227
330
21A
100
AcDbEntity
  8
SLD-0
 62
     7
100
AcDbMText
 10
45.0380909622
 20
182.5721172876
 30
0.0
 40
2.9104166031
 41
0.0
 71
     1
 72
     1
  1
%%c
  7
SLDTEXTSTYLE1
 73
     1
 44
1.0
  0
MTEXT
  5
228
330
21A
100
AcDbEntity
  8
SLD-0
 62
     7
100
AcDbMText
 10
48.8935845804
 20
182.5721172876
 30
0.0
 40
2.9104166031
 41
0.0
 71
     1
 72
     1
  1
１５
  7
SLDTEXTSTYLE1
 73
     1
 44
1.0
  0
ENDBLK
  5
21C
330
21A
100
AcDbEntity
  8
0
100
AcDbBlockEnd
  0
BLOCK
  5
22B
330
22A
100
AcDbEntity
  8
0
100
AcDbBlockBegin
  2
_D_10
 70
     0
 10
0.0
 20
0.0
 30
0.0
  3
_D_10
  1

  0
LINE
  5
22D
330
22A
100
AcDbEntity
  8
SLD-0
 62
     7
100
AcDbLine
 10
57.6050389442
 20
167.1522644974
 30
0.0
 11
276.6050390344
 21
167.1522644974
 31
0.0
  0
LINE
  5
22E
330
22A
100
AcDbEntity
  8
SLD-0
 62
     7
100
AcDbLine
 10
54.6050389893
 20
167.1522644974
 30
0.0
 11
57.6050389442
 21
168.1522644824
 31
0.0
  0
LINE
  5
22F
330
22A
100
AcDbEntity
  8
SLD-0
 62
     7
100
AcDbLine
 10
54.6050389893
 20
167.1522644974
 30
0.0
 11
57.6050389442
 21
166.1522645124
 31
0.0
  0
LINE
  5
230
330
22A
100
AcDbEntity
  8
SLD-0
 62
     7
100
AcDbLine
 10
54.6050389893
 20
167.1522644974
 30
0.0
 11
57.6050389442
 21
167.1522644974
 31
0.0
  0
LINE
  5
231
330
22A
100
AcDbEntity
  8
SLD-0
 62
     7
100
AcDbLine
 10
279.6050389893
 20
167.1522644974
 30
0.0
 11
276.6050390344
 21
166.1522645124
 31
0.0
  0
LINE
  5
232
330
22A
100
AcDbEntity
  8
SLD-0
 62
     7
100
AcDbLine
 10
279.6050389893
 20
167.1522644974
 30
0.0
 11
276.6050390344
 21
168.1522644824
 31
0.0
  0
LINE
  5
233
330
22A
100
AcDbEntity
  8
SLD-0
 62
     7
100
AcDbLine
 10
279.6050389893
 20
167.1522644974
 30
0.0
 11
276.6050390344
 21
167.1522644974
 31
0.0
  0
LINE
  5
234
330
22A
100
AcDbEntity
  8
SLD-0
 62
     7
100
AcDbLine
 10
54.6050389893
 20
214.1522645199
 30
0.0
 11
54.6050389893
 21
165.6522644974
 31
0.0
  0
LINE
  5
235
330
22A
100
AcDbEntity
  8
SLD-0
 62
     7
100
AcDbLine
 10
279.6050389893
 20
214.1522645199
 30
0.0
 11
279.6050389893
 21
165.6522644974
 31
0.0
  0
MTEXT
  5
236
330
22A
100
AcDbEntity
  8
SLD-0
 62
     7
100
AcDbMText
 10
163.1550581343
 20
170.5721172876
 30
0.0
 40
2.9104166031
 41
0.0
 71
     1
 72
     1
  1
225
  7
SLDTEXTSTYLE1
 73
     1
 44
1.0
  0
ENDBLK
  5
22C
330
22A
100
AcDbEntity
  8
0
100
AcDbBlockEnd
  0
BLOCK
  5
239
330
238
100
AcDbEntity
  8
0
100
AcDbBlockBegin
  2
_D_11
 70
     0
 10
0.0
 20
0.0
 30
0.0
  3
_D_11
  1

  0
LINE
  5
23B
330
238
100
AcDbEntity
  8
SLD-0
 62
     7
100
AcDbLine
 10
319.1050389893
 20
249.1522644974
 30
0.0
 11
319.1050389893
 21
242.1522644974
 31
0.0
  0
LINE
  5
23C
330
238
100
AcDbEntity
  8
SLD-0
 62
     7
100
AcDbLine
 10
319.1050389893
 20
249.1522644974
 30
0.0
 11
318.1050390043
 21
252.1522644523
 31
0.0
  0
LINE
  5
23D
330
238
100
AcDbEntity
  8
SLD-0
 62
     7
100
AcDbLine
 10
319.1050389893
 20
249.1522644974
 30
0.0
 11
320.1050389743
 21
252.1522644523
 31
0.0
  0
LINE
  5
23E
330
238
100
AcDbEntity
  8
SLD-0
 62
     7
100
AcDbLine
 10
319.1050389893
 20
249.1522644974
 30
0.0
 11
319.1050389893
 21
252.1522644523
 31
0.0
  0
LINE
  5
23F
330
238
100
AcDbEntity
  8
SLD-0
 62
     7
100
AcDbLine
 10
319.1050389893
 20
252.1522644523
 30
0.0
 11
319.1050389893
 21
255.502264402
 31
0.0
  0
LINE
  5
240
330
238
100
AcDbEntity
  8
SLD-0
 62
     7
100
AcDbLine
 10
319.1050389893
 20
242.1522644974
 30
0.0
 11
320.1050389743
 21
239.1522645425
 31
0.0
  0
LINE
  5
241
330
238
100
AcDbEntity
  8
SLD-0
 62
     7
100
AcDbLine
 10
319.1050389893
 20
242.1522644974
 30
0.0
 11
318.1050390043
 21
239.1522645425
 31
0.0
  0
LINE
  5
242
330
238
100
AcDbEntity
  8
SLD-0
 62
     7
100
AcDbLine
 10
319.1050389893
 20
242.1522644974
 30
0.0
 11
319.1050389893
 21
239.1522645425
 31
0.0
  0
LINE
  5
243
330
238
100
AcDbEntity
  8
SLD-0
 62
     7
100
AcDbLine
 10
319.1050389893
 20
239.1522645425
 30
0.0
 11
319.1050389893
 21
235.8022645928
 31
0.0
  0
LINE
  5
244
330
238
100
AcDbEntity
  8
SLD-0
 62
     7
100
AcDbLine
 10
298.6050389668
 20
249.1522644974
 30
0.0
 11
320.6050389893
 21
249.1522644974
 31
0.0
  0
LINE
  5
245
330
238
100
AcDbEntity
  8
SLD-0
 62
     7
100
AcDbLine
 10
297.6050389668
 20
242.1522644974
 30
0.0
 11
320.6050389893
 21
242.1522644974
 31
0.0
  0
MTEXT
  5
246
330
238
100
AcDbEntity
  8
SLD-0
 62
     7
100
AcDbMText
 10
315.6851861991
 20
244.6127001263
 30
0.0
 40
2.9104166031
 41
0.0
 71
     1
 72
     1
  1
7
  7
SLDTEXTSTYLE1
 11
-3.828568698926949E-16
 21
1.0
 31
0.0
 73
     1
 44
1.0
  0
ENDBLK
  5
23A
330
238
100
AcDbEntity
  8
0
100
AcDbBlockEnd
  0
BLOCK
  5
24A
330
249
100
AcDbEntity
  8
0
100
AcDbBlockBegin
  2
_D_12
 70
     0
 10
0.0
 20
0.0
 30
0.0
  3
_D_12
  1

  0
LINE
  5
24C
330
249
100
AcDbEntity
  8
SLD-0
 62
     7
100
AcDbLine
 10
319.1050389893
 20
190.6522644523
 30
0.0
 11
319.1050389893
 21
239.1522645425
 31
0.0
  0
LINE
  5
24D
330
249
100
AcDbEntity
  8
SLD-0
 62
     7
100
AcDbLine
 10
319.1050389893
 20
187.6522644974
 30
0.0
 11
318.1050390043
 21
190.6522644523
 31
0.0
  0
LINE
  5
24E
330
249
100
AcDbEntity
  8
SLD-0
 62
     7
100
AcDbLine
 10
319.1050389893
 20
187.6522644974
 30
0.0
 11
320.1050389743
 21
190.6522644523
 31
0.0
  0
LINE
  5
24F
330
249
100
AcDbEntity
  8
SLD-0
 62
     7
100
AcDbLine
 10
319.1050389893
 20
187.6522644974
 30
0.0
 11
319.1050389893
 21
190.6522644523
 31
0.0
  0
LINE
  5
250
330
249
100
AcDbEntity
  8
SLD-0
 62
     7
100
AcDbLine
 10
319.1050389893
 20
242.1522644974
 30
0.0
 11
320.1050389743
 21
239.1522645425
 31
0.0
  0
LINE
  5
251
330
249
100
AcDbEntity
  8
SLD-0
 62
     7
100
AcDbLine
 10
319.1050389893
 20
242.1522644974
 30
0.0
 11
318.1050390043
 21
239.1522645425
 31
0.0
  0
LINE
  5
252
330
249
100
AcDbEntity
  8
SLD-0
 62
     7
100
AcDbLine
 10
319.1050389893
 20
242.1522644974
 30
0.0
 11
319.1050389893
 21
239.1522645425
 31
0.0
  0
LINE
  5
253
330
249
100
AcDbEntity
  8
SLD-0
 62
     7
100
AcDbLine
 10
253.1050389668
 20
187.6522644974
 30
0.0
 11
320.6050389893
 21
187.6522644974
 31
0.0
  0
LINE
  5
254
330
249
100
AcDbEntity
  8
SLD-0
 62
     7
100
AcDbLine
 10
297.6050389668
 20
242.1522644974
 30
0.0
 11
320.6050389893
 21
242.1522644974
 31
0.0
  0
MTEXT
  5
255
330
249
100
AcDbEntity
  8
SLD-0
 62
     7
100
AcDbMText
 10
315.6851861991
 20
210.3702003456
 30
0.0
 40
2.9104166031
 41
0.0
 71
     1
 72
     1
  1
54.5
  7
SLDTEXTSTYLE1
 11
-3.828568698926949E-16
 21
1.0
 31
0.0
 73
     1
 44
1.0
  0
ENDBLK
  5
24B
330
249
100
AcDbEntity
  8
0
100
AcDbBlockEnd
  0
BLOCK
  5
258
330
257
100
AcDbEntity
  8
0
100
AcDbBlockBegin
  2
_D_13
 70
     0
 10
0.0
 20
0.0
 30
0.0
  3
_D_13
  1

  0
LINE
  5
25A
330
257
100
AcDbEntity
  8
SLD-0
 62
     7
100
AcDbLine
 10
325.1050389893
 20
246.1522645425
 30
0.0
 11
325.1050389893
 21
190.6522644523
 31
0.0
  0
LINE
  5
25B
330
257
100
AcDbEntity
  8
SLD-0
 62
     7
100
AcDbLine
 10
325.1050389893
 20
249.1522644974
 30
0.0
 11
326.1050389743
 21
246.1522645425
 31
0.0
  0
LINE
  5
25C
330
257
100
AcDbEntity
  8
SLD-0
 62
     7
100
AcDbLine
 10
325.1050389893
 20
249.1522644974
 30
0.0
 11
324.1050390043
 21
246.1522645425
 31
0.0
  0
LINE
  5
25D
330
257
100
AcDbEntity
  8
SLD-0
 62
     7
100
AcDbLine
 10
325.1050389893
 20
249.1522644974
 30
0.0
 11
325.1050389893
 21
246.1522645425
 31
0.0
  0
LINE
  5
25E
330
257
100
AcDbEntity
  8
SLD-0
 62
     7
100
AcDbLine
 10
325.1050389893
 20
187.6522644974
 30
0.0
 11
324.1050390043
 21
190.6522644523
 31
0.0
  0
LINE
  5
25F
330
257
100
AcDbEntity
  8
SLD-0
 62
     7
100
AcDbLine
 10
325.1050389893
 20
187.6522644974
 30
0.0
 11
326.1050389743
 21
190.6522644523
 31
0.0
  0
LINE
  5
260
330
257
100
AcDbEntity
  8
SLD-0
 62
     7
100
AcDbLine
 10
325.1050389893
 20
187.6522644974
 30
0.0
 11
325.1050389893
 21
190.6522644523
 31
0.0
  0
LINE
  5
261
330
257
100
AcDbEntity
  8
SLD-0
 62
     7
100
AcDbLine
 10
298.6050389668
 20
249.1522644974
 30
0.0
 11
326.6050389893
 21
249.1522644974
 31
0.0
  0
LINE
  5
262
330
257
100
AcDbEntity
  8
SLD-0
 62
     7
100
AcDbLine
 10
253.1050389668
 20
187.6522644974
 30
0.0
 11
326.6050389893
 21
187.6522644974
 31
0.0
  0
MTEXT
  5
263
330
257
100
AcDbEntity
  8
SLD-0
 62
     7
100
AcDbMText
 10
321.6851861991
 20
213.8702003456
 30
0.0
 40
2.9104166031
 41
0.0
 71
     1
 72
     1
  1
61.5
  7
SLDTEXTSTYLE1
 11
-3.828568698926949E-16
 21
1.0
 31
0.0
 73
     1
 44
1.0
  0
ENDBLK
  5
259
330
257
100
AcDbEntity
  8
0
100
AcDbBlockEnd
  0
ENDSEC
  0
SECTION
  2
ENTITIES
  0
VIEWPORT
  5
77
330
1B
100
AcDbEntity
 67
     1
  8
0
100
AcDbViewport
 10
210.0
 20
148.5
 30
0.0
 40
444.36
 41
314.226
 68
     1
 69
     1
 12
210.0
 22
148.5
 13
0.0
 23
0.0
 14
10.0
 24
10.0
 15
10.0
 25
10.0
 16
0.0
 26
0.0
 36
1.0
 17
0.0
 27
0.0
 37
0.0
 42
50.0
 43
0.0
 44
0.0
 45
314.226
 50
0.0
 51
0.0
 72
   100
 90
   557152
  1

281
     0
 71
     1
 74
     0
110
0.0
120
0.0
130
0.0
111
1.0
121
0.0
131
0.0
112
0.0
122
1.0
132
0.0
 79
     0
146
0.0
  0
LINE
  5
79
330
1B
100
AcDbEntity
 67
     1
  8
SLD-0
  6
Continuous
 62
     7
100
AcDbLine
 10
245.8050342686
 20
95.93791636
 30
0.0
 11
246.1050393469
 21
96.237916316
 31
0.0
  0
LINE
  5
7A
330
1B
100
AcDbEntity
 67
     1
  8
SLD-0
  6
Continuous
 62
     7
100
AcDbLine
 10
246.1050393469
 20
110.6379160687
 30
0.0
 11
245.8050342686
 21
110.9379160247
 31
0.0
  0
LINE
  5
7B
330
1B
100
AcDbEntity
 67
     1
  8
SLD-0
  6
Continuous
 62
     7
100
AcDbLine
 10
88.4050390161
 20
110.9379160247
 30
0.0
 11
88.1050395257
 21
110.6379160687
 31
0.0
  0
LINE
  5
7C
330
1B
100
AcDbEntity
 67
     1
  8
SLD-0
  6
Continuous
 62
     7
100
AcDbLine
 10
88.1050395257
 20
96.237916316
 30
0.0
 11
88.4050390161
 21
95.93791636
 31
0.0
  0
LINE
  5
7D
330
1B
100
AcDbEntity
 67
     1
  8
SLD-0
  6
Continuous
 62
     7
100
AcDbLine
 10
88.4050390161
 20
95.93791636
 30
0.0
 11
245.8050342686
 21
95.93791636
 31
0.0
  0
LINE
  5
7E
330
1B
100
AcDbEntity
 67
     1
  8
SLD-0
  6
Continuous
 62
     7
100
AcDbLine
 10
245.8050342686
 20
110.9379160247
 30
0.0
 11
88.4050390161
 21
110.9379160247
 31
0.0
  0
LINE
  5
7F
330
1B
100
AcDbEntity
 67
     1
  8
SLD-0
  6
Continuous
 62
     7
100
AcDbLine
 10
272.1050324328
 20
110.9379160247
 30
0.0
 11
251.6050430424
 21
110.9379160247
 31
0.0
  0
LINE
  5
80
330
1B
100
AcDbEntity
 67
     1
  8
SLD-0
  6
Continuous
 62
     7
100
AcDbLine
 10
251.6050430424
 20
95.93791636
 30
0.0
 11
272.1050324328
 21
95.93791636
 31
0.0
  0
LINE
  5
81
330
1B
100
AcDbEntity
 67
     1
  8
SLD-0
  6
Continuous
 62
     7
100
AcDbLine
 10
246.4050444252
 20
95.93791636
 30
0.0
 11
251.6050430424
 21
95.93791636
 31
0.0
  0
LINE
  5
82
330
1B
100
AcDbEntity
 67
     1
  8
SLD-0
  6
Continuous
 62
     7
100
AcDbLine
 10
251.6050430424
 20
110.9379160247
 30
0.0
 11
246.4050444252
 21
110.9379160247
 31
0.0
  0
LINE
  5
83
330
1B
100
AcDbEntity
 67
     1
  8
SLD-0
  6
Continuous
 62
     7
100
AcDbLine
 10
246.4050444252
 20
110.9379160247
 30
0.0
 11
246.1050393469
 21
110.6379160687
 31
0.0
  0
LINE
  5
84
330
1B
100
AcDbEntity
 67
     1
  8
SLD-0
  6
Continuous
 62
     7
100
AcDbLine
 10
246.1050393469
 20
96.237916316
 30
0.0
 11
246.4050444252
 21
95.93791636
 31
0.0
  0
LINE
  5
85
330
1B
100
AcDbEntity
 67
     1
  8
SLD-0
  6
Continuous
 62
     7
100
AcDbLine
 10
87.8050381727
 20
95.93791636
 30
0.0
 11
88.1050395257
 21
96.237916316
 31
0.0
  0
LINE
  5
86
330
1B
100
AcDbEntity
 67
     1
  8
SLD-0
  6
Continuous
 62
     7
100
AcDbLine
 10
88.1050395257
 20
110.6379160687
 30
0.0
 11
87.8050381727
 21
110.9379160247
 31
0.0
  0
LINE
  5
87
330
1B
100
AcDbEntity
 67
     1
  8
SLD-0
  6
Continuous
 62
     7
100
AcDbLine
 10
62.1050389893
 20
95.93791636
 30
0.0
 11
82.6050395555
 21
95.93791636
 31
0.0
  0
LINE
  5
88
330
1B
100
AcDbEntity
 67
     1
  8
SLD-0
  6
Continuous
 62
     7
100
AcDbLine
 10
82.6050395555
 20
110.9379160247
 30
0.0
 11
62.1050389893
 21
110.9379160247
 31
0.0
  0
LINE
  5
89
330
1B
100
AcDbEntity
 67
     1
  8
SLD-0
  6
Continuous
 62
     7
100
AcDbLine
 10
87.8050381727
 20
110.9379160247
 30
0.0
 11
82.6050395555
 21
110.9379160247
 31
0.0
  0
LINE
  5
8A
330
1B
100
AcDbEntity
 67
     1
  8
SLD-0
  6
Continuous
 62
     7
100
AcDbLine
 10
82.6050395555
 20
95.93791636
 30
0.0
 11
87.8050381727
 21
95.93791636
 31
0.0
  0
LINE
  5
8B
330
1B
100
AcDbEntity
 67
     1
  8
SLD-0
  6
Continuous
 62
     7
100
AcDbLine
 10
246.1050393469
 20
110.6379160687
 30
0.0
 11
246.1050393469
 21
96.237916316
 31
0.0
  0
LINE
  5
8C
330
1B
100
AcDbEntity
 67
     1
  8
SLD-0
  6
Continuous
 62
     7
100
AcDbLine
 10
245.8050342686
 20
95.93791636
 30
0.0
 11
245.8050342686
 21
110.9379160247
 31
0.0
  0
LINE
  5
8D
330
1B
100
AcDbEntity
 67
     1
  8
SLD-0
  6
Continuous
 62
     7
100
AcDbLine
 10
88.4050390161
 20
110.9379160247
 30
0.0
 11
88.4050390161
 21
95.93791636
 31
0.0
  0
LINE
  5
8E
330
1B
100
AcDbEntity
 67
     1
  8
SLD-0
  6
Continuous
 62
     7
100
AcDbLine
 10
88.1050395257
 20
96.237916316
 30
0.0
 11
88.1050395257
 21
110.6379160687
 31
0.0
  0
LINE
  5
8F
330
1B
100
AcDbEntity
 67
     1
  8
SLD-0
  6
Continuous
 62
     7
100
AcDbLine
 10
246.4050444252
 20
110.9379160247
 30
0.0
 11
246.4050444252
 21
95.93791636
 31
0.0
  0
LINE
  5
90
330
1B
100
AcDbEntity
 67
     1
  8
SLD-0
  6
Continuous
 62
     7
100
AcDbLine
 10
246.1050393469
 20
96.237916316
 30
0.0
 11
246.1050393469
 21
110.6379160687
 31
0.0
  0
LINE
  5
91
330
1B
100
AcDbEntity
 67
     1
  8
SLD-0
  6
Continuous
 62
     7
100
AcDbLine
 10
88.1050395257
 20
110.6379160687
 30
0.0
 11
88.1050395257
 21
96.237916316
 31
0.0
  0
LINE
  5
92
330
1B
100
AcDbEntity
 67
     1
  8
SLD-0
  6
Continuous
 62
     7
100
AcDbLine
 10
87.8050381727
 20
95.93791636
 30
0.0
 11
87.8050381727
 21
110.9379160247
 31
0.0
  0
LINE
  5
93
330
1B
100
AcDbEntity
 67
     1
  8
SLD-0
  6
CENTER
 62
     7
100
AcDbLine
 10
27.1050389893
 20
103.4379161924
 30
0.0
 11
304.1241465349
 21
103.4379161924
 31
0.0
  0
LINE
  5
94
330
1B
100
AcDbEntity
 67
     1
  8
SLD-0
  6
Continuous
 62
     7
100
AcDbLine
 10
384.7309654283
 20
85.4379169672
 30
0.0
 11
390.2259204241
 21
87.4379154324
 31
0.0
  0
LINE
  5
95
330
1B
100
AcDbEntity
 67
     1
  8
SLD-0
  6
Continuous
 62
     7
100
AcDbLine
 10
390.2259204241
 20
87.4379154324
 30
0.0
 11
384.7309654283
 21
89.4379157602
 31
0.0
  0
LINE
  5
96
330
1B
100
AcDbEntity
 67
     1
  8
SLD-0
  6
Continuous
 62
     7
100
AcDbLine
 10
384.7309654283
 20
89.4379157602
 30
0.0
 11
372.475919843
 21
89.4379157602
 31
0.0
  0
LINE
  5
97
330
1B
100
AcDbEntity
 67
     1
  8
SLD-0
  6
Continuous
 62
     7
100
AcDbLine
 10
372.475919843
 20
85.4379169672
 30
0.0
 11
384.7309654283
 21
85.4379169672
 31
0.0
  0
LINE
  5
98
330
1B
100
AcDbEntity
 67
     1
  8
SLD-0
  6
Continuous
 62
     7
100
AcDbLine
 10
384.7309654283
 20
117.4379166245
 30
0.0
 11
390.2259204241
 21
119.4379169523
 31
0.0
  0
LINE
  5
99
330
1B
100
AcDbEntity
 67
     1
  8
SLD-0
  6
Continuous
 62
     7
100
AcDbLine
 10
390.2259204241
 20
119.4379169523
 30
0.0
 11
384.7309654283
 21
121.4379154175
 31
0.0
  0
LINE
  5
9A
330
1B
100
AcDbEntity
 67
     1
  8
SLD-0
  6
Continuous
 62
     7
100
AcDbLine
 10
384.7309654283
 20
121.4379154175
 30
0.0
 11
372.475919843
 21
121.4379154175
 31
0.0
  0
LINE
  5
9B
330
1B
100
AcDbEntity
 67
     1
  8
SLD-0
  6
Continuous
 62
     7
100
AcDbLine
 10
372.475919843
 20
117.4379166245
 30
0.0
 11
384.7309654283
 21
117.4379166245
 31
0.0
  0
LINE
  5
9C
330
1B
100
AcDbEntity
 67
     1
  8
SLD-0
  6
Continuous
 62
     7
100
AcDbLine
 10
365.4759196269
 20
110.9379160247
 30
0.0
 11
338.9759190085
 21
110.9379160247
 31
0.0
  0
LINE
  5
9D
330
1B
100
AcDbEntity
 67
     1
  8
SLD-0
  6
Continuous
 62
     7
100
AcDbLine
 10
344.7098914238
 20
95.93791636
 30
0.0
 11
365.4759196269
 21
95.93791636
 31
0.0
  0
LINE
  5
9E
330
1B
100
AcDbEntity
 67
     1
  8
SLD-0
  6
Continuous
 62
     7
100
AcDbLine
 10
338.9759190085
 20
95.93791636
 30
0.0
 11
342.2259200069
 21
95.93791636
 31
0.0
  0
LINE
  5
9F
330
1B
100
AcDbEntity
 67
     1
  8
SLD-0
  6
Continuous
 62
     7
100
AcDbLine
 10
338.9759190085
 20
110.9379160247
 30
0.0
 11
318.4759184422
 21
110.9379160247
 31
0.0
  0
LINE
  5
A0
330
1B
100
AcDbEntity
 67
     1
  8
SLD-0
  6
Continuous
 62
     7
100
AcDbLine
 10
318.4759184422
 20
95.93791636
 30
0.0
 11
338.9759190085
 21
95.93791636
 31
0.0
  0
LINE
  5
A1
330
1B
100
AcDbEntity
 67
     1
  8
SLD-0
  6
Continuous
 62
     7
100
AcDbLine
 10
372.4759199213
 20
128.4379164867
 30
0.0
 11
366.475919869
 21
128.4379164867
 31
0.0
  0
LINE
  5
A2
330
1B
100
AcDbEntity
 67
     1
  8
SLD-0
  6
Continuous
 62
     7
100
AcDbLine
 10
366.4759198691
 20
78.4379158981
 30
0.0
 11
372.4759199213
 21
78.4379158981
 31
0.0
  0
LINE
  5
A3
330
1B
100
AcDbEntity
 67
     1
  8
SLD-0
  6
Continuous
 62
     7
100
AcDbLine
 10
384.7309654283
 20
89.4379157602
 30
0.0
 11
384.7309654283
 21
85.4379169672
 31
0.0
  0
LINE
  5
A4
330
1B
100
AcDbEntity
 67
     1
  8
SLD-0
  6
Continuous
 62
     7
100
AcDbLine
 10
384.7309654283
 20
121.4379154175
 30
0.0
 11
384.7309654283
 21
117.4379166245
 31
0.0
  0
LINE
  5
A5
330
1B
100
AcDbEntity
 67
     1
  8
SLD-0
  6
Continuous
 62
     7
100
AcDbLine
 10
372.4759199213
 20
103.4379162707
 30
0.0
 11
372.4759199213
 21
128.4379164867
 31
0.0
  0
LINE
  5
A6
330
1B
100
AcDbEntity
 67
     1
  8
SLD-0
  6
Continuous
 62
     7
100
AcDbLine
 10
372.4759199213
 20
78.4379158981
 30
0.0
 11
372.4759199213
 21
103.4379162707
 31
0.0
  0
LINE
  5
A7
330
1B
100
AcDbEntity
 67
     1
  8
SLD-0
  6
Continuous
 62
     7
100
AcDbLine
 10
365.4759196269
 20
103.4379161924
 30
0.0
 11
365.4759196269
 21
127.437916401
 31
0.0
  0
LINE
  5
A8
330
1B
100
AcDbEntity
 67
     1
  8
SLD-0
  6
Continuous
 62
     7
100
AcDbLine
 10
365.4759196269
 20
79.4379159838
 30
0.0
 11
365.4759196269
 21
103.4379161924
 31
0.0
  0
LINE
  5
A9
330
1B
100
AcDbEntity
 67
     1
  8
SLD-0
  6
CENTER
 62
     7
100
AcDbLine
 10
392.225919843
 20
119.4379161924
 30
0.0
 11
368.225819843
 21
119.4379161924
 31
0.0
  0
LINE
  5
AA
330
1B
100
AcDbEntity
 67
     1
  8
SLD-0
  6
CENTER
 62
     7
100
AcDbLine
 10
392.225919843
 20
87.4379161924
 30
0.0
 11
368.225819843
 21
87.4379161924
 31
0.0
  0
LINE
  5
AB
330
1B
100
AcDbEntity
 67
     1
  8
SLD-0
  6
CENTER
 62
     7
100
AcDbLine
 10
307.7709037952
 20
103.4379161924
 30
0.0
 11
397.1491708175
 21
103.4379161924
 31
0.0
  0
LINE
  5
AC
330
1B
100
AcDbEntity
 67
     1
  8
SLD-0
  6
CENTER
 62
     7
100
AcDbLine
 10
272.1050392034
 20
215.652264244
 30
0.0
 11
272.1050392034
 21
275.0552433397
 31
0.0
  0
LINE
  5
AD
330
1B
100
AcDbEntity
 67
     1
  8
SLD-0
  6
CENTER
 62
     7
100
AcDbLine
 10
62.1050389893
 20
275.0552431256
 30
0.0
 11
62.1050389893
 21
215.6522640299
 31
0.0
  0
LINE
  5
AE
330
1B
100
AcDbEntity
 67
     1
  8
SLD-0
  6
CENTER
 62
     7
100
AcDbLine
 10
251.6050389893
 20
195.1522640299
 30
0.0
 11
82.6050389893
 21
195.1522640299
 31
0.0
  0
LINE
  5
AF
330
1B
100
AcDbEntity
 67
     1
  8
SLD-0
  6
Continuous
 62
     7
100
AcDbLine
 10
274.1050364859
 20
261.4073100827
 30
0.0
 11
272.1050324328
 21
266.9022650786
 31
0.0
  0
LINE
  5
B0
330
1B
100
AcDbEntity
 67
     1
  8
SLD-0
  6
Continuous
 62
     7
100
AcDbLine
 10
272.1050324328
 20
266.9022650786
 30
0.0
 11
270.1050432808
 21
261.4073100827
 31
0.0
  0
LINE
  5
B1
330
1B
100
AcDbEntity
 67
     1
  8
SLD-0
  6
Continuous
 62
     7
100
AcDbLine
 10
270.1050432808
 20
261.4073100827
 30
0.0
 11
270.1050432808
 21
249.1522644974
 31
0.0
  0
LINE
  5
B2
330
1B
100
AcDbEntity
 67
     1
  8
SLD-0
  6
Continuous
 62
     7
100
AcDbLine
 10
274.1050364859
 20
249.1522644974
 30
0.0
 11
274.1050364859
 21
261.4073100827
 31
0.0
  0
LINE
  5
B3
330
1B
100
AcDbEntity
 67
     1
  8
SLD-0
  6
Continuous
 62
     7
100
AcDbLine
 10
64.1050390843
 20
261.4073100827
 30
0.0
 11
62.1050389893
 21
266.9022650786
 31
0.0
  0
LINE
  5
B4
330
1B
100
AcDbEntity
 67
     1
  8
SLD-0
  6
Continuous
 62
     7
100
AcDbLine
 10
62.1050389893
 20
266.9022650786
 30
0.0
 11
60.1050388943
 21
261.4073100827
 31
0.0
  0
LINE
  5
B5
330
1B
100
AcDbEntity
 67
     1
  8
SLD-0
  6
Continuous
 62
     7
100
AcDbLine
 10
60.1050388943
 20
261.4073100827
 30
0.0
 11
60.1050388943
 21
249.1522644974
 31
0.0
  0
LINE
  5
B6
330
1B
100
AcDbEntity
 67
     1
  8
SLD-0
  6
Continuous
 62
     7
100
AcDbLine
 10
64.1050390843
 20
249.1522644974
 30
0.0
 11
64.1050390843
 21
261.4073100827
 31
0.0
  0
LINE
  5
B7
330
1B
100
AcDbEntity
 67
     1
  8
SLD-0
  6
Continuous
 62
     7
100
AcDbLine
 10
88.4050390161
 20
202.6522633947
 30
0.0
 11
88.1050395257
 21
202.352265767
 31
0.0
  0
LINE
  5
B8
330
1B
100
AcDbEntity
 67
     1
  8
SLD-0
  6
Continuous
 62
     7
100
AcDbLine
 10
88.1050395257
 20
187.9522641517
 30
0.0
 11
88.4050390161
 21
187.6522627987
 31
0.0
  0
LINE
  5
B9
330
1B
100
AcDbEntity
 67
     1
  8
SLD-0
  6
Continuous
 62
     7
100
AcDbLine
 10
245.8050342686
 20
187.6522627987
 30
0.0
 11
246.1050393469
 21
187.9522641517
 31
0.0
  0
LINE
  5
BA
330
1B
100
AcDbEntity
 67
     1
  8
SLD-0
  6
Continuous
 62
     7
100
AcDbLine
 10
246.1050393469
 20
202.352265767
 30
0.0
 11
245.8050342686
 21
202.6522633947
 31
0.0
  0
LINE
  5
BB
330
1B
100
AcDbEntity
 67
     1
  8
SLD-0
  6
Continuous
 62
     7
100
AcDbLine
 10
88.4050390161
 20
187.6522627987
 30
0.0
 11
245.8050342686
 21
187.6522627987
 31
0.0
  0
LINE
  5
BC
330
1B
100
AcDbEntity
 67
     1
  8
SLD-0
  6
Continuous
 62
     7
100
AcDbLine
 10
90.8536594518
 20
202.6522633947
 30
0.0
 11
88.4050390161
 21
202.6522633947
 31
0.0
  0
LINE
  5
BD
330
1B
100
AcDbEntity
 67
     1
  8
SLD-0
  6
Continuous
 62
     7
100
AcDbLine
 10
236.8536022894
 20
202.6522633947
 30
0.0
 11
97.3557594906
 21
202.6522633947
 31
0.0
  0
LINE
  5
BE
330
1B
100
AcDbEntity
 67
     1
  8
SLD-0
  6
Continuous
 62
     7
100
AcDbLine
 10
245.8050342686
 20
202.6522633947
 30
0.0
 11
243.355753095
 21
202.6522633947
 31
0.0
  0
LINE
  5
BF
330
1B
100
AcDbEntity
 67
     1
  8
SLD-0
  6
Continuous
 62
     7
100
AcDbLine
 10
264.6050398387
 20
242.1522640279
 30
0.0
 11
264.6050398387
 21
215.6522634095
 31
0.0
  0
LINE
  5
C0
330
1B
100
AcDbEntity
 67
     1
  8
SLD-0
  6
Continuous
 62
     7
100
AcDbLine
 10
279.6050404347
 20
215.6522634095
 30
0.0
 11
279.6050404347
 21
242.1522640279
 31
0.0
  0
LINE
  5
C1
330
1B
100
AcDbEntity
 67
     1
  8
SLD-0
  6
Continuous
 62
     7
100
AcDbLine
 10
246.4050444252
 20
187.6522627987
 30
0.0
 11
251.6050430424
 21
187.6522627987
 31
0.0
  0
LINE
  5
C2
330
1B
100
AcDbEntity
 67
     1
  8
SLD-0
  6
Continuous
 62
     7
100
AcDbLine
 10
251.6050430424
 20
202.6522633947
 30
0.0
 11
246.4050444252
 21
202.6522633947
 31
0.0
  0
LINE
  5
C3
330
1B
100
AcDbEntity
 67
     1
  8
SLD-0
  6
Continuous
 62
     7
100
AcDbLine
 10
246.4050444252
 20
202.6522633947
 30
0.0
 11
246.1050393469
 21
202.352265767
 31
0.0
  0
LINE
  5
C4
330
1B
100
AcDbEntity
 67
     1
  8
SLD-0
  6
Continuous
 62
     7
100
AcDbLine
 10
246.1050393469
 20
187.9522641517
 30
0.0
 11
246.4050444252
 21
187.6522627987
 31
0.0
  0
LINE
  5
C5
330
1B
100
AcDbEntity
 67
     1
  8
SLD-0
  6
Continuous
 62
     7
100
AcDbLine
 10
54.6050377581
 20
242.1522638138
 30
0.0
 11
54.6050377581
 21
215.6522631954
 31
0.0
  0
LINE
  5
C6
330
1B
100
AcDbEntity
 67
     1
  8
SLD-0
  6
Continuous
 62
     7
100
AcDbLine
 10
69.6050383541
 20
215.6522631954
 30
0.0
 11
69.6050383541
 21
242.1522638138
 31
0.0
  0
LINE
  5
C7
330
1B
100
AcDbEntity
 67
     1
  8
SLD-0
  6
Continuous
 62
     7
100
AcDbLine
 10
87.8050381727
 20
202.6522633947
 30
0.0
 11
82.6050395555
 21
202.6522633947
 31
0.0
  0
LINE
  5
C8
330
1B
100
AcDbEntity
 67
     1
  8
SLD-0
  6
Continuous
 62
     7
100
AcDbLine
 10
82.6050395555
 20
187.6522627987
 30
0.0
 11
87.8050381727
 21
187.6522627987
 31
0.0
  0
LINE
  5
C9
330
1B
100
AcDbEntity
 67
     1
  8
SLD-0
  6
Continuous
 62
     7
100
AcDbLine
 10
87.8050381727
 20
187.6522627987
 30
0.0
 11
88.1050395257
 21
187.9522641517
 31
0.0
  0
LINE
  5
CA
330
1B
100
AcDbEntity
 67
     1
  8
SLD-0
  6
Continuous
 62
     7
100
AcDbLine
 10
88.1050395257
 20
202.352265767
 30
0.0
 11
87.8050381727
 21
202.6522633947
 31
0.0
  0
LINE
  5
CB
330
1B
100
AcDbEntity
 67
     1
  8
SLD-0
  6
Continuous
 62
     7
100
AcDbLine
 10
37.1050386168
 20
249.1522644974
 30
0.0
 11
37.1050386168
 21
243.1522644453
 31
0.0
  0
LINE
  5
CC
330
1B
100
AcDbEntity
 67
     1
  8
SLD-0
  6
Continuous
 62
     7
100
AcDbLine
 10
87.1050392054
 20
243.1522644453
 30
0.0
 11
87.1050392054
 21
249.1522644974
 31
0.0
  0
LINE
  5
CD
330
1B
100
AcDbEntity
 67
     1
  8
SLD-0
  6
Continuous
 62
     7
100
AcDbLine
 10
247.1050413735
 20
249.1522644974
 30
0.0
 11
247.1050413735
 21
243.1522644453
 31
0.0
  0
LINE
  5
CE
330
1B
100
AcDbEntity
 67
     1
  8
SLD-0
  6
Continuous
 62
     7
100
AcDbLine
 10
297.1050400994
 20
243.1522653394
 30
0.0
 11
297.1050400994
 21
249.1522644974
 31
0.0
  0
LINE
  5
CF
330
1B
100
AcDbEntity
 67
     1
  8
SLD-0
  6
Continuous
 62
     7
100
AcDbLine
 10
239.4317768451
 20
203.2990561602
 30
0.0
 11
239.5900420781
 21
203.2990561602
 31
0.0
  0
LINE
  5
D0
330
1B
100
AcDbEntity
 67
     1
  8
SLD-0
  6
Continuous
 62
     7
100
AcDbLine
 10
239.5900420781
 20
203.0151964901
 30
0.0
 11
239.5900420781
 21
203.2990561602
 31
0.0
  0
LINE
  5
D1
330
1B
100
AcDbEntity
 67
     1
  8
SLD-0
  6
Continuous
 62
     7
100
AcDbLine
 10
240.6200401421
 20
203.2990546655
 30
0.0
 11
240.6200401421
 21
203.0151964901
 31
0.0
  0
LINE
  5
D2
330
1B
100
AcDbEntity
 67
     1
  8
SLD-0
  6
Continuous
 62
     7
100
AcDbLine
 10
240.6200401421
 20
203.2990546655
 30
0.0
 11
240.7783056244
 21
203.2990546655
 31
0.0
  0
LINE
  5
D3
330
1B
100
AcDbEntity
 67
     1
  8
SLD-0
  6
Continuous
 62
     7
100
AcDbLine
 10
243.1050332672
 20
202.6522633947
 30
0.0
 11
237.1050360091
 21
202.6522633947
 31
0.0
  0
LINE
  5
D4
330
1B
100
AcDbEntity
 67
     1
  8
SLD-0
  6
Continuous
 62
     7
100
AcDbLine
 10
242.433691252
 20
202.4022628881
 30
0.0
 11
237.757637717
 21
202.4022628881
 31
0.0
  0
LINE
  5
D5
330
1B
100
AcDbEntity
 67
     1
  8
SLD-0
  6
Continuous
 62
     7
100
AcDbLine
 10
93.4317763466
 20
203.2990570247
 30
0.0
 11
93.5900378544
 21
203.2990570247
 31
0.0
  0
LINE
  5
D6
330
1B
100
AcDbEntity
 67
     1
  8
SLD-0
  6
Continuous
 62
     7
100
AcDbLine
 10
93.5900378544
 20
203.0151973546
 30
0.0
 11
93.5900378544
 21
203.2990570247
 31
0.0
  0
LINE
  5
D7
330
1B
100
AcDbEntity
 67
     1
  8
SLD-0
  6
Continuous
 62
     7
100
AcDbLine
 10
94.6200396437
 20
203.299056874
 30
0.0
 11
94.6200396437
 21
203.0151973546
 31
0.0
  0
LINE
  5
D8
330
1B
100
AcDbEntity
 67
     1
  8
SLD-0
  6
Continuous
 62
     7
100
AcDbLine
 10
94.6200396437
 20
203.299056874
 30
0.0
 11
94.7783050072
 21
203.299056874
 31
0.0
  0
LINE
  5
D9
330
1B
100
AcDbEntity
 67
     1
  8
SLD-0
  6
Continuous
 62
     7
100
AcDbLine
 10
97.1050394659
 20
202.6522642548
 30
0.0
 11
91.1050384824
 21
202.6522642548
 31
0.0
  0
LINE
  5
DA
330
1B
100
AcDbEntity
 67
     1
  8
SLD-0
  6
Continuous
 62
     7
100
AcDbLine
 10
96.4319252783
 20
202.4022628881
 30
0.0
 11
91.7576222539
 21
202.4022628881
 31
0.0
  0
LINE
  5
DB
330
1B
100
AcDbEntity
 67
     1
  8
SLD-0
  6
Continuous
 62
     7
100
AcDbLine
 10
272.1050324328
 20
261.4073100827
 30
0.0
 11
274.1050364859
 21
261.4073100827
 31
0.0
  0
LINE
  5
DC
330
1B
100
AcDbEntity
 67
     1
  8
SLD-0
  6
Continuous
 62
     7
100
AcDbLine
 10
270.1050432808
 20
261.4073100827
 30
0.0
 11
272.1050324328
 21
261.4073100827
 31
0.0
  0
LINE
  5
DD
330
1B
100
AcDbEntity
 67
     1
  8
SLD-0
  6
Continuous
 62
     7
100
AcDbLine
 10
62.1050389893
 20
261.4073100827
 30
0.0
 11
64.1050390843
 21
261.4073100827
 31
0.0
  0
LINE
  5
DE
330
1B
100
AcDbEntity
 67
     1
  8
SLD-0
  6
Continuous
 62
     7
100
AcDbLine
 10
60.1050388943
 20
261.4073100827
 30
0.0
 11
62.1050389893
 21
261.4073100827
 31
0.0
  0
LINE
  5
DF
330
1B
100
AcDbEntity
 67
     1
  8
SLD-0
  6
Continuous
 62
     7
100
AcDbLine
 10
88.4050390161
 20
202.6522633947
 30
0.0
 11
88.4050390161
 21
187.6522627987
 31
0.0
  0
LINE
  5
E0
330
1B
100
AcDbEntity
 67
     1
  8
SLD-0
  6
Continuous
 62
     7
100
AcDbLine
 10
88.1050395257
 20
187.9522641517
 30
0.0
 11
88.1050395257
 21
202.352265767
 31
0.0
  0
LINE
  5
E1
330
1B
100
AcDbEntity
 67
     1
  8
SLD-0
  6
Continuous
 62
     7
100
AcDbLine
 10
246.1050393469
 20
202.352265767
 30
0.0
 11
246.1050393469
 21
187.9522641517
 31
0.0
  0
LINE
  5
E2
330
1B
100
AcDbEntity
 67
     1
  8
SLD-0
  6
Continuous
 62
     7
100
AcDbLine
 10
245.8050342686
 20
187.6522627987
 30
0.0
 11
245.8050342686
 21
202.6522633947
 31
0.0
  0
LINE
  5
E3
330
1B
100
AcDbEntity
 67
     1
  8
SLD-0
  6
Continuous
 62
     7
100
AcDbLine
 10
246.4050444252
 20
202.6522633947
 30
0.0
 11
246.4050444252
 21
187.6522627987
 31
0.0
  0
LINE
  5
E4
330
1B
100
AcDbEntity
 67
     1
  8
SLD-0
  6
Continuous
 62
     7
100
AcDbLine
 10
246.1050393469
 20
187.9522641517
 30
0.0
 11
246.1050393469
 21
202.352265767
 31
0.0
  0
LINE
  5
E5
330
1B
100
AcDbEntity
 67
     1
  8
SLD-0
  6
Continuous
 62
     7
100
AcDbLine
 10
87.8050381727
 20
187.6522627987
 30
0.0
 11
87.8050381727
 21
202.6522633947
 31
0.0
  0
LINE
  5
E6
330
1B
100
AcDbEntity
 67
     1
  8
SLD-0
  6
Continuous
 62
     7
100
AcDbLine
 10
88.1050395257
 20
202.352265767
 30
0.0
 11
88.1050395257
 21
187.9522641517
 31
0.0
  0
LINE
  5
E7
330
1B
100
AcDbEntity
 67
     1
  8
SLD-0
  6
Continuous
 62
     7
100
AcDbLine
 10
87.1050392054
 20
249.1522644974
 30
0.0
 11
37.1050386168
 21
249.1522644974
 31
0.0
  0
LINE
  5
E8
330
1B
100
AcDbEntity
 67
     1
  8
SLD-0
  6
Continuous
 62
     7
100
AcDbLine
 10
86.1050391197
 20
242.1522642031
 30
0.0
 11
38.1050387025
 21
242.1522642031
 31
0.0
  0
LINE
  5
E9
330
1B
100
AcDbEntity
 67
     1
  8
SLD-0
  6
Continuous
 62
     7
100
AcDbLine
 10
297.1050400994
 20
249.1522644974
 30
0.0
 11
247.1050413735
 21
249.1522644974
 31
0.0
  0
LINE
  5
EA
330
1B
100
AcDbEntity
 67
     1
  8
SLD-0
  6
Continuous
 62
     7
100
AcDbLine
 10
296.1050376668
 20
242.1522655815
 30
0.0
 11
248.1050447001
 21
242.1522655815
 31
0.0
  0
LINE
  5
EB
330
1B
100
AcDbEntity
 67
     1
  8
SLD-0
  6
CENTER
 62
     7
100
AcDbLine
 10
94.1050389893
 20
205.2990570859
 30
0.0
 11
94.1050389893
 21
198.5922644974
 31
0.0
  0
LINE
  5
EC
330
1B
100
AcDbEntity
 67
     1
  8
SLD-0
  6
CENTER
 62
     7
100
AcDbLine
 10
240.1050389893
 20
205.2990570859
 30
0.0
 11
240.1050389893
 21
198.5922644974
 31
0.0
  0
LINE
  5
ED
330
1B
100
AcDbEntity
 67
     1
  8
SLD-0
  6
CENTER
 62
     7
100
AcDbLine
 10
62.1050389893
 20
138.4379161924
 30
0.0
 11
62.1050389893
 21
68.4379161924
 31
0.0
  0
LINE
  5
EE
330
1B
100
AcDbEntity
 67
     1
  8
SLD-0
  6
CENTER
 62
     7
100
AcDbLine
 10
272.1050389893
 20
138.4379161924
 30
0.0
 11
272.1050389893
 21
68.4379161924
 31
0.0
  0
LINE
  5
EF
330
1B
100
AcDbEntity
 67
     1
  8
SLD-0
  6
Continuous
 62
     7
100
AcDbLine
 10
237.1050360091
 20
202.6522633947
 30
0.0
 11
237.1050367551
 21
202.5774697757
 31
0.0
  0
LINE
  5
F0
330
1B
100
AcDbEntity
 67
     1
  8
SLD-0
  6
Continuous
 62
     7
100
AcDbLine
 10
243.1050332672
 20
202.6522633947
 30
0.0
 11
243.1050412235
 21
202.577084061
 31
0.0
  0
LINE
  5
F1
330
1B
100
AcDbEntity
 67
     1
  8
SLD-0
  6
Continuous
 62
     7
100
AcDbLine
 10
97.1050394659
 20
202.6522642548
 30
0.0
 11
97.1050415511
 21
202.5770825281
 31
0.0
  0
LINE
  5
F2
330
1B
100
AcDbEntity
 67
     1
  8
SLD-0
  6
Continuous
 62
     7
100
AcDbLine
 10
91.1050384824
 20
202.6522642548
 30
0.0
 11
91.1050370827
 21
202.5774738746
 31
0.0
  0
LINE
  5
F3
330
1B
100
AcDbEntity
 67
     1
  8
SLD-0
  6
CENTER
 62
     7
100
AcDbLine
 10
318.475919843
 20
120.9379161924
 30
0.0
 11
318.475919843
 21
85.9379161924
 31
0.0
  0
LINE
  5
F4
330
1B
100
AcDbEntity
 67
     1
  8
SLD-0
  6
Continuous
 62
     7
100
AcDbLine
 10
30.1718109004
 20
19.8435834722
 30
0.0
 11
27.7302342086
 21
15.8657439043
 31
0.0
  0
LINE
  5
F5
330
1B
100
AcDbEntity
 67
     1
  8
SLD-0
  6
Continuous
 62
     7
100
AcDbLine
 10
27.7302342086
 20
15.8657439043
 30
0.0
 11
32.6523479069
 21
15.8657439043
 31
0.0
  0
LINE
  5
F6
330
1B
100
AcDbEntity
 67
     1
  8
SLD-0
  6
Continuous
 62
     7
100
AcDbLine
 10
32.6523479069
 20
15.8657439043
 30
0.0
 11
30.1718109004
 21
19.8435834722
 31
0.0
  0
LINE
  5
F7
330
1B
100
AcDbEntity
 67
     1
  8
SLD-0
  6
Continuous
 62
     7
100
AcDbLine
 10
30.2126559815
 20
25.2324736862
 30
0.0
 11
27.7710792897
 21
21.2546341184
 31
0.0
  0
LINE
  5
F8
330
1B
100
AcDbEntity
 67
     1
  8
SLD-0
  6
Continuous
 62
     7
100
AcDbLine
 10
27.7710792897
 20
21.2546341184
 30
0.0
 11
32.6931929881
 21
21.2546341184
 31
0.0
  0
LINE
  5
F9
330
1B
100
AcDbEntity
 67
     1
  8
SLD-0
  6
Continuous
 62
     7
100
AcDbLine
 10
32.6931929881
 20
21.2546341184
 30
0.0
 11
30.2126559815
 21
25.2324736862
 31
0.0
  0
LINE
  5
FA
330
1B
100
AcDbEntity
 67
     1
  8
SLD-0
  6
Continuous
 62
     7
100
AcDbLine
 10
30.2427566899
 20
30.7865477178
 30
0.0
 11
27.8011799981
 21
26.8087081499
 31
0.0
  0
LINE
  5
FB
330
1B
100
AcDbEntity
 67
     1
  8
SLD-0
  6
Continuous
 62
     7
100
AcDbLine
 10
27.8011799981
 20
26.8087081499
 30
0.0
 11
32.7232936965
 21
26.8087081499
 31
0.0
  0
LINE
  5
FC
330
1B
100
AcDbEntity
 67
     1
  8
SLD-0
  6
Continuous
 62
     7
100
AcDbLine
 10
32.7232936965
 20
26.8087081499
 30
0.0
 11
30.2427566899
 21
30.7865477178
 31
0.0
  0
LINE
  5
FD
330
1B
100
AcDbEntity
 67
     1
  8
SLD-0
  6
Continuous
 62
     7
100
AcDbLine
 10
291.0
 20
9.5
 30
0.0
 11
291.0
 21
31.5
 31
0.0
  0
LINE
  5
FE
330
1B
100
AcDbEntity
 67
     1
  8
SLD-0
  6
Continuous
 62
     7
100
AcDbLine
 10
358.5550076286
 20
30.9049236191
 30
0.0
 11
360.3667723576
 21
30.9049236191
 31
0.0
  0
LINE
  5
FF
330
1B
100
AcDbEntity
 67
     1
  8
SLD-0
  6
Continuous
 62
     7
370
    35
100
AcDbLine
 10
21.0
 20
9.5
 30
0.0
 11
408.5
 21
9.5
 31
0.0
  0
LINE
  5
100
330
1B
100
AcDbEntity
 67
     1
  8
SLD-0
  6
Continuous
 62
     7
370
    35
100
AcDbLine
 10
21.0
 20
286.5
 30
0.0
 11
21.0
 21
9.5
 31
0.0
  0
LINE
  5
101
330
1B
100
AcDbEntity
 67
     1
  8
SLD-0
  6
Continuous
 62
     7
370
    35
100
AcDbLine
 10
21.0
 20
31.5
 30
0.0
 11
138.0
 21
31.5
 31
0.0
  0
LINE
  5
102
330
1B
100
AcDbEntity
 67
     1
  8
SLD-0
  6
Continuous
 62
     7
370
    35
100
AcDbLine
 10
408.5
 20
286.5
 30
0.0
 11
408.5
 21
9.5
 31
0.0
  0
LINE
  5
103
330
1B
100
AcDbEntity
 67
     1
  8
SLD-0
  6
Continuous
 62
     7
370
    35
100
AcDbLine
 10
138.0
 20
31.5
 30
0.0
 11
408.5
 21
31.5
 31
0.0
  0
LINE
  5
104
330
1B
100
AcDbEntity
 67
     1
  8
SLD-0
  6
Continuous
 62
     7
370
    35
100
AcDbLine
 10
21.0
 20
286.5
 30
0.0
 11
408.5
 21
286.5
 31
0.0
  0
LINE
  5
105
330
1B
100
AcDbEntity
 67
     1
  8
SLD-0
  6
Continuous
 62
     7
100
AcDbLine
 10
26.5
 20
20.5
 30
0.0
 11
138.0
 21
20.5
 31
0.0
  0
LINE
  5
106
330
1B
100
AcDbEntity
 67
     1
  8
SLD-0
  6
Continuous
 62
     7
100
AcDbLine
 10
49.5
 20
31.5
 30
0.0
 11
49.5
 21
9.5
 31
0.0
  0
LINE
  5
107
330
1B
100
AcDbEntity
 67
     1
  8
SLD-0
  6
Continuous
 62
     7
100
AcDbLine
 10
26.5
 20
26.0
 30
0.0
 11
138.0
 21
26.0
 31
0.0
  0
LINE
  5
108
330
1B
100
AcDbEntity
 67
     1
  8
SLD-0
  6
Continuous
 62
     7
100
AcDbLine
 10
34.5
 20
31.5
 30
0.0
 11
34.5
 21
9.5
 31
0.0
  0
LINE
  5
109
330
1B
100
AcDbEntity
 67
     1
  8
SLD-0
  6
Continuous
 62
     7
100
AcDbLine
 10
26.5
 20
31.5
 30
0.0
 11
26.5
 21
9.5
 31
0.0
  0
LINE
  5
10A
330
1B
100
AcDbEntity
 67
     1
  8
SLD-0
  6
Continuous
 62
     7
100
AcDbLine
 10
26.5
 20
15.0
 30
0.0
 11
138.0
 21
15.0
 31
0.0
  0
LINE
  5
10B
330
1B
100
AcDbEntity
 67
     1
  8
SLD-0
  6
Continuous
 62
     7
100
AcDbLine
 10
203.0
 20
31.5
 30
0.0
 11
203.0
 21
9.5
 31
0.0
  0
LINE
  5
10C
330
1B
100
AcDbEntity
 67
     1
  8
SLD-0
  6
Continuous
 62
     7
100
AcDbLine
 10
198.0
 20
31.5
 30
0.0
 11
198.0
 21
9.5
 31
0.0
  0
LINE
  5
10D
330
1B
100
AcDbEntity
 67
     1
  8
SLD-0
  6
Continuous
 62
     7
100
AcDbLine
 10
143.0
 20
31.5
 30
0.0
 11
143.0
 21
9.5
 31
0.0
  0
LINE
  5
10E
330
1B
100
AcDbEntity
 67
     1
  8
SLD-0
  6
Continuous
 62
     7
100
AcDbLine
 10
138.0
 20
31.5
 30
0.0
 11
138.0
 21
20.5
 31
0.0
  0
LINE
  5
10F
330
1B
100
AcDbEntity
 67
     1
  8
SLD-0
  6
Continuous
 62
     7
100
AcDbLine
 10
59.5
 20
31.5
 30
0.0
 11
59.5
 21
9.5
 31
0.0
  0
LINE
  5
110
330
1B
100
AcDbEntity
 67
     1
  8
SLD-0
  6
Continuous
 62
     7
100
AcDbLine
 10
231.0
 20
31.5
 30
0.0
 11
231.0
 21
20.5
 31
0.0
  0
LINE
  5
111
330
1B
100
AcDbEntity
 67
     1
  8
SLD-0
  6
Continuous
 62
     7
100
AcDbLine
 10
236.0
 20
31.5
 30
0.0
 11
236.0
 21
20.5
 31
0.0
  0
LINE
  5
112
330
1B
100
AcDbEntity
 67
     1
  8
SLD-0
  6
Continuous
 62
     7
100
AcDbLine
 10
251.0
 20
31.5
 30
0.0
 11
251.0
 21
20.5
 31
0.0
  0
LINE
  5
113
330
1B
100
AcDbEntity
 67
     1
  8
SLD-0
  6
Continuous
 62
     7
100
AcDbLine
 10
256.0
 20
31.5
 30
0.0
 11
256.0
 21
20.5
 31
0.0
  0
LINE
  5
114
330
1B
100
AcDbEntity
 67
     1
  8
SLD-0
  6
Continuous
 62
     7
100
AcDbLine
 10
296.0
 20
31.5
 30
0.0
 11
296.0
 21
20.5
 31
0.0
  0
LINE
  5
115
330
1B
100
AcDbEntity
 67
     1
  8
SLD-0
  6
Continuous
 62
     7
100
AcDbLine
 10
311.0
 20
31.5
 30
0.0
 11
311.0
 21
9.5
 31
0.0
  0
LINE
  5
116
330
1B
100
AcDbEntity
 67
     1
  8
SLD-0
  6
Continuous
 62
     7
100
AcDbLine
 10
326.0
 20
31.5
 30
0.0
 11
326.0
 21
9.5
 31
0.0
  0
LINE
  5
117
330
1B
100
AcDbEntity
 67
     1
  8
SLD-0
  6
Continuous
 62
     7
100
AcDbLine
 10
341.0
 20
31.5
 30
0.0
 11
341.0
 21
9.5
 31
0.0
  0
LINE
  5
118
330
1B
100
AcDbEntity
 67
     1
  8
SLD-0
  6
Continuous
 62
     7
100
AcDbLine
 10
356.0
 20
31.5
 30
0.0
 11
356.0
 21
9.5
 31
0.0
  0
LINE
  5
119
330
1B
100
AcDbEntity
 67
     1
  8
SLD-0
  6
Continuous
 62
     7
100
AcDbLine
 10
356.0
 20
20.5
 30
0.0
 11
408.5
 21
20.5
 31
0.0
  0
LINE
  5
11A
330
1B
100
AcDbEntity
 67
     1
  8
SLD-0
  6
Continuous
 62
     7
100
AcDbLine
 10
361.0
 20
20.5
 30
0.0
 11
361.0
 21
9.5
 31
0.0
  0
LINE
  5
11B
330
1B
100
AcDbEntity
 67
     1
  8
SLD-0
  6
Continuous
 62
     7
100
AcDbLine
 10
311.0
 20
26.5
 30
0.0
 11
356.0
 21
26.5
 31
0.0
  0
LINE
  5
11C
330
1B
100
AcDbEntity
 67
     1
  8
SLD-0
  6
Continuous
 62
     7
100
AcDbLine
 10
138.0
 20
20.5
 30
0.0
 11
311.0
 21
20.5
 31
0.0
  0
LINE
  5
11D
330
1B
100
AcDbEntity
 67
     1
  8
SLD-0
  6
Continuous
 62
     7
100
AcDbLine
 10
138.0
 20
20.5
 30
0.0
 11
138.0
 21
9.5
 31
0.0
  0
LINE
  5
11E
330
1B
100
AcDbEntity
 67
     1
  8
SLD-0
  6
Continuous
 62
     7
100
AcDbLine
 10
360.3667723576
 20
25.922570647
 30
0.0
 11
361.6123606662
 21
25.922570647
 31
0.0
  0
LINE
  5
11F
330
1B
100
AcDbEntity
 67
     1
  8
SLD-0
  6
Continuous
 62
     7
100
AcDbLine
 10
358.5550076286
 20
24.790217675
 30
0.0
 11
363.1976547877
 21
24.790217675
 31
0.0
  0
LINE
  5
120
330
1B
100
AcDbEntity
 67
     1
  8
SLD-0
  6
Continuous
 62
     7
100
AcDbLine
 10
358.5550076286
 20
30.9049236191
 30
0.0
 11
358.5550076286
 21
24.790217675
 31
0.0
  0
LINE
  5
121
330
1B
100
AcDbEntity
 67
     1
  8
SLD-0
  6
Continuous
 62
     7
100
AcDbLine
 10
360.3667723576
 20
30.9049236191
 30
0.0
 11
360.3667723576
 21
25.922570647
 31
0.0
  0
LINE
  5
122
330
1B
100
AcDbEntity
 67
     1
  8
SLD-0
  6
Continuous
 62
     7
100
AcDbLine
 10
361.6123606662
 20
30.9049236191
 30
0.0
 11
361.6123606662
 21
25.922570647
 31
0.0
  0
LINE
  5
123
330
1B
100
AcDbEntity
 67
     1
  8
SLD-0
  6
Continuous
 62
     7
100
AcDbLine
 10
363.1976547877
 20
30.9049236191
 30
0.0
 11
363.1976547877
 21
26.8284528149
 31
0.0
  0
LINE
  5
124
330
1B
100
AcDbEntity
 67
     1
  8
SLD-0
  6
Continuous
 62
     7
100
AcDbLine
 10
364.4432428996
 20
30.9049236191
 30
0.0
 11
364.4432428996
 21
26.8284528149
 31
0.0
  0
LINE
  5
125
330
1B
100
AcDbEntity
 67
     1
  8
SLD-0
  6
Continuous
 62
     7
100
AcDbLine
 10
366.2550076286
 20
30.9049236191
 30
0.0
 11
366.2550076286
 21
25.922570647
 31
0.0
  0
LINE
  5
126
330
1B
100
AcDbEntity
 67
     1
  8
SLD-0
  6
Continuous
 62
     7
100
AcDbLine
 10
361.6123606662
 20
30.9049236191
 30
0.0
 11
363.1976547877
 21
30.9049236191
 31
0.0
  0
LINE
  5
127
330
1B
100
AcDbEntity
 67
     1
  8
SLD-0
  6
Continuous
 62
     7
100
AcDbLine
 10
364.4432428996
 20
30.9049236191
 30
0.0
 11
366.2550076286
 21
30.9049236191
 31
0.0
  0
LINE
  5
128
330
1B
100
AcDbEntity
 67
     1
  8
SLD-0
  6
Continuous
 62
     7
100
AcDbLine
 10
363.1976547877
 20
26.8284528149
 30
0.0
 11
364.4432428996
 21
26.8284528149
 31
0.0
  0
LINE
  5
129
330
1B
100
AcDbEntity
 67
     1
  8
SLD-0
  6
Continuous
 62
     7
100
AcDbLine
 10
363.1976547877
 20
25.922570647
 30
0.0
 11
366.2550076286
 21
25.922570647
 31
0.0
  0
LINE
  5
12A
330
1B
100
AcDbEntity
 67
     1
  8
SLD-0
  6
Continuous
 62
     7
100
AcDbLine
 10
363.1976547877
 20
25.922570647
 30
0.0
 11
363.1976547877
 21
24.790217675
 31
0.0
  0
LINE
  5
12B
330
1B
100
AcDbEntity
 67
     1
  8
SLD-0
  6
Continuous
 62
     7
100
AcDbLine
 10
123.0
 20
31.5
 30
0.0
 11
123.0
 21
9.5
 31
0.0
  0
LINE
  5
12C
330
1B
100
AcDbEntity
 67
     1
  8
SLD-0
  6
PHANTOM
 62
     7
100
AcDbLine
 10
237.7224750929
 20
9.5
 30
0.0
 11
291.0
 21
9.5
 31
0.0
  0
LINE
  5
12D
330
1B
100
AcDbEntity
 67
     1
  8
SLD-0
  6
Continuous
 62
     7
100
AcDbLine
 10
342.2259200069
 20
95.93791636
 30
0.0
 11
342.3657960444
 21
95.9609488111
 31
0.0
  0
LINE
  5
12E
330
1B
100
AcDbEntity
 67
     1
  8
SLD-0
  6
Continuous
 62
     7
100
AcDbLine
 10
342.3657960444
 20
95.9609488111
 30
0.0
 11
342.5061172406
 21
95.981163848
 31
0.0
  0
LINE
  5
12F
330
1B
100
AcDbEntity
 67
     1
  8
SLD-0
  6
Continuous
 62
     7
100
AcDbLine
 10
342.5061172406
 20
95.981163848
 30
0.0
 11
342.6468376079
 21
95.9987525929
 31
0.0
  0
LINE
  5
130
330
1B
100
AcDbEntity
 67
     1
  8
SLD-0
  6
Continuous
 62
     7
100
AcDbLine
 10
342.6468376079
 20
95.9987525929
 30
0.0
 11
342.7878331888
 21
96.0137181701
 31
0.0
  0
LINE
  5
131
330
1B
100
AcDbEntity
 67
     1
  8
SLD-0
  6
Continuous
 62
     7
100
AcDbLine
 10
342.7878331888
 20
96.0137181701
 30
0.0
 11
342.928876973
 21
96.0259988621
 31
0.0
  0
LINE
  5
132
330
1B
100
AcDbEntity
 67
     1
  8
SLD-0
  6
Continuous
 62
     7
100
AcDbLine
 10
342.928876973
 20
96.0259988621
 30
0.0
 11
343.070112727
 21
96.0354932983
 31
0.0
  0
LINE
  5
133
330
1B
100
AcDbEntity
 67
     1
  8
SLD-0
  6
Continuous
 62
     7
100
AcDbLine
 10
343.070112727
 20
96.0354932983
 30
0.0
 11
343.2117803917
 21
96.0420901886
 31
0.0
  0
LINE
  5
134
330
1B
100
AcDbEntity
 67
     1
  8
SLD-0
  6
Continuous
 62
     7
100
AcDbLine
 10
343.2117803917
 20
96.0420901886
 30
0.0
 11
343.35435505
 21
96.0457780407
 31
0.0
  0
LINE
  5
135
330
1B
100
AcDbEntity
 67
     1
  8
SLD-0
  6
Continuous
 62
     7
100
AcDbLine
 10
343.35435505
 20
96.0457780407
 30
0.0
 11
343.4969437237
 21
96.0467166228
 31
0.0
  0
LINE
  5
136
330
1B
100
AcDbEntity
 67
     1
  8
SLD-0
  6
Continuous
 62
     7
100
AcDbLine
 10
343.4969437237
 20
96.0467166228
 30
0.0
 11
343.6384561036
 21
96.045094443
 31
0.0
  0
LINE
  5
137
330
1B
100
AcDbEntity
 67
     1
  8
SLD-0
  6
Continuous
 62
     7
100
AcDbLine
 10
343.6384561036
 20
96.045094443
 30
0.0
 11
343.7800699187
 21
96.0408040964
 31
0.0
  0
LINE
  5
138
330
1B
100
AcDbEntity
 67
     1
  8
SLD-0
  6
Continuous
 62
     7
100
AcDbLine
 10
343.7800699187
 20
96.0408040964
 30
0.0
 11
343.9215771232
 21
96.0333372763
 31
0.0
  0
LINE
  5
139
330
1B
100
AcDbEntity
 67
     1
  8
SLD-0
  6
Continuous
 62
     7
100
AcDbLine
 10
343.9215771232
 20
96.0333372763
 30
0.0
 11
344.0625191394
 21
96.02254612
 31
0.0
  0
LINE
  5
13A
330
1B
100
AcDbEntity
 67
     1
  8
SLD-0
  6
Continuous
 62
     7
100
AcDbLine
 10
344.0625191394
 20
96.02254612
 30
0.0
 11
344.2037649207
 21
96.0089807248
 31
0.0
  0
LINE
  5
13B
330
1B
100
AcDbEntity
 67
     1
  8
SLD-0
  6
Continuous
 62
     7
100
AcDbLine
 10
344.2037649207
 20
96.0089807248
 30
0.0
 11
344.3450139315
 21
95.9937203897
 31
0.0
  0
LINE
  5
13C
330
1B
100
AcDbEntity
 67
     1
  8
SLD-0
  6
Continuous
 62
     7
100
AcDbLine
 10
344.3450139315
 20
95.9937203897
 30
0.0
 11
344.4839729866
 21
95.9766393221
 31
0.0
  0
LINE
  5
13D
330
1B
100
AcDbEntity
 67
     1
  8
SLD-0
  6
Continuous
 62
     7
100
AcDbLine
 10
344.4839729866
 20
95.9766393221
 30
0.0
 11
344.6230906316
 21
95.9550592483
 31
0.0
  0
LINE
  5
13E
330
1B
100
AcDbEntity
 67
     1
  8
SLD-0
  6
Continuous
 62
     7
100
AcDbLine
 10
344.6230906316
 20
95.9550592483
 30
0.0
 11
344.7109524681
 21
95.9403895046
 31
0.0
  0
LINE
  5
13F
330
1B
100
AcDbEntity
 67
     1
  8
SLD-0
  6
Continuous
 62
     7
100
AcDbLine
 10
92.0578808482
 20
203.0151948872
 30
0.0
 11
92.054317025
 21
203.0230525697
 31
0.0
  0
LINE
  5
140
330
1B
100
AcDbEntity
 67
     1
  8
SLD-0
  6
Continuous
 62
     7
100
AcDbLine
 10
92.054317025
 20
203.0230525697
 30
0.0
 11
92.0517707891
 21
203.0286703075
 31
0.0
  0
LINE
  5
141
330
1B
100
AcDbEntity
 67
     1
  8
SLD-0
  6
Continuous
 62
     7
100
AcDbLine
 10
92.0517707891
 20
203.0286703075
 30
0.0
 11
92.05024342
 21
203.0320379699
 31
0.0
  0
LINE
  5
142
330
1B
100
AcDbEntity
 67
     1
  8
SLD-0
  6
Continuous
 62
     7
100
AcDbLine
 10
96.1603448421
 20
203.0331627424
 30
0.0
 11
96.158308763
 21
203.0286704518
 31
0.0
  0
LINE
  5
143
330
1B
100
AcDbEntity
 67
     1
  8
SLD-0
  6
Continuous
 62
     7
100
AcDbLine
 10
96.158308763
 20
203.0286704518
 30
0.0
 11
96.1557606644
 21
203.023052714
 31
0.0
  0
LINE
  5
144
330
1B
100
AcDbEntity
 67
     1
  8
SLD-0
  6
Continuous
 62
     7
100
AcDbLine
 10
96.1557606644
 20
203.023052714
 30
0.0
 11
96.1521975268
 21
203.0151950314
 31
0.0
  0
LINE
  5
145
330
1B
100
AcDbEntity
 67
     1
  8
SLD-0
  6
Continuous
 62
     7
100
AcDbLine
 10
97.3564259523
 20
202.6524659264
 30
0.0
 11
97.03851258
 21
202.5576335247
 31
0.0
  0
LINE
  5
146
330
1B
100
AcDbEntity
 67
     1
  8
SLD-0
  6
Continuous
 62
     7
100
AcDbLine
 10
96.7186522946
 20
202.4721674412
 30
0.0
 11
96.3973244591
 21
202.3943075015
 31
0.0
  0
LINE
  5
147
330
1B
100
AcDbEntity
 67
     1
  8
SLD-0
  6
Continuous
 62
     7
100
AcDbLine
 10
96.3973244591
 20
202.3943075015
 30
0.0
 11
96.0749912482
 21
202.3220423262
 31
0.0
  0
LINE
  5
148
330
1B
100
AcDbEntity
 67
     1
  8
SLD-0
  6
Continuous
 62
     7
100
AcDbLine
 10
92.4578347761
 20
202.2592851234
 30
0.0
 11
92.132406132
 21
202.3225655633
 31
0.0
  0
LINE
  5
149
330
1B
100
AcDbEntity
 67
     1
  8
SLD-0
  6
Continuous
 62
     7
100
AcDbLine
 10
92.132406132
 20
202.3225655633
 30
0.0
 11
91.8085344843
 21
202.3910968772
 31
0.0
  0
LINE
  5
14A
330
1B
100
AcDbEntity
 67
     1
  8
SLD-0
  6
Continuous
 62
     7
100
AcDbLine
 10
91.4877673527
 20
202.4684112303
 30
0.0
 11
91.1696991449
 21
202.55849644
 31
0.0
  0
LINE
  5
14B
330
1B
100
AcDbEntity
 67
     1
  8
SLD-0
  6
Continuous
 62
     7
100
AcDbLine
 10
91.1696991449
 20
202.55849644
 30
0.0
 11
90.852911595
 21
202.6525649975
 31
0.0
  0
LINE
  5
14C
330
1B
100
AcDbEntity
 67
     1
  8
SLD-0
  6
Continuous
 62
     7
100
AcDbLine
 10
243.3564194945
 20
202.6524659042
 30
0.0
 11
243.0365756585
 21
202.5570749408
 31
0.0
  0
LINE
  5
14D
330
1B
100
AcDbEntity
 67
     1
  8
SLD-0
  6
Continuous
 62
     7
100
AcDbLine
 10
242.7148017245
 20
202.4712082827
 30
0.0
 11
242.3915128029
 21
202.3929422285
 31
0.0
  0
LINE
  5
14E
330
1B
100
AcDbEntity
 67
     1
  8
SLD-0
  6
Continuous
 62
     7
100
AcDbLine
 10
242.3915128029
 20
202.3929422285
 30
0.0
 11
242.0671788104
 21
202.3203908617
 31
0.0
  0
LINE
  5
14F
330
1B
100
AcDbEntity
 67
     1
  8
SLD-0
  6
Continuous
 62
     7
100
AcDbLine
 10
238.429217571
 20
202.2645613526
 30
0.0
 11
238.1018928768
 21
202.3288107502
 31
0.0
  0
LINE
  5
150
330
1B
100
AcDbEntity
 67
     1
  8
SLD-0
  6
Continuous
 62
     7
100
AcDbLine
 10
238.1018928768
 20
202.3288107502
 30
0.0
 11
237.7765227526
 21
202.3980971192
 31
0.0
  0
LINE
  5
151
330
1B
100
AcDbEntity
 67
     1
  8
SLD-0
  6
Continuous
 62
     7
100
AcDbLine
 10
237.4540491452
 20
202.4775691083
 30
0.0
 11
237.1344855295
 21
202.5688152698
 31
0.0
  0
LINE
  5
152
330
1B
100
AcDbEntity
 67
     1
  8
SLD-0
  6
Continuous
 62
     7
100
AcDbLine
 10
237.1344855295
 20
202.5688152698
 30
0.0
 11
236.8889840729
 21
202.642052374
 31
0.0
  0
ARC
  5
153
330
1B
100
AcDbEntity
 67
     1
  8
SLD-0
  6
Continuous
 62
     7
100
AcDbCircle
 10
272.1050324328
 20
103.4379161924
 30
0.0
 40
7.499999832349999
100
AcDbArc
 50
270.0
 51
90.0
  0
ARC
  5
154
330
1B
100
AcDbEntity
 67
     1
  8
SLD-0
  6
Continuous
 62
     7
100
AcDbCircle
 10
62.1050389893
 20
103.4379161924
 30
0.0
 40
7.499999832349999
100
AcDbArc
 50
90.0
 51
270.0
  0
ARC
  5
155
330
1B
100
AcDbEntity
 67
     1
  8
SLD-0
  6
Continuous
 62
     7
100
AcDbCircle
 10
62.1050389893
 20
103.4379161924
 30
0.0
 40
7.750000000000018
100
AcDbArc
 50
180.0
 51
284.592550602
  0
ARC
  5
156
330
1B
100
AcDbEntity
 67
     1
  8
SLD-0
  6
Continuous
 62
     7
100
AcDbCircle
 10
62.1050389893
 20
103.4379161924
 30
0.0
 40
7.750000000000012
100
AcDbArc
 50
75.407449398
 51
180.0
  0
ARC
  5
157
330
1B
100
AcDbEntity
 67
     1
  8
SLD-0
  6
Continuous
 62
     7
100
AcDbCircle
 10
62.1050389893
 20
103.4379161924
 30
0.0
 40
25.00000000000001
100
AcDbArc
 50
17.4576031237
 51
180.0
  0
ARC
  5
158
330
1B
100
AcDbEntity
 67
     1
  8
SLD-0
  6
Continuous
 62
     7
100
AcDbCircle
 10
62.1050389893
 20
103.4379161924
 30
0.0
 40
25.00000000000001
100
AcDbArc
 50
180.0
 51
342.5423968763
  0
ARC
  5
159
330
1B
100
AcDbEntity
 67
     1
  8
SLD-0
  6
Continuous
 62
     7
100
AcDbCircle
 10
272.1050324328
 20
103.4379161924
 30
0.0
 40
25.0
100
AcDbArc
 50
197.4576031237
 51
0.0
  0
ARC
  5
15A
330
1B
100
AcDbEntity
 67
     1
  8
SLD-0
  6
Continuous
 62
     7
100
AcDbCircle
 10
272.1050324328
 20
103.4379161924
 30
0.0
 40
25.0
100
AcDbArc
 50
0.0
 51
162.5423968763
  0
ARC
  5
15B
330
1B
100
AcDbEntity
 67
     1
  8
SLD-0
  6
Continuous
 62
     7
100
AcDbCircle
 10
272.1050324328
 20
103.4379161924
 30
0.0
 40
7.750000000000114
100
AcDbArc
 50
0.0
 51
104.592550602
  0
ARC
  5
15C
330
1B
100
AcDbEntity
 67
     1
  8
SLD-0
  6
Continuous
 62
     7
100
AcDbCircle
 10
272.1050324328
 20
103.4379161924
 30
0.0
 40
7.750000000000114
100
AcDbArc
 50
255.407449398
 51
0.0
  0
ARC
  5
15D
330
1B
100
AcDbEntity
 67
     1
  8
SLD-0
  6
HIDDEN
 62
     7
100
AcDbCircle
 10
318.475919843
 20
103.4379161924
 30
0.0
 40
7.49999983235013
100
AcDbArc
 50
269.9999892987
 51
90.0000107013
  0
ARC
  5
15E
330
1B
100
AcDbEntity
 67
     1
  8
SLD-0
  6
Continuous
 62
     7
100
AcDbCircle
 10
366.4759199213
 20
79.4379161924
 30
0.0
 40
1.000000294350024
100
AcDbArc
 50
180.0000119519
 51
269.9999970092
  0
ARC
  5
15F
330
1B
100
AcDbEntity
 67
     1
  8
SLD-0
  6
Continuous
 62
     7
100
AcDbCircle
 10
366.4759199212
 20
127.4379161924
 30
0.0
 40
1.00000029430001
100
AcDbArc
 50
90.0000029908
 51
179.9999880481
  0
ARC
  5
160
330
1B
100
AcDbEntity
 67
     1
  8
SLD-0
  6
Continuous
 62
     7
100
AcDbCircle
 10
318.475919843
 20
103.4379161924
 30
0.0
 40
7.49999983235013
100
AcDbArc
 50
90.0000107013
 51
269.9999892987
  0
ARC
  5
161
330
1B
100
AcDbEntity
 67
     1
  8
SLD-0
  6
CENTER
 62
     7
100
AcDbCircle
 10
251.6050389893
 20
215.652264244
 30
0.0
 40
20.50000021414976
100
AcDbArc
 50
270.0
 51
0.0
  0
ARC
  5
162
330
1B
100
AcDbEntity
 67
     1
  8
SLD-0
  6
CENTER
 62
     7
100
AcDbCircle
 10
82.6050389893
 20
215.6522640299
 30
0.0
 40
20.50000000000003
100
AcDbArc
 50
180.0
 51
270.0
  0
ARC
  5
163
330
1B
100
AcDbEntity
 67
     1
  8
SLD-0
  6
Continuous
 62
     7
100
AcDbCircle
 10
240.1050382101
 20
196.57369149
 30
0.0
 40
6.778572829637373
100
AcDbArc
 50
107.6502856946
 51
116.2680595144
  0
ARC
  5
164
330
1B
100
AcDbEntity
 67
     1
  8
SLD-0
  6
Continuous
 62
     7
100
AcDbCircle
 10
240.1050382101
 20
196.57369149
 30
0.0
 40
6.77856966795293
100
AcDbArc
 50
63.7319946337
 51
72.3497143054
  0
ARC
  5
165
330
1B
100
AcDbEntity
 67
     1
  8
SLD-0
  6
Continuous
 62
     7
100
AcDbCircle
 10
94.1050391645
 20
196.5736936202
 30
0.0
 40
6.778571018493702
100
AcDbArc
 50
107.6502856946
 51
116.2680527532
  0
ARC
  5
166
330
1B
100
AcDbEntity
 67
     1
  8
SLD-0
  6
Continuous
 62
     7
100
AcDbCircle
 10
94.1050391645
 20
196.5736936202
 30
0.0
 40
6.778570849970268
100
AcDbArc
 50
63.7319501329
 51
72.3497143037
  0
ARC
  5
167
330
1B
100
AcDbEntity
 67
     1
  8
SLD-0
  6
Continuous
 62
     7
100
AcDbCircle
 10
251.6050389893
 20
215.652264244
 30
0.0
 40
13.00000084935044
100
AcDbArc
 50
270.0000178635
 51
359.9999963221
  0
ARC
  5
168
330
1B
100
AcDbEntity
 67
     1
  8
SLD-0
  6
Continuous
 62
     7
100
AcDbCircle
 10
251.6050389893
 20
215.652264244
 30
0.0
 40
28.00000144535003
100
AcDbArc
 50
270.0000082938
 51
359.9999982924
  0
ARC
  5
169
330
1B
100
AcDbEntity
 67
     1
  8
SLD-0
  6
Continuous
 62
     7
100
AcDbCircle
 10
82.6050389893
 20
215.6522640299
 30
0.0
 40
13.00000063520004
100
AcDbArc
 50
180.0000036779
 51
270.0000024955
  0
ARC
  5
16A
330
1B
100
AcDbEntity
 67
     1
  8
SLD-0
  6
Continuous
 62
     7
100
AcDbCircle
 10
82.6050389893
 20
215.6522640299
 30
0.0
 40
28.00000123120001
100
AcDbArc
 50
180.0000017076
 51
270.0000011586
  0
ARC
  5
16B
330
1B
100
AcDbEntity
 67
     1
  8
SLD-0
  6
Continuous
 62
     7
100
AcDbCircle
 10
86.1050389111
 20
243.1522644974
 30
0.0
 40
1.00000029430003
100
AcDbArc
 50
270.0000119519
 51
359.9999970149
  0
ARC
  5
16C
330
1B
100
AcDbEntity
 67
     1
  8
SLD-0
  6
Continuous
 62
     7
100
AcDbCircle
 10
38.1050389111
 20
243.1522644974
 30
0.0
 40
1.00000029430003
100
AcDbArc
 50
180.0000029851
 51
269.9999880481
  0
ARC
  5
16D
330
1B
100
AcDbEntity
 67
     1
  8
SLD-0
  6
Continuous
 62
     7
100
AcDbCircle
 10
296.1050402894
 20
243.1522653915
 30
0.0
 40
0.9999998100017264
100
AcDbArc
 50
269.9998497361
 51
359.9999970149
  0
ARC
  5
16E
330
1B
100
AcDbEntity
 67
     1
  8
SLD-0
  6
Continuous
 62
     7
100
AcDbCircle
 10
248.1050402895
 20
243.1522644974
 30
0.0
 40
0.9999989159548774
100
AcDbArc
 50
180.0000029851
 51
270.0002527144
  0
ARC
  5
16F
330
1B
100
AcDbEntity
 67
     1
  8
SLD-0
  6
Continuous
 62
     7
100
AcDbCircle
 10
245.314017916
 20
206.3144227398
 30
0.0
 40
7.970979840648468
100
AcDbArc
 50
204.3085778418
 51
204.4503917594
  0
ARC
  5
170
330
1B
100
AcDbEntity
 67
     1
  8
SLD-0
  6
Continuous
 62
     7
100
AcDbCircle
 10
240.1050382101
 20
196.57369149
 30
0.0
 40
6.758980012806285
100
AcDbArc
 50
95.7167075916
 51
107.6306886237
  0
ARC
  5
171
330
1B
100
AcDbEntity
 67
     1
  8
SLD-0
  6
Continuous
 62
     7
100
AcDbCircle
 10
240.1050411101
 20
195.6438821216
 30
0.0
 40
7.389282747480707
100
AcDbArc
 50
86.003507687
 51
93.996492313
  0
ARC
  5
172
330
1B
100
AcDbEntity
 67
     1
  8
SLD-0
  6
Continuous
 62
     7
100
AcDbCircle
 10
240.1050382101
 20
196.57369149
 30
0.0
 40
6.758979128105246
100
AcDbArc
 50
72.3693457852
 51
84.2832401218
  0
ARC
  5
173
330
1B
100
AcDbEntity
 67
     1
  8
SLD-0
  6
Continuous
 62
     7
100
AcDbCircle
 10
250.4050220195
 20
199.2837708898
 30
0.0
 40
9.057187105000045
100
AcDbArc
 50
155.5456360712
 51
155.6704312855
  0
ARC
  5
174
330
1B
100
AcDbEntity
 67
     1
  8
SLD-0
  6
Continuous
 62
     7
100
AcDbCircle
 10
94.1050391645
 20
196.5736936202
 30
0.0
 40
6.758978898039913
100
AcDbArc
 50
95.7167209152
 51
107.6306542148
  0
ARC
  5
175
330
1B
100
AcDbEntity
 67
     1
  8
SLD-0
  6
Continuous
 62
     7
100
AcDbCircle
 10
94.1050387491
 20
195.6438414761
 30
0.0
 40
7.389324286359809
100
AcDbArc
 50
86.0035157121
 51
93.9964842887
  0
ARC
  5
176
330
1B
100
AcDbEntity
 67
     1
  8
SLD-0
  6
Continuous
 62
     7
100
AcDbCircle
 10
94.1050391645
 20
196.5736936202
 30
0.0
 40
6.758979049437703
100
AcDbArc
 50
72.3693457852
 51
84.2832534446
  0
ARC
  5
177
330
1B
100
AcDbEntity
 67
     1
  8
SLD-0
  6
Continuous
 62
     7
100
AcDbCircle
 10
95.0102651278
 20
209.5071538287
 30
0.0
 40
7.239448886673266
100
AcDbArc
 50
283.6495767787
 51
286.2701124811
  0
ARC
  5
178
330
1B
100
AcDbEntity
 67
     1
  8
SLD-0
  6
Continuous
 62
     7
100
AcDbCircle
 10
93.9889387845
 20
212.1589401555
 30
0.0
 40
10.05565382180897
100
AcDbArc
 50
280.0870363752
 51
281.9729986746
  0
ARC
  5
179
330
1B
100
AcDbEntity
 67
     1
  8
SLD-0
  6
Continuous
 62
     7
100
AcDbCircle
 10
94.1694935834
 20
211.1561210464
 30
0.0
 40
9.036712621197108
100
AcDbArc
 50
277.9736627783
 51
280.0735554716
  0
ARC
  5
17A
330
1B
100
AcDbEntity
 67
     1
  8
SLD-0
  6
Continuous
 62
     7
100
AcDbCircle
 10
94.1413085717
 20
211.3786920199
 30
0.0
 40
9.261042003681622
100
AcDbArc
 50
275.911973187
 51
277.9553372555
  0
ARC
  5
17B
330
1B
100
AcDbEntity
 67
     1
  8
SLD-0
  6
Continuous
 62
     7
100
AcDbCircle
 10
94.0467286597
 20
212.2773531809
 30
0.0
 40
10.16466535029904
100
AcDbArc
 50
274.0570094488
 51
275.9205095692
  0
ARC
  5
17C
330
1B
100
AcDbEntity
 67
     1
  8
SLD-0
  6
Continuous
 62
     7
100
AcDbCircle
 10
94.0214448391
 20
212.6183414627
 30
0.0
 40
10.50658802876709
100
AcDbArc
 50
272.2517216118
 51
274.0629856167
  0
ARC
  5
17D
330
1B
100
AcDbEntity
 67
     1
  8
SLD-0
  6
Continuous
 62
     7
100
AcDbCircle
 10
94.0277260538
 20
212.4318111773
 30
0.0
 40
10.31995503728269
100
AcDbArc
 50
270.4130987915
 51
272.2575643657
  0
ARC
  5
17E
330
1B
100
AcDbEntity
 67
     1
  8
SLD-0
  6
Continuous
 62
     7
100
AcDbCircle
 10
94.0314197916
 20
211.5920911638
 30
0.0
 40
9.480230511815785
100
AcDbArc
 50
268.430611467
 51
270.4273657689
  0
ARC
  5
17F
330
1B
100
AcDbEntity
 67
     1
  8
SLD-0
  6
Continuous
 62
     7
100
AcDbCircle
 10
93.9966486047
 20
210.2775608336
 30
0.0
 40
8.165241071354137
100
AcDbArc
 50
266.1020600465
 51
268.4218847283
  0
ARC
  5
180
330
1B
100
AcDbEntity
 67
     1
  8
SLD-0
  6
Continuous
 62
     7
100
AcDbCircle
 10
93.9728225897
 20
209.8978820972
 30
0.0
 40
7.784821225208553
100
AcDbArc
 50
263.6534299296
 51
266.0870498919
  0
ARC
  5
181
330
1B
100
AcDbEntity
 67
     1
  8
SLD-0
  6
Continuous
 62
     7
100
AcDbCircle
 10
94.0153555439
 20
210.2644520843
 30
0.0
 40
8.153846537310152
100
AcDbArc
 50
261.3144659154
 51
263.6411270036
  0
ARC
  5
182
330
1B
100
AcDbEntity
 67
     1
  8
SLD-0
  6
Continuous
 62
     7
100
AcDbCircle
 10
94.4613774249
 20
213.1131876712
 30
0.0
 40
11.03727247385045
100
AcDbArc
 50
259.5413913404
 51
261.2588388173
  0
ARC
  5
183
330
1B
100
AcDbEntity
 67
     1
  8
SLD-0
  6
Continuous
 62
     7
100
AcDbCircle
 10
93.0565017012
 20
208.2728171184
 30
0.0
 40
6.012657912292296
100
AcDbArc
 50
254.8762134678
 51
258.02079519
  0
ARC
  5
184
330
1B
100
AcDbEntity
 67
     1
  8
SLD-0
  6
Continuous
 62
     7
100
AcDbCircle
 10
240.9980185093
 20
209.5504620467
 30
0.0
 40
7.284447711597674
100
AcDbArc
 50
283.6315850124
 51
286.251288963
  0
ARC
  5
185
330
1B
100
AcDbEntity
 67
     1
  8
SLD-0
  6
Continuous
 62
     7
100
AcDbCircle
 10
239.9974011118
 20
212.1156485242
 30
0.0
 40
10.01154595435939
100
AcDbArc
 50
280.0256727421
 51
281.9313215213
  0
ARC
  5
186
330
1B
100
AcDbEntity
 67
     1
  8
SLD-0
  6
Continuous
 62
     7
100
AcDbCircle
 10
240.1713926301
 20
211.1441214767
 30
0.0
 40
9.024564458573051
100
AcDbArc
 50
277.896852814
 51
280.011692187
  0
ARC
  5
187
330
1B
100
AcDbEntity
 67
     1
  8
SLD-0
  6
Continuous
 62
     7
100
AcDbCircle
 10
240.1369521312
 20
211.4143889772
 30
0.0
 40
9.29700129023358
100
AcDbArc
 50
275.8316504034
 51
277.8782522456
  0
ARC
  5
188
330
1B
100
AcDbEntity
 67
     1
  8
SLD-0
  6
Continuous
 62
     7
100
AcDbCircle
 10
240.0444313315
 20
212.3037802482
 30
0.0
 40
10.19119051683645
100
AcDbArc
 50
273.9708244911
 51
275.8410652496
  0
ARC
  5
189
330
1B
100
AcDbEntity
 67
     1
  8
SLD-0
  6
Continuous
 62
     7
100
AcDbCircle
 10
240.0212826883
 20
212.6212264595
 30
0.0
 40
10.50947774741052
100
AcDbArc
 50
272.1548938368
 51
273.9768781956
  0
ARC
  5
18A
330
1B
100
AcDbEntity
 67
     1
  8
SLD-0
  6
Continuous
 62
     7
100
AcDbCircle
 10
240.0283658785
 20
212.4044583097
 30
0.0
 40
10.29259661002001
100
AcDbArc
 50
270.3008827433
 51
272.1608643736
  0
ARC
  5
18B
330
1B
100
AcDbEntity
 67
     1
  8
SLD-0
  6
Continuous
 62
     7
100
AcDbCircle
 10
240.0304602031
 20
211.4928548791
 30
0.0
 40
9.380995137500868
100
AcDbArc
 50
268.2891690549
 51
270.3173298448
  0
ARC
  5
18C
330
1B
100
AcDbEntity
 67
     1
  8
SLD-0
  6
Continuous
 62
     7
100
AcDbCircle
 10
239.9940793681
 20
210.2249785293
 30
0.0
 40
8.112597943046007
100
AcDbArc
 50
265.9298259503
 51
268.278659393
  0
ARC
  5
18D
330
1B
100
AcDbEntity
 67
     1
  8
SLD-0
  6
Continuous
 62
     7
100
AcDbCircle
 10
239.973232293
 20
209.902773686
 30
0.0
 40
7.789726331720972
100
AcDbArc
 50
263.4678096087
 51
265.9145635118
  0
ARC
  5
18E
330
1B
100
AcDbEntity
 67
     1
  8
SLD-0
  6
Continuous
 62
     7
100
AcDbCircle
 10
240.0235190765
 20
210.3265113408
 30
0.0
 40
8.216434006254493
100
AcDbArc
 50
261.1347895399
 51
263.4555691234
  0
ARC
  5
18F
330
1B
100
AcDbEntity
 67
     1
  8
SLD-0
  6
Continuous
 62
     7
100
AcDbCircle
 10
240.5357787804
 20
213.5501112439
 30
0.0
 40
11.48047196225954
100
AcDbArc
 50
259.4268434028
 51
261.0881286367
  0
ARC
  5
190
330
1B
100
AcDbEntity
 67
     1
  8
SLD-0
  6
Continuous
 62
     7
100
AcDbCircle
 10
239.036934773
 20
208.206459646
 30
0.0
 40
5.94354386745593
100
AcDbArc
 50
254.5545875762
 51
257.7566613071
  0
DIMENSION
  5
191
330
1B
100
AcDbEntity
 67
     1
  8
SLD-0
 62
     7
100
AcDbDimension
  2
_D
 10
62.1050389893
 20
50.4379161924
 30
0.0
 11
167.1050389893
 21
50.4379161924
 31
0.0
 70
   160
  1
<>
 71
     2
 42
-1.0
  3
SLDDIMSTYLE0
100
AcDbAlignedDimension
 13
272.1050389893
 23
66.8536884379
 33
0.0
 14
62.1050389893
 24
66.7090008495
 34
0.0
 50
0.0
100
AcDbRotatedDimension
  0
DIMENSION
  5
1A5
330
1B
100
AcDbEntity
 67
     1
  8
SLD-0
 62
     7
100
AcDbDimension
  2
_D_1
 10
25.7376730733
 20
42.8669124707
 30
0.0
 11
80.183448816
 21
129.1042860261
 31
0.0
 70
   163
  1
<>
 71
     1
 42
-1.0
  3
SLDDIMSTYLE1
100
AcDbDiametricDimension
 15
0.0
 25
0.0
 35
0.0
 40
0.0
  0
DIMENSION
  5
1B4
330
1B
100
AcDbEntity
 67
     1
  8
SLD-0
 62
     7
100
AcDbDimension
  2
_D_2
 10
46.7370113295
 20
17.7665914565
 30
0.0
 11
247.7636085927
 21
127.779346589
 31
0.0
 70
   163
  1
<>
 71
     1
 42
-1.0
  3
SLDDIMSTYLE1
100
AcDbDiametricDimension
 15
0.0
 25
0.0
 35
0.0
 40
0.0
  0
DIMENSION
  5
1C2
330
1B
100
AcDbEntity
 67
     1
  8
SLD-0
 62
     7
100
AcDbDimension
  2
_D_3
 10
14.2663898269
 20
4.6335862253
 30
0.0
 11
308.160651656
 21
93.1226480054
 31
0.0
 70
   163
  1
<>
 71
     1
 42
-1.0
  3
SLDDIMSTYLE1
100
AcDbDiametricDimension
 15
0.0
 25
0.0
 35
0.0
 40
0.0
  0
DIMENSION
  5
1D0
330
1B
100
AcDbEntity
 67
     1
  8
SLD-0
 62
     7
100
AcDbDimension
  2
_D_4
 10
405.225919843
 20
119.4379161924
 30
0.0
 11
405.225919843
 21
103.4379161924
 31
0.0
 70
   160
  1
<>
 71
     2
 42
-1.0
  3
SLDDIMSTYLE0
100
AcDbAlignedDimension
 13
392.225919843
 23
87.4379161924
 33
0.0
 14
392.225919843
 24
119.4379161924
 34
0.0
 50
90.0
100
AcDbRotatedDimension
  0
DIMENSION
  5
1DE
330
1B
100
AcDbEntity
 67
     1
  8
SLD-0
 62
     7
100
AcDbDimension
  2
_D_5
 10
246.1050389893
 20
173.1522644974
 30
0.0
 11
259.1050389893
 21
173.1522644974
 31
0.0
 70
   160
  1
<>
 71
     2
 42
-1.0
  3
SLDDIMSTYLE0
100
AcDbAlignedDimension
 13
272.1050389893
 23
215.6522644974
 33
0.0
 14
246.1050389893
 24
187.9522644974
 34
0.0
100
AcDbRotatedDimension
  0
DIMENSION
  5
1EC
330
1B
100
AcDbEntity
 67
     1
  8
SLD-0
 62
     7
100
AcDbDimension
  2
_D_6
 10
62.1050389893
 20
173.1522644974
 30
0.0
 11
75.1050389893
 21
173.1522644974
 31
0.0
 70
   160
  1
<>
 71
     2
 42
-1.0
  3
SLDDIMSTYLE0
100
AcDbAlignedDimension
 13
88.1050389893
 23
187.9522644974
 33
0.0
 14
62.1050389893
 24
215.6522644974
 34
0.0
100
AcDbRotatedDimension
  0
DIMENSION
  5
1FA
330
1B
100
AcDbEntity
 67
     1
  8
SLD-0
 62
     7
100
AcDbDimension
  2
_D_7
 10
88.1050389893
 20
173.1522644974
 30
0.0
 11
167.1050389893
 21
173.1522644974
 31
0.0
 70
   160
  1
<>
 71
     2
 42
-1.0
  3
SLDDIMSTYLE0
100
AcDbAlignedDimension
 13
246.1050389893
 23
187.9522644974
 33
0.0
 14
88.1050389893
 24
187.9522644974
 34
0.0
100
AcDbRotatedDimension
  0
DIMENSION
  5
208
330
1B
100
AcDbEntity
 67
     1
  8
SLD-0
 62
     7
100
AcDbDimension
  2
_D_8
 10
264.6050389893
 20
179.1522644974
 30
0.0
 11
285.2057913666
 21
179.1522644974
 31
0.0
 70
   160
  1
<>
 71
     2
 42
-1.0
  3
SLDDIMSTYLE2
100
AcDbAlignedDimension
 13
279.6050389893
 23
215.6522644974
 33
0.0
 14
264.6050389893
 24
215.6522644974
 34
0.0
100
AcDbRotatedDimension
  0
DIMENSION
  5
219
330
1B
100
AcDbEntity
 67
     1
  8
SLD-0
 62
     7
100
AcDbDimension
  2
_D_9
 10
54.6050389893
 20
179.1522644974
 30
0.0
 11
48.9880718172
 21
179.1522644974
 31
0.0
 70
   160
  1
<>
 71
     2
 42
-1.0
  3
SLDDIMSTYLE2
100
AcDbAlignedDimension
 13
69.6050389893
 23
215.6522644974
 33
0.0
 14
54.6050389893
 24
215.6522644974
 34
0.0
100
AcDbRotatedDimension
  0
DIMENSION
  5
229
330
1B
100
AcDbEntity
 67
     1
  8
SLD-0
 62
     7
100
AcDbDimension
  2
_D_10
 10
54.6050389893
 20
167.1522644974
 30
0.0
 11
167.1050389893
 21
167.1522644974
 31
0.0
 70
   160
  1
<>
 71
     2
 42
-1.0
  3
SLDDIMSTYLE0
100
AcDbAlignedDimension
 13
279.6050389893
 23
215.6522644974
 33
0.0
 14
54.6050389893
 24
215.6522644974
 34
0.0
100
AcDbRotatedDimension
  0
DIMENSION
  5
237
330
1B
100
AcDbEntity
 67
     1
  8
SLD-0
 62
     7
100
AcDbDimension
  2
_D_11
 10
319.1050389893
 20
249.1522644974
 30
0.0
 11
319.1050389893
 21
245.6522644974
 31
0.0
 70
   160
  1
<>
 71
     2
 42
-1.0
  3
SLDDIMSTYLE0
100
AcDbAlignedDimension
 13
296.1050389893
 23
242.1522644974
 33
0.0
 14
297.1050389893
 24
249.1522644974
 34
0.0
 50
90.0
100
AcDbRotatedDimension
  0
DIMENSION
  5
247
330
1B
100
AcDbEntity
 67
     1
  8
SLD-0
 62
     7
100
AcDbDimension
  2
_D_12
 10
319.1050389893
 20
187.6522644974
 30
0.0
 11
319.1050389893
 21
214.9022644974
 31
0.0
 70
   160
  1
<>
 71
     2
 42
-1.0
  3
SLDDIMSTYLE3
100
AcDbAlignedDimension
 13
296.1050389893
 23
242.1522644974
 33
0.0
 14
251.6050389893
 24
187.6522644974
 34
0.0
 50
90.0
100
AcDbRotatedDimension
  0
DIMENSION
  5
256
330
1B
100
AcDbEntity
 67
     1
  8
SLD-0
 62
     7
100
AcDbDimension
  2
_D_13
 10
325.1050389893
 20
249.1522644974
 30
0.0
 11
325.1050389893
 21
218.4022644974
 31
0.0
 70
   160
  1
<>
 71
     2
 42
-1.0
  3
SLDDIMSTYLE3
100
AcDbAlignedDimension
 13
251.6050389893
 23
187.6522644974
 33
0.0
 14
297.1050389893
 24
249.1522644974
 34
0.0
 50
90.0
100
AcDbRotatedDimension
  0
MTEXT
  5
265
330
1B
100
AcDbEntity
 67
     1
  8
SLD-0
 62
     7
100
AcDbMText
 10
144.5035312996
 20
16.6880415195
 30
0.0
 40
3.5
 41
0.0
 71
     1
 72
     1
  1
28M
  7
SLDTEXTSTYLE2
 73
     1
 44
1.0
  0
MTEXT
  5
266
330
1B
100
AcDbEntity
 67
     1
  8
SLD-0
 62
     7
100
AcDbMText
 10
368.8137910523
 20
15.8225795688
 30
0.0
 40
4.0
 41
0.0
 71
     1
 72
     1
  1
11548R
  7
SLDTEXTSTYLE0
 73
     1
 44
1.0
  0
MTEXT
  5
267
330
1B
100
AcDbEntity
 67
     1
  8
SLD-0
 62
     7
100
AcDbMText
 10
300.033957724
 20
27.6916428957
 30
0.0
 40
3.5
 41
0.0
 71
     1
 72
     1
  1
1/1
  7
SLDTEXTSTYLE0
 73
     1
 44
1.0
  0
MTEXT
  5
269
330
1B
100
AcDbEntity
 67
     1
  8
SLD-0
 62
     7
100
AcDbMText
 10
22.8306485705
 20
28.652303021
 30
0.0
 40
3.5
 41
0.0
 71
     1
 72
     1
  1
改
  7
SLDTEXTSTYLE3
 73
     1
 44
1.0
  0
MTEXT
  5
26A
330
1B
100
AcDbEntity
 67
     1
  8
SLD-0
 62
     7
100
AcDbMText
 10
22.7900805826
 20
17.010853051
 30
0.0
 40
3.5
 41
0.0
 71
     1
 72
     1
  1
訂
  7
SLDTEXTSTYLE3
 73
     1
 44
1.0
  0
MTEXT
  5
26B
330
1B
100
AcDbEntity
 67
     1
  8
SLD-0
 62
     7
100
AcDbMText
 10
144.4829525239
 20
28.2161130323
 30
0.0
 40
3.5
 41
0.0
 71
     1
 72
     1
  1
承認図
  7
SLDTEXTSTYLE3
 73
     1
 44
1.0
  0
MTEXT
  5
26C
330
1B
100
AcDbEntity
 67
     1
  8
SLD-0
 62
     7
100
AcDbMText
 10
232.357657574
 20
30.9382425667
 30
0.0
 40
3.5
 41
0.0
 71
     1
 72
     1
  1
個
  7
SLDTEXTSTYLE3
 73
     1
 44
1.0
  0
MTEXT
  5
26D
330
1B
100
AcDbEntity
 67
     1
  8
SLD-0
 62
     7
100
AcDbMText
 10
232.3785618998
 20
25.621660061
 30
0.0
 40
3.5
 41
0.0
 71
     1
 72
     1
  1
数
  7
SLDTEXTSTYLE3
 73
     1
 44
1.0
  0
MTEXT
  5
26E
330
1B
100
AcDbEntity
 67
     1
  8
SLD-0
 62
     7
100
AcDbMText
 10
252.3573601132
 20
31.0252717962
 30
0.0
 40
3.5
 41
0.0
 71
     1
 72
     1
  1
備
  7
SLDTEXTSTYLE3
 73
     1
 44
1.0
  0
MTEXT
  5
26F
330
1B
100
AcDbEntity
 67
     1
  8
SLD-0
 62
     7
100
AcDbMText
 10
252.3573601132
 20
25.7026862461
 30
0.0
 40
3.5
 41
0.0
 71
     1
 72
     1
  1
考
  7
SLDTEXTSTYLE3
 73
     1
 44
1.0
  0
MTEXT
  5
270
330
1B
100
AcDbEntity
 67
     1
  8
SLD-0
 62
     7
100
AcDbMText
 10
292.3664626113
 20
31.0257741408
 30
0.0
 40
3.5
 41
0.0
 71
     1
 72
     1
  1
尺
  7
SLDTEXTSTYLE3
 73
     1
 44
1.0
  0
MTEXT
  5
271
330
1B
100
AcDbEntity
 67
     1
  8
SLD-0
 62
     7
100
AcDbMText
 10
292.3664626113
 20
25.6874134086
 30
0.0
 40
3.5
 41
0.0
 71
     1
 72
     1
  1
度
  7
SLDTEXTSTYLE3
 73
     1
 44
1.0
  0
MTEXT
  5
273
330
1B
100
AcDbEntity
 67
     1
  8
SLD-0
 62
     7
100
AcDbMText
 10
294.8445745199
 20
16.7950380054
 30
0.0
 40
2.9104166031
 41
0.0
 71
     1
 72
     1
  1
第三角法
  7
SLDTEXTSTYLE4
 73
     1
 44
1.0
  0
MTEXT
  5
275
330
1B
100
AcDbEntity
 67
     1
  8
SLD-0
 62
     7
100
AcDbMText
 10
311.7573695107
 20
30.5891874116
 30
0.0
 40
2.5
 41
0.0
 71
     1
 72
     1
  1
製図・設計
  7
SLDTEXTSTYLE5
 73
     1
 44
1.0
  0
MTEXT
  5
277
330
1B
100
AcDbEntity
 67
     1
  8
SLD-0
 62
     7
100
AcDbMText
 10
329.6575469962
 20
30.5994410061
 30
0.0
 40
2.5
 41
0.0
 71
     1
 72
     1
  1
照　査
  7
SLDTEXTSTYLE6
 73
     1
 44
1.0
  0
MTEXT
  5
278
330
1B
100
AcDbEntity
 67
     1
  8
SLD-0
 62
     7
100
AcDbMText
 10
361.958749754
 20
15.3927401502
 30
0.0
 40
3.4395833015
 41
0.0
 71
     1
 72
     1
  1
No.
  7
SLDTEXTSTYLE2
 73
     1
 44
1.0
  0
MTEXT
  5
279
330
1B
100
AcDbEntity
 67
     1
  8
SLD-0
 62
     7
100
AcDbMText
 10
81.6248333904
 20
13.5625189928
 30
0.0
 40
2.5
 41
0.0
 71
     1
 72
     1
  1
変　更　内　容
  7
SLDTEXTSTYLE3
 73
     1
 44
1.0
  0
MTEXT
  5
27A
330
1B
100
AcDbEntity
 67
     1
  8
SLD-0
 62
     7
100
AcDbMText
 10
344.6694607343
 20
30.5721772849
 30
0.0
 40
2.5
 41
0.0
 71
     1
 72
     1
  1
承　認
  7
SLDTEXTSTYLE6
 73
     1
 44
1.0
  0
MTEXT
  5
27C
330
1B
100
AcDbEntity
 67
     1
  8
SLD-0
 62
     7
100
AcDbMText
 10
358.6499682217
 20
23.4386037729
 30
0.0
 40
2.3812499046
 41
0.0
 71
     1
 72
     1
  1
WEST
  7
SLDTEXTSTYLE7
 73
     1
 44
1.0
  0
MTEXT
  5
27D
330
1B
100
AcDbEntity
 67
     1
  8
SLD-0
 62
     7
100
AcDbMText
 10
126.6394502878
 20
13.5842648164
 30
0.0
 40
2.5
 41
0.0
 71
     1
 72
     1
  1
通知書
  7
SLDTEXTSTYLE6
 73
     1
 44
1.0
  0
MTEXT
  5
27E
330
1B
100
AcDbEntity
 67
     1
  8
SLD-0
 62
     7
100
AcDbMText
 10
39.6073654972
 20
13.5858501847
 30
0.0
 40
2.5
 41
0.0
 71
     1
 72
     1
  1
日付
  7
SLDTEXTSTYLE4
 73
     1
 44
1.0
  0
MTEXT
  5
27F
330
1B
100
AcDbEntity
 67
     1
  8
SLD-0
 62
     7
100
AcDbMText
 10
50.6471155245
 20
13.5906682699
 30
0.0
 40
2.5
 41
0.0
 71
     1
 72
     1
  1
担当者
  7
SLDTEXTSTYLE6
 73
     1
 44
1.0
  0
MTEXT
  5
280
330
1B
100
AcDbEntity
 67
     1
  8
SLD-0
 62
     7
100
AcDbMText
 10
28.0997329878
 20
13.572333007
 30
0.0
 40
2.5
 41
0.0
 71
     1
 72
     1
  1
記号
  7
SLDTEXTSTYLE4
 73
     1
 44
1.0
  0
MTEXT
  5
281
330
1B
100
AcDbEntity
 67
     1
  8
SLD-0
 62
     7
100
AcDbMText
 10
199.3534685856
 20
30.9382425667
 30
0.0
 40
3.5
 41
0.0
 71
     1
 72
     1
  1
材
  7
SLDTEXTSTYLE3
 73
     1
 44
1.0
  0
MTEXT
  5
282
330
1B
100
AcDbEntity
 67
     1
  8
SLD-0
 62
     7
100
AcDbMText
 10
199.349337611
 20
25.621660061
 30
0.0
 40
3.5
 41
0.0
 71
     1
 72
     1
  1
質
  7
SLDTEXTSTYLE3
 73
     1
 44
1.0
  0
MTEXT
  5
283
330
1B
100
AcDbEntity
 67
     1
  8
SLD-0
 62
     7
100
AcDbMText
 10
139.3570394312
 20
30.9382425667
 30
0.0
 40
3.5
 41
0.0
 71
     1
 72
     1
  1
名
  7
SLDTEXTSTYLE3
 73
     1
 44
1.0
  0
MTEXT
  5
284
330
1B
100
AcDbEntity
 67
     1
  8
SLD-0
 62
     7
100
AcDbMText
 10
139.3779437571
 20
25.621660061
 30
0.0
 40
3.5
 41
0.0
 71
     1
 72
     1
  1
称
  7
SLDTEXTSTYLE3
 73
     1
 44
1.0
  0
MTEXT
  5
285
330
1B
100
AcDbEntity
 67
     1
  8
SLD-0
 62
     7
100
AcDbMText
 10
139.3570394312
 20
19.9382425667
 30
0.0
 40
3.5
 41
0.0
 71
     1
 72
     1
  1
品
  7
SLDTEXTSTYLE3
 73
     1
 44
1.0
  0
MTEXT
  5
286
330
1B
100
AcDbEntity
 67
     1
  8
SLD-0
 62
     7
100
AcDbMText
 10
139.3779437571
 20
15.0156834865
 30
0.0
 40
3.5
 41
0.0
 71
     1
 72
     1
  1
名
  7
SLDTEXTSTYLE3
 73
     1
 44
1.0
  0
MTEXT
  5
287
330
1B
100
AcDbEntity
 67
     1
  8
SLD-0
 62
     7
100
AcDbMText
 10
199.3534685856
 20
19.9382425667
 30
0.0
 40
3.5
 41
0.0
 71
     1
 72
     1
  1
工
  7
SLDTEXTSTYLE3
 73
     1
 44
1.0
  0
MTEXT
  5
288
330
1B
100
AcDbEntity
 67
     1
  8
SLD-0
 62
     7
100
AcDbMText
 10
199.349337611
 20
15.0156834865
 30
0.0
 40
3.5
 41
0.0
 71
     1
 72
     1
  1
番
  7
SLDTEXTSTYLE3
 73
     1
 44
1.0
  0
MTEXT
  5
289
330
1B
100
AcDbEntity
 67
     1
  8
SLD-0
 62
     7
100
AcDbMText
 10
427.9159859778
 20
15.3701307748
 30
0.0
 40
7.4083333015
 41
0.0
 71
     1
 72
     1
  1
A3
  7
SLDTEXTSTYLE2
 73
     1
 44
1.0
  0
MTEXT
  5
28A
330
1B
100
AcDbEntity
 67
     1
  8
SLD-0
 62
     7
100
AcDbMText
 10
357.444566405
 20
14.6147830727
 30
0.0
 40
3.5
 41
0.0
 71
     1
 72
     1
  1
番
  7
SLDTEXTSTYLE3
 73
     1
 44
1.0
  0
MTEXT
  5
28B
330
1B
100
AcDbEntity
 67
     1
  8
SLD-0
 62
     7
100
AcDbMText
 10
357.444566405
 20
19.9531438049
 30
0.0
 40
3.5
 41
0.0
 71
     1
 72
     1
  1
図
  7
SLDTEXTSTYLE3
 73
     1
 44
1.0
  0
MTEXT
  5
28D
330
1B
100
AcDbEntity
 67
     1
  8
SLD-0
 62
     7
100
AcDbMText
 10
311.5649907757
 20
13.6099772839
 30
0.0
 40
3.0
 41
0.0
 71
     1
 72
     1
  1
′０８．１０．２０
  7
SLDTEXTSTYLE8
 73
     1
 44
1.0
  0
MTEXT
  5
28E
330
1B
100
AcDbEntity
 67
     1
  8
SLD-0
 62
     7
100
AcDbMText
 10
406.0292860479
 20
8.3220666762
 30
0.0
 40
1.8520833254
 41
0.0
 71
     1
 72
     1
  1
A3
  7
SLDTEXTSTYLE2
 73
     1
 44
1.0
  0
ENDSEC
  0
SECTION
  2
OBJECTS
  0
DICTIONARY
  5
C
330
0
100
AcDbDictionary
281
     1
  3
ACAD_GROUP
350
D
  3
ACAD_LAYOUT
350
1A
  3
ACAD_MLINESTYLE
350
17
  3
ACAD_PLOTSETTINGS
350
19
  3
ACAD_PLOTSTYLENAME
350
E
  3
ACAD_SCALELIST
350
47
  0
DICTIONARY
  5
D
102
{ACAD_REACTORS
330
C
102
}
330
C
100
AcDbDictionary
281
     1
  0
DICTIONARY
  5
1A
102
{ACAD_REACTORS
330
C
102
}
330
C
100
AcDbDictionary
281
     1
  3
Model
350
22
  3
SW_Model_1
350
1E
  0
DICTIONARY
  5
17
102
{ACAD_REACTORS
330
C
102
}
330
C
100
AcDbDictionary
281
     1
  3
Standard
350
18
  0
DICTIONARY
  5
19
102
{ACAD_REACTORS
330
C
102
}
330
C
100
AcDbDictionary
281
     1
  0
ACDBDICTIONARYWDFLT
  5
E
102
{ACAD_REACTORS
330
C
102
}
330
C
100
AcDbDictionary
281
     1
  3
Normal
350
F
100
AcDbDictionaryWithDefault
340
F
  0
DICTIONARY
  5
47
102
{ACAD_REACTORS
330
C
102
}
330
C
100
AcDbDictionary
281
     1
  3
A0
350
48
  3
A1
350
49
  3
A2
350
4A
  3
A3
350
4B
  3
A4
350
4C
  3
A5
350
4D
  3
A6
350
4E
  3
A7
350
4F
  3
A8
350
50
  3
A9
350
51
  3
B0
350
52
  3
B1
350
53
  3
B2
350
54
  3
B3
350
55
  3
B4
350
56
  3
B5
350
57
  3
B6
350
58
  3
B7
350
59
  3
B8
350
5A
  3
B9
350
5B
  3
C0
350
5C
  3
C1
350
5D
  3
C2
350
5E
  3
C3
350
5F
  3
C4
350
60
  3
C5
350
61
  3
C6
350
62
  3
C7
350
63
  3
C8
350
64
  3
C9
350
65
  3
D0
350
66
  3
D1
350
67
  3
D2
350
68
  0
LAYOUT
  5
22
102
{ACAD_REACTORS
330
1A
102
}
330
1A
100
AcDbPlotSettings
  1

  2
none_device
  4
Letter_(8.50_x_11.00_Inches)
  6

 40
6.35
 41
6.35
 42
6.35000508
 43
6.35000508
 44
215.9
 45
279.4
 46
0.0
 47
0.0
 48
0.0
 49
0.0
140
0.0
141
0.0
142
1.0
143
1.0
 70
  1712
 72
     1
 73
     0
 74
     0
  7

 75
     0
147
1.0
148
0.0
149
0.0
100
AcDbLayout
  1
Model
 70
     1
 71
     0
 10
0.0
 20
0.0
 11
420.0
 21
297.0
 12
0.0
 22
0.0
 32
0.0
 14
0.0
 24
0.0
 34
0.0
 15
420.0
 25
297.0
 35
0.0
146
0.0
 13
0.0
 23
0.0
 33
0.0
 16
1.0
 26
0.0
 36
0.0
 17
0.0
 27
1.0
 37
0.0
 76
     0
330
1F
331
29
  0
LAYOUT
  5
1E
102
{ACAD_REACTORS
330
1A
102
}
330
1A
100
AcDbPlotSettings
  1

  2
none_device
  4
ISO_A3_(420.00_x_297.00_MM)
  6

 40
7.5
 41
20.0
 42
7.5
 43
20.0
 44
420.0
 45
297.0
 46
0.0
 47
0.0
 48
0.0
 49
0.0
140
0.0
141
0.0
142
1.0
143
1.0
 70
  4832
 72
     1
 73
     0
 74
     1
  7

 75
     0
147
1.0
148
0.0
149
0.0
100
AcDbLayout
  1
SW_Model_1
 70
     1
 71
     1
 10
0.0
 20
0.0
 11
420.0
 21
297.0
 12
0.0
 22
0.0
 32
0.0
 14
0.0
 24
0.0
 34
0.0
 15
420.0
 25
297.0
 35
0.0
146
0.0
 13
0.0
 23
0.0
 33
0.0
 16
1.0
 26
0.0
 36
0.0
 17
0.0
 27
1.0
 37
0.0
 76
     0
330
1B
331
77
  0
MLINESTYLE
  5
18
102
{ACAD_REACTORS
330
17
102
}
330
17
100
AcDbMlineStyle
  2
Standard
 70
     0
  3

 62
   256
 51
90.0
 52
90.0
 71
     2
 49
0.5
 62
   256
  6
BYLAYER
 49
-0.5
 62
   256
  6
BYLAYER
  0
ACDBPLACEHOLDER
  5
F
102
{ACAD_REACTORS
330
E
102
}
330
E
  0
SCALE
  5
48
102
{ACAD_REACTORS
330
47
102
}
330
47
100
AcDbScale
 70
     0
300
1:1
140
1.0
141
1.0
290
     1
  0
SCALE
  5
49
102
{ACAD_REACTORS
330
47
102
}
330
47
100
AcDbScale
 70
     0
300
1:2
140
1.0
141
2.0
290
     0
  0
SCALE
  5
4A
102
{ACAD_REACTORS
330
47
102
}
330
47
100
AcDbScale
 70
     0
300
1:4
140
1.0
141
4.0
290
     0
  0
SCALE
  5
4B
102
{ACAD_REACTORS
330
47
102
}
330
47
100
AcDbScale
 70
     0
300
1:5
140
1.0
141
5.0
290
     0
  0
SCALE
  5
4C
102
{ACAD_REACTORS
330
47
102
}
330
47
100
AcDbScale
 70
     0
300
1:8
140
1.0
141
8.0
290
     0
  0
SCALE
  5
4D
102
{ACAD_REACTORS
330
47
102
}
330
47
100
AcDbScale
 70
     0
300
1:10
140
1.0
141
10.0
290
     0
  0
SCALE
  5
4E
102
{ACAD_REACTORS
330
47
102
}
330
47
100
AcDbScale
 70
     0
300
1:16
140
1.0
141
16.0
290
     0
  0
SCALE
  5
4F
102
{ACAD_REACTORS
330
47
102
}
330
47
100
AcDbScale
 70
     0
300
1:20
140
1.0
141
20.0
290
     0
  0
SCALE
  5
50
102
{ACAD_REACTORS
330
47
102
}
330
47
100
AcDbScale
 70
     0
300
1:30
140
1.0
141
30.0
290
     0
  0
SCALE
  5
51
102
{ACAD_REACTORS
330
47
102
}
330
47
100
AcDbScale
 70
     0
300
1:40
140
1.0
141
40.0
290
     0
  0
SCALE
  5
52
102
{ACAD_REACTORS
330
47
102
}
330
47
100
AcDbScale
 70
     0
300
1:50
140
1.0
141
50.0
290
     0
  0
SCALE
  5
53
102
{ACAD_REACTORS
330
47
102
}
330
47
100
AcDbScale
 70
     0
300
1:100
140
1.0
141
100.0
290
     0
  0
SCALE
  5
54
102
{ACAD_REACTORS
330
47
102
}
330
47
100
AcDbScale
 70
     0
300
2:1
140
2.0
141
1.0
290
     0
  0
SCALE
  5
55
102
{ACAD_REACTORS
330
47
102
}
330
47
100
AcDbScale
 70
     0
300
4:1
140
4.0
141
1.0
290
     0
  0
SCALE
  5
56
102
{ACAD_REACTORS
330
47
102
}
330
47
100
AcDbScale
 70
     0
300
8:1
140
8.0
141
1.0
290
     0
  0
SCALE
  5
57
102
{ACAD_REACTORS
330
47
102
}
330
47
100
AcDbScale
 70
     0
300
10:1
140
10.0
141
1.0
290
     0
  0
SCALE
  5
58
102
{ACAD_REACTORS
330
47
102
}
330
47
100
AcDbScale
 70
     0
300
100:1
140
100.0
141
1.0
290
     0
  0
SCALE
  5
59
102
{ACAD_REACTORS
330
47
102
}
330
47
100
AcDbScale
 70
     0
300
1/128" = 1'-0"
140
0.0078125
141
12.0
290
     0
  0
SCALE
  5
5A
102
{ACAD_REACTORS
330
47
102
}
330
47
100
AcDbScale
 70
     0
300
1/64" = 1'-0"
140
0.015625
141
12.0
290
     0
  0
SCALE
  5
5B
102
{ACAD_REACTORS
330
47
102
}
330
47
100
AcDbScale
 70
     0
300
1/32" = 1'-0"
140
0.03125
141
12.0
290
     0
  0
SCALE
  5
5C
102
{ACAD_REACTORS
330
47
102
}
330
47
100
AcDbScale
 70
     0
300
1/16" = 1'-0"
140
0.0625
141
12.0
290
     0
  0
SCALE
  5
5D
102
{ACAD_REACTORS
330
47
102
}
330
47
100
AcDbScale
 70
     0
300
3/32" = 1'-0"
140
0.09375
141
12.0
290
     0
  0
SCALE
  5
5E
102
{ACAD_REACTORS
330
47
102
}
330
47
100
AcDbScale
 70
     0
300
1/8" = 1'-0"
140
0.125
141
12.0
290
     0
  0
SCALE
  5
5F
102
{ACAD_REACTORS
330
47
102
}
330
47
100
AcDbScale
 70
     0
300
3/16" = 1'-0"
140
0.1875
141
12.0
290
     0
  0
SCALE
  5
60
102
{ACAD_REACTORS
330
47
102
}
330
47
100
AcDbScale
 70
     0
300
1/4" = 1'-0"
140
0.25
141
12.0
290
     0
  0
SCALE
  5
61
102
{ACAD_REACTORS
330
47
102
}
330
47
100
AcDbScale
 70
     0
300
3/8" = 1'-0"
140
0.375
141
12.0
290
     0
  0
SCALE
  5
62
102
{ACAD_REACTORS
330
47
102
}
330
47
100
AcDbScale
 70
     0
300
1/2" = 1'-0"
140
0.5
141
12.0
290
     0
  0
SCALE
  5
63
102
{ACAD_REACTORS
330
47
102
}
330
47
100
AcDbScale
 70
     0
300
3/4" = 1'-0"
140
0.75
141
12.0
290
     0
  0
SCALE
  5
64
102
{ACAD_REACTORS
330
47
102
}
330
47
100
AcDbScale
 70
     0
300
1" = 1'-0"
140
1.0
141
12.0
290
     0
  0
SCALE
  5
65
102
{ACAD_REACTORS
330
47
102
}
330
47
100
AcDbScale
 70
     0
300
1-1/2" = 1'-0"
140
1.5
141
12.0
290
     0
  0
SCALE
  5
66
102
{ACAD_REACTORS
330
47
102
}
330
47
100
AcDbScale
 70
     0
300
3" = 1'-0"
140
3.0
141
12.0
290
     0
  0
SCALE
  5
67
102
{ACAD_REACTORS
330
47
102
}
330
47
100
AcDbScale
 70
     0
300
6" = 1'-0"
140
6.0
141
12.0
290
     0
  0
SCALE
  5
68
102
{ACAD_REACTORS
330
47
102
}
330
47
100
AcDbScale
 70
     0
300
1'-0" = 1'-0"
140
12.0
141
12.0
290
     0
  0
ENDSEC
  0
EOF
