  0
SECTION
  2
HEADER
  9
$ACADVER
  1
AC1015
  9
$ACADMAINTVER
 70
     6
  9
$DWGCODEPAGE
  3
DOS932
  9
$INSBASE
 10
0.0
 20
0.0
 30
0.0
  9
$EXTMIN
 10
0.0
 20
0.0
 30
0.0
  9
$EXTMAX
 10
420.0
 20
297.0
 30
0.0
  9
$LIMMIN
 10
0.0
 20
0.0
  9
$LIMMAX
 10
420.0
 20
297.0
  9
$ORTHOMODE
 70
     0
  9
$REGENMODE
 70
     1
  9
$FILLMODE
 70
     1
  9
$QTEXTMODE
 70
     0
  9
$MIRRTEXT
 70
     1
  9
$LTSCALE
 40
1.0
  9
$ATTMODE
 70
     1
  9
$TEXTSIZE
 40
3.5
  9
$TRACEWID
 40
1.0
  9
$TEXTSTYLE
  7
Standard
  9
$CLAYER
  8
0
  9
$CELTYPE
  6
ByLayer
  9
$CECOLOR
 62
   256
  9
$CELTSCALE
 40
1.0
  9
$DISPSILH
 70
     0
  9
$DIMSCALE
 40
1.0
  9
$DIMASZ
 40
3.302
  9
$DIMEXO
 40
1.0
  9
$DIMDLI
 40
3.75
  9
$DIMRND
 40
0.0
  9
$DIMDLE
 40
0.0
  9
$DIMEXE
 40
1.0
  9
$DIMTP
 40
0.0
  9
$DIMTM
 40
0.0
  9
$DIMTXT
 40
3.5
  9
$DIMCEN
 40
2.5
  9
$DIMTSZ
 40
0.0
  9
$DIMTOL
 70
     0
  9
$DIMLIM
 70
     0
  9
$DIMTIH
 70
     1
  9
$DIMTOH
 70
     1
  9
$DIMSE1
 70
     0
  9
$DIMSE2
 70
     0
  9
$DIMTAD
 70
     1
  9
$DIMZIN
 70
     1
  9
$DIMBLK
  1

  9
$DIMASO
 70
     1
  9
$DIMSHO
 70
     1
  9
$DIMPOST
  1

  9
$DIMAPOST
  1

  9
$DIMALT
 70
     0
  9
$DIMALTD
 70
     3
  9
$DIMALTF
 40
0.0393700787
  9
$DIMLFAC
 40
1.0
  9
$DIMTOFL
 70
     1
  9
$DIMTVP
 40
0.0
  9
$DIMTIX
 70
     0
  9
$DIMSOXD
 70
     0
  9
$DIMSAH
 70
     0
  9
$DIMBLK1
  1

  9
$DIMBLK2
  1

  9
$DIMSTYLE
  2
ISO-25
  9
$DIMCLRD
 70
     0
  9
$DIMCLRE
 70
     0
  9
$DIMCLRT
 70
     0
  9
$DIMTFAC
 40
1.0
  9
$DIMGAP
 40
1.524
  9
$DIMJUST
 70
     0
  9
$DIMSD1
 70
     0
  9
$DIMSD2
 70
     0
  9
$DIMTOLJ
 70
     0
  9
$DIMTZIN
 70
     1
  9
$DIMALTZ
 70
     0
  9
$DIMALTTZ
 70
     0
  9
$DIMUPT
 70
     0
  9
$DIMDEC
 70
     4
  9
$DIMTDEC
 70
     4
  9
$DIMALTU
 70
     2
  9
$DIMALTTD
 70
     3
  9
$DIMTXSTY
  7
Standard
  9
$DIMAUNIT
 70
     0
  9
$DIMADEC
 70
     0
  9
$DIMALTRND
 40
0.0
  9
$DIMAZIN
 70
     0
  9
$DIMDSEP
 70
    44
  9
$DIMATFIT
 70
     3
  9
$DIMFRAC
 70
     0
  9
$DIMLDRBLK
  1

  9
$DIMLUNIT
 70
     2
  9
$DIMLWD
 70
    -2
  9
$DIMLWE
 70
    -2
  9
$DIMTMOVE
 70
     0
  9
$LUNITS
 70
     2
  9
$LUPREC
 70
     4
  9
$SKETCHINC
 40
1.0
  9
$FILLETRAD
 40
10.0
  9
$AUNITS
 70
     0
  9
$AUPREC
 70
     0
  9
$MENU
  1
.
  9
$ELEVATION
 40
0.0
  9
$PELEVATION
 40
0.0
  9
$THICKNESS
 40
0.0
  9
$LIMCHECK
 70
     0
  9
$CHAMFERA
 40
0.0
  9
$CHAMFERB
 40
0.0
  9
$CHAMFERC
 40
0.0
  9
$CHAMFERD
 40
0.0
  9
$SKPOLY
 70
     0
  9
$TDCREATE
 40
2458290.477142847
  9
$TDUCREATE
 40
2458290.102142847
  9
$TDUPDATE
 40
2458290.477154155
  9
$TDUUPDATE
 40
2458290.102154155
  9
$TDINDWG
 40
0.0000000116
  9
$TDUSRTIMER
 40
0.0000000116
  9
$USRTIMER
 70
     1
  9
$ANGBASE
 50
0.0
  9
$ANGDIR
 70
     0
  9
$PDMODE
 70
     0
  9
$PDSIZE
 40
-1.0
  9
$PLINEWID
 40
0.0
  9
$SPLFRAME
 70
     0
  9
$SPLINETYPE
 70
     6
  9
$SPLINESEGS
 70
     8
  9
$HANDSEED
  5
2F4
  9
$SURFTAB1
 70
     6
  9
$SURFTAB2
 70
     6
  9
$SURFTYPE
 70
     6
  9
$SURFU
 70
     6
  9
$SURFV
 70
     6
  9
$UCSBASE
  2

  9
$UCSNAME
  2

  9
$UCSORG
 10
0.0
 20
0.0
 30
0.0
  9
$UCSXDIR
 10
1.0
 20
0.0
 30
0.0
  9
$UCSYDIR
 10
0.0
 20
1.0
 30
0.0
  9
$UCSORTHOREF
  2

  9
$UCSORTHOVIEW
 70
     0
  9
$UCSORGTOP
 10
0.0
 20
0.0
 30
0.0
  9
$UCSORGBOTTOM
 10
0.0
 20
0.0
 30
0.0
  9
$UCSORGLEFT
 10
0.0
 20
0.0
 30
0.0
  9
$UCSORGRIGHT
 10
0.0
 20
0.0
 30
0.0
  9
$UCSORGFRONT
 10
0.0
 20
0.0
 30
0.0
  9
$UCSORGBACK
 10
0.0
 20
0.0
 30
0.0
  9
$PUCSBASE
  2

  9
$PUCSNAME
  2

  9
$PUCSORG
 10
0.0
 20
0.0
 30
0.0
  9
$PUCSXDIR
 10
1.0
 20
0.0
 30
0.0
  9
$PUCSYDIR
 10
0.0
 20
1.0
 30
0.0
  9
$PUCSORTHOREF
  2

  9
$PUCSORTHOVIEW
 70
     0
  9
$PUCSORGTOP
 10
0.0
 20
0.0
 30
0.0
  9
$PUCSORGBOTTOM
 10
0.0
 20
0.0
 30
0.0
  9
$PUCSORGLEFT
 10
0.0
 20
0.0
 30
0.0
  9
$PUCSORGRIGHT
 10
0.0
 20
0.0
 30
0.0
  9
$PUCSORGFRONT
 10
0.0
 20
0.0
 30
0.0
  9
$PUCSORGBACK
 10
0.0
 20
0.0
 30
0.0
  9
$USERI1
 70
     0
  9
$USERI2
 70
     0
  9
$USERI3
 70
     0
  9
$USERI4
 70
     0
  9
$USERI5
 70
     0
  9
$USERR1
 40
0.0
  9
$USERR2
 40
0.0
  9
$USERR3
 40
0.0
  9
$USERR4
 40
0.0
  9
$USERR5
 40
0.0
  9
$WORLDVIEW
 70
     1
  9
$SHADEDGE
 70
     3
  9
$SHADEDIF
 70
    70
  9
$TILEMODE
 70
     0
  9
$MAXACTVP
 70
    64
  9
$PINSBASE
 10
0.0
 20
0.0
 30
0.0
  9
$PLIMCHECK
 70
     0
  9
$PEXTMIN
 10
0.0
 20
0.0
 30
0.0
  9
$PEXTMAX
 10
420.0
 20
297.0
 30
0.0
  9
$PLIMMIN
 10
0.0
 20
0.0
  9
$PLIMMAX
 10
420.0
 20
297.0
  9
$UNITMODE
 70
     0
  9
$VISRETAIN
 70
     1
  9
$PLINEGEN
 70
     0
  9
$PSLTSCALE
 70
     1
  9
$TREEDEPTH
 70
  3020
  9
$CMLSTYLE
  2
Standard
  9
$CMLJUST
 70
     0
  9
$CMLSCALE
 40
20.0
  9
$PROXYGRAPHICS
 70
     1
  9
$MEASUREMENT
 70
     1
  9
$CELWEIGHT
370
    -1
  9
$ENDCAPS
280
     0
  9
$JOINSTYLE
280
     0
  9
$LWDISPLAY
290
     1
  9
$INSUNITS
 70
     4
  9
$HYPERLINKBASE
  1

  9
$STYLESHEET
  1

  9
$XEDIT
290
     1
  9
$CEPSNTYPE
380
     0
  9
$PSTYLEMODE
290
     1
  9
$FINGERPRINTGUID
  2
{1CA33BEB-59AD-4CF0-969F-282408443229}
  9
$VERSIONGUID
  2
{FAEB1C32-E019-11D5-929B-00C0DF256EC4}
  9
$EXTNAMES
290
     1
  9
$PSVPSCALE
 40
0.0
  9
$OLESTARTUP
290
     0
  0
ENDSEC
  0
SECTION
  2
CLASSES
  0
CLASS
  1
ACDBDICTIONARYWDFLT
  2
AcDbDictionaryWithDefault
  3
ObjectDBX Classes
 90
        0
280
     0
281
     0
  0
CLASS
  1
VISUALSTYLE
  2
AcDbVisualStyle
  3
ObjectDBX Classes
 90
     4095
280
     0
281
     0
  0
CLASS
  1
MATERIAL
  2
AcDbMaterial
  3
ObjectDBX Classes
 90
     1153
280
     0
281
     0
  0
CLASS
  1
SCALE
  2
AcDbScale
  3
ObjectDBX Classes
 90
     1153
280
     0
281
     0
  0
CLASS
  1
TABLESTYLE
  2
AcDbTableStyle
  3
ObjectDBX Classes
 90
     4095
280
     0
281
     0
  0
CLASS
  1
MLEADERSTYLE
  2
AcDbMLeaderStyle
  3
ACDB_MLEADERSTYLE_CLASS
 90
     4095
280
     0
281
     0
  0
CLASS
  1
SUN
  2
AcDbSun
  3
SCENEOE
 90
     1153
280
     0
281
     0
  0
CLASS
  1
ACDBPLACEHOLDER
  2
AcDbPlaceHolder
  3
ObjectDBX Classes
 90
        0
280
     0
281
     0
  0
CLASS
  1
LAYOUT
  2
AcDbLayout
  3
ObjectDBX Classes
 90
        0
280
     0
281
     0
  0
ENDSEC
  0
SECTION
  2
TABLES
  0
TABLE
  2
VPORT
  5
8
330
0
100
AcDbSymbolTable
 70
     1
  0
VPORT
  5
29
330
8
100
AcDbSymbolTableRecord
100
AcDbViewportTableRecord
  2
*Active
 70
     0
 10
0.0
 20
0.0
 11
1.0
 21
1.0
 12
210.0
 22
148.5
 13
0.0
 23
0.0
 14
10.0
 24
10.0
 15
10.0
 25
10.0
 16
0.0
 26
0.0
 36
1.0
 17
0.0
 27
0.0
 37
0.0
 40
297.0
 41
1.4141414141
 42
50.0
 43
0.0
 44
0.0
 50
0.0
 51
0.0
 71
     0
 72
  2000
 73
     1
 74
     3
 75
     0
 76
     0
 77
     0
 78
     0
281
     0
 65
     1
110
0.0
120
0.0
130
0.0
111
1.0
121
0.0
131
0.0
112
0.0
122
1.0
132
0.0
 79
     0
146
0.0
  0
ENDTAB
  0
TABLE
  2
LTYPE
  5
5
330
0
100
AcDbSymbolTable
 70
     6
  0
LTYPE
  5
14
330
5
100
AcDbSymbolTableRecord
100
AcDbLinetypeTableRecord
  2
ByBlock
 70
     0
  3

 72
    65
 73
     0
 40
0.0
  0
LTYPE
  5
15
330
5
100
AcDbSymbolTableRecord
100
AcDbLinetypeTableRecord
  2
ByLayer
 70
     0
  3

 72
    65
 73
     0
 40
0.0
  0
LTYPE
  5
16
330
5
100
AcDbSymbolTableRecord
100
AcDbLinetypeTableRecord
  2
Continuous
 70
     0
  3
Solid line
 72
    65
 73
     0
 40
0.0
  0
LTYPE
  5
6E
330
5
100
AcDbSymbolTableRecord
100
AcDbLinetypeTableRecord
  2
HIDDEN
 70
     0
  3
Hidden __ __ __ __ __ __ __ __ __ __ __ __ __ __
 72
    65
 73
     2
 40
1.905
 49
1.27
 74
     0
 49
-0.635
 74
     0
  0
LTYPE
  5
6F
330
5
100
AcDbSymbolTableRecord
100
AcDbLinetypeTableRecord
  2
PHANTOM
 70
     0
  3
Phantom ______  __  __  ______  __  __  ______
 72
    65
 73
     6
 40
12.7
 49
6.35
 74
     0
 49
-1.27
 74
     0
 49
1.27
 74
     0
 49
-1.27
 74
     0
 49
1.27
 74
     0
 49
-1.27
 74
     0
  0
LTYPE
  5
70
330
5
100
AcDbSymbolTableRecord
100
AcDbLinetypeTableRecord
  2
CENTER
 70
     0
  3
Center ____ _ ____ _ ____ _ ____ _ ____ _ ____
 72
    65
 73
     4
 40
10.16
 49
6.35
 74
     0
 49
-1.27
 74
     0
 49
1.27
 74
     0
 49
-1.27
 74
     0
  0
LTYPE
  5
71
330
5
100
AcDbSymbolTableRecord
100
AcDbLinetypeTableRecord
  2
CENTERX2
 70
     0
  3
Center (2x) ________  __  ________  __  _____
 72
    65
 73
     4
 40
20.32
 49
12.7
 74
     0
 49
-2.54
 74
     0
 49
2.54
 74
     0
 49
-2.54
 74
     0
  0
LTYPE
  5
72
330
5
100
AcDbSymbolTableRecord
100
AcDbLinetypeTableRecord
  2
DOT2
 70
     0
  3
Dot (.5x) ........................................
 72
    65
 73
     2
 40
0.635
 49
0.0
 74
     0
 49
-0.635
 74
     0
  0
ENDTAB
  0
TABLE
  2
LAYER
  5
2
330
0
100
AcDbSymbolTable
 70
     5
  0
LAYER
  5
10
330
2
100
AcDbSymbolTableRecord
100
AcDbLayerTableRecord
  2
0
 70
     0
 62
     7
  6
Continuous
370
    -3
390
F
  0
LAYER
  5
73
330
2
100
AcDbSymbolTableRecord
100
AcDbLayerTableRecord
  2
SLD-0
 70
     0
 62
     7
  6
Continuous
370
    -3
390
F
  0
LAYER
  5
74
330
2
100
AcDbSymbolTableRecord
100
AcDbLayerTableRecord
  2
1
 70
     0
 62
     7
  6
Continuous
370
    -3
390
F
  0
LAYER
  5
75
330
2
100
AcDbSymbolTableRecord
100
AcDbLayerTableRecord
  2
2
 70
     0
 62
     7
  6
Continuous
370
    -3
390
F
  0
LAYER
  5
76
330
2
100
AcDbSymbolTableRecord
100
AcDbLayerTableRecord
  2
SLD-DEFPOINTS
 70
     0
 62
     7
  6
Continuous
290
     0
370
    -3
390
F
  0
ENDTAB
  0
TABLE
  2
STYLE
  5
3
330
0
100
AcDbSymbolTable
 70
    10
  0
STYLE
  5
11
330
3
100
AcDbSymbolTableRecord
100
AcDbTextStyleTableRecord
  2
Standard
 70
     0
 40
0.0
 41
1.0
 50
0.0
 71
     0
 42
3.5
  3
txt
  4
bigfont
  0
STYLE
  5
1C5
330
3
100
AcDbSymbolTableRecord
100
AcDbTextStyleTableRecord
  2
SLDTEXTSTYLE0
 70
     0
 40
0.0
 41
1.0
 50
0.0
 71
     0
 42
3.5
  3
TXT
  4
bigfont
  0
STYLE
  5
1D6
330
3
100
AcDbSymbolTableRecord
100
AcDbTextStyleTableRecord
  2
SLDTEXTSTYLE1
 70
     0
 40
0.0
 41
0.96
 50
0.0
 71
     0
 42
3.5
  3
TXT
  4
bigfont
  0
STYLE
  5
2C9
330
3
100
AcDbSymbolTableRecord
100
AcDbTextStyleTableRecord
  2
SLDTEXTSTYLE2
 70
     0
 40
0.0
 41
0.9999999787
 50
0.0
 71
     0
 42
3.5
  3
TXT
  4
bigfont
  0
STYLE
  5
2CD
330
3
100
AcDbSymbolTableRecord
100
AcDbTextStyleTableRecord
  2
SLDTEXTSTYLE3
 70
     0
 40
0.0
 41
0.6999999936
 50
0.0
 71
     0
 42
3.5
  3
TXT
  4
bigfont
  0
STYLE
  5
2D7
330
3
100
AcDbSymbolTableRecord
100
AcDbTextStyleTableRecord
  2
SLDTEXTSTYLE4
 70
     0
 40
0.0
 41
0.7000000362
 50
0.0
 71
     0
 42
3.5
  3
TXT
  4
bigfont
  0
STYLE
  5
2D9
330
3
100
AcDbSymbolTableRecord
100
AcDbTextStyleTableRecord
  2
SLDTEXTSTYLE5
 70
     0
 40
0.0
 41
0.7000000176
 50
0.0
 71
     0
 42
3.5
  3
TXT
  4
bigfont
  0
STYLE
  5
2DB
330
3
100
AcDbSymbolTableRecord
100
AcDbTextStyleTableRecord
  2
SLDTEXTSTYLE6
 70
     0
 40
0.0
 41
0.6999999741
 50
0.0
 71
     0
 42
3.5
  3
TXT
  4
bigfont
  0
STYLE
  5
2E0
330
3
100
AcDbSymbolTableRecord
100
AcDbTextStyleTableRecord
  2
SLDTEXTSTYLE7
 70
     0
 40
0.0
 41
1.0000000188
 50
0.0
 71
     0
 42
3.5
  3
TXT
  4
bigfont
  0
STYLE
  5
2F1
330
3
100
AcDbSymbolTableRecord
100
AcDbTextStyleTableRecord
  2
SLDTEXTSTYLE8
 70
     0
 40
0.0
 41
0.3054298643
 50
0.0
 71
     0
 42
3.5
  3
TXT
  4
bigfont
  0
ENDTAB
  0
TABLE
  2
VIEW
  5
6
330
0
100
AcDbSymbolTable
 70
     0
  0
ENDTAB
  0
TABLE
  2
UCS
  5
7
330
0
100
AcDbSymbolTable
 70
     0
  0
ENDTAB
  0
TABLE
  2
APPID
  5
9
330
0
100
AcDbSymbolTable
 70
     1
  0
APPID
  5
12
330
9
100
AcDbSymbolTableRecord
100
AcDbRegAppTableRecord
  2
ACAD
 70
     0
  0
ENDTAB
  0
TABLE
  2
DIMSTYLE
  5
A
330
0
100
AcDbSymbolTable
 70
     3
100
AcDbDimStyleTable
  0
DIMSTYLE
105
27
330
A
100
AcDbSymbolTableRecord
100
AcDbDimStyleTableRecord
  2
ISO-25
 70
     0
 41
2.5
 42
0.625
 43
3.75
 44
1.25
 73
     0
 74
     0
 77
     1
 78
     8
140
2.5
141
2.5
143
0.0393700787
147
0.625
171
     3
172
     1
178
     0
271
     2
272
     2
274
     3
278
    44
283
     0
284
     8
340
11
  0
DIMSTYLE
105
1C6
102
{ACAD_REACTORS
330
1C4
330
1D8
330
1E6
330
1F4
330
202
330
210
330
21E
330
22C
330
23A
330
248
330
256
330
264
330
272
330
280
330
290
330
29E
102
}
330
A
100
AcDbSymbolTableRecord
100
AcDbDimStyleTableRecord
  2
SLDDIMSTYLE0
 70
     0
 41
3.302
 44
0.0
 45
0.000000001
 73
     0
 74
     0
 77
     1
 78
    12
 79
     3
140
2.9104166031
147
0.7276041508
173
     1
178
     0
271
     0
276
     2
284
    12
340
1C5
341
1C7
343
1C7
344
1C7
  0
DIMSTYLE
105
2AD
102
{ACAD_REACTORS
330
2AC
330
2BB
102
}
330
A
100
AcDbSymbolTableRecord
100
AcDbDimStyleTableRecord
  2
SLDDIMSTYLE1
 70
     0
 41
3.302
 44
0.0
 45
0.000000001
 73
     0
 74
     0
 77
     1
 78
    12
 79
     3
140
2.9104166031
147
0.7276041508
173
     1
178
     0
271
     1
276
     2
284
    12
340
1C5
341
1C7
343
1C7
344
1C7
  0
ENDTAB
  0
TABLE
  2
BLOCK_RECORD
  5
1
330
0
100
AcDbSymbolTable
 70
    20
  0
BLOCK_RECORD
  5
1F
330
1
100
AcDbSymbolTableRecord
100
AcDbBlockTableRecord
  2
*Model_Space
340
22
  0
BLOCK_RECORD
  5
1B
330
1
100
AcDbSymbolTableRecord
100
AcDbBlockTableRecord
  2
*Paper_Space
340
1E
  0
BLOCK_RECORD
  5
1C7
330
1
100
AcDbSymbolTableRecord
100
AcDbBlockTableRecord
  2
_NONE
340
0
  0
BLOCK_RECORD
  5
1CA
330
1
100
AcDbSymbolTableRecord
100
AcDbBlockTableRecord
  2
_D
340
0
  0
BLOCK_RECORD
  5
1D9
330
1
100
AcDbSymbolTableRecord
100
AcDbBlockTableRecord
  2
_D_1
340
0
  0
BLOCK_RECORD
  5
1E7
330
1
100
AcDbSymbolTableRecord
100
AcDbBlockTableRecord
  2
_D_2
340
0
  0
BLOCK_RECORD
  5
1F5
330
1
100
AcDbSymbolTableRecord
100
AcDbBlockTableRecord
  2
_D_3
340
0
  0
BLOCK_RECORD
  5
203
330
1
100
AcDbSymbolTableRecord
100
AcDbBlockTableRecord
  2
_D_4
340
0
  0
BLOCK_RECORD
  5
211
330
1
100
AcDbSymbolTableRecord
100
AcDbBlockTableRecord
  2
_D_5
340
0
  0
BLOCK_RECORD
  5
21F
330
1
100
AcDbSymbolTableRecord
100
AcDbBlockTableRecord
  2
_D_6
340
0
  0
BLOCK_RECORD
  5
22D
330
1
100
AcDbSymbolTableRecord
100
AcDbBlockTableRecord
  2
_D_7
340
0
  0
BLOCK_RECORD
  5
23B
330
1
100
AcDbSymbolTableRecord
100
AcDbBlockTableRecord
  2
_D_8
340
0
  0
BLOCK_RECORD
  5
249
330
1
100
AcDbSymbolTableRecord
100
AcDbBlockTableRecord
  2
_D_9
340
0
  0
BLOCK_RECORD
  5
257
330
1
100
AcDbSymbolTableRecord
100
AcDbBlockTableRecord
  2
_D_10
340
0
  0
BLOCK_RECORD
  5
265
330
1
100
AcDbSymbolTableRecord
100
AcDbBlockTableRecord
  2
_D_11
340
0
  0
BLOCK_RECORD
  5
273
330
1
100
AcDbSymbolTableRecord
100
AcDbBlockTableRecord
  2
_D_12
340
0
  0
BLOCK_RECORD
  5
281
330
1
100
AcDbSymbolTableRecord
100
AcDbBlockTableRecord
  2
_D_13
340
0
  0
BLOCK_RECORD
  5
291
330
1
100
AcDbSymbolTableRecord
100
AcDbBlockTableRecord
  2
_D_14
340
0
  0
BLOCK_RECORD
  5
29F
330
1
100
AcDbSymbolTableRecord
100
AcDbBlockTableRecord
  2
_D_15
340
0
  0
BLOCK_RECORD
  5
2AE
330
1
100
AcDbSymbolTableRecord
100
AcDbBlockTableRecord
  2
_D_16
340
0
  0
BLOCK_RECORD
  5
2BC
330
1
100
AcDbSymbolTableRecord
100
AcDbBlockTableRecord
  2
_D_17
340
0
  0
ENDTAB
  0
ENDSEC
  0
SECTION
  2
BLOCKS
  0
BLOCK
  5
20
330
1F
100
AcDbEntity
  8
0
100
AcDbBlockBegin
  2
*Model_Space
 70
     0
 10
0.0
 20
0.0
 30
0.0
  3
*Model_Space
  1

  0
ENDBLK
  5
21
330
1F
100
AcDbEntity
  8
0
100
AcDbBlockEnd
  0
BLOCK
  5
1C
330
1B
100
AcDbEntity
 67
     1
  8
0
100
AcDbBlockBegin
  2
*Paper_Space
 70
     0
 10
0.0
 20
0.0
 30
0.0
  3
*Paper_Space
  1

  0
ENDBLK
  5
1D
330
1B
100
AcDbEntity
 67
     1
  8
0
100
AcDbBlockEnd
  0
BLOCK
  5
1C8
330
1C7
100
AcDbEntity
  8
0
100
AcDbBlockBegin
  2
_NONE
 70
     0
 10
0.0
 20
0.0
 30
0.0
  3
_NONE
  1

  0
ENDBLK
  5
1C9
330
1C7
100
AcDbEntity
  8
0
100
AcDbBlockEnd
  0
BLOCK
  5
1CB
330
1CA
100
AcDbEntity
  8
0
100
AcDbBlockBegin
  2
_D
 70
     0
 10
0.0
 20
0.0
 30
0.0
  3
_D
  1

  0
LINE
  5
1CD
330
1CA
100
AcDbEntity
  8
SLD-0
 62
     7
100
AcDbLine
 10
135.4265081027
 20
173.6119508718
 30
0.0
 11
189.4265081929
 21
173.6119508718
 31
0.0
  0
LINE
  5
1CE
330
1CA
100
AcDbEntity
  8
SLD-0
 62
     7
100
AcDbLine
 10
132.4265081478
 20
173.6119508718
 30
0.0
 11
135.4265081027
 21
174.6119508568
 31
0.0
  0
LINE
  5
1CF
330
1CA
100
AcDbEntity
  8
SLD-0
 62
     7
100
AcDbLine
 10
132.4265081478
 20
173.6119508718
 30
0.0
 11
135.4265081027
 21
172.6119508868
 31
0.0
  0
LINE
  5
1D0
330
1CA
100
AcDbEntity
  8
SLD-0
 62
     7
100
AcDbLine
 10
132.4265081478
 20
173.6119508718
 30
0.0
 11
135.4265081027
 21
173.6119508718
 31
0.0
  0
LINE
  5
1D1
330
1CA
100
AcDbEntity
  8
SLD-0
 62
     7
100
AcDbLine
 10
192.4265081478
 20
173.6119508718
 30
0.0
 11
189.4265081929
 21
172.6119508868
 31
0.0
  0
LINE
  5
1D2
330
1CA
100
AcDbEntity
  8
SLD-0
 62
     7
100
AcDbLine
 10
192.4265081478
 20
173.6119508718
 30
0.0
 11
189.4265081929
 21
174.6119508568
 31
0.0
  0
LINE
  5
1D3
330
1CA
100
AcDbEntity
  8
SLD-0
 62
     7
100
AcDbLine
 10
192.4265081478
 20
173.6119508718
 30
0.0
 11
189.4265081929
 21
173.6119508718
 31
0.0
  0
LINE
  5
1D4
330
1CA
100
AcDbEntity
  8
SLD-0
 62
     7
100
AcDbLine
 10
132.4265081478
 20
150.2058854309
 30
0.0
 11
132.4265081478
 21
175.1119508718
 31
0.0
  0
LINE
  5
1D5
330
1CA
100
AcDbEntity
  8
SLD-0
 62
     7
100
AcDbLine
 10
192.4265081478
 20
150.2058854309
 30
0.0
 11
192.4265081478
 21
175.1119508718
 31
0.0
  0
MTEXT
  5
1D7
330
1CA
100
AcDbEntity
  8
SLD-0
 62
     7
100
AcDbMText
 10
159.9317355348
 20
177.031803662
 30
0.0
 40
2.9104166031
 41
0.0
 71
     1
 72
     1
  1
60
  7
SLDTEXTSTYLE1
 73
     1
 44
1.0
  0
ENDBLK
  5
1CC
330
1CA
100
AcDbEntity
  8
0
100
AcDbBlockEnd
  0
BLOCK
  5
1DA
330
1D9
100
AcDbEntity
  8
0
100
AcDbBlockBegin
  2
_D_1
 70
     0
 10
0.0
 20
0.0
 30
0.0
  3
_D_1
  1

  0
LINE
  5
1DC
330
1D9
100
AcDbEntity
  8
SLD-0
 62
     7
100
AcDbLine
 10
106.4265081027
 20
181.6058854534
 30
0.0
 11
218.4265081929
 21
181.6058854534
 31
0.0
  0
LINE
  5
1DD
330
1D9
100
AcDbEntity
  8
SLD-0
 62
     7
100
AcDbLine
 10
103.4265081478
 20
181.6058854534
 30
0.0
 11
106.4265081027
 21
182.6058854384
 31
0.0
  0
LINE
  5
1DE
330
1D9
100
AcDbEntity
  8
SLD-0
 62
     7
100
AcDbLine
 10
103.4265081478
 20
181.6058854534
 30
0.0
 11
106.4265081027
 21
180.6058854684
 31
0.0
  0
LINE
  5
1DF
330
1D9
100
AcDbEntity
  8
SLD-0
 62
     7
100
AcDbLine
 10
103.4265081478
 20
181.6058854534
 30
0.0
 11
106.4265081027
 21
181.6058854534
 31
0.0
  0
LINE
  5
1E0
330
1D9
100
AcDbEntity
  8
SLD-0
 62
     7
100
AcDbLine
 10
221.4265081478
 20
181.6058854534
 30
0.0
 11
218.4265081929
 21
180.6058854684
 31
0.0
  0
LINE
  5
1E1
330
1D9
100
AcDbEntity
  8
SLD-0
 62
     7
100
AcDbLine
 10
221.4265081478
 20
181.6058854534
 30
0.0
 11
218.4265081929
 21
182.6058854384
 31
0.0
  0
LINE
  5
1E2
330
1D9
100
AcDbEntity
  8
SLD-0
 62
     7
100
AcDbLine
 10
221.4265081478
 20
181.6058854534
 30
0.0
 11
218.4265081929
 21
181.6058854534
 31
0.0
  0
LINE
  5
1E3
330
1D9
100
AcDbEntity
  8
SLD-0
 62
     7
100
AcDbLine
 10
103.4265081478
 20
166.1058854309
 30
0.0
 11
103.4265081478
 21
183.1058854534
 31
0.0
  0
LINE
  5
1E4
330
1D9
100
AcDbEntity
  8
SLD-0
 62
     7
100
AcDbLine
 10
221.4265081478
 20
166.1058854309
 30
0.0
 11
221.4265081478
 21
183.1058854534
 31
0.0
  0
MTEXT
  5
1E5
330
1D9
100
AcDbEntity
  8
SLD-0
 62
     7
100
AcDbMText
 10
158.4765272928
 20
185.0257382436
 30
0.0
 40
2.9104166031
 41
0.0
 71
     1
 72
     1
  1
118
  7
SLDTEXTSTYLE1
 73
     1
 44
1.0
  0
ENDBLK
  5
1DB
330
1D9
100
AcDbEntity
  8
0
100
AcDbBlockEnd
  0
BLOCK
  5
1E8
330
1E7
100
AcDbEntity
  8
0
100
AcDbBlockBegin
  2
_D_2
 70
     0
 10
0.0
 20
0.0
 30
0.0
  3
_D_2
  1

  0
LINE
  5
1EA
330
1E7
100
AcDbEntity
  8
SLD-0
 62
     7
100
AcDbLine
 10
105.4265081027
 20
47.701734048
 30
0.0
 11
219.4265081929
 21
47.701734048
 31
0.0
  0
LINE
  5
1EB
330
1E7
100
AcDbEntity
  8
SLD-0
 62
     7
100
AcDbLine
 10
102.4265081478
 20
47.701734048
 30
0.0
 11
105.4265081027
 21
48.701734033
 31
0.0
  0
LINE
  5
1EC
330
1E7
100
AcDbEntity
  8
SLD-0
 62
     7
100
AcDbLine
 10
102.4265081478
 20
47.701734048
 30
0.0
 11
105.4265081027
 21
46.701734063
 31
0.0
  0
LINE
  5
1ED
330
1E7
100
AcDbEntity
  8
SLD-0
 62
     7
100
AcDbLine
 10
102.4265081478
 20
47.701734048
 30
0.0
 11
105.4265081027
 21
47.701734048
 31
0.0
  0
LINE
  5
1EE
330
1E7
100
AcDbEntity
  8
SLD-0
 62
     7
100
AcDbLine
 10
222.4265081478
 20
47.701734048
 30
0.0
 11
219.4265081929
 21
46.701734063
 31
0.0
  0
LINE
  5
1EF
330
1E7
100
AcDbEntity
  8
SLD-0
 62
     7
100
AcDbLine
 10
222.4265081478
 20
47.701734048
 30
0.0
 11
219.4265081929
 21
48.701734033
 31
0.0
  0
LINE
  5
1F0
330
1E7
100
AcDbEntity
  8
SLD-0
 62
     7
100
AcDbLine
 10
222.4265081478
 20
47.701734048
 30
0.0
 11
219.4265081929
 21
47.701734048
 31
0.0
  0
LINE
  5
1F1
330
1E7
100
AcDbEntity
  8
SLD-0
 62
     7
100
AcDbLine
 10
102.4265081478
 20
84.1058854759
 30
0.0
 11
102.4265081478
 21
46.201734048
 31
0.0
  0
LINE
  5
1F2
330
1E7
100
AcDbEntity
  8
SLD-0
 62
     7
100
AcDbLine
 10
222.4265081478
 20
84.1058854759
 30
0.0
 11
222.4265081478
 21
46.201734048
 31
0.0
  0
MTEXT
  5
1F3
330
1E7
100
AcDbEntity
  8
SLD-0
 62
     7
100
AcDbMText
 10
158.4765272928
 20
51.1215868382
 30
0.0
 40
2.9104166031
 41
0.0
 71
     1
 72
     1
  1
120
  7
SLDTEXTSTYLE1
 73
     1
 44
1.0
  0
ENDBLK
  5
1E9
330
1E7
100
AcDbEntity
  8
0
100
AcDbBlockEnd
  0
BLOCK
  5
1F6
330
1F5
100
AcDbEntity
  8
0
100
AcDbBlockBegin
  2
_D_3
 70
     0
 10
0.0
 20
0.0
 30
0.0
  3
_D_3
  1

  0
LINE
  5
1F8
330
1F5
100
AcDbEntity
  8
SLD-0
 62
     7
100
AcDbLine
 10
80.4265081027
 20
47.701734048
 30
0.0
 11
99.4265081929
 21
47.701734048
 31
0.0
  0
LINE
  5
1F9
330
1F5
100
AcDbEntity
  8
SLD-0
 62
     7
100
AcDbLine
 10
77.4265081478
 20
47.701734048
 30
0.0
 11
80.4265081027
 21
48.701734033
 31
0.0
  0
LINE
  5
1FA
330
1F5
100
AcDbEntity
  8
SLD-0
 62
     7
100
AcDbLine
 10
77.4265081478
 20
47.701734048
 30
0.0
 11
80.4265081027
 21
46.701734063
 31
0.0
  0
LINE
  5
1FB
330
1F5
100
AcDbEntity
  8
SLD-0
 62
     7
100
AcDbLine
 10
77.4265081478
 20
47.701734048
 30
0.0
 11
80.4265081027
 21
47.701734048
 31
0.0
  0
LINE
  5
1FC
330
1F5
100
AcDbEntity
  8
SLD-0
 62
     7
100
AcDbLine
 10
102.4265081478
 20
47.701734048
 30
0.0
 11
99.4265081929
 21
46.701734063
 31
0.0
  0
LINE
  5
1FD
330
1F5
100
AcDbEntity
  8
SLD-0
 62
     7
100
AcDbLine
 10
102.4265081478
 20
47.701734048
 30
0.0
 11
99.4265081929
 21
48.701734033
 31
0.0
  0
LINE
  5
1FE
330
1F5
100
AcDbEntity
  8
SLD-0
 62
     7
100
AcDbLine
 10
102.4265081478
 20
47.701734048
 30
0.0
 11
99.4265081929
 21
47.701734048
 31
0.0
  0
LINE
  5
1FF
330
1F5
100
AcDbEntity
  8
SLD-0
 62
     7
100
AcDbLine
 10
77.4265081478
 20
59.1058854759
 30
0.0
 11
77.4265081478
 21
46.201734048
 31
0.0
  0
LINE
  5
200
330
1F5
100
AcDbEntity
  8
SLD-0
 62
     7
100
AcDbLine
 10
102.4265081478
 20
84.1058854759
 30
0.0
 11
102.4265081478
 21
46.201734048
 31
0.0
  0
MTEXT
  5
201
330
1F5
100
AcDbEntity
  8
SLD-0
 62
     7
100
AcDbMText
 10
87.4317355348
 20
51.1215868382
 30
0.0
 40
2.9104166031
 41
0.0
 71
     1
 72
     1
  1
25
  7
SLDTEXTSTYLE1
 73
     1
 44
1.0
  0
ENDBLK
  5
1F7
330
1F5
100
AcDbEntity
  8
0
100
AcDbBlockEnd
  0
BLOCK
  5
204
330
203
100
AcDbEntity
  8
0
100
AcDbBlockBegin
  2
_D_4
 70
     0
 10
0.0
 20
0.0
 30
0.0
  3
_D_4
  1

  0
LINE
  5
206
330
203
100
AcDbEntity
  8
SLD-0
 62
     7
100
AcDbLine
 10
225.4265081027
 20
47.701734048
 30
0.0
 11
244.4265081929
 21
47.701734048
 31
0.0
  0
LINE
  5
207
330
203
100
AcDbEntity
  8
SLD-0
 62
     7
100
AcDbLine
 10
222.4265081478
 20
47.701734048
 30
0.0
 11
225.4265081027
 21
48.701734033
 31
0.0
  0
LINE
  5
208
330
203
100
AcDbEntity
  8
SLD-0
 62
     7
100
AcDbLine
 10
222.4265081478
 20
47.701734048
 30
0.0
 11
225.4265081027
 21
46.701734063
 31
0.0
  0
LINE
  5
209
330
203
100
AcDbEntity
  8
SLD-0
 62
     7
100
AcDbLine
 10
222.4265081478
 20
47.701734048
 30
0.0
 11
225.4265081027
 21
47.701734048
 31
0.0
  0
LINE
  5
20A
330
203
100
AcDbEntity
  8
SLD-0
 62
     7
100
AcDbLine
 10
247.4265081478
 20
47.701734048
 30
0.0
 11
244.4265081929
 21
46.701734063
 31
0.0
  0
LINE
  5
20B
330
203
100
AcDbEntity
  8
SLD-0
 62
     7
100
AcDbLine
 10
247.4265081478
 20
47.701734048
 30
0.0
 11
244.4265081929
 21
48.701734033
 31
0.0
  0
LINE
  5
20C
330
203
100
AcDbEntity
  8
SLD-0
 62
     7
100
AcDbLine
 10
247.4265081478
 20
47.701734048
 30
0.0
 11
244.4265081929
 21
47.701734048
 31
0.0
  0
LINE
  5
20D
330
203
100
AcDbEntity
  8
SLD-0
 62
     7
100
AcDbLine
 10
222.4265081478
 20
84.1058854759
 30
0.0
 11
222.4265081478
 21
46.201734048
 31
0.0
  0
LINE
  5
20E
330
203
100
AcDbEntity
  8
SLD-0
 62
     7
100
AcDbLine
 10
247.4265081478
 20
59.1058854759
 30
0.0
 11
247.4265081478
 21
46.201734048
 31
0.0
  0
MTEXT
  5
20F
330
203
100
AcDbEntity
  8
SLD-0
 62
     7
100
AcDbMText
 10
232.4317355348
 20
51.1215868382
 30
0.0
 40
2.9104166031
 41
0.0
 71
     1
 72
     1
  1
25
  7
SLDTEXTSTYLE1
 73
     1
 44
1.0
  0
ENDBLK
  5
205
330
203
100
AcDbEntity
  8
0
100
AcDbBlockEnd
  0
BLOCK
  5
212
330
211
100
AcDbEntity
  8
0
100
AcDbBlockBegin
  2
_D_5
 70
     0
 10
0.0
 20
0.0
 30
0.0
  3
_D_5
  1

  0
LINE
  5
214
330
211
100
AcDbEntity
  8
SLD-0
 62
     7
100
AcDbLine
 10
80.4265081027
 20
40.1658854534
 30
0.0
 11
244.4265081929
 21
40.1658854534
 31
0.0
  0
LINE
  5
215
330
211
100
AcDbEntity
  8
SLD-0
 62
     7
100
AcDbLine
 10
77.4265081478
 20
40.1658854534
 30
0.0
 11
80.4265081027
 21
41.1658854384
 31
0.0
  0
LINE
  5
216
330
211
100
AcDbEntity
  8
SLD-0
 62
     7
100
AcDbLine
 10
77.4265081478
 20
40.1658854534
 30
0.0
 11
80.4265081027
 21
39.1658854684
 31
0.0
  0
LINE
  5
217
330
211
100
AcDbEntity
  8
SLD-0
 62
     7
100
AcDbLine
 10
77.4265081478
 20
40.1658854534
 30
0.0
 11
80.4265081027
 21
40.1658854534
 31
0.0
  0
LINE
  5
218
330
211
100
AcDbEntity
  8
SLD-0
 62
     7
100
AcDbLine
 10
247.4265081478
 20
40.1658854534
 30
0.0
 11
244.4265081929
 21
39.1658854684
 31
0.0
  0
LINE
  5
219
330
211
100
AcDbEntity
  8
SLD-0
 62
     7
100
AcDbLine
 10
247.4265081478
 20
40.1658854534
 30
0.0
 11
244.4265081929
 21
41.1658854384
 31
0.0
  0
LINE
  5
21A
330
211
100
AcDbEntity
  8
SLD-0
 62
     7
100
AcDbLine
 10
247.4265081478
 20
40.1658854534
 30
0.0
 11
244.4265081929
 21
40.1658854534
 31
0.0
  0
LINE
  5
21B
330
211
100
AcDbEntity
  8
SLD-0
 62
     7
100
AcDbLine
 10
77.4265081478
 20
59.1058854759
 30
0.0
 11
77.4265081478
 21
38.6658854534
 31
0.0
  0
LINE
  5
21C
330
211
100
AcDbEntity
  8
SLD-0
 62
     7
100
AcDbLine
 10
247.4265081478
 20
59.1058854759
 30
0.0
 11
247.4265081478
 21
38.6658854534
 31
0.0
  0
MTEXT
  5
21D
330
211
100
AcDbEntity
  8
SLD-0
 62
     7
100
AcDbMText
 10
158.4765272928
 20
43.5857382436
 30
0.0
 40
2.9104166031
 41
0.0
 71
     1
 72
     1
  1
170
  7
SLDTEXTSTYLE1
 73
     1
 44
1.0
  0
ENDBLK
  5
213
330
211
100
AcDbEntity
  8
0
100
AcDbBlockEnd
  0
BLOCK
  5
220
330
21F
100
AcDbEntity
  8
0
100
AcDbBlockBegin
  2
_D_6
 70
     0
 10
0.0
 20
0.0
 30
0.0
  3
_D_6
  1

  0
LINE
  5
222
330
21F
100
AcDbEntity
  8
SLD-0
 62
     7
100
AcDbLine
 10
275.5267053483
 20
58.6058854083
 30
0.0
 11
275.5267053483
 21
162.6058854985
 31
0.0
  0
LINE
  5
223
330
21F
100
AcDbEntity
  8
SLD-0
 62
     7
100
AcDbLine
 10
275.5267053483
 20
55.6058854534
 30
0.0
 11
274.5267053633
 21
58.6058854083
 31
0.0
  0
LINE
  5
224
330
21F
100
AcDbEntity
  8
SLD-0
 62
     7
100
AcDbLine
 10
275.5267053483
 20
55.6058854534
 30
0.0
 11
276.5267053333
 21
58.6058854083
 31
0.0
  0
LINE
  5
225
330
21F
100
AcDbEntity
  8
SLD-0
 62
     7
100
AcDbLine
 10
275.5267053483
 20
55.6058854534
 30
0.0
 11
275.5267053483
 21
58.6058854083
 31
0.0
  0
LINE
  5
226
330
21F
100
AcDbEntity
  8
SLD-0
 62
     7
100
AcDbLine
 10
275.5267053483
 20
165.6058854534
 30
0.0
 11
276.5267053333
 21
162.6058854985
 31
0.0
  0
LINE
  5
227
330
21F
100
AcDbEntity
  8
SLD-0
 62
     7
100
AcDbLine
 10
275.5267053483
 20
165.6058854534
 30
0.0
 11
274.5267053633
 21
162.6058854985
 31
0.0
  0
LINE
  5
228
330
21F
100
AcDbEntity
  8
SLD-0
 62
     7
100
AcDbLine
 10
275.5267053483
 20
165.6058854534
 30
0.0
 11
275.5267053483
 21
162.6058854985
 31
0.0
  0
LINE
  5
229
330
21F
100
AcDbEntity
  8
SLD-0
 62
     7
100
AcDbLine
 10
243.9265081253
 20
55.6058854534
 30
0.0
 11
277.0267053483
 21
55.6058854534
 31
0.0
  0
LINE
  5
22A
330
21F
100
AcDbEntity
  8
SLD-0
 62
     7
100
AcDbLine
 10
247.9265081253
 20
165.6058854534
 30
0.0
 11
277.0267053483
 21
165.6058854534
 31
0.0
  0
MTEXT
  5
22B
330
21F
100
AcDbEntity
  8
SLD-0
 62
     7
100
AcDbMText
 10
272.1068525581
 20
106.6559045984
 30
0.0
 40
2.9104166031
 41
0.0
 71
     1
 72
     1
  1
110
  7
SLDTEXTSTYLE1
 11
-3.828568698926949E-16
 21
1.0
 31
0.0
 73
     1
 44
1.0
  0
ENDBLK
  5
221
330
21F
100
AcDbEntity
  8
0
100
AcDbBlockEnd
  0
BLOCK
  5
22E
330
22D
100
AcDbEntity
  8
0
100
AcDbBlockBegin
  2
_D_7
 70
     0
 10
0.0
 20
0.0
 30
0.0
  3
_D_7
  1

  0
LINE
  5
230
330
22D
100
AcDbEntity
  8
SLD-0
 62
     7
100
AcDbLine
 10
264.9267053483
 20
83.6058854083
 30
0.0
 11
264.9267053483
 21
162.6058854985
 31
0.0
  0
LINE
  5
231
330
22D
100
AcDbEntity
  8
SLD-0
 62
     7
100
AcDbLine
 10
264.9267053483
 20
80.6058854534
 30
0.0
 11
263.9267053633
 21
83.6058854083
 31
0.0
  0
LINE
  5
232
330
22D
100
AcDbEntity
  8
SLD-0
 62
     7
100
AcDbLine
 10
264.9267053483
 20
80.6058854534
 30
0.0
 11
265.9267053333
 21
83.6058854083
 31
0.0
  0
LINE
  5
233
330
22D
100
AcDbEntity
  8
SLD-0
 62
     7
100
AcDbLine
 10
264.9267053483
 20
80.6058854534
 30
0.0
 11
264.9267053483
 21
83.6058854083
 31
0.0
  0
LINE
  5
234
330
22D
100
AcDbEntity
  8
SLD-0
 62
     7
100
AcDbLine
 10
264.9267053483
 20
165.6058854534
 30
0.0
 11
265.9267053333
 21
162.6058854985
 31
0.0
  0
LINE
  5
235
330
22D
100
AcDbEntity
  8
SLD-0
 62
     7
100
AcDbLine
 10
264.9267053483
 20
165.6058854534
 30
0.0
 11
263.9267053633
 21
162.6058854985
 31
0.0
  0
LINE
  5
236
330
22D
100
AcDbEntity
  8
SLD-0
 62
     7
100
AcDbLine
 10
264.9267053483
 20
165.6058854534
 30
0.0
 11
264.9267053483
 21
162.6058854985
 31
0.0
  0
LINE
  5
237
330
22D
100
AcDbEntity
  8
SLD-0
 62
     7
100
AcDbLine
 10
218.9265081253
 20
80.6058854534
 30
0.0
 11
266.4267053483
 21
80.6058854534
 31
0.0
  0
LINE
  5
238
330
22D
100
AcDbEntity
  8
SLD-0
 62
     7
100
AcDbLine
 10
247.9265081253
 20
165.6058854534
 30
0.0
 11
266.4267053483
 21
165.6058854534
 31
0.0
  0
MTEXT
  5
239
330
22D
100
AcDbEntity
  8
SLD-0
 62
     7
100
AcDbMText
 10
261.5068525581
 20
120.6111128404
 30
0.0
 40
2.9104166031
 41
0.0
 71
     1
 72
     1
  1
85
  7
SLDTEXTSTYLE1
 11
-3.828568698926949E-16
 21
1.0
 31
0.0
 73
     1
 44
1.0
  0
ENDBLK
  5
22F
330
22D
100
AcDbEntity
  8
0
100
AcDbBlockEnd
  0
BLOCK
  5
23C
330
23B
100
AcDbEntity
  8
0
100
AcDbBlockBegin
  2
_D_8
 70
     0
 10
0.0
 20
0.0
 30
0.0
  3
_D_8
  1

  0
LINE
  5
23E
330
23B
100
AcDbEntity
  8
SLD-0
 62
     7
100
AcDbLine
 10
254.4460563673
 20
128.6058854083
 30
0.0
 11
254.4460563673
 21
162.6058854985
 31
0.0
  0
LINE
  5
23F
330
23B
100
AcDbEntity
  8
SLD-0
 62
     7
100
AcDbLine
 10
254.4460563673
 20
125.6058854534
 30
0.0
 11
253.4460563823
 21
128.6058854083
 31
0.0
  0
LINE
  5
240
330
23B
100
AcDbEntity
  8
SLD-0
 62
     7
100
AcDbLine
 10
254.4460563673
 20
125.6058854534
 30
0.0
 11
255.4460563523
 21
128.6058854083
 31
0.0
  0
LINE
  5
241
330
23B
100
AcDbEntity
  8
SLD-0
 62
     7
100
AcDbLine
 10
254.4460563673
 20
125.6058854534
 30
0.0
 11
254.4460563673
 21
128.6058854083
 31
0.0
  0
LINE
  5
242
330
23B
100
AcDbEntity
  8
SLD-0
 62
     7
100
AcDbLine
 10
254.4460563673
 20
165.6058854534
 30
0.0
 11
255.4460563523
 21
162.6058854985
 31
0.0
  0
LINE
  5
243
330
23B
100
AcDbEntity
  8
SLD-0
 62
     7
100
AcDbLine
 10
254.4460563673
 20
165.6058854534
 30
0.0
 11
253.4460563823
 21
162.6058854985
 31
0.0
  0
LINE
  5
244
330
23B
100
AcDbEntity
  8
SLD-0
 62
     7
100
AcDbLine
 10
254.4460563673
 20
165.6058854534
 30
0.0
 11
254.4460563673
 21
162.6058854985
 31
0.0
  0
LINE
  5
245
330
23B
100
AcDbEntity
  8
SLD-0
 62
     7
100
AcDbLine
 10
221.9265081253
 20
125.6058854534
 30
0.0
 11
255.9460563673
 21
125.6058854534
 31
0.0
  0
LINE
  5
246
330
23B
100
AcDbEntity
  8
SLD-0
 62
     7
100
AcDbLine
 10
247.9265081253
 20
165.6058854534
 30
0.0
 11
255.9460563673
 21
165.6058854534
 31
0.0
  0
MTEXT
  5
247
330
23B
100
AcDbEntity
  8
SLD-0
 62
     7
100
AcDbMText
 10
251.0262035771
 20
143.1111128404
 30
0.0
 40
2.9104166031
 41
0.0
 71
     1
 72
     1
  1
40
  7
SLDTEXTSTYLE1
 11
-3.828568698926949E-16
 21
1.0
 31
0.0
 73
     1
 44
1.0
  0
ENDBLK
  5
23D
330
23B
100
AcDbEntity
  8
0
100
AcDbBlockEnd
  0
BLOCK
  5
24A
330
249
100
AcDbEntity
  8
0
100
AcDbBlockBegin
  2
_D_9
 70
     0
 10
0.0
 20
0.0
 30
0.0
  3
_D_9
  1

  0
LINE
  5
24C
330
249
100
AcDbEntity
  8
SLD-0
 62
     7
100
AcDbLine
 10
254.4460563673
 20
122.6058854985
 30
0.0
 11
254.4460563673
 21
83.6058854083
 31
0.0
  0
LINE
  5
24D
330
249
100
AcDbEntity
  8
SLD-0
 62
     7
100
AcDbLine
 10
254.4460563673
 20
125.6058854534
 30
0.0
 11
255.4460563523
 21
122.6058854985
 31
0.0
  0
LINE
  5
24E
330
249
100
AcDbEntity
  8
SLD-0
 62
     7
100
AcDbLine
 10
254.4460563673
 20
125.6058854534
 30
0.0
 11
253.4460563823
 21
122.6058854985
 31
0.0
  0
LINE
  5
24F
330
249
100
AcDbEntity
  8
SLD-0
 62
     7
100
AcDbLine
 10
254.4460563673
 20
125.6058854534
 30
0.0
 11
254.4460563673
 21
122.6058854985
 31
0.0
  0
LINE
  5
250
330
249
100
AcDbEntity
  8
SLD-0
 62
     7
100
AcDbLine
 10
254.4460563673
 20
80.6058854534
 30
0.0
 11
253.4460563823
 21
83.6058854083
 31
0.0
  0
LINE
  5
251
330
249
100
AcDbEntity
  8
SLD-0
 62
     7
100
AcDbLine
 10
254.4460563673
 20
80.6058854534
 30
0.0
 11
255.4460563523
 21
83.6058854083
 31
0.0
  0
LINE
  5
252
330
249
100
AcDbEntity
  8
SLD-0
 62
     7
100
AcDbLine
 10
254.4460563673
 20
80.6058854534
 30
0.0
 11
254.4460563673
 21
83.6058854083
 31
0.0
  0
LINE
  5
253
330
249
100
AcDbEntity
  8
SLD-0
 62
     7
100
AcDbLine
 10
221.9265081253
 20
125.6058854534
 30
0.0
 11
255.9460563673
 21
125.6058854534
 31
0.0
  0
LINE
  5
254
330
249
100
AcDbEntity
  8
SLD-0
 62
     7
100
AcDbLine
 10
218.9265081253
 20
80.6058854534
 30
0.0
 11
255.9460563673
 21
80.6058854534
 31
0.0
  0
MTEXT
  5
255
330
249
100
AcDbEntity
  8
SLD-0
 62
     7
100
AcDbMText
 10
251.0262035771
 20
100.6111128404
 30
0.0
 40
2.9104166031
 41
0.0
 71
     1
 72
     1
  1
45
  7
SLDTEXTSTYLE1
 11
-3.828568698926949E-16
 21
1.0
 31
0.0
 73
     1
 44
1.0
  0
ENDBLK
  5
24B
330
249
100
AcDbEntity
  8
0
100
AcDbBlockEnd
  0
BLOCK
  5
258
330
257
100
AcDbEntity
  8
0
100
AcDbBlockBegin
  2
_D_10
 70
     0
 10
0.0
 20
0.0
 30
0.0
  3
_D_10
  1

  0
LINE
  5
25A
330
257
100
AcDbEntity
  8
SLD-0
 62
     7
100
AcDbLine
 10
264.9267053483
 20
77.6058854985
 30
0.0
 11
264.9267053483
 21
58.6058854083
 31
0.0
  0
LINE
  5
25B
330
257
100
AcDbEntity
  8
SLD-0
 62
     7
100
AcDbLine
 10
264.9267053483
 20
80.6058854534
 30
0.0
 11
265.9267053333
 21
77.6058854985
 31
0.0
  0
LINE
  5
25C
330
257
100
AcDbEntity
  8
SLD-0
 62
     7
100
AcDbLine
 10
264.9267053483
 20
80.6058854534
 30
0.0
 11
263.9267053633
 21
77.6058854985
 31
0.0
  0
LINE
  5
25D
330
257
100
AcDbEntity
  8
SLD-0
 62
     7
100
AcDbLine
 10
264.9267053483
 20
80.6058854534
 30
0.0
 11
264.9267053483
 21
77.6058854985
 31
0.0
  0
LINE
  5
25E
330
257
100
AcDbEntity
  8
SLD-0
 62
     7
100
AcDbLine
 10
264.9267053483
 20
55.6058854534
 30
0.0
 11
263.9267053633
 21
58.6058854083
 31
0.0
  0
LINE
  5
25F
330
257
100
AcDbEntity
  8
SLD-0
 62
     7
100
AcDbLine
 10
264.9267053483
 20
55.6058854534
 30
0.0
 11
265.9267053333
 21
58.6058854083
 31
0.0
  0
LINE
  5
260
330
257
100
AcDbEntity
  8
SLD-0
 62
     7
100
AcDbLine
 10
264.9267053483
 20
55.6058854534
 30
0.0
 11
264.9267053483
 21
58.6058854083
 31
0.0
  0
LINE
  5
261
330
257
100
AcDbEntity
  8
SLD-0
 62
     7
100
AcDbLine
 10
218.9265081253
 20
80.6058854534
 30
0.0
 11
266.4267053483
 21
80.6058854534
 31
0.0
  0
LINE
  5
262
330
257
100
AcDbEntity
  8
SLD-0
 62
     7
100
AcDbLine
 10
243.9265081253
 20
55.6058854534
 30
0.0
 11
266.4267053483
 21
55.6058854534
 31
0.0
  0
MTEXT
  5
263
330
257
100
AcDbEntity
  8
SLD-0
 62
     7
100
AcDbMText
 10
261.5068525581
 20
65.6111128404
 30
0.0
 40
2.9104166031
 41
0.0
 71
     1
 72
     1
  1
25
  7
SLDTEXTSTYLE1
 11
-3.828568698926949E-16
 21
1.0
 31
0.0
 73
     1
 44
1.0
  0
ENDBLK
  5
259
330
257
100
AcDbEntity
  8
0
100
AcDbBlockEnd
  0
BLOCK
  5
266
330
265
100
AcDbEntity
  8
0
100
AcDbBlockBegin
  2
_D_11
 70
     0
 10
0.0
 20
0.0
 30
0.0
  3
_D_11
  1

  0
LINE
  5
268
330
265
100
AcDbEntity
  8
SLD-0
 62
     7
100
AcDbLine
 10
61.4265081478
 20
146.6058854083
 30
0.0
 11
61.4265081478
 21
162.6058854985
 31
0.0
  0
LINE
  5
269
330
265
100
AcDbEntity
  8
SLD-0
 62
     7
100
AcDbLine
 10
61.4265081478
 20
143.6058854534
 30
0.0
 11
60.4265081628
 21
146.6058854083
 31
0.0
  0
LINE
  5
26A
330
265
100
AcDbEntity
  8
SLD-0
 62
     7
100
AcDbLine
 10
61.4265081478
 20
143.6058854534
 30
0.0
 11
62.4265081328
 21
146.6058854083
 31
0.0
  0
LINE
  5
26B
330
265
100
AcDbEntity
  8
SLD-0
 62
     7
100
AcDbLine
 10
61.4265081478
 20
143.6058854534
 30
0.0
 11
61.4265081478
 21
146.6058854083
 31
0.0
  0
LINE
  5
26C
330
265
100
AcDbEntity
  8
SLD-0
 62
     7
100
AcDbLine
 10
61.4265081478
 20
165.6058854534
 30
0.0
 11
62.4265081328
 21
162.6058854985
 31
0.0
  0
LINE
  5
26D
330
265
100
AcDbEntity
  8
SLD-0
 62
     7
100
AcDbLine
 10
61.4265081478
 20
165.6058854534
 30
0.0
 11
60.4265081628
 21
162.6058854985
 31
0.0
  0
LINE
  5
26E
330
265
100
AcDbEntity
  8
SLD-0
 62
     7
100
AcDbLine
 10
61.4265081478
 20
165.6058854534
 30
0.0
 11
61.4265081478
 21
162.6058854985
 31
0.0
  0
LINE
  5
26F
330
265
100
AcDbEntity
  8
SLD-0
 62
     7
100
AcDbLine
 10
125.8265081703
 20
143.6058854534
 30
0.0
 11
59.9265081478
 21
143.6058854534
 31
0.0
  0
LINE
  5
270
330
265
100
AcDbEntity
  8
SLD-0
 62
     7
100
AcDbLine
 10
76.9265081703
 20
165.6058854534
 30
0.0
 11
59.9265081478
 21
165.6058854534
 31
0.0
  0
MTEXT
  5
271
330
265
100
AcDbEntity
  8
SLD-0
 62
     7
100
AcDbMText
 10
58.0066553576
 20
152.1111128404
 30
0.0
 40
2.9104166031
 41
0.0
 71
     1
 72
     1
  1
22
  7
SLDTEXTSTYLE1
 11
-3.828568698926949E-16
 21
1.0
 31
0.0
 73
     1
 44
1.0
  0
ENDBLK
  5
267
330
265
100
AcDbEntity
  8
0
100
AcDbBlockEnd
  0
BLOCK
  5
274
330
273
100
AcDbEntity
  8
0
100
AcDbBlockBegin
  2
_D_12
 70
     0
 10
0.0
 20
0.0
 30
0.0
  3
_D_12
  1

  0
LINE
  5
276
330
273
100
AcDbEntity
  8
SLD-0
 62
     7
100
AcDbLine
 10
68.9684158148
 20
153.6058854083
 30
0.0
 11
68.9684158148
 21
162.6058854985
 31
0.0
  0
LINE
  5
277
330
273
100
AcDbEntity
  8
SLD-0
 62
     7
100
AcDbLine
 10
68.9684158148
 20
150.6058854534
 30
0.0
 11
67.9684158298
 21
153.6058854083
 31
0.0
  0
LINE
  5
278
330
273
100
AcDbEntity
  8
SLD-0
 62
     7
100
AcDbLine
 10
68.9684158148
 20
150.6058854534
 30
0.0
 11
69.9684157998
 21
153.6058854083
 31
0.0
  0
LINE
  5
279
330
273
100
AcDbEntity
  8
SLD-0
 62
     7
100
AcDbLine
 10
68.9684158148
 20
150.6058854534
 30
0.0
 11
68.9684158148
 21
153.6058854083
 31
0.0
  0
LINE
  5
27A
330
273
100
AcDbEntity
  8
SLD-0
 62
     7
100
AcDbLine
 10
68.9684158148
 20
165.6058854534
 30
0.0
 11
69.9684157998
 21
162.6058854985
 31
0.0
  0
LINE
  5
27B
330
273
100
AcDbEntity
  8
SLD-0
 62
     7
100
AcDbLine
 10
68.9684158148
 20
165.6058854534
 30
0.0
 11
67.9684158298
 21
162.6058854985
 31
0.0
  0
LINE
  5
27C
330
273
100
AcDbEntity
  8
SLD-0
 62
     7
100
AcDbLine
 10
68.9684158148
 20
165.6058854534
 30
0.0
 11
68.9684158148
 21
162.6058854985
 31
0.0
  0
LINE
  5
27D
330
273
100
AcDbEntity
  8
SLD-0
 62
     7
100
AcDbLine
 10
102.9265081703
 20
150.6058854534
 30
0.0
 11
67.4684158148
 21
150.6058854534
 31
0.0
  0
LINE
  5
27E
330
273
100
AcDbEntity
  8
SLD-0
 62
     7
100
AcDbLine
 10
102.9265081703
 20
165.6058854534
 30
0.0
 11
67.4684158148
 21
165.6058854534
 31
0.0
  0
MTEXT
  5
27F
330
273
100
AcDbEntity
  8
SLD-0
 62
     7
100
AcDbMText
 10
65.5485630246
 20
155.6111128404
 30
0.0
 40
2.9104166031
 41
0.0
 71
     1
 72
     1
  1
15
  7
SLDTEXTSTYLE1
 11
-3.828568698926949E-16
 21
1.0
 31
0.0
 73
     1
 44
1.0
  0
ENDBLK
  5
275
330
273
100
AcDbEntity
  8
0
100
AcDbBlockEnd
  0
BLOCK
  5
282
330
281
100
AcDbEntity
  8
0
100
AcDbBlockBegin
  2
_D_13
 70
     0
 10
0.0
 20
0.0
 30
0.0
  3
_D_13
  1

  0
LINE
  5
284
330
281
100
AcDbEntity
  8
SLD-0
 62
     7
100
AcDbLine
 10
316.0135998919
 20
47.7115405963
 30
0.0
 11
324.0135998919
 21
47.7115405963
 31
0.0
  0
LINE
  5
285
330
281
100
AcDbEntity
  8
SLD-0
 62
     7
100
AcDbLine
 10
316.0135998919
 20
47.7115405963
 30
0.0
 11
313.013599937
 21
46.7115406113
 31
0.0
  0
LINE
  5
286
330
281
100
AcDbEntity
  8
SLD-0
 62
     7
100
AcDbLine
 10
316.0135998919
 20
47.7115405963
 30
0.0
 11
313.013599937
 21
48.7115405813
 31
0.0
  0
LINE
  5
287
330
281
100
AcDbEntity
  8
SLD-0
 62
     7
100
AcDbLine
 10
316.0135998919
 20
47.7115405963
 30
0.0
 11
313.013599937
 21
47.7115405963
 31
0.0
  0
LINE
  5
288
330
281
100
AcDbEntity
  8
SLD-0
 62
     7
100
AcDbLine
 10
313.013599937
 20
47.7115405963
 30
0.0
 11
309.6635999873
 21
47.7115405963
 31
0.0
  0
LINE
  5
289
330
281
100
AcDbEntity
  8
SLD-0
 62
     7
100
AcDbLine
 10
324.0135998919
 20
47.7115405963
 30
0.0
 11
327.0135998468
 21
48.7115405813
 31
0.0
  0
LINE
  5
28A
330
281
100
AcDbEntity
  8
SLD-0
 62
     7
100
AcDbLine
 10
324.0135998919
 20
47.7115405963
 30
0.0
 11
327.0135998468
 21
46.7115406113
 31
0.0
  0
LINE
  5
28B
330
281
100
AcDbEntity
  8
SLD-0
 62
     7
100
AcDbLine
 10
324.0135998919
 20
47.7115405963
 30
0.0
 11
327.0135998468
 21
47.7115405963
 31
0.0
  0
LINE
  5
28C
330
281
100
AcDbEntity
  8
SLD-0
 62
     7
100
AcDbLine
 10
327.0135998468
 20
47.7115405963
 30
0.0
 11
330.3635997965
 21
47.7115405963
 31
0.0
  0
LINE
  5
28D
330
281
100
AcDbEntity
  8
SLD-0
 62
     7
100
AcDbLine
 10
316.0135998919
 20
55.1058854759
 30
0.0
 11
316.0135998919
 21
46.2115405963
 31
0.0
  0
LINE
  5
28E
330
281
100
AcDbEntity
  8
SLD-0
 62
     7
100
AcDbLine
 10
324.0135998919
 20
55.1058854759
 30
0.0
 11
324.0135998919
 21
46.2115405963
 31
0.0
  0
MTEXT
  5
28F
330
281
100
AcDbEntity
  8
SLD-0
 62
     7
100
AcDbMText
 10
318.9740355208
 20
51.1313933865
 30
0.0
 40
2.9104166031
 41
0.0
 71
     1
 72
     1
  1
8
  7
SLDTEXTSTYLE1
 73
     1
 44
1.0
  0
ENDBLK
  5
283
330
281
100
AcDbEntity
  8
0
100
AcDbBlockEnd
  0
BLOCK
  5
292
330
291
100
AcDbEntity
  8
0
100
AcDbBlockBegin
  2
_D_14
 70
     0
 10
0.0
 20
0.0
 30
0.0
  3
_D_14
  1

  0
LINE
  5
294
330
291
100
AcDbEntity
  8
SLD-0
 62
     7
100
AcDbLine
 10
364.013599937
 20
47.7115405963
 30
0.0
 11
327.0135998468
 21
47.7115405963
 31
0.0
  0
LINE
  5
295
330
291
100
AcDbEntity
  8
SLD-0
 62
     7
100
AcDbLine
 10
367.0135998919
 20
47.7115405963
 30
0.0
 11
364.013599937
 21
46.7115406113
 31
0.0
  0
LINE
  5
296
330
291
100
AcDbEntity
  8
SLD-0
 62
     7
100
AcDbLine
 10
367.0135998919
 20
47.7115405963
 30
0.0
 11
364.013599937
 21
48.7115405813
 31
0.0
  0
LINE
  5
297
330
291
100
AcDbEntity
  8
SLD-0
 62
     7
100
AcDbLine
 10
367.0135998919
 20
47.7115405963
 30
0.0
 11
364.013599937
 21
47.7115405963
 31
0.0
  0
LINE
  5
298
330
291
100
AcDbEntity
  8
SLD-0
 62
     7
100
AcDbLine
 10
324.0135998919
 20
47.7115405963
 30
0.0
 11
327.0135998468
 21
48.7115405813
 31
0.0
  0
LINE
  5
299
330
291
100
AcDbEntity
  8
SLD-0
 62
     7
100
AcDbLine
 10
324.0135998919
 20
47.7115405963
 30
0.0
 11
327.0135998468
 21
46.7115406113
 31
0.0
  0
LINE
  5
29A
330
291
100
AcDbEntity
  8
SLD-0
 62
     7
100
AcDbLine
 10
324.0135998919
 20
47.7115405963
 30
0.0
 11
327.0135998468
 21
47.7115405963
 31
0.0
  0
LINE
  5
29B
330
291
100
AcDbEntity
  8
SLD-0
 62
     7
100
AcDbLine
 10
367.0135998919
 20
124.1058854759
 30
0.0
 11
367.0135998919
 21
46.2115405963
 31
0.0
  0
LINE
  5
29C
330
291
100
AcDbEntity
  8
SLD-0
 62
     7
100
AcDbLine
 10
324.0135998919
 20
55.1058854759
 30
0.0
 11
324.0135998919
 21
46.2115405963
 31
0.0
  0
MTEXT
  5
29D
330
291
100
AcDbEntity
  8
SLD-0
 62
     7
100
AcDbMText
 10
343.0188272789
 20
51.1313933865
 30
0.0
 40
2.9104166031
 41
0.0
 71
     1
 72
     1
  1
43
  7
SLDTEXTSTYLE1
 73
     1
 44
1.0
  0
ENDBLK
  5
293
330
291
100
AcDbEntity
  8
0
100
AcDbBlockEnd
  0
BLOCK
  5
2A0
330
29F
100
AcDbEntity
  8
0
100
AcDbBlockBegin
  2
_D_15
 70
     0
 10
0.0
 20
0.0
 30
0.0
  3
_D_15
  1

  0
LINE
  5
2A2
330
29F
100
AcDbEntity
  8
SLD-0
 62
     7
100
AcDbLine
 10
319.0135998468
 20
39.6058854534
 30
0.0
 11
364.013599937
 21
39.6058854534
 31
0.0
  0
LINE
  5
2A3
330
29F
100
AcDbEntity
  8
SLD-0
 62
     7
100
AcDbLine
 10
316.0135998919
 20
39.6058854534
 30
0.0
 11
319.0135998468
 21
40.6058854384
 31
0.0
  0
LINE
  5
2A4
330
29F
100
AcDbEntity
  8
SLD-0
 62
     7
100
AcDbLine
 10
316.0135998919
 20
39.6058854534
 30
0.0
 11
319.0135998468
 21
38.6058854684
 31
0.0
  0
LINE
  5
2A5
330
29F
100
AcDbEntity
  8
SLD-0
 62
     7
100
AcDbLine
 10
316.0135998919
 20
39.6058854534
 30
0.0
 11
319.0135998468
 21
39.6058854534
 31
0.0
  0
LINE
  5
2A6
330
29F
100
AcDbEntity
  8
SLD-0
 62
     7
100
AcDbLine
 10
367.0135998919
 20
39.6058854534
 30
0.0
 11
364.013599937
 21
38.6058854684
 31
0.0
  0
LINE
  5
2A7
330
29F
100
AcDbEntity
  8
SLD-0
 62
     7
100
AcDbLine
 10
367.0135998919
 20
39.6058854534
 30
0.0
 11
364.013599937
 21
40.6058854384
 31
0.0
  0
LINE
  5
2A8
330
29F
100
AcDbEntity
  8
SLD-0
 62
     7
100
AcDbLine
 10
367.0135998919
 20
39.6058854534
 30
0.0
 11
364.013599937
 21
39.6058854534
 31
0.0
  0
LINE
  5
2A9
330
29F
100
AcDbEntity
  8
SLD-0
 62
     7
100
AcDbLine
 10
316.0135998919
 20
55.1058854759
 30
0.0
 11
316.0135998919
 21
38.1058854534
 31
0.0
  0
LINE
  5
2AA
330
29F
100
AcDbEntity
  8
SLD-0
 62
     7
100
AcDbLine
 10
367.0135998919
 20
124.1058854759
 30
0.0
 11
367.0135998919
 21
38.1058854534
 31
0.0
  0
MTEXT
  5
2AB
330
29F
100
AcDbEntity
  8
SLD-0
 62
     7
100
AcDbMText
 10
339.0188272789
 20
43.0257382436
 30
0.0
 40
2.9104166031
 41
0.0
 71
     1
 72
     1
  1
51
  7
SLDTEXTSTYLE1
 73
     1
 44
1.0
  0
ENDBLK
  5
2A1
330
29F
100
AcDbEntity
  8
0
100
AcDbBlockEnd
  0
BLOCK
  5
2AF
330
2AE
100
AcDbEntity
  8
0
100
AcDbBlockBegin
  2
_D_16
 70
     0
 10
0.0
 20
0.0
 30
0.0
  3
_D_16
  1

  0
LINE
  5
2B1
330
2AE
100
AcDbEntity
  8
SLD-0
 62
     7
100
AcDbLine
 10
350.513599937
 20
181.6058854534
 30
0.0
 11
319.0135998468
 21
181.6058854534
 31
0.0
  0
LINE
  5
2B2
330
2AE
100
AcDbEntity
  8
SLD-0
 62
     7
100
AcDbLine
 10
353.5135998919
 20
181.6058854534
 30
0.0
 11
350.513599937
 21
180.6058854684
 31
0.0
  0
LINE
  5
2B3
330
2AE
100
AcDbEntity
  8
SLD-0
 62
     7
100
AcDbLine
 10
353.5135998919
 20
181.6058854534
 30
0.0
 11
350.513599937
 21
182.6058854384
 31
0.0
  0
LINE
  5
2B4
330
2AE
100
AcDbEntity
  8
SLD-0
 62
     7
100
AcDbLine
 10
353.5135998919
 20
181.6058854534
 30
0.0
 11
350.513599937
 21
181.6058854534
 31
0.0
  0
LINE
  5
2B5
330
2AE
100
AcDbEntity
  8
SLD-0
 62
     7
100
AcDbLine
 10
316.0135998919
 20
181.6058854534
 30
0.0
 11
319.0135998468
 21
182.6058854384
 31
0.0
  0
LINE
  5
2B6
330
2AE
100
AcDbEntity
  8
SLD-0
 62
     7
100
AcDbLine
 10
316.0135998919
 20
181.6058854534
 30
0.0
 11
319.0135998468
 21
180.6058854684
 31
0.0
  0
LINE
  5
2B7
330
2AE
100
AcDbEntity
  8
SLD-0
 62
     7
100
AcDbLine
 10
316.0135998919
 20
181.6058854534
 30
0.0
 11
319.0135998468
 21
181.6058854534
 31
0.0
  0
LINE
  5
2B8
330
2AE
100
AcDbEntity
  8
SLD-0
 62
     7
100
AcDbLine
 10
353.5135998919
 20
168.1058854309
 30
0.0
 11
353.5135998919
 21
183.1058854534
 31
0.0
  0
LINE
  5
2B9
330
2AE
100
AcDbEntity
  8
SLD-0
 62
     7
100
AcDbLine
 10
316.0135998919
 20
149.1058854309
 30
0.0
 11
316.0135998919
 21
183.1058854534
 31
0.0
  0
MTEXT
  5
2BA
330
2AE
100
AcDbEntity
  8
SLD-0
 62
     7
100
AcDbMText
 10
330.2315357401
 20
185.0257382436
 30
0.0
 40
2.9104166031
 41
0.0
 71
     1
 72
     1
  1
37.5
  7
SLDTEXTSTYLE1
 73
     1
 44
1.0
  0
ENDBLK
  5
2B0
330
2AE
100
AcDbEntity
  8
0
100
AcDbBlockEnd
  0
BLOCK
  5
2BD
330
2BC
100
AcDbEntity
  8
0
100
AcDbBlockBegin
  2
_D_17
 70
     0
 10
0.0
 20
0.0
 30
0.0
  3
_D_17
  1

  0
LINE
  5
2BF
330
2BC
100
AcDbEntity
  8
SLD-0
 62
     7
100
AcDbLine
 10
356.5135998468
 20
181.6058854534
 30
0.0
 11
364.013599937
 21
181.6058854534
 31
0.0
  0
LINE
  5
2C0
330
2BC
100
AcDbEntity
  8
SLD-0
 62
     7
100
AcDbLine
 10
353.5135998919
 20
181.6058854534
 30
0.0
 11
356.5135998468
 21
182.6058854384
 31
0.0
  0
LINE
  5
2C1
330
2BC
100
AcDbEntity
  8
SLD-0
 62
     7
100
AcDbLine
 10
353.5135998919
 20
181.6058854534
 30
0.0
 11
356.5135998468
 21
180.6058854684
 31
0.0
  0
LINE
  5
2C2
330
2BC
100
AcDbEntity
  8
SLD-0
 62
     7
100
AcDbLine
 10
353.5135998919
 20
181.6058854534
 30
0.0
 11
356.5135998468
 21
181.6058854534
 31
0.0
  0
LINE
  5
2C3
330
2BC
100
AcDbEntity
  8
SLD-0
 62
     7
100
AcDbLine
 10
367.0135998919
 20
181.6058854534
 30
0.0
 11
364.013599937
 21
180.6058854684
 31
0.0
  0
LINE
  5
2C4
330
2BC
100
AcDbEntity
  8
SLD-0
 62
     7
100
AcDbLine
 10
367.0135998919
 20
181.6058854534
 30
0.0
 11
364.013599937
 21
182.6058854384
 31
0.0
  0
LINE
  5
2C5
330
2BC
100
AcDbEntity
  8
SLD-0
 62
     7
100
AcDbLine
 10
367.0135998919
 20
181.6058854534
 30
0.0
 11
364.013599937
 21
181.6058854534
 31
0.0
  0
LINE
  5
2C6
330
2BC
100
AcDbEntity
  8
SLD-0
 62
     7
100
AcDbLine
 10
353.5135998919
 20
168.1058854309
 30
0.0
 11
353.5135998919
 21
183.1058854534
 31
0.0
  0
LINE
  5
2C7
330
2BC
100
AcDbEntity
  8
SLD-0
 62
     7
100
AcDbLine
 10
367.0135998919
 20
167.1058854309
 30
0.0
 11
367.0135998919
 21
183.1058854534
 31
0.0
  0
MTEXT
  5
2C8
330
2BC
100
AcDbEntity
  8
SLD-0
 62
     7
100
AcDbMText
 10
355.7315357401
 20
185.0257382436
 30
0.0
 40
2.9104166031
 41
0.0
 71
     1
 72
     1
  1
13.5
  7
SLDTEXTSTYLE1
 73
     1
 44
1.0
  0
ENDBLK
  5
2BE
330
2BC
100
AcDbEntity
  8
0
100
AcDbBlockEnd
  0
ENDSEC
  0
SECTION
  2
ENTITIES
  0
VIEWPORT
  5
77
330
1B
100
AcDbEntity
 67
     1
  8
0
100
AcDbViewport
 10
210.0
 20
148.5
 30
0.0
 40
444.36
 41
314.226
 68
     1
 69
     1
 12
210.0
 22
148.5
 13
0.0
 23
0.0
 14
10.0
 24
10.0
 15
10.0
 25
10.0
 16
0.0
 26
0.0
 36
1.0
 17
0.0
 27
0.0
 37
0.0
 42
50.0
 43
0.0
 44
0.0
 45
314.226
 50
0.0
 51
0.0
 72
   100
 90
   557152
  1

281
     0
 71
     1
 74
     0
110
0.0
120
0.0
130
0.0
111
1.0
121
0.0
131
0.0
112
0.0
122
1.0
132
0.0
 79
     0
146
0.0
  0
LINE
  5
79
330
1B
100
AcDbEntity
 67
     1
  8
SLD-0
  6
Continuous
 62
     7
100
AcDbLine
 10
194.4265096678
 20
262.8129314185
 30
0.0
 11
192.4265074773
 21
268.3078854829
 31
0.0
  0
LINE
  5
7A
330
1B
100
AcDbEntity
 67
     1
  8
SLD-0
  6
Continuous
 62
     7
100
AcDbLine
 10
192.4265074773
 20
268.3078854829
 30
0.0
 11
190.4265090121
 21
262.8129314185
 31
0.0
  0
LINE
  5
7B
330
1B
100
AcDbEntity
 67
     1
  8
SLD-0
  6
Continuous
 62
     7
100
AcDbLine
 10
190.4265090121
 20
262.8129314185
 30
0.0
 11
190.4265090121
 21
253.0078863278
 31
0.0
  0
LINE
  5
7C
330
1B
100
AcDbEntity
 67
     1
  8
SLD-0
  6
Continuous
 62
     7
100
AcDbLine
 10
194.4265096678
 20
253.0078863278
 30
0.0
 11
194.4265096678
 21
262.8129314185
 31
0.0
  0
LINE
  5
7D
330
1B
100
AcDbEntity
 67
     1
  8
SLD-0
  6
Continuous
 62
     7
100
AcDbLine
 10
134.4265072836
 20
262.8129314185
 30
0.0
 11
132.4265088184
 21
268.3078854829
 31
0.0
  0
LINE
  5
7E
330
1B
100
AcDbEntity
 67
     1
  8
SLD-0
  6
Continuous
 62
     7
100
AcDbLine
 10
132.4265088184
 20
268.3078854829
 30
0.0
 11
130.4265066279
 21
262.8129314185
 31
0.0
  0
LINE
  5
7F
330
1B
100
AcDbEntity
 67
     1
  8
SLD-0
  6
Continuous
 62
     7
100
AcDbLine
 10
130.4265066279
 20
262.8129314185
 30
0.0
 11
130.4265066279
 21
253.0078863278
 31
0.0
  0
LINE
  5
80
330
1B
100
AcDbEntity
 67
     1
  8
SLD-0
  6
Continuous
 62
     7
100
AcDbLine
 10
134.4265072836
 20
253.0078863278
 30
0.0
 11
134.4265072836
 21
262.8129314185
 31
0.0
  0
LINE
  5
81
330
1B
100
AcDbEntity
 67
     1
  8
SLD-0
  6
Continuous
 62
     7
100
AcDbLine
 10
222.3265088393
 20
245.5078860298
 30
0.0
 11
221.526506473
 21
245.5078860298
 31
0.0
  0
LINE
  5
82
330
1B
100
AcDbEntity
 67
     1
  8
SLD-0
  6
Continuous
 62
     7
100
AcDbLine
 10
221.526506473
 20
233.5078859255
 30
0.0
 11
222.3265088393
 21
233.5078859255
 31
0.0
  0
LINE
  5
83
330
1B
100
AcDbEntity
 67
     1
  8
SLD-0
  6
Continuous
 62
     7
100
AcDbLine
 10
103.3265098227
 20
245.5078860298
 30
0.0
 11
102.5265074564
 21
245.5078860298
 31
0.0
  0
LINE
  5
84
330
1B
100
AcDbEntity
 67
     1
  8
SLD-0
  6
Continuous
 62
     7
100
AcDbLine
 10
102.5265074564
 20
233.5078859255
 30
0.0
 11
103.3265098227
 21
233.5078859255
 31
0.0
  0
LINE
  5
85
330
1B
100
AcDbEntity
 67
     1
  8
SLD-0
  6
Continuous
 62
     7
100
AcDbLine
 10
246.4265064846
 20
247.007886788
 30
0.0
 11
223.4265083025
 21
247.007886788
 31
0.0
  0
LINE
  5
86
330
1B
100
AcDbEntity
 67
     1
  8
SLD-0
  6
Continuous
 62
     7
100
AcDbLine
 10
101.4265069316
 20
247.0078863408
 30
0.0
 11
78.4265087495
 21
247.0078863408
 31
0.0
  0
LINE
  5
87
330
1B
100
AcDbEntity
 67
     1
  8
SLD-0
  6
Continuous
 62
     7
100
AcDbLine
 10
190.4265090121
 20
262.8129314185
 30
0.0
 11
194.4265096678
 21
262.8129314185
 31
0.0
  0
LINE
  5
88
330
1B
100
AcDbEntity
 67
     1
  8
SLD-0
  6
Continuous
 62
     7
100
AcDbLine
 10
130.4265066279
 20
262.8129314185
 30
0.0
 11
134.4265072836
 21
262.8129314185
 31
0.0
  0
LINE
  5
89
330
1B
100
AcDbEntity
 67
     1
  8
SLD-0
  6
Continuous
 62
     7
100
AcDbLine
 10
222.3265088393
 20
233.5078859255
 30
0.0
 11
222.3265088393
 21
245.5078860298
 31
0.0
  0
LINE
  5
8A
330
1B
100
AcDbEntity
 67
     1
  8
SLD-0
  6
Continuous
 62
     7
100
AcDbLine
 10
221.526506473
 20
233.5078859255
 30
0.0
 11
221.526506473
 21
245.5078860298
 31
0.0
  0
LINE
  5
8B
330
1B
100
AcDbEntity
 67
     1
  8
SLD-0
  6
Continuous
 62
     7
100
AcDbLine
 10
103.3265098227
 20
233.5078859255
 30
0.0
 11
103.3265098227
 21
245.5078860298
 31
0.0
  0
LINE
  5
8C
330
1B
100
AcDbEntity
 67
     1
  8
SLD-0
  6
Continuous
 62
     7
100
AcDbLine
 10
102.5265074564
 20
233.5078859255
 30
0.0
 11
102.5265074564
 21
245.5078860298
 31
0.0
  0
LINE
  5
8D
330
1B
100
AcDbEntity
 67
     1
  8
SLD-0
  6
Continuous
 62
     7
100
AcDbLine
 10
102.426509489
 20
241.5078860727
 30
0.0
 11
102.5265074564
 21
241.5078860727
 31
0.0
  0
LINE
  5
8E
330
1B
100
AcDbEntity
 67
     1
  8
SLD-0
  6
Continuous
 62
     7
100
AcDbLine
 10
103.3265098227
 20
241.5078860727
 30
0.0
 11
103.4265077902
 21
241.5078860727
 31
0.0
  0
LINE
  5
8F
330
1B
100
AcDbEntity
 67
     1
  8
SLD-0
  6
Continuous
 62
     7
100
AcDbLine
 10
221.4265085055
 20
241.5078860727
 30
0.0
 11
221.526506473
 21
241.5078860727
 31
0.0
  0
LINE
  5
90
330
1B
100
AcDbEntity
 67
     1
  8
SLD-0
  6
Continuous
 62
     7
100
AcDbLine
 10
222.3265088393
 20
241.5078860727
 30
0.0
 11
222.4265068067
 21
241.5078860727
 31
0.0
  0
LINE
  5
91
330
1B
100
AcDbEntity
 67
     1
  8
SLD-0
  6
Continuous
 62
     7
100
AcDbLine
 10
222.4265068067
 20
237.5078858827
 30
0.0
 11
222.3265088393
 21
237.5078858827
 31
0.0
  0
LINE
  5
92
330
1B
100
AcDbEntity
 67
     1
  8
SLD-0
  6
Continuous
 62
     7
100
AcDbLine
 10
221.526506473
 20
237.5078858827
 30
0.0
 11
221.4265085055
 21
237.5078858827
 31
0.0
  0
LINE
  5
93
330
1B
100
AcDbEntity
 67
     1
  8
SLD-0
  6
Continuous
 62
     7
100
AcDbLine
 10
103.4265077902
 20
237.5078858827
 30
0.0
 11
103.3265098227
 21
237.5078858827
 31
0.0
  0
LINE
  5
94
330
1B
100
AcDbEntity
 67
     1
  8
SLD-0
  6
Continuous
 62
     7
100
AcDbLine
 10
102.5265074564
 20
237.5078858827
 30
0.0
 11
102.426509489
 21
237.5078858827
 31
0.0
  0
LINE
  5
95
330
1B
100
AcDbEntity
 67
     1
  8
SLD-0
  6
Continuous
 62
     7
100
AcDbLine
 10
221.4265086099
 20
253.0078863278
 30
0.0
 11
221.4265086099
 21
232.0078861453
 31
0.0
  0
LINE
  5
96
330
1B
100
AcDbEntity
 67
     1
  8
SLD-0
  6
Continuous
 62
     7
100
AcDbLine
 10
220.4265064789
 20
253.0078863278
 30
0.0
 11
221.4265086099
 21
253.0078863278
 31
0.0
  0
LINE
  5
97
330
1B
100
AcDbEntity
 67
     1
  8
SLD-0
  6
Continuous
 62
     7
100
AcDbLine
 10
104.4265098168
 20
253.0078863278
 30
0.0
 11
220.4265064789
 21
253.0078863278
 31
0.0
  0
LINE
  5
98
330
1B
100
AcDbEntity
 67
     1
  8
SLD-0
  6
Continuous
 62
     7
100
AcDbLine
 10
103.4265077902
 20
232.0078861453
 30
0.0
 11
103.4265077902
 21
253.0078863278
 31
0.0
  0
LINE
  5
99
330
1B
100
AcDbEntity
 67
     1
  8
SLD-0
  6
Continuous
 62
     7
100
AcDbLine
 10
103.4265077902
 20
253.0078863278
 30
0.0
 11
104.4265098168
 21
253.0078863278
 31
0.0
  0
LINE
  5
9A
330
1B
100
AcDbEntity
 67
     1
  8
SLD-0
  6
Continuous
 62
     7
100
AcDbLine
 10
220.4265065311
 20
231.0078855679
 30
0.0
 11
104.426509869
 21
231.0078855679
 31
0.0
  0
LINE
  5
9B
330
1B
100
AcDbEntity
 67
     1
  8
SLD-0
  6
Continuous
 62
     7
100
AcDbLine
 10
247.426509638
 20
246.0078861118
 30
0.0
 11
247.426509638
 21
239.5078859777
 31
0.0
  0
LINE
  5
9C
330
1B
100
AcDbEntity
 67
     1
  8
SLD-0
  6
Continuous
 62
     7
100
AcDbLine
 10
77.4265072538
 20
239.5078859777
 30
0.0
 11
77.4265072538
 21
246.0078861118
 31
0.0
  0
LINE
  5
9D
330
1B
100
AcDbEntity
 67
     1
  8
SLD-0
  6
Continuous
 62
     7
100
AcDbLine
 10
102.4265098616
 20
246.0078863354
 30
0.0
 11
102.4265098616
 21
239.5078862013
 31
0.0
  0
LINE
  5
9E
330
1B
100
AcDbEntity
 67
     1
  8
SLD-0
  6
Continuous
 62
     7
100
AcDbLine
 10
222.4265070302
 20
239.5078862013
 30
0.0
 11
222.4265070302
 21
246.0078863354
 31
0.0
  0
LINE
  5
9F
330
1B
100
AcDbEntity
 67
     1
  8
SLD-0
  6
Continuous
 62
     7
100
AcDbLine
 10
247.426509638
 20
239.5078859777
 30
0.0
 11
247.426509638
 21
220.0078855754
 31
0.0
  0
LINE
  5
A0
330
1B
100
AcDbEntity
 67
     1
  8
SLD-0
  6
Continuous
 62
     7
100
AcDbLine
 10
77.4265072538
 20
220.0078855753
 30
0.0
 11
77.4265072538
 21
239.5078859777
 31
0.0
  0
LINE
  5
A1
330
1B
100
AcDbEntity
 67
     1
  8
SLD-0
  6
Continuous
 62
     7
100
AcDbLine
 10
102.4265098616
 20
239.5078862013
 30
0.0
 11
102.4265098616
 21
220.0078857989
 31
0.0
  0
LINE
  5
A2
330
1B
100
AcDbEntity
 67
     1
  8
SLD-0
  6
Continuous
 62
     7
100
AcDbLine
 10
222.4265070302
 20
220.0078857989
 30
0.0
 11
222.4265070302
 21
239.5078862013
 31
0.0
  0
LINE
  5
A3
330
1B
100
AcDbEntity
 67
     1
  8
SLD-0
  6
Continuous
 62
     7
100
AcDbLine
 10
101.4265077605
 20
202.0078847856
 30
0.0
 11
78.4265095784
 21
202.0078847856
 31
0.0
  0
LINE
  5
A4
330
1B
100
AcDbEntity
 67
     1
  8
SLD-0
  6
Continuous
 62
     7
100
AcDbLine
 10
246.4265073135
 20
202.0078847856
 30
0.0
 11
223.4265091314
 21
202.0078847856
 31
0.0
  0
LINE
  5
A5
330
1B
100
AcDbEntity
 67
     1
  8
SLD-0
  6
Continuous
 62
     7
100
AcDbLine
 10
102.4265098616
 20
220.0078857989
 30
0.0
 11
102.4265098616
 21
203.0078867377
 31
0.0
  0
LINE
  5
A6
330
1B
100
AcDbEntity
 67
     1
  8
SLD-0
  6
Continuous
 62
     7
100
AcDbLine
 10
77.4265072538
 20
203.0078865141
 30
0.0
 11
77.4265072538
 21
220.0078855753
 31
0.0
  0
LINE
  5
A7
330
1B
100
AcDbEntity
 67
     1
  8
SLD-0
  6
Continuous
 62
     7
100
AcDbLine
 10
222.4265070302
 20
203.0078867377
 30
0.0
 11
222.4265070302
 21
220.0078857989
 31
0.0
  0
LINE
  5
A8
330
1B
100
AcDbEntity
 67
     1
  8
SLD-0
  6
Continuous
 62
     7
100
AcDbLine
 10
247.426509638
 20
220.0078855754
 30
0.0
 11
247.426509638
 21
203.0078865141
 31
0.0
  0
LINE
  5
A9
330
1B
100
AcDbEntity
 67
     1
  8
SLD-0
  6
Continuous
 62
     7
100
AcDbLine
 10
107.4265084459
 20
210.0078857988
 30
0.0
 11
102.426509489
 21
210.0078857988
 31
0.0
  0
LINE
  5
AA
330
1B
100
AcDbEntity
 67
     1
  8
SLD-0
  6
Continuous
 62
     7
100
AcDbLine
 10
222.4265068067
 20
210.0078857988
 30
0.0
 11
217.4265078498
 21
210.0078857988
 31
0.0
  0
LINE
  5
AB
330
1B
100
AcDbEntity
 67
     1
  8
SLD-0
  6
Continuous
 62
     7
100
AcDbLine
 10
217.4265081479
 20
202.0078847856
 30
0.0
 11
223.4265091314
 21
202.0078847856
 31
0.0
  0
LINE
  5
AC
330
1B
100
AcDbEntity
 67
     1
  8
SLD-0
  6
Continuous
 62
     7
100
AcDbLine
 10
101.4265077605
 20
202.0078847856
 30
0.0
 11
107.426508744
 21
202.0078847856
 31
0.0
  0
LINE
  5
AD
330
1B
100
AcDbEntity
 67
     1
  8
SLD-0
  6
Continuous
 62
     7
100
AcDbLine
 10
107.4265084459
 20
210.0078857988
 30
0.0
 11
217.4265078498
 21
210.0078857988
 31
0.0
  0
LINE
  5
AE
330
1B
100
AcDbEntity
 67
     1
  8
SLD-0
  6
Continuous
 62
     7
100
AcDbLine
 10
107.426508744
 20
202.0078847856
 30
0.0
 11
217.4265081479
 21
202.0078847856
 31
0.0
  0
LINE
  5
AF
330
1B
100
AcDbEntity
 67
     1
  8
SLD-0
  6
CENTER
 62
     7
100
AcDbLine
 10
71.4842807932
 20
239.5078859777
 30
0.0
 11
252.6719935972
 21
239.5078859777
 31
0.0
  0
LINE
  5
B0
330
1B
100
AcDbEntity
 67
     1
  8
SLD-0
  6
CENTER
 62
     7
100
AcDbLine
 10
132.4265081478
 20
248.6078859777
 30
0.0
 11
132.4265081478
 21
273.7959407148
 31
0.0
  0
LINE
  5
B1
330
1B
100
AcDbEntity
 67
     1
  8
SLD-0
  6
CENTER
 62
     7
100
AcDbLine
 10
192.4265081478
 20
248.6078859777
 30
0.0
 11
192.4265081478
 21
273.5447433895
 31
0.0
  0
LINE
  5
B2
330
1B
100
AcDbEntity
 67
     1
  8
SLD-0
  6
Continuous
 62
     7
100
AcDbLine
 10
222.3265088393
 20
164.1058855055
 30
0.0
 11
221.526506473
 21
164.1058855055
 31
0.0
  0
LINE
  5
B3
330
1B
100
AcDbEntity
 67
     1
  8
SLD-0
  6
Continuous
 62
     7
100
AcDbLine
 10
221.526506473
 20
152.1058854012
 30
0.0
 11
222.3265088393
 21
152.1058854012
 31
0.0
  0
LINE
  5
B4
330
1B
100
AcDbEntity
 67
     1
  8
SLD-0
  6
Continuous
 62
     7
100
AcDbLine
 10
103.3265098227
 20
164.1058855055
 30
0.0
 11
102.5265074564
 21
164.1058855055
 31
0.0
  0
LINE
  5
B5
330
1B
100
AcDbEntity
 67
     1
  8
SLD-0
  6
Continuous
 62
     7
100
AcDbLine
 10
102.5265074564
 20
152.1058854012
 30
0.0
 11
103.3265098227
 21
152.1058854012
 31
0.0
  0
LINE
  5
B6
330
1B
100
AcDbEntity
 67
     1
  8
SLD-0
  6
Continuous
 62
     7
100
AcDbLine
 10
192.941508372
 20
144.5543857588
 30
0.0
 11
191.9115084453
 21
144.5543857588
 31
0.0
  0
LINE
  5
B7
330
1B
100
AcDbEntity
 67
     1
  8
SLD-0
  6
Continuous
 62
     7
100
AcDbLine
 10
192.9415085757
 20
145.8058863337
 30
0.0
 11
191.9115080649
 21
145.8058863337
 31
0.0
  0
LINE
  5
B8
330
1B
100
AcDbEntity
 67
     1
  8
SLD-0
  6
Continuous
 62
     7
100
AcDbLine
 10
191.4780075891
 20
144.1208858339
 30
0.0
 11
191.4780075891
 21
143.0908859073
 31
0.0
  0
LINE
  5
B9
330
1B
100
AcDbEntity
 67
     1
  8
SLD-0
  6
Continuous
 62
     7
100
AcDbLine
 10
190.2265074892
 20
144.1208858339
 30
0.0
 11
190.2265074892
 21
143.0908859073
 31
0.0
  0
LINE
  5
BA
330
1B
100
AcDbEntity
 67
     1
  8
SLD-0
  6
Continuous
 62
     7
100
AcDbLine
 10
191.9115084453
 20
142.6573850511
 30
0.0
 11
192.941508372
 21
142.6573850511
 31
0.0
  0
LINE
  5
BB
330
1B
100
AcDbEntity
 67
     1
  8
SLD-0
  6
Continuous
 62
     7
100
AcDbLine
 10
191.9115084245
 20
141.4058858617
 30
0.0
 11
192.9415083512
 21
141.4058858617
 31
0.0
  0
LINE
  5
BC
330
1B
100
AcDbEntity
 67
     1
  8
SLD-0
  6
Continuous
 62
     7
100
AcDbLine
 10
194.626509217
 20
143.0908859739
 30
0.0
 11
194.626509217
 21
144.1208856094
 31
0.0
  0
LINE
  5
BD
330
1B
100
AcDbEntity
 67
     1
  8
SLD-0
  6
Continuous
 62
     7
100
AcDbLine
 10
192.9415085757
 20
144.2821064274
 30
0.0
 11
192.9415085757
 21
145.8058863337
 31
0.0
  0
LINE
  5
BE
330
1B
100
AcDbEntity
 67
     1
  8
SLD-0
  6
Continuous
 62
     7
100
AcDbLine
 10
191.7502871944
 20
144.1208858339
 30
0.0
 11
190.2265074892
 21
144.1208858339
 31
0.0
  0
LINE
  5
BF
330
1B
100
AcDbEntity
 67
     1
  8
SLD-0
  6
Continuous
 62
     7
100
AcDbLine
 10
194.626509217
 20
144.1208856094
 30
0.0
 11
193.1027293282
 21
144.1208856094
 31
0.0
  0
LINE
  5
C0
330
1B
100
AcDbEntity
 67
     1
  8
SLD-0
  6
Continuous
 62
     7
100
AcDbLine
 10
191.9115084245
 20
142.9296646356
 30
0.0
 11
191.9115084245
 21
141.4058858617
 31
0.0
  0
LINE
  5
C1
330
1B
100
AcDbEntity
 67
     1
  8
SLD-0
  6
Continuous
 62
     7
100
AcDbLine
 10
190.2265074892
 20
143.0908859073
 30
0.0
 11
191.7502871944
 21
143.0908859073
 31
0.0
  0
LINE
  5
C2
330
1B
100
AcDbEntity
 67
     1
  8
SLD-0
  6
Continuous
 62
     7
100
AcDbLine
 10
191.9115080649
 20
145.8058863337
 30
0.0
 11
191.9115080649
 21
144.2821066285
 31
0.0
  0
LINE
  5
C3
330
1B
100
AcDbEntity
 67
     1
  8
SLD-0
  6
Continuous
 62
     7
100
AcDbLine
 10
193.1027295119
 20
143.0908859739
 30
0.0
 11
194.626509217
 21
143.0908859739
 31
0.0
  0
LINE
  5
C4
330
1B
100
AcDbEntity
 67
     1
  8
SLD-0
  6
Continuous
 62
     7
100
AcDbLine
 10
192.9415083512
 20
141.4058858617
 30
0.0
 11
192.9415083512
 21
142.9296646356
 31
0.0
  0
LINE
  5
C5
330
1B
100
AcDbEntity
 67
     1
  8
SLD-0
  6
Continuous
 62
     7
100
AcDbLine
 10
193.3750073655
 20
143.0908859073
 30
0.0
 11
193.3750073655
 21
144.1208858339
 31
0.0
  0
LINE
  5
C6
330
1B
100
AcDbEntity
 67
     1
  8
SLD-0
  6
Continuous
 62
     7
100
AcDbLine
 10
132.9415078504
 20
144.5543857588
 30
0.0
 11
131.9115079237
 21
144.5543857588
 31
0.0
  0
LINE
  5
C7
330
1B
100
AcDbEntity
 67
     1
  8
SLD-0
  6
Continuous
 62
     7
100
AcDbLine
 10
132.9415079847
 20
145.805886372
 30
0.0
 11
131.911507452
 21
145.805886372
 31
0.0
  0
LINE
  5
C8
330
1B
100
AcDbEntity
 67
     1
  8
SLD-0
  6
Continuous
 62
     7
100
AcDbLine
 10
133.3750087066
 20
143.0908859073
 30
0.0
 11
133.3750087066
 21
144.1208858339
 31
0.0
  0
LINE
  5
C9
330
1B
100
AcDbEntity
 67
     1
  8
SLD-0
  6
Continuous
 62
     7
100
AcDbLine
 10
134.6265087453
 20
143.090885876
 30
0.0
 11
134.6265087453
 21
144.1208856094
 31
0.0
  0
LINE
  5
CA
330
1B
100
AcDbEntity
 67
     1
  8
SLD-0
  6
Continuous
 62
     7
100
AcDbLine
 10
131.9115079237
 20
142.6573850511
 30
0.0
 11
132.9415078504
 21
142.6573850511
 31
0.0
  0
LINE
  5
CB
330
1B
100
AcDbEntity
 67
     1
  8
SLD-0
  6
Continuous
 62
     7
100
AcDbLine
 10
131.9115078336
 20
141.4058857924
 30
0.0
 11
132.9415077603
 21
141.4058857924
 31
0.0
  0
LINE
  5
CC
330
1B
100
AcDbEntity
 67
     1
  8
SLD-0
  6
Continuous
 62
     7
100
AcDbLine
 10
131.4780089302
 20
144.1208858339
 30
0.0
 11
131.4780089302
 21
143.0908859073
 31
0.0
  0
LINE
  5
CD
330
1B
100
AcDbEntity
 67
     1
  8
SLD-0
  6
Continuous
 62
     7
100
AcDbLine
 10
130.2265069677
 20
144.1208858339
 30
0.0
 11
130.2265069677
 21
143.0908859073
 31
0.0
  0
LINE
  5
CE
330
1B
100
AcDbEntity
 67
     1
  8
SLD-0
  6
Continuous
 62
     7
100
AcDbLine
 10
132.9415077603
 20
141.4058857924
 30
0.0
 11
132.9415077603
 21
142.9296645663
 31
0.0
  0
LINE
  5
CF
330
1B
100
AcDbEntity
 67
     1
  8
SLD-0
  6
Continuous
 62
     7
100
AcDbLine
 10
131.9115078336
 20
142.9296645663
 30
0.0
 11
131.9115078336
 21
141.4058857924
 31
0.0
  0
LINE
  5
D0
330
1B
100
AcDbEntity
 67
     1
  8
SLD-0
  6
Continuous
 62
     7
100
AcDbLine
 10
132.9415079847
 20
144.2821063581
 30
0.0
 11
132.9415079847
 21
145.805886372
 31
0.0
  0
LINE
  5
D1
330
1B
100
AcDbEntity
 67
     1
  8
SLD-0
  6
Continuous
 62
     7
100
AcDbLine
 10
131.7502866728
 20
144.1208858339
 30
0.0
 11
130.2265069677
 21
144.1208858339
 31
0.0
  0
LINE
  5
D2
330
1B
100
AcDbEntity
 67
     1
  8
SLD-0
  6
Continuous
 62
     7
100
AcDbLine
 10
131.911507452
 20
145.805886372
 30
0.0
 11
131.911507452
 21
144.2821066668
 31
0.0
  0
LINE
  5
D3
330
1B
100
AcDbEntity
 67
     1
  8
SLD-0
  6
Continuous
 62
     7
100
AcDbLine
 10
133.1027290401
 20
143.090885876
 30
0.0
 11
134.6265087453
 21
143.090885876
 31
0.0
  0
LINE
  5
D4
330
1B
100
AcDbEntity
 67
     1
  8
SLD-0
  6
Continuous
 62
     7
100
AcDbLine
 10
134.6265087453
 20
144.1208856094
 30
0.0
 11
133.1027288066
 21
144.1208856094
 31
0.0
  0
LINE
  5
D5
330
1B
100
AcDbEntity
 67
     1
  8
SLD-0
  6
Continuous
 62
     7
100
AcDbLine
 10
130.2265069677
 20
143.0908859073
 30
0.0
 11
131.7502866728
 21
143.0908859073
 31
0.0
  0
LINE
  5
D6
330
1B
100
AcDbEntity
 67
     1
  8
SLD-0
  6
Continuous
 62
     7
100
AcDbLine
 10
221.526506473
 20
158.1058854534
 30
0.0
 11
221.526506473
 21
164.1058855055
 31
0.0
  0
LINE
  5
D7
330
1B
100
AcDbEntity
 67
     1
  8
SLD-0
  6
Continuous
 62
     7
100
AcDbLine
 10
221.526506473
 20
152.1058854012
 30
0.0
 11
221.526506473
 21
158.1058854534
 31
0.0
  0
LINE
  5
D8
330
1B
100
AcDbEntity
 67
     1
  8
SLD-0
  6
Continuous
 62
     7
100
AcDbLine
 10
222.3265088393
 20
158.1058854534
 30
0.0
 11
222.3265088393
 21
164.1058855055
 31
0.0
  0
LINE
  5
D9
330
1B
100
AcDbEntity
 67
     1
  8
SLD-0
  6
Continuous
 62
     7
100
AcDbLine
 10
222.3265088393
 20
152.1058854012
 30
0.0
 11
222.3265088393
 21
158.1058854534
 31
0.0
  0
LINE
  5
DA
330
1B
100
AcDbEntity
 67
     1
  8
SLD-0
  6
Continuous
 62
     7
100
AcDbLine
 10
103.3265098227
 20
152.1058854012
 30
0.0
 11
103.3265098227
 21
164.1058855055
 31
0.0
  0
LINE
  5
DB
330
1B
100
AcDbEntity
 67
     1
  8
SLD-0
  6
Continuous
 62
     7
100
AcDbLine
 10
102.5265074564
 20
152.1058854012
 30
0.0
 11
102.5265074564
 21
164.1058855055
 31
0.0
  0
LINE
  5
DC
330
1B
100
AcDbEntity
 67
     1
  8
SLD-0
  6
Continuous
 62
     7
100
AcDbLine
 10
222.4265068067
 20
156.1058853584
 30
0.0
 11
222.3265088393
 21
156.1058853584
 31
0.0
  0
LINE
  5
DD
330
1B
100
AcDbEntity
 67
     1
  8
SLD-0
  6
Continuous
 62
     7
100
AcDbLine
 10
221.526506473
 20
156.1058853584
 30
0.0
 11
221.4265085055
 21
156.1058853584
 31
0.0
  0
LINE
  5
DE
330
1B
100
AcDbEntity
 67
     1
  8
SLD-0
  6
Continuous
 62
     7
100
AcDbLine
 10
103.4265077902
 20
156.1058853584
 30
0.0
 11
103.3265098227
 21
156.1058853584
 31
0.0
  0
LINE
  5
DF
330
1B
100
AcDbEntity
 67
     1
  8
SLD-0
  6
Continuous
 62
     7
100
AcDbLine
 10
102.5265074564
 20
156.1058853584
 30
0.0
 11
102.426509489
 21
156.1058853584
 31
0.0
  0
LINE
  5
E0
330
1B
100
AcDbEntity
 67
     1
  8
SLD-0
  6
Continuous
 62
     7
100
AcDbLine
 10
102.426509489
 20
160.1058855484
 30
0.0
 11
102.5265074564
 21
160.1058855484
 31
0.0
  0
LINE
  5
E1
330
1B
100
AcDbEntity
 67
     1
  8
SLD-0
  6
Continuous
 62
     7
100
AcDbLine
 10
103.3265098227
 20
160.1058855484
 30
0.0
 11
103.4265077902
 21
160.1058855484
 31
0.0
  0
LINE
  5
E2
330
1B
100
AcDbEntity
 67
     1
  8
SLD-0
  6
Continuous
 62
     7
100
AcDbLine
 10
221.4265085055
 20
160.1058855484
 30
0.0
 11
221.526506473
 21
160.1058855484
 31
0.0
  0
LINE
  5
E3
330
1B
100
AcDbEntity
 67
     1
  8
SLD-0
  6
Continuous
 62
     7
100
AcDbLine
 10
222.3265088393
 20
160.1058855484
 30
0.0
 11
222.4265068067
 21
160.1058855484
 31
0.0
  0
LINE
  5
E4
330
1B
100
AcDbEntity
 67
     1
  8
SLD-0
  6
Continuous
 62
     7
100
AcDbLine
 10
220.4265062163
 20
150.6058853584
 30
0.0
 11
104.4265095542
 21
150.6058853584
 31
0.0
  0
LINE
  5
E5
330
1B
100
AcDbEntity
 67
     1
  8
SLD-0
  6
Continuous
 62
     7
100
AcDbLine
 10
104.4265095542
 20
165.6058855483
 30
0.0
 11
220.4265062163
 21
165.6058855483
 31
0.0
  0
LINE
  5
E6
330
1B
100
AcDbEntity
 67
     1
  8
SLD-0
  6
Continuous
 62
     7
100
AcDbLine
 10
221.4265069558
 20
164.6058855876
 30
0.0
 11
221.4265069558
 21
151.6058853193
 31
0.0
  0
LINE
  5
E7
330
1B
100
AcDbEntity
 67
     1
  8
SLD-0
  6
Continuous
 62
     7
100
AcDbLine
 10
103.4265077902
 20
151.6058853193
 30
0.0
 11
103.4265077902
 21
164.6058855875
 31
0.0
  0
LINE
  5
E8
330
1B
100
AcDbEntity
 67
     1
  8
SLD-0
  6
Continuous
 62
     7
100
AcDbLine
 10
103.4265077902
 20
151.6058853193
 30
0.0
 11
103.4265077902
 21
149.6058849914
 31
0.0
  0
LINE
  5
E9
330
1B
100
AcDbEntity
 67
     1
  8
SLD-0
  6
Continuous
 62
     7
100
AcDbLine
 10
221.4265069558
 20
149.6058849914
 30
0.0
 11
221.4265069558
 21
151.6058853193
 31
0.0
  0
LINE
  5
EA
330
1B
100
AcDbEntity
 67
     1
  8
SLD-0
  6
Continuous
 62
     7
100
AcDbLine
 10
220.4265057041
 20
125.6058858707
 30
0.0
 11
104.426509042
 21
125.6058858707
 31
0.0
  0
LINE
  5
EB
330
1B
100
AcDbEntity
 67
     1
  8
SLD-0
  6
Continuous
 62
     7
100
AcDbLine
 10
221.4265069558
 20
149.6058849914
 30
0.0
 11
221.4265069558
 21
126.6058849467
 31
0.0
  0
LINE
  5
EC
330
1B
100
AcDbEntity
 67
     1
  8
SLD-0
  6
Continuous
 62
     7
100
AcDbLine
 10
103.4265077902
 20
126.6058849467
 30
0.0
 11
103.4265077902
 21
149.6058849914
 31
0.0
  0
LINE
  5
ED
330
1B
100
AcDbEntity
 67
     1
  8
SLD-0
  6
Continuous
 62
     7
100
AcDbLine
 10
247.4265072538
 20
164.6058855876
 30
0.0
 11
247.4265072538
 21
147.6058855949
 31
0.0
  0
LINE
  5
EE
330
1B
100
AcDbEntity
 67
     1
  8
SLD-0
  6
Continuous
 62
     7
100
AcDbLine
 10
222.4265074587
 20
85.6058873159
 30
0.0
 11
222.4265074587
 21
147.6058853713
 31
0.0
  0
LINE
  5
EF
330
1B
100
AcDbEntity
 67
     1
  8
SLD-0
  6
Continuous
 62
     7
100
AcDbLine
 10
77.4265072538
 20
60.6058890297
 30
0.0
 11
77.4265072538
 21
147.6058855949
 31
0.0
  0
LINE
  5
F0
330
1B
100
AcDbEntity
 67
     1
  8
SLD-0
  6
Continuous
 62
     7
100
AcDbLine
 10
246.426506913
 20
165.6058858165
 30
0.0
 11
223.4265087309
 21
165.6058858165
 31
0.0
  0
LINE
  5
F1
330
1B
100
AcDbEntity
 67
     1
  8
SLD-0
  6
Continuous
 62
     7
100
AcDbLine
 10
77.4265072538
 20
147.6058855949
 30
0.0
 11
77.4265072538
 21
164.6058855875
 31
0.0
  0
LINE
  5
F2
330
1B
100
AcDbEntity
 67
     1
  8
SLD-0
  6
Continuous
 62
     7
100
AcDbLine
 10
101.4265069316
 20
165.6058858165
 30
0.0
 11
78.4265087495
 21
165.6058858165
 31
0.0
  0
LINE
  5
F3
330
1B
100
AcDbEntity
 67
     1
  8
SLD-0
  6
Continuous
 62
     7
100
AcDbLine
 10
102.4265082037
 20
147.6058853713
 30
0.0
 11
102.4265082037
 21
85.6058873159
 31
0.0
  0
LINE
  5
F4
330
1B
100
AcDbEntity
 67
     1
  8
SLD-0
  6
Continuous
 62
     7
100
AcDbLine
 10
222.4265074587
 20
147.6058853713
 30
0.0
 11
222.4265074587
 21
164.6058853639
 31
0.0
  0
LINE
  5
F5
330
1B
100
AcDbEntity
 67
     1
  8
SLD-0
  6
Continuous
 62
     7
100
AcDbLine
 10
102.4265082037
 20
164.6058853639
 30
0.0
 11
102.4265082037
 21
147.6058853713
 31
0.0
  0
LINE
  5
F6
330
1B
100
AcDbEntity
 67
     1
  8
SLD-0
  6
Continuous
 62
     7
100
AcDbLine
 10
247.4265072538
 20
147.6058855949
 30
0.0
 11
247.4265072538
 21
60.6058890297
 31
0.0
  0
LINE
  5
F7
330
1B
100
AcDbEntity
 67
     1
  8
SLD-0
  6
Continuous
 62
     7
100
AcDbLine
 10
242.4265054657
 20
55.6058854534
 30
0.0
 11
82.426509042
 21
55.6058854534
 31
0.0
  0
LINE
  5
F8
330
1B
100
AcDbEntity
 67
     1
  8
SLD-0
  6
Continuous
 62
     7
100
AcDbLine
 10
107.4265081293
 20
80.6058856023
 30
0.0
 11
217.4265075332
 21
80.6058856023
 31
0.0
  0
LINE
  5
F9
330
1B
100
AcDbEntity
 67
     1
  8
SLD-0
  6
CENTER
 62
     7
100
AcDbLine
 10
162.4265081478
 20
53.1576225906
 30
0.0
 11
162.4265081478
 21
166.6058854534
 31
0.0
  0
LINE
  5
FA
330
1B
100
AcDbEntity
 67
     1
  8
SLD-0
  6
Continuous
 62
     7
100
AcDbLine
 10
376.8186453327
 20
141.6058855428
 30
0.0
 11
382.3135993972
 21
143.6058858706
 31
0.0
  0
LINE
  5
FB
330
1B
100
AcDbEntity
 67
     1
  8
SLD-0
  6
Continuous
 62
     7
100
AcDbLine
 10
382.3135993972
 20
143.6058858706
 30
0.0
 11
376.8186453327
 21
145.6058852671
 31
0.0
  0
LINE
  5
FC
330
1B
100
AcDbEntity
 67
     1
  8
SLD-0
  6
Continuous
 62
     7
100
AcDbLine
 10
376.8186453327
 20
145.6058852671
 30
0.0
 11
367.0136002421
 21
145.6058852671
 31
0.0
  0
LINE
  5
FD
330
1B
100
AcDbEntity
 67
     1
  8
SLD-0
  6
Continuous
 62
     7
100
AcDbLine
 10
367.0136002421
 20
141.6058855428
 30
0.0
 11
376.8186453327
 21
141.6058855428
 31
0.0
  0
LINE
  5
FE
330
1B
100
AcDbEntity
 67
     1
  8
SLD-0
  6
Continuous
 62
     7
100
AcDbLine
 10
353.5135998849
 20
156.3738346508
 30
0.0
 11
355.013599891
 21
157.2398600581
 31
0.0
  0
LINE
  5
FF
330
1B
100
AcDbEntity
 67
     1
  8
SLD-0
  6
Continuous
 62
     7
100
AcDbLine
 10
355.013599891
 20
157.2398600581
 30
0.0
 11
355.013599891
 21
158.9719108486
 31
0.0
  0
LINE
  5
100
330
1B
100
AcDbEntity
 67
     1
  8
SLD-0
  6
Continuous
 62
     7
100
AcDbLine
 10
355.013599891
 20
158.9719108486
 30
0.0
 11
353.5135998849
 21
159.8379362559
 31
0.0
  0
LINE
  5
101
330
1B
100
AcDbEntity
 67
     1
  8
SLD-0
  6
Continuous
 62
     7
100
AcDbLine
 10
353.5135998849
 20
159.8379362559
 30
0.0
 11
352.0135998789
 21
158.9719108486
 31
0.0
  0
LINE
  5
102
330
1B
100
AcDbEntity
 67
     1
  8
SLD-0
  6
Continuous
 62
     7
100
AcDbLine
 10
352.0135998789
 20
158.9719108486
 30
0.0
 11
352.0135998789
 21
157.2398600581
 31
0.0
  0
LINE
  5
103
330
1B
100
AcDbEntity
 67
     1
  8
SLD-0
  6
Continuous
 62
     7
100
AcDbLine
 10
352.0135998789
 20
157.2398600581
 30
0.0
 11
353.5135998849
 21
156.3738346508
 31
0.0
  0
LINE
  5
104
330
1B
100
AcDbEntity
 67
     1
  8
SLD-0
  6
Continuous
 62
     7
100
AcDbLine
 10
376.8186453327
 20
145.6058852671
 30
0.0
 11
376.8186453327
 21
141.6058855428
 31
0.0
  0
LINE
  5
105
330
1B
100
AcDbEntity
 67
     1
  8
SLD-0
  6
Continuous
 62
     7
100
AcDbLine
 10
367.0135981746
 20
125.6058853044
 30
0.0
 11
363.013597519
 21
125.6058853044
 31
0.0
  0
LINE
  5
106
330
1B
100
AcDbEntity
 67
     1
  8
SLD-0
  6
Continuous
 62
     7
100
AcDbLine
 10
367.0135981746
 20
126.6058836056
 30
0.0
 11
367.0135981746
 21
125.6058853044
 31
0.0
  0
LINE
  5
107
330
1B
100
AcDbEntity
 67
     1
  8
SLD-0
  6
Continuous
 62
     7
100
AcDbLine
 10
353.513599063
 20
165.6058861146
 30
0.0
 11
367.0135981746
 21
165.6058861146
 31
0.0
  0
LINE
  5
108
330
1B
100
AcDbEntity
 67
     1
  8
SLD-0
  6
Continuous
 62
     7
100
AcDbLine
 10
367.0135981746
 20
165.6058861146
 30
0.0
 11
367.0135981746
 21
164.6058842464
 31
0.0
  0
LINE
  5
109
330
1B
100
AcDbEntity
 67
     1
  8
SLD-0
  6
Continuous
 62
     7
100
AcDbLine
 10
367.0135981746
 20
164.6058842464
 30
0.0
 11
367.0135981746
 21
126.6058836056
 31
0.0
  0
LINE
  5
10A
330
1B
100
AcDbEntity
 67
     1
  8
SLD-0
  6
Continuous
 62
     7
100
AcDbLine
 10
362.0135986514
 20
126.6058839707
 30
0.0
 11
362.0135986514
 21
149.6058840154
 31
0.0
  0
LINE
  5
10B
330
1B
100
AcDbEntity
 67
     1
  8
SLD-0
  6
Continuous
 62
     7
100
AcDbLine
 10
361.013598169
 20
150.6058847922
 30
0.0
 11
353.5135983366
 21
150.6058847922
 31
0.0
  0
LINE
  5
10C
330
1B
100
AcDbEntity
 67
     1
  8
SLD-0
  6
Continuous
 62
     7
100
AcDbLine
 10
353.5135983366
 20
150.6058847922
 30
0.0
 11
334.0135979343
 21
150.6058847922
 31
0.0
  0
LINE
  5
10D
330
1B
100
AcDbEntity
 67
     1
  8
SLD-0
  6
Continuous
 62
     7
100
AcDbLine
 10
334.0135986607
 20
165.6058861146
 30
0.0
 11
353.513599063
 21
165.6058861146
 31
0.0
  0
LINE
  5
10E
330
1B
100
AcDbEntity
 67
     1
  8
SLD-0
  6
Continuous
 62
     7
100
AcDbLine
 10
324.0135981634
 20
60.6058881953
 30
0.0
 11
324.0135981634
 21
56.6058875396
 31
0.0
  0
LINE
  5
10F
330
1B
100
AcDbEntity
 67
     1
  8
SLD-0
  6
Continuous
 62
     7
100
AcDbLine
 10
324.0135981634
 20
140.6058845445
 30
0.0
 11
324.0135981634
 21
60.6058881953
 31
0.0
  0
LINE
  5
110
330
1B
100
AcDbEntity
 67
     1
  8
SLD-0
  6
Continuous
 62
     7
100
AcDbLine
 10
323.0135983571
 20
55.6058851554
 30
0.0
 11
317.0135992363
 21
55.6058851554
 31
0.0
  0
LINE
  5
111
330
1B
100
AcDbEntity
 67
     1
  8
SLD-0
  6
Continuous
 62
     7
100
AcDbLine
 10
316.0135984018
 20
60.6058890297
 30
0.0
 11
316.0135984018
 21
147.6058855949
 31
0.0
  0
LINE
  5
112
330
1B
100
AcDbEntity
 67
     1
  8
SLD-0
  6
Continuous
 62
     7
100
AcDbLine
 10
316.0135984018
 20
56.605888374
 30
0.0
 11
316.0135984018
 21
60.6058890297
 31
0.0
  0
LINE
  5
113
330
1B
100
AcDbEntity
 67
     1
  8
SLD-0
  6
Continuous
 62
     7
100
AcDbLine
 10
324.0135981634
 20
79.6058819964
 30
0.0
 11
324.0135981634
 21
85.6058867051
 31
0.0
  0
LINE
  5
114
330
1B
100
AcDbEntity
 67
     1
  8
SLD-0
  6
Continuous
 62
     7
100
AcDbLine
 10
316.0135984018
 20
85.6058875395
 30
0.0
 11
316.0135984018
 21
79.6058828308
 31
0.0
  0
LINE
  5
115
330
1B
100
AcDbEntity
 67
     1
  8
SLD-0
  6
Continuous
 62
     7
100
AcDbLine
 10
324.0135981634
 20
140.6058845445
 30
0.0
 11
324.0135981634
 21
85.6058867051
 31
0.0
  0
LINE
  5
116
330
1B
100
AcDbEntity
 67
     1
  8
SLD-0
  6
Continuous
 62
     7
100
AcDbLine
 10
316.0135984018
 20
85.6058875395
 30
0.0
 11
316.0135984018
 21
147.6058855949
 31
0.0
  0
LINE
  5
117
330
1B
100
AcDbEntity
 67
     1
  8
SLD-0
  6
CENTER
 62
     7
100
AcDbLine
 10
358.1798934798
 20
143.6058854534
 30
0.0
 11
386.1847471609
 21
143.6058854534
 31
0.0
  0
LINE
  5
118
330
1B
100
AcDbEntity
 67
     1
  8
SLD-0
  6
CENTER
 62
     7
100
AcDbLine
 10
137.5265081478
 20
143.6058854534
 30
0.0
 11
127.3265081478
 21
143.6058854534
 31
0.0
  0
LINE
  5
119
330
1B
100
AcDbEntity
 67
     1
  8
SLD-0
  6
CENTER
 62
     7
100
AcDbLine
 10
132.4265081478
 20
148.7058854534
 30
0.0
 11
132.4265081478
 21
138.5058854534
 31
0.0
  0
LINE
  5
11A
330
1B
100
AcDbEntity
 67
     1
  8
SLD-0
  6
CENTER
 62
     7
100
AcDbLine
 10
371.5253050807
 20
158.1058854534
 30
0.0
 11
311.242309945
 21
158.1058854534
 31
0.0
  0
LINE
  5
11B
330
1B
100
AcDbEntity
 67
     1
  8
SLD-0
  6
CENTER
 62
     7
100
AcDbLine
 10
353.5135998919
 20
167.6058854534
 30
0.0
 11
353.5135998919
 21
148.6058854534
 31
0.0
  0
LINE
  5
11C
330
1B
100
AcDbEntity
 67
     1
  8
SLD-0
  6
Continuous
 62
     7
100
AcDbLine
 10
30.1718109004
 20
19.8435834722
 30
0.0
 11
27.7302342086
 21
15.8657439043
 31
0.0
  0
LINE
  5
11D
330
1B
100
AcDbEntity
 67
     1
  8
SLD-0
  6
Continuous
 62
     7
100
AcDbLine
 10
27.7302342086
 20
15.8657439043
 30
0.0
 11
32.6523479069
 21
15.8657439043
 31
0.0
  0
LINE
  5
11E
330
1B
100
AcDbEntity
 67
     1
  8
SLD-0
  6
Continuous
 62
     7
100
AcDbLine
 10
32.6523479069
 20
15.8657439043
 30
0.0
 11
30.1718109004
 21
19.8435834722
 31
0.0
  0
LINE
  5
11F
330
1B
100
AcDbEntity
 67
     1
  8
SLD-0
  6
Continuous
 62
     7
100
AcDbLine
 10
30.2126559815
 20
25.2324736862
 30
0.0
 11
27.7710792897
 21
21.2546341184
 31
0.0
  0
LINE
  5
120
330
1B
100
AcDbEntity
 67
     1
  8
SLD-0
  6
Continuous
 62
     7
100
AcDbLine
 10
27.7710792897
 20
21.2546341184
 30
0.0
 11
32.6931929881
 21
21.2546341184
 31
0.0
  0
LINE
  5
121
330
1B
100
AcDbEntity
 67
     1
  8
SLD-0
  6
Continuous
 62
     7
100
AcDbLine
 10
32.6931929881
 20
21.2546341184
 30
0.0
 11
30.2126559815
 21
25.2324736862
 31
0.0
  0
LINE
  5
122
330
1B
100
AcDbEntity
 67
     1
  8
SLD-0
  6
Continuous
 62
     7
100
AcDbLine
 10
30.2427566899
 20
30.7865477178
 30
0.0
 11
27.8011799981
 21
26.8087081499
 31
0.0
  0
LINE
  5
123
330
1B
100
AcDbEntity
 67
     1
  8
SLD-0
  6
Continuous
 62
     7
100
AcDbLine
 10
27.8011799981
 20
26.8087081499
 30
0.0
 11
32.7232936965
 21
26.8087081499
 31
0.0
  0
LINE
  5
124
330
1B
100
AcDbEntity
 67
     1
  8
SLD-0
  6
Continuous
 62
     7
100
AcDbLine
 10
32.7232936965
 20
26.8087081499
 30
0.0
 11
30.2427566899
 21
30.7865477178
 31
0.0
  0
LINE
  5
125
330
1B
100
AcDbEntity
 67
     1
  8
SLD-0
  6
Continuous
 62
     7
100
AcDbLine
 10
291.0
 20
9.5
 30
0.0
 11
291.0
 21
31.5
 31
0.0
  0
LINE
  5
126
330
1B
100
AcDbEntity
 67
     1
  8
SLD-0
  6
Continuous
 62
     7
100
AcDbLine
 10
358.5550076286
 20
30.9049236191
 30
0.0
 11
360.3667723576
 21
30.9049236191
 31
0.0
  0
LINE
  5
127
330
1B
100
AcDbEntity
 67
     1
  8
SLD-0
  6
Continuous
 62
     7
370
    35
100
AcDbLine
 10
21.0
 20
9.5
 30
0.0
 11
408.5
 21
9.5
 31
0.0
  0
LINE
  5
128
330
1B
100
AcDbEntity
 67
     1
  8
SLD-0
  6
Continuous
 62
     7
370
    35
100
AcDbLine
 10
21.0
 20
286.5
 30
0.0
 11
21.0
 21
9.5
 31
0.0
  0
LINE
  5
129
330
1B
100
AcDbEntity
 67
     1
  8
SLD-0
  6
Continuous
 62
     7
370
    35
100
AcDbLine
 10
21.0
 20
31.5
 30
0.0
 11
138.0
 21
31.5
 31
0.0
  0
LINE
  5
12A
330
1B
100
AcDbEntity
 67
     1
  8
SLD-0
  6
Continuous
 62
     7
370
    35
100
AcDbLine
 10
408.5
 20
286.5
 30
0.0
 11
408.5
 21
9.5
 31
0.0
  0
LINE
  5
12B
330
1B
100
AcDbEntity
 67
     1
  8
SLD-0
  6
Continuous
 62
     7
370
    35
100
AcDbLine
 10
138.0
 20
31.5
 30
0.0
 11
408.5
 21
31.5
 31
0.0
  0
LINE
  5
12C
330
1B
100
AcDbEntity
 67
     1
  8
SLD-0
  6
Continuous
 62
     7
370
    35
100
AcDbLine
 10
21.0
 20
286.5
 30
0.0
 11
408.5
 21
286.5
 31
0.0
  0
LINE
  5
12D
330
1B
100
AcDbEntity
 67
     1
  8
SLD-0
  6
Continuous
 62
     7
100
AcDbLine
 10
26.5
 20
20.5
 30
0.0
 11
138.0
 21
20.5
 31
0.0
  0
LINE
  5
12E
330
1B
100
AcDbEntity
 67
     1
  8
SLD-0
  6
Continuous
 62
     7
100
AcDbLine
 10
49.5
 20
31.5
 30
0.0
 11
49.5
 21
9.5
 31
0.0
  0
LINE
  5
12F
330
1B
100
AcDbEntity
 67
     1
  8
SLD-0
  6
Continuous
 62
     7
100
AcDbLine
 10
26.5
 20
26.0
 30
0.0
 11
138.0
 21
26.0
 31
0.0
  0
LINE
  5
130
330
1B
100
AcDbEntity
 67
     1
  8
SLD-0
  6
Continuous
 62
     7
100
AcDbLine
 10
34.5
 20
31.5
 30
0.0
 11
34.5
 21
9.5
 31
0.0
  0
LINE
  5
131
330
1B
100
AcDbEntity
 67
     1
  8
SLD-0
  6
Continuous
 62
     7
100
AcDbLine
 10
26.5
 20
31.5
 30
0.0
 11
26.5
 21
9.5
 31
0.0
  0
LINE
  5
132
330
1B
100
AcDbEntity
 67
     1
  8
SLD-0
  6
Continuous
 62
     7
100
AcDbLine
 10
26.5
 20
15.0
 30
0.0
 11
138.0
 21
15.0
 31
0.0
  0
LINE
  5
133
330
1B
100
AcDbEntity
 67
     1
  8
SLD-0
  6
Continuous
 62
     7
100
AcDbLine
 10
203.0
 20
31.5
 30
0.0
 11
203.0
 21
9.5
 31
0.0
  0
LINE
  5
134
330
1B
100
AcDbEntity
 67
     1
  8
SLD-0
  6
Continuous
 62
     7
100
AcDbLine
 10
198.0
 20
31.5
 30
0.0
 11
198.0
 21
9.5
 31
0.0
  0
LINE
  5
135
330
1B
100
AcDbEntity
 67
     1
  8
SLD-0
  6
Continuous
 62
     7
100
AcDbLine
 10
143.0
 20
31.5
 30
0.0
 11
143.0
 21
9.5
 31
0.0
  0
LINE
  5
136
330
1B
100
AcDbEntity
 67
     1
  8
SLD-0
  6
Continuous
 62
     7
100
AcDbLine
 10
138.0
 20
31.5
 30
0.0
 11
138.0
 21
20.5
 31
0.0
  0
LINE
  5
137
330
1B
100
AcDbEntity
 67
     1
  8
SLD-0
  6
Continuous
 62
     7
100
AcDbLine
 10
59.5
 20
31.5
 30
0.0
 11
59.5
 21
9.5
 31
0.0
  0
LINE
  5
138
330
1B
100
AcDbEntity
 67
     1
  8
SLD-0
  6
Continuous
 62
     7
100
AcDbLine
 10
231.0
 20
31.5
 30
0.0
 11
231.0
 21
20.5
 31
0.0
  0
LINE
  5
139
330
1B
100
AcDbEntity
 67
     1
  8
SLD-0
  6
Continuous
 62
     7
100
AcDbLine
 10
236.0
 20
31.5
 30
0.0
 11
236.0
 21
20.5
 31
0.0
  0
LINE
  5
13A
330
1B
100
AcDbEntity
 67
     1
  8
SLD-0
  6
Continuous
 62
     7
100
AcDbLine
 10
251.0
 20
31.5
 30
0.0
 11
251.0
 21
20.5
 31
0.0
  0
LINE
  5
13B
330
1B
100
AcDbEntity
 67
     1
  8
SLD-0
  6
Continuous
 62
     7
100
AcDbLine
 10
256.0
 20
31.5
 30
0.0
 11
256.0
 21
20.5
 31
0.0
  0
LINE
  5
13C
330
1B
100
AcDbEntity
 67
     1
  8
SLD-0
  6
Continuous
 62
     7
100
AcDbLine
 10
296.0
 20
31.5
 30
0.0
 11
296.0
 21
20.5
 31
0.0
  0
LINE
  5
13D
330
1B
100
AcDbEntity
 67
     1
  8
SLD-0
  6
Continuous
 62
     7
100
AcDbLine
 10
311.0
 20
31.5
 30
0.0
 11
311.0
 21
9.5
 31
0.0
  0
LINE
  5
13E
330
1B
100
AcDbEntity
 67
     1
  8
SLD-0
  6
Continuous
 62
     7
100
AcDbLine
 10
326.0
 20
31.5
 30
0.0
 11
326.0
 21
9.5
 31
0.0
  0
LINE
  5
13F
330
1B
100
AcDbEntity
 67
     1
  8
SLD-0
  6
Continuous
 62
     7
100
AcDbLine
 10
341.0
 20
31.5
 30
0.0
 11
341.0
 21
9.5
 31
0.0
  0
LINE
  5
140
330
1B
100
AcDbEntity
 67
     1
  8
SLD-0
  6
Continuous
 62
     7
100
AcDbLine
 10
356.0
 20
31.5
 30
0.0
 11
356.0
 21
9.5
 31
0.0
  0
LINE
  5
141
330
1B
100
AcDbEntity
 67
     1
  8
SLD-0
  6
Continuous
 62
     7
100
AcDbLine
 10
356.0
 20
20.5
 30
0.0
 11
408.5
 21
20.5
 31
0.0
  0
LINE
  5
142
330
1B
100
AcDbEntity
 67
     1
  8
SLD-0
  6
Continuous
 62
     7
100
AcDbLine
 10
361.0
 20
20.5
 30
0.0
 11
361.0
 21
9.5
 31
0.0
  0
LINE
  5
143
330
1B
100
AcDbEntity
 67
     1
  8
SLD-0
  6
Continuous
 62
     7
100
AcDbLine
 10
311.0
 20
26.5
 30
0.0
 11
356.0
 21
26.5
 31
0.0
  0
LINE
  5
144
330
1B
100
AcDbEntity
 67
     1
  8
SLD-0
  6
Continuous
 62
     7
100
AcDbLine
 10
138.0
 20
20.5
 30
0.0
 11
311.0
 21
20.5
 31
0.0
  0
LINE
  5
145
330
1B
100
AcDbEntity
 67
     1
  8
SLD-0
  6
Continuous
 62
     7
100
AcDbLine
 10
138.0
 20
20.5
 30
0.0
 11
138.0
 21
9.5
 31
0.0
  0
LINE
  5
146
330
1B
100
AcDbEntity
 67
     1
  8
SLD-0
  6
Continuous
 62
     7
100
AcDbLine
 10
360.3667723576
 20
25.922570647
 30
0.0
 11
361.6123606662
 21
25.922570647
 31
0.0
  0
LINE
  5
147
330
1B
100
AcDbEntity
 67
     1
  8
SLD-0
  6
Continuous
 62
     7
100
AcDbLine
 10
358.5550076286
 20
24.790217675
 30
0.0
 11
363.1976547877
 21
24.790217675
 31
0.0
  0
LINE
  5
148
330
1B
100
AcDbEntity
 67
     1
  8
SLD-0
  6
Continuous
 62
     7
100
AcDbLine
 10
358.5550076286
 20
30.9049236191
 30
0.0
 11
358.5550076286
 21
24.790217675
 31
0.0
  0
LINE
  5
149
330
1B
100
AcDbEntity
 67
     1
  8
SLD-0
  6
Continuous
 62
     7
100
AcDbLine
 10
360.3667723576
 20
30.9049236191
 30
0.0
 11
360.3667723576
 21
25.922570647
 31
0.0
  0
LINE
  5
14A
330
1B
100
AcDbEntity
 67
     1
  8
SLD-0
  6
Continuous
 62
     7
100
AcDbLine
 10
361.6123606662
 20
30.9049236191
 30
0.0
 11
361.6123606662
 21
25.922570647
 31
0.0
  0
LINE
  5
14B
330
1B
100
AcDbEntity
 67
     1
  8
SLD-0
  6
Continuous
 62
     7
100
AcDbLine
 10
363.1976547877
 20
30.9049236191
 30
0.0
 11
363.1976547877
 21
26.8284528149
 31
0.0
  0
LINE
  5
14C
330
1B
100
AcDbEntity
 67
     1
  8
SLD-0
  6
Continuous
 62
     7
100
AcDbLine
 10
364.4432428996
 20
30.9049236191
 30
0.0
 11
364.4432428996
 21
26.8284528149
 31
0.0
  0
LINE
  5
14D
330
1B
100
AcDbEntity
 67
     1
  8
SLD-0
  6
Continuous
 62
     7
100
AcDbLine
 10
366.2550076286
 20
30.9049236191
 30
0.0
 11
366.2550076286
 21
25.922570647
 31
0.0
  0
LINE
  5
14E
330
1B
100
AcDbEntity
 67
     1
  8
SLD-0
  6
Continuous
 62
     7
100
AcDbLine
 10
361.6123606662
 20
30.9049236191
 30
0.0
 11
363.1976547877
 21
30.9049236191
 31
0.0
  0
LINE
  5
14F
330
1B
100
AcDbEntity
 67
     1
  8
SLD-0
  6
Continuous
 62
     7
100
AcDbLine
 10
364.4432428996
 20
30.9049236191
 30
0.0
 11
366.2550076286
 21
30.9049236191
 31
0.0
  0
LINE
  5
150
330
1B
100
AcDbEntity
 67
     1
  8
SLD-0
  6
Continuous
 62
     7
100
AcDbLine
 10
363.1976547877
 20
26.8284528149
 30
0.0
 11
364.4432428996
 21
26.8284528149
 31
0.0
  0
LINE
  5
151
330
1B
100
AcDbEntity
 67
     1
  8
SLD-0
  6
Continuous
 62
     7
100
AcDbLine
 10
363.1976547877
 20
25.922570647
 30
0.0
 11
366.2550076286
 21
25.922570647
 31
0.0
  0
LINE
  5
152
330
1B
100
AcDbEntity
 67
     1
  8
SLD-0
  6
Continuous
 62
     7
100
AcDbLine
 10
363.1976547877
 20
25.922570647
 30
0.0
 11
363.1976547877
 21
24.790217675
 31
0.0
  0
LINE
  5
153
330
1B
100
AcDbEntity
 67
     1
  8
SLD-0
  6
Continuous
 62
     7
100
AcDbLine
 10
123.0
 20
31.5
 30
0.0
 11
123.0
 21
9.5
 31
0.0
  0
LINE
  5
154
330
1B
100
AcDbEntity
 67
     1
  8
SLD-0
  6
PHANTOM
 62
     7
100
AcDbLine
 10
237.7224750929
 20
9.5
 30
0.0
 11
291.0
 21
9.5
 31
0.0
  0
LINE
  5
155
330
1B
100
AcDbEntity
 67
     1
  8
SLD-0
  6
Continuous
 62
     7
100
AcDbLine
 10
192.9415083512
 20
143.0908859739
 30
0.0
 11
192.9683784695
 21
143.0908859739
 31
0.0
  0
LINE
  5
156
330
1B
100
AcDbEntity
 67
     1
  8
SLD-0
  6
Continuous
 62
     7
100
AcDbLine
 10
192.9683784695
 20
143.0908859739
 30
0.0
 11
192.9952486779
 21
143.0908859739
 31
0.0
  0
LINE
  5
157
330
1B
100
AcDbEntity
 67
     1
  8
SLD-0
  6
Continuous
 62
     7
100
AcDbLine
 10
192.9952486779
 20
143.0908859739
 30
0.0
 11
193.0221188864
 21
143.0908859739
 31
0.0
  0
LINE
  5
158
330
1B
100
AcDbEntity
 67
     1
  8
SLD-0
  6
Continuous
 62
     7
100
AcDbLine
 10
193.0221188864
 20
143.0908859739
 30
0.0
 11
193.0489890949
 21
143.0908859739
 31
0.0
  0
LINE
  5
159
330
1B
100
AcDbEntity
 67
     1
  8
SLD-0
  6
Continuous
 62
     7
100
AcDbLine
 10
193.0489890949
 20
143.0908859739
 30
0.0
 11
193.0758593034
 21
143.0908859739
 31
0.0
  0
LINE
  5
15A
330
1B
100
AcDbEntity
 67
     1
  8
SLD-0
  6
Continuous
 62
     7
100
AcDbLine
 10
193.0758593034
 20
143.0908859739
 30
0.0
 11
193.1027295119
 21
143.0908859739
 31
0.0
  0
LINE
  5
15B
330
1B
100
AcDbEntity
 67
     1
  8
SLD-0
  6
Continuous
 62
     7
100
AcDbLine
 10
192.9415083512
 20
142.9296646356
 30
0.0
 11
192.9415083512
 21
143.010275261
 31
0.0
  0
LINE
  5
15C
330
1B
100
AcDbEntity
 67
     1
  8
SLD-0
  6
Continuous
 62
     7
100
AcDbLine
 10
192.9415083512
 20
143.010275261
 30
0.0
 11
192.9415083512
 21
143.0908859739
 31
0.0
  0
LINE
  5
15D
330
1B
100
AcDbEntity
 67
     1
  8
SLD-0
  6
Continuous
 62
     7
100
AcDbLine
 10
192.9415085757
 20
144.1208856094
 30
0.0
 11
192.9415085757
 21
144.1477561611
 31
0.0
  0
LINE
  5
15E
330
1B
100
AcDbEntity
 67
     1
  8
SLD-0
  6
Continuous
 62
     7
100
AcDbLine
 10
192.9415085757
 20
144.1477561611
 30
0.0
 11
192.9415085757
 21
144.1746262144
 31
0.0
  0
LINE
  5
15F
330
1B
100
AcDbEntity
 67
     1
  8
SLD-0
  6
Continuous
 62
     7
100
AcDbLine
 10
192.9415085757
 20
144.1746262144
 30
0.0
 11
192.9415085757
 21
144.2014962677
 31
0.0
  0
LINE
  5
160
330
1B
100
AcDbEntity
 67
     1
  8
SLD-0
  6
Continuous
 62
     7
100
AcDbLine
 10
192.9415085757
 20
144.2014962677
 30
0.0
 11
192.9415085757
 21
144.2283663209
 31
0.0
  0
LINE
  5
161
330
1B
100
AcDbEntity
 67
     1
  8
SLD-0
  6
Continuous
 62
     7
100
AcDbLine
 10
192.9415085757
 20
144.2283663209
 30
0.0
 11
192.9415085757
 21
144.2552363742
 31
0.0
  0
LINE
  5
162
330
1B
100
AcDbEntity
 67
     1
  8
SLD-0
  6
Continuous
 62
     7
100
AcDbLine
 10
192.9415085757
 20
144.2552363742
 30
0.0
 11
192.9415085757
 21
144.2821064274
 31
0.0
  0
LINE
  5
163
330
1B
100
AcDbEntity
 67
     1
  8
SLD-0
  6
Continuous
 62
     7
100
AcDbLine
 10
193.1027293282
 20
144.1208856094
 30
0.0
 11
193.0221187027
 21
144.1208856094
 31
0.0
  0
LINE
  5
164
330
1B
100
AcDbEntity
 67
     1
  8
SLD-0
  6
Continuous
 62
     7
100
AcDbLine
 10
193.0221187027
 20
144.1208856094
 30
0.0
 11
192.9415085757
 21
144.1208856094
 31
0.0
  0
LINE
  5
165
330
1B
100
AcDbEntity
 67
     1
  8
SLD-0
  6
Continuous
 62
     7
100
AcDbLine
 10
191.9115080649
 20
144.1208858339
 30
0.0
 11
191.8846382368
 21
144.1208858339
 31
0.0
  0
LINE
  5
166
330
1B
100
AcDbEntity
 67
     1
  8
SLD-0
  6
Continuous
 62
     7
100
AcDbLine
 10
191.8846382368
 20
144.1208858339
 30
0.0
 11
191.8577680283
 21
144.1208858339
 31
0.0
  0
LINE
  5
167
330
1B
100
AcDbEntity
 67
     1
  8
SLD-0
  6
Continuous
 62
     7
100
AcDbLine
 10
191.8577680283
 20
144.1208858339
 30
0.0
 11
191.8308978198
 21
144.1208858339
 31
0.0
  0
LINE
  5
168
330
1B
100
AcDbEntity
 67
     1
  8
SLD-0
  6
Continuous
 62
     7
100
AcDbLine
 10
191.8308978198
 20
144.1208858339
 30
0.0
 11
191.8040276113
 21
144.1208858339
 31
0.0
  0
LINE
  5
169
330
1B
100
AcDbEntity
 67
     1
  8
SLD-0
  6
Continuous
 62
     7
100
AcDbLine
 10
191.8040276113
 20
144.1208858339
 30
0.0
 11
191.7771574029
 21
144.1208858339
 31
0.0
  0
LINE
  5
16A
330
1B
100
AcDbEntity
 67
     1
  8
SLD-0
  6
Continuous
 62
     7
100
AcDbLine
 10
191.7771574029
 20
144.1208858339
 30
0.0
 11
191.7502871944
 21
144.1208858339
 31
0.0
  0
LINE
  5
16B
330
1B
100
AcDbEntity
 67
     1
  8
SLD-0
  6
Continuous
 62
     7
100
AcDbLine
 10
191.9115080649
 20
144.2821066285
 30
0.0
 11
191.9115080649
 21
144.2014964687
 31
0.0
  0
LINE
  5
16C
330
1B
100
AcDbEntity
 67
     1
  8
SLD-0
  6
Continuous
 62
     7
100
AcDbLine
 10
191.9115080649
 20
144.2014964687
 30
0.0
 11
191.9115080649
 21
144.1208858339
 31
0.0
  0
LINE
  5
16D
330
1B
100
AcDbEntity
 67
     1
  8
SLD-0
  6
Continuous
 62
     7
100
AcDbLine
 10
191.9115084245
 20
143.0908859073
 30
0.0
 11
191.9115084245
 21
143.064015678
 31
0.0
  0
LINE
  5
16E
330
1B
100
AcDbEntity
 67
     1
  8
SLD-0
  6
Continuous
 62
     7
100
AcDbLine
 10
191.9115084245
 20
143.064015678
 30
0.0
 11
191.9115084245
 21
143.0371454695
 31
0.0
  0
LINE
  5
16F
330
1B
100
AcDbEntity
 67
     1
  8
SLD-0
  6
Continuous
 62
     7
100
AcDbLine
 10
191.9115084245
 20
143.0371454695
 30
0.0
 11
191.9115084245
 21
143.010275261
 31
0.0
  0
LINE
  5
170
330
1B
100
AcDbEntity
 67
     1
  8
SLD-0
  6
Continuous
 62
     7
100
AcDbLine
 10
191.9115084245
 20
143.010275261
 30
0.0
 11
191.9115084245
 21
142.9834050525
 31
0.0
  0
LINE
  5
171
330
1B
100
AcDbEntity
 67
     1
  8
SLD-0
  6
Continuous
 62
     7
100
AcDbLine
 10
191.9115084245
 20
142.9834050525
 30
0.0
 11
191.9115084245
 21
142.9565348441
 31
0.0
  0
LINE
  5
172
330
1B
100
AcDbEntity
 67
     1
  8
SLD-0
  6
Continuous
 62
     7
100
AcDbLine
 10
191.9115084245
 20
142.9565348441
 30
0.0
 11
191.9115084245
 21
142.9296646356
 31
0.0
  0
LINE
  5
173
330
1B
100
AcDbEntity
 67
     1
  8
SLD-0
  6
Continuous
 62
     7
100
AcDbLine
 10
191.7502871944
 20
143.0908859073
 30
0.0
 11
191.8308978198
 21
143.0908859073
 31
0.0
  0
LINE
  5
174
330
1B
100
AcDbEntity
 67
     1
  8
SLD-0
  6
Continuous
 62
     7
100
AcDbLine
 10
191.8308978198
 20
143.0908859073
 30
0.0
 11
191.9115084245
 21
143.0908859073
 31
0.0
  0
LINE
  5
175
330
1B
100
AcDbEntity
 67
     1
  8
SLD-0
  6
Continuous
 62
     7
100
AcDbLine
 10
131.9115078336
 20
143.0908859073
 30
0.0
 11
131.9115078336
 21
143.0640156087
 31
0.0
  0
LINE
  5
176
330
1B
100
AcDbEntity
 67
     1
  8
SLD-0
  6
Continuous
 62
     7
100
AcDbLine
 10
131.9115078336
 20
143.0640156087
 30
0.0
 11
131.9115078336
 21
143.0371454002
 31
0.0
  0
LINE
  5
177
330
1B
100
AcDbEntity
 67
     1
  8
SLD-0
  6
Continuous
 62
     7
100
AcDbLine
 10
131.9115078336
 20
143.0371454002
 30
0.0
 11
131.9115078336
 21
143.0102751917
 31
0.0
  0
LINE
  5
178
330
1B
100
AcDbEntity
 67
     1
  8
SLD-0
  6
Continuous
 62
     7
100
AcDbLine
 10
131.9115078336
 20
143.0102751917
 30
0.0
 11
131.9115078336
 21
142.9834049832
 31
0.0
  0
LINE
  5
179
330
1B
100
AcDbEntity
 67
     1
  8
SLD-0
  6
Continuous
 62
     7
100
AcDbLine
 10
131.9115078336
 20
142.9834049832
 30
0.0
 11
131.9115078336
 21
142.9565347747
 31
0.0
  0
LINE
  5
17A
330
1B
100
AcDbEntity
 67
     1
  8
SLD-0
  6
Continuous
 62
     7
100
AcDbLine
 10
131.9115078336
 20
142.9565347747
 30
0.0
 11
131.9115078336
 21
142.9296645663
 31
0.0
  0
LINE
  5
17B
330
1B
100
AcDbEntity
 67
     1
  8
SLD-0
  6
Continuous
 62
     7
100
AcDbLine
 10
131.7502866728
 20
143.0908859073
 30
0.0
 11
131.8308972983
 21
143.0908859073
 31
0.0
  0
LINE
  5
17C
330
1B
100
AcDbEntity
 67
     1
  8
SLD-0
  6
Continuous
 62
     7
100
AcDbLine
 10
131.8308972983
 20
143.0908859073
 30
0.0
 11
131.9115078336
 21
143.0908859073
 31
0.0
  0
LINE
  5
17D
330
1B
100
AcDbEntity
 67
     1
  8
SLD-0
  6
Continuous
 62
     7
100
AcDbLine
 10
132.9415079847
 20
144.1208856094
 30
0.0
 11
132.9415079847
 21
144.1477560918
 31
0.0
  0
LINE
  5
17E
330
1B
100
AcDbEntity
 67
     1
  8
SLD-0
  6
Continuous
 62
     7
100
AcDbLine
 10
132.9415079847
 20
144.1477560918
 30
0.0
 11
132.9415079847
 21
144.1746261451
 31
0.0
  0
LINE
  5
17F
330
1B
100
AcDbEntity
 67
     1
  8
SLD-0
  6
Continuous
 62
     7
100
AcDbLine
 10
132.9415079847
 20
144.1746261451
 30
0.0
 11
132.9415079847
 21
144.2014961983
 31
0.0
  0
LINE
  5
180
330
1B
100
AcDbEntity
 67
     1
  8
SLD-0
  6
Continuous
 62
     7
100
AcDbLine
 10
132.9415079847
 20
144.2014961983
 30
0.0
 11
132.9415079847
 21
144.2283662516
 31
0.0
  0
LINE
  5
181
330
1B
100
AcDbEntity
 67
     1
  8
SLD-0
  6
Continuous
 62
     7
100
AcDbLine
 10
132.9415079847
 20
144.2283662516
 30
0.0
 11
132.9415079847
 21
144.2552363049
 31
0.0
  0
LINE
  5
182
330
1B
100
AcDbEntity
 67
     1
  8
SLD-0
  6
Continuous
 62
     7
100
AcDbLine
 10
132.9415079847
 20
144.2552363049
 30
0.0
 11
132.9415079847
 21
144.2821063581
 31
0.0
  0
LINE
  5
183
330
1B
100
AcDbEntity
 67
     1
  8
SLD-0
  6
Continuous
 62
     7
100
AcDbLine
 10
133.1027288066
 20
144.1208856094
 30
0.0
 11
133.0221181811
 21
144.1208856094
 31
0.0
  0
LINE
  5
184
330
1B
100
AcDbEntity
 67
     1
  8
SLD-0
  6
Continuous
 62
     7
100
AcDbLine
 10
133.0221181811
 20
144.1208856094
 30
0.0
 11
132.9415079847
 21
144.1208856094
 31
0.0
  0
LINE
  5
185
330
1B
100
AcDbEntity
 67
     1
  8
SLD-0
  6
Continuous
 62
     7
100
AcDbLine
 10
132.9415077603
 20
142.9296645663
 30
0.0
 11
132.9415077603
 21
143.0102751917
 31
0.0
  0
LINE
  5
186
330
1B
100
AcDbEntity
 67
     1
  8
SLD-0
  6
Continuous
 62
     7
100
AcDbLine
 10
132.9415077603
 20
143.0102751917
 30
0.0
 11
132.9415077603
 21
143.090885876
 31
0.0
  0
LINE
  5
187
330
1B
100
AcDbEntity
 67
     1
  8
SLD-0
  6
Continuous
 62
     7
100
AcDbLine
 10
132.9415077603
 20
143.090885876
 30
0.0
 11
132.9683779977
 21
143.090885876
 31
0.0
  0
LINE
  5
188
330
1B
100
AcDbEntity
 67
     1
  8
SLD-0
  6
Continuous
 62
     7
100
AcDbLine
 10
132.9683779977
 20
143.090885876
 30
0.0
 11
132.9952482062
 21
143.090885876
 31
0.0
  0
LINE
  5
189
330
1B
100
AcDbEntity
 67
     1
  8
SLD-0
  6
Continuous
 62
     7
100
AcDbLine
 10
132.9952482062
 20
143.090885876
 30
0.0
 11
133.0221184147
 21
143.090885876
 31
0.0
  0
LINE
  5
18A
330
1B
100
AcDbEntity
 67
     1
  8
SLD-0
  6
Continuous
 62
     7
100
AcDbLine
 10
133.0221184147
 20
143.090885876
 30
0.0
 11
133.0489886232
 21
143.090885876
 31
0.0
  0
LINE
  5
18B
330
1B
100
AcDbEntity
 67
     1
  8
SLD-0
  6
Continuous
 62
     7
100
AcDbLine
 10
133.0489886232
 20
143.090885876
 30
0.0
 11
133.0758588317
 21
143.090885876
 31
0.0
  0
LINE
  5
18C
330
1B
100
AcDbEntity
 67
     1
  8
SLD-0
  6
Continuous
 62
     7
100
AcDbLine
 10
133.0758588317
 20
143.090885876
 30
0.0
 11
133.1027290401
 21
143.090885876
 31
0.0
  0
LINE
  5
18D
330
1B
100
AcDbEntity
 67
     1
  8
SLD-0
  6
Continuous
 62
     7
100
AcDbLine
 10
131.911507452
 20
144.1208858339
 30
0.0
 11
131.8846377153
 21
144.1208858339
 31
0.0
  0
LINE
  5
18E
330
1B
100
AcDbEntity
 67
     1
  8
SLD-0
  6
Continuous
 62
     7
100
AcDbLine
 10
131.8846377153
 20
144.1208858339
 30
0.0
 11
131.8577675068
 21
144.1208858339
 31
0.0
  0
LINE
  5
18F
330
1B
100
AcDbEntity
 67
     1
  8
SLD-0
  6
Continuous
 62
     7
100
AcDbLine
 10
131.8577675068
 20
144.1208858339
 30
0.0
 11
131.8308972983
 21
144.1208858339
 31
0.0
  0
LINE
  5
190
330
1B
100
AcDbEntity
 67
     1
  8
SLD-0
  6
Continuous
 62
     7
100
AcDbLine
 10
131.8308972983
 20
144.1208858339
 30
0.0
 11
131.8040270898
 21
144.1208858339
 31
0.0
  0
LINE
  5
191
330
1B
100
AcDbEntity
 67
     1
  8
SLD-0
  6
Continuous
 62
     7
100
AcDbLine
 10
131.8040270898
 20
144.1208858339
 30
0.0
 11
131.7771568813
 21
144.1208858339
 31
0.0
  0
LINE
  5
192
330
1B
100
AcDbEntity
 67
     1
  8
SLD-0
  6
Continuous
 62
     7
100
AcDbLine
 10
131.7771568813
 20
144.1208858339
 30
0.0
 11
131.7502866728
 21
144.1208858339
 31
0.0
  0
LINE
  5
193
330
1B
100
AcDbEntity
 67
     1
  8
SLD-0
  6
Continuous
 62
     7
100
AcDbLine
 10
131.911507452
 20
144.2821066668
 30
0.0
 11
131.911507452
 21
144.201496507
 31
0.0
  0
LINE
  5
194
330
1B
100
AcDbEntity
 67
     1
  8
SLD-0
  6
Continuous
 62
     7
100
AcDbLine
 10
131.911507452
 20
144.201496507
 30
0.0
 11
131.911507452
 21
144.1208858339
 31
0.0
  0
ARC
  5
195
330
1B
100
AcDbEntity
 67
     1
  8
SLD-0
  6
Continuous
 62
     7
100
AcDbCircle
 10
246.4265092748
 20
246.0078864248
 30
0.0
 40
1.000000363200335
100
AcDbArc
 50
359.9999820719
 51
90.0001598723
  0
ARC
  5
196
330
1B
100
AcDbEntity
 67
     1
  8
SLD-0
  6
Continuous
 62
     7
100
AcDbCircle
 10
78.426507617
 20
246.0078859777
 30
0.0
 40
1.000000363150344
100
AcDbArc
 50
89.9999351125
 51
179.9999923166
  0
ARC
  5
197
330
1B
100
AcDbEntity
 67
     1
  8
SLD-0
  6
Continuous
 62
     7
100
AcDbCircle
 10
101.4265092748
 20
246.0078857541
 30
0.0
 40
1.000000586750121
100
AcDbArc
 50
0.0000333059
 51
90.0001342611
  0
ARC
  5
198
330
1B
100
AcDbEntity
 67
     1
  8
SLD-0
  6
Continuous
 62
     7
100
AcDbCircle
 10
223.426507617
 20
246.0078862013
 30
0.0
 40
1.000000586700147
100
AcDbArc
 50
89.9999607237
 51
179.9999923166
  0
ARC
  5
199
330
1B
100
AcDbEntity
 67
     1
  8
SLD-0
  6
Continuous
 62
     7
100
AcDbCircle
 10
220.4265082
 20
232.0078859777
 30
0.0
 40
1.000000409850699
100
AcDbArc
 50
269.9999043791
 51
0.0000096028
  0
ARC
  5
19A
330
1B
100
AcDbEntity
 67
     1
  8
SLD-0
  6
Continuous
 62
     7
100
AcDbCircle
 10
104.4265082
 20
232.0078859777
 30
0.0
 40
1.000000409800705
100
AcDbArc
 50
179.9999903972
 51
270.0000956266
  0
ARC
  5
19B
330
1B
100
AcDbEntity
 67
     1
  8
SLD-0
  6
Continuous
 62
     7
100
AcDbCircle
 10
101.4265084459
 20
203.0078862013
 30
0.0
 40
1.00000141570019
100
AcDbArc
 50
269.9999607295
 51
0.0000307334
  0
ARC
  5
19C
330
1B
100
AcDbEntity
 67
     1
  8
SLD-0
  6
Continuous
 62
     7
100
AcDbCircle
 10
78.4265084459
 20
203.0078859777
 30
0.0
 40
1.000001192100401
100
AcDbArc
 50
179.9999692666
 51
270.0000648874
  0
ARC
  5
19D
330
1B
100
AcDbEntity
 67
     1
  8
SLD-0
  6
Continuous
 62
     7
100
AcDbCircle
 10
223.4265084459
 20
203.0078862013
 30
0.0
 40
1.000001415650197
100
AcDbArc
 50
179.9999692666
 51
270.0000392762
  0
ARC
  5
19E
330
1B
100
AcDbEntity
 67
     1
  8
SLD-0
  6
Continuous
 62
     7
100
AcDbCircle
 10
246.4265084459
 20
203.0078859777
 30
0.0
 40
1.000001192150394
100
AcDbArc
 50
269.9999351184
 51
0.0000307334
  0
ARC
  5
19F
330
1B
100
AcDbEntity
 67
     1
  8
SLD-0
  6
Continuous
 62
     7
100
AcDbCircle
 10
192.426508136
 20
143.6058854444
 30
0.0
 40
0.8499998846610686
100
AcDbArc
 50
307.2923862449
 51
322.7076768489
  0
ARC
  5
1A0
330
1B
100
AcDbEntity
 67
     1
  8
SLD-0
  6
Continuous
 62
     7
100
AcDbCircle
 10
192.426508136
 20
143.6058854444
 30
0.0
 40
0.8500001592561816
100
AcDbArc
 50
37.2923678965
 51
52.7076088338
  0
ARC
  5
1A1
330
1B
100
AcDbEntity
 67
     1
  8
SLD-0
  6
Continuous
 62
     7
100
AcDbCircle
 10
192.426508136
 20
143.6058854444
 30
0.0
 40
0.8500000958999512
100
AcDbArc
 50
127.2923631897
 51
142.7076098332
  0
ARC
  5
1A2
330
1B
100
AcDbEntity
 67
     1
  8
SLD-0
  6
Continuous
 62
     7
100
AcDbCircle
 10
192.426508136
 20
143.6058854444
 30
0.0
 40
0.8499995794619375
100
AcDbArc
 50
217.2923444577
 51
232.7076407678
  0
CIRCLE
  5
1A3
330
1B
100
AcDbEntity
 67
     1
  8
SLD-0
  6
Continuous
 62
     7
100
AcDbCircle
 10
192.426508136
 20
143.6058854444
 30
0.0
 40
3.99999999999999
  0
CIRCLE
  5
1A4
330
1B
100
AcDbEntity
 67
     1
  8
SLD-0
  6
Continuous
 62
     7
100
AcDbCircle
 10
192.426508136
 20
143.6058854444
 30
0.0
 40
0.7059507673963417
  0
ARC
  5
1A5
330
1B
100
AcDbEntity
 67
     1
  8
SLD-0
  6
Continuous
 62
     7
100
AcDbCircle
 10
132.4265080966
 20
143.6058854144
 30
0.0
 40
0.8499995817815728
100
AcDbArc
 50
307.2923550593
 51
322.7076555464
  0
ARC
  5
1A6
330
1B
100
AcDbEntity
 67
     1
  8
SLD-0
  6
Continuous
 62
     7
100
AcDbCircle
 10
132.4265080966
 20
143.6058854144
 30
0.0
 40
0.8499997937615152
100
AcDbArc
 50
37.2923891989
 51
52.707636805
  0
ARC
  5
1A7
330
1B
100
AcDbEntity
 67
     1
  8
SLD-0
  6
Continuous
 62
     7
100
AcDbCircle
 10
132.4265080966
 20
143.6058854144
 30
0.0
 40
0.8500004977120691
100
AcDbArc
 50
127.2923911609
 51
142.7076279212
  0
ARC
  5
1A8
330
1B
100
AcDbEntity
 67
     1
  8
SLD-0
  6
Continuous
 62
     7
100
AcDbCircle
 10
132.4265080966
 20
143.6058854144
 30
0.0
 40
0.8499999449567008
100
AcDbArc
 50
217.2923231552
 51
232.7076127966
  0
CIRCLE
  5
1A9
330
1B
100
AcDbEntity
 67
     1
  8
SLD-0
  6
Continuous
 62
     7
100
AcDbCircle
 10
132.4265080966
 20
143.6058854144
 30
0.0
 40
4.000000000000018
  0
CIRCLE
  5
1AA
330
1B
100
AcDbEntity
 67
     1
  8
SLD-0
  6
Continuous
 62
     7
100
AcDbCircle
 10
132.4265080966
 20
143.6058854144
 30
0.0
 40
0.7059507673963689
  0
ARC
  5
1AB
330
1B
100
AcDbEntity
 67
     1
  8
SLD-0
  6
Continuous
 62
     7
100
AcDbCircle
 10
220.4265068607
 20
151.6058854535
 30
0.0
 40
1.000000095050704
100
AcDbArc
 50
269.9999630785
 51
359.9999923166
  0
ARC
  5
1AC
330
1B
100
AcDbEntity
 67
     1
  8
SLD-0
  6
Continuous
 62
     7
100
AcDbCircle
 10
220.4265068608
 20
164.6058854533
 30
0.0
 40
1.00000009500071
100
AcDbArc
 50
0.0000076892
 51
90.0000369272
  0
ARC
  5
1AD
330
1B
100
AcDbEntity
 67
     1
  8
SLD-0
  6
Continuous
 62
     7
100
AcDbCircle
 10
104.4265078852
 20
151.6058854534
 30
0.0
 40
1.000000095000729
100
AcDbArc
 50
180.0000076834
 51
270.0000956267
  0
ARC
  5
1AE
330
1B
100
AcDbEntity
 67
     1
  8
SLD-0
  6
Continuous
 62
     7
100
AcDbCircle
 10
104.4265078852
 20
164.6058854534
 30
0.0
 40
1.000000094950707
100
AcDbArc
 50
89.9999043733
 51
179.9999923166
  0
ARC
  5
1AF
330
1B
100
AcDbEntity
 67
     1
  8
SLD-0
  6
Continuous
 62
     7
100
AcDbCircle
 10
104.426507373
 20
126.6058854534
 30
0.0
 40
0.999999582750775
100
AcDbArc
 50
180.0000290318
 51
270.0000956268
  0
CIRCLE
  5
1B0
330
1B
100
AcDbEntity
 67
     1
  8
SLD-0
  6
Continuous
 62
     7
100
AcDbCircle
 10
132.4265080966
 20
143.6058854144
 30
0.0
 40
4.099999999999973
  0
CIRCLE
  5
1B1
330
1B
100
AcDbEntity
 67
     1
  8
SLD-0
  6
Continuous
 62
     7
100
AcDbCircle
 10
192.426508136
 20
143.6058854444
 30
0.0
 40
4.100000000000001
  0
ARC
  5
1B2
330
1B
100
AcDbEntity
 67
     1
  8
SLD-0
  6
Continuous
 62
     7
100
AcDbCircle
 10
220.426507373
 20
126.6058854534
 30
0.0
 40
0.9999995828007832
100
AcDbArc
 50
269.999904379
 51
359.9999709682
  0
ARC
  5
1B3
330
1B
100
AcDbEntity
 67
     1
  8
SLD-0
  6
Continuous
 62
     7
100
AcDbCircle
 10
246.4265068906
 20
164.6058854533
 30
0.0
 40
1.000000363200323
100
AcDbArc
 50
0.0000076891
 51
89.9999987222
  0
ARC
  5
1B4
330
1B
100
AcDbEntity
 67
     1
  8
SLD-0
  6
Continuous
 62
     7
100
AcDbCircle
 10
78.426507617
 20
164.6058854534
 30
0.0
 40
1.000000363150344
100
AcDbArc
 50
89.9999351125
 51
179.9999923166
  0
ARC
  5
1B5
330
1B
100
AcDbEntity
 67
     1
  8
SLD-0
  6
Continuous
 62
     7
100
AcDbCircle
 10
223.4265080454
 20
164.6058852298
 30
0.0
 40
1.00000058670012
100
AcDbArc
 50
89.9999607237
 51
179.9999923166
  0
ARC
  5
1B6
330
1B
100
AcDbEntity
 67
     1
  8
SLD-0
  6
Continuous
 62
     7
100
AcDbCircle
 10
101.426507617
 20
164.6058852298
 30
0.0
 40
1.000000586750128
100
AcDbArc
 50
0.0000076834
 51
90.0000392705
  0
ARC
  5
1B7
330
1B
100
AcDbEntity
 67
     1
  8
SLD-0
  6
Continuous
 62
     7
100
AcDbCircle
 10
217.4265078312
 20
85.6058852298
 30
0.0
 40
4.999999627500253
100
AcDbArc
 50
269.9999965852
 51
0.000023905
  0
ARC
  5
1B8
330
1B
100
AcDbEntity
 67
     1
  8
SLD-0
  6
Continuous
 62
     7
100
AcDbCircle
 10
242.4265072538
 20
60.6058854535
 30
0.0
 40
5.000000000050797
100
AcDbArc
 50
269.9999795099
 51
0.0000409814
  0
ARC
  5
1B9
330
1B
100
AcDbEntity
 67
     1
  8
SLD-0
  6
Continuous
 62
     7
100
AcDbCircle
 10
82.4265072538
 20
60.6058854534
 30
0.0
 40
5.000000000000796
100
AcDbArc
 50
179.9999590186
 51
270.0000204913
  0
ARC
  5
1BA
330
1B
100
AcDbEntity
 67
     1
  8
SLD-0
  6
Continuous
 62
     7
100
AcDbCircle
 10
107.4265078312
 20
85.6058852298
 30
0.0
 40
4.999999627450231
100
AcDbArc
 50
179.999976095
 51
270.000003416
  0
CIRCLE
  5
1BB
330
1B
100
AcDbEntity
 67
     1
  8
SLD-0
  6
Continuous
 62
     7
100
AcDbCircle
 10
353.5135986998
 20
158.1058854534
 30
0.0
 40
4.999999999999961
  0
ARC
  5
1BC
330
1B
100
AcDbEntity
 67
     1
  8
SLD-0
  6
Continuous
 62
     7
100
AcDbCircle
 10
361.0135983366
 20
149.6058844774
 30
0.0
 40
1.000000314800097
100
AcDbArc
 50
359.9999735294
 51
90.0000096028
  0
ARC
  5
1BD
330
1B
100
AcDbEntity
 67
     1
  8
SLD-0
  6
Continuous
 62
     7
100
AcDbCircle
 10
363.0135978244
 20
126.6058844774
 30
0.0
 40
0.9999991729501017
100
AcDbArc
 50
180.0000290318
 51
269.9999825018
  0
CIRCLE
  5
1BE
330
1B
100
AcDbEntity
 67
     1
  8
SLD-0
  6
Continuous
 62
     7
100
AcDbCircle
 10
353.5135986998
 20
158.1058854534
 30
0.0
 40
5.099999999999944
  0
ARC
  5
1BF
330
1B
100
AcDbEntity
 67
     1
  8
SLD-0
  6
Continuous
 62
     7
100
AcDbCircle
 10
353.5135986998
 20
158.1058854534
 30
0.0
 40
7.500000661223803
100
AcDbArc
 50
269.9999972255
 51
89.9999972255
  0
ARC
  5
1C0
330
1B
100
AcDbEntity
 67
     1
  8
SLD-0
  6
Continuous
 62
     7
100
AcDbCircle
 10
334.0135983366
 20
140.605884619
 30
0.0
 40
10.00000017320002
100
AcDbArc
 50
90.000002305
 51
180.0000004269
  0
ARC
  5
1C1
330
1B
100
AcDbEntity
 67
     1
  8
SLD-0
  6
Continuous
 62
     7
100
AcDbCircle
 10
334.013599063
 20
147.6058854534
 30
0.0
 40
18.00000066120004
100
AcDbArc
 50
90.0000012806
 51
179.9999995496
  0
ARC
  5
1C2
330
1B
100
AcDbEntity
 67
     1
  8
SLD-0
  6
Continuous
 62
     7
100
AcDbCircle
 10
323.0135986998
 20
56.605884619
 30
0.0
 40
0.9999994636021955
100
AcDbArc
 50
269.9999803647
 51
0.0001673381
  0
ARC
  5
1C3
330
1B
100
AcDbEntity
 67
     1
  8
SLD-0
  6
Continuous
 62
     7
100
AcDbCircle
 10
317.0135986998
 20
56.6058854534
 30
0.0
 40
1.000000298052272
100
AcDbArc
 50
179.9998326622
 51
270.0000307392
  0
DIMENSION
  5
1C4
330
1B
100
AcDbEntity
 67
     1
  8
SLD-0
 62
     7
100
AcDbDimension
  2
_D
 10
132.4265081478
 20
173.6119508718
 30
0.0
 11
162.4265081478
 21
173.6119508718
 31
0.0
 70
   160
  1
<>
 71
     2
 42
-1.0
  3
SLDDIMSTYLE0
100
AcDbAlignedDimension
 13
192.4265081478
 23
148.7058854534
 33
0.0
 14
132.4265081478
 24
148.7058854534
 34
0.0
100
AcDbRotatedDimension
  0
DIMENSION
  5
1D8
330
1B
100
AcDbEntity
 67
     1
  8
SLD-0
 62
     7
100
AcDbDimension
  2
_D_1
 10
103.4265081478
 20
181.6058854534
 30
0.0
 11
162.4265081478
 21
181.6058854534
 31
0.0
 70
   160
  1
<>
 71
     2
 42
-1.0
  3
SLDDIMSTYLE0
100
AcDbAlignedDimension
 13
221.4265081478
 23
164.6058854534
 33
0.0
 14
103.4265081478
 24
164.6058854534
 34
0.0
 50
0.0
100
AcDbRotatedDimension
  0
DIMENSION
  5
1E6
330
1B
100
AcDbEntity
 67
     1
  8
SLD-0
 62
     7
100
AcDbDimension
  2
_D_2
 10
102.4265081478
 20
47.701734048
 30
0.0
 11
162.4265081478
 21
47.701734048
 31
0.0
 70
   160
  1
<>
 71
     2
 42
-1.0
  3
SLDDIMSTYLE0
100
AcDbAlignedDimension
 13
222.4265081478
 23
85.6058854534
 33
0.0
 14
102.4265081478
 24
85.6058854534
 34
0.0
 50
0.0
100
AcDbRotatedDimension
  0
DIMENSION
  5
1F4
330
1B
100
AcDbEntity
 67
     1
  8
SLD-0
 62
     7
100
AcDbDimension
  2
_D_3
 10
77.4265081478
 20
47.701734048
 30
0.0
 11
89.9265081478
 21
47.701734048
 31
0.0
 70
   160
  1
<>
 71
     2
 42
-1.0
  3
SLDDIMSTYLE0
100
AcDbAlignedDimension
 13
102.4265081478
 23
85.6058854534
 33
0.0
 14
77.4265081478
 24
60.6058854534
 34
0.0
100
AcDbRotatedDimension
  0
DIMENSION
  5
202
330
1B
100
AcDbEntity
 67
     1
  8
SLD-0
 62
     7
100
AcDbDimension
  2
_D_4
 10
222.4265081478
 20
47.701734048
 30
0.0
 11
234.9265081478
 21
47.701734048
 31
0.0
 70
   160
  1
<>
 71
     2
 42
-1.0
  3
SLDDIMSTYLE0
100
AcDbAlignedDimension
 13
247.4265081478
 23
60.6058854534
 33
0.0
 14
222.4265081478
 24
85.6058854534
 34
0.0
100
AcDbRotatedDimension
  0
DIMENSION
  5
210
330
1B
100
AcDbEntity
 67
     1
  8
SLD-0
 62
     7
100
AcDbDimension
  2
_D_5
 10
77.4265081478
 20
40.1658854534
 30
0.0
 11
162.4265081478
 21
40.1658854534
 31
0.0
 70
   160
  1
<>
 71
     2
 42
-1.0
  3
SLDDIMSTYLE0
100
AcDbAlignedDimension
 13
247.4265081478
 23
60.6058854534
 33
0.0
 14
77.4265081478
 24
60.6058854534
 34
0.0
 50
0.0
100
AcDbRotatedDimension
  0
DIMENSION
  5
21E
330
1B
100
AcDbEntity
 67
     1
  8
SLD-0
 62
     7
100
AcDbDimension
  2
_D_6
 10
275.5267053483
 20
55.6058854534
 30
0.0
 11
275.5267053483
 21
110.6058854534
 31
0.0
 70
   160
  1
<>
 71
     2
 42
-1.0
  3
SLDDIMSTYLE0
100
AcDbAlignedDimension
 13
246.4265081478
 23
165.6058854534
 33
0.0
 14
242.4265081478
 24
55.6058854534
 34
0.0
 50
90.0
100
AcDbRotatedDimension
  0
DIMENSION
  5
22C
330
1B
100
AcDbEntity
 67
     1
  8
SLD-0
 62
     7
100
AcDbDimension
  2
_D_7
 10
264.9267053483
 20
80.6058854534
 30
0.0
 11
264.9267053483
 21
123.1058854534
 31
0.0
 70
   160
  1
<>
 71
     2
 42
-1.0
  3
SLDDIMSTYLE0
100
AcDbAlignedDimension
 13
246.4265081478
 23
165.6058854534
 33
0.0
 14
217.4265081478
 24
80.6058854534
 34
0.0
 50
90.0
100
AcDbRotatedDimension
  0
DIMENSION
  5
23A
330
1B
100
AcDbEntity
 67
     1
  8
SLD-0
 62
     7
100
AcDbDimension
  2
_D_8
 10
254.4460563673
 20
125.6058854534
 30
0.0
 11
254.4460563673
 21
145.6058854534
 31
0.0
 70
   160
  1
<>
 71
     2
 42
-1.0
  3
SLDDIMSTYLE0
100
AcDbAlignedDimension
 13
246.4265081478
 23
165.6058854534
 33
0.0
 14
220.4265081478
 24
125.6058854534
 34
0.0
 50
90.0
100
AcDbRotatedDimension
  0
DIMENSION
  5
248
330
1B
100
AcDbEntity
 67
     1
  8
SLD-0
 62
     7
100
AcDbDimension
  2
_D_9
 10
254.4460563673
 20
125.6058854534
 30
0.0
 11
254.4460563673
 21
103.1058854534
 31
0.0
 70
   160
  1
<>
 71
     2
 42
-1.0
  3
SLDDIMSTYLE0
100
AcDbAlignedDimension
 13
217.4265081478
 23
80.6058854534
 33
0.0
 14
220.4265081478
 24
125.6058854534
 34
0.0
 50
90.0
100
AcDbRotatedDimension
  0
DIMENSION
  5
256
330
1B
100
AcDbEntity
 67
     1
  8
SLD-0
 62
     7
100
AcDbDimension
  2
_D_10
 10
264.9267053483
 20
80.6058854534
 30
0.0
 11
264.9267053483
 21
68.1058854534
 31
0.0
 70
   160
  1
<>
 71
     2
 42
-1.0
  3
SLDDIMSTYLE0
100
AcDbAlignedDimension
 13
242.4265081478
 23
55.6058854534
 33
0.0
 14
217.4265081478
 24
80.6058854534
 34
0.0
 50
90.0
100
AcDbRotatedDimension
  0
DIMENSION
  5
264
330
1B
100
AcDbEntity
 67
     1
  8
SLD-0
 62
     7
100
AcDbDimension
  2
_D_11
 10
61.4265081478
 20
143.6058854534
 30
0.0
 11
61.4265081478
 21
154.6058854534
 31
0.0
 70
   160
  1
<>
 71
     2
 42
-1.0
  3
SLDDIMSTYLE0
100
AcDbAlignedDimension
 13
78.4265081478
 23
165.6058854534
 33
0.0
 14
127.3265081478
 24
143.6058854534
 34
0.0
 50
90.0
100
AcDbRotatedDimension
  0
DIMENSION
  5
272
330
1B
100
AcDbEntity
 67
     1
  8
SLD-0
 62
     7
100
AcDbDimension
  2
_D_12
 10
68.9684158148
 20
150.6058854534
 30
0.0
 11
68.9684158148
 21
158.1058854534
 31
0.0
 70
   160
  1
<>
 71
     2
 42
-1.0
  3
SLDDIMSTYLE0
100
AcDbAlignedDimension
 13
104.4265081478
 23
165.6058854534
 33
0.0
 14
104.4265081478
 24
150.6058854534
 34
0.0
 50
90.0
100
AcDbRotatedDimension
  0
DIMENSION
  5
280
330
1B
100
AcDbEntity
 67
     1
  8
SLD-0
 62
     7
100
AcDbDimension
  2
_D_13
 10
316.0135998919
 20
47.7115405963
 30
0.0
 11
320.0135998919
 21
47.7115405963
 31
0.0
 70
   160
  1
<>
 71
     2
 42
-1.0
  3
SLDDIMSTYLE0
100
AcDbAlignedDimension
 13
324.0135998919
 23
56.6058854534
 33
0.0
 14
316.0135998919
 24
56.6058854534
 34
0.0
100
AcDbRotatedDimension
  0
DIMENSION
  5
290
330
1B
100
AcDbEntity
 67
     1
  8
SLD-0
 62
     7
100
AcDbDimension
  2
_D_14
 10
367.0135998919
 20
47.7115405963
 30
0.0
 11
345.5135998919
 21
47.7115405963
 31
0.0
 70
   160
  1
<>
 71
     2
 42
-1.0
  3
SLDDIMSTYLE0
100
AcDbAlignedDimension
 13
324.0135998919
 23
56.6058854534
 33
0.0
 14
367.0135998919
 24
125.6058854534
 34
0.0
100
AcDbRotatedDimension
  0
DIMENSION
  5
29E
330
1B
100
AcDbEntity
 67
     1
  8
SLD-0
 62
     7
100
AcDbDimension
  2
_D_15
 10
316.0135998919
 20
39.6058854534
 30
0.0
 11
341.5135998919
 21
39.6058854534
 31
0.0
 70
   160
  1
<>
 71
     2
 42
-1.0
  3
SLDDIMSTYLE0
100
AcDbAlignedDimension
 13
367.0135998919
 23
125.6058854534
 33
0.0
 14
316.0135998919
 24
56.6058854534
 34
0.0
100
AcDbRotatedDimension
  0
DIMENSION
  5
2AC
330
1B
100
AcDbEntity
 67
     1
  8
SLD-0
 62
     7
100
AcDbDimension
  2
_D_16
 10
353.5135998919
 20
181.6058854534
 30
0.0
 11
334.7635998919
 21
181.6058854534
 31
0.0
 70
   160
  1
<>
 71
     2
 42
-1.0
  3
SLDDIMSTYLE1
100
AcDbAlignedDimension
 13
316.0135998919
 23
147.6058854534
 33
0.0
 14
353.5135998919
 24
166.6058854534
 34
0.0
100
AcDbRotatedDimension
  0
DIMENSION
  5
2BB
330
1B
100
AcDbEntity
 67
     1
  8
SLD-0
 62
     7
100
AcDbDimension
  2
_D_17
 10
353.5135998919
 20
181.6058854534
 30
0.0
 11
360.2635998919
 21
181.6058854534
 31
0.0
 70
   160
  1
<>
 71
     2
 42
-1.0
  3
SLDDIMSTYLE1
100
AcDbAlignedDimension
 13
367.0135998919
 23
165.6058854534
 33
0.0
 14
353.5135998919
 24
166.6058854534
 34
0.0
100
AcDbRotatedDimension
  0
MTEXT
  5
2CA
330
1B
100
AcDbEntity
 67
     1
  8
SLD-0
 62
     7
100
AcDbMText
 10
144.5035312996
 20
16.6880415195
 30
0.0
 40
3.5
 41
0.0
 71
     1
 72
     1
  1
36M
  7
SLDTEXTSTYLE2
 73
     1
 44
1.0
  0
MTEXT
  5
2CB
330
1B
100
AcDbEntity
 67
     1
  8
SLD-0
 62
     7
100
AcDbMText
 10
368.8137910498
 20
15.8225795688
 30
0.0
 40
4.0
 41
0.0
 71
     1
 72
     1
  1
11548XF
  7
SLDTEXTSTYLE2
 73
     1
 44
1.0
  0
MTEXT
  5
2CC
330
1B
100
AcDbEntity
 67
     1
  8
SLD-0
 62
     7
100
AcDbMText
 10
300.033957724
 20
27.6916428957
 30
0.0
 40
3.5
 41
0.0
 71
     1
 72
     1
  1
1/1
  7
SLDTEXTSTYLE0
 73
     1
 44
1.0
  0
MTEXT
  5
2CE
330
1B
100
AcDbEntity
 67
     1
  8
SLD-0
 62
     7
100
AcDbMText
 10
22.8306485705
 20
28.652303021
 30
0.0
 40
3.5
 41
0.0
 71
     1
 72
     1
  1
改
  7
SLDTEXTSTYLE3
 73
     1
 44
1.0
  0
MTEXT
  5
2CF
330
1B
100
AcDbEntity
 67
     1
  8
SLD-0
 62
     7
100
AcDbMText
 10
22.7900805826
 20
17.010853051
 30
0.0
 40
3.5
 41
0.0
 71
     1
 72
     1
  1
訂
  7
SLDTEXTSTYLE3
 73
     1
 44
1.0
  0
MTEXT
  5
2D0
330
1B
100
AcDbEntity
 67
     1
  8
SLD-0
 62
     7
100
AcDbMText
 10
144.4829525239
 20
28.2161130323
 30
0.0
 40
3.5
 41
0.0
 71
     1
 72
     1
  1
承認図
  7
SLDTEXTSTYLE3
 73
     1
 44
1.0
  0
MTEXT
  5
2D1
330
1B
100
AcDbEntity
 67
     1
  8
SLD-0
 62
     7
100
AcDbMText
 10
232.357657574
 20
30.9382425667
 30
0.0
 40
3.5
 41
0.0
 71
     1
 72
     1
  1
個
  7
SLDTEXTSTYLE3
 73
     1
 44
1.0
  0
MTEXT
  5
2D2
330
1B
100
AcDbEntity
 67
     1
  8
SLD-0
 62
     7
100
AcDbMText
 10
232.3785618998
 20
25.621660061
 30
0.0
 40
3.5
 41
0.0
 71
     1
 72
     1
  1
数
  7
SLDTEXTSTYLE3
 73
     1
 44
1.0
  0
MTEXT
  5
2D3
330
1B
100
AcDbEntity
 67
     1
  8
SLD-0
 62
     7
100
AcDbMText
 10
252.3573601132
 20
31.0252717962
 30
0.0
 40
3.5
 41
0.0
 71
     1
 72
     1
  1
備
  7
SLDTEXTSTYLE3
 73
     1
 44
1.0
  0
MTEXT
  5
2D4
330
1B
100
AcDbEntity
 67
     1
  8
SLD-0
 62
     7
100
AcDbMText
 10
252.3573601132
 20
25.7026862461
 30
0.0
 40
3.5
 41
0.0
 71
     1
 72
     1
  1
考
  7
SLDTEXTSTYLE3
 73
     1
 44
1.0
  0
MTEXT
  5
2D5
330
1B
100
AcDbEntity
 67
     1
  8
SLD-0
 62
     7
100
AcDbMText
 10
292.3664626113
 20
31.0257741408
 30
0.0
 40
3.5
 41
0.0
 71
     1
 72
     1
  1
尺
  7
SLDTEXTSTYLE3
 73
     1
 44
1.0
  0
MTEXT
  5
2D6
330
1B
100
AcDbEntity
 67
     1
  8
SLD-0
 62
     7
100
AcDbMText
 10
292.3664626113
 20
25.6874134086
 30
0.0
 40
3.5
 41
0.0
 71
     1
 72
     1
  1
度
  7
SLDTEXTSTYLE3
 73
     1
 44
1.0
  0
MTEXT
  5
2D8
330
1B
100
AcDbEntity
 67
     1
  8
SLD-0
 62
     7
100
AcDbMText
 10
294.8445745199
 20
16.7950380054
 30
0.0
 40
2.9104166031
 41
0.0
 71
     1
 72
     1
  1
第三角法
  7
SLDTEXTSTYLE4
 73
     1
 44
1.0
  0
MTEXT
  5
2DA
330
1B
100
AcDbEntity
 67
     1
  8
SLD-0
 62
     7
100
AcDbMText
 10
311.7573695107
 20
30.5891874116
 30
0.0
 40
2.5
 41
0.0
 71
     1
 72
     1
  1
製図・設計
  7
SLDTEXTSTYLE5
 73
     1
 44
1.0
  0
MTEXT
  5
2DC
330
1B
100
AcDbEntity
 67
     1
  8
SLD-0
 62
     7
100
AcDbMText
 10
329.6575469962
 20
30.5994410061
 30
0.0
 40
2.5
 41
0.0
 71
     1
 72
     1
  1
照　査
  7
SLDTEXTSTYLE6
 73
     1
 44
1.0
  0
MTEXT
  5
2DD
330
1B
100
AcDbEntity
 67
     1
  8
SLD-0
 62
     7
100
AcDbMText
 10
361.958749754
 20
15.3927401502
 30
0.0
 40
3.4395833015
 41
0.0
 71
     1
 72
     1
  1
No.
  7
SLDTEXTSTYLE2
 73
     1
 44
1.0
  0
MTEXT
  5
2DE
330
1B
100
AcDbEntity
 67
     1
  8
SLD-0
 62
     7
100
AcDbMText
 10
81.6248333904
 20
13.5625189928
 30
0.0
 40
2.5
 41
0.0
 71
     1
 72
     1
  1
変　更　内　容
  7
SLDTEXTSTYLE3
 73
     1
 44
1.0
  0
MTEXT
  5
2DF
330
1B
100
AcDbEntity
 67
     1
  8
SLD-0
 62
     7
100
AcDbMText
 10
344.6694607343
 20
30.5721772849
 30
0.0
 40
2.5
 41
0.0
 71
     1
 72
     1
  1
承　認
  7
SLDTEXTSTYLE6
 73
     1
 44
1.0
  0
MTEXT
  5
2E1
330
1B
100
AcDbEntity
 67
     1
  8
SLD-0
 62
     7
100
AcDbMText
 10
358.6499682217
 20
23.4386037729
 30
0.0
 40
2.3812499046
 41
0.0
 71
     1
 72
     1
  1
WEST
  7
SLDTEXTSTYLE7
 73
     1
 44
1.0
  0
MTEXT
  5
2E2
330
1B
100
AcDbEntity
 67
     1
  8
SLD-0
 62
     7
100
AcDbMText
 10
126.6394502878
 20
13.5842648164
 30
0.0
 40
2.5
 41
0.0
 71
     1
 72
     1
  1
通知書
  7
SLDTEXTSTYLE6
 73
     1
 44
1.0
  0
MTEXT
  5
2E3
330
1B
100
AcDbEntity
 67
     1
  8
SLD-0
 62
     7
100
AcDbMText
 10
39.6073654972
 20
13.5858501847
 30
0.0
 40
2.5
 41
0.0
 71
     1
 72
     1
  1
日付
  7
SLDTEXTSTYLE4
 73
     1
 44
1.0
  0
MTEXT
  5
2E4
330
1B
100
AcDbEntity
 67
     1
  8
SLD-0
 62
     7
100
AcDbMText
 10
50.6471155245
 20
13.5906682699
 30
0.0
 40
2.5
 41
0.0
 71
     1
 72
     1
  1
担当者
  7
SLDTEXTSTYLE6
 73
     1
 44
1.0
  0
MTEXT
  5
2E5
330
1B
100
AcDbEntity
 67
     1
  8
SLD-0
 62
     7
100
AcDbMText
 10
28.0997329878
 20
13.572333007
 30
0.0
 40
2.5
 41
0.0
 71
     1
 72
     1
  1
記号
  7
SLDTEXTSTYLE4
 73
     1
 44
1.0
  0
MTEXT
  5
2E6
330
1B
100
AcDbEntity
 67
     1
  8
SLD-0
 62
     7
100
AcDbMText
 10
199.3534685856
 20
30.9382425667
 30
0.0
 40
3.5
 41
0.0
 71
     1
 72
     1
  1
材
  7
SLDTEXTSTYLE3
 73
     1
 44
1.0
  0
MTEXT
  5
2E7
330
1B
100
AcDbEntity
 67
     1
  8
SLD-0
 62
     7
100
AcDbMText
 10
199.349337611
 20
25.621660061
 30
0.0
 40
3.5
 41
0.0
 71
     1
 72
     1
  1
質
  7
SLDTEXTSTYLE3
 73
     1
 44
1.0
  0
MTEXT
  5
2E8
330
1B
100
AcDbEntity
 67
     1
  8
SLD-0
 62
     7
100
AcDbMText
 10
139.3570394312
 20
30.9382425667
 30
0.0
 40
3.5
 41
0.0
 71
     1
 72
     1
  1
名
  7
SLDTEXTSTYLE3
 73
     1
 44
1.0
  0
MTEXT
  5
2E9
330
1B
100
AcDbEntity
 67
     1
  8
SLD-0
 62
     7
100
AcDbMText
 10
139.3779437571
 20
25.621660061
 30
0.0
 40
3.5
 41
0.0
 71
     1
 72
     1
  1
称
  7
SLDTEXTSTYLE3
 73
     1
 44
1.0
  0
MTEXT
  5
2EA
330
1B
100
AcDbEntity
 67
     1
  8
SLD-0
 62
     7
100
AcDbMText
 10
139.3570394312
 20
19.9382425667
 30
0.0
 40
3.5
 41
0.0
 71
     1
 72
     1
  1
品
  7
SLDTEXTSTYLE3
 73
     1
 44
1.0
  0
MTEXT
  5
2EB
330
1B
100
AcDbEntity
 67
     1
  8
SLD-0
 62
     7
100
AcDbMText
 10
139.3779437571
 20
15.0156834865
 30
0.0
 40
3.5
 41
0.0
 71
     1
 72
     1
  1
名
  7
SLDTEXTSTYLE3
 73
     1
 44
1.0
  0
MTEXT
  5
2EC
330
1B
100
AcDbEntity
 67
     1
  8
SLD-0
 62
     7
100
AcDbMText
 10
199.3534685856
 20
19.9382425667
 30
0.0
 40
3.5
 41
0.0
 71
     1
 72
     1
  1
工
  7
SLDTEXTSTYLE3
 73
     1
 44
1.0
  0
MTEXT
  5
2ED
330
1B
100
AcDbEntity
 67
     1
  8
SLD-0
 62
     7
100
AcDbMText
 10
199.349337611
 20
15.0156834865
 30
0.0
 40
3.5
 41
0.0
 71
     1
 72
     1
  1
番
  7
SLDTEXTSTYLE3
 73
     1
 44
1.0
  0
MTEXT
  5
2EE
330
1B
100
AcDbEntity
 67
     1
  8
SLD-0
 62
     7
100
AcDbMText
 10
427.9159859778
 20
15.3701307748
 30
0.0
 40
7.4083333015
 41
0.0
 71
     1
 72
     1
  1
A3
  7
SLDTEXTSTYLE2
 73
     1
 44
1.0
  0
MTEXT
  5
2EF
330
1B
100
AcDbEntity
 67
     1
  8
SLD-0
 62
     7
100
AcDbMText
 10
357.444566405
 20
14.6147830727
 30
0.0
 40
3.5
 41
0.0
 71
     1
 72
     1
  1
番
  7
SLDTEXTSTYLE3
 73
     1
 44
1.0
  0
MTEXT
  5
2F0
330
1B
100
AcDbEntity
 67
     1
  8
SLD-0
 62
     7
100
AcDbMText
 10
357.444566405
 20
19.9531438049
 30
0.0
 40
3.5
 41
0.0
 71
     1
 72
     1
  1
図
  7
SLDTEXTSTYLE3
 73
     1
 44
1.0
  0
MTEXT
  5
2F2
330
1B
100
AcDbEntity
 67
     1
  8
SLD-0
 62
     7
100
AcDbMText
 10
311.5649907757
 20
13.6099772839
 30
0.0
 40
3.0
 41
0.0
 71
     1
 72
     1
  1
′０８．１０．２０
  7
SLDTEXTSTYLE8
 73
     1
 44
1.0
  0
MTEXT
  5
2F3
330
1B
100
AcDbEntity
 67
     1
  8
SLD-0
 62
     7
100
AcDbMText
 10
406.0292860479
 20
8.3220666762
 30
0.0
 40
1.8520833254
 41
0.0
 71
     1
 72
     1
  1
A3
  7
SLDTEXTSTYLE2
 73
     1
 44
1.0
  0
ENDSEC
  0
SECTION
  2
OBJECTS
  0
DICTIONARY
  5
C
330
0
100
AcDbDictionary
281
     1
  3
ACAD_GROUP
350
D
  3
ACAD_LAYOUT
350
1A
  3
ACAD_MLINESTYLE
350
17
  3
ACAD_PLOTSETTINGS
350
19
  3
ACAD_PLOTSTYLENAME
350
E
  3
ACAD_SCALELIST
350
47
  0
DICTIONARY
  5
D
102
{ACAD_REACTORS
330
C
102
}
330
C
100
AcDbDictionary
281
     1
  0
DICTIONARY
  5
1A
102
{ACAD_REACTORS
330
C
102
}
330
C
100
AcDbDictionary
281
     1
  3
Model
350
22
  3
SW_Model_1
350
1E
  0
DICTIONARY
  5
17
102
{ACAD_REACTORS
330
C
102
}
330
C
100
AcDbDictionary
281
     1
  3
Standard
350
18
  0
DICTIONARY
  5
19
102
{ACAD_REACTORS
330
C
102
}
330
C
100
AcDbDictionary
281
     1
  0
ACDBDICTIONARYWDFLT
  5
E
102
{ACAD_REACTORS
330
C
102
}
330
C
100
AcDbDictionary
281
     1
  3
Normal
350
F
100
AcDbDictionaryWithDefault
340
F
  0
DICTIONARY
  5
47
102
{ACAD_REACTORS
330
C
102
}
330
C
100
AcDbDictionary
281
     1
  3
A0
350
48
  3
A1
350
49
  3
A2
350
4A
  3
A3
350
4B
  3
A4
350
4C
  3
A5
350
4D
  3
A6
350
4E
  3
A7
350
4F
  3
A8
350
50
  3
A9
350
51
  3
B0
350
52
  3
B1
350
53
  3
B2
350
54
  3
B3
350
55
  3
B4
350
56
  3
B5
350
57
  3
B6
350
58
  3
B7
350
59
  3
B8
350
5A
  3
B9
350
5B
  3
C0
350
5C
  3
C1
350
5D
  3
C2
350
5E
  3
C3
350
5F
  3
C4
350
60
  3
C5
350
61
  3
C6
350
62
  3
C7
350
63
  3
C8
350
64
  3
C9
350
65
  3
D0
350
66
  3
D1
350
67
  3
D2
350
68
  0
LAYOUT
  5
22
102
{ACAD_REACTORS
330
1A
102
}
330
1A
100
AcDbPlotSettings
  1

  2
none_device
  4
Letter_(8.50_x_11.00_Inches)
  6

 40
6.35
 41
6.35
 42
6.35000508
 43
6.35000508
 44
215.9
 45
279.4
 46
0.0
 47
0.0
 48
0.0
 49
0.0
140
0.0
141
0.0
142
1.0
143
1.0
 70
  1712
 72
     1
 73
     0
 74
     0
  7

 75
     0
147
1.0
148
0.0
149
0.0
100
AcDbLayout
  1
Model
 70
     1
 71
     0
 10
0.0
 20
0.0
 11
420.0
 21
297.0
 12
0.0
 22
0.0
 32
0.0
 14
0.0
 24
0.0
 34
0.0
 15
420.0
 25
297.0
 35
0.0
146
0.0
 13
0.0
 23
0.0
 33
0.0
 16
1.0
 26
0.0
 36
0.0
 17
0.0
 27
1.0
 37
0.0
 76
     0
330
1F
331
29
  0
LAYOUT
  5
1E
102
{ACAD_REACTORS
330
1A
102
}
330
1A
100
AcDbPlotSettings
  1

  2
none_device
  4
ISO_A3_(420.00_x_297.00_MM)
  6

 40
7.5
 41
20.0
 42
7.5
 43
20.0
 44
420.0
 45
297.0
 46
0.0
 47
0.0
 48
0.0
 49
0.0
140
0.0
141
0.0
142
1.0
143
1.0
 70
  4832
 72
     1
 73
     0
 74
     1
  7

 75
     0
147
1.0
148
0.0
149
0.0
100
AcDbLayout
  1
SW_Model_1
 70
     1
 71
     1
 10
0.0
 20
0.0
 11
420.0
 21
297.0
 12
0.0
 22
0.0
 32
0.0
 14
0.0
 24
0.0
 34
0.0
 15
420.0
 25
297.0
 35
0.0
146
0.0
 13
0.0
 23
0.0
 33
0.0
 16
1.0
 26
0.0
 36
0.0
 17
0.0
 27
1.0
 37
0.0
 76
     0
330
1B
331
77
  0
MLINESTYLE
  5
18
102
{ACAD_REACTORS
330
17
102
}
330
17
100
AcDbMlineStyle
  2
Standard
 70
     0
  3

 62
   256
 51
90.0
 52
90.0
 71
     2
 49
0.5
 62
   256
  6
BYLAYER
 49
-0.5
 62
   256
  6
BYLAYER
  0
ACDBPLACEHOLDER
  5
F
102
{ACAD_REACTORS
330
E
102
}
330
E
  0
SCALE
  5
48
102
{ACAD_REACTORS
330
47
102
}
330
47
100
AcDbScale
 70
     0
300
1:1
140
1.0
141
1.0
290
     1
  0
SCALE
  5
49
102
{ACAD_REACTORS
330
47
102
}
330
47
100
AcDbScale
 70
     0
300
1:2
140
1.0
141
2.0
290
     0
  0
SCALE
  5
4A
102
{ACAD_REACTORS
330
47
102
}
330
47
100
AcDbScale
 70
     0
300
1:4
140
1.0
141
4.0
290
     0
  0
SCALE
  5
4B
102
{ACAD_REACTORS
330
47
102
}
330
47
100
AcDbScale
 70
     0
300
1:5
140
1.0
141
5.0
290
     0
  0
SCALE
  5
4C
102
{ACAD_REACTORS
330
47
102
}
330
47
100
AcDbScale
 70
     0
300
1:8
140
1.0
141
8.0
290
     0
  0
SCALE
  5
4D
102
{ACAD_REACTORS
330
47
102
}
330
47
100
AcDbScale
 70
     0
300
1:10
140
1.0
141
10.0
290
     0
  0
SCALE
  5
4E
102
{ACAD_REACTORS
330
47
102
}
330
47
100
AcDbScale
 70
     0
300
1:16
140
1.0
141
16.0
290
     0
  0
SCALE
  5
4F
102
{ACAD_REACTORS
330
47
102
}
330
47
100
AcDbScale
 70
     0
300
1:20
140
1.0
141
20.0
290
     0
  0
SCALE
  5
50
102
{ACAD_REACTORS
330
47
102
}
330
47
100
AcDbScale
 70
     0
300
1:30
140
1.0
141
30.0
290
     0
  0
SCALE
  5
51
102
{ACAD_REACTORS
330
47
102
}
330
47
100
AcDbScale
 70
     0
300
1:40
140
1.0
141
40.0
290
     0
  0
SCALE
  5
52
102
{ACAD_REACTORS
330
47
102
}
330
47
100
AcDbScale
 70
     0
300
1:50
140
1.0
141
50.0
290
     0
  0
SCALE
  5
53
102
{ACAD_REACTORS
330
47
102
}
330
47
100
AcDbScale
 70
     0
300
1:100
140
1.0
141
100.0
290
     0
  0
SCALE
  5
54
102
{ACAD_REACTORS
330
47
102
}
330
47
100
AcDbScale
 70
     0
300
2:1
140
2.0
141
1.0
290
     0
  0
SCALE
  5
55
102
{ACAD_REACTORS
330
47
102
}
330
47
100
AcDbScale
 70
     0
300
4:1
140
4.0
141
1.0
290
     0
  0
SCALE
  5
56
102
{ACAD_REACTORS
330
47
102
}
330
47
100
AcDbScale
 70
     0
300
8:1
140
8.0
141
1.0
290
     0
  0
SCALE
  5
57
102
{ACAD_REACTORS
330
47
102
}
330
47
100
AcDbScale
 70
     0
300
10:1
140
10.0
141
1.0
290
     0
  0
SCALE
  5
58
102
{ACAD_REACTORS
330
47
102
}
330
47
100
AcDbScale
 70
     0
300
100:1
140
100.0
141
1.0
290
     0
  0
SCALE
  5
59
102
{ACAD_REACTORS
330
47
102
}
330
47
100
AcDbScale
 70
     0
300
1/128" = 1'-0"
140
0.0078125
141
12.0
290
     0
  0
SCALE
  5
5A
102
{ACAD_REACTORS
330
47
102
}
330
47
100
AcDbScale
 70
     0
300
1/64" = 1'-0"
140
0.015625
141
12.0
290
     0
  0
SCALE
  5
5B
102
{ACAD_REACTORS
330
47
102
}
330
47
100
AcDbScale
 70
     0
300
1/32" = 1'-0"
140
0.03125
141
12.0
290
     0
  0
SCALE
  5
5C
102
{ACAD_REACTORS
330
47
102
}
330
47
100
AcDbScale
 70
     0
300
1/16" = 1'-0"
140
0.0625
141
12.0
290
     0
  0
SCALE
  5
5D
102
{ACAD_REACTORS
330
47
102
}
330
47
100
AcDbScale
 70
     0
300
3/32" = 1'-0"
140
0.09375
141
12.0
290
     0
  0
SCALE
  5
5E
102
{ACAD_REACTORS
330
47
102
}
330
47
100
AcDbScale
 70
     0
300
1/8" = 1'-0"
140
0.125
141
12.0
290
     0
  0
SCALE
  5
5F
102
{ACAD_REACTORS
330
47
102
}
330
47
100
AcDbScale
 70
     0
300
3/16" = 1'-0"
140
0.1875
141
12.0
290
     0
  0
SCALE
  5
60
102
{ACAD_REACTORS
330
47
102
}
330
47
100
AcDbScale
 70
     0
300
1/4" = 1'-0"
140
0.25
141
12.0
290
     0
  0
SCALE
  5
61
102
{ACAD_REACTORS
330
47
102
}
330
47
100
AcDbScale
 70
     0
300
3/8" = 1'-0"
140
0.375
141
12.0
290
     0
  0
SCALE
  5
62
102
{ACAD_REACTORS
330
47
102
}
330
47
100
AcDbScale
 70
     0
300
1/2" = 1'-0"
140
0.5
141
12.0
290
     0
  0
SCALE
  5
63
102
{ACAD_REACTORS
330
47
102
}
330
47
100
AcDbScale
 70
     0
300
3/4" = 1'-0"
140
0.75
141
12.0
290
     0
  0
SCALE
  5
64
102
{ACAD_REACTORS
330
47
102
}
330
47
100
AcDbScale
 70
     0
300
1" = 1'-0"
140
1.0
141
12.0
290
     0
  0
SCALE
  5
65
102
{ACAD_REACTORS
330
47
102
}
330
47
100
AcDbScale
 70
     0
300
1-1/2" = 1'-0"
140
1.5
141
12.0
290
     0
  0
SCALE
  5
66
102
{ACAD_REACTORS
330
47
102
}
330
47
100
AcDbScale
 70
     0
300
3" = 1'-0"
140
3.0
141
12.0
290
     0
  0
SCALE
  5
67
102
{ACAD_REACTORS
330
47
102
}
330
47
100
AcDbScale
 70
     0
300
6" = 1'-0"
140
6.0
141
12.0
290
     0
  0
SCALE
  5
68
102
{ACAD_REACTORS
330
47
102
}
330
47
100
AcDbScale
 70
     0
300
1'-0" = 1'-0"
140
12.0
141
12.0
290
     0
  0
ENDSEC
  0
EOF
