  0
SECTION
  2
HEADER
  9
$ACADVER
  1
AC1015
  9
$ACADMAINTVER
 70
     6
  9
$DWGCODEPAGE
  3
DOS932
  9
$INSBASE
 10
0.0
 20
0.0
 30
0.0
  9
$EXTMIN
 10
0.0
 20
0.0
 30
0.0
  9
$EXTMAX
 10
420.0
 20
297.0
 30
0.0
  9
$LIMMIN
 10
0.0
 20
0.0
  9
$LIMMAX
 10
420.0
 20
297.0
  9
$ORTHOMODE
 70
     0
  9
$REGENMODE
 70
     1
  9
$FILLMODE
 70
     1
  9
$QTEXTMODE
 70
     0
  9
$MIRRTEXT
 70
     1
  9
$LTSCALE
 40
1.0
  9
$ATTMODE
 70
     1
  9
$TEXTSIZE
 40
3.5
  9
$TRACEWID
 40
1.0
  9
$TEXTSTYLE
  7
Standard
  9
$CLAYER
  8
0
  9
$CELTYPE
  6
ByLayer
  9
$CECOLOR
 62
   256
  9
$CELTSCALE
 40
1.0
  9
$DISPSILH
 70
     0
  9
$DIMSCALE
 40
1.0
  9
$DIMASZ
 40
3.302
  9
$DIMEXO
 40
1.0
  9
$DIMDLI
 40
3.75
  9
$DIMRND
 40
0.0
  9
$DIMDLE
 40
0.0
  9
$DIMEXE
 40
1.0
  9
$DIMTP
 40
0.0
  9
$DIMTM
 40
0.0
  9
$DIMTXT
 40
3.5
  9
$DIMCEN
 40
2.5
  9
$DIMTSZ
 40
0.0
  9
$DIMTOL
 70
     0
  9
$DIMLIM
 70
     0
  9
$DIMTIH
 70
     1
  9
$DIMTOH
 70
     1
  9
$DIMSE1
 70
     0
  9
$DIMSE2
 70
     0
  9
$DIMTAD
 70
     1
  9
$DIMZIN
 70
     1
  9
$DIMBLK
  1

  9
$DIMASO
 70
     1
  9
$DIMSHO
 70
     1
  9
$DIMPOST
  1

  9
$DIMAPOST
  1

  9
$DIMALT
 70
     0
  9
$DIMALTD
 70
     3
  9
$DIMALTF
 40
0.0393700787
  9
$DIMLFAC
 40
1.0
  9
$DIMTOFL
 70
     1
  9
$DIMTVP
 40
0.0
  9
$DIMTIX
 70
     0
  9
$DIMSOXD
 70
     0
  9
$DIMSAH
 70
     0
  9
$DIMBLK1
  1

  9
$DIMBLK2
  1

  9
$DIMSTYLE
  2
ISO-25
  9
$DIMCLRD
 70
     0
  9
$DIMCLRE
 70
     0
  9
$DIMCLRT
 70
     0
  9
$DIMTFAC
 40
1.0
  9
$DIMGAP
 40
1.524
  9
$DIMJUST
 70
     0
  9
$DIMSD1
 70
     0
  9
$DIMSD2
 70
     0
  9
$DIMTOLJ
 70
     0
  9
$DIMTZIN
 70
     1
  9
$DIMALTZ
 70
     0
  9
$DIMALTTZ
 70
     0
  9
$DIMUPT
 70
     0
  9
$DIMDEC
 70
     4
  9
$DIMTDEC
 70
     4
  9
$DIMALTU
 70
     2
  9
$DIMALTTD
 70
     3
  9
$DIMTXSTY
  7
Standard
  9
$DIMAUNIT
 70
     0
  9
$DIMADEC
 70
     0
  9
$DIMALTRND
 40
0.0
  9
$DIMAZIN
 70
     0
  9
$DIMDSEP
 70
    44
  9
$DIMATFIT
 70
     3
  9
$DIMFRAC
 70
     0
  9
$DIMLDRBLK
  1

  9
$DIMLUNIT
 70
     2
  9
$DIMLWD
 70
    -2
  9
$DIMLWE
 70
    -2
  9
$DIMTMOVE
 70
     0
  9
$LUNITS
 70
     2
  9
$LUPREC
 70
     4
  9
$SKETCHINC
 40
1.0
  9
$FILLETRAD
 40
10.0
  9
$AUNITS
 70
     0
  9
$AUPREC
 70
     0
  9
$MENU
  1
.
  9
$ELEVATION
 40
0.0
  9
$PELEVATION
 40
0.0
  9
$THICKNESS
 40
0.0
  9
$LIMCHECK
 70
     0
  9
$CHAMFERA
 40
0.0
  9
$CHAMFERB
 40
0.0
  9
$CHAMFERC
 40
0.0
  9
$CHAMFERD
 40
0.0
  9
$SKPOLY
 70
     0
  9
$TDCREATE
 40
2458290.473930081
  9
$TDUCREATE
 40
2458290.098930081
  9
$TDUPDATE
 40
2458290.473936632
  9
$TDUUPDATE
 40
2458290.098936632
  9
$TDINDWG
 40
0.0000000116
  9
$TDUSRTIMER
 40
0.0000000116
  9
$USRTIMER
 70
     1
  9
$ANGBASE
 50
0.0
  9
$ANGDIR
 70
     0
  9
$PDMODE
 70
     0
  9
$PDSIZE
 40
-1.0
  9
$PLINEWID
 40
0.0
  9
$SPLFRAME
 70
     0
  9
$SPLINETYPE
 70
     6
  9
$SPLINESEGS
 70
     8
  9
$HANDSEED
  5
29F
  9
$SURFTAB1
 70
     6
  9
$SURFTAB2
 70
     6
  9
$SURFTYPE
 70
     6
  9
$SURFU
 70
     6
  9
$SURFV
 70
     6
  9
$UCSBASE
  2

  9
$UCSNAME
  2

  9
$UCSORG
 10
0.0
 20
0.0
 30
0.0
  9
$UCSXDIR
 10
1.0
 20
0.0
 30
0.0
  9
$UCSYDIR
 10
0.0
 20
1.0
 30
0.0
  9
$UCSORTHOREF
  2

  9
$UCSORTHOVIEW
 70
     0
  9
$UCSORGTOP
 10
0.0
 20
0.0
 30
0.0
  9
$UCSORGBOTTOM
 10
0.0
 20
0.0
 30
0.0
  9
$UCSORGLEFT
 10
0.0
 20
0.0
 30
0.0
  9
$UCSORGRIGHT
 10
0.0
 20
0.0
 30
0.0
  9
$UCSORGFRONT
 10
0.0
 20
0.0
 30
0.0
  9
$UCSORGBACK
 10
0.0
 20
0.0
 30
0.0
  9
$PUCSBASE
  2

  9
$PUCSNAME
  2

  9
$PUCSORG
 10
0.0
 20
0.0
 30
0.0
  9
$PUCSXDIR
 10
1.0
 20
0.0
 30
0.0
  9
$PUCSYDIR
 10
0.0
 20
1.0
 30
0.0
  9
$PUCSORTHOREF
  2

  9
$PUCSORTHOVIEW
 70
     0
  9
$PUCSORGTOP
 10
0.0
 20
0.0
 30
0.0
  9
$PUCSORGBOTTOM
 10
0.0
 20
0.0
 30
0.0
  9
$PUCSORGLEFT
 10
0.0
 20
0.0
 30
0.0
  9
$PUCSORGRIGHT
 10
0.0
 20
0.0
 30
0.0
  9
$PUCSORGFRONT
 10
0.0
 20
0.0
 30
0.0
  9
$PUCSORGBACK
 10
0.0
 20
0.0
 30
0.0
  9
$USERI1
 70
     0
  9
$USERI2
 70
     0
  9
$USERI3
 70
     0
  9
$USERI4
 70
     0
  9
$USERI5
 70
     0
  9
$USERR1
 40
0.0
  9
$USERR2
 40
0.0
  9
$USERR3
 40
0.0
  9
$USERR4
 40
0.0
  9
$USERR5
 40
0.0
  9
$WORLDVIEW
 70
     1
  9
$SHADEDGE
 70
     3
  9
$SHADEDIF
 70
    70
  9
$TILEMODE
 70
     0
  9
$MAXACTVP
 70
    64
  9
$PINSBASE
 10
0.0
 20
0.0
 30
0.0
  9
$PLIMCHECK
 70
     0
  9
$PEXTMIN
 10
0.0
 20
0.0
 30
0.0
  9
$PEXTMAX
 10
420.0
 20
297.0
 30
0.0
  9
$PLIMMIN
 10
0.0
 20
0.0
  9
$PLIMMAX
 10
420.0
 20
297.0
  9
$UNITMODE
 70
     0
  9
$VISRETAIN
 70
     1
  9
$PLINEGEN
 70
     0
  9
$PSLTSCALE
 70
     1
  9
$TREEDEPTH
 70
  3020
  9
$CMLSTYLE
  2
Standard
  9
$CMLJUST
 70
     0
  9
$CMLSCALE
 40
20.0
  9
$PROXYGRAPHICS
 70
     1
  9
$MEASUREMENT
 70
     1
  9
$CELWEIGHT
370
    -1
  9
$ENDCAPS
280
     0
  9
$JOINSTYLE
280
     0
  9
$LWDISPLAY
290
     1
  9
$INSUNITS
 70
     4
  9
$HYPERLINKBASE
  1

  9
$STYLESHEET
  1

  9
$XEDIT
290
     1
  9
$CEPSNTYPE
380
     0
  9
$PSTYLEMODE
290
     1
  9
$FINGERPRINTGUID
  2
{3D4AD4DE-B297-46BD-A330-CFD6D7DFA5CA}
  9
$VERSIONGUID
  2
{FAEB1C32-E019-11D5-929B-00C0DF256EC4}
  9
$EXTNAMES
290
     1
  9
$PSVPSCALE
 40
0.0
  9
$OLESTARTUP
290
     0
  0
ENDSEC
  0
SECTION
  2
CLASSES
  0
CLASS
  1
ACDBDICTIONARYWDFLT
  2
AcDbDictionaryWithDefault
  3
ObjectDBX Classes
 90
        0
280
     0
281
     0
  0
CLASS
  1
VISUALSTYLE
  2
AcDbVisualStyle
  3
ObjectDBX Classes
 90
     4095
280
     0
281
     0
  0
CLASS
  1
MATERIAL
  2
AcDbMaterial
  3
ObjectDBX Classes
 90
     1153
280
     0
281
     0
  0
CLASS
  1
SCALE
  2
AcDbScale
  3
ObjectDBX Classes
 90
     1153
280
     0
281
     0
  0
CLASS
  1
TABLESTYLE
  2
AcDbTableStyle
  3
ObjectDBX Classes
 90
     4095
280
     0
281
     0
  0
CLASS
  1
MLEADERSTYLE
  2
AcDbMLeaderStyle
  3
ACDB_MLEADERSTYLE_CLASS
 90
     4095
280
     0
281
     0
  0
CLASS
  1
SUN
  2
AcDbSun
  3
SCENEOE
 90
     1153
280
     0
281
     0
  0
CLASS
  1
ACDBPLACEHOLDER
  2
AcDbPlaceHolder
  3
ObjectDBX Classes
 90
        0
280
     0
281
     0
  0
CLASS
  1
LAYOUT
  2
AcDbLayout
  3
ObjectDBX Classes
 90
        0
280
     0
281
     0
  0
ENDSEC
  0
SECTION
  2
TABLES
  0
TABLE
  2
VPORT
  5
8
330
0
100
AcDbSymbolTable
 70
     1
  0
VPORT
  5
29
330
8
100
AcDbSymbolTableRecord
100
AcDbViewportTableRecord
  2
*Active
 70
     0
 10
0.0
 20
0.0
 11
1.0
 21
1.0
 12
210.0
 22
148.5
 13
0.0
 23
0.0
 14
10.0
 24
10.0
 15
10.0
 25
10.0
 16
0.0
 26
0.0
 36
1.0
 17
0.0
 27
0.0
 37
0.0
 40
297.0
 41
1.4141414141
 42
50.0
 43
0.0
 44
0.0
 50
0.0
 51
0.0
 71
     0
 72
  2000
 73
     1
 74
     3
 75
     0
 76
     0
 77
     0
 78
     0
281
     0
 65
     1
110
0.0
120
0.0
130
0.0
111
1.0
121
0.0
131
0.0
112
0.0
122
1.0
132
0.0
 79
     0
146
0.0
  0
ENDTAB
  0
TABLE
  2
LTYPE
  5
5
330
0
100
AcDbSymbolTable
 70
     6
  0
LTYPE
  5
14
330
5
100
AcDbSymbolTableRecord
100
AcDbLinetypeTableRecord
  2
ByBlock
 70
     0
  3

 72
    65
 73
     0
 40
0.0
  0
LTYPE
  5
15
330
5
100
AcDbSymbolTableRecord
100
AcDbLinetypeTableRecord
  2
ByLayer
 70
     0
  3

 72
    65
 73
     0
 40
0.0
  0
LTYPE
  5
16
330
5
100
AcDbSymbolTableRecord
100
AcDbLinetypeTableRecord
  2
Continuous
 70
     0
  3
Solid line
 72
    65
 73
     0
 40
0.0
  0
LTYPE
  5
6E
330
5
100
AcDbSymbolTableRecord
100
AcDbLinetypeTableRecord
  2
HIDDEN
 70
     0
  3
Hidden __ __ __ __ __ __ __ __ __ __ __ __ __ __
 72
    65
 73
     2
 40
1.905
 49
1.27
 74
     0
 49
-0.635
 74
     0
  0
LTYPE
  5
6F
330
5
100
AcDbSymbolTableRecord
100
AcDbLinetypeTableRecord
  2
PHANTOM
 70
     0
  3
Phantom ______  __  __  ______  __  __  ______
 72
    65
 73
     6
 40
12.7
 49
6.35
 74
     0
 49
-1.27
 74
     0
 49
1.27
 74
     0
 49
-1.27
 74
     0
 49
1.27
 74
     0
 49
-1.27
 74
     0
  0
LTYPE
  5
70
330
5
100
AcDbSymbolTableRecord
100
AcDbLinetypeTableRecord
  2
CENTER
 70
     0
  3
Center ____ _ ____ _ ____ _ ____ _ ____ _ ____
 72
    65
 73
     4
 40
10.16
 49
6.35
 74
     0
 49
-1.27
 74
     0
 49
1.27
 74
     0
 49
-1.27
 74
     0
  0
LTYPE
  5
71
330
5
100
AcDbSymbolTableRecord
100
AcDbLinetypeTableRecord
  2
CENTERX2
 70
     0
  3
Center (2x) ________  __  ________  __  _____
 72
    65
 73
     4
 40
20.32
 49
12.7
 74
     0
 49
-2.54
 74
     0
 49
2.54
 74
     0
 49
-2.54
 74
     0
  0
LTYPE
  5
72
330
5
100
AcDbSymbolTableRecord
100
AcDbLinetypeTableRecord
  2
DOT2
 70
     0
  3
Dot (.5x) ........................................
 72
    65
 73
     2
 40
0.635
 49
0.0
 74
     0
 49
-0.635
 74
     0
  0
ENDTAB
  0
TABLE
  2
LAYER
  5
2
330
0
100
AcDbSymbolTable
 70
     5
  0
LAYER
  5
10
330
2
100
AcDbSymbolTableRecord
100
AcDbLayerTableRecord
  2
0
 70
     0
 62
     7
  6
Continuous
370
    -3
390
F
  0
LAYER
  5
73
330
2
100
AcDbSymbolTableRecord
100
AcDbLayerTableRecord
  2
SLD-0
 70
     0
 62
     7
  6
Continuous
370
    -3
390
F
  0
LAYER
  5
74
330
2
100
AcDbSymbolTableRecord
100
AcDbLayerTableRecord
  2
1
 70
     0
 62
     7
  6
Continuous
370
    -3
390
F
  0
LAYER
  5
75
330
2
100
AcDbSymbolTableRecord
100
AcDbLayerTableRecord
  2
2
 70
     0
 62
     7
  6
Continuous
370
    -3
390
F
  0
LAYER
  5
76
330
2
100
AcDbSymbolTableRecord
100
AcDbLayerTableRecord
  2
SLD-DEFPOINTS
 70
     0
 62
     7
  6
Continuous
290
     0
370
    -3
390
F
  0
ENDTAB
  0
TABLE
  2
STYLE
  5
3
330
0
100
AcDbSymbolTable
 70
    10
  0
STYLE
  5
11
330
3
100
AcDbSymbolTableRecord
100
AcDbTextStyleTableRecord
  2
Standard
 70
     0
 40
0.0
 41
1.0
 50
0.0
 71
     0
 42
3.5
  3
txt
  4
bigfont
  0
STYLE
  5
14E
330
3
100
AcDbSymbolTableRecord
100
AcDbTextStyleTableRecord
  2
SLDTEXTSTYLE0
 70
     0
 40
0.0
 41
1.0
 50
0.0
 71
     0
 42
3.5
  3
TXT
  4
bigfont
  0
STYLE
  5
15F
330
3
100
AcDbSymbolTableRecord
100
AcDbTextStyleTableRecord
  2
SLDTEXTSTYLE1
 70
     0
 40
0.0
 41
0.96
 50
0.0
 71
     0
 42
3.5
  3
TXT
  4
bigfont
  0
STYLE
  5
274
330
3
100
AcDbSymbolTableRecord
100
AcDbTextStyleTableRecord
  2
SLDTEXTSTYLE2
 70
     0
 40
0.0
 41
0.9999999787
 50
0.0
 71
     0
 42
3.5
  3
TXT
  4
bigfont
  0
STYLE
  5
278
330
3
100
AcDbSymbolTableRecord
100
AcDbTextStyleTableRecord
  2
SLDTEXTSTYLE3
 70
     0
 40
0.0
 41
0.6999999936
 50
0.0
 71
     0
 42
3.5
  3
TXT
  4
bigfont
  0
STYLE
  5
282
330
3
100
AcDbSymbolTableRecord
100
AcDbTextStyleTableRecord
  2
SLDTEXTSTYLE4
 70
     0
 40
0.0
 41
0.7000000362
 50
0.0
 71
     0
 42
3.5
  3
TXT
  4
bigfont
  0
STYLE
  5
284
330
3
100
AcDbSymbolTableRecord
100
AcDbTextStyleTableRecord
  2
SLDTEXTSTYLE5
 70
     0
 40
0.0
 41
0.7000000176
 50
0.0
 71
     0
 42
3.5
  3
TXT
  4
bigfont
  0
STYLE
  5
286
330
3
100
AcDbSymbolTableRecord
100
AcDbTextStyleTableRecord
  2
SLDTEXTSTYLE6
 70
     0
 40
0.0
 41
0.6999999741
 50
0.0
 71
     0
 42
3.5
  3
TXT
  4
bigfont
  0
STYLE
  5
28B
330
3
100
AcDbSymbolTableRecord
100
AcDbTextStyleTableRecord
  2
SLDTEXTSTYLE7
 70
     0
 40
0.0
 41
1.0000000188
 50
0.0
 71
     0
 42
3.5
  3
TXT
  4
bigfont
  0
STYLE
  5
29C
330
3
100
AcDbSymbolTableRecord
100
AcDbTextStyleTableRecord
  2
SLDTEXTSTYLE8
 70
     0
 40
0.0
 41
0.3054298643
 50
0.0
 71
     0
 42
3.5
  3
TXT
  4
bigfont
  0
ENDTAB
  0
TABLE
  2
VIEW
  5
6
330
0
100
AcDbSymbolTable
 70
     0
  0
ENDTAB
  0
TABLE
  2
UCS
  5
7
330
0
100
AcDbSymbolTable
 70
     0
  0
ENDTAB
  0
TABLE
  2
APPID
  5
9
330
0
100
AcDbSymbolTable
 70
     1
  0
APPID
  5
12
330
9
100
AcDbSymbolTableRecord
100
AcDbRegAppTableRecord
  2
ACAD
 70
     0
  0
ENDTAB
  0
TABLE
  2
DIMSTYLE
  5
A
330
0
100
AcDbSymbolTable
 70
     3
100
AcDbDimStyleTable
  0
DIMSTYLE
105
27
330
A
100
AcDbSymbolTableRecord
100
AcDbDimStyleTableRecord
  2
ISO-25
 70
     0
 41
2.5
 42
0.625
 43
3.75
 44
1.25
 73
     0
 74
     0
 77
     1
 78
     8
140
2.5
141
2.5
143
0.0393700787
147
0.625
171
     3
172
     1
178
     0
271
     2
272
     2
274
     3
278
    44
283
     0
284
     8
340
11
  0
DIMSTYLE
105
14F
102
{ACAD_REACTORS
330
14D
330
161
330
19D
330
1AB
330
1B9
330
1C7
330
1E4
330
1F2
330
200
330
20E
330
22B
330
239
330
247
330
255
330
263
102
}
330
A
100
AcDbSymbolTableRecord
100
AcDbDimStyleTableRecord
  2
SLDDIMSTYLE0
 70
     0
 41
3.302
 44
0.0
 45
0.000000001
 73
     0
 74
     0
 77
     1
 78
    12
 79
     3
140
2.9104166031
147
0.7276041508
173
     1
178
     0
271
     0
276
     2
284
    12
340
14E
341
150
343
150
344
150
  0
DIMSTYLE
105
170
102
{ACAD_REACTORS
330
16F
330
17F
330
18E
330
1D5
330
21C
102
}
330
A
100
AcDbSymbolTableRecord
100
AcDbDimStyleTableRecord
  2
SLDDIMSTYLE1
 70
     0
 41
3.302
 44
0.0
 45
0.000000001
 73
     0
 74
     0
 77
     1
 78
     4
 79
     1
140
2.9104166031
147
0.7276041508
173
     1
178
     0
276
     2
284
    12
340
14E
341
150
343
150
344
150
  0
ENDTAB
  0
TABLE
  2
BLOCK_RECORD
  5
1
330
0
100
AcDbSymbolTable
 70
    22
  0
BLOCK_RECORD
  5
1F
330
1
100
AcDbSymbolTableRecord
100
AcDbBlockTableRecord
  2
*Model_Space
340
22
  0
BLOCK_RECORD
  5
1B
330
1
100
AcDbSymbolTableRecord
100
AcDbBlockTableRecord
  2
*Paper_Space
340
1E
  0
BLOCK_RECORD
  5
150
330
1
100
AcDbSymbolTableRecord
100
AcDbBlockTableRecord
  2
_NONE
340
0
  0
BLOCK_RECORD
  5
153
330
1
100
AcDbSymbolTableRecord
100
AcDbBlockTableRecord
  2
_D
340
0
  0
BLOCK_RECORD
  5
162
330
1
100
AcDbSymbolTableRecord
100
AcDbBlockTableRecord
  2
_D_1
340
0
  0
BLOCK_RECORD
  5
171
330
1
100
AcDbSymbolTableRecord
100
AcDbBlockTableRecord
  2
_D_2
340
0
  0
BLOCK_RECORD
  5
180
330
1
100
AcDbSymbolTableRecord
100
AcDbBlockTableRecord
  2
_D_3
340
0
  0
BLOCK_RECORD
  5
18F
330
1
100
AcDbSymbolTableRecord
100
AcDbBlockTableRecord
  2
_D_4
340
0
  0
BLOCK_RECORD
  5
19E
330
1
100
AcDbSymbolTableRecord
100
AcDbBlockTableRecord
  2
_D_5
340
0
  0
BLOCK_RECORD
  5
1AC
330
1
100
AcDbSymbolTableRecord
100
AcDbBlockTableRecord
  2
_D_6
340
0
  0
BLOCK_RECORD
  5
1BA
330
1
100
AcDbSymbolTableRecord
100
AcDbBlockTableRecord
  2
_D_7
340
0
  0
BLOCK_RECORD
  5
1C8
330
1
100
AcDbSymbolTableRecord
100
AcDbBlockTableRecord
  2
_D_8
340
0
  0
BLOCK_RECORD
  5
1D6
330
1
100
AcDbSymbolTableRecord
100
AcDbBlockTableRecord
  2
_D_9
340
0
  0
BLOCK_RECORD
  5
1E5
330
1
100
AcDbSymbolTableRecord
100
AcDbBlockTableRecord
  2
_D_10
340
0
  0
BLOCK_RECORD
  5
1F3
330
1
100
AcDbSymbolTableRecord
100
AcDbBlockTableRecord
  2
_D_11
340
0
  0
BLOCK_RECORD
  5
201
330
1
100
AcDbSymbolTableRecord
100
AcDbBlockTableRecord
  2
_D_12
340
0
  0
BLOCK_RECORD
  5
20F
330
1
100
AcDbSymbolTableRecord
100
AcDbBlockTableRecord
  2
_D_13
340
0
  0
BLOCK_RECORD
  5
21D
330
1
100
AcDbSymbolTableRecord
100
AcDbBlockTableRecord
  2
_D_14
340
0
  0
BLOCK_RECORD
  5
22C
330
1
100
AcDbSymbolTableRecord
100
AcDbBlockTableRecord
  2
_D_15
340
0
  0
BLOCK_RECORD
  5
23A
330
1
100
AcDbSymbolTableRecord
100
AcDbBlockTableRecord
  2
_D_16
340
0
  0
BLOCK_RECORD
  5
248
330
1
100
AcDbSymbolTableRecord
100
AcDbBlockTableRecord
  2
_D_17
340
0
  0
BLOCK_RECORD
  5
256
330
1
100
AcDbSymbolTableRecord
100
AcDbBlockTableRecord
  2
_D_18
340
0
  0
BLOCK_RECORD
  5
264
330
1
100
AcDbSymbolTableRecord
100
AcDbBlockTableRecord
  2
_D_19
340
0
  0
ENDTAB
  0
ENDSEC
  0
SECTION
  2
BLOCKS
  0
BLOCK
  5
20
330
1F
100
AcDbEntity
  8
0
100
AcDbBlockBegin
  2
*Model_Space
 70
     0
 10
0.0
 20
0.0
 30
0.0
  3
*Model_Space
  1

  0
ENDBLK
  5
21
330
1F
100
AcDbEntity
  8
0
100
AcDbBlockEnd
  0
BLOCK
  5
1C
330
1B
100
AcDbEntity
 67
     1
  8
0
100
AcDbBlockBegin
  2
*Paper_Space
 70
     0
 10
0.0
 20
0.0
 30
0.0
  3
*Paper_Space
  1

  0
ENDBLK
  5
1D
330
1B
100
AcDbEntity
 67
     1
  8
0
100
AcDbBlockEnd
  0
BLOCK
  5
151
330
150
100
AcDbEntity
  8
0
100
AcDbBlockBegin
  2
_NONE
 70
     0
 10
0.0
 20
0.0
 30
0.0
  3
_NONE
  1

  0
ENDBLK
  5
152
330
150
100
AcDbEntity
  8
0
100
AcDbBlockEnd
  0
BLOCK
  5
154
330
153
100
AcDbEntity
  8
0
100
AcDbBlockBegin
  2
_D
 70
     0
 10
0.0
 20
0.0
 30
0.0
  3
_D
  1

  0
LINE
  5
156
330
153
100
AcDbEntity
  8
SLD-0
 62
     7
100
AcDbLine
 10
246.3674712876
 20
53.383530179
 30
0.0
 11
52.3674711974
 21
53.383530179
 31
0.0
  0
LINE
  5
157
330
153
100
AcDbEntity
  8
SLD-0
 62
     7
100
AcDbLine
 10
249.3674712425
 20
53.383530179
 30
0.0
 11
246.3674712876
 21
52.383530194
 31
0.0
  0
LINE
  5
158
330
153
100
AcDbEntity
  8
SLD-0
 62
     7
100
AcDbLine
 10
249.3674712425
 20
53.383530179
 30
0.0
 11
246.3674712876
 21
54.383530164
 31
0.0
  0
LINE
  5
159
330
153
100
AcDbEntity
  8
SLD-0
 62
     7
100
AcDbLine
 10
249.3674712425
 20
53.383530179
 30
0.0
 11
246.3674712876
 21
53.383530179
 31
0.0
  0
LINE
  5
15A
330
153
100
AcDbEntity
  8
SLD-0
 62
     7
100
AcDbLine
 10
49.3674712425
 20
53.383530179
 30
0.0
 11
52.3674711974
 21
54.383530164
 31
0.0
  0
LINE
  5
15B
330
153
100
AcDbEntity
  8
SLD-0
 62
     7
100
AcDbLine
 10
49.3674712425
 20
53.383530179
 30
0.0
 11
52.3674711974
 21
52.383530194
 31
0.0
  0
LINE
  5
15C
330
153
100
AcDbEntity
  8
SLD-0
 62
     7
100
AcDbLine
 10
49.3674712425
 20
53.383530179
 30
0.0
 11
52.3674711974
 21
53.383530179
 31
0.0
  0
LINE
  5
15D
330
153
100
AcDbEntity
  8
SLD-0
 62
     7
100
AcDbLine
 10
249.3674712425
 20
93.8835302015
 30
0.0
 11
249.3674712425
 21
51.883530179
 31
0.0
  0
LINE
  5
15E
330
153
100
AcDbEntity
  8
SLD-0
 62
     7
100
AcDbLine
 10
49.3674712425
 20
93.8835302015
 30
0.0
 11
49.3674712425
 21
51.883530179
 31
0.0
  0
MTEXT
  5
160
330
153
100
AcDbEntity
  8
SLD-0
 62
     7
100
AcDbMText
 10
145.4174903875
 20
56.8033829692
 30
0.0
 40
2.9104166031
 41
0.0
 71
     1
 72
     1
  1
200
  7
SLDTEXTSTYLE1
 73
     1
 44
1.0
  0
ENDBLK
  5
155
330
153
100
AcDbEntity
  8
0
100
AcDbBlockEnd
  0
BLOCK
  5
163
330
162
100
AcDbEntity
  8
0
100
AcDbBlockBegin
  2
_D_1
 70
     0
 10
0.0
 20
0.0
 30
0.0
  3
_D_1
  1

  0
LINE
  5
165
330
162
100
AcDbEntity
  8
SLD-0
 62
     7
100
AcDbLine
 10
62.3674711974
 20
63.6889989153
 30
0.0
 11
236.3674712876
 21
63.6889989153
 31
0.0
  0
LINE
  5
166
330
162
100
AcDbEntity
  8
SLD-0
 62
     7
100
AcDbLine
 10
59.3674712425
 20
63.6889989153
 30
0.0
 11
62.3674711974
 21
64.6889989003
 31
0.0
  0
LINE
  5
167
330
162
100
AcDbEntity
  8
SLD-0
 62
     7
100
AcDbLine
 10
59.3674712425
 20
63.6889989153
 30
0.0
 11
62.3674711974
 21
62.6889989303
 31
0.0
  0
LINE
  5
168
330
162
100
AcDbEntity
  8
SLD-0
 62
     7
100
AcDbLine
 10
59.3674712425
 20
63.6889989153
 30
0.0
 11
62.3674711974
 21
63.6889989153
 31
0.0
  0
LINE
  5
169
330
162
100
AcDbEntity
  8
SLD-0
 62
     7
100
AcDbLine
 10
239.3674712425
 20
63.6889989153
 30
0.0
 11
236.3674712876
 21
62.6889989303
 31
0.0
  0
LINE
  5
16A
330
162
100
AcDbEntity
  8
SLD-0
 62
     7
100
AcDbLine
 10
239.3674712425
 20
63.6889989153
 30
0.0
 11
236.3674712876
 21
64.6889989003
 31
0.0
  0
LINE
  5
16B
330
162
100
AcDbEntity
  8
SLD-0
 62
     7
100
AcDbLine
 10
239.3674712425
 20
63.6889989153
 30
0.0
 11
236.3674712876
 21
63.6889989153
 31
0.0
  0
LINE
  5
16C
330
162
100
AcDbEntity
  8
SLD-0
 62
     7
100
AcDbLine
 10
59.3674712425
 20
93.8835302015
 30
0.0
 11
59.3674712425
 21
62.1889989153
 31
0.0
  0
LINE
  5
16D
330
162
100
AcDbEntity
  8
SLD-0
 62
     7
100
AcDbLine
 10
239.3674712425
 20
93.8835302015
 30
0.0
 11
239.3674712425
 21
62.1889989153
 31
0.0
  0
MTEXT
  5
16E
330
162
100
AcDbEntity
  8
SLD-0
 62
     7
100
AcDbMText
 10
145.4174903875
 20
67.1088517055
 30
0.0
 40
2.9104166031
 41
0.0
 71
     1
 72
     1
  1
180
  7
SLDTEXTSTYLE1
 73
     1
 44
1.0
  0
ENDBLK
  5
164
330
162
100
AcDbEntity
  8
0
100
AcDbBlockEnd
  0
BLOCK
  5
172
330
171
100
AcDbEntity
  8
0
100
AcDbBlockBegin
  2
_D_2
 70
     0
 10
0.0
 20
0.0
 30
0.0
  3
_D_2
  1

  0
LINE
  5
174
330
171
100
AcDbEntity
  8
SLD-0
 62
     7
100
AcDbLine
 10
242.3674711974
 20
63.6889989153
 30
0.0
 11
246.3674712876
 21
63.6889989153
 31
0.0
  0
LINE
  5
175
330
171
100
AcDbEntity
  8
SLD-0
 62
     7
100
AcDbLine
 10
239.3674712425
 20
63.6889989153
 30
0.0
 11
242.3674711974
 21
64.6889989003
 31
0.0
  0
LINE
  5
176
330
171
100
AcDbEntity
  8
SLD-0
 62
     7
100
AcDbLine
 10
239.3674712425
 20
63.6889989153
 30
0.0
 11
242.3674711974
 21
62.6889989303
 31
0.0
  0
LINE
  5
177
330
171
100
AcDbEntity
  8
SLD-0
 62
     7
100
AcDbLine
 10
239.3674712425
 20
63.6889989153
 30
0.0
 11
242.3674711974
 21
63.6889989153
 31
0.0
  0
LINE
  5
178
330
171
100
AcDbEntity
  8
SLD-0
 62
     7
100
AcDbLine
 10
249.3674712425
 20
63.6889989153
 30
0.0
 11
246.3674712876
 21
62.6889989303
 31
0.0
  0
LINE
  5
179
330
171
100
AcDbEntity
  8
SLD-0
 62
     7
100
AcDbLine
 10
249.3674712425
 20
63.6889989153
 30
0.0
 11
246.3674712876
 21
64.6889989003
 31
0.0
  0
LINE
  5
17A
330
171
100
AcDbEntity
  8
SLD-0
 62
     7
100
AcDbLine
 10
249.3674712425
 20
63.6889989153
 30
0.0
 11
246.3674712876
 21
63.6889989153
 31
0.0
  0
LINE
  5
17B
330
171
100
AcDbEntity
  8
SLD-0
 62
     7
100
AcDbLine
 10
239.3674712425
 20
93.8835302015
 30
0.0
 11
239.3674712425
 21
62.1889989153
 31
0.0
  0
LINE
  5
17C
330
171
100
AcDbEntity
  8
SLD-0
 62
     7
100
AcDbLine
 10
249.3674712425
 20
93.8835302015
 30
0.0
 11
249.3674712425
 21
62.1889989153
 31
0.0
  0
MTEXT
  5
17D
330
171
100
AcDbEntity
  8
SLD-0
 62
     7
100
AcDbMText
 10
240.4174903875
 20
67.1088517055
 30
0.0
 40
2.9104166031
 41
0.0
 71
     1
 72
     1
  1
%%c
  7
SLDTEXTSTYLE1
 73
     1
 44
1.0
  0
MTEXT
  5
17E
330
171
100
AcDbEntity
  8
SLD-0
 62
     7
100
AcDbMText
 10
244.2729840057
 20
67.1088517055
 30
0.0
 40
2.9104166031
 41
0.0
 71
     1
 72
     1
  1
１０
  7
SLDTEXTSTYLE1
 73
     1
 44
1.0
  0
ENDBLK
  5
173
330
171
100
AcDbEntity
  8
0
100
AcDbBlockEnd
  0
BLOCK
  5
181
330
180
100
AcDbEntity
  8
0
100
AcDbBlockBegin
  2
_D_3
 70
     0
 10
0.0
 20
0.0
 30
0.0
  3
_D_3
  1

  0
LINE
  5
183
330
180
100
AcDbEntity
  8
SLD-0
 62
     7
100
AcDbLine
 10
56.3674712876
 20
63.6889989153
 30
0.0
 11
52.3674711974
 21
63.6889989153
 31
0.0
  0
LINE
  5
184
330
180
100
AcDbEntity
  8
SLD-0
 62
     7
100
AcDbLine
 10
59.3674712425
 20
63.6889989153
 30
0.0
 11
56.3674712876
 21
62.6889989303
 31
0.0
  0
LINE
  5
185
330
180
100
AcDbEntity
  8
SLD-0
 62
     7
100
AcDbLine
 10
59.3674712425
 20
63.6889989153
 30
0.0
 11
56.3674712876
 21
64.6889989003
 31
0.0
  0
LINE
  5
186
330
180
100
AcDbEntity
  8
SLD-0
 62
     7
100
AcDbLine
 10
59.3674712425
 20
63.6889989153
 30
0.0
 11
56.3674712876
 21
63.6889989153
 31
0.0
  0
LINE
  5
187
330
180
100
AcDbEntity
  8
SLD-0
 62
     7
100
AcDbLine
 10
49.3674712425
 20
63.6889989153
 30
0.0
 11
52.3674711974
 21
64.6889989003
 31
0.0
  0
LINE
  5
188
330
180
100
AcDbEntity
  8
SLD-0
 62
     7
100
AcDbLine
 10
49.3674712425
 20
63.6889989153
 30
0.0
 11
52.3674711974
 21
62.6889989303
 31
0.0
  0
LINE
  5
189
330
180
100
AcDbEntity
  8
SLD-0
 62
     7
100
AcDbLine
 10
49.3674712425
 20
63.6889989153
 30
0.0
 11
52.3674711974
 21
63.6889989153
 31
0.0
  0
LINE
  5
18A
330
180
100
AcDbEntity
  8
SLD-0
 62
     7
100
AcDbLine
 10
59.3674712425
 20
93.8835302015
 30
0.0
 11
59.3674712425
 21
62.1889989153
 31
0.0
  0
LINE
  5
18B
330
180
100
AcDbEntity
  8
SLD-0
 62
     7
100
AcDbLine
 10
49.3674712425
 20
93.8835302015
 30
0.0
 11
49.3674712425
 21
62.1889989153
 31
0.0
  0
MTEXT
  5
18C
330
180
100
AcDbEntity
  8
SLD-0
 62
     7
100
AcDbMText
 10
50.4174903875
 20
67.1088517055
 30
0.0
 40
2.9104166031
 41
0.0
 71
     1
 72
     1
  1
%%c
  7
SLDTEXTSTYLE1
 73
     1
 44
1.0
  0
MTEXT
  5
18D
330
180
100
AcDbEntity
  8
SLD-0
 62
     7
100
AcDbMText
 10
54.2729840057
 20
67.1088517055
 30
0.0
 40
2.9104166031
 41
0.0
 71
     1
 72
     1
  1
１０
  7
SLDTEXTSTYLE1
 73
     1
 44
1.0
  0
ENDBLK
  5
182
330
180
100
AcDbEntity
  8
0
100
AcDbBlockEnd
  0
BLOCK
  5
190
330
18F
100
AcDbEntity
  8
0
100
AcDbBlockBegin
  2
_D_4
 70
     0
 10
0.0
 20
0.0
 30
0.0
  3
_D_4
  1

  0
LINE
  5
192
330
18F
100
AcDbEntity
  8
SLD-0
 62
     7
100
AcDbLine
 10
35.4474712425
 20
82.3835302241
 30
0.0
 11
35.4474712425
 21
78.3835301339
 31
0.0
  0
LINE
  5
193
330
18F
100
AcDbEntity
  8
SLD-0
 62
     7
100
AcDbLine
 10
35.4474712425
 20
85.383530179
 30
0.0
 11
36.4474712275
 21
82.3835302241
 31
0.0
  0
LINE
  5
194
330
18F
100
AcDbEntity
  8
SLD-0
 62
     7
100
AcDbLine
 10
35.4474712425
 20
85.383530179
 30
0.0
 11
34.4474712575
 21
82.3835302241
 31
0.0
  0
LINE
  5
195
330
18F
100
AcDbEntity
  8
SLD-0
 62
     7
100
AcDbLine
 10
35.4474712425
 20
85.383530179
 30
0.0
 11
35.4474712425
 21
82.3835302241
 31
0.0
  0
LINE
  5
196
330
18F
100
AcDbEntity
  8
SLD-0
 62
     7
100
AcDbLine
 10
35.4474712425
 20
75.383530179
 30
0.0
 11
34.4474712575
 21
78.3835301339
 31
0.0
  0
LINE
  5
197
330
18F
100
AcDbEntity
  8
SLD-0
 62
     7
100
AcDbLine
 10
35.4474712425
 20
75.383530179
 30
0.0
 11
36.4474712275
 21
78.3835301339
 31
0.0
  0
LINE
  5
198
330
18F
100
AcDbEntity
  8
SLD-0
 62
     7
100
AcDbLine
 10
35.4474712425
 20
75.383530179
 30
0.0
 11
35.4474712425
 21
78.3835301339
 31
0.0
  0
LINE
  5
199
330
18F
100
AcDbEntity
  8
SLD-0
 62
     7
100
AcDbLine
 10
67.867471265
 20
85.383530179
 30
0.0
 11
33.9474712425
 21
85.383530179
 31
0.0
  0
LINE
  5
19A
330
18F
100
AcDbEntity
  8
SLD-0
 62
     7
100
AcDbLine
 10
67.867471265
 20
75.383530179
 30
0.0
 11
33.9474712425
 21
75.383530179
 31
0.0
  0
MTEXT
  5
19B
330
18F
100
AcDbEntity
  8
SLD-0
 62
     7
100
AcDbMText
 10
32.0276184523
 20
76.433549324
 30
0.0
 40
2.9104166031
 41
0.0
 71
     1
 72
     1
  1
%%c
  7
SLDTEXTSTYLE1
 11
-3.828568698926949E-16
 21
1.0
 31
0.0
 73
     1
 44
1.0
  0
MTEXT
  5
19C
330
18F
100
AcDbEntity
  8
SLD-0
 62
     7
100
AcDbMText
 10
32.0276184523
 20
80.2890429422
 30
0.0
 40
2.9104166031
 41
0.0
 71
     1
 72
     1
  1
１０
  7
SLDTEXTSTYLE1
 11
-3.828568698926949E-16
 21
1.0
 31
0.0
 73
     1
 44
1.0
  0
ENDBLK
  5
191
330
18F
100
AcDbEntity
  8
0
100
AcDbBlockEnd
  0
BLOCK
  5
19F
330
19E
100
AcDbEntity
  8
0
100
AcDbBlockBegin
  2
_D_5
 70
     0
 10
0.0
 20
0.0
 30
0.0
  3
_D_5
  1

  0
LINE
  5
1A1
330
19E
100
AcDbEntity
  8
SLD-0
 62
     7
100
AcDbLine
 10
273.79720577
 20
165.3835302241
 30
0.0
 11
273.79720577
 21
78.3835301339
 31
0.0
  0
LINE
  5
1A2
330
19E
100
AcDbEntity
  8
SLD-0
 62
     7
100
AcDbLine
 10
273.79720577
 20
168.383530179
 30
0.0
 11
274.797205755
 21
165.3835302241
 31
0.0
  0
LINE
  5
1A3
330
19E
100
AcDbEntity
  8
SLD-0
 62
     7
100
AcDbLine
 10
273.79720577
 20
168.383530179
 30
0.0
 11
272.797205785
 21
165.3835302241
 31
0.0
  0
LINE
  5
1A4
330
19E
100
AcDbEntity
  8
SLD-0
 62
     7
100
AcDbLine
 10
273.79720577
 20
168.383530179
 30
0.0
 11
273.79720577
 21
165.3835302241
 31
0.0
  0
LINE
  5
1A5
330
19E
100
AcDbEntity
  8
SLD-0
 62
     7
100
AcDbLine
 10
273.79720577
 20
75.383530179
 30
0.0
 11
272.797205785
 21
78.3835301339
 31
0.0
  0
LINE
  5
1A6
330
19E
100
AcDbEntity
  8
SLD-0
 62
     7
100
AcDbLine
 10
273.79720577
 20
75.383530179
 30
0.0
 11
274.797205755
 21
78.3835301339
 31
0.0
  0
LINE
  5
1A7
330
19E
100
AcDbEntity
  8
SLD-0
 62
     7
100
AcDbLine
 10
273.79720577
 20
75.383530179
 30
0.0
 11
273.79720577
 21
78.3835301339
 31
0.0
  0
LINE
  5
1A8
330
19E
100
AcDbEntity
  8
SLD-0
 62
     7
100
AcDbLine
 10
220.36747122
 20
168.383530179
 30
0.0
 11
275.29720577
 21
168.383530179
 31
0.0
  0
LINE
  5
1A9
330
19E
100
AcDbEntity
  8
SLD-0
 62
     7
100
AcDbLine
 10
230.86747122
 20
75.383530179
 30
0.0
 11
275.29720577
 21
75.383530179
 31
0.0
  0
MTEXT
  5
1AA
330
19E
100
AcDbEntity
  8
SLD-0
 62
     7
100
AcDbMText
 10
270.3773529798
 20
119.388757566
 30
0.0
 40
2.9104166031
 41
0.0
 71
     1
 72
     1
  1
93
  7
SLDTEXTSTYLE1
 11
-3.828568698926949E-16
 21
1.0
 31
0.0
 73
     1
 44
1.0
  0
ENDBLK
  5
1A0
330
19E
100
AcDbEntity
  8
0
100
AcDbBlockEnd
  0
BLOCK
  5
1AD
330
1AC
100
AcDbEntity
  8
0
100
AcDbBlockBegin
  2
_D_6
 70
     0
 10
0.0
 20
0.0
 30
0.0
  3
_D_6
  1

  0
LINE
  5
1AF
330
1AC
100
AcDbEntity
  8
SLD-0
 62
     7
100
AcDbLine
 10
260.9435682617
 20
165.3835302241
 30
0.0
 11
260.9435682617
 21
151.3835301339
 31
0.0
  0
LINE
  5
1B0
330
1AC
100
AcDbEntity
  8
SLD-0
 62
     7
100
AcDbLine
 10
260.9435682617
 20
168.383530179
 30
0.0
 11
261.9435682467
 21
165.3835302241
 31
0.0
  0
LINE
  5
1B1
330
1AC
100
AcDbEntity
  8
SLD-0
 62
     7
100
AcDbLine
 10
260.9435682617
 20
168.383530179
 30
0.0
 11
259.9435682767
 21
165.3835302241
 31
0.0
  0
LINE
  5
1B2
330
1AC
100
AcDbEntity
  8
SLD-0
 62
     7
100
AcDbLine
 10
260.9435682617
 20
168.383530179
 30
0.0
 11
260.9435682617
 21
165.3835302241
 31
0.0
  0
LINE
  5
1B3
330
1AC
100
AcDbEntity
  8
SLD-0
 62
     7
100
AcDbLine
 10
260.9435682617
 20
148.383530179
 30
0.0
 11
259.9435682767
 21
151.3835301339
 31
0.0
  0
LINE
  5
1B4
330
1AC
100
AcDbEntity
  8
SLD-0
 62
     7
100
AcDbLine
 10
260.9435682617
 20
148.383530179
 30
0.0
 11
261.9435682467
 21
151.3835301339
 31
0.0
  0
LINE
  5
1B5
330
1AC
100
AcDbEntity
  8
SLD-0
 62
     7
100
AcDbLine
 10
260.9435682617
 20
148.383530179
 30
0.0
 11
260.9435682617
 21
151.3835301339
 31
0.0
  0
LINE
  5
1B6
330
1AC
100
AcDbEntity
  8
SLD-0
 62
     7
100
AcDbLine
 10
220.36747122
 20
168.383530179
 30
0.0
 11
262.4435682617
 21
168.383530179
 31
0.0
  0
LINE
  5
1B7
330
1AC
100
AcDbEntity
  8
SLD-0
 62
     7
100
AcDbLine
 10
220.36747122
 20
148.383530179
 30
0.0
 11
262.4435682617
 21
148.383530179
 31
0.0
  0
MTEXT
  5
1B8
330
1AC
100
AcDbEntity
  8
SLD-0
 62
     7
100
AcDbMText
 10
257.5237154715
 20
155.888757566
 30
0.0
 40
2.9104166031
 41
0.0
 71
     1
 72
     1
  1
20
  7
SLDTEXTSTYLE1
 11
-3.828568698926949E-16
 21
1.0
 31
0.0
 73
     1
 44
1.0
  0
ENDBLK
  5
1AE
330
1AC
100
AcDbEntity
  8
0
100
AcDbBlockEnd
  0
BLOCK
  5
1BB
330
1BA
100
AcDbEntity
  8
0
100
AcDbBlockBegin
  2
_D_7
 70
     0
 10
0.0
 20
0.0
 30
0.0
  3
_D_7
  1

  0
LINE
  5
1BD
330
1BA
100
AcDbEntity
  8
SLD-0
 62
     7
100
AcDbLine
 10
260.9435682617
 20
145.3835302241
 30
0.0
 11
260.9435682617
 21
88.3835301339
 31
0.0
  0
LINE
  5
1BE
330
1BA
100
AcDbEntity
  8
SLD-0
 62
     7
100
AcDbLine
 10
260.9435682617
 20
148.383530179
 30
0.0
 11
261.9435682467
 21
145.3835302241
 31
0.0
  0
LINE
  5
1BF
330
1BA
100
AcDbEntity
  8
SLD-0
 62
     7
100
AcDbLine
 10
260.9435682617
 20
148.383530179
 30
0.0
 11
259.9435682767
 21
145.3835302241
 31
0.0
  0
LINE
  5
1C0
330
1BA
100
AcDbEntity
  8
SLD-0
 62
     7
100
AcDbLine
 10
260.9435682617
 20
148.383530179
 30
0.0
 11
260.9435682617
 21
145.3835302241
 31
0.0
  0
LINE
  5
1C1
330
1BA
100
AcDbEntity
  8
SLD-0
 62
     7
100
AcDbLine
 10
260.9435682617
 20
85.383530179
 30
0.0
 11
259.9435682767
 21
88.3835301339
 31
0.0
  0
LINE
  5
1C2
330
1BA
100
AcDbEntity
  8
SLD-0
 62
     7
100
AcDbLine
 10
260.9435682617
 20
85.383530179
 30
0.0
 11
261.9435682467
 21
88.3835301339
 31
0.0
  0
LINE
  5
1C3
330
1BA
100
AcDbEntity
  8
SLD-0
 62
     7
100
AcDbLine
 10
260.9435682617
 20
85.383530179
 30
0.0
 11
260.9435682617
 21
88.3835301339
 31
0.0
  0
LINE
  5
1C4
330
1BA
100
AcDbEntity
  8
SLD-0
 62
     7
100
AcDbLine
 10
220.36747122
 20
148.383530179
 30
0.0
 11
262.4435682617
 21
148.383530179
 31
0.0
  0
LINE
  5
1C5
330
1BA
100
AcDbEntity
  8
SLD-0
 62
     7
100
AcDbLine
 10
230.86747122
 20
85.383530179
 30
0.0
 11
262.4435682617
 21
85.383530179
 31
0.0
  0
MTEXT
  5
1C6
330
1BA
100
AcDbEntity
  8
SLD-0
 62
     7
100
AcDbMText
 10
257.5237154715
 20
114.388757566
 30
0.0
 40
2.9104166031
 41
0.0
 71
     1
 72
     1
  1
63
  7
SLDTEXTSTYLE1
 11
-3.828568698926949E-16
 21
1.0
 31
0.0
 73
     1
 44
1.0
  0
ENDBLK
  5
1BC
330
1BA
100
AcDbEntity
  8
0
100
AcDbBlockEnd
  0
BLOCK
  5
1C9
330
1C8
100
AcDbEntity
  8
0
100
AcDbBlockBegin
  2
_D_8
 70
     0
 10
0.0
 20
0.0
 30
0.0
  3
_D_8
  1

  0
LINE
  5
1CB
330
1C8
100
AcDbEntity
  8
SLD-0
 62
     7
100
AcDbLine
 10
82.3674711974
 20
190.383530179
 30
0.0
 11
216.3674712876
 21
190.383530179
 31
0.0
  0
LINE
  5
1CC
330
1C8
100
AcDbEntity
  8
SLD-0
 62
     7
100
AcDbLine
 10
79.3674712425
 20
190.383530179
 30
0.0
 11
82.3674711974
 21
191.383530164
 31
0.0
  0
LINE
  5
1CD
330
1C8
100
AcDbEntity
  8
SLD-0
 62
     7
100
AcDbLine
 10
79.3674712425
 20
190.383530179
 30
0.0
 11
82.3674711974
 21
189.383530194
 31
0.0
  0
LINE
  5
1CE
330
1C8
100
AcDbEntity
  8
SLD-0
 62
     7
100
AcDbLine
 10
79.3674712425
 20
190.383530179
 30
0.0
 11
82.3674711974
 21
190.383530179
 31
0.0
  0
LINE
  5
1CF
330
1C8
100
AcDbEntity
  8
SLD-0
 62
     7
100
AcDbLine
 10
219.3674712425
 20
190.383530179
 30
0.0
 11
216.3674712876
 21
189.383530194
 31
0.0
  0
LINE
  5
1D0
330
1C8
100
AcDbEntity
  8
SLD-0
 62
     7
100
AcDbLine
 10
219.3674712425
 20
190.383530179
 30
0.0
 11
216.3674712876
 21
191.383530164
 31
0.0
  0
LINE
  5
1D1
330
1C8
100
AcDbEntity
  8
SLD-0
 62
     7
100
AcDbLine
 10
219.3674712425
 20
190.383530179
 30
0.0
 11
216.3674712876
 21
190.383530179
 31
0.0
  0
LINE
  5
1D2
330
1C8
100
AcDbEntity
  8
SLD-0
 62
     7
100
AcDbLine
 10
79.3674712425
 20
169.3835301565
 30
0.0
 11
79.3674712425
 21
191.883530179
 31
0.0
  0
LINE
  5
1D3
330
1C8
100
AcDbEntity
  8
SLD-0
 62
     7
100
AcDbLine
 10
219.3674712425
 20
169.3835301565
 30
0.0
 11
219.3674712425
 21
191.883530179
 31
0.0
  0
MTEXT
  5
1D4
330
1C8
100
AcDbEntity
  8
SLD-0
 62
     7
100
AcDbMText
 10
145.4174903875
 20
193.8033829692
 30
0.0
 40
2.9104166031
 41
0.0
 71
     1
 72
     1
  1
140
  7
SLDTEXTSTYLE1
 73
     1
 44
1.0
  0
ENDBLK
  5
1CA
330
1C8
100
AcDbEntity
  8
0
100
AcDbBlockEnd
  0
BLOCK
  5
1D7
330
1D6
100
AcDbEntity
  8
0
100
AcDbBlockBegin
  2
_D_9
 70
     0
 10
0.0
 20
0.0
 30
0.0
  3
_D_9
  1

  0
LINE
  5
1D9
330
1D6
100
AcDbEntity
  8
SLD-0
 62
     7
100
AcDbLine
 10
35.4474712425
 20
160.3835302241
 30
0.0
 11
35.4474712425
 21
156.3835301339
 31
0.0
  0
LINE
  5
1DA
330
1D6
100
AcDbEntity
  8
SLD-0
 62
     7
100
AcDbLine
 10
35.4474712425
 20
163.383530179
 30
0.0
 11
36.4474712275
 21
160.3835302241
 31
0.0
  0
LINE
  5
1DB
330
1D6
100
AcDbEntity
  8
SLD-0
 62
     7
100
AcDbLine
 10
35.4474712425
 20
163.383530179
 30
0.0
 11
34.4474712575
 21
160.3835302241
 31
0.0
  0
LINE
  5
1DC
330
1D6
100
AcDbEntity
  8
SLD-0
 62
     7
100
AcDbLine
 10
35.4474712425
 20
163.383530179
 30
0.0
 11
35.4474712425
 21
160.3835302241
 31
0.0
  0
LINE
  5
1DD
330
1D6
100
AcDbEntity
  8
SLD-0
 62
     7
100
AcDbLine
 10
35.4474712425
 20
153.383530179
 30
0.0
 11
34.4474712575
 21
156.3835301339
 31
0.0
  0
LINE
  5
1DE
330
1D6
100
AcDbEntity
  8
SLD-0
 62
     7
100
AcDbLine
 10
35.4474712425
 20
153.383530179
 30
0.0
 11
36.4474712275
 21
156.3835301339
 31
0.0
  0
LINE
  5
1DF
330
1D6
100
AcDbEntity
  8
SLD-0
 62
     7
100
AcDbLine
 10
35.4474712425
 20
153.383530179
 30
0.0
 11
35.4474712425
 21
156.3835301339
 31
0.0
  0
LINE
  5
1E0
330
1D6
100
AcDbEntity
  8
SLD-0
 62
     7
100
AcDbLine
 10
67.867471265
 20
163.383530179
 30
0.0
 11
33.9474712425
 21
163.383530179
 31
0.0
  0
LINE
  5
1E1
330
1D6
100
AcDbEntity
  8
SLD-0
 62
     7
100
AcDbLine
 10
67.867471265
 20
153.383530179
 30
0.0
 11
33.9474712425
 21
153.383530179
 31
0.0
  0
MTEXT
  5
1E2
330
1D6
100
AcDbEntity
  8
SLD-0
 62
     7
100
AcDbMText
 10
32.0276184523
 20
154.433549324
 30
0.0
 40
2.9104166031
 41
0.0
 71
     1
 72
     1
  1
%%c
  7
SLDTEXTSTYLE1
 11
-3.828568698926949E-16
 21
1.0
 31
0.0
 73
     1
 44
1.0
  0
MTEXT
  5
1E3
330
1D6
100
AcDbEntity
  8
SLD-0
 62
     7
100
AcDbMText
 10
32.0276184523
 20
158.2890429422
 30
0.0
 40
2.9104166031
 41
0.0
 71
     1
 72
     1
  1
１０
  7
SLDTEXTSTYLE1
 11
-3.828568698926949E-16
 21
1.0
 31
0.0
 73
     1
 44
1.0
  0
ENDBLK
  5
1D8
330
1D6
100
AcDbEntity
  8
0
100
AcDbBlockEnd
  0
BLOCK
  5
1E6
330
1E5
100
AcDbEntity
  8
0
100
AcDbBlockBegin
  2
_D_10
 70
     0
 10
0.0
 20
0.0
 30
0.0
  3
_D_10
  1

  0
LINE
  5
1E8
330
1E5
100
AcDbEntity
  8
SLD-0
 62
     7
100
AcDbLine
 10
35.4474712425
 20
150.3835302241
 30
0.0
 11
35.4474712425
 21
88.3835301339
 31
0.0
  0
LINE
  5
1E9
330
1E5
100
AcDbEntity
  8
SLD-0
 62
     7
100
AcDbLine
 10
35.4474712425
 20
153.383530179
 30
0.0
 11
36.4474712275
 21
150.3835302241
 31
0.0
  0
LINE
  5
1EA
330
1E5
100
AcDbEntity
  8
SLD-0
 62
     7
100
AcDbLine
 10
35.4474712425
 20
153.383530179
 30
0.0
 11
34.4474712575
 21
150.3835302241
 31
0.0
  0
LINE
  5
1EB
330
1E5
100
AcDbEntity
  8
SLD-0
 62
     7
100
AcDbLine
 10
35.4474712425
 20
153.383530179
 30
0.0
 11
35.4474712425
 21
150.3835302241
 31
0.0
  0
LINE
  5
1EC
330
1E5
100
AcDbEntity
  8
SLD-0
 62
     7
100
AcDbLine
 10
35.4474712425
 20
85.383530179
 30
0.0
 11
34.4474712575
 21
88.3835301339
 31
0.0
  0
LINE
  5
1ED
330
1E5
100
AcDbEntity
  8
SLD-0
 62
     7
100
AcDbLine
 10
35.4474712425
 20
85.383530179
 30
0.0
 11
36.4474712275
 21
88.3835301339
 31
0.0
  0
LINE
  5
1EE
330
1E5
100
AcDbEntity
  8
SLD-0
 62
     7
100
AcDbLine
 10
35.4474712425
 20
85.383530179
 30
0.0
 11
35.4474712425
 21
88.3835301339
 31
0.0
  0
LINE
  5
1EF
330
1E5
100
AcDbEntity
  8
SLD-0
 62
     7
100
AcDbLine
 10
67.867471265
 20
153.383530179
 30
0.0
 11
33.9474712425
 21
153.383530179
 31
0.0
  0
LINE
  5
1F0
330
1E5
100
AcDbEntity
  8
SLD-0
 62
     7
100
AcDbLine
 10
67.867471265
 20
85.383530179
 30
0.0
 11
33.9474712425
 21
85.383530179
 31
0.0
  0
MTEXT
  5
1F1
330
1E5
100
AcDbEntity
  8
SLD-0
 62
     7
100
AcDbMText
 10
32.0276184523
 20
116.888757566
 30
0.0
 40
2.9104166031
 41
0.0
 71
     1
 72
     1
  1
68
  7
SLDTEXTSTYLE1
 11
-3.828568698926949E-16
 21
1.0
 31
0.0
 73
     1
 44
1.0
  0
ENDBLK
  5
1E7
330
1E5
100
AcDbEntity
  8
0
100
AcDbBlockEnd
  0
BLOCK
  5
1F4
330
1F3
100
AcDbEntity
  8
0
100
AcDbBlockBegin
  2
_D_11
 70
     0
 10
0.0
 20
0.0
 30
0.0
  3
_D_11
  1

  0
LINE
  5
1F6
330
1F3
100
AcDbEntity
  8
SLD-0
 62
     7
100
AcDbLine
 10
339.0326586293
 20
190.383530179
 30
0.0
 11
361.0326587195
 21
190.383530179
 31
0.0
  0
LINE
  5
1F7
330
1F3
100
AcDbEntity
  8
SLD-0
 62
     7
100
AcDbLine
 10
336.0326586744
 20
190.383530179
 30
0.0
 11
339.0326586293
 21
191.383530164
 31
0.0
  0
LINE
  5
1F8
330
1F3
100
AcDbEntity
  8
SLD-0
 62
     7
100
AcDbLine
 10
336.0326586744
 20
190.383530179
 30
0.0
 11
339.0326586293
 21
189.383530194
 31
0.0
  0
LINE
  5
1F9
330
1F3
100
AcDbEntity
  8
SLD-0
 62
     7
100
AcDbLine
 10
336.0326586744
 20
190.383530179
 30
0.0
 11
339.0326586293
 21
190.383530179
 31
0.0
  0
LINE
  5
1FA
330
1F3
100
AcDbEntity
  8
SLD-0
 62
     7
100
AcDbLine
 10
364.0326586744
 20
190.383530179
 30
0.0
 11
361.0326587195
 21
189.383530194
 31
0.0
  0
LINE
  5
1FB
330
1F3
100
AcDbEntity
  8
SLD-0
 62
     7
100
AcDbLine
 10
364.0326586744
 20
190.383530179
 30
0.0
 11
361.0326587195
 21
191.383530164
 31
0.0
  0
LINE
  5
1FC
330
1F3
100
AcDbEntity
  8
SLD-0
 62
     7
100
AcDbLine
 10
364.0326586744
 20
190.383530179
 30
0.0
 11
361.0326587195
 21
190.383530179
 31
0.0
  0
LINE
  5
1FD
330
1F3
100
AcDbEntity
  8
SLD-0
 62
     7
100
AcDbLine
 10
336.0326586744
 20
159.8835301565
 30
0.0
 11
336.0326586744
 21
191.883530179
 31
0.0
  0
LINE
  5
1FE
330
1F3
100
AcDbEntity
  8
SLD-0
 62
     7
100
AcDbLine
 10
364.0326586744
 20
169.8835301565
 30
0.0
 11
364.0326586744
 21
191.883530179
 31
0.0
  0
MTEXT
  5
1FF
330
1F3
100
AcDbEntity
  8
SLD-0
 62
     7
100
AcDbMText
 10
347.5378860614
 20
193.8033829692
 30
0.0
 40
2.9104166031
 41
0.0
 71
     1
 72
     1
  1
28
  7
SLDTEXTSTYLE1
 73
     1
 44
1.0
  0
ENDBLK
  5
1F5
330
1F3
100
AcDbEntity
  8
0
100
AcDbBlockEnd
  0
BLOCK
  5
202
330
201
100
AcDbEntity
  8
0
100
AcDbBlockBegin
  2
_D_12
 70
     0
 10
0.0
 20
0.0
 30
0.0
  3
_D_12
  1

  0
LINE
  5
204
330
201
100
AcDbEntity
  8
SLD-0
 62
     7
100
AcDbLine
 10
349.0326586293
 20
184.383530179
 30
0.0
 11
361.0326587195
 21
184.383530179
 31
0.0
  0
LINE
  5
205
330
201
100
AcDbEntity
  8
SLD-0
 62
     7
100
AcDbLine
 10
346.0326586744
 20
184.383530179
 30
0.0
 11
349.0326586293
 21
185.383530164
 31
0.0
  0
LINE
  5
206
330
201
100
AcDbEntity
  8
SLD-0
 62
     7
100
AcDbLine
 10
346.0326586744
 20
184.383530179
 30
0.0
 11
349.0326586293
 21
183.383530194
 31
0.0
  0
LINE
  5
207
330
201
100
AcDbEntity
  8
SLD-0
 62
     7
100
AcDbLine
 10
346.0326586744
 20
184.383530179
 30
0.0
 11
349.0326586293
 21
184.383530179
 31
0.0
  0
LINE
  5
208
330
201
100
AcDbEntity
  8
SLD-0
 62
     7
100
AcDbLine
 10
364.0326586744
 20
184.383530179
 30
0.0
 11
361.0326587195
 21
183.383530194
 31
0.0
  0
LINE
  5
209
330
201
100
AcDbEntity
  8
SLD-0
 62
     7
100
AcDbLine
 10
364.0326586744
 20
184.383530179
 30
0.0
 11
361.0326587195
 21
185.383530164
 31
0.0
  0
LINE
  5
20A
330
201
100
AcDbEntity
  8
SLD-0
 62
     7
100
AcDbLine
 10
364.0326586744
 20
184.383530179
 30
0.0
 11
361.0326587195
 21
184.383530179
 31
0.0
  0
LINE
  5
20B
330
201
100
AcDbEntity
  8
SLD-0
 62
     7
100
AcDbLine
 10
346.0326586744
 20
170.8835301565
 30
0.0
 11
346.0326586744
 21
185.883530179
 31
0.0
  0
LINE
  5
20C
330
201
100
AcDbEntity
  8
SLD-0
 62
     7
100
AcDbLine
 10
364.0326586744
 20
169.8835301565
 30
0.0
 11
364.0326586744
 21
185.883530179
 31
0.0
  0
MTEXT
  5
20D
330
201
100
AcDbEntity
  8
SLD-0
 62
     7
100
AcDbMText
 10
352.5378860614
 20
187.8033829692
 30
0.0
 40
2.9104166031
 41
0.0
 71
     1
 72
     1
  1
18
  7
SLDTEXTSTYLE1
 73
     1
 44
1.0
  0
ENDBLK
  5
203
330
201
100
AcDbEntity
  8
0
100
AcDbBlockEnd
  0
BLOCK
  5
210
330
20F
100
AcDbEntity
  8
0
100
AcDbBlockBegin
  2
_D_13
 70
     0
 10
0.0
 20
0.0
 30
0.0
  3
_D_13
  1

  0
LINE
  5
212
330
20F
100
AcDbEntity
  8
SLD-0
 62
     7
100
AcDbLine
 10
320.0326586744
 20
78.3835301339
 30
0.0
 11
320.0326586744
 21
155.3835302241
 31
0.0
  0
LINE
  5
213
330
20F
100
AcDbEntity
  8
SLD-0
 62
     7
100
AcDbLine
 10
320.0326586744
 20
75.383530179
 30
0.0
 11
319.0326586894
 21
78.3835301339
 31
0.0
  0
LINE
  5
214
330
20F
100
AcDbEntity
  8
SLD-0
 62
     7
100
AcDbLine
 10
320.0326586744
 20
75.383530179
 30
0.0
 11
321.0326586594
 21
78.3835301339
 31
0.0
  0
LINE
  5
215
330
20F
100
AcDbEntity
  8
SLD-0
 62
     7
100
AcDbLine
 10
320.0326586744
 20
75.383530179
 30
0.0
 11
320.0326586744
 21
78.3835301339
 31
0.0
  0
LINE
  5
216
330
20F
100
AcDbEntity
  8
SLD-0
 62
     7
100
AcDbLine
 10
320.0326586744
 20
158.383530179
 30
0.0
 11
321.0326586594
 21
155.3835302241
 31
0.0
  0
LINE
  5
217
330
20F
100
AcDbEntity
  8
SLD-0
 62
     7
100
AcDbLine
 10
320.0326586744
 20
158.383530179
 30
0.0
 11
319.0326586894
 21
155.3835302241
 31
0.0
  0
LINE
  5
218
330
20F
100
AcDbEntity
  8
SLD-0
 62
     7
100
AcDbLine
 10
320.0326586744
 20
158.383530179
 30
0.0
 11
320.0326586744
 21
155.3835302241
 31
0.0
  0
LINE
  5
219
330
20F
100
AcDbEntity
  8
SLD-0
 62
     7
100
AcDbLine
 10
344.5326586969
 20
75.383530179
 30
0.0
 11
318.5326586744
 21
75.383530179
 31
0.0
  0
LINE
  5
21A
330
20F
100
AcDbEntity
  8
SLD-0
 62
     7
100
AcDbLine
 10
333.5326586969
 20
158.383530179
 30
0.0
 11
318.5326586744
 21
158.383530179
 31
0.0
  0
MTEXT
  5
21B
330
20F
100
AcDbEntity
  8
SLD-0
 62
     7
100
AcDbMText
 10
316.6128058842
 20
114.388757566
 30
0.0
 40
2.9104166031
 41
0.0
 71
     1
 72
     1
  1
83
  7
SLDTEXTSTYLE1
 11
-3.828568698926949E-16
 21
1.0
 31
0.0
 73
     1
 44
1.0
  0
ENDBLK
  5
211
330
20F
100
AcDbEntity
  8
0
100
AcDbBlockEnd
  0
BLOCK
  5
21E
330
21D
100
AcDbEntity
  8
0
100
AcDbBlockBegin
  2
_D_14
 70
     0
 10
0.0
 20
0.0
 30
0.0
  3
_D_14
  1

  0
LINE
  5
220
330
21D
100
AcDbEntity
  8
SLD-0
 62
     7
100
AcDbLine
 10
348.0326587195
 20
53.383530179
 30
0.0
 11
344.0326586293
 21
53.383530179
 31
0.0
  0
LINE
  5
221
330
21D
100
AcDbEntity
  8
SLD-0
 62
     7
100
AcDbLine
 10
351.0326586744
 20
53.383530179
 30
0.0
 11
348.0326587195
 21
52.383530194
 31
0.0
  0
LINE
  5
222
330
21D
100
AcDbEntity
  8
SLD-0
 62
     7
100
AcDbLine
 10
351.0326586744
 20
53.383530179
 30
0.0
 11
348.0326587195
 21
54.383530164
 31
0.0
  0
LINE
  5
223
330
21D
100
AcDbEntity
  8
SLD-0
 62
     7
100
AcDbLine
 10
351.0326586744
 20
53.383530179
 30
0.0
 11
348.0326587195
 21
53.383530179
 31
0.0
  0
LINE
  5
224
330
21D
100
AcDbEntity
  8
SLD-0
 62
     7
100
AcDbLine
 10
341.0326586744
 20
53.383530179
 30
0.0
 11
344.0326586293
 21
54.383530164
 31
0.0
  0
LINE
  5
225
330
21D
100
AcDbEntity
  8
SLD-0
 62
     7
100
AcDbLine
 10
341.0326586744
 20
53.383530179
 30
0.0
 11
344.0326586293
 21
52.383530194
 31
0.0
  0
LINE
  5
226
330
21D
100
AcDbEntity
  8
SLD-0
 62
     7
100
AcDbLine
 10
341.0326586744
 20
53.383530179
 30
0.0
 11
344.0326586293
 21
53.383530179
 31
0.0
  0
LINE
  5
227
330
21D
100
AcDbEntity
  8
SLD-0
 62
     7
100
AcDbLine
 10
351.0326586744
 20
78.8835302015
 30
0.0
 11
351.0326586744
 21
51.883530179
 31
0.0
  0
LINE
  5
228
330
21D
100
AcDbEntity
  8
SLD-0
 62
     7
100
AcDbLine
 10
341.0326586744
 20
78.8835302015
 30
0.0
 11
341.0326586744
 21
51.883530179
 31
0.0
  0
MTEXT
  5
229
330
21D
100
AcDbEntity
  8
SLD-0
 62
     7
100
AcDbMText
 10
342.0826778194
 20
56.8033829692
 30
0.0
 40
2.9104166031
 41
0.0
 71
     1
 72
     1
  1
%%c
  7
SLDTEXTSTYLE1
 73
     1
 44
1.0
  0
MTEXT
  5
22A
330
21D
100
AcDbEntity
  8
SLD-0
 62
     7
100
AcDbMText
 10
345.9381714376
 20
56.8033829692
 30
0.0
 40
2.9104166031
 41
0.0
 71
     1
 72
     1
  1
１０
  7
SLDTEXTSTYLE1
 73
     1
 44
1.0
  0
ENDBLK
  5
21F
330
21D
100
AcDbEntity
  8
0
100
AcDbBlockEnd
  0
BLOCK
  5
22D
330
22C
100
AcDbEntity
  8
0
100
AcDbBlockBegin
  2
_D_15
 70
     0
 10
0.0
 20
0.0
 30
0.0
  3
_D_15
  1

  0
LINE
  5
22F
330
22C
100
AcDbEntity
  8
SLD-0
 62
     7
100
AcDbLine
 10
354.0326586293
 20
53.383530179
 30
0.0
 11
361.0326587195
 21
53.383530179
 31
0.0
  0
LINE
  5
230
330
22C
100
AcDbEntity
  8
SLD-0
 62
     7
100
AcDbLine
 10
351.0326586744
 20
53.383530179
 30
0.0
 11
354.0326586293
 21
54.383530164
 31
0.0
  0
LINE
  5
231
330
22C
100
AcDbEntity
  8
SLD-0
 62
     7
100
AcDbLine
 10
351.0326586744
 20
53.383530179
 30
0.0
 11
354.0326586293
 21
52.383530194
 31
0.0
  0
LINE
  5
232
330
22C
100
AcDbEntity
  8
SLD-0
 62
     7
100
AcDbLine
 10
351.0326586744
 20
53.383530179
 30
0.0
 11
354.0326586293
 21
53.383530179
 31
0.0
  0
LINE
  5
233
330
22C
100
AcDbEntity
  8
SLD-0
 62
     7
100
AcDbLine
 10
364.0326586744
 20
53.383530179
 30
0.0
 11
361.0326587195
 21
52.383530194
 31
0.0
  0
LINE
  5
234
330
22C
100
AcDbEntity
  8
SLD-0
 62
     7
100
AcDbLine
 10
364.0326586744
 20
53.383530179
 30
0.0
 11
361.0326587195
 21
54.383530164
 31
0.0
  0
LINE
  5
235
330
22C
100
AcDbEntity
  8
SLD-0
 62
     7
100
AcDbLine
 10
364.0326586744
 20
53.383530179
 30
0.0
 11
361.0326587195
 21
53.383530179
 31
0.0
  0
LINE
  5
236
330
22C
100
AcDbEntity
  8
SLD-0
 62
     7
100
AcDbLine
 10
351.0326586744
 20
78.8835302015
 30
0.0
 11
351.0326586744
 21
51.883530179
 31
0.0
  0
LINE
  5
237
330
22C
100
AcDbEntity
  8
SLD-0
 62
     7
100
AcDbLine
 10
364.0326586744
 20
146.8835302015
 30
0.0
 11
364.0326586744
 21
51.883530179
 31
0.0
  0
MTEXT
  5
238
330
22C
100
AcDbEntity
  8
SLD-0
 62
     7
100
AcDbMText
 10
355.0378860614
 20
56.8033829692
 30
0.0
 40
2.9104166031
 41
0.0
 71
     1
 72
     1
  1
13
  7
SLDTEXTSTYLE1
 73
     1
 44
1.0
  0
ENDBLK
  5
22E
330
22C
100
AcDbEntity
  8
0
100
AcDbBlockEnd
  0
BLOCK
  5
23B
330
23A
100
AcDbEntity
  8
0
100
AcDbBlockBegin
  2
_D_16
 70
     0
 10
0.0
 20
0.0
 30
0.0
  3
_D_16
  1

  0
LINE
  5
23D
330
23A
100
AcDbEntity
  8
SLD-0
 62
     7
100
AcDbLine
 10
112.3674711974
 20
270.1729032471
 30
0.0
 11
186.3674712876
 21
270.1729032471
 31
0.0
  0
LINE
  5
23E
330
23A
100
AcDbEntity
  8
SLD-0
 62
     7
100
AcDbLine
 10
109.3674712425
 20
270.1729032471
 30
0.0
 11
112.3674711974
 21
271.1729032321
 31
0.0
  0
LINE
  5
23F
330
23A
100
AcDbEntity
  8
SLD-0
 62
     7
100
AcDbLine
 10
109.3674712425
 20
270.1729032471
 30
0.0
 11
112.3674711974
 21
269.1729032621
 31
0.0
  0
LINE
  5
240
330
23A
100
AcDbEntity
  8
SLD-0
 62
     7
100
AcDbLine
 10
109.3674712425
 20
270.1729032471
 30
0.0
 11
112.3674711974
 21
270.1729032471
 31
0.0
  0
LINE
  5
241
330
23A
100
AcDbEntity
  8
SLD-0
 62
     7
100
AcDbLine
 10
189.3674712425
 20
270.1729032471
 30
0.0
 11
186.3674712876
 21
269.1729032621
 31
0.0
  0
LINE
  5
242
330
23A
100
AcDbEntity
  8
SLD-0
 62
     7
100
AcDbLine
 10
189.3674712425
 20
270.1729032471
 30
0.0
 11
186.3674712876
 21
271.1729032321
 31
0.0
  0
LINE
  5
243
330
23A
100
AcDbEntity
  8
SLD-0
 62
     7
100
AcDbLine
 10
189.3674712425
 20
270.1729032471
 30
0.0
 11
186.3674712876
 21
270.1729032471
 31
0.0
  0
LINE
  5
244
330
23A
100
AcDbEntity
  8
SLD-0
 62
     7
100
AcDbLine
 10
109.3674712425
 20
261.4736820138
 30
0.0
 11
109.3674712425
 21
271.6729032471
 31
0.0
  0
LINE
  5
245
330
23A
100
AcDbEntity
  8
SLD-0
 62
     7
100
AcDbLine
 10
189.3674712425
 20
261.6052972871
 30
0.0
 11
189.3674712425
 21
271.6729032471
 31
0.0
  0
MTEXT
  5
246
330
23A
100
AcDbEntity
  8
SLD-0
 62
     7
100
AcDbMText
 10
146.8726986295
 20
273.5927560373
 30
0.0
 40
2.9104166031
 41
0.0
 71
     1
 72
     1
  1
80
  7
SLDTEXTSTYLE1
 73
     1
 44
1.0
  0
ENDBLK
  5
23C
330
23A
100
AcDbEntity
  8
0
100
AcDbBlockEnd
  0
BLOCK
  5
249
330
248
100
AcDbEntity
  8
0
100
AcDbBlockBegin
  2
_D_17
 70
     0
 10
0.0
 20
0.0
 30
0.0
  3
_D_17
  1

  0
LINE
  5
24B
330
248
100
AcDbEntity
  8
SLD-0
 62
     7
100
AcDbLine
 10
202.3674711974
 20
270.1729032471
 30
0.0
 11
216.3674712876
 21
270.1729032471
 31
0.0
  0
LINE
  5
24C
330
248
100
AcDbEntity
  8
SLD-0
 62
     7
100
AcDbLine
 10
199.3674712425
 20
270.1729032471
 30
0.0
 11
202.3674711974
 21
271.1729032321
 31
0.0
  0
LINE
  5
24D
330
248
100
AcDbEntity
  8
SLD-0
 62
     7
100
AcDbLine
 10
199.3674712425
 20
270.1729032471
 30
0.0
 11
202.3674711974
 21
269.1729032621
 31
0.0
  0
LINE
  5
24E
330
248
100
AcDbEntity
  8
SLD-0
 62
     7
100
AcDbLine
 10
199.3674712425
 20
270.1729032471
 30
0.0
 11
202.3674711974
 21
270.1729032471
 31
0.0
  0
LINE
  5
24F
330
248
100
AcDbEntity
  8
SLD-0
 62
     7
100
AcDbLine
 10
219.3674712425
 20
270.1729032471
 30
0.0
 11
216.3674712876
 21
269.1729032621
 31
0.0
  0
LINE
  5
250
330
248
100
AcDbEntity
  8
SLD-0
 62
     7
100
AcDbLine
 10
219.3674712425
 20
270.1729032471
 30
0.0
 11
216.3674712876
 21
271.1729032321
 31
0.0
  0
LINE
  5
251
330
248
100
AcDbEntity
  8
SLD-0
 62
     7
100
AcDbLine
 10
219.3674712425
 20
270.1729032471
 30
0.0
 11
216.3674712876
 21
270.1729032471
 31
0.0
  0
LINE
  5
252
330
248
100
AcDbEntity
  8
SLD-0
 62
     7
100
AcDbLine
 10
199.3674712425
 20
236.5229032246
 30
0.0
 11
199.3674712425
 21
271.6729032471
 31
0.0
  0
LINE
  5
253
330
248
100
AcDbEntity
  8
SLD-0
 62
     7
100
AcDbLine
 10
219.3674712425
 20
237.3729032246
 30
0.0
 11
219.3674712425
 21
271.6729032471
 31
0.0
  0
MTEXT
  5
254
330
248
100
AcDbEntity
  8
SLD-0
 62
     7
100
AcDbMText
 10
206.8726986295
 20
273.5927560373
 30
0.0
 40
2.9104166031
 41
0.0
 71
     1
 72
     1
  1
20
  7
SLDTEXTSTYLE1
 73
     1
 44
1.0
  0
ENDBLK
  5
24A
330
248
100
AcDbEntity
  8
0
100
AcDbBlockEnd
  0
BLOCK
  5
257
330
256
100
AcDbEntity
  8
0
100
AcDbBlockBegin
  2
_D_18
 70
     0
 10
0.0
 20
0.0
 30
0.0
  3
_D_18
  1

  0
LINE
  5
259
330
256
100
AcDbEntity
  8
SLD-0
 62
     7
100
AcDbLine
 10
82.3674711974
 20
270.1729032471
 30
0.0
 11
96.3674712876
 21
270.1729032471
 31
0.0
  0
LINE
  5
25A
330
256
100
AcDbEntity
  8
SLD-0
 62
     7
100
AcDbLine
 10
79.3674712425
 20
270.1729032471
 30
0.0
 11
82.3674711974
 21
271.1729032321
 31
0.0
  0
LINE
  5
25B
330
256
100
AcDbEntity
  8
SLD-0
 62
     7
100
AcDbLine
 10
79.3674712425
 20
270.1729032471
 30
0.0
 11
82.3674711974
 21
269.1729032621
 31
0.0
  0
LINE
  5
25C
330
256
100
AcDbEntity
  8
SLD-0
 62
     7
100
AcDbLine
 10
79.3674712425
 20
270.1729032471
 30
0.0
 11
82.3674711974
 21
270.1729032471
 31
0.0
  0
LINE
  5
25D
330
256
100
AcDbEntity
  8
SLD-0
 62
     7
100
AcDbLine
 10
99.3674712425
 20
270.1729032471
 30
0.0
 11
96.3674712876
 21
269.1729032621
 31
0.0
  0
LINE
  5
25E
330
256
100
AcDbEntity
  8
SLD-0
 62
     7
100
AcDbLine
 10
99.3674712425
 20
270.1729032471
 30
0.0
 11
96.3674712876
 21
271.1729032321
 31
0.0
  0
LINE
  5
25F
330
256
100
AcDbEntity
  8
SLD-0
 62
     7
100
AcDbLine
 10
99.3674712425
 20
270.1729032471
 30
0.0
 11
96.3674712876
 21
270.1729032471
 31
0.0
  0
LINE
  5
260
330
256
100
AcDbEntity
  8
SLD-0
 62
     7
100
AcDbLine
 10
79.3674712425
 20
237.3729032246
 30
0.0
 11
79.3674712425
 21
271.6729032471
 31
0.0
  0
LINE
  5
261
330
256
100
AcDbEntity
  8
SLD-0
 62
     7
100
AcDbLine
 10
99.3674712425
 20
236.5229032246
 30
0.0
 11
99.3674712425
 21
271.6729032471
 31
0.0
  0
MTEXT
  5
262
330
256
100
AcDbEntity
  8
SLD-0
 62
     7
100
AcDbMText
 10
86.8726986295
 20
273.5927560373
 30
0.0
 40
2.9104166031
 41
0.0
 71
     1
 72
     1
  1
20
  7
SLDTEXTSTYLE1
 73
     1
 44
1.0
  0
ENDBLK
  5
258
330
256
100
AcDbEntity
  8
0
100
AcDbBlockEnd
  0
BLOCK
  5
265
330
264
100
AcDbEntity
  8
0
100
AcDbBlockBegin
  2
_D_19
 70
     0
 10
0.0
 20
0.0
 30
0.0
  3
_D_19
  1

  0
LINE
  5
267
330
264
100
AcDbEntity
  8
SLD-0
 62
     7
100
AcDbLine
 10
259.3674712425
 20
235.8729032471
 30
0.0
 11
259.3674712425
 21
242.0075268943
 31
0.0
  0
LINE
  5
268
330
264
100
AcDbEntity
  8
SLD-0
 62
     7
100
AcDbLine
 10
259.3674712425
 20
231.8729032471
 30
0.0
 11
259.3674712425
 21
235.8729032471
 31
0.0
  0
LINE
  5
269
330
264
100
AcDbEntity
  8
SLD-0
 62
     7
100
AcDbLine
 10
259.3674712425
 20
231.8729032471
 30
0.0
 11
260.3674712275
 21
228.8729032922
 31
0.0
  0
LINE
  5
26A
330
264
100
AcDbEntity
  8
SLD-0
 62
     7
100
AcDbLine
 10
259.3674712425
 20
231.8729032471
 30
0.0
 11
258.3674712575
 21
228.8729032922
 31
0.0
  0
LINE
  5
26B
330
264
100
AcDbEntity
  8
SLD-0
 62
     7
100
AcDbLine
 10
259.3674712425
 20
231.8729032471
 30
0.0
 11
259.3674712425
 21
228.8729032922
 31
0.0
  0
LINE
  5
26C
330
264
100
AcDbEntity
  8
SLD-0
 62
     7
100
AcDbLine
 10
259.3674712425
 20
228.8729032922
 30
0.0
 11
259.3674712425
 21
225.5229033425
 31
0.0
  0
LINE
  5
26D
330
264
100
AcDbEntity
  8
SLD-0
 62
     7
100
AcDbLine
 10
259.3674712425
 20
235.8729032471
 30
0.0
 11
258.3674712575
 21
238.872903202
 31
0.0
  0
LINE
  5
26E
330
264
100
AcDbEntity
  8
SLD-0
 62
     7
100
AcDbLine
 10
259.3674712425
 20
235.8729032471
 30
0.0
 11
260.3674712275
 21
238.872903202
 31
0.0
  0
LINE
  5
26F
330
264
100
AcDbEntity
  8
SLD-0
 62
     7
100
AcDbLine
 10
259.3674712425
 20
235.8729032471
 30
0.0
 11
259.3674712425
 21
238.872903202
 31
0.0
  0
LINE
  5
270
330
264
100
AcDbEntity
  8
SLD-0
 62
     7
100
AcDbLine
 10
259.3674712425
 20
238.872903202
 30
0.0
 11
259.3674712425
 21
242.2229031517
 31
0.0
  0
LINE
  5
271
330
264
100
AcDbEntity
  8
SLD-0
 62
     7
100
AcDbLine
 10
204.01747122
 20
231.8729032471
 30
0.0
 11
260.8674712425
 21
231.8729032471
 31
0.0
  0
LINE
  5
272
330
264
100
AcDbEntity
  8
SLD-0
 62
     7
100
AcDbLine
 10
220.86747122
 20
235.8729032471
 30
0.0
 11
260.8674712425
 21
235.8729032471
 31
0.0
  0
MTEXT
  5
273
330
264
100
AcDbEntity
  8
SLD-0
 62
     7
100
AcDbMText
 10
255.9476184523
 20
239.9283981521
 30
0.0
 40
2.9104166031
 41
0.0
 71
     1
 72
     1
  1
4
  7
SLDTEXTSTYLE1
 11
-3.828568698926949E-16
 21
1.0
 31
0.0
 73
     1
 44
1.0
  0
ENDBLK
  5
266
330
264
100
AcDbEntity
  8
0
100
AcDbBlockEnd
  0
ENDSEC
  0
SECTION
  2
ENTITIES
  0
VIEWPORT
  5
77
330
1B
100
AcDbEntity
 67
     1
  8
0
100
AcDbViewport
 10
210.0
 20
148.5
 30
0.0
 40
444.36
 41
314.226
 68
     1
 69
     1
 12
210.0
 22
148.5
 13
0.0
 23
0.0
 14
10.0
 24
10.0
 15
10.0
 25
10.0
 16
0.0
 26
0.0
 36
1.0
 17
0.0
 27
0.0
 37
0.0
 42
50.0
 43
0.0
 44
0.0
 45
314.226
 50
0.0
 51
0.0
 72
   100
 90
   557152
  1

281
     0
 71
     1
 74
     0
110
0.0
120
0.0
130
0.0
111
1.0
121
0.0
131
0.0
112
0.0
122
1.0
132
0.0
 79
     0
146
0.0
  0
LINE
  5
79
330
1B
100
AcDbEntity
 67
     1
  8
SLD-0
  6
Continuous
 62
     7
100
AcDbLine
 10
69.3674730306
 20
75.3835310135
 30
0.0
 11
229.3674694544
 21
75.3835310135
 31
0.0
  0
LINE
  5
7A
330
1B
100
AcDbEntity
 67
     1
  8
SLD-0
  6
Continuous
 62
     7
100
AcDbLine
 10
229.3674694544
 20
85.3835289273
 30
0.0
 11
69.3674730306
 21
85.3835289273
 31
0.0
  0
LINE
  5
7B
330
1B
100
AcDbEntity
 67
     1
  8
SLD-0
  6
Continuous
 62
     7
100
AcDbLine
 10
49.367472077
 20
143.3835305143
 30
0.0
 11
49.367472077
 21
95.3835291657
 31
0.0
  0
LINE
  5
7C
330
1B
100
AcDbEntity
 67
     1
  8
SLD-0
  6
Continuous
 62
     7
100
AcDbLine
 10
59.3674699908
 20
95.3835291657
 30
0.0
 11
59.3674699908
 21
143.3835305143
 31
0.0
  0
LINE
  5
7D
330
1B
100
AcDbEntity
 67
     1
  8
SLD-0
  6
Continuous
 62
     7
100
AcDbLine
 10
249.367470408
 20
95.3835291657
 30
0.0
 11
249.367470408
 21
143.3835305143
 31
0.0
  0
LINE
  5
7E
330
1B
100
AcDbEntity
 67
     1
  8
SLD-0
  6
Continuous
 62
     7
100
AcDbLine
 10
239.3674724942
 20
143.3835305143
 30
0.0
 11
239.3674724942
 21
95.3835291657
 31
0.0
  0
LINE
  5
7F
330
1B
100
AcDbEntity
 67
     1
  8
SLD-0
  6
Continuous
 62
     7
100
AcDbLine
 10
79.3674715369
 20
163.3835299369
 30
0.0
 11
69.367473623
 21
163.3835299369
 31
0.0
  0
LINE
  5
80
330
1B
100
AcDbEntity
 67
     1
  8
SLD-0
  6
Continuous
 62
     7
100
AcDbLine
 10
69.367473623
 20
153.3835320231
 30
0.0
 11
79.3674715369
 21
153.3835320231
 31
0.0
  0
LINE
  5
81
330
1B
100
AcDbEntity
 67
     1
  8
SLD-0
  6
Continuous
 62
     7
100
AcDbLine
 10
219.3674709481
 20
153.3835320231
 30
0.0
 11
229.367468862
 21
153.3835320231
 31
0.0
  0
LINE
  5
82
330
1B
100
AcDbEntity
 67
     1
  8
SLD-0
  6
Continuous
 62
     7
100
AcDbLine
 10
229.3674688621
 20
163.3835299369
 30
0.0
 11
219.3674709481
 21
163.3835299369
 31
0.0
  0
LINE
  5
83
330
1B
100
AcDbEntity
 67
     1
  8
SLD-0
  6
Continuous
 62
     7
100
AcDbLine
 10
219.367471019
 20
167.8835298735
 30
0.0
 11
219.367471019
 21
148.8835304845
 31
0.0
  0
LINE
  5
84
330
1B
100
AcDbEntity
 67
     1
  8
SLD-0
  6
Continuous
 62
     7
100
AcDbLine
 10
79.3674709445
 20
148.8835304845
 30
0.0
 11
79.3674709445
 21
167.8835298735
 31
0.0
  0
LINE
  5
85
330
1B
100
AcDbEntity
 67
     1
  8
SLD-0
  6
Continuous
 62
     7
100
AcDbLine
 10
218.8674702665
 20
148.3835301418
 30
0.0
 11
79.867471697
 21
148.3835301418
 31
0.0
  0
LINE
  5
86
330
1B
100
AcDbEntity
 67
     1
  8
SLD-0
  6
Continuous
 62
     7
100
AcDbLine
 10
218.8674702665
 20
168.3835302162
 30
0.0
 11
79.867471697
 21
168.3835302162
 31
0.0
  0
LINE
  5
87
330
1B
100
AcDbEntity
 67
     1
  8
SLD-0
  6
CENTER
 62
     7
100
AcDbLine
 10
244.3674712425
 20
95.383530179
 30
0.0
 11
244.3674712425
 21
143.383530179
 31
0.0
  0
LINE
  5
88
330
1B
100
AcDbEntity
 67
     1
  8
SLD-0
  6
CENTER
 62
     7
100
AcDbLine
 10
69.3674712425
 20
80.383530179
 30
0.0
 11
229.3674712425
 21
80.383530179
 31
0.0
  0
LINE
  5
89
330
1B
100
AcDbEntity
 67
     1
  8
SLD-0
  6
CENTER
 62
     7
100
AcDbLine
 10
54.3674712425
 20
143.383530179
 30
0.0
 11
54.3674712425
 21
95.383530179
 31
0.0
  0
LINE
  5
8A
330
1B
100
AcDbEntity
 67
     1
  8
SLD-0
  6
CENTER
 62
     7
100
AcDbLine
 10
244.3674712425
 20
143.383530179
 30
0.0
 11
244.3674712425
 21
95.383530179
 31
0.0
  0
LINE
  5
8B
330
1B
100
AcDbEntity
 67
     1
  8
SLD-0
  6
CENTER
 62
     7
100
AcDbLine
 10
229.3674712425
 20
80.383530179
 30
0.0
 11
69.3674712425
 21
80.383530179
 31
0.0
  0
LINE
  5
8C
330
1B
100
AcDbEntity
 67
     1
  8
SLD-0
  6
CENTER
 62
     7
100
AcDbLine
 10
54.3674712425
 20
143.383530179
 30
0.0
 11
54.3674712425
 21
95.383530179
 31
0.0
  0
LINE
  5
8D
330
1B
100
AcDbEntity
 67
     1
  8
SLD-0
  6
CENTER
 62
     7
100
AcDbLine
 10
228.9709285574
 20
158.383530179
 30
0.0
 11
69.6883456521
 21
158.383530179
 31
0.0
  0
LINE
  5
8E
330
1B
100
AcDbEntity
 67
     1
  8
SLD-0
  6
PHANTOM
 62
     7
100
AcDbLine
 10
364.032658518
 20
168.3835302907
 30
0.0
 11
364.032658518
 21
174.8887829741
 31
0.0
  0
LINE
  5
8F
330
1B
100
AcDbEntity
 67
     1
  8
SLD-0
  6
Continuous
 62
     7
100
AcDbLine
 10
351.0116142413
 20
159.8835301921
 30
0.0
 11
350.8023544407
 21
159.8835301921
 31
0.0
  0
LINE
  5
90
330
1B
100
AcDbEntity
 67
     1
  8
SLD-0
  6
Continuous
 62
     7
100
AcDbLine
 10
358.0326586223
 20
164.9835301433
 30
0.0
 11
358.0326586223
 21
164.8835303131
 31
0.0
  0
LINE
  5
91
330
1B
100
AcDbEntity
 67
     1
  8
SLD-0
  6
Continuous
 62
     7
100
AcDbLine
 10
362.0326585794
 20
164.8835303131
 30
0.0
 11
362.0326585794
 21
164.9835301433
 31
0.0
  0
LINE
  5
92
330
1B
100
AcDbEntity
 67
     1
  8
SLD-0
  6
Continuous
 62
     7
100
AcDbLine
 10
362.0326585794
 20
151.7835302148
 30
0.0
 11
362.0326585794
 21
151.8835300449
 31
0.0
  0
LINE
  5
93
330
1B
100
AcDbEntity
 67
     1
  8
SLD-0
  6
Continuous
 62
     7
100
AcDbLine
 10
358.0326586223
 20
151.8835300449
 30
0.0
 11
358.0326586223
 21
151.7835302148
 31
0.0
  0
LINE
  5
94
330
1B
100
AcDbEntity
 67
     1
  8
SLD-0
  6
Continuous
 62
     7
100
AcDbLine
 10
376.8377042568
 20
156.383530084
 30
0.0
 11
382.3326592526
 21
158.383530179
 31
0.0
  0
LINE
  5
95
330
1B
100
AcDbEntity
 67
     1
  8
SLD-0
  6
Continuous
 62
     7
100
AcDbLine
 10
382.3326592526
 20
158.383530179
 30
0.0
 11
376.8377042568
 21
160.383530274
 31
0.0
  0
LINE
  5
96
330
1B
100
AcDbEntity
 67
     1
  8
SLD-0
  6
Continuous
 62
     7
100
AcDbLine
 10
376.8377042568
 20
160.383530274
 30
0.0
 11
364.0326586744
 21
160.383530274
 31
0.0
  0
LINE
  5
97
330
1B
100
AcDbEntity
 67
     1
  8
SLD-0
  6
Continuous
 62
     7
100
AcDbLine
 10
364.0326586744
 20
156.383530084
 30
0.0
 11
376.8377042568
 21
156.383530084
 31
0.0
  0
LINE
  5
98
330
1B
100
AcDbEntity
 67
     1
  8
SLD-0
  6
Continuous
 62
     7
100
AcDbLine
 10
341.0326586297
 20
95.3835291657
 30
0.0
 11
341.0326586297
 21
80.3835285697
 31
0.0
  0
LINE
  5
99
330
1B
100
AcDbEntity
 67
     1
  8
SLD-0
  6
Continuous
 62
     7
100
AcDbLine
 10
351.0326584062
 20
80.3835285697
 30
0.0
 11
351.0326584062
 21
95.3835291657
 31
0.0
  0
LINE
  5
9A
330
1B
100
AcDbEntity
 67
     1
  8
SLD-0
  6
Continuous
 62
     7
100
AcDbLine
 10
351.0326584062
 20
95.3835291657
 30
0.0
 11
351.0326584062
 21
143.3835305143
 31
0.0
  0
LINE
  5
9B
330
1B
100
AcDbEntity
 67
     1
  8
SLD-0
  6
Continuous
 62
     7
100
AcDbLine
 10
341.0326586297
 20
143.3835305143
 30
0.0
 11
341.0326586297
 21
95.3835291657
 31
0.0
  0
LINE
  5
9C
330
1B
100
AcDbEntity
 67
     1
  8
SLD-0
  6
Continuous
 62
     7
100
AcDbLine
 10
341.0326586297
 20
158.383530179
 30
0.0
 11
341.0326586297
 21
143.3835305143
 31
0.0
  0
LINE
  5
9D
330
1B
100
AcDbEntity
 67
     1
  8
SLD-0
  6
Continuous
 62
     7
100
AcDbLine
 10
351.0326584062
 20
143.3835305143
 30
0.0
 11
351.0326584062
 21
158.383530179
 31
0.0
  0
LINE
  5
9E
330
1B
100
AcDbEntity
 67
     1
  8
SLD-0
  6
Continuous
 62
     7
100
AcDbLine
 10
351.0326584062
 20
156.9693166166
 30
0.0
 11
351.0366575053
 21
156.9693166166
 31
0.0
  0
LINE
  5
9F
330
1B
100
AcDbEntity
 67
     1
  8
SLD-0
  6
Continuous
 62
     7
100
AcDbLine
 10
376.8377042568
 20
160.383530274
 30
0.0
 11
376.8377042568
 21
156.383530084
 31
0.0
  0
LINE
  5
A0
330
1B
100
AcDbEntity
 67
     1
  8
SLD-0
  6
Continuous
 62
     7
100
AcDbLine
 10
364.0326586744
 20
148.3835304025
 30
0.0
 11
351.0326584062
 21
148.3835304025
 31
0.0
  0
LINE
  5
A1
330
1B
100
AcDbEntity
 67
     1
  8
SLD-0
  6
Continuous
 62
     7
100
AcDbLine
 10
364.0326586744
 20
148.8835304845
 30
0.0
 11
364.0326586744
 21
148.3835304025
 31
0.0
  0
LINE
  5
A2
330
1B
100
AcDbEntity
 67
     1
  8
SLD-0
  6
Continuous
 62
     7
100
AcDbLine
 10
346.0326592928
 20
164.983530255
 30
0.0
 11
364.032658518
 21
164.983530255
 31
0.0
  0
LINE
  5
A3
330
1B
100
AcDbEntity
 67
     1
  8
SLD-0
  6
Continuous
 62
     7
100
AcDbLine
 10
346.0326592928
 20
163.583530305
 30
0.0
 11
346.0326592928
 21
164.983530255
 31
0.0
  0
LINE
  5
A4
330
1B
100
AcDbEntity
 67
     1
  8
SLD-0
  6
Continuous
 62
     7
100
AcDbLine
 10
364.0326586744
 20
151.7835302148
 30
0.0
 11
351.0326584062
 21
151.7835302148
 31
0.0
  0
LINE
  5
A5
330
1B
100
AcDbEntity
 67
     1
  8
SLD-0
  6
Continuous
 62
     7
100
AcDbLine
 10
364.0326586744
 20
148.8835304845
 30
0.0
 11
364.0326586744
 21
151.7835302148
 31
0.0
  0
LINE
  5
A6
330
1B
100
AcDbEntity
 67
     1
  8
SLD-0
  6
Continuous
 62
     7
100
AcDbLine
 10
364.032658518
 20
164.983530255
 30
0.0
 11
364.032658518
 21
167.8835299853
 31
0.0
  0
LINE
  5
A7
330
1B
100
AcDbEntity
 67
     1
  8
SLD-0
  6
Continuous
 62
     7
100
AcDbLine
 10
346.0326592928
 20
168.3835300672
 30
0.0
 11
364.032658518
 21
168.3835302907
 31
0.0
  0
LINE
  5
A8
330
1B
100
AcDbEntity
 67
     1
  8
SLD-0
  6
Continuous
 62
     7
100
AcDbLine
 10
364.032658518
 20
168.3835302907
 30
0.0
 11
364.032658518
 21
167.8835299853
 31
0.0
  0
LINE
  5
A9
330
1B
100
AcDbEntity
 67
     1
  8
SLD-0
  6
Continuous
 62
     7
100
AcDbLine
 10
346.0326592928
 20
164.8835304249
 30
0.0
 11
346.0326592928
 21
163.583530305
 31
0.0
  0
LINE
  5
AA
330
1B
100
AcDbEntity
 67
     1
  8
SLD-0
  6
Continuous
 62
     7
100
AcDbLine
 10
364.032658518
 20
151.8835301566
 30
0.0
 11
364.032658518
 21
164.8835304249
 31
0.0
  0
LINE
  5
AB
330
1B
100
AcDbEntity
 67
     1
  8
SLD-0
  6
Continuous
 62
     7
100
AcDbLine
 10
364.032658518
 20
164.8835304249
 30
0.0
 11
346.0326592928
 21
164.8835304249
 31
0.0
  0
LINE
  5
AC
330
1B
100
AcDbEntity
 67
     1
  8
SLD-0
  6
Continuous
 62
     7
100
AcDbLine
 10
351.0326582497
 20
151.8835301566
 30
0.0
 11
364.032658518
 21
151.8835301566
 31
0.0
  0
LINE
  5
AD
330
1B
100
AcDbEntity
 67
     1
  8
SLD-0
  6
CENTER
 62
     7
100
AcDbLine
 10
385.7666403267
 20
158.383530179
 30
0.0
 11
344.0326586744
 21
158.383530179
 31
0.0
  0
LINE
  5
AE
330
1B
100
AcDbEntity
 67
     1
  8
SLD-0
  6
Continuous
 62
     7
100
AcDbLine
 10
111.3674724644
 20
248.6779488295
 30
0.0
 11
109.3674721366
 21
254.1729038253
 31
0.0
  0
LINE
  5
AF
330
1B
100
AcDbEntity
 67
     1
  8
SLD-0
  6
Continuous
 62
     7
100
AcDbLine
 10
109.3674721366
 20
254.1729038253
 30
0.0
 11
107.3674718087
 21
248.6779488295
 31
0.0
  0
LINE
  5
B0
330
1B
100
AcDbEntity
 67
     1
  8
SLD-0
  6
Continuous
 62
     7
100
AcDbLine
 10
107.3674718087
 20
248.6779488295
 30
0.0
 11
107.3674718087
 21
235.8729032471
 31
0.0
  0
LINE
  5
B1
330
1B
100
AcDbEntity
 67
     1
  8
SLD-0
  6
Continuous
 62
     7
100
AcDbLine
 10
111.3674724644
 20
235.8729032471
 30
0.0
 11
111.3674724644
 21
248.6779488295
 31
0.0
  0
LINE
  5
B2
330
1B
100
AcDbEntity
 67
     1
  8
SLD-0
  6
Continuous
 62
     7
100
AcDbLine
 10
191.3674706762
 20
248.6779488295
 30
0.0
 11
189.3674703484
 21
254.1729038253
 31
0.0
  0
LINE
  5
B3
330
1B
100
AcDbEntity
 67
     1
  8
SLD-0
  6
Continuous
 62
     7
100
AcDbLine
 10
189.3674703484
 20
254.1729038253
 30
0.0
 11
187.3674700206
 21
248.6779488295
 31
0.0
  0
LINE
  5
B4
330
1B
100
AcDbEntity
 67
     1
  8
SLD-0
  6
Continuous
 62
     7
100
AcDbLine
 10
187.3674700206
 20
248.6779488295
 30
0.0
 11
187.3674700206
 21
235.8729032471
 31
0.0
  0
LINE
  5
B5
330
1B
100
AcDbEntity
 67
     1
  8
SLD-0
  6
Continuous
 62
     7
100
AcDbLine
 10
191.3674706762
 20
235.8729032471
 30
0.0
 11
191.3674706762
 21
248.6779488295
 31
0.0
  0
LINE
  5
B6
330
1B
100
AcDbEntity
 67
     1
  8
SLD-0
  6
Continuous
 62
     7
100
AcDbLine
 10
219.3674715405
 20
212.8729032024
 30
0.0
 11
229.3674694544
 21
212.8729032024
 31
0.0
  0
LINE
  5
B7
330
1B
100
AcDbEntity
 67
     1
  8
SLD-0
  6
Continuous
 62
     7
100
AcDbLine
 10
229.3674694544
 20
222.8729029789
 30
0.0
 11
219.3674715405
 21
222.8729029789
 31
0.0
  0
LINE
  5
B8
330
1B
100
AcDbEntity
 67
     1
  8
SLD-0
  6
Continuous
 62
     7
100
AcDbLine
 10
229.3674694544
 20
212.8729032024
 30
0.0
 11
244.3674700504
 21
212.8729032024
 31
0.0
  0
LINE
  5
B9
330
1B
100
AcDbEntity
 67
     1
  8
SLD-0
  6
Continuous
 62
     7
100
AcDbLine
 10
244.3674700504
 20
222.8729029789
 30
0.0
 11
229.3674694544
 21
222.8729029789
 31
0.0
  0
LINE
  5
BA
330
1B
100
AcDbEntity
 67
     1
  8
SLD-0
  6
Continuous
 62
     7
100
AcDbLine
 10
79.3674709445
 20
222.8729029789
 30
0.0
 11
69.3674730306
 21
222.8729029789
 31
0.0
  0
LINE
  5
BB
330
1B
100
AcDbEntity
 67
     1
  8
SLD-0
  6
Continuous
 62
     7
100
AcDbLine
 10
69.3674730306
 20
212.8729032024
 30
0.0
 11
79.3674709445
 21
212.8729032024
 31
0.0
  0
LINE
  5
BC
330
1B
100
AcDbEntity
 67
     1
  8
SLD-0
  6
Continuous
 62
     7
100
AcDbLine
 10
54.3674724346
 20
212.8729032024
 30
0.0
 11
69.3674730306
 21
212.8729032024
 31
0.0
  0
LINE
  5
BD
330
1B
100
AcDbEntity
 67
     1
  8
SLD-0
  6
Continuous
 62
     7
100
AcDbLine
 10
69.3674730306
 20
222.8729029789
 30
0.0
 11
54.3674724346
 21
222.8729029789
 31
0.0
  0
LINE
  5
BE
330
1B
100
AcDbEntity
 67
     1
  8
SLD-0
  6
Continuous
 62
     7
100
AcDbLine
 10
79.8674722408
 20
207.872902666
 30
0.0
 11
218.8674708103
 21
207.872902666
 31
0.0
  0
LINE
  5
BF
330
1B
100
AcDbEntity
 67
     1
  8
SLD-0
  6
Continuous
 62
     7
100
AcDbLine
 10
98.7901212817
 20
232.872903221
 30
0.0
 11
98.2127720659
 21
231.8729030571
 31
0.0
  0
LINE
  5
C0
330
1B
100
AcDbEntity
 67
     1
  8
SLD-0
  6
Continuous
 62
     7
100
AcDbLine
 10
98.2127720659
 20
231.8729030571
 30
0.0
 11
98.7901212817
 21
230.8729033589
 31
0.0
  0
LINE
  5
C1
330
1B
100
AcDbEntity
 67
     1
  8
SLD-0
  6
Continuous
 62
     7
100
AcDbLine
 10
98.7901212817
 20
230.8729033589
 30
0.0
 11
99.9448197132
 21
230.8729033589
 31
0.0
  0
LINE
  5
C2
330
1B
100
AcDbEntity
 67
     1
  8
SLD-0
  6
Continuous
 62
     7
100
AcDbLine
 10
99.9448197132
 20
230.8729033589
 30
0.0
 11
100.5221726542
 21
231.8729030571
 31
0.0
  0
LINE
  5
C3
330
1B
100
AcDbEntity
 67
     1
  8
SLD-0
  6
Continuous
 62
     7
100
AcDbLine
 10
100.5221726542
 20
231.8729030571
 30
0.0
 11
99.9448197132
 21
232.872903221
 31
0.0
  0
LINE
  5
C4
330
1B
100
AcDbEntity
 67
     1
  8
SLD-0
  6
Continuous
 62
     7
100
AcDbLine
 10
99.9448197132
 20
232.872903221
 30
0.0
 11
98.7901212817
 21
232.872903221
 31
0.0
  0
LINE
  5
C5
330
1B
100
AcDbEntity
 67
     1
  8
SLD-0
  6
Continuous
 62
     7
100
AcDbLine
 10
198.7901227718
 20
232.872903221
 30
0.0
 11
198.2127698308
 21
231.8729030571
 31
0.0
  0
LINE
  5
C6
330
1B
100
AcDbEntity
 67
     1
  8
SLD-0
  6
Continuous
 62
     7
100
AcDbLine
 10
198.2127698308
 20
231.8729030571
 30
0.0
 11
198.7901227718
 21
230.8729033589
 31
0.0
  0
LINE
  5
C7
330
1B
100
AcDbEntity
 67
     1
  8
SLD-0
  6
Continuous
 62
     7
100
AcDbLine
 10
198.7901227718
 20
230.8729033589
 30
0.0
 11
199.9448212033
 21
230.8729033589
 31
0.0
  0
LINE
  5
C8
330
1B
100
AcDbEntity
 67
     1
  8
SLD-0
  6
Continuous
 62
     7
100
AcDbLine
 10
199.9448212033
 20
230.8729033589
 30
0.0
 11
200.522170419
 21
231.8729030571
 31
0.0
  0
LINE
  5
C9
330
1B
100
AcDbEntity
 67
     1
  8
SLD-0
  6
Continuous
 62
     7
100
AcDbLine
 10
200.522170419
 20
231.8729030571
 30
0.0
 11
199.9448212033
 21
232.872903221
 31
0.0
  0
LINE
  5
CA
330
1B
100
AcDbEntity
 67
     1
  8
SLD-0
  6
Continuous
 62
     7
100
AcDbLine
 10
199.9448212033
 20
232.872903221
 30
0.0
 11
198.7901227718
 21
232.872903221
 31
0.0
  0
LINE
  5
CB
330
1B
100
AcDbEntity
 67
     1
  8
SLD-0
  6
Continuous
 62
     7
100
AcDbLine
 10
109.3674721366
 20
248.6779488295
 30
0.0
 11
111.3674724644
 21
248.6779488295
 31
0.0
  0
LINE
  5
CC
330
1B
100
AcDbEntity
 67
     1
  8
SLD-0
  6
Continuous
 62
     7
100
AcDbLine
 10
107.3674718087
 20
248.6779488295
 30
0.0
 11
109.3674721366
 21
248.6779488295
 31
0.0
  0
LINE
  5
CD
330
1B
100
AcDbEntity
 67
     1
  8
SLD-0
  6
Continuous
 62
     7
100
AcDbLine
 10
189.3674703484
 20
248.6779488295
 30
0.0
 11
191.3674706762
 21
248.6779488295
 31
0.0
  0
LINE
  5
CE
330
1B
100
AcDbEntity
 67
     1
  8
SLD-0
  6
Continuous
 62
     7
100
AcDbLine
 10
187.3674700206
 20
248.6779488295
 30
0.0
 11
189.3674703484
 21
248.6779488295
 31
0.0
  0
LINE
  5
CF
330
1B
100
AcDbEntity
 67
     1
  8
SLD-0
  6
Continuous
 62
     7
100
AcDbLine
 10
79.3674709445
 20
217.872904022
 30
0.0
 11
79.3674709445
 21
235.8729032471
 31
0.0
  0
LINE
  5
D0
330
1B
100
AcDbEntity
 67
     1
  8
SLD-0
  6
Continuous
 62
     7
100
AcDbLine
 10
79.3674709445
 20
235.8729032471
 30
0.0
 11
79.8674719577
 21
235.8729032471
 31
0.0
  0
LINE
  5
D1
330
1B
100
AcDbEntity
 67
     1
  8
SLD-0
  6
Continuous
 62
     7
100
AcDbLine
 10
219.3674721068
 20
235.8729032471
 30
0.0
 11
219.3674721068
 21
217.872904022
 31
0.0
  0
LINE
  5
D2
330
1B
100
AcDbEntity
 67
     1
  8
SLD-0
  6
Continuous
 62
     7
100
AcDbLine
 10
218.8674705272
 20
235.8729032471
 30
0.0
 11
219.3674721068
 21
235.8729032471
 31
0.0
  0
LINE
  5
D3
330
1B
100
AcDbEntity
 67
     1
  8
SLD-0
  6
Continuous
 62
     7
100
AcDbLine
 10
218.8674705272
 20
235.8729032471
 30
0.0
 11
79.8674719577
 21
235.8729032471
 31
0.0
  0
LINE
  5
D4
330
1B
100
AcDbEntity
 67
     1
  8
SLD-0
  6
Continuous
 62
     7
100
AcDbLine
 10
219.3674721068
 20
217.872904022
 30
0.0
 11
219.3674721068
 21
208.3729033961
 31
0.0
  0
LINE
  5
D5
330
1B
100
AcDbEntity
 67
     1
  8
SLD-0
  6
Continuous
 62
     7
100
AcDbLine
 10
79.3674709445
 20
208.3729033961
 30
0.0
 11
79.3674709445
 21
217.872904022
 31
0.0
  0
LINE
  5
D6
330
1B
100
AcDbEntity
 67
     1
  8
SLD-0
  6
Continuous
 62
     7
100
AcDbLine
 10
79.3674709445
 20
212.8729032024
 30
0.0
 11
79.3674709445
 21
212.6729035421
 31
0.0
  0
LINE
  5
D7
330
1B
100
AcDbEntity
 67
     1
  8
SLD-0
  6
Continuous
 62
     7
100
AcDbLine
 10
219.3674715405
 20
212.8729032024
 30
0.0
 11
219.3674715405
 21
212.6729035421
 31
0.0
  0
LINE
  5
D8
330
1B
100
AcDbEntity
 67
     1
  8
SLD-0
  6
CENTER
 62
     7
100
AcDbLine
 10
109.3674712425
 20
224.4729032471
 30
0.0
 11
109.3674712425
 21
259.9736820363
 31
0.0
  0
LINE
  5
D9
330
1B
100
AcDbEntity
 67
     1
  8
SLD-0
  6
CENTER
 62
     7
100
AcDbLine
 10
189.3674712425
 20
224.4729032471
 30
0.0
 11
189.3674712425
 21
260.1052973096
 31
0.0
  0
LINE
  5
DA
330
1B
100
AcDbEntity
 67
     1
  8
SLD-0
  6
CENTER
 62
     7
100
AcDbLine
 10
43.8595687991
 20
217.8729032471
 30
0.0
 11
254.3386540601
 21
217.8729032471
 31
0.0
  0
LINE
  5
DB
330
1B
100
AcDbEntity
 67
     1
  8
SLD-0
  6
CENTER
 62
     7
100
AcDbLine
 10
202.5174712425
 20
231.8729032471
 30
0.0
 11
196.2174712425
 21
231.8729032471
 31
0.0
  0
LINE
  5
DC
330
1B
100
AcDbEntity
 67
     1
  8
SLD-0
  6
CENTER
 62
     7
100
AcDbLine
 10
199.3674712425
 20
235.0229032471
 30
0.0
 11
199.3674712425
 21
228.7229032471
 31
0.0
  0
LINE
  5
DD
330
1B
100
AcDbEntity
 67
     1
  8
SLD-0
  6
CENTER
 62
     7
100
AcDbLine
 10
102.5174712425
 20
231.8729032471
 30
0.0
 11
96.2174712425
 21
231.8729032471
 31
0.0
  0
LINE
  5
DE
330
1B
100
AcDbEntity
 67
     1
  8
SLD-0
  6
CENTER
 62
     7
100
AcDbLine
 10
99.3674712425
 20
235.0229032471
 30
0.0
 11
99.3674712425
 21
228.7229032471
 31
0.0
  0
LINE
  5
DF
330
1B
100
AcDbEntity
 67
     1
  8
SLD-0
  6
CENTER
 62
     7
100
AcDbLine
 10
358.0326586744
 20
158.383530179
 30
0.0
 11
334.0326586744
 21
158.383530179
 31
0.0
  0
LINE
  5
E0
330
1B
100
AcDbEntity
 67
     1
  8
SLD-0
  6
CENTER
 62
     7
100
AcDbLine
 10
346.0326586744
 20
170.383530179
 30
0.0
 11
346.0326586744
 21
87.383530179
 31
0.0
  0
LINE
  5
E1
330
1B
100
AcDbEntity
 67
     1
  8
SLD-0
  6
CENTER
 62
     7
100
AcDbLine
 10
353.0326586744
 20
80.383530179
 30
0.0
 11
339.0326586744
 21
80.383530179
 31
0.0
  0
LINE
  5
E2
330
1B
100
AcDbEntity
 67
     1
  8
SLD-0
  6
CENTER
 62
     7
100
AcDbLine
 10
346.0326586744
 20
87.383530179
 30
0.0
 11
346.0326586744
 21
73.383530179
 31
0.0
  0
LINE
  5
E3
330
1B
100
AcDbEntity
 67
     1
  8
SLD-0
  6
CENTER
 62
     7
100
AcDbLine
 10
251.3674712425
 20
217.8729032471
 30
0.0
 11
237.3674712425
 21
217.8729032471
 31
0.0
  0
LINE
  5
E4
330
1B
100
AcDbEntity
 67
     1
  8
SLD-0
  6
CENTER
 62
     7
100
AcDbLine
 10
244.3674712425
 20
224.8729032471
 30
0.0
 11
244.3674712425
 21
210.8729032471
 31
0.0
  0
LINE
  5
E5
330
1B
100
AcDbEntity
 67
     1
  8
SLD-0
  6
CENTER
 62
     7
100
AcDbLine
 10
61.3674712425
 20
217.8729032471
 30
0.0
 11
47.3674712425
 21
217.8729032471
 31
0.0
  0
LINE
  5
E6
330
1B
100
AcDbEntity
 67
     1
  8
SLD-0
  6
CENTER
 62
     7
100
AcDbLine
 10
54.3674712425
 20
224.8729032471
 30
0.0
 11
54.3674712425
 21
210.8729032471
 31
0.0
  0
LINE
  5
E7
330
1B
100
AcDbEntity
 67
     1
  8
SLD-0
  6
Continuous
 62
     7
100
AcDbLine
 10
30.1718109004
 20
19.8435834722
 30
0.0
 11
27.7302342086
 21
15.8657439043
 31
0.0
  0
LINE
  5
E8
330
1B
100
AcDbEntity
 67
     1
  8
SLD-0
  6
Continuous
 62
     7
100
AcDbLine
 10
27.7302342086
 20
15.8657439043
 30
0.0
 11
32.6523479069
 21
15.8657439043
 31
0.0
  0
LINE
  5
E9
330
1B
100
AcDbEntity
 67
     1
  8
SLD-0
  6
Continuous
 62
     7
100
AcDbLine
 10
32.6523479069
 20
15.8657439043
 30
0.0
 11
30.1718109004
 21
19.8435834722
 31
0.0
  0
LINE
  5
EA
330
1B
100
AcDbEntity
 67
     1
  8
SLD-0
  6
Continuous
 62
     7
100
AcDbLine
 10
30.2126559815
 20
25.2324736862
 30
0.0
 11
27.7710792897
 21
21.2546341184
 31
0.0
  0
LINE
  5
EB
330
1B
100
AcDbEntity
 67
     1
  8
SLD-0
  6
Continuous
 62
     7
100
AcDbLine
 10
27.7710792897
 20
21.2546341184
 30
0.0
 11
32.6931929881
 21
21.2546341184
 31
0.0
  0
LINE
  5
EC
330
1B
100
AcDbEntity
 67
     1
  8
SLD-0
  6
Continuous
 62
     7
100
AcDbLine
 10
32.6931929881
 20
21.2546341184
 30
0.0
 11
30.2126559815
 21
25.2324736862
 31
0.0
  0
LINE
  5
ED
330
1B
100
AcDbEntity
 67
     1
  8
SLD-0
  6
Continuous
 62
     7
100
AcDbLine
 10
30.2427566899
 20
30.7865477178
 30
0.0
 11
27.8011799981
 21
26.8087081499
 31
0.0
  0
LINE
  5
EE
330
1B
100
AcDbEntity
 67
     1
  8
SLD-0
  6
Continuous
 62
     7
100
AcDbLine
 10
27.8011799981
 20
26.8087081499
 30
0.0
 11
32.7232936965
 21
26.8087081499
 31
0.0
  0
LINE
  5
EF
330
1B
100
AcDbEntity
 67
     1
  8
SLD-0
  6
Continuous
 62
     7
100
AcDbLine
 10
32.7232936965
 20
26.8087081499
 30
0.0
 11
30.2427566899
 21
30.7865477178
 31
0.0
  0
LINE
  5
F0
330
1B
100
AcDbEntity
 67
     1
  8
SLD-0
  6
Continuous
 62
     7
100
AcDbLine
 10
291.0
 20
9.5
 30
0.0
 11
291.0
 21
31.5
 31
0.0
  0
LINE
  5
F1
330
1B
100
AcDbEntity
 67
     1
  8
SLD-0
  6
Continuous
 62
     7
100
AcDbLine
 10
358.5550076286
 20
30.9049236191
 30
0.0
 11
360.3667723576
 21
30.9049236191
 31
0.0
  0
LINE
  5
F2
330
1B
100
AcDbEntity
 67
     1
  8
SLD-0
  6
Continuous
 62
     7
370
    35
100
AcDbLine
 10
21.0
 20
9.5
 30
0.0
 11
408.5
 21
9.5
 31
0.0
  0
LINE
  5
F3
330
1B
100
AcDbEntity
 67
     1
  8
SLD-0
  6
Continuous
 62
     7
370
    35
100
AcDbLine
 10
21.0
 20
286.5
 30
0.0
 11
21.0
 21
9.5
 31
0.0
  0
LINE
  5
F4
330
1B
100
AcDbEntity
 67
     1
  8
SLD-0
  6
Continuous
 62
     7
370
    35
100
AcDbLine
 10
21.0
 20
31.5
 30
0.0
 11
138.0
 21
31.5
 31
0.0
  0
LINE
  5
F5
330
1B
100
AcDbEntity
 67
     1
  8
SLD-0
  6
Continuous
 62
     7
370
    35
100
AcDbLine
 10
408.5
 20
286.5
 30
0.0
 11
408.5
 21
9.5
 31
0.0
  0
LINE
  5
F6
330
1B
100
AcDbEntity
 67
     1
  8
SLD-0
  6
Continuous
 62
     7
370
    35
100
AcDbLine
 10
138.0
 20
31.5
 30
0.0
 11
408.5
 21
31.5
 31
0.0
  0
LINE
  5
F7
330
1B
100
AcDbEntity
 67
     1
  8
SLD-0
  6
Continuous
 62
     7
370
    35
100
AcDbLine
 10
21.0
 20
286.5
 30
0.0
 11
408.5
 21
286.5
 31
0.0
  0
LINE
  5
F8
330
1B
100
AcDbEntity
 67
     1
  8
SLD-0
  6
Continuous
 62
     7
100
AcDbLine
 10
26.5
 20
20.5
 30
0.0
 11
138.0
 21
20.5
 31
0.0
  0
LINE
  5
F9
330
1B
100
AcDbEntity
 67
     1
  8
SLD-0
  6
Continuous
 62
     7
100
AcDbLine
 10
49.5
 20
31.5
 30
0.0
 11
49.5
 21
9.5
 31
0.0
  0
LINE
  5
FA
330
1B
100
AcDbEntity
 67
     1
  8
SLD-0
  6
Continuous
 62
     7
100
AcDbLine
 10
26.5
 20
26.0
 30
0.0
 11
138.0
 21
26.0
 31
0.0
  0
LINE
  5
FB
330
1B
100
AcDbEntity
 67
     1
  8
SLD-0
  6
Continuous
 62
     7
100
AcDbLine
 10
34.5
 20
31.5
 30
0.0
 11
34.5
 21
9.5
 31
0.0
  0
LINE
  5
FC
330
1B
100
AcDbEntity
 67
     1
  8
SLD-0
  6
Continuous
 62
     7
100
AcDbLine
 10
26.5
 20
31.5
 30
0.0
 11
26.5
 21
9.5
 31
0.0
  0
LINE
  5
FD
330
1B
100
AcDbEntity
 67
     1
  8
SLD-0
  6
Continuous
 62
     7
100
AcDbLine
 10
26.5
 20
15.0
 30
0.0
 11
138.0
 21
15.0
 31
0.0
  0
LINE
  5
FE
330
1B
100
AcDbEntity
 67
     1
  8
SLD-0
  6
Continuous
 62
     7
100
AcDbLine
 10
203.0
 20
31.5
 30
0.0
 11
203.0
 21
9.5
 31
0.0
  0
LINE
  5
FF
330
1B
100
AcDbEntity
 67
     1
  8
SLD-0
  6
Continuous
 62
     7
100
AcDbLine
 10
198.0
 20
31.5
 30
0.0
 11
198.0
 21
9.5
 31
0.0
  0
LINE
  5
100
330
1B
100
AcDbEntity
 67
     1
  8
SLD-0
  6
Continuous
 62
     7
100
AcDbLine
 10
143.0
 20
31.5
 30
0.0
 11
143.0
 21
9.5
 31
0.0
  0
LINE
  5
101
330
1B
100
AcDbEntity
 67
     1
  8
SLD-0
  6
Continuous
 62
     7
100
AcDbLine
 10
138.0
 20
31.5
 30
0.0
 11
138.0
 21
20.5
 31
0.0
  0
LINE
  5
102
330
1B
100
AcDbEntity
 67
     1
  8
SLD-0
  6
Continuous
 62
     7
100
AcDbLine
 10
59.5
 20
31.5
 30
0.0
 11
59.5
 21
9.5
 31
0.0
  0
LINE
  5
103
330
1B
100
AcDbEntity
 67
     1
  8
SLD-0
  6
Continuous
 62
     7
100
AcDbLine
 10
231.0
 20
31.5
 30
0.0
 11
231.0
 21
20.5
 31
0.0
  0
LINE
  5
104
330
1B
100
AcDbEntity
 67
     1
  8
SLD-0
  6
Continuous
 62
     7
100
AcDbLine
 10
236.0
 20
31.5
 30
0.0
 11
236.0
 21
20.5
 31
0.0
  0
LINE
  5
105
330
1B
100
AcDbEntity
 67
     1
  8
SLD-0
  6
Continuous
 62
     7
100
AcDbLine
 10
251.0
 20
31.5
 30
0.0
 11
251.0
 21
20.5
 31
0.0
  0
LINE
  5
106
330
1B
100
AcDbEntity
 67
     1
  8
SLD-0
  6
Continuous
 62
     7
100
AcDbLine
 10
256.0
 20
31.5
 30
0.0
 11
256.0
 21
20.5
 31
0.0
  0
LINE
  5
107
330
1B
100
AcDbEntity
 67
     1
  8
SLD-0
  6
Continuous
 62
     7
100
AcDbLine
 10
296.0
 20
31.5
 30
0.0
 11
296.0
 21
20.5
 31
0.0
  0
LINE
  5
108
330
1B
100
AcDbEntity
 67
     1
  8
SLD-0
  6
Continuous
 62
     7
100
AcDbLine
 10
311.0
 20
31.5
 30
0.0
 11
311.0
 21
9.5
 31
0.0
  0
LINE
  5
109
330
1B
100
AcDbEntity
 67
     1
  8
SLD-0
  6
Continuous
 62
     7
100
AcDbLine
 10
326.0
 20
31.5
 30
0.0
 11
326.0
 21
9.5
 31
0.0
  0
LINE
  5
10A
330
1B
100
AcDbEntity
 67
     1
  8
SLD-0
  6
Continuous
 62
     7
100
AcDbLine
 10
341.0
 20
31.5
 30
0.0
 11
341.0
 21
9.5
 31
0.0
  0
LINE
  5
10B
330
1B
100
AcDbEntity
 67
     1
  8
SLD-0
  6
Continuous
 62
     7
100
AcDbLine
 10
356.0
 20
31.5
 30
0.0
 11
356.0
 21
9.5
 31
0.0
  0
LINE
  5
10C
330
1B
100
AcDbEntity
 67
     1
  8
SLD-0
  6
Continuous
 62
     7
100
AcDbLine
 10
356.0
 20
20.5
 30
0.0
 11
408.5
 21
20.5
 31
0.0
  0
LINE
  5
10D
330
1B
100
AcDbEntity
 67
     1
  8
SLD-0
  6
Continuous
 62
     7
100
AcDbLine
 10
361.0
 20
20.5
 30
0.0
 11
361.0
 21
9.5
 31
0.0
  0
LINE
  5
10E
330
1B
100
AcDbEntity
 67
     1
  8
SLD-0
  6
Continuous
 62
     7
100
AcDbLine
 10
311.0
 20
26.5
 30
0.0
 11
356.0
 21
26.5
 31
0.0
  0
LINE
  5
10F
330
1B
100
AcDbEntity
 67
     1
  8
SLD-0
  6
Continuous
 62
     7
100
AcDbLine
 10
138.0
 20
20.5
 30
0.0
 11
311.0
 21
20.5
 31
0.0
  0
LINE
  5
110
330
1B
100
AcDbEntity
 67
     1
  8
SLD-0
  6
Continuous
 62
     7
100
AcDbLine
 10
138.0
 20
20.5
 30
0.0
 11
138.0
 21
9.5
 31
0.0
  0
LINE
  5
111
330
1B
100
AcDbEntity
 67
     1
  8
SLD-0
  6
Continuous
 62
     7
100
AcDbLine
 10
360.3667723576
 20
25.922570647
 30
0.0
 11
361.6123606662
 21
25.922570647
 31
0.0
  0
LINE
  5
112
330
1B
100
AcDbEntity
 67
     1
  8
SLD-0
  6
Continuous
 62
     7
100
AcDbLine
 10
358.5550076286
 20
24.790217675
 30
0.0
 11
363.1976547877
 21
24.790217675
 31
0.0
  0
LINE
  5
113
330
1B
100
AcDbEntity
 67
     1
  8
SLD-0
  6
Continuous
 62
     7
100
AcDbLine
 10
358.5550076286
 20
30.9049236191
 30
0.0
 11
358.5550076286
 21
24.790217675
 31
0.0
  0
LINE
  5
114
330
1B
100
AcDbEntity
 67
     1
  8
SLD-0
  6
Continuous
 62
     7
100
AcDbLine
 10
360.3667723576
 20
30.9049236191
 30
0.0
 11
360.3667723576
 21
25.922570647
 31
0.0
  0
LINE
  5
115
330
1B
100
AcDbEntity
 67
     1
  8
SLD-0
  6
Continuous
 62
     7
100
AcDbLine
 10
361.6123606662
 20
30.9049236191
 30
0.0
 11
361.6123606662
 21
25.922570647
 31
0.0
  0
LINE
  5
116
330
1B
100
AcDbEntity
 67
     1
  8
SLD-0
  6
Continuous
 62
     7
100
AcDbLine
 10
363.1976547877
 20
30.9049236191
 30
0.0
 11
363.1976547877
 21
26.8284528149
 31
0.0
  0
LINE
  5
117
330
1B
100
AcDbEntity
 67
     1
  8
SLD-0
  6
Continuous
 62
     7
100
AcDbLine
 10
364.4432428996
 20
30.9049236191
 30
0.0
 11
364.4432428996
 21
26.8284528149
 31
0.0
  0
LINE
  5
118
330
1B
100
AcDbEntity
 67
     1
  8
SLD-0
  6
Continuous
 62
     7
100
AcDbLine
 10
366.2550076286
 20
30.9049236191
 30
0.0
 11
366.2550076286
 21
25.922570647
 31
0.0
  0
LINE
  5
119
330
1B
100
AcDbEntity
 67
     1
  8
SLD-0
  6
Continuous
 62
     7
100
AcDbLine
 10
361.6123606662
 20
30.9049236191
 30
0.0
 11
363.1976547877
 21
30.9049236191
 31
0.0
  0
LINE
  5
11A
330
1B
100
AcDbEntity
 67
     1
  8
SLD-0
  6
Continuous
 62
     7
100
AcDbLine
 10
364.4432428996
 20
30.9049236191
 30
0.0
 11
366.2550076286
 21
30.9049236191
 31
0.0
  0
LINE
  5
11B
330
1B
100
AcDbEntity
 67
     1
  8
SLD-0
  6
Continuous
 62
     7
100
AcDbLine
 10
363.1976547877
 20
26.8284528149
 30
0.0
 11
364.4432428996
 21
26.8284528149
 31
0.0
  0
LINE
  5
11C
330
1B
100
AcDbEntity
 67
     1
  8
SLD-0
  6
Continuous
 62
     7
100
AcDbLine
 10
363.1976547877
 20
25.922570647
 30
0.0
 11
366.2550076286
 21
25.922570647
 31
0.0
  0
LINE
  5
11D
330
1B
100
AcDbEntity
 67
     1
  8
SLD-0
  6
Continuous
 62
     7
100
AcDbLine
 10
363.1976547877
 20
25.922570647
 30
0.0
 11
363.1976547877
 21
24.790217675
 31
0.0
  0
LINE
  5
11E
330
1B
100
AcDbEntity
 67
     1
  8
SLD-0
  6
Continuous
 62
     7
100
AcDbLine
 10
123.0
 20
31.5
 30
0.0
 11
123.0
 21
9.5
 31
0.0
  0
LINE
  5
11F
330
1B
100
AcDbEntity
 67
     1
  8
SLD-0
  6
PHANTOM
 62
     7
100
AcDbLine
 10
237.7224750929
 20
9.5
 30
0.0
 11
291.0
 21
9.5
 31
0.0
  0
ARC
  5
120
330
1B
100
AcDbEntity
 67
     1
  8
SLD-0
  6
Continuous
 62
     7
100
AcDbCircle
 10
229.3674712425
 20
95.383530179
 30
0.0
 40
10.0000012517001
100
AcDbArc
 50
269.9999897549
 51
359.9999941942
  0
ARC
  5
121
330
1B
100
AcDbEntity
 67
     1
  8
SLD-0
  6
Continuous
 62
     7
100
AcDbCircle
 10
229.3674712425
 20
95.383530179
 30
0.0
 40
19.99999916550006
100
AcDbArc
 50
269.9999948775
 51
359.9999970971
  0
ARC
  5
122
330
1B
100
AcDbEntity
 67
     1
  8
SLD-0
  6
Continuous
 62
     7
100
AcDbCircle
 10
69.3674712425
 20
95.383530179
 30
0.0
 40
10.00000125170011
100
AcDbArc
 50
180.0000058058
 51
270.0000102451
  0
ARC
  5
123
330
1B
100
AcDbEntity
 67
     1
  8
SLD-0
  6
Continuous
 62
     7
100
AcDbCircle
 10
69.3674712425
 20
95.383530179
 30
0.0
 40
19.99999916550006
100
AcDbArc
 50
180.0000029029
 51
270.0000051225
  0
ARC
  5
124
330
1B
100
AcDbEntity
 67
     1
  8
SLD-0
  6
Continuous
 62
     7
100
AcDbCircle
 10
229.3674706501
 20
143.383530179
 30
0.0
 40
10.00000184405008
100
AcDbArc
 50
0.0000019211
 51
90.0000102451
  0
ARC
  5
125
330
1B
100
AcDbEntity
 67
     1
  8
SLD-0
  6
Continuous
 62
     7
100
AcDbCircle
 10
229.3674706501
 20
143.383530179
 30
0.0
 40
19.99999975785005
100
AcDbArc
 50
0.0000009606
 51
90.0000051225
  0
ARC
  5
126
330
1B
100
AcDbEntity
 67
     1
  8
SLD-0
  6
Continuous
 62
     7
100
AcDbCircle
 10
69.3674718349
 20
143.383530179
 30
0.0
 40
10.00000184405009
100
AcDbArc
 50
89.9999897549
 51
179.9999980789
  0
ARC
  5
127
330
1B
100
AcDbEntity
 67
     1
  8
SLD-0
  6
Continuous
 62
     7
100
AcDbCircle
 10
69.3674718349
 20
143.383530179
 30
0.0
 40
19.99999975785007
100
AcDbArc
 50
89.9999948775
 51
179.9999990394
  0
ARC
  5
128
330
1B
100
AcDbEntity
 67
     1
  8
SLD-0
  6
Continuous
 62
     7
100
AcDbCircle
 10
218.8674709818
 20
167.883530179
 30
0.0
 40
0.5000000372503247
100
AcDbArc
 50
359.9999649923
 51
90.0000819674
  0
ARC
  5
129
330
1B
100
AcDbEntity
 67
     1
  8
SLD-0
  6
Continuous
 62
     7
100
AcDbCircle
 10
218.8674709818
 20
148.883530179
 30
0.0
 40
0.5000000372502963
100
AcDbArc
 50
269.9999180326
 51
0.0000350077
  0
ARC
  5
12A
330
1B
100
AcDbEntity
 67
     1
  8
SLD-0
  6
Continuous
 62
     7
100
AcDbCircle
 10
79.8674709818
 20
167.883530179
 30
0.0
 40
0.5000000372503105
100
AcDbArc
 50
89.9999180441
 51
180.0000350077
  0
ARC
  5
12B
330
1B
100
AcDbEntity
 67
     1
  8
SLD-0
  6
Continuous
 62
     7
100
AcDbCircle
 10
79.8674709818
 20
148.883530179
 30
0.0
 40
0.5000000372502963
100
AcDbArc
 50
179.9999649923
 51
270.0000819559
  0
ARC
  5
12C
330
1B
100
AcDbEntity
 67
     1
  8
SLD-0
  6
CENTER
 62
     7
100
AcDbCircle
 10
229.3674706501
 20
143.383530179
 30
0.0
 40
15.00000059235003
100
AcDbArc
 50
360.0
 51
8.5291486919
  0
ARC
  5
12D
330
1B
100
AcDbEntity
 67
     1
  8
SLD-0
  6
CENTER
 62
     7
100
AcDbCircle
 10
229.3674712425
 20
95.383530179
 30
0.0
 40
15.0
100
AcDbArc
 50
270.0
 51
0.0
  0
ARC
  5
12E
330
1B
100
AcDbEntity
 67
     1
  8
SLD-0
  6
CENTER
 62
     7
100
AcDbCircle
 10
69.3674712425
 20
95.383530179
 30
0.0
 40
15.0
100
AcDbArc
 50
180.0
 51
270.0
  0
ARC
  5
12F
330
1B
100
AcDbEntity
 67
     1
  8
SLD-0
  6
CENTER
 62
     7
100
AcDbCircle
 10
69.3674718349
 20
143.383530179
 30
0.0
 40
15.00000059235004
100
AcDbArc
 50
171.4403471928
 51
180.0
  0
ARC
  5
130
330
1B
100
AcDbEntity
 67
     1
  8
SLD-0
  6
CENTER
 62
     7
100
AcDbCircle
 10
229.3674712425
 20
95.383530179
 30
0.0
 40
15.0
100
AcDbArc
 50
270.0
 51
0.0
  0
ARC
  5
131
330
1B
100
AcDbEntity
 67
     1
  8
SLD-0
  6
CENTER
 62
     7
100
AcDbCircle
 10
69.3674712425
 20
95.383530179
 30
0.0
 40
15.0
100
AcDbArc
 50
180.0
 51
270.0
  0
ARC
  5
132
330
1B
100
AcDbEntity
 67
     1
  8
SLD-0
  6
CENTER
 62
     7
100
AcDbCircle
 10
229.3674706501
 20
143.383530179
 30
0.0
 40
15.00000059235003
100
AcDbArc
 50
360.0
 51
91.5501033958
  0
ARC
  5
133
330
1B
100
AcDbEntity
 67
     1
  8
SLD-0
  6
CENTER
 62
     7
100
AcDbCircle
 10
69.3674718349
 20
143.383530179
 30
0.0
 40
15.00000059235003
100
AcDbArc
 50
88.8005885546
 51
180.0
  0
ARC
  5
134
330
1B
100
AcDbEntity
 67
     1
  8
SLD-0
  6
Continuous
 62
     7
100
AcDbCircle
 10
346.0326585179
 20
80.383530179
 30
0.0
 40
4.999999888250304
100
AcDbArc
 50
180.0000184412
 51
359.9999815588
  0
ARC
  5
135
330
1B
100
AcDbEntity
 67
     1
  8
SLD-0
  6
Continuous
 62
     7
100
AcDbCircle
 10
346.0326585179
 20
158.383530179
 30
0.0
 40
4.999999888250045
100
AcDbArc
 50
0.0
 51
180.0
  0
ARC
  5
136
330
1B
100
AcDbEntity
 67
     1
  8
SLD-0
  6
Continuous
 62
     7
100
AcDbCircle
 10
346.0326585179
 20
158.383530179
 30
0.0
 40
5.200000125950084
100
AcDbArc
 50
89.9999914618
 51
195.9423686056
  0
ARC
  5
137
330
1B
100
AcDbEntity
 67
     1
  8
SLD-0
  6
Continuous
 62
     7
100
AcDbCircle
 10
346.0326585179
 20
158.383530179
 30
0.0
 40
9.999999888250018
100
AcDbArc
 50
89.9999955601
 51
240.0
  0
ARC
  5
138
330
1B
100
AcDbEntity
 67
     1
  8
SLD-0
  6
Continuous
 62
     7
100
AcDbCircle
 10
346.0326585179
 20
158.383530179
 30
0.0
 40
5.200000125950108
100
AcDbArc
 50
344.0576313944
 51
89.9999914618
  0
ARC
  5
139
330
1B
100
AcDbEntity
 67
     1
  8
SLD-0
  6
Continuous
 62
     7
100
AcDbCircle
 10
218.8674715256
 20
208.3729032471
 30
0.0
 40
0.5000005811502604
100
AcDbArc
 50
269.9999180328
 51
0.0000170741
  0
ARC
  5
13A
330
1B
100
AcDbEntity
 67
     1
  8
SLD-0
  6
Continuous
 62
     7
100
AcDbCircle
 10
79.8674715257
 20
208.3729032471
 30
0.0
 40
0.5000005811502826
100
AcDbArc
 50
179.9999829259
 51
270.0000819557
  0
ARC
  5
13B
330
1B
100
AcDbEntity
 67
     1
  8
SLD-0
  6
Continuous
 62
     7
100
AcDbCircle
 10
99.3674712425
 20
231.8729032471
 30
0.0
 40
0.9999999999999959
100
AcDbArc
 50
150.0
 51
210.0
  0
ARC
  5
13C
330
1B
100
AcDbEntity
 67
     1
  8
SLD-0
  6
Continuous
 62
     7
100
AcDbCircle
 10
99.3674712425
 20
231.8729032471
 30
0.0
 40
1.0
100
AcDbArc
 50
90.0
 51
150.0
  0
ARC
  5
13D
330
1B
100
AcDbEntity
 67
     1
  8
SLD-0
  6
Continuous
 62
     7
100
AcDbCircle
 10
99.3674712425
 20
231.8729032471
 30
0.0
 40
1.0
100
AcDbArc
 50
30.0
 51
90.0
  0
ARC
  5
13E
330
1B
100
AcDbEntity
 67
     1
  8
SLD-0
  6
Continuous
 62
     7
100
AcDbCircle
 10
99.3674712425
 20
231.8729032471
 30
0.0
 40
0.9999999999999959
100
AcDbArc
 50
330.0
 51
30.0
  0
ARC
  5
13F
330
1B
100
AcDbEntity
 67
     1
  8
SLD-0
  6
Continuous
 62
     7
100
AcDbCircle
 10
99.3674712425
 20
231.8729032471
 30
0.0
 40
1.0
100
AcDbArc
 50
270.0
 51
330.0
  0
ARC
  5
140
330
1B
100
AcDbEntity
 67
     1
  8
SLD-0
  6
Continuous
 62
     7
100
AcDbCircle
 10
99.3674712425
 20
231.8729032471
 30
0.0
 40
1.0
100
AcDbArc
 50
210.0
 51
270.0
  0
ARC
  5
141
330
1B
100
AcDbEntity
 67
     1
  8
SLD-0
  6
Continuous
 62
     7
100
AcDbCircle
 10
199.3674712425
 20
231.8729032471
 30
0.0
 40
1.000000000000033
100
AcDbArc
 50
30.0
 51
90.0
  0
ARC
  5
142
330
1B
100
AcDbEntity
 67
     1
  8
SLD-0
  6
Continuous
 62
     7
100
AcDbCircle
 10
199.3674712425
 20
231.8729032471
 30
0.0
 40
1.000000000000008
100
AcDbArc
 50
90.0
 51
150.0
  0
ARC
  5
143
330
1B
100
AcDbEntity
 67
     1
  8
SLD-0
  6
Continuous
 62
     7
100
AcDbCircle
 10
199.3674712425
 20
231.8729032471
 30
0.0
 40
1.000000000000008
100
AcDbArc
 50
150.0
 51
210.0
  0
ARC
  5
144
330
1B
100
AcDbEntity
 67
     1
  8
SLD-0
  6
Continuous
 62
     7
100
AcDbCircle
 10
199.3674712425
 20
231.8729032471
 30
0.0
 40
1.000000000000033
100
AcDbArc
 50
330.0
 51
30.0
  0
ARC
  5
145
330
1B
100
AcDbEntity
 67
     1
  8
SLD-0
  6
Continuous
 62
     7
100
AcDbCircle
 10
199.3674712425
 20
231.8729032471
 30
0.0
 40
1.000000000000033
100
AcDbArc
 50
270.0
 51
330.0
  0
ARC
  5
146
330
1B
100
AcDbEntity
 67
     1
  8
SLD-0
  6
Continuous
 62
     7
100
AcDbCircle
 10
199.3674712425
 20
231.8729032471
 30
0.0
 40
1.000000000000008
100
AcDbArc
 50
210.0
 51
270.0
  0
ARC
  5
147
330
1B
100
AcDbEntity
 67
     1
  8
SLD-0
  6
Continuous
 62
     7
100
AcDbCircle
 10
244.3674712425
 20
217.8729030906
 30
0.0
 40
4.99999988825013
100
AcDbArc
 50
269.9999863395
 51
90.0000136605
  0
ARC
  5
148
330
1B
100
AcDbEntity
 67
     1
  8
SLD-0
  6
Continuous
 62
     7
100
AcDbCircle
 10
54.3674712425
 20
217.8729030906
 30
0.0
 40
4.99999988825013
100
AcDbArc
 50
89.9999863395
 51
270.0000136605
  0
CIRCLE
  5
149
330
1B
100
AcDbEntity
 67
     1
  8
SLD-0
  6
Continuous
 62
     7
100
AcDbCircle
 10
99.3674712425
 20
231.8729032471
 30
0.0
 40
2.149999999999977
  0
CIRCLE
  5
14A
330
1B
100
AcDbEntity
 67
     1
  8
SLD-0
  6
Continuous
 62
     7
100
AcDbCircle
 10
199.3674712425
 20
231.8729032471
 30
0.0
 40
2.149999999999977
  0
CIRCLE
  5
14B
330
1B
100
AcDbEntity
 67
     1
  8
SLD-0
  6
Continuous
 62
     7
100
AcDbCircle
 10
199.3674712425
 20
231.8729032471
 30
0.0
 40
1.649999999999977
  0
CIRCLE
  5
14C
330
1B
100
AcDbEntity
 67
     1
  8
SLD-0
  6
Continuous
 62
     7
100
AcDbCircle
 10
99.3674712425
 20
231.8729032471
 30
0.0
 40
1.649999999999977
  0
DIMENSION
  5
14D
330
1B
100
AcDbEntity
 67
     1
  8
SLD-0
 62
     7
100
AcDbDimension
  2
_D
 10
249.3674712425
 20
53.383530179
 30
0.0
 11
149.3674712425
 21
53.383530179
 31
0.0
 70
   160
  1
<>
 71
     2
 42
-1.0
  3
SLDDIMSTYLE0
100
AcDbAlignedDimension
 13
49.3674712425
 23
95.383530179
 33
0.0
 14
249.3674712425
 24
95.383530179
 34
0.0
 50
0.0
100
AcDbRotatedDimension
  0
DIMENSION
  5
161
330
1B
100
AcDbEntity
 67
     1
  8
SLD-0
 62
     7
100
AcDbDimension
  2
_D_1
 10
59.3674712425
 20
63.6889989153
 30
0.0
 11
149.3674712425
 21
63.6889989153
 31
0.0
 70
   160
  1
<>
 71
     2
 42
-1.0
  3
SLDDIMSTYLE0
100
AcDbAlignedDimension
 13
239.3674712425
 23
95.383530179
 33
0.0
 14
59.3674712425
 24
95.383530179
 34
0.0
 50
0.0
100
AcDbRotatedDimension
  0
DIMENSION
  5
16F
330
1B
100
AcDbEntity
 67
     1
  8
SLD-0
 62
     7
100
AcDbDimension
  2
_D_2
 10
239.3674712425
 20
63.6889989153
 30
0.0
 11
244.3674712425
 21
63.6889989153
 31
0.0
 70
   160
  1
<>
 71
     2
 42
-1.0
  3
SLDDIMSTYLE1
100
AcDbAlignedDimension
 13
249.3674712425
 23
95.383530179
 33
0.0
 14
239.3674712425
 24
95.383530179
 34
0.0
100
AcDbRotatedDimension
  0
DIMENSION
  5
17F
330
1B
100
AcDbEntity
 67
     1
  8
SLD-0
 62
     7
100
AcDbDimension
  2
_D_3
 10
59.3674712425
 20
63.6889989153
 30
0.0
 11
54.3674712425
 21
63.6889989153
 31
0.0
 70
   160
  1
<>
 71
     2
 42
-1.0
  3
SLDDIMSTYLE1
100
AcDbAlignedDimension
 13
49.3674712425
 23
95.383530179
 33
0.0
 14
59.3674712425
 24
95.383530179
 34
0.0
100
AcDbRotatedDimension
  0
DIMENSION
  5
18E
330
1B
100
AcDbEntity
 67
     1
  8
SLD-0
 62
     7
100
AcDbDimension
  2
_D_4
 10
35.4474712425
 20
85.383530179
 30
0.0
 11
35.4474712425
 21
80.383530179
 31
0.0
 70
   160
  1
<>
 71
     2
 42
-1.0
  3
SLDDIMSTYLE1
100
AcDbAlignedDimension
 13
69.3674712425
 23
75.383530179
 33
0.0
 14
69.3674712425
 24
85.383530179
 34
0.0
 50
90.0
100
AcDbRotatedDimension
  0
DIMENSION
  5
19D
330
1B
100
AcDbEntity
 67
     1
  8
SLD-0
 62
     7
100
AcDbDimension
  2
_D_5
 10
273.79720577
 20
168.383530179
 30
0.0
 11
273.79720577
 21
121.883530179
 31
0.0
 70
   160
  1
<>
 71
     2
 42
-1.0
  3
SLDDIMSTYLE0
100
AcDbAlignedDimension
 13
229.3674712425
 23
75.383530179
 33
0.0
 14
218.8674712425
 24
168.383530179
 34
0.0
 50
90.0
100
AcDbRotatedDimension
  0
DIMENSION
  5
1AB
330
1B
100
AcDbEntity
 67
     1
  8
SLD-0
 62
     7
100
AcDbDimension
  2
_D_6
 10
260.9435682617
 20
168.383530179
 30
0.0
 11
260.9435682617
 21
158.383530179
 31
0.0
 70
   160
  1
<>
 71
     2
 42
-1.0
  3
SLDDIMSTYLE0
100
AcDbAlignedDimension
 13
218.8674712425
 23
148.383530179
 33
0.0
 14
218.8674712425
 24
168.383530179
 34
0.0
 50
90.0
100
AcDbRotatedDimension
  0
DIMENSION
  5
1B9
330
1B
100
AcDbEntity
 67
     1
  8
SLD-0
 62
     7
100
AcDbDimension
  2
_D_7
 10
260.9435682617
 20
148.383530179
 30
0.0
 11
260.9435682617
 21
116.883530179
 31
0.0
 70
   160
  1
<>
 71
     2
 42
-1.0
  3
SLDDIMSTYLE0
100
AcDbAlignedDimension
 13
229.3674712425
 23
85.383530179
 33
0.0
 14
218.8674712425
 24
148.383530179
 34
0.0
 50
90.0
100
AcDbRotatedDimension
  0
DIMENSION
  5
1C7
330
1B
100
AcDbEntity
 67
     1
  8
SLD-0
 62
     7
100
AcDbDimension
  2
_D_8
 10
79.3674712425
 20
190.383530179
 30
0.0
 11
149.3674712425
 21
190.383530179
 31
0.0
 70
   160
  1
<>
 71
     2
 42
-1.0
  3
SLDDIMSTYLE0
100
AcDbAlignedDimension
 13
219.3674712425
 23
167.883530179
 33
0.0
 14
79.3674712425
 24
167.883530179
 34
0.0
100
AcDbRotatedDimension
  0
DIMENSION
  5
1D5
330
1B
100
AcDbEntity
 67
     1
  8
SLD-0
 62
     7
100
AcDbDimension
  2
_D_9
 10
35.4474712425
 20
163.383530179
 30
0.0
 11
35.4474712425
 21
158.383530179
 31
0.0
 70
   160
  1
<>
 71
     2
 42
-1.0
  3
SLDDIMSTYLE1
100
AcDbAlignedDimension
 13
69.3674712425
 23
153.383530179
 33
0.0
 14
69.3674712425
 24
163.383530179
 34
0.0
 50
90.0
100
AcDbRotatedDimension
  0
DIMENSION
  5
1E4
330
1B
100
AcDbEntity
 67
     1
  8
SLD-0
 62
     7
100
AcDbDimension
  2
_D_10
 10
35.4474712425
 20
153.383530179
 30
0.0
 11
35.4474712425
 21
119.383530179
 31
0.0
 70
   160
  1
<>
 71
     2
 42
-1.0
  3
SLDDIMSTYLE0
100
AcDbAlignedDimension
 13
69.3674712425
 23
85.383530179
 33
0.0
 14
69.3674712425
 24
153.383530179
 34
0.0
 50
90.0
100
AcDbRotatedDimension
  0
DIMENSION
  5
1F2
330
1B
100
AcDbEntity
 67
     1
  8
SLD-0
 62
     7
100
AcDbDimension
  2
_D_11
 10
336.0326586744
 20
190.383530179
 30
0.0
 11
350.0326586744
 21
190.383530179
 31
0.0
 70
   160
  1
<>
 71
     2
 42
-1.0
  3
SLDDIMSTYLE0
100
AcDbAlignedDimension
 13
364.0326586744
 23
168.383530179
 33
0.0
 14
336.0326586744
 24
158.383530179
 34
0.0
100
AcDbRotatedDimension
  0
DIMENSION
  5
200
330
1B
100
AcDbEntity
 67
     1
  8
SLD-0
 62
     7
100
AcDbDimension
  2
_D_12
 10
346.0326586744
 20
184.383530179
 30
0.0
 11
355.0326586744
 21
184.383530179
 31
0.0
 70
   160
  1
<>
 71
     2
 42
-1.0
  3
SLDDIMSTYLE0
100
AcDbAlignedDimension
 13
364.0326586744
 23
168.383530179
 33
0.0
 14
346.0326586744
 24
169.383530179
 34
0.0
100
AcDbRotatedDimension
  0
DIMENSION
  5
20E
330
1B
100
AcDbEntity
 67
     1
  8
SLD-0
 62
     7
100
AcDbDimension
  2
_D_13
 10
320.0326586744
 20
75.383530179
 30
0.0
 11
320.0326586744
 21
116.883530179
 31
0.0
 70
   160
  1
<>
 71
     2
 42
-1.0
  3
SLDDIMSTYLE0
100
AcDbAlignedDimension
 13
335.0326586744
 23
158.383530179
 33
0.0
 14
346.0326586744
 24
75.383530179
 34
0.0
 50
90.0
100
AcDbRotatedDimension
  0
DIMENSION
  5
21C
330
1B
100
AcDbEntity
 67
     1
  8
SLD-0
 62
     7
100
AcDbDimension
  2
_D_14
 10
351.0326586744
 20
53.383530179
 30
0.0
 11
346.0326586744
 21
53.383530179
 31
0.0
 70
   160
  1
<>
 71
     2
 42
-1.0
  3
SLDDIMSTYLE1
100
AcDbAlignedDimension
 13
341.0326586744
 23
80.383530179
 33
0.0
 14
351.0326586744
 24
80.383530179
 34
0.0
100
AcDbRotatedDimension
  0
DIMENSION
  5
22B
330
1B
100
AcDbEntity
 67
     1
  8
SLD-0
 62
     7
100
AcDbDimension
  2
_D_15
 10
351.0326586744
 20
53.383530179
 30
0.0
 11
357.5326586744
 21
53.383530179
 31
0.0
 70
   160
  1
<>
 71
     2
 42
-1.0
  3
SLDDIMSTYLE0
100
AcDbAlignedDimension
 13
364.0326586744
 23
148.383530179
 33
0.0
 14
351.0326586744
 24
80.383530179
 34
0.0
100
AcDbRotatedDimension
  0
DIMENSION
  5
239
330
1B
100
AcDbEntity
 67
     1
  8
SLD-0
 62
     7
100
AcDbDimension
  2
_D_16
 10
109.3674712425
 20
270.1729032471
 30
0.0
 11
149.3674712425
 21
270.1729032471
 31
0.0
 70
   160
  1
<>
 71
     2
 42
-1.0
  3
SLDDIMSTYLE0
100
AcDbAlignedDimension
 13
189.3674712425
 23
260.1052973096
 33
0.0
 14
109.3674712425
 24
259.9736820363
 34
0.0
100
AcDbRotatedDimension
  0
DIMENSION
  5
247
330
1B
100
AcDbEntity
 67
     1
  8
SLD-0
 62
     7
100
AcDbDimension
  2
_D_17
 10
199.3674712425
 20
270.1729032471
 30
0.0
 11
209.3674712425
 21
270.1729032471
 31
0.0
 70
   160
  1
<>
 71
     2
 42
-1.0
  3
SLDDIMSTYLE0
100
AcDbAlignedDimension
 13
219.3674712425
 23
235.8729032471
 33
0.0
 14
199.3674712425
 24
235.0229032471
 34
0.0
100
AcDbRotatedDimension
  0
DIMENSION
  5
255
330
1B
100
AcDbEntity
 67
     1
  8
SLD-0
 62
     7
100
AcDbDimension
  2
_D_18
 10
79.3674712425
 20
270.1729032471
 30
0.0
 11
89.3674712425
 21
270.1729032471
 31
0.0
 70
   160
  1
<>
 71
     2
 42
-1.0
  3
SLDDIMSTYLE0
100
AcDbAlignedDimension
 13
99.3674712425
 23
235.0229032471
 33
0.0
 14
79.3674712425
 24
235.8729032471
 34
0.0
100
AcDbRotatedDimension
  0
DIMENSION
  5
263
330
1B
100
AcDbEntity
 67
     1
  8
SLD-0
 62
     7
100
AcDbDimension
  2
_D_19
 10
259.3674712425
 20
231.8729032471
 30
0.0
 11
259.3674712425
 21
240.9679625232
 31
0.0
 70
   160
  1
<>
 71
     2
 42
-1.0
  3
SLDDIMSTYLE0
100
AcDbAlignedDimension
 13
219.3674712425
 23
235.8729032471
 33
0.0
 14
202.5174712425
 24
231.8729032471
 34
0.0
 50
90.0
100
AcDbRotatedDimension
  0
MTEXT
  5
275
330
1B
100
AcDbEntity
 67
     1
  8
SLD-0
 62
     7
100
AcDbMText
 10
144.5035312996
 20
16.6880415195
 30
0.0
 40
3.5
 41
0.0
 71
     1
 72
     1
  1
37M
  7
SLDTEXTSTYLE2
 73
     1
 44
1.0
  0
MTEXT
  5
276
330
1B
100
AcDbEntity
 67
     1
  8
SLD-0
 62
     7
100
AcDbMText
 10
368.8137910498
 20
15.8225795688
 30
0.0
 40
4.0
 41
0.0
 71
     1
 72
     1
  1
11548XG
  7
SLDTEXTSTYLE2
 73
     1
 44
1.0
  0
MTEXT
  5
277
330
1B
100
AcDbEntity
 67
     1
  8
SLD-0
 62
     7
100
AcDbMText
 10
300.033957724
 20
27.6916428957
 30
0.0
 40
3.5
 41
0.0
 71
     1
 72
     1
  1
1/1
  7
SLDTEXTSTYLE0
 73
     1
 44
1.0
  0
MTEXT
  5
279
330
1B
100
AcDbEntity
 67
     1
  8
SLD-0
 62
     7
100
AcDbMText
 10
22.8306485705
 20
28.652303021
 30
0.0
 40
3.5
 41
0.0
 71
     1
 72
     1
  1
改
  7
SLDTEXTSTYLE3
 73
     1
 44
1.0
  0
MTEXT
  5
27A
330
1B
100
AcDbEntity
 67
     1
  8
SLD-0
 62
     7
100
AcDbMText
 10
22.7900805826
 20
17.010853051
 30
0.0
 40
3.5
 41
0.0
 71
     1
 72
     1
  1
訂
  7
SLDTEXTSTYLE3
 73
     1
 44
1.0
  0
MTEXT
  5
27B
330
1B
100
AcDbEntity
 67
     1
  8
SLD-0
 62
     7
100
AcDbMText
 10
144.4829525239
 20
28.2161130323
 30
0.0
 40
3.5
 41
0.0
 71
     1
 72
     1
  1
承認図
  7
SLDTEXTSTYLE3
 73
     1
 44
1.0
  0
MTEXT
  5
27C
330
1B
100
AcDbEntity
 67
     1
  8
SLD-0
 62
     7
100
AcDbMText
 10
232.357657574
 20
30.9382425667
 30
0.0
 40
3.5
 41
0.0
 71
     1
 72
     1
  1
個
  7
SLDTEXTSTYLE3
 73
     1
 44
1.0
  0
MTEXT
  5
27D
330
1B
100
AcDbEntity
 67
     1
  8
SLD-0
 62
     7
100
AcDbMText
 10
232.3785618998
 20
25.621660061
 30
0.0
 40
3.5
 41
0.0
 71
     1
 72
     1
  1
数
  7
SLDTEXTSTYLE3
 73
     1
 44
1.0
  0
MTEXT
  5
27E
330
1B
100
AcDbEntity
 67
     1
  8
SLD-0
 62
     7
100
AcDbMText
 10
252.3573601132
 20
31.0252717962
 30
0.0
 40
3.5
 41
0.0
 71
     1
 72
     1
  1
備
  7
SLDTEXTSTYLE3
 73
     1
 44
1.0
  0
MTEXT
  5
27F
330
1B
100
AcDbEntity
 67
     1
  8
SLD-0
 62
     7
100
AcDbMText
 10
252.3573601132
 20
25.7026862461
 30
0.0
 40
3.5
 41
0.0
 71
     1
 72
     1
  1
考
  7
SLDTEXTSTYLE3
 73
     1
 44
1.0
  0
MTEXT
  5
280
330
1B
100
AcDbEntity
 67
     1
  8
SLD-0
 62
     7
100
AcDbMText
 10
292.3664626113
 20
31.0257741408
 30
0.0
 40
3.5
 41
0.0
 71
     1
 72
     1
  1
尺
  7
SLDTEXTSTYLE3
 73
     1
 44
1.0
  0
MTEXT
  5
281
330
1B
100
AcDbEntity
 67
     1
  8
SLD-0
 62
     7
100
AcDbMText
 10
292.3664626113
 20
25.6874134086
 30
0.0
 40
3.5
 41
0.0
 71
     1
 72
     1
  1
度
  7
SLDTEXTSTYLE3
 73
     1
 44
1.0
  0
MTEXT
  5
283
330
1B
100
AcDbEntity
 67
     1
  8
SLD-0
 62
     7
100
AcDbMText
 10
294.8445745199
 20
16.7950380054
 30
0.0
 40
2.9104166031
 41
0.0
 71
     1
 72
     1
  1
第三角法
  7
SLDTEXTSTYLE4
 73
     1
 44
1.0
  0
MTEXT
  5
285
330
1B
100
AcDbEntity
 67
     1
  8
SLD-0
 62
     7
100
AcDbMText
 10
311.7573695107
 20
30.5891874116
 30
0.0
 40
2.5
 41
0.0
 71
     1
 72
     1
  1
製図・設計
  7
SLDTEXTSTYLE5
 73
     1
 44
1.0
  0
MTEXT
  5
287
330
1B
100
AcDbEntity
 67
     1
  8
SLD-0
 62
     7
100
AcDbMText
 10
329.6575469962
 20
30.5994410061
 30
0.0
 40
2.5
 41
0.0
 71
     1
 72
     1
  1
照　査
  7
SLDTEXTSTYLE6
 73
     1
 44
1.0
  0
MTEXT
  5
288
330
1B
100
AcDbEntity
 67
     1
  8
SLD-0
 62
     7
100
AcDbMText
 10
361.958749754
 20
15.3927401502
 30
0.0
 40
3.4395833015
 41
0.0
 71
     1
 72
     1
  1
No.
  7
SLDTEXTSTYLE2
 73
     1
 44
1.0
  0
MTEXT
  5
289
330
1B
100
AcDbEntity
 67
     1
  8
SLD-0
 62
     7
100
AcDbMText
 10
81.6248333904
 20
13.5625189928
 30
0.0
 40
2.5
 41
0.0
 71
     1
 72
     1
  1
変　更　内　容
  7
SLDTEXTSTYLE3
 73
     1
 44
1.0
  0
MTEXT
  5
28A
330
1B
100
AcDbEntity
 67
     1
  8
SLD-0
 62
     7
100
AcDbMText
 10
344.6694607343
 20
30.5721772849
 30
0.0
 40
2.5
 41
0.0
 71
     1
 72
     1
  1
承　認
  7
SLDTEXTSTYLE6
 73
     1
 44
1.0
  0
MTEXT
  5
28C
330
1B
100
AcDbEntity
 67
     1
  8
SLD-0
 62
     7
100
AcDbMText
 10
358.6499682217
 20
23.4386037729
 30
0.0
 40
2.3812499046
 41
0.0
 71
     1
 72
     1
  1
WEST
  7
SLDTEXTSTYLE7
 73
     1
 44
1.0
  0
MTEXT
  5
28D
330
1B
100
AcDbEntity
 67
     1
  8
SLD-0
 62
     7
100
AcDbMText
 10
126.6394502878
 20
13.5842648164
 30
0.0
 40
2.5
 41
0.0
 71
     1
 72
     1
  1
通知書
  7
SLDTEXTSTYLE6
 73
     1
 44
1.0
  0
MTEXT
  5
28E
330
1B
100
AcDbEntity
 67
     1
  8
SLD-0
 62
     7
100
AcDbMText
 10
39.6073654972
 20
13.5858501847
 30
0.0
 40
2.5
 41
0.0
 71
     1
 72
     1
  1
日付
  7
SLDTEXTSTYLE4
 73
     1
 44
1.0
  0
MTEXT
  5
28F
330
1B
100
AcDbEntity
 67
     1
  8
SLD-0
 62
     7
100
AcDbMText
 10
50.6471155245
 20
13.5906682699
 30
0.0
 40
2.5
 41
0.0
 71
     1
 72
     1
  1
担当者
  7
SLDTEXTSTYLE6
 73
     1
 44
1.0
  0
MTEXT
  5
290
330
1B
100
AcDbEntity
 67
     1
  8
SLD-0
 62
     7
100
AcDbMText
 10
28.0997329878
 20
13.572333007
 30
0.0
 40
2.5
 41
0.0
 71
     1
 72
     1
  1
記号
  7
SLDTEXTSTYLE4
 73
     1
 44
1.0
  0
MTEXT
  5
291
330
1B
100
AcDbEntity
 67
     1
  8
SLD-0
 62
     7
100
AcDbMText
 10
199.3534685856
 20
30.9382425667
 30
0.0
 40
3.5
 41
0.0
 71
     1
 72
     1
  1
材
  7
SLDTEXTSTYLE3
 73
     1
 44
1.0
  0
MTEXT
  5
292
330
1B
100
AcDbEntity
 67
     1
  8
SLD-0
 62
     7
100
AcDbMText
 10
199.349337611
 20
25.621660061
 30
0.0
 40
3.5
 41
0.0
 71
     1
 72
     1
  1
質
  7
SLDTEXTSTYLE3
 73
     1
 44
1.0
  0
MTEXT
  5
293
330
1B
100
AcDbEntity
 67
     1
  8
SLD-0
 62
     7
100
AcDbMText
 10
139.3570394312
 20
30.9382425667
 30
0.0
 40
3.5
 41
0.0
 71
     1
 72
     1
  1
名
  7
SLDTEXTSTYLE3
 73
     1
 44
1.0
  0
MTEXT
  5
294
330
1B
100
AcDbEntity
 67
     1
  8
SLD-0
 62
     7
100
AcDbMText
 10
139.3779437571
 20
25.621660061
 30
0.0
 40
3.5
 41
0.0
 71
     1
 72
     1
  1
称
  7
SLDTEXTSTYLE3
 73
     1
 44
1.0
  0
MTEXT
  5
295
330
1B
100
AcDbEntity
 67
     1
  8
SLD-0
 62
     7
100
AcDbMText
 10
139.3570394312
 20
19.9382425667
 30
0.0
 40
3.5
 41
0.0
 71
     1
 72
     1
  1
品
  7
SLDTEXTSTYLE3
 73
     1
 44
1.0
  0
MTEXT
  5
296
330
1B
100
AcDbEntity
 67
     1
  8
SLD-0
 62
     7
100
AcDbMText
 10
139.3779437571
 20
15.0156834865
 30
0.0
 40
3.5
 41
0.0
 71
     1
 72
     1
  1
名
  7
SLDTEXTSTYLE3
 73
     1
 44
1.0
  0
MTEXT
  5
297
330
1B
100
AcDbEntity
 67
     1
  8
SLD-0
 62
     7
100
AcDbMText
 10
199.3534685856
 20
19.9382425667
 30
0.0
 40
3.5
 41
0.0
 71
     1
 72
     1
  1
工
  7
SLDTEXTSTYLE3
 73
     1
 44
1.0
  0
MTEXT
  5
298
330
1B
100
AcDbEntity
 67
     1
  8
SLD-0
 62
     7
100
AcDbMText
 10
199.349337611
 20
15.0156834865
 30
0.0
 40
3.5
 41
0.0
 71
     1
 72
     1
  1
番
  7
SLDTEXTSTYLE3
 73
     1
 44
1.0
  0
MTEXT
  5
299
330
1B
100
AcDbEntity
 67
     1
  8
SLD-0
 62
     7
100
AcDbMText
 10
427.9159859778
 20
15.3701307748
 30
0.0
 40
7.4083333015
 41
0.0
 71
     1
 72
     1
  1
A3
  7
SLDTEXTSTYLE2
 73
     1
 44
1.0
  0
MTEXT
  5
29A
330
1B
100
AcDbEntity
 67
     1
  8
SLD-0
 62
     7
100
AcDbMText
 10
357.444566405
 20
14.6147830727
 30
0.0
 40
3.5
 41
0.0
 71
     1
 72
     1
  1
番
  7
SLDTEXTSTYLE3
 73
     1
 44
1.0
  0
MTEXT
  5
29B
330
1B
100
AcDbEntity
 67
     1
  8
SLD-0
 62
     7
100
AcDbMText
 10
357.444566405
 20
19.9531438049
 30
0.0
 40
3.5
 41
0.0
 71
     1
 72
     1
  1
図
  7
SLDTEXTSTYLE3
 73
     1
 44
1.0
  0
MTEXT
  5
29D
330
1B
100
AcDbEntity
 67
     1
  8
SLD-0
 62
     7
100
AcDbMText
 10
311.5649907757
 20
13.6099772839
 30
0.0
 40
3.0
 41
0.0
 71
     1
 72
     1
  1
′０８．１０．２０
  7
SLDTEXTSTYLE8
 73
     1
 44
1.0
  0
MTEXT
  5
29E
330
1B
100
AcDbEntity
 67
     1
  8
SLD-0
 62
     7
100
AcDbMText
 10
406.0292860479
 20
8.3220666762
 30
0.0
 40
1.8520833254
 41
0.0
 71
     1
 72
     1
  1
A3
  7
SLDTEXTSTYLE2
 73
     1
 44
1.0
  0
ENDSEC
  0
SECTION
  2
OBJECTS
  0
DICTIONARY
  5
C
330
0
100
AcDbDictionary
281
     1
  3
ACAD_GROUP
350
D
  3
ACAD_LAYOUT
350
1A
  3
ACAD_MLINESTYLE
350
17
  3
ACAD_PLOTSETTINGS
350
19
  3
ACAD_PLOTSTYLENAME
350
E
  3
ACAD_SCALELIST
350
47
  0
DICTIONARY
  5
D
102
{ACAD_REACTORS
330
C
102
}
330
C
100
AcDbDictionary
281
     1
  0
DICTIONARY
  5
1A
102
{ACAD_REACTORS
330
C
102
}
330
C
100
AcDbDictionary
281
     1
  3
Model
350
22
  3
SW_Model_1
350
1E
  0
DICTIONARY
  5
17
102
{ACAD_REACTORS
330
C
102
}
330
C
100
AcDbDictionary
281
     1
  3
Standard
350
18
  0
DICTIONARY
  5
19
102
{ACAD_REACTORS
330
C
102
}
330
C
100
AcDbDictionary
281
     1
  0
ACDBDICTIONARYWDFLT
  5
E
102
{ACAD_REACTORS
330
C
102
}
330
C
100
AcDbDictionary
281
     1
  3
Normal
350
F
100
AcDbDictionaryWithDefault
340
F
  0
DICTIONARY
  5
47
102
{ACAD_REACTORS
330
C
102
}
330
C
100
AcDbDictionary
281
     1
  3
A0
350
48
  3
A1
350
49
  3
A2
350
4A
  3
A3
350
4B
  3
A4
350
4C
  3
A5
350
4D
  3
A6
350
4E
  3
A7
350
4F
  3
A8
350
50
  3
A9
350
51
  3
B0
350
52
  3
B1
350
53
  3
B2
350
54
  3
B3
350
55
  3
B4
350
56
  3
B5
350
57
  3
B6
350
58
  3
B7
350
59
  3
B8
350
5A
  3
B9
350
5B
  3
C0
350
5C
  3
C1
350
5D
  3
C2
350
5E
  3
C3
350
5F
  3
C4
350
60
  3
C5
350
61
  3
C6
350
62
  3
C7
350
63
  3
C8
350
64
  3
C9
350
65
  3
D0
350
66
  3
D1
350
67
  3
D2
350
68
  0
LAYOUT
  5
22
102
{ACAD_REACTORS
330
1A
102
}
330
1A
100
AcDbPlotSettings
  1

  2
none_device
  4
Letter_(8.50_x_11.00_Inches)
  6

 40
6.35
 41
6.35
 42
6.35000508
 43
6.35000508
 44
215.9
 45
279.4
 46
0.0
 47
0.0
 48
0.0
 49
0.0
140
0.0
141
0.0
142
1.0
143
1.0
 70
  1712
 72
     1
 73
     0
 74
     0
  7

 75
     0
147
1.0
148
0.0
149
0.0
100
AcDbLayout
  1
Model
 70
     1
 71
     0
 10
0.0
 20
0.0
 11
420.0
 21
297.0
 12
0.0
 22
0.0
 32
0.0
 14
0.0
 24
0.0
 34
0.0
 15
420.0
 25
297.0
 35
0.0
146
0.0
 13
0.0
 23
0.0
 33
0.0
 16
1.0
 26
0.0
 36
0.0
 17
0.0
 27
1.0
 37
0.0
 76
     0
330
1F
331
29
  0
LAYOUT
  5
1E
102
{ACAD_REACTORS
330
1A
102
}
330
1A
100
AcDbPlotSettings
  1

  2
none_device
  4
ISO_A3_(420.00_x_297.00_MM)
  6

 40
7.5
 41
20.0
 42
7.5
 43
20.0
 44
420.0
 45
297.0
 46
0.0
 47
0.0
 48
0.0
 49
0.0
140
0.0
141
0.0
142
1.0
143
1.0
 70
  4832
 72
     1
 73
     0
 74
     1
  7

 75
     0
147
1.0
148
0.0
149
0.0
100
AcDbLayout
  1
SW_Model_1
 70
     1
 71
     1
 10
0.0
 20
0.0
 11
420.0
 21
297.0
 12
0.0
 22
0.0
 32
0.0
 14
0.0
 24
0.0
 34
0.0
 15
420.0
 25
297.0
 35
0.0
146
0.0
 13
0.0
 23
0.0
 33
0.0
 16
1.0
 26
0.0
 36
0.0
 17
0.0
 27
1.0
 37
0.0
 76
     0
330
1B
331
77
  0
MLINESTYLE
  5
18
102
{ACAD_REACTORS
330
17
102
}
330
17
100
AcDbMlineStyle
  2
Standard
 70
     0
  3

 62
   256
 51
90.0
 52
90.0
 71
     2
 49
0.5
 62
   256
  6
BYLAYER
 49
-0.5
 62
   256
  6
BYLAYER
  0
ACDBPLACEHOLDER
  5
F
102
{ACAD_REACTORS
330
E
102
}
330
E
  0
SCALE
  5
48
102
{ACAD_REACTORS
330
47
102
}
330
47
100
AcDbScale
 70
     0
300
1:1
140
1.0
141
1.0
290
     1
  0
SCALE
  5
49
102
{ACAD_REACTORS
330
47
102
}
330
47
100
AcDbScale
 70
     0
300
1:2
140
1.0
141
2.0
290
     0
  0
SCALE
  5
4A
102
{ACAD_REACTORS
330
47
102
}
330
47
100
AcDbScale
 70
     0
300
1:4
140
1.0
141
4.0
290
     0
  0
SCALE
  5
4B
102
{ACAD_REACTORS
330
47
102
}
330
47
100
AcDbScale
 70
     0
300
1:5
140
1.0
141
5.0
290
     0
  0
SCALE
  5
4C
102
{ACAD_REACTORS
330
47
102
}
330
47
100
AcDbScale
 70
     0
300
1:8
140
1.0
141
8.0
290
     0
  0
SCALE
  5
4D
102
{ACAD_REACTORS
330
47
102
}
330
47
100
AcDbScale
 70
     0
300
1:10
140
1.0
141
10.0
290
     0
  0
SCALE
  5
4E
102
{ACAD_REACTORS
330
47
102
}
330
47
100
AcDbScale
 70
     0
300
1:16
140
1.0
141
16.0
290
     0
  0
SCALE
  5
4F
102
{ACAD_REACTORS
330
47
102
}
330
47
100
AcDbScale
 70
     0
300
1:20
140
1.0
141
20.0
290
     0
  0
SCALE
  5
50
102
{ACAD_REACTORS
330
47
102
}
330
47
100
AcDbScale
 70
     0
300
1:30
140
1.0
141
30.0
290
     0
  0
SCALE
  5
51
102
{ACAD_REACTORS
330
47
102
}
330
47
100
AcDbScale
 70
     0
300
1:40
140
1.0
141
40.0
290
     0
  0
SCALE
  5
52
102
{ACAD_REACTORS
330
47
102
}
330
47
100
AcDbScale
 70
     0
300
1:50
140
1.0
141
50.0
290
     0
  0
SCALE
  5
53
102
{ACAD_REACTORS
330
47
102
}
330
47
100
AcDbScale
 70
     0
300
1:100
140
1.0
141
100.0
290
     0
  0
SCALE
  5
54
102
{ACAD_REACTORS
330
47
102
}
330
47
100
AcDbScale
 70
     0
300
2:1
140
2.0
141
1.0
290
     0
  0
SCALE
  5
55
102
{ACAD_REACTORS
330
47
102
}
330
47
100
AcDbScale
 70
     0
300
4:1
140
4.0
141
1.0
290
     0
  0
SCALE
  5
56
102
{ACAD_REACTORS
330
47
102
}
330
47
100
AcDbScale
 70
     0
300
8:1
140
8.0
141
1.0
290
     0
  0
SCALE
  5
57
102
{ACAD_REACTORS
330
47
102
}
330
47
100
AcDbScale
 70
     0
300
10:1
140
10.0
141
1.0
290
     0
  0
SCALE
  5
58
102
{ACAD_REACTORS
330
47
102
}
330
47
100
AcDbScale
 70
     0
300
100:1
140
100.0
141
1.0
290
     0
  0
SCALE
  5
59
102
{ACAD_REACTORS
330
47
102
}
330
47
100
AcDbScale
 70
     0
300
1/128" = 1'-0"
140
0.0078125
141
12.0
290
     0
  0
SCALE
  5
5A
102
{ACAD_REACTORS
330
47
102
}
330
47
100
AcDbScale
 70
     0
300
1/64" = 1'-0"
140
0.015625
141
12.0
290
     0
  0
SCALE
  5
5B
102
{ACAD_REACTORS
330
47
102
}
330
47
100
AcDbScale
 70
     0
300
1/32" = 1'-0"
140
0.03125
141
12.0
290
     0
  0
SCALE
  5
5C
102
{ACAD_REACTORS
330
47
102
}
330
47
100
AcDbScale
 70
     0
300
1/16" = 1'-0"
140
0.0625
141
12.0
290
     0
  0
SCALE
  5
5D
102
{ACAD_REACTORS
330
47
102
}
330
47
100
AcDbScale
 70
     0
300
3/32" = 1'-0"
140
0.09375
141
12.0
290
     0
  0
SCALE
  5
5E
102
{ACAD_REACTORS
330
47
102
}
330
47
100
AcDbScale
 70
     0
300
1/8" = 1'-0"
140
0.125
141
12.0
290
     0
  0
SCALE
  5
5F
102
{ACAD_REACTORS
330
47
102
}
330
47
100
AcDbScale
 70
     0
300
3/16" = 1'-0"
140
0.1875
141
12.0
290
     0
  0
SCALE
  5
60
102
{ACAD_REACTORS
330
47
102
}
330
47
100
AcDbScale
 70
     0
300
1/4" = 1'-0"
140
0.25
141
12.0
290
     0
  0
SCALE
  5
61
102
{ACAD_REACTORS
330
47
102
}
330
47
100
AcDbScale
 70
     0
300
3/8" = 1'-0"
140
0.375
141
12.0
290
     0
  0
SCALE
  5
62
102
{ACAD_REACTORS
330
47
102
}
330
47
100
AcDbScale
 70
     0
300
1/2" = 1'-0"
140
0.5
141
12.0
290
     0
  0
SCALE
  5
63
102
{ACAD_REACTORS
330
47
102
}
330
47
100
AcDbScale
 70
     0
300
3/4" = 1'-0"
140
0.75
141
12.0
290
     0
  0
SCALE
  5
64
102
{ACAD_REACTORS
330
47
102
}
330
47
100
AcDbScale
 70
     0
300
1" = 1'-0"
140
1.0
141
12.0
290
     0
  0
SCALE
  5
65
102
{ACAD_REACTORS
330
47
102
}
330
47
100
AcDbScale
 70
     0
300
1-1/2" = 1'-0"
140
1.5
141
12.0
290
     0
  0
SCALE
  5
66
102
{ACAD_REACTORS
330
47
102
}
330
47
100
AcDbScale
 70
     0
300
3" = 1'-0"
140
3.0
141
12.0
290
     0
  0
SCALE
  5
67
102
{ACAD_REACTORS
330
47
102
}
330
47
100
AcDbScale
 70
     0
300
6" = 1'-0"
140
6.0
141
12.0
290
     0
  0
SCALE
  5
68
102
{ACAD_REACTORS
330
47
102
}
330
47
100
AcDbScale
 70
     0
300
1'-0" = 1'-0"
140
12.0
141
12.0
290
     0
  0
ENDSEC
  0
EOF
