  0
SECTION
  2
HEADER
  9
$ACADVER
  1
AC1015
  9
$ACADMAINTVER
 70
     6
  9
$DWGCODEPAGE
  3
DOS932
  9
$INSBASE
 10
0.0
 20
0.0
 30
0.0
  9
$EXTMIN
 10
0.0
 20
0.0
 30
0.0
  9
$EXTMAX
 10
594.0
 20
420.0
 30
0.0
  9
$LIMMIN
 10
0.0
 20
0.0
  9
$LIMMAX
 10
594.0
 20
420.0
  9
$ORTHOMODE
 70
     0
  9
$REGENMODE
 70
     1
  9
$FILLMODE
 70
     1
  9
$QTEXTMODE
 70
     0
  9
$MIRRTEXT
 70
     1
  9
$LTSCALE
 40
1.0
  9
$ATTMODE
 70
     1
  9
$TEXTSIZE
 40
3.5
  9
$TRACEWID
 40
1.0
  9
$TEXTSTYLE
  7
Standard
  9
$CLAYER
  8
0
  9
$CELTYPE
  6
ByLayer
  9
$CECOLOR
 62
   256
  9
$CELTSCALE
 40
1.0
  9
$DISPSILH
 70
     0
  9
$DIMSCALE
 40
1.0
  9
$DIMASZ
 40
3.302
  9
$DIMEXO
 40
1.0
  9
$DIMDLI
 40
3.75
  9
$DIMRND
 40
0.0
  9
$DIMDLE
 40
0.0
  9
$DIMEXE
 40
1.0
  9
$DIMTP
 40
0.0
  9
$DIMTM
 40
0.0
  9
$DIMTXT
 40
3.5
  9
$DIMCEN
 40
2.5
  9
$DIMTSZ
 40
0.0
  9
$DIMTOL
 70
     0
  9
$DIMLIM
 70
     0
  9
$DIMTIH
 70
     1
  9
$DIMTOH
 70
     1
  9
$DIMSE1
 70
     0
  9
$DIMSE2
 70
     0
  9
$DIMTAD
 70
     1
  9
$DIMZIN
 70
     1
  9
$DIMBLK
  1

  9
$DIMASO
 70
     1
  9
$DIMSHO
 70
     1
  9
$DIMPOST
  1

  9
$DIMAPOST
  1

  9
$DIMALT
 70
     0
  9
$DIMALTD
 70
     3
  9
$DIMALTF
 40
0.0393700787
  9
$DIMLFAC
 40
1.0
  9
$DIMTOFL
 70
     1
  9
$DIMTVP
 40
0.0
  9
$DIMTIX
 70
     0
  9
$DIMSOXD
 70
     0
  9
$DIMSAH
 70
     0
  9
$DIMBLK1
  1

  9
$DIMBLK2
  1

  9
$DIMSTYLE
  2
ISO-25
  9
$DIMCLRD
 70
     0
  9
$DIMCLRE
 70
     0
  9
$DIMCLRT
 70
     0
  9
$DIMTFAC
 40
1.0
  9
$DIMGAP
 40
1.524
  9
$DIMJUST
 70
     0
  9
$DIMSD1
 70
     0
  9
$DIMSD2
 70
     0
  9
$DIMTOLJ
 70
     0
  9
$DIMTZIN
 70
     1
  9
$DIMALTZ
 70
     0
  9
$DIMALTTZ
 70
     0
  9
$DIMUPT
 70
     0
  9
$DIMDEC
 70
     4
  9
$DIMTDEC
 70
     4
  9
$DIMALTU
 70
     2
  9
$DIMALTTD
 70
     3
  9
$DIMTXSTY
  7
Standard
  9
$DIMAUNIT
 70
     0
  9
$DIMADEC
 70
     0
  9
$DIMALTRND
 40
0.0
  9
$DIMAZIN
 70
     0
  9
$DIMDSEP
 70
    44
  9
$DIMATFIT
 70
     3
  9
$DIMFRAC
 70
     0
  9
$DIMLDRBLK
  1

  9
$DIMLUNIT
 70
     2
  9
$DIMLWD
 70
    -2
  9
$DIMLWE
 70
    -2
  9
$DIMTMOVE
 70
     0
  9
$LUNITS
 70
     2
  9
$LUPREC
 70
     4
  9
$SKETCHINC
 40
1.0
  9
$FILLETRAD
 40
10.0
  9
$AUNITS
 70
     0
  9
$AUPREC
 70
     0
  9
$MENU
  1
.
  9
$ELEVATION
 40
0.0
  9
$PELEVATION
 40
0.0
  9
$THICKNESS
 40
0.0
  9
$LIMCHECK
 70
     0
  9
$CHAMFERA
 40
0.0
  9
$CHAMFERB
 40
0.0
  9
$CHAMFERC
 40
0.0
  9
$CHAMFERD
 40
0.0
  9
$SKPOLY
 70
     0
  9
$TDCREATE
 40
2458290.476291863
  9
$TDUCREATE
 40
2458290.101291863
  9
$TDUPDATE
 40
2458290.476304942
  9
$TDUUPDATE
 40
2458290.101304942
  9
$TDINDWG
 40
0.0000000116
  9
$TDUSRTIMER
 40
0.0000000116
  9
$USRTIMER
 70
     1
  9
$ANGBASE
 50
0.0
  9
$ANGDIR
 70
     0
  9
$PDMODE
 70
     0
  9
$PDSIZE
 40
-1.0
  9
$PLINEWID
 40
0.0
  9
$SPLFRAME
 70
     0
  9
$SPLINETYPE
 70
     6
  9
$SPLINESEGS
 70
     8
  9
$HANDSEED
  5
2D2
  9
$SURFTAB1
 70
     6
  9
$SURFTAB2
 70
     6
  9
$SURFTYPE
 70
     6
  9
$SURFU
 70
     6
  9
$SURFV
 70
     6
  9
$UCSBASE
  2

  9
$UCSNAME
  2

  9
$UCSORG
 10
0.0
 20
0.0
 30
0.0
  9
$UCSXDIR
 10
1.0
 20
0.0
 30
0.0
  9
$UCSYDIR
 10
0.0
 20
1.0
 30
0.0
  9
$UCSORTHOREF
  2

  9
$UCSORTHOVIEW
 70
     0
  9
$UCSORGTOP
 10
0.0
 20
0.0
 30
0.0
  9
$UCSORGBOTTOM
 10
0.0
 20
0.0
 30
0.0
  9
$UCSORGLEFT
 10
0.0
 20
0.0
 30
0.0
  9
$UCSORGRIGHT
 10
0.0
 20
0.0
 30
0.0
  9
$UCSORGFRONT
 10
0.0
 20
0.0
 30
0.0
  9
$UCSORGBACK
 10
0.0
 20
0.0
 30
0.0
  9
$PUCSBASE
  2

  9
$PUCSNAME
  2

  9
$PUCSORG
 10
0.0
 20
0.0
 30
0.0
  9
$PUCSXDIR
 10
1.0
 20
0.0
 30
0.0
  9
$PUCSYDIR
 10
0.0
 20
1.0
 30
0.0
  9
$PUCSORTHOREF
  2

  9
$PUCSORTHOVIEW
 70
     0
  9
$PUCSORGTOP
 10
0.0
 20
0.0
 30
0.0
  9
$PUCSORGBOTTOM
 10
0.0
 20
0.0
 30
0.0
  9
$PUCSORGLEFT
 10
0.0
 20
0.0
 30
0.0
  9
$PUCSORGRIGHT
 10
0.0
 20
0.0
 30
0.0
  9
$PUCSORGFRONT
 10
0.0
 20
0.0
 30
0.0
  9
$PUCSORGBACK
 10
0.0
 20
0.0
 30
0.0
  9
$USERI1
 70
     0
  9
$USERI2
 70
     0
  9
$USERI3
 70
     0
  9
$USERI4
 70
     0
  9
$USERI5
 70
     0
  9
$USERR1
 40
0.0
  9
$USERR2
 40
0.0
  9
$USERR3
 40
0.0
  9
$USERR4
 40
0.0
  9
$USERR5
 40
0.0
  9
$WORLDVIEW
 70
     1
  9
$SHADEDGE
 70
     3
  9
$SHADEDIF
 70
    70
  9
$TILEMODE
 70
     0
  9
$MAXACTVP
 70
    64
  9
$PINSBASE
 10
0.0
 20
0.0
 30
0.0
  9
$PLIMCHECK
 70
     0
  9
$PEXTMIN
 10
0.0
 20
0.0
 30
0.0
  9
$PEXTMAX
 10
594.0
 20
420.0
 30
0.0
  9
$PLIMMIN
 10
0.0
 20
0.0
  9
$PLIMMAX
 10
594.0
 20
420.0
  9
$UNITMODE
 70
     0
  9
$VISRETAIN
 70
     1
  9
$PLINEGEN
 70
     0
  9
$PSLTSCALE
 70
     1
  9
$TREEDEPTH
 70
  3020
  9
$CMLSTYLE
  2
Standard
  9
$CMLJUST
 70
     0
  9
$CMLSCALE
 40
20.0
  9
$PROXYGRAPHICS
 70
     1
  9
$MEASUREMENT
 70
     1
  9
$CELWEIGHT
370
    -1
  9
$ENDCAPS
280
     0
  9
$JOINSTYLE
280
     0
  9
$LWDISPLAY
290
     1
  9
$INSUNITS
 70
     4
  9
$HYPERLINKBASE
  1

  9
$STYLESHEET
  1

  9
$XEDIT
290
     1
  9
$CEPSNTYPE
380
     0
  9
$PSTYLEMODE
290
     1
  9
$FINGERPRINTGUID
  2
{00B07DBB-7CE3-4C3E-B7E2-4433C799E1FF}
  9
$VERSIONGUID
  2
{FAEB1C32-E019-11D5-929B-00C0DF256EC4}
  9
$EXTNAMES
290
     1
  9
$PSVPSCALE
 40
0.0
  9
$OLESTARTUP
290
     0
  0
ENDSEC
  0
SECTION
  2
CLASSES
  0
CLASS
  1
ACDBDICTIONARYWDFLT
  2
AcDbDictionaryWithDefault
  3
ObjectDBX Classes
 90
        0
280
     0
281
     0
  0
CLASS
  1
VISUALSTYLE
  2
AcDbVisualStyle
  3
ObjectDBX Classes
 90
     4095
280
     0
281
     0
  0
CLASS
  1
MATERIAL
  2
AcDbMaterial
  3
ObjectDBX Classes
 90
     1153
280
     0
281
     0
  0
CLASS
  1
SCALE
  2
AcDbScale
  3
ObjectDBX Classes
 90
     1153
280
     0
281
     0
  0
CLASS
  1
TABLESTYLE
  2
AcDbTableStyle
  3
ObjectDBX Classes
 90
     4095
280
     0
281
     0
  0
CLASS
  1
MLEADERSTYLE
  2
AcDbMLeaderStyle
  3
ACDB_MLEADERSTYLE_CLASS
 90
     4095
280
     0
281
     0
  0
CLASS
  1
SUN
  2
AcDbSun
  3
SCENEOE
 90
     1153
280
     0
281
     0
  0
CLASS
  1
ACDBPLACEHOLDER
  2
AcDbPlaceHolder
  3
ObjectDBX Classes
 90
        0
280
     0
281
     0
  0
CLASS
  1
LAYOUT
  2
AcDbLayout
  3
ObjectDBX Classes
 90
        0
280
     0
281
     0
  0
ENDSEC
  0
SECTION
  2
TABLES
  0
TABLE
  2
VPORT
  5
8
330
0
100
AcDbSymbolTable
 70
     1
  0
VPORT
  5
29
330
8
100
AcDbSymbolTableRecord
100
AcDbViewportTableRecord
  2
*Active
 70
     0
 10
0.0
 20
0.0
 11
1.0
 21
1.0
 12
297.0
 22
210.0
 13
0.0
 23
0.0
 14
10.0
 24
10.0
 15
10.0
 25
10.0
 16
0.0
 26
0.0
 36
1.0
 17
0.0
 27
0.0
 37
0.0
 40
420.0
 41
1.4142857143
 42
50.0
 43
0.0
 44
0.0
 50
0.0
 51
0.0
 71
     0
 72
  2000
 73
     1
 74
     3
 75
     0
 76
     0
 77
     0
 78
     0
281
     0
 65
     1
110
0.0
120
0.0
130
0.0
111
1.0
121
0.0
131
0.0
112
0.0
122
1.0
132
0.0
 79
     0
146
0.0
  0
ENDTAB
  0
TABLE
  2
LTYPE
  5
5
330
0
100
AcDbSymbolTable
 70
     6
  0
LTYPE
  5
14
330
5
100
AcDbSymbolTableRecord
100
AcDbLinetypeTableRecord
  2
ByBlock
 70
     0
  3

 72
    65
 73
     0
 40
0.0
  0
LTYPE
  5
15
330
5
100
AcDbSymbolTableRecord
100
AcDbLinetypeTableRecord
  2
ByLayer
 70
     0
  3

 72
    65
 73
     0
 40
0.0
  0
LTYPE
  5
16
330
5
100
AcDbSymbolTableRecord
100
AcDbLinetypeTableRecord
  2
Continuous
 70
     0
  3
Solid line
 72
    65
 73
     0
 40
0.0
  0
LTYPE
  5
6E
330
5
100
AcDbSymbolTableRecord
100
AcDbLinetypeTableRecord
  2
HIDDEN
 70
     0
  3
Hidden __ __ __ __ __ __ __ __ __ __ __ __ __ __
 72
    65
 73
     2
 40
1.905
 49
1.27
 74
     0
 49
-0.635
 74
     0
  0
LTYPE
  5
6F
330
5
100
AcDbSymbolTableRecord
100
AcDbLinetypeTableRecord
  2
PHANTOM
 70
     0
  3
Phantom ______  __  __  ______  __  __  ______
 72
    65
 73
     6
 40
12.7
 49
6.35
 74
     0
 49
-1.27
 74
     0
 49
1.27
 74
     0
 49
-1.27
 74
     0
 49
1.27
 74
     0
 49
-1.27
 74
     0
  0
LTYPE
  5
70
330
5
100
AcDbSymbolTableRecord
100
AcDbLinetypeTableRecord
  2
CENTER
 70
     0
  3
Center ____ _ ____ _ ____ _ ____ _ ____ _ ____
 72
    65
 73
     4
 40
10.16
 49
6.35
 74
     0
 49
-1.27
 74
     0
 49
1.27
 74
     0
 49
-1.27
 74
     0
  0
LTYPE
  5
71
330
5
100
AcDbSymbolTableRecord
100
AcDbLinetypeTableRecord
  2
CENTERX2
 70
     0
  3
Center (2x) ________  __  ________  __  _____
 72
    65
 73
     4
 40
20.32
 49
12.7
 74
     0
 49
-2.54
 74
     0
 49
2.54
 74
     0
 49
-2.54
 74
     0
  0
LTYPE
  5
72
330
5
100
AcDbSymbolTableRecord
100
AcDbLinetypeTableRecord
  2
DOT2
 70
     0
  3
Dot (.5x) ........................................
 72
    65
 73
     2
 40
0.635
 49
0.0
 74
     0
 49
-0.635
 74
     0
  0
ENDTAB
  0
TABLE
  2
LAYER
  5
2
330
0
100
AcDbSymbolTable
 70
     5
  0
LAYER
  5
10
330
2
100
AcDbSymbolTableRecord
100
AcDbLayerTableRecord
  2
0
 70
     0
 62
     7
  6
Continuous
370
    -3
390
F
  0
LAYER
  5
73
330
2
100
AcDbSymbolTableRecord
100
AcDbLayerTableRecord
  2
SLD-0
 70
     0
 62
     7
  6
Continuous
370
    -3
390
F
  0
LAYER
  5
74
330
2
100
AcDbSymbolTableRecord
100
AcDbLayerTableRecord
  2
1
 70
     0
 62
     7
  6
Continuous
370
    -3
390
F
  0
LAYER
  5
75
330
2
100
AcDbSymbolTableRecord
100
AcDbLayerTableRecord
  2
2
 70
     0
 62
     7
  6
Continuous
370
    -3
390
F
  0
LAYER
  5
76
330
2
100
AcDbSymbolTableRecord
100
AcDbLayerTableRecord
  2
SLD-DEFPOINTS
 70
     0
 62
     7
  6
Continuous
290
     0
370
    -3
390
F
  0
ENDTAB
  0
TABLE
  2
STYLE
  5
3
330
0
100
AcDbSymbolTable
 70
    13
  0
STYLE
  5
11
330
3
100
AcDbSymbolTableRecord
100
AcDbTextStyleTableRecord
  2
Standard
 70
     0
 40
0.0
 41
1.0
 50
0.0
 71
     0
 42
3.5
  3
txt
  4
bigfont
  0
STYLE
  5
161
330
3
100
AcDbSymbolTableRecord
100
AcDbTextStyleTableRecord
  2
SLDTEXTSTYLE0
 70
     0
 40
0.0
 41
1.0
 50
0.0
 71
     0
 42
3.5
  3
TXT
  4
bigfont
  0
STYLE
  5
172
330
3
100
AcDbSymbolTableRecord
100
AcDbTextStyleTableRecord
  2
SLDTEXTSTYLE1
 70
     0
 40
0.0
 41
0.96
 50
0.0
 71
     0
 42
3.5
  3
TXT
  4
bigfont
  0
STYLE
  5
2A4
330
3
100
AcDbSymbolTableRecord
100
AcDbTextStyleTableRecord
  2
SLDTEXTSTYLE2
 70
     0
 40
0.0
 41
1.0000000334
 50
0.0
 71
     0
 42
3.5
  3
TXT
  4
bigfont
  0
STYLE
  5
2A6
330
3
100
AcDbSymbolTableRecord
100
AcDbTextStyleTableRecord
  2
SLDTEXTSTYLE3
 70
     0
 40
0.0
 41
1.0000000754
 50
0.0
 71
     0
 42
3.5
  3
TXT
  4
bigfont
  0
STYLE
  5
2A8
330
3
100
AcDbSymbolTableRecord
100
AcDbTextStyleTableRecord
  2
SLDTEXTSTYLE4
 70
     0
 40
0.0
 41
0.7000000113
 50
0.0
 71
     0
 42
3.5
  3
TXT
  4
bigfont
  0
STYLE
  5
2AB
330
3
100
AcDbSymbolTableRecord
100
AcDbTextStyleTableRecord
  2
SLDTEXTSTYLE5
 70
     0
 40
0.0
 41
1.0000000141
 50
0.0
 71
     0
 42
3.5
  3
TXT
  4
bigfont
  0
STYLE
  5
2AD
330
3
100
AcDbSymbolTableRecord
100
AcDbTextStyleTableRecord
  2
SLDTEXTSTYLE6
 70
     0
 40
0.0
 41
0.6999999936
 50
0.0
 71
     0
 42
3.5
  3
TXT
  4
bigfont
  0
STYLE
  5
2AF
330
3
100
AcDbSymbolTableRecord
100
AcDbTextStyleTableRecord
  2
SLDTEXTSTYLE7
 70
     0
 40
0.0
 41
0.7000000287
 50
0.0
 71
     0
 42
3.5
  3
TXT
  4
bigfont
  0
STYLE
  5
2C8
330
3
100
AcDbSymbolTableRecord
100
AcDbTextStyleTableRecord
  2
SLDTEXTSTYLE8
 70
     0
 40
0.0
 41
0.999999988
 50
0.0
 71
     0
 42
3.5
  3
TXT
  4
bigfont
  0
STYLE
  5
2CB
330
3
100
AcDbSymbolTableRecord
100
AcDbTextStyleTableRecord
  2
SLDTEXTSTYLE9
 70
     0
 40
0.0
 41
0.5942489394
 50
0.0
 71
     0
 42
3.5
  3
TXT
  4
bigfont
  0
STYLE
  5
2CD
330
3
100
AcDbSymbolTableRecord
100
AcDbTextStyleTableRecord
  2
SLDTEXTSTYLE10
 70
     0
 40
0.0
 41
0.6303308571
 50
0.0
 71
     0
 42
3.5
  3
TXT
  4
bigfont
  0
STYLE
  5
2D0
330
3
100
AcDbSymbolTableRecord
100
AcDbTextStyleTableRecord
  2
SLDTEXTSTYLE11
 70
     0
 40
0.0
 41
0.3054298643
 50
0.0
 71
     0
 42
3.5
  3
TXT
  4
bigfont
  0
ENDTAB
  0
TABLE
  2
VIEW
  5
6
330
0
100
AcDbSymbolTable
 70
     0
  0
ENDTAB
  0
TABLE
  2
UCS
  5
7
330
0
100
AcDbSymbolTable
 70
     0
  0
ENDTAB
  0
TABLE
  2
APPID
  5
9
330
0
100
AcDbSymbolTable
 70
     1
  0
APPID
  5
12
330
9
100
AcDbSymbolTableRecord
100
AcDbRegAppTableRecord
  2
ACAD
 70
     0
  0
ENDTAB
  0
TABLE
  2
DIMSTYLE
  5
A
330
0
100
AcDbSymbolTable
 70
     3
100
AcDbDimStyleTable
  0
DIMSTYLE
105
27
330
A
100
AcDbSymbolTableRecord
100
AcDbDimStyleTableRecord
  2
ISO-25
 70
     0
 41
2.5
 42
0.625
 43
3.75
 44
1.25
 73
     0
 74
     0
 77
     1
 78
     8
140
2.5
141
2.5
143
0.0393700787
147
0.625
171
     3
172
     1
178
     0
271
     2
272
     2
274
     3
278
    44
283
     0
284
     8
340
11
  0
DIMSTYLE
105
162
102
{ACAD_REACTORS
330
160
330
174
330
1B0
330
1BE
330
1CC
330
1DA
330
1F7
330
205
330
213
330
221
330
22F
330
240
330
24E
330
25C
330
26A
330
288
330
296
102
}
330
A
100
AcDbSymbolTableRecord
100
AcDbDimStyleTableRecord
  2
SLDDIMSTYLE0
 70
     0
 41
3.302
 44
0.0
 45
0.000000001
 73
     0
 74
     0
 77
     1
 78
    12
 79
     3
140
2.9104166031
147
0.7276041508
173
     1
178
     0
271
     0
276
     2
284
    12
340
161
341
163
343
163
344
163
  0
DIMSTYLE
105
183
102
{ACAD_REACTORS
330
182
330
192
330
1A1
330
1E8
330
278
102
}
330
A
100
AcDbSymbolTableRecord
100
AcDbDimStyleTableRecord
  2
SLDDIMSTYLE1
 70
     0
 41
3.302
 44
0.0
 45
0.000000001
 73
     0
 74
     0
 77
     1
 78
     4
 79
     1
140
2.9104166031
147
0.7276041508
173
     1
178
     0
276
     2
284
    12
340
161
341
163
343
163
344
163
  0
ENDTAB
  0
TABLE
  2
BLOCK_RECORD
  5
1
330
0
100
AcDbSymbolTable
 70
    26
  0
BLOCK_RECORD
  5
1F
330
1
100
AcDbSymbolTableRecord
100
AcDbBlockTableRecord
  2
*Model_Space
340
22
  0
BLOCK_RECORD
  5
1B
330
1
100
AcDbSymbolTableRecord
100
AcDbBlockTableRecord
  2
*Paper_Space
340
1E
  0
BLOCK_RECORD
  5
77
330
1
100
AcDbSymbolTableRecord
100
AcDbBlockTableRecord
  2
KOZU0009
340
0
102
{BLKREFS
331
15F
102
}
  0
BLOCK_RECORD
  5
82
330
1
100
AcDbSymbolTableRecord
100
AcDbBlockTableRecord
  2
KOZU0010
340
0
102
{BLKREFS
331
15E
102
}
  0
BLOCK_RECORD
  5
163
330
1
100
AcDbSymbolTableRecord
100
AcDbBlockTableRecord
  2
_NONE
340
0
  0
BLOCK_RECORD
  5
166
330
1
100
AcDbSymbolTableRecord
100
AcDbBlockTableRecord
  2
_D
340
0
  0
BLOCK_RECORD
  5
175
330
1
100
AcDbSymbolTableRecord
100
AcDbBlockTableRecord
  2
_D_1
340
0
  0
BLOCK_RECORD
  5
184
330
1
100
AcDbSymbolTableRecord
100
AcDbBlockTableRecord
  2
_D_2
340
0
  0
BLOCK_RECORD
  5
193
330
1
100
AcDbSymbolTableRecord
100
AcDbBlockTableRecord
  2
_D_3
340
0
  0
BLOCK_RECORD
  5
1A2
330
1
100
AcDbSymbolTableRecord
100
AcDbBlockTableRecord
  2
_D_4
340
0
  0
BLOCK_RECORD
  5
1B1
330
1
100
AcDbSymbolTableRecord
100
AcDbBlockTableRecord
  2
_D_5
340
0
  0
BLOCK_RECORD
  5
1BF
330
1
100
AcDbSymbolTableRecord
100
AcDbBlockTableRecord
  2
_D_6
340
0
  0
BLOCK_RECORD
  5
1CD
330
1
100
AcDbSymbolTableRecord
100
AcDbBlockTableRecord
  2
_D_7
340
0
  0
BLOCK_RECORD
  5
1DB
330
1
100
AcDbSymbolTableRecord
100
AcDbBlockTableRecord
  2
_D_8
340
0
  0
BLOCK_RECORD
  5
1E9
330
1
100
AcDbSymbolTableRecord
100
AcDbBlockTableRecord
  2
_D_9
340
0
  0
BLOCK_RECORD
  5
1F8
330
1
100
AcDbSymbolTableRecord
100
AcDbBlockTableRecord
  2
_D_10
340
0
  0
BLOCK_RECORD
  5
206
330
1
100
AcDbSymbolTableRecord
100
AcDbBlockTableRecord
  2
_D_11
340
0
  0
BLOCK_RECORD
  5
214
330
1
100
AcDbSymbolTableRecord
100
AcDbBlockTableRecord
  2
_D_12
340
0
  0
BLOCK_RECORD
  5
222
330
1
100
AcDbSymbolTableRecord
100
AcDbBlockTableRecord
  2
_D_13
340
0
  0
BLOCK_RECORD
  5
230
330
1
100
AcDbSymbolTableRecord
100
AcDbBlockTableRecord
  2
_D_14
340
0
  0
BLOCK_RECORD
  5
241
330
1
100
AcDbSymbolTableRecord
100
AcDbBlockTableRecord
  2
_D_15
340
0
  0
BLOCK_RECORD
  5
24F
330
1
100
AcDbSymbolTableRecord
100
AcDbBlockTableRecord
  2
_D_16
340
0
  0
BLOCK_RECORD
  5
25D
330
1
100
AcDbSymbolTableRecord
100
AcDbBlockTableRecord
  2
_D_17
340
0
  0
BLOCK_RECORD
  5
26B
330
1
100
AcDbSymbolTableRecord
100
AcDbBlockTableRecord
  2
_D_18
340
0
  0
BLOCK_RECORD
  5
279
330
1
100
AcDbSymbolTableRecord
100
AcDbBlockTableRecord
  2
_D_19
340
0
  0
BLOCK_RECORD
  5
289
330
1
100
AcDbSymbolTableRecord
100
AcDbBlockTableRecord
  2
_D_20
340
0
  0
BLOCK_RECORD
  5
297
330
1
100
AcDbSymbolTableRecord
100
AcDbBlockTableRecord
  2
_D_21
340
0
  0
ENDTAB
  0
ENDSEC
  0
SECTION
  2
BLOCKS
  0
BLOCK
  5
20
330
1F
100
AcDbEntity
  8
0
100
AcDbBlockBegin
  2
*Model_Space
 70
     0
 10
0.0
 20
0.0
 30
0.0
  3
*Model_Space
  1

  0
ENDBLK
  5
21
330
1F
100
AcDbEntity
  8
0
100
AcDbBlockEnd
  0
BLOCK
  5
1C
330
1B
100
AcDbEntity
 67
     1
  8
0
100
AcDbBlockBegin
  2
*Paper_Space
 70
     0
 10
0.0
 20
0.0
 30
0.0
  3
*Paper_Space
  1

  0
ENDBLK
  5
1D
330
1B
100
AcDbEntity
 67
     1
  8
0
100
AcDbBlockEnd
  0
BLOCK
  5
78
330
77
100
AcDbEntity
  8
0
100
AcDbBlockBegin
  2
KOZU0009
 70
     0
 10
0.0
 20
0.0
 30
0.0
  3
KOZU0009
  1

  0
LINE
  5
7A
330
77
100
AcDbEntity
  8
SLD-0
  6
Continuous
 62
     7
100
AcDbLine
 10
0.0
 20
0.0
 30
0.0
 11
0.0
 21
1.0
 31
0.0
  0
LINE
  5
7B
330
77
100
AcDbEntity
  8
SLD-0
  6
Continuous
 62
     7
100
AcDbLine
 10
0.0
 20
0.0
 30
0.0
 11
-1.0
 21
0.0
 31
0.0
  0
LINE
  5
7C
330
77
100
AcDbEntity
  8
SLD-0
  6
Continuous
 62
     7
100
AcDbLine
 10
0.0
 20
0.0
 30
0.0
 11
0.0
 21
-1.0
 31
0.0
  0
LINE
  5
7D
330
77
100
AcDbEntity
  8
SLD-0
  6
Continuous
 62
     7
100
AcDbLine
 10
0.0
 20
0.0
 30
0.0
 11
1.0
 21
0.0
 31
0.0
  0
LINE
  5
7E
330
77
100
AcDbEntity
  8
SLD-0
  6
Continuous
 62
     7
100
AcDbLine
 10
0.0
 20
2.0
 30
0.0
 11
0.0
 21
6.0
 31
0.0
  0
LINE
  5
7F
330
77
100
AcDbEntity
  8
SLD-0
  6
Continuous
 62
     7
100
AcDbLine
 10
-2.0
 20
0.0
 30
0.0
 11
-6.0
 21
0.0
 31
0.0
  0
LINE
  5
80
330
77
100
AcDbEntity
  8
SLD-0
  6
Continuous
 62
     7
100
AcDbLine
 10
0.0
 20
-2.0
 30
0.0
 11
0.0
 21
-6.0
 31
0.0
  0
LINE
  5
81
330
77
100
AcDbEntity
  8
SLD-0
  6
Continuous
 62
     7
100
AcDbLine
 10
2.0
 20
0.0
 30
0.0
 11
6.0
 21
0.0
 31
0.0
  0
ENDBLK
  5
79
330
77
100
AcDbEntity
  8
0
100
AcDbBlockEnd
  0
BLOCK
  5
83
330
82
100
AcDbEntity
  8
0
100
AcDbBlockBegin
  2
KOZU0010
 70
     0
 10
0.0
 20
0.0
 30
0.0
  3
KOZU0010
  1

  0
LINE
  5
85
330
82
100
AcDbEntity
  8
SLD-0
  6
Continuous
 62
     7
100
AcDbLine
 10
0.0
 20
0.0
 30
0.0
 11
0.0
 21
1.0
 31
0.0
  0
LINE
  5
86
330
82
100
AcDbEntity
  8
SLD-0
  6
Continuous
 62
     7
100
AcDbLine
 10
0.0
 20
0.0
 30
0.0
 11
-1.0
 21
0.0
 31
0.0
  0
LINE
  5
87
330
82
100
AcDbEntity
  8
SLD-0
  6
Continuous
 62
     7
100
AcDbLine
 10
0.0
 20
0.0
 30
0.0
 11
0.0
 21
-1.0
 31
0.0
  0
LINE
  5
88
330
82
100
AcDbEntity
  8
SLD-0
  6
Continuous
 62
     7
100
AcDbLine
 10
0.0
 20
0.0
 30
0.0
 11
1.0
 21
0.0
 31
0.0
  0
LINE
  5
89
330
82
100
AcDbEntity
  8
SLD-0
  6
Continuous
 62
     7
100
AcDbLine
 10
0.0
 20
2.0
 30
0.0
 11
0.0
 21
6.0
 31
0.0
  0
LINE
  5
8A
330
82
100
AcDbEntity
  8
SLD-0
  6
Continuous
 62
     7
100
AcDbLine
 10
-2.0
 20
0.0
 30
0.0
 11
-6.0
 21
0.0
 31
0.0
  0
LINE
  5
8B
330
82
100
AcDbEntity
  8
SLD-0
  6
Continuous
 62
     7
100
AcDbLine
 10
0.0
 20
-2.0
 30
0.0
 11
0.0
 21
-6.0
 31
0.0
  0
LINE
  5
8C
330
82
100
AcDbEntity
  8
SLD-0
  6
Continuous
 62
     7
100
AcDbLine
 10
2.0
 20
0.0
 30
0.0
 11
6.0
 21
0.0
 31
0.0
  0
ENDBLK
  5
84
330
82
100
AcDbEntity
  8
0
100
AcDbBlockEnd
  0
BLOCK
  5
164
330
163
100
AcDbEntity
  8
0
100
AcDbBlockBegin
  2
_NONE
 70
     0
 10
0.0
 20
0.0
 30
0.0
  3
_NONE
  1

  0
ENDBLK
  5
165
330
163
100
AcDbEntity
  8
0
100
AcDbBlockEnd
  0
BLOCK
  5
167
330
166
100
AcDbEntity
  8
0
100
AcDbBlockBegin
  2
_D
 70
     0
 10
0.0
 20
0.0
 30
0.0
  3
_D
  1

  0
LINE
  5
169
330
166
100
AcDbEntity
  8
SLD-0
 62
     7
100
AcDbLine
 10
454.1800104226
 20
124.7677675922
 30
0.0
 11
60.1800103324
 21
124.7677675922
 31
0.0
  0
LINE
  5
16A
330
166
100
AcDbEntity
  8
SLD-0
 62
     7
100
AcDbLine
 10
457.1800103775
 20
124.7677675922
 30
0.0
 11
454.1800104226
 21
123.7677676072
 31
0.0
  0
LINE
  5
16B
330
166
100
AcDbEntity
  8
SLD-0
 62
     7
100
AcDbLine
 10
457.1800103775
 20
124.7677675922
 30
0.0
 11
454.1800104226
 21
125.7677675772
 31
0.0
  0
LINE
  5
16C
330
166
100
AcDbEntity
  8
SLD-0
 62
     7
100
AcDbLine
 10
457.1800103775
 20
124.7677675922
 30
0.0
 11
454.1800104226
 21
124.7677675922
 31
0.0
  0
LINE
  5
16D
330
166
100
AcDbEntity
  8
SLD-0
 62
     7
100
AcDbLine
 10
57.1800103775
 20
124.7677675922
 30
0.0
 11
60.1800103324
 21
125.7677675772
 31
0.0
  0
LINE
  5
16E
330
166
100
AcDbEntity
  8
SLD-0
 62
     7
100
AcDbLine
 10
57.1800103775
 20
124.7677675922
 30
0.0
 11
60.1800103324
 21
123.7677676072
 31
0.0
  0
LINE
  5
16F
330
166
100
AcDbEntity
  8
SLD-0
 62
     7
100
AcDbLine
 10
57.1800103775
 20
124.7677675922
 30
0.0
 11
60.1800103324
 21
124.7677675922
 31
0.0
  0
LINE
  5
170
330
166
100
AcDbEntity
  8
SLD-0
 62
     7
100
AcDbLine
 10
457.1800103775
 20
171.2677676147
 30
0.0
 11
457.1800103775
 21
123.2677675922
 31
0.0
  0
LINE
  5
171
330
166
100
AcDbEntity
  8
SLD-0
 62
     7
100
AcDbLine
 10
57.1800103775
 20
171.2677676147
 30
0.0
 11
57.1800103775
 21
123.2677675922
 31
0.0
  0
MTEXT
  5
173
330
166
100
AcDbEntity
  8
SLD-0
 62
     7
100
AcDbMText
 10
253.2300295225
 20
128.1876203824
 30
0.0
 40
2.9104166031
 41
0.0
 71
     1
 72
     1
  1
400
  7
SLDTEXTSTYLE1
 73
     1
 44
1.0
  0
ENDBLK
  5
168
330
166
100
AcDbEntity
  8
0
100
AcDbBlockEnd
  0
BLOCK
  5
176
330
175
100
AcDbEntity
  8
0
100
AcDbBlockBegin
  2
_D_1
 70
     0
 10
0.0
 20
0.0
 30
0.0
  3
_D_1
  1

  0
LINE
  5
178
330
175
100
AcDbEntity
  8
SLD-0
 62
     7
100
AcDbLine
 10
70.1800103324
 20
139.1892349688
 30
0.0
 11
444.1800104226
 21
139.1892349688
 31
0.0
  0
LINE
  5
179
330
175
100
AcDbEntity
  8
SLD-0
 62
     7
100
AcDbLine
 10
67.1800103775
 20
139.1892349688
 30
0.0
 11
70.1800103324
 21
140.1892349538
 31
0.0
  0
LINE
  5
17A
330
175
100
AcDbEntity
  8
SLD-0
 62
     7
100
AcDbLine
 10
67.1800103775
 20
139.1892349688
 30
0.0
 11
70.1800103324
 21
138.1892349838
 31
0.0
  0
LINE
  5
17B
330
175
100
AcDbEntity
  8
SLD-0
 62
     7
100
AcDbLine
 10
67.1800103775
 20
139.1892349688
 30
0.0
 11
70.1800103324
 21
139.1892349688
 31
0.0
  0
LINE
  5
17C
330
175
100
AcDbEntity
  8
SLD-0
 62
     7
100
AcDbLine
 10
447.1800103775
 20
139.1892349688
 30
0.0
 11
444.1800104226
 21
138.1892349838
 31
0.0
  0
LINE
  5
17D
330
175
100
AcDbEntity
  8
SLD-0
 62
     7
100
AcDbLine
 10
447.1800103775
 20
139.1892349688
 30
0.0
 11
444.1800104226
 21
140.1892349538
 31
0.0
  0
LINE
  5
17E
330
175
100
AcDbEntity
  8
SLD-0
 62
     7
100
AcDbLine
 10
447.1800103775
 20
139.1892349688
 30
0.0
 11
444.1800104226
 21
139.1892349688
 31
0.0
  0
LINE
  5
17F
330
175
100
AcDbEntity
  8
SLD-0
 62
     7
100
AcDbLine
 10
67.1800103775
 20
171.2677676147
 30
0.0
 11
67.1800103775
 21
137.6892349688
 31
0.0
  0
LINE
  5
180
330
175
100
AcDbEntity
  8
SLD-0
 62
     7
100
AcDbLine
 10
447.1800103775
 20
171.2677676147
 30
0.0
 11
447.1800103775
 21
137.6892349688
 31
0.0
  0
MTEXT
  5
181
330
175
100
AcDbEntity
  8
SLD-0
 62
     7
100
AcDbMText
 10
253.2300295225
 20
142.609087759
 30
0.0
 40
2.9104166031
 41
0.0
 71
     1
 72
     1
  1
380
  7
SLDTEXTSTYLE1
 73
     1
 44
1.0
  0
ENDBLK
  5
177
330
175
100
AcDbEntity
  8
0
100
AcDbBlockEnd
  0
BLOCK
  5
185
330
184
100
AcDbEntity
  8
0
100
AcDbBlockBegin
  2
_D_2
 70
     0
 10
0.0
 20
0.0
 30
0.0
  3
_D_2
  1

  0
LINE
  5
187
330
184
100
AcDbEntity
  8
SLD-0
 62
     7
100
AcDbLine
 10
450.1800103324
 20
139.1892349688
 30
0.0
 11
454.1800104226
 21
139.1892349688
 31
0.0
  0
LINE
  5
188
330
184
100
AcDbEntity
  8
SLD-0
 62
     7
100
AcDbLine
 10
447.1800103775
 20
139.1892349688
 30
0.0
 11
450.1800103324
 21
140.1892349538
 31
0.0
  0
LINE
  5
189
330
184
100
AcDbEntity
  8
SLD-0
 62
     7
100
AcDbLine
 10
447.1800103775
 20
139.1892349688
 30
0.0
 11
450.1800103324
 21
138.1892349838
 31
0.0
  0
LINE
  5
18A
330
184
100
AcDbEntity
  8
SLD-0
 62
     7
100
AcDbLine
 10
447.1800103775
 20
139.1892349688
 30
0.0
 11
450.1800103324
 21
139.1892349688
 31
0.0
  0
LINE
  5
18B
330
184
100
AcDbEntity
  8
SLD-0
 62
     7
100
AcDbLine
 10
457.1800103775
 20
139.1892349688
 30
0.0
 11
454.1800104226
 21
138.1892349838
 31
0.0
  0
LINE
  5
18C
330
184
100
AcDbEntity
  8
SLD-0
 62
     7
100
AcDbLine
 10
457.1800103775
 20
139.1892349688
 30
0.0
 11
454.1800104226
 21
140.1892349538
 31
0.0
  0
LINE
  5
18D
330
184
100
AcDbEntity
  8
SLD-0
 62
     7
100
AcDbLine
 10
457.1800103775
 20
139.1892349688
 30
0.0
 11
454.1800104226
 21
139.1892349688
 31
0.0
  0
LINE
  5
18E
330
184
100
AcDbEntity
  8
SLD-0
 62
     7
100
AcDbLine
 10
447.1800103775
 20
171.2677676147
 30
0.0
 11
447.1800103775
 21
137.6892349688
 31
0.0
  0
LINE
  5
18F
330
184
100
AcDbEntity
  8
SLD-0
 62
     7
100
AcDbLine
 10
457.1800103775
 20
171.2677676147
 30
0.0
 11
457.1800103775
 21
137.6892349688
 31
0.0
  0
MTEXT
  5
190
330
184
100
AcDbEntity
  8
SLD-0
 62
     7
100
AcDbMText
 10
448.2300295225
 20
142.609087759
 30
0.0
 40
2.9104166031
 41
0.0
 71
     1
 72
     1
  1
%%c
  7
SLDTEXTSTYLE1
 73
     1
 44
1.0
  0
MTEXT
  5
191
330
184
100
AcDbEntity
  8
SLD-0
 62
     7
100
AcDbMText
 10
452.0855231407
 20
142.609087759
 30
0.0
 40
2.9104166031
 41
0.0
 71
     1
 72
     1
  1
１０
  7
SLDTEXTSTYLE1
 73
     1
 44
1.0
  0
ENDBLK
  5
186
330
184
100
AcDbEntity
  8
0
100
AcDbBlockEnd
  0
BLOCK
  5
194
330
193
100
AcDbEntity
  8
0
100
AcDbBlockBegin
  2
_D_3
 70
     0
 10
0.0
 20
0.0
 30
0.0
  3
_D_3
  1

  0
LINE
  5
196
330
193
100
AcDbEntity
  8
SLD-0
 62
     7
100
AcDbLine
 10
64.1800104226
 20
139.1892349688
 30
0.0
 11
60.1800103324
 21
139.1892349688
 31
0.0
  0
LINE
  5
197
330
193
100
AcDbEntity
  8
SLD-0
 62
     7
100
AcDbLine
 10
67.1800103775
 20
139.1892349688
 30
0.0
 11
64.1800104226
 21
138.1892349838
 31
0.0
  0
LINE
  5
198
330
193
100
AcDbEntity
  8
SLD-0
 62
     7
100
AcDbLine
 10
67.1800103775
 20
139.1892349688
 30
0.0
 11
64.1800104226
 21
140.1892349538
 31
0.0
  0
LINE
  5
199
330
193
100
AcDbEntity
  8
SLD-0
 62
     7
100
AcDbLine
 10
67.1800103775
 20
139.1892349688
 30
0.0
 11
64.1800104226
 21
139.1892349688
 31
0.0
  0
LINE
  5
19A
330
193
100
AcDbEntity
  8
SLD-0
 62
     7
100
AcDbLine
 10
57.1800103775
 20
139.1892349688
 30
0.0
 11
60.1800103324
 21
140.1892349538
 31
0.0
  0
LINE
  5
19B
330
193
100
AcDbEntity
  8
SLD-0
 62
     7
100
AcDbLine
 10
57.1800103775
 20
139.1892349688
 30
0.0
 11
60.1800103324
 21
138.1892349838
 31
0.0
  0
LINE
  5
19C
330
193
100
AcDbEntity
  8
SLD-0
 62
     7
100
AcDbLine
 10
57.1800103775
 20
139.1892349688
 30
0.0
 11
60.1800103324
 21
139.1892349688
 31
0.0
  0
LINE
  5
19D
330
193
100
AcDbEntity
  8
SLD-0
 62
     7
100
AcDbLine
 10
67.1800103775
 20
171.2677676147
 30
0.0
 11
67.1800103775
 21
137.6892349688
 31
0.0
  0
LINE
  5
19E
330
193
100
AcDbEntity
  8
SLD-0
 62
     7
100
AcDbLine
 10
57.1800103775
 20
171.2677676147
 30
0.0
 11
57.1800103775
 21
137.6892349688
 31
0.0
  0
MTEXT
  5
19F
330
193
100
AcDbEntity
  8
SLD-0
 62
     7
100
AcDbMText
 10
58.2300295225
 20
142.609087759
 30
0.0
 40
2.9104166031
 41
0.0
 71
     1
 72
     1
  1
%%c
  7
SLDTEXTSTYLE1
 73
     1
 44
1.0
  0
MTEXT
  5
1A0
330
193
100
AcDbEntity
  8
SLD-0
 62
     7
100
AcDbMText
 10
62.0855231407
 20
142.609087759
 30
0.0
 40
2.9104166031
 41
0.0
 71
     1
 72
     1
  1
１０
  7
SLDTEXTSTYLE1
 73
     1
 44
1.0
  0
ENDBLK
  5
195
330
193
100
AcDbEntity
  8
0
100
AcDbBlockEnd
  0
BLOCK
  5
1A3
330
1A2
100
AcDbEntity
  8
0
100
AcDbBlockBegin
  2
_D_4
 70
     0
 10
0.0
 20
0.0
 30
0.0
  3
_D_4
  1

  0
LINE
  5
1A5
330
1A2
100
AcDbEntity
  8
SLD-0
 62
     7
100
AcDbLine
 10
43.2600103775
 20
159.7677676373
 30
0.0
 11
43.2600103775
 21
155.7677675471
 31
0.0
  0
LINE
  5
1A6
330
1A2
100
AcDbEntity
  8
SLD-0
 62
     7
100
AcDbLine
 10
43.2600103775
 20
162.7677675922
 30
0.0
 11
44.2600103625
 21
159.7677676373
 31
0.0
  0
LINE
  5
1A7
330
1A2
100
AcDbEntity
  8
SLD-0
 62
     7
100
AcDbLine
 10
43.2600103775
 20
162.7677675922
 30
0.0
 11
42.2600103925
 21
159.7677676373
 31
0.0
  0
LINE
  5
1A8
330
1A2
100
AcDbEntity
  8
SLD-0
 62
     7
100
AcDbLine
 10
43.2600103775
 20
162.7677675922
 30
0.0
 11
43.2600103775
 21
159.7677676373
 31
0.0
  0
LINE
  5
1A9
330
1A2
100
AcDbEntity
  8
SLD-0
 62
     7
100
AcDbLine
 10
43.2600103775
 20
152.7677675922
 30
0.0
 11
42.2600103925
 21
155.7677675471
 31
0.0
  0
LINE
  5
1AA
330
1A2
100
AcDbEntity
  8
SLD-0
 62
     7
100
AcDbLine
 10
43.2600103775
 20
152.7677675922
 30
0.0
 11
44.2600103625
 21
155.7677675471
 31
0.0
  0
LINE
  5
1AB
330
1A2
100
AcDbEntity
  8
SLD-0
 62
     7
100
AcDbLine
 10
43.2600103775
 20
152.7677675922
 30
0.0
 11
43.2600103775
 21
155.7677675471
 31
0.0
  0
LINE
  5
1AC
330
1A2
100
AcDbEntity
  8
SLD-0
 62
     7
100
AcDbLine
 10
75.6800104
 20
162.7677675922
 30
0.0
 11
41.7600103775
 21
162.7677675922
 31
0.0
  0
LINE
  5
1AD
330
1A2
100
AcDbEntity
  8
SLD-0
 62
     7
100
AcDbLine
 10
75.6800104
 20
152.7677675922
 30
0.0
 11
41.7600103775
 21
152.7677675922
 31
0.0
  0
MTEXT
  5
1AE
330
1A2
100
AcDbEntity
  8
SLD-0
 62
     7
100
AcDbMText
 10
39.8401575873
 20
153.8177867372
 30
0.0
 40
2.9104166031
 41
0.0
 71
     1
 72
     1
  1
%%c
  7
SLDTEXTSTYLE1
 11
-3.828568698926949E-16
 21
1.0
 31
0.0
 73
     1
 44
1.0
  0
MTEXT
  5
1AF
330
1A2
100
AcDbEntity
  8
SLD-0
 62
     7
100
AcDbMText
 10
39.8401575873
 20
157.6732803554
 30
0.0
 40
2.9104166031
 41
0.0
 71
     1
 72
     1
  1
１０
  7
SLDTEXTSTYLE1
 11
-3.828568698926949E-16
 21
1.0
 31
0.0
 73
     1
 44
1.0
  0
ENDBLK
  5
1A4
330
1A2
100
AcDbEntity
  8
0
100
AcDbBlockEnd
  0
BLOCK
  5
1B2
330
1B1
100
AcDbEntity
  8
0
100
AcDbBlockBegin
  2
_D_5
 70
     0
 10
0.0
 20
0.0
 30
0.0
  3
_D_5
  1

  0
LINE
  5
1B4
330
1B1
100
AcDbEntity
  8
SLD-0
 62
     7
100
AcDbLine
 10
485.1800103775
 20
242.7677676373
 30
0.0
 11
485.1800103775
 21
155.7677675471
 31
0.0
  0
LINE
  5
1B5
330
1B1
100
AcDbEntity
  8
SLD-0
 62
     7
100
AcDbLine
 10
485.1800103775
 20
245.7677675922
 30
0.0
 11
486.1800103625
 21
242.7677676373
 31
0.0
  0
LINE
  5
1B6
330
1B1
100
AcDbEntity
  8
SLD-0
 62
     7
100
AcDbLine
 10
485.1800103775
 20
245.7677675922
 30
0.0
 11
484.1800103925
 21
242.7677676373
 31
0.0
  0
LINE
  5
1B7
330
1B1
100
AcDbEntity
  8
SLD-0
 62
     7
100
AcDbLine
 10
485.1800103775
 20
245.7677675922
 30
0.0
 11
485.1800103775
 21
242.7677676373
 31
0.0
  0
LINE
  5
1B8
330
1B1
100
AcDbEntity
  8
SLD-0
 62
     7
100
AcDbLine
 10
485.1800103775
 20
152.7677675922
 30
0.0
 11
484.1800103925
 21
155.7677675471
 31
0.0
  0
LINE
  5
1B9
330
1B1
100
AcDbEntity
  8
SLD-0
 62
     7
100
AcDbLine
 10
485.1800103775
 20
152.7677675922
 30
0.0
 11
486.1800103625
 21
155.7677675471
 31
0.0
  0
LINE
  5
1BA
330
1B1
100
AcDbEntity
  8
SLD-0
 62
     7
100
AcDbLine
 10
485.1800103775
 20
152.7677675922
 30
0.0
 11
485.1800103775
 21
155.7677675471
 31
0.0
  0
LINE
  5
1BB
330
1B1
100
AcDbEntity
  8
SLD-0
 62
     7
100
AcDbLine
 10
428.180010355
 20
245.7677675922
 30
0.0
 11
486.6800103775
 21
245.7677675922
 31
0.0
  0
LINE
  5
1BC
330
1B1
100
AcDbEntity
  8
SLD-0
 62
     7
100
AcDbLine
 10
438.680010355
 20
152.7677675922
 30
0.0
 11
486.6800103775
 21
152.7677675922
 31
0.0
  0
MTEXT
  5
1BD
330
1B1
100
AcDbEntity
  8
SLD-0
 62
     7
100
AcDbMText
 10
481.7601575873
 20
196.7729949792
 30
0.0
 40
2.9104166031
 41
0.0
 71
     1
 72
     1
  1
93
  7
SLDTEXTSTYLE1
 11
-3.828568698926949E-16
 21
1.0
 31
0.0
 73
     1
 44
1.0
  0
ENDBLK
  5
1B3
330
1B1
100
AcDbEntity
  8
0
100
AcDbBlockEnd
  0
BLOCK
  5
1C0
330
1BF
100
AcDbEntity
  8
0
100
AcDbBlockBegin
  2
_D_6
 70
     0
 10
0.0
 20
0.0
 30
0.0
  3
_D_6
  1

  0
LINE
  5
1C2
330
1BF
100
AcDbEntity
  8
SLD-0
 62
     7
100
AcDbLine
 10
473.1800103775
 20
242.7677676373
 30
0.0
 11
473.1800103775
 21
228.7677675471
 31
0.0
  0
LINE
  5
1C3
330
1BF
100
AcDbEntity
  8
SLD-0
 62
     7
100
AcDbLine
 10
473.1800103775
 20
245.7677675922
 30
0.0
 11
474.1800103625
 21
242.7677676373
 31
0.0
  0
LINE
  5
1C4
330
1BF
100
AcDbEntity
  8
SLD-0
 62
     7
100
AcDbLine
 10
473.1800103775
 20
245.7677675922
 30
0.0
 11
472.1800103925
 21
242.7677676373
 31
0.0
  0
LINE
  5
1C5
330
1BF
100
AcDbEntity
  8
SLD-0
 62
     7
100
AcDbLine
 10
473.1800103775
 20
245.7677675922
 30
0.0
 11
473.1800103775
 21
242.7677676373
 31
0.0
  0
LINE
  5
1C6
330
1BF
100
AcDbEntity
  8
SLD-0
 62
     7
100
AcDbLine
 10
473.1800103775
 20
225.7677675922
 30
0.0
 11
472.1800103925
 21
228.7677675471
 31
0.0
  0
LINE
  5
1C7
330
1BF
100
AcDbEntity
  8
SLD-0
 62
     7
100
AcDbLine
 10
473.1800103775
 20
225.7677675922
 30
0.0
 11
474.1800103625
 21
228.7677675471
 31
0.0
  0
LINE
  5
1C8
330
1BF
100
AcDbEntity
  8
SLD-0
 62
     7
100
AcDbLine
 10
473.1800103775
 20
225.7677675922
 30
0.0
 11
473.1800103775
 21
228.7677675471
 31
0.0
  0
LINE
  5
1C9
330
1BF
100
AcDbEntity
  8
SLD-0
 62
     7
100
AcDbLine
 10
428.180010355
 20
245.7677675922
 30
0.0
 11
474.6800103775
 21
245.7677675922
 31
0.0
  0
LINE
  5
1CA
330
1BF
100
AcDbEntity
  8
SLD-0
 62
     7
100
AcDbLine
 10
428.180010355
 20
225.7677675922
 30
0.0
 11
474.6800103775
 21
225.7677675922
 31
0.0
  0
MTEXT
  5
1CB
330
1BF
100
AcDbEntity
  8
SLD-0
 62
     7
100
AcDbMText
 10
469.7601575873
 20
233.2729949792
 30
0.0
 40
2.9104166031
 41
0.0
 71
     1
 72
     1
  1
20
  7
SLDTEXTSTYLE1
 11
-3.828568698926949E-16
 21
1.0
 31
0.0
 73
     1
 44
1.0
  0
ENDBLK
  5
1C1
330
1BF
100
AcDbEntity
  8
0
100
AcDbBlockEnd
  0
BLOCK
  5
1CE
330
1CD
100
AcDbEntity
  8
0
100
AcDbBlockBegin
  2
_D_7
 70
     0
 10
0.0
 20
0.0
 30
0.0
  3
_D_7
  1

  0
LINE
  5
1D0
330
1CD
100
AcDbEntity
  8
SLD-0
 62
     7
100
AcDbLine
 10
473.1800103775
 20
222.7677676373
 30
0.0
 11
473.1800103775
 21
165.7677675471
 31
0.0
  0
LINE
  5
1D1
330
1CD
100
AcDbEntity
  8
SLD-0
 62
     7
100
AcDbLine
 10
473.1800103775
 20
225.7677675922
 30
0.0
 11
474.1800103625
 21
222.7677676373
 31
0.0
  0
LINE
  5
1D2
330
1CD
100
AcDbEntity
  8
SLD-0
 62
     7
100
AcDbLine
 10
473.1800103775
 20
225.7677675922
 30
0.0
 11
472.1800103925
 21
222.7677676373
 31
0.0
  0
LINE
  5
1D3
330
1CD
100
AcDbEntity
  8
SLD-0
 62
     7
100
AcDbLine
 10
473.1800103775
 20
225.7677675922
 30
0.0
 11
473.1800103775
 21
222.7677676373
 31
0.0
  0
LINE
  5
1D4
330
1CD
100
AcDbEntity
  8
SLD-0
 62
     7
100
AcDbLine
 10
473.1800103775
 20
162.7677675922
 30
0.0
 11
472.1800103925
 21
165.7677675471
 31
0.0
  0
LINE
  5
1D5
330
1CD
100
AcDbEntity
  8
SLD-0
 62
     7
100
AcDbLine
 10
473.1800103775
 20
162.7677675922
 30
0.0
 11
474.1800103625
 21
165.7677675471
 31
0.0
  0
LINE
  5
1D6
330
1CD
100
AcDbEntity
  8
SLD-0
 62
     7
100
AcDbLine
 10
473.1800103775
 20
162.7677675922
 30
0.0
 11
473.1800103775
 21
165.7677675471
 31
0.0
  0
LINE
  5
1D7
330
1CD
100
AcDbEntity
  8
SLD-0
 62
     7
100
AcDbLine
 10
428.180010355
 20
225.7677675922
 30
0.0
 11
474.6800103775
 21
225.7677675922
 31
0.0
  0
LINE
  5
1D8
330
1CD
100
AcDbEntity
  8
SLD-0
 62
     7
100
AcDbLine
 10
438.680010355
 20
162.7677675922
 30
0.0
 11
474.6800103775
 21
162.7677675922
 31
0.0
  0
MTEXT
  5
1D9
330
1CD
100
AcDbEntity
  8
SLD-0
 62
     7
100
AcDbMText
 10
469.7601575873
 20
191.7729949792
 30
0.0
 40
2.9104166031
 41
0.0
 71
     1
 72
     1
  1
63
  7
SLDTEXTSTYLE1
 11
-3.828568698926949E-16
 21
1.0
 31
0.0
 73
     1
 44
1.0
  0
ENDBLK
  5
1CF
330
1CD
100
AcDbEntity
  8
0
100
AcDbBlockEnd
  0
BLOCK
  5
1DC
330
1DB
100
AcDbEntity
  8
0
100
AcDbBlockBegin
  2
_D_8
 70
     0
 10
0.0
 20
0.0
 30
0.0
  3
_D_8
  1

  0
LINE
  5
1DE
330
1DB
100
AcDbEntity
  8
SLD-0
 62
     7
100
AcDbLine
 10
90.1800103324
 20
259.8907365471
 30
0.0
 11
424.1800104226
 21
259.8907365471
 31
0.0
  0
LINE
  5
1DF
330
1DB
100
AcDbEntity
  8
SLD-0
 62
     7
100
AcDbLine
 10
87.1800103775
 20
259.8907365471
 30
0.0
 11
90.1800103324
 21
260.8907365321
 31
0.0
  0
LINE
  5
1E0
330
1DB
100
AcDbEntity
  8
SLD-0
 62
     7
100
AcDbLine
 10
87.1800103775
 20
259.8907365471
 30
0.0
 11
90.1800103324
 21
258.8907365621
 31
0.0
  0
LINE
  5
1E1
330
1DB
100
AcDbEntity
  8
SLD-0
 62
     7
100
AcDbLine
 10
87.1800103775
 20
259.8907365471
 30
0.0
 11
90.1800103324
 21
259.8907365471
 31
0.0
  0
LINE
  5
1E2
330
1DB
100
AcDbEntity
  8
SLD-0
 62
     7
100
AcDbLine
 10
427.1800103775
 20
259.8907365471
 30
0.0
 11
424.1800104226
 21
258.8907365621
 31
0.0
  0
LINE
  5
1E3
330
1DB
100
AcDbEntity
  8
SLD-0
 62
     7
100
AcDbLine
 10
427.1800103775
 20
259.8907365471
 30
0.0
 11
424.1800104226
 21
260.8907365321
 31
0.0
  0
LINE
  5
1E4
330
1DB
100
AcDbEntity
  8
SLD-0
 62
     7
100
AcDbLine
 10
427.1800103775
 20
259.8907365471
 30
0.0
 11
424.1800104226
 21
259.8907365471
 31
0.0
  0
LINE
  5
1E5
330
1DB
100
AcDbEntity
  8
SLD-0
 62
     7
100
AcDbLine
 10
87.1800103775
 20
246.7677675697
 30
0.0
 11
87.1800103775
 21
261.3907365471
 31
0.0
  0
LINE
  5
1E6
330
1DB
100
AcDbEntity
  8
SLD-0
 62
     7
100
AcDbLine
 10
427.1800103775
 20
246.7677675697
 30
0.0
 11
427.1800103775
 21
261.3907365471
 31
0.0
  0
MTEXT
  5
1E7
330
1DB
100
AcDbEntity
  8
SLD-0
 62
     7
100
AcDbMText
 10
253.2300295225
 20
263.3105893373
 30
0.0
 40
2.9104166031
 41
0.0
 71
     1
 72
     1
  1
340
  7
SLDTEXTSTYLE1
 73
     1
 44
1.0
  0
ENDBLK
  5
1DD
330
1DB
100
AcDbEntity
  8
0
100
AcDbBlockEnd
  0
BLOCK
  5
1EA
330
1E9
100
AcDbEntity
  8
0
100
AcDbBlockBegin
  2
_D_9
 70
     0
 10
0.0
 20
0.0
 30
0.0
  3
_D_9
  1

  0
LINE
  5
1EC
330
1E9
100
AcDbEntity
  8
SLD-0
 62
     7
100
AcDbLine
 10
43.2600103775
 20
237.7677676373
 30
0.0
 11
43.2600103775
 21
233.7677675471
 31
0.0
  0
LINE
  5
1ED
330
1E9
100
AcDbEntity
  8
SLD-0
 62
     7
100
AcDbLine
 10
43.2600103775
 20
240.7677675922
 30
0.0
 11
44.2600103625
 21
237.7677676373
 31
0.0
  0
LINE
  5
1EE
330
1E9
100
AcDbEntity
  8
SLD-0
 62
     7
100
AcDbLine
 10
43.2600103775
 20
240.7677675922
 30
0.0
 11
42.2600103925
 21
237.7677676373
 31
0.0
  0
LINE
  5
1EF
330
1E9
100
AcDbEntity
  8
SLD-0
 62
     7
100
AcDbLine
 10
43.2600103775
 20
240.7677675922
 30
0.0
 11
43.2600103775
 21
237.7677676373
 31
0.0
  0
LINE
  5
1F0
330
1E9
100
AcDbEntity
  8
SLD-0
 62
     7
100
AcDbLine
 10
43.2600103775
 20
230.7677675922
 30
0.0
 11
42.2600103925
 21
233.7677675471
 31
0.0
  0
LINE
  5
1F1
330
1E9
100
AcDbEntity
  8
SLD-0
 62
     7
100
AcDbLine
 10
43.2600103775
 20
230.7677675922
 30
0.0
 11
44.2600103625
 21
233.7677675471
 31
0.0
  0
LINE
  5
1F2
330
1E9
100
AcDbEntity
  8
SLD-0
 62
     7
100
AcDbLine
 10
43.2600103775
 20
230.7677675922
 30
0.0
 11
43.2600103775
 21
233.7677675471
 31
0.0
  0
LINE
  5
1F3
330
1E9
100
AcDbEntity
  8
SLD-0
 62
     7
100
AcDbLine
 10
75.6800104
 20
240.7677675922
 30
0.0
 11
41.7600103775
 21
240.7677675922
 31
0.0
  0
LINE
  5
1F4
330
1E9
100
AcDbEntity
  8
SLD-0
 62
     7
100
AcDbLine
 10
75.6800104
 20
230.7677675922
 30
0.0
 11
41.7600103775
 21
230.7677675922
 31
0.0
  0
MTEXT
  5
1F5
330
1E9
100
AcDbEntity
  8
SLD-0
 62
     7
100
AcDbMText
 10
39.8401575873
 20
231.8177867372
 30
0.0
 40
2.9104166031
 41
0.0
 71
     1
 72
     1
  1
%%c
  7
SLDTEXTSTYLE1
 11
-3.828568698926949E-16
 21
1.0
 31
0.0
 73
     1
 44
1.0
  0
MTEXT
  5
1F6
330
1E9
100
AcDbEntity
  8
SLD-0
 62
     7
100
AcDbMText
 10
39.8401575873
 20
235.6732803554
 30
0.0
 40
2.9104166031
 41
0.0
 71
     1
 72
     1
  1
１０
  7
SLDTEXTSTYLE1
 11
-3.828568698926949E-16
 21
1.0
 31
0.0
 73
     1
 44
1.0
  0
ENDBLK
  5
1EB
330
1E9
100
AcDbEntity
  8
0
100
AcDbBlockEnd
  0
BLOCK
  5
1F9
330
1F8
100
AcDbEntity
  8
0
100
AcDbBlockBegin
  2
_D_10
 70
     0
 10
0.0
 20
0.0
 30
0.0
  3
_D_10
  1

  0
LINE
  5
1FB
330
1F8
100
AcDbEntity
  8
SLD-0
 62
     7
100
AcDbLine
 10
43.2600103775
 20
165.7677675471
 30
0.0
 11
43.2600103775
 21
227.7677676373
 31
0.0
  0
LINE
  5
1FC
330
1F8
100
AcDbEntity
  8
SLD-0
 62
     7
100
AcDbLine
 10
43.2600103775
 20
162.7677675922
 30
0.0
 11
42.2600103925
 21
165.7677675471
 31
0.0
  0
LINE
  5
1FD
330
1F8
100
AcDbEntity
  8
SLD-0
 62
     7
100
AcDbLine
 10
43.2600103775
 20
162.7677675922
 30
0.0
 11
44.2600103625
 21
165.7677675471
 31
0.0
  0
LINE
  5
1FE
330
1F8
100
AcDbEntity
  8
SLD-0
 62
     7
100
AcDbLine
 10
43.2600103775
 20
162.7677675922
 30
0.0
 11
43.2600103775
 21
165.7677675471
 31
0.0
  0
LINE
  5
1FF
330
1F8
100
AcDbEntity
  8
SLD-0
 62
     7
100
AcDbLine
 10
43.2600103775
 20
230.7677675922
 30
0.0
 11
44.2600103625
 21
227.7677676373
 31
0.0
  0
LINE
  5
200
330
1F8
100
AcDbEntity
  8
SLD-0
 62
     7
100
AcDbLine
 10
43.2600103775
 20
230.7677675922
 30
0.0
 11
42.2600103925
 21
227.7677676373
 31
0.0
  0
LINE
  5
201
330
1F8
100
AcDbEntity
  8
SLD-0
 62
     7
100
AcDbLine
 10
43.2600103775
 20
230.7677675922
 30
0.0
 11
43.2600103775
 21
227.7677676373
 31
0.0
  0
LINE
  5
202
330
1F8
100
AcDbEntity
  8
SLD-0
 62
     7
100
AcDbLine
 10
75.6800104
 20
162.7677675922
 30
0.0
 11
41.7600103775
 21
162.7677675922
 31
0.0
  0
LINE
  5
203
330
1F8
100
AcDbEntity
  8
SLD-0
 62
     7
100
AcDbLine
 10
75.6800104
 20
230.7677675922
 30
0.0
 11
41.7600103775
 21
230.7677675922
 31
0.0
  0
MTEXT
  5
204
330
1F8
100
AcDbEntity
  8
SLD-0
 62
     7
100
AcDbMText
 10
39.8401575873
 20
194.2729949792
 30
0.0
 40
2.9104166031
 41
0.0
 71
     1
 72
     1
  1
68
  7
SLDTEXTSTYLE1
 11
-3.828568698926949E-16
 21
1.0
 31
0.0
 73
     1
 44
1.0
  0
ENDBLK
  5
1FA
330
1F8
100
AcDbEntity
  8
0
100
AcDbBlockEnd
  0
BLOCK
  5
207
330
206
100
AcDbEntity
  8
0
100
AcDbBlockBegin
  2
_D_11
 70
     0
 10
0.0
 20
0.0
 30
0.0
  3
_D_11
  1

  0
LINE
  5
209
330
206
100
AcDbEntity
  8
SLD-0
 62
     7
100
AcDbLine
 10
394.1800104226
 20
352.6079194325
 30
0.0
 11
260.1800103324
 21
352.6079194325
 31
0.0
  0
LINE
  5
20A
330
206
100
AcDbEntity
  8
SLD-0
 62
     7
100
AcDbLine
 10
397.1800103775
 20
352.6079194325
 30
0.0
 11
394.1800104226
 21
351.6079194475
 31
0.0
  0
LINE
  5
20B
330
206
100
AcDbEntity
  8
SLD-0
 62
     7
100
AcDbLine
 10
397.1800103775
 20
352.6079194325
 30
0.0
 11
394.1800104226
 21
353.6079194175
 31
0.0
  0
LINE
  5
20C
330
206
100
AcDbEntity
  8
SLD-0
 62
     7
100
AcDbLine
 10
397.1800103775
 20
352.6079194325
 30
0.0
 11
394.1800104226
 21
352.6079194325
 31
0.0
  0
LINE
  5
20D
330
206
100
AcDbEntity
  8
SLD-0
 62
     7
100
AcDbLine
 10
257.1800103775
 20
352.6079194325
 30
0.0
 11
260.1800103324
 21
353.6079194175
 31
0.0
  0
LINE
  5
20E
330
206
100
AcDbEntity
  8
SLD-0
 62
     7
100
AcDbLine
 10
257.1800103775
 20
352.6079194325
 30
0.0
 11
260.1800103324
 21
351.6079194475
 31
0.0
  0
LINE
  5
20F
330
206
100
AcDbEntity
  8
SLD-0
 62
     7
100
AcDbLine
 10
257.1800103775
 20
352.6079194325
 30
0.0
 11
260.1800103324
 21
352.6079194325
 31
0.0
  0
LINE
  5
210
330
206
100
AcDbEntity
  8
SLD-0
 62
     7
100
AcDbLine
 10
397.1800103775
 20
346.6849061828
 30
0.0
 11
397.1800103775
 21
354.1079194325
 31
0.0
  0
LINE
  5
211
330
206
100
AcDbEntity
  8
SLD-0
 62
     7
100
AcDbLine
 10
257.1800103775
 20
347.0164376682
 30
0.0
 11
257.1800103775
 21
354.1079194325
 31
0.0
  0
MTEXT
  5
212
330
206
100
AcDbEntity
  8
SLD-0
 62
     7
100
AcDbMText
 10
323.2300295225
 20
356.0277722227
 30
0.0
 40
2.9104166031
 41
0.0
 71
     1
 72
     1
  1
140
  7
SLDTEXTSTYLE1
 73
     1
 44
1.0
  0
ENDBLK
  5
208
330
206
100
AcDbEntity
  8
0
100
AcDbBlockEnd
  0
BLOCK
  5
215
330
214
100
AcDbEntity
  8
0
100
AcDbBlockBegin
  2
_D_12
 70
     0
 10
0.0
 20
0.0
 30
0.0
  3
_D_12
  1

  0
LINE
  5
217
330
214
100
AcDbEntity
  8
SLD-0
 62
     7
100
AcDbLine
 10
254.1800104226
 20
352.6079194325
 30
0.0
 11
120.1800103324
 21
352.6079194325
 31
0.0
  0
LINE
  5
218
330
214
100
AcDbEntity
  8
SLD-0
 62
     7
100
AcDbLine
 10
257.1800103775
 20
352.6079194325
 30
0.0
 11
254.1800104226
 21
351.6079194475
 31
0.0
  0
LINE
  5
219
330
214
100
AcDbEntity
  8
SLD-0
 62
     7
100
AcDbLine
 10
257.1800103775
 20
352.6079194325
 30
0.0
 11
254.1800104226
 21
353.6079194175
 31
0.0
  0
LINE
  5
21A
330
214
100
AcDbEntity
  8
SLD-0
 62
     7
100
AcDbLine
 10
257.1800103775
 20
352.6079194325
 30
0.0
 11
254.1800104226
 21
352.6079194325
 31
0.0
  0
LINE
  5
21B
330
214
100
AcDbEntity
  8
SLD-0
 62
     7
100
AcDbLine
 10
117.1800103775
 20
352.6079194325
 30
0.0
 11
120.1800103324
 21
353.6079194175
 31
0.0
  0
LINE
  5
21C
330
214
100
AcDbEntity
  8
SLD-0
 62
     7
100
AcDbLine
 10
117.1800103775
 20
352.6079194325
 30
0.0
 11
120.1800103324
 21
351.6079194475
 31
0.0
  0
LINE
  5
21D
330
214
100
AcDbEntity
  8
SLD-0
 62
     7
100
AcDbLine
 10
117.1800103775
 20
352.6079194325
 30
0.0
 11
120.1800103324
 21
352.6079194325
 31
0.0
  0
LINE
  5
21E
330
214
100
AcDbEntity
  8
SLD-0
 62
     7
100
AcDbLine
 10
257.1800103775
 20
347.0164376682
 30
0.0
 11
257.1800103775
 21
354.1079194325
 31
0.0
  0
LINE
  5
21F
330
214
100
AcDbEntity
  8
SLD-0
 62
     7
100
AcDbLine
 10
117.1800103775
 20
346.7557959729
 30
0.0
 11
117.1800103775
 21
354.1079194325
 31
0.0
  0
MTEXT
  5
220
330
214
100
AcDbEntity
  8
SLD-0
 62
     7
100
AcDbMText
 10
183.2300295225
 20
356.0277722227
 30
0.0
 40
2.9104166031
 41
0.0
 71
     1
 72
     1
  1
140
  7
SLDTEXTSTYLE1
 73
     1
 44
1.0
  0
ENDBLK
  5
216
330
214
100
AcDbEntity
  8
0
100
AcDbBlockEnd
  0
BLOCK
  5
223
330
222
100
AcDbEntity
  8
0
100
AcDbBlockBegin
  2
_D_13
 70
     0
 10
0.0
 20
0.0
 30
0.0
  3
_D_13
  1

  0
LINE
  5
225
330
222
100
AcDbEntity
  8
SLD-0
 62
     7
100
AcDbLine
 10
410.1800103324
 20
352.6079194325
 30
0.0
 11
424.1800104226
 21
352.6079194325
 31
0.0
  0
LINE
  5
226
330
222
100
AcDbEntity
  8
SLD-0
 62
     7
100
AcDbLine
 10
407.1800103775
 20
352.6079194325
 30
0.0
 11
410.1800103324
 21
353.6079194175
 31
0.0
  0
LINE
  5
227
330
222
100
AcDbEntity
  8
SLD-0
 62
     7
100
AcDbLine
 10
407.1800103775
 20
352.6079194325
 30
0.0
 11
410.1800103324
 21
351.6079194475
 31
0.0
  0
LINE
  5
228
330
222
100
AcDbEntity
  8
SLD-0
 62
     7
100
AcDbLine
 10
407.1800103775
 20
352.6079194325
 30
0.0
 11
410.1800103324
 21
352.6079194325
 31
0.0
  0
LINE
  5
229
330
222
100
AcDbEntity
  8
SLD-0
 62
     7
100
AcDbLine
 10
427.1800103775
 20
352.6079194325
 30
0.0
 11
424.1800104226
 21
351.6079194475
 31
0.0
  0
LINE
  5
22A
330
222
100
AcDbEntity
  8
SLD-0
 62
     7
100
AcDbLine
 10
427.1800103775
 20
352.6079194325
 30
0.0
 11
424.1800104226
 21
353.6079194175
 31
0.0
  0
LINE
  5
22B
330
222
100
AcDbEntity
  8
SLD-0
 62
     7
100
AcDbLine
 10
427.1800103775
 20
352.6079194325
 30
0.0
 11
424.1800104226
 21
352.6079194325
 31
0.0
  0
LINE
  5
22C
330
222
100
AcDbEntity
  8
SLD-0
 62
     7
100
AcDbLine
 10
407.1800103775
 20
324.95791941
 30
0.0
 11
407.1800103775
 21
354.1079194325
 31
0.0
  0
LINE
  5
22D
330
222
100
AcDbEntity
  8
SLD-0
 62
     7
100
AcDbLine
 10
427.1800103775
 20
325.80791941
 30
0.0
 11
427.1800103775
 21
354.1079194325
 31
0.0
  0
MTEXT
  5
22E
330
222
100
AcDbEntity
  8
SLD-0
 62
     7
100
AcDbMText
 10
414.6852377645
 20
356.0277722227
 30
0.0
 40
2.9104166031
 41
0.0
 71
     1
 72
     1
  1
20
  7
SLDTEXTSTYLE1
 73
     1
 44
1.0
  0
ENDBLK
  5
224
330
222
100
AcDbEntity
  8
0
100
AcDbBlockEnd
  0
BLOCK
  5
231
330
230
100
AcDbEntity
  8
0
100
AcDbBlockBegin
  2
_D_14
 70
     0
 10
0.0
 20
0.0
 30
0.0
  3
_D_14
  1

  0
LINE
  5
233
330
230
100
AcDbEntity
  8
SLD-0
 62
     7
100
AcDbLine
 10
462.6122584861
 20
324.3079194325
 30
0.0
 11
462.6122584861
 21
331.6507014967
 31
0.0
  0
LINE
  5
234
330
230
100
AcDbEntity
  8
SLD-0
 62
     7
100
AcDbLine
 10
462.6122584861
 20
320.3079194325
 30
0.0
 11
462.6122584861
 21
324.3079194325
 31
0.0
  0
LINE
  5
235
330
230
100
AcDbEntity
  8
SLD-0
 62
     7
100
AcDbLine
 10
462.6122584861
 20
320.3079194325
 30
0.0
 11
463.6122584711
 21
317.3079194776
 31
0.0
  0
LINE
  5
236
330
230
100
AcDbEntity
  8
SLD-0
 62
     7
100
AcDbLine
 10
462.6122584861
 20
320.3079194325
 30
0.0
 11
461.6122585011
 21
317.3079194776
 31
0.0
  0
LINE
  5
237
330
230
100
AcDbEntity
  8
SLD-0
 62
     7
100
AcDbLine
 10
462.6122584861
 20
320.3079194325
 30
0.0
 11
462.6122584861
 21
317.3079194776
 31
0.0
  0
LINE
  5
238
330
230
100
AcDbEntity
  8
SLD-0
 62
     7
100
AcDbLine
 10
462.6122584861
 20
317.3079194776
 30
0.0
 11
462.6122584861
 21
313.9579195279
 31
0.0
  0
LINE
  5
239
330
230
100
AcDbEntity
  8
SLD-0
 62
     7
100
AcDbLine
 10
462.6122584861
 20
324.3079194325
 30
0.0
 11
461.6122585011
 21
327.3079193874
 31
0.0
  0
LINE
  5
23A
330
230
100
AcDbEntity
  8
SLD-0
 62
     7
100
AcDbLine
 10
462.6122584861
 20
324.3079194325
 30
0.0
 11
463.6122584711
 21
327.3079193874
 31
0.0
  0
LINE
  5
23B
330
230
100
AcDbEntity
  8
SLD-0
 62
     7
100
AcDbLine
 10
462.6122584861
 20
324.3079194325
 30
0.0
 11
462.6122584861
 21
327.3079193874
 31
0.0
  0
LINE
  5
23C
330
230
100
AcDbEntity
  8
SLD-0
 62
     7
100
AcDbLine
 10
462.6122584861
 20
327.3079193874
 30
0.0
 11
462.6122584861
 21
330.6579193371
 31
0.0
  0
LINE
  5
23D
330
230
100
AcDbEntity
  8
SLD-0
 62
     7
100
AcDbLine
 10
411.830010355
 20
320.3079194325
 30
0.0
 11
464.1122584861
 21
320.3079194325
 31
0.0
  0
LINE
  5
23E
330
230
100
AcDbEntity
  8
SLD-0
 62
     7
100
AcDbLine
 10
428.680010355
 20
324.3079194325
 30
0.0
 11
464.1122584861
 21
324.3079194325
 31
0.0
  0
MTEXT
  5
23F
330
230
100
AcDbEntity
  8
SLD-0
 62
     7
100
AcDbMText
 10
459.1924056959
 20
329.5715727545
 30
0.0
 40
2.9104166031
 41
0.0
 71
     1
 72
     1
  1
4
  7
SLDTEXTSTYLE1
 11
-3.828568698926949E-16
 21
1.0
 31
0.0
 73
     1
 44
1.0
  0
ENDBLK
  5
232
330
230
100
AcDbEntity
  8
0
100
AcDbBlockEnd
  0
BLOCK
  5
242
330
241
100
AcDbEntity
  8
0
100
AcDbBlockBegin
  2
_D_15
 70
     0
 10
0.0
 20
0.0
 30
0.0
  3
_D_15
  1

  0
LINE
  5
244
330
241
100
AcDbEntity
  8
SLD-0
 62
     7
100
AcDbLine
 10
104.1800104226
 20
352.6079194325
 30
0.0
 11
90.1800103324
 21
352.6079194325
 31
0.0
  0
LINE
  5
245
330
241
100
AcDbEntity
  8
SLD-0
 62
     7
100
AcDbLine
 10
107.1800103775
 20
352.6079194325
 30
0.0
 11
104.1800104226
 21
351.6079194475
 31
0.0
  0
LINE
  5
246
330
241
100
AcDbEntity
  8
SLD-0
 62
     7
100
AcDbLine
 10
107.1800103775
 20
352.6079194325
 30
0.0
 11
104.1800104226
 21
353.6079194175
 31
0.0
  0
LINE
  5
247
330
241
100
AcDbEntity
  8
SLD-0
 62
     7
100
AcDbLine
 10
107.1800103775
 20
352.6079194325
 30
0.0
 11
104.1800104226
 21
352.6079194325
 31
0.0
  0
LINE
  5
248
330
241
100
AcDbEntity
  8
SLD-0
 62
     7
100
AcDbLine
 10
87.1800103775
 20
352.6079194325
 30
0.0
 11
90.1800103324
 21
353.6079194175
 31
0.0
  0
LINE
  5
249
330
241
100
AcDbEntity
  8
SLD-0
 62
     7
100
AcDbLine
 10
87.1800103775
 20
352.6079194325
 30
0.0
 11
90.1800103324
 21
351.6079194475
 31
0.0
  0
LINE
  5
24A
330
241
100
AcDbEntity
  8
SLD-0
 62
     7
100
AcDbLine
 10
87.1800103775
 20
352.6079194325
 30
0.0
 11
90.1800103324
 21
352.6079194325
 31
0.0
  0
LINE
  5
24B
330
241
100
AcDbEntity
  8
SLD-0
 62
     7
100
AcDbLine
 10
107.1800103775
 20
324.95791941
 30
0.0
 11
107.1800103775
 21
354.1079194325
 31
0.0
  0
LINE
  5
24C
330
241
100
AcDbEntity
  8
SLD-0
 62
     7
100
AcDbLine
 10
87.1800103775
 20
325.80791941
 30
0.0
 11
87.1800103775
 21
354.1079194325
 31
0.0
  0
MTEXT
  5
24D
330
241
100
AcDbEntity
  8
SLD-0
 62
     7
100
AcDbMText
 10
94.6852377645
 20
356.0277722227
 30
0.0
 40
2.9104166031
 41
0.0
 71
     1
 72
     1
  1
20
  7
SLDTEXTSTYLE1
 73
     1
 44
1.0
  0
ENDBLK
  5
243
330
241
100
AcDbEntity
  8
0
100
AcDbBlockEnd
  0
BLOCK
  5
250
330
24F
100
AcDbEntity
  8
0
100
AcDbBlockBegin
  2
_D_16
 70
     0
 10
0.0
 20
0.0
 30
0.0
  3
_D_16
  1

  0
LINE
  5
252
330
24F
100
AcDbEntity
  8
SLD-0
 62
     7
100
AcDbLine
 10
534.0286062967
 20
252.5718595591
 30
0.0
 11
546.0286063869
 21
252.5718595591
 31
0.0
  0
LINE
  5
253
330
24F
100
AcDbEntity
  8
SLD-0
 62
     7
100
AcDbLine
 10
531.0286063418
 20
252.5718595591
 30
0.0
 11
534.0286062967
 21
253.5718595441
 31
0.0
  0
LINE
  5
254
330
24F
100
AcDbEntity
  8
SLD-0
 62
     7
100
AcDbLine
 10
531.0286063418
 20
252.5718595591
 30
0.0
 11
534.0286062967
 21
251.5718595741
 31
0.0
  0
LINE
  5
255
330
24F
100
AcDbEntity
  8
SLD-0
 62
     7
100
AcDbLine
 10
531.0286063418
 20
252.5718595591
 30
0.0
 11
534.0286062967
 21
252.5718595591
 31
0.0
  0
LINE
  5
256
330
24F
100
AcDbEntity
  8
SLD-0
 62
     7
100
AcDbLine
 10
549.0286063418
 20
252.5718595591
 30
0.0
 11
546.0286063869
 21
251.5718595741
 31
0.0
  0
LINE
  5
257
330
24F
100
AcDbEntity
  8
SLD-0
 62
     7
100
AcDbLine
 10
549.0286063418
 20
252.5718595591
 30
0.0
 11
546.0286063869
 21
253.5718595441
 31
0.0
  0
LINE
  5
258
330
24F
100
AcDbEntity
  8
SLD-0
 62
     7
100
AcDbLine
 10
549.0286063418
 20
252.5718595591
 30
0.0
 11
546.0286063869
 21
252.5718595591
 31
0.0
  0
LINE
  5
259
330
24F
100
AcDbEntity
  8
SLD-0
 62
     7
100
AcDbLine
 10
531.0286063418
 20
248.2677675697
 30
0.0
 11
531.0286063418
 21
254.0718595591
 31
0.0
  0
LINE
  5
25A
330
24F
100
AcDbEntity
  8
SLD-0
 62
     7
100
AcDbLine
 10
549.0286063418
 20
254.3018066065
 30
0.0
 11
549.0286063418
 21
251.0718595591
 31
0.0
  0
MTEXT
  5
25B
330
24F
100
AcDbEntity
  8
SLD-0
 62
     7
100
AcDbMText
 10
537.5338337288
 20
255.9917123493
 30
0.0
 40
2.9104166031
 41
0.0
 71
     1
 72
     1
  1
18
  7
SLDTEXTSTYLE1
 73
     1
 44
1.0
  0
ENDBLK
  5
251
330
24F
100
AcDbEntity
  8
0
100
AcDbBlockEnd
  0
BLOCK
  5
25E
330
25D
100
AcDbEntity
  8
0
100
AcDbBlockBegin
  2
_D_17
 70
     0
 10
0.0
 20
0.0
 30
0.0
  3
_D_17
  1

  0
LINE
  5
260
330
25D
100
AcDbEntity
  8
SLD-0
 62
     7
100
AcDbLine
 10
511.0286063418
 20
242.7677676373
 30
0.0
 11
511.0286063418
 21
238.7677675471
 31
0.0
  0
LINE
  5
261
330
25D
100
AcDbEntity
  8
SLD-0
 62
     7
100
AcDbLine
 10
511.0286063418
 20
245.7677675922
 30
0.0
 11
512.0286063268
 21
242.7677676373
 31
0.0
  0
LINE
  5
262
330
25D
100
AcDbEntity
  8
SLD-0
 62
     7
100
AcDbLine
 10
511.0286063418
 20
245.7677675922
 30
0.0
 11
510.0286063568
 21
242.7677676373
 31
0.0
  0
LINE
  5
263
330
25D
100
AcDbEntity
  8
SLD-0
 62
     7
100
AcDbLine
 10
511.0286063418
 20
245.7677675922
 30
0.0
 11
511.0286063418
 21
242.7677676373
 31
0.0
  0
LINE
  5
264
330
25D
100
AcDbEntity
  8
SLD-0
 62
     7
100
AcDbLine
 10
511.0286063418
 20
235.7677675922
 30
0.0
 11
510.0286063568
 21
238.7677675471
 31
0.0
  0
LINE
  5
265
330
25D
100
AcDbEntity
  8
SLD-0
 62
     7
100
AcDbLine
 10
511.0286063418
 20
235.7677675922
 30
0.0
 11
512.0286063268
 21
238.7677675471
 31
0.0
  0
LINE
  5
266
330
25D
100
AcDbEntity
  8
SLD-0
 62
     7
100
AcDbLine
 10
511.0286063418
 20
235.7677675922
 30
0.0
 11
511.0286063418
 21
238.7677675471
 31
0.0
  0
LINE
  5
267
330
25D
100
AcDbEntity
  8
SLD-0
 62
     7
100
AcDbLine
 10
529.5286063643
 20
245.7677675922
 30
0.0
 11
509.5286063418
 21
245.7677675922
 31
0.0
  0
LINE
  5
268
330
25D
100
AcDbEntity
  8
SLD-0
 62
     7
100
AcDbLine
 10
518.5286063643
 20
235.7677675922
 30
0.0
 11
509.5286063418
 21
235.7677675922
 31
0.0
  0
MTEXT
  5
269
330
25D
100
AcDbEntity
  8
SLD-0
 62
     7
100
AcDbMText
 10
507.6087535516
 20
238.2729949792
 30
0.0
 40
2.9104166031
 41
0.0
 71
     1
 72
     1
  1
10
  7
SLDTEXTSTYLE1
 11
-3.828568698926949E-16
 21
1.0
 31
0.0
 73
     1
 44
1.0
  0
ENDBLK
  5
25F
330
25D
100
AcDbEntity
  8
0
100
AcDbBlockEnd
  0
BLOCK
  5
26C
330
26B
100
AcDbEntity
  8
0
100
AcDbBlockBegin
  2
_D_18
 70
     0
 10
0.0
 20
0.0
 30
0.0
  3
_D_18
  1

  0
LINE
  5
26E
330
26B
100
AcDbEntity
  8
SLD-0
 62
     7
100
AcDbLine
 10
511.0286063418
 20
232.7677676373
 30
0.0
 11
511.0286063418
 21
155.7677675471
 31
0.0
  0
LINE
  5
26F
330
26B
100
AcDbEntity
  8
SLD-0
 62
     7
100
AcDbLine
 10
511.0286063418
 20
235.7677675922
 30
0.0
 11
512.0286063268
 21
232.7677676373
 31
0.0
  0
LINE
  5
270
330
26B
100
AcDbEntity
  8
SLD-0
 62
     7
100
AcDbLine
 10
511.0286063418
 20
235.7677675922
 30
0.0
 11
510.0286063568
 21
232.7677676373
 31
0.0
  0
LINE
  5
271
330
26B
100
AcDbEntity
  8
SLD-0
 62
     7
100
AcDbLine
 10
511.0286063418
 20
235.7677675922
 30
0.0
 11
511.0286063418
 21
232.7677676373
 31
0.0
  0
LINE
  5
272
330
26B
100
AcDbEntity
  8
SLD-0
 62
     7
100
AcDbLine
 10
511.0286063418
 20
152.7677675922
 30
0.0
 11
510.0286063568
 21
155.7677675471
 31
0.0
  0
LINE
  5
273
330
26B
100
AcDbEntity
  8
SLD-0
 62
     7
100
AcDbLine
 10
511.0286063418
 20
152.7677675922
 30
0.0
 11
512.0286063268
 21
155.7677675471
 31
0.0
  0
LINE
  5
274
330
26B
100
AcDbEntity
  8
SLD-0
 62
     7
100
AcDbLine
 10
511.0286063418
 20
152.7677675922
 30
0.0
 11
511.0286063418
 21
155.7677675471
 31
0.0
  0
LINE
  5
275
330
26B
100
AcDbEntity
  8
SLD-0
 62
     7
100
AcDbLine
 10
518.5286063643
 20
235.7677675922
 30
0.0
 11
509.5286063418
 21
235.7677675922
 31
0.0
  0
LINE
  5
276
330
26B
100
AcDbEntity
  8
SLD-0
 62
     7
100
AcDbLine
 10
529.5286063643
 20
152.7677675922
 30
0.0
 11
509.5286063418
 21
152.7677675922
 31
0.0
  0
MTEXT
  5
277
330
26B
100
AcDbEntity
  8
SLD-0
 62
     7
100
AcDbMText
 10
507.6087535516
 20
191.7729949792
 30
0.0
 40
2.9104166031
 41
0.0
 71
     1
 72
     1
  1
83
  7
SLDTEXTSTYLE1
 11
-3.828568698926949E-16
 21
1.0
 31
0.0
 73
     1
 44
1.0
  0
ENDBLK
  5
26D
330
26B
100
AcDbEntity
  8
0
100
AcDbBlockEnd
  0
BLOCK
  5
27A
330
279
100
AcDbEntity
  8
0
100
AcDbBlockBegin
  2
_D_19
 70
     0
 10
0.0
 20
0.0
 30
0.0
  3
_D_19
  1

  0
LINE
  5
27C
330
279
100
AcDbEntity
  8
SLD-0
 62
     7
100
AcDbLine
 10
526.0286063418
 20
124.7677675922
 30
0.0
 11
515.4920957825
 21
124.7677675922
 31
0.0
  0
LINE
  5
27D
330
279
100
AcDbEntity
  8
SLD-0
 62
     7
100
AcDbLine
 10
529.0286062967
 20
124.7677675922
 30
0.0
 11
533.0286063869
 21
124.7677675922
 31
0.0
  0
LINE
  5
27E
330
279
100
AcDbEntity
  8
SLD-0
 62
     7
100
AcDbLine
 10
526.0286063418
 20
124.7677675922
 30
0.0
 11
529.0286062967
 21
125.7677675772
 31
0.0
  0
LINE
  5
27F
330
279
100
AcDbEntity
  8
SLD-0
 62
     7
100
AcDbLine
 10
526.0286063418
 20
124.7677675922
 30
0.0
 11
529.0286062967
 21
123.7677676072
 31
0.0
  0
LINE
  5
280
330
279
100
AcDbEntity
  8
SLD-0
 62
     7
100
AcDbLine
 10
526.0286063418
 20
124.7677675922
 30
0.0
 11
529.0286062967
 21
124.7677675922
 31
0.0
  0
LINE
  5
281
330
279
100
AcDbEntity
  8
SLD-0
 62
     7
100
AcDbLine
 10
536.0286063418
 20
124.7677675922
 30
0.0
 11
533.0286063869
 21
123.7677676072
 31
0.0
  0
LINE
  5
282
330
279
100
AcDbEntity
  8
SLD-0
 62
     7
100
AcDbLine
 10
536.0286063418
 20
124.7677675922
 30
0.0
 11
533.0286063869
 21
125.7677675772
 31
0.0
  0
LINE
  5
283
330
279
100
AcDbEntity
  8
SLD-0
 62
     7
100
AcDbLine
 10
536.0286063418
 20
124.7677675922
 30
0.0
 11
533.0286063869
 21
124.7677675922
 31
0.0
  0
LINE
  5
284
330
279
100
AcDbEntity
  8
SLD-0
 62
     7
100
AcDbLine
 10
526.0286063418
 20
156.2677676147
 30
0.0
 11
526.0286063418
 21
123.2677675922
 31
0.0
  0
LINE
  5
285
330
279
100
AcDbEntity
  8
SLD-0
 62
     7
100
AcDbLine
 10
536.0286063418
 20
156.2677676147
 30
0.0
 11
536.0286063418
 21
123.2677675922
 31
0.0
  0
MTEXT
  5
286
330
279
100
AcDbEntity
  8
SLD-0
 62
     7
100
AcDbMText
 10
515.4920957825
 20
128.1876203824
 30
0.0
 40
2.9104166031
 41
0.0
 71
     1
 72
     1
  1
%%c
  7
SLDTEXTSTYLE1
 73
     1
 44
1.0
  0
MTEXT
  5
287
330
279
100
AcDbEntity
  8
SLD-0
 62
     7
100
AcDbMText
 10
519.3475894007
 20
128.1876203824
 30
0.0
 40
2.9104166031
 41
0.0
 71
     1
 72
     1
  1
１０
  7
SLDTEXTSTYLE1
 73
     1
 44
1.0
  0
ENDBLK
  5
27B
330
279
100
AcDbEntity
  8
0
100
AcDbBlockEnd
  0
BLOCK
  5
28A
330
289
100
AcDbEntity
  8
0
100
AcDbBlockBegin
  2
_D_20
 70
     0
 10
0.0
 20
0.0
 30
0.0
  3
_D_20
  1

  0
LINE
  5
28C
330
289
100
AcDbEntity
  8
SLD-0
 62
     7
100
AcDbLine
 10
524.0286062967
 20
259.8907365471
 30
0.0
 11
546.0286063869
 21
259.8907365471
 31
0.0
  0
LINE
  5
28D
330
289
100
AcDbEntity
  8
SLD-0
 62
     7
100
AcDbLine
 10
521.0286063418
 20
259.8907365471
 30
0.0
 11
524.0286062967
 21
260.8907365321
 31
0.0
  0
LINE
  5
28E
330
289
100
AcDbEntity
  8
SLD-0
 62
     7
100
AcDbLine
 10
521.0286063418
 20
259.8907365471
 30
0.0
 11
524.0286062967
 21
258.8907365621
 31
0.0
  0
LINE
  5
28F
330
289
100
AcDbEntity
  8
SLD-0
 62
     7
100
AcDbLine
 10
521.0286063418
 20
259.8907365471
 30
0.0
 11
524.0286062967
 21
259.8907365471
 31
0.0
  0
LINE
  5
290
330
289
100
AcDbEntity
  8
SLD-0
 62
     7
100
AcDbLine
 10
549.0286063418
 20
259.8907365471
 30
0.0
 11
546.0286063869
 21
258.8907365621
 31
0.0
  0
LINE
  5
291
330
289
100
AcDbEntity
  8
SLD-0
 62
     7
100
AcDbLine
 10
549.0286063418
 20
259.8907365471
 30
0.0
 11
546.0286063869
 21
260.8907365321
 31
0.0
  0
LINE
  5
292
330
289
100
AcDbEntity
  8
SLD-0
 62
     7
100
AcDbLine
 10
549.0286063418
 20
259.8907365471
 30
0.0
 11
546.0286063869
 21
259.8907365471
 31
0.0
  0
LINE
  5
293
330
289
100
AcDbEntity
  8
SLD-0
 62
     7
100
AcDbLine
 10
521.0286063418
 20
237.2677675697
 30
0.0
 11
521.0286063418
 21
261.3907365471
 31
0.0
  0
LINE
  5
294
330
289
100
AcDbEntity
  8
SLD-0
 62
     7
100
AcDbLine
 10
549.0286063418
 20
243.7677675697
 30
0.0
 11
549.0286063418
 21
261.3907365471
 31
0.0
  0
MTEXT
  5
295
330
289
100
AcDbEntity
  8
SLD-0
 62
     7
100
AcDbMText
 10
532.5338337288
 20
263.3105893373
 30
0.0
 40
2.9104166031
 41
0.0
 71
     1
 72
     1
  1
28
  7
SLDTEXTSTYLE1
 73
     1
 44
1.0
  0
ENDBLK
  5
28B
330
289
100
AcDbEntity
  8
0
100
AcDbBlockEnd
  0
BLOCK
  5
298
330
297
100
AcDbEntity
  8
0
100
AcDbBlockBegin
  2
_D_21
 70
     0
 10
0.0
 20
0.0
 30
0.0
  3
_D_21
  1

  0
LINE
  5
29A
330
297
100
AcDbEntity
  8
SLD-0
 62
     7
100
AcDbLine
 10
539.0286062967
 20
124.7677675922
 30
0.0
 11
546.0286063869
 21
124.7677675922
 31
0.0
  0
LINE
  5
29B
330
297
100
AcDbEntity
  8
SLD-0
 62
     7
100
AcDbLine
 10
536.0286063418
 20
124.7677675922
 30
0.0
 11
539.0286062967
 21
125.7677675772
 31
0.0
  0
LINE
  5
29C
330
297
100
AcDbEntity
  8
SLD-0
 62
     7
100
AcDbLine
 10
536.0286063418
 20
124.7677675922
 30
0.0
 11
539.0286062967
 21
123.7677676072
 31
0.0
  0
LINE
  5
29D
330
297
100
AcDbEntity
  8
SLD-0
 62
     7
100
AcDbLine
 10
536.0286063418
 20
124.7677675922
 30
0.0
 11
539.0286062967
 21
124.7677675922
 31
0.0
  0
LINE
  5
29E
330
297
100
AcDbEntity
  8
SLD-0
 62
     7
100
AcDbLine
 10
549.0286063418
 20
124.7677675922
 30
0.0
 11
546.0286063869
 21
123.7677676072
 31
0.0
  0
LINE
  5
29F
330
297
100
AcDbEntity
  8
SLD-0
 62
     7
100
AcDbLine
 10
549.0286063418
 20
124.7677675922
 30
0.0
 11
546.0286063869
 21
125.7677675772
 31
0.0
  0
LINE
  5
2A0
330
297
100
AcDbEntity
  8
SLD-0
 62
     7
100
AcDbLine
 10
549.0286063418
 20
124.7677675922
 30
0.0
 11
546.0286063869
 21
124.7677675922
 31
0.0
  0
LINE
  5
2A1
330
297
100
AcDbEntity
  8
SLD-0
 62
     7
100
AcDbLine
 10
536.0286063418
 20
156.2677676147
 30
0.0
 11
536.0286063418
 21
123.2677675922
 31
0.0
  0
LINE
  5
2A2
330
297
100
AcDbEntity
  8
SLD-0
 62
     7
100
AcDbLine
 10
549.0286063418
 20
224.2677676147
 30
0.0
 11
549.0286063418
 21
123.2677675922
 31
0.0
  0
MTEXT
  5
2A3
330
297
100
AcDbEntity
  8
SLD-0
 62
     7
100
AcDbMText
 10
540.0338337288
 20
128.1876203824
 30
0.0
 40
2.9104166031
 41
0.0
 71
     1
 72
     1
  1
13
  7
SLDTEXTSTYLE1
 73
     1
 44
1.0
  0
ENDBLK
  5
299
330
297
100
AcDbEntity
  8
0
100
AcDbBlockEnd
  0
ENDSEC
  0
SECTION
  2
ENTITIES
  0
VIEWPORT
  5
8D
330
1B
100
AcDbEntity
 67
     1
  8
0
100
AcDbViewport
 10
297.0
 20
210.0
 30
0.0
 40
628.452
 41
444.36
 68
     1
 69
     1
 12
297.0
 22
210.0
 13
0.0
 23
0.0
 14
10.0
 24
10.0
 15
10.0
 25
10.0
 16
0.0
 26
0.0
 36
1.0
 17
0.0
 27
0.0
 37
0.0
 42
50.0
 43
0.0
 44
0.0
 45
444.36
 50
0.0
 51
0.0
 72
   100
 90
   557152
  1

281
     0
 71
     1
 74
     0
110
0.0
120
0.0
130
0.0
111
1.0
121
0.0
131
0.0
112
0.0
122
1.0
132
0.0
 79
     0
146
0.0
  0
LINE
  5
8F
330
1B
100
AcDbEntity
 67
     1
  8
SLD-0
  6
Continuous
 62
     7
100
AcDbLine
 10
77.1800032249
 20
152.7677676817
 30
0.0
 11
437.1800175301
 21
152.7677676817
 31
0.0
  0
LINE
  5
90
330
1B
100
AcDbEntity
 67
     1
  8
SLD-0
  6
Continuous
 62
     7
100
AcDbLine
 10
437.1800175301
 20
162.7677693208
 30
0.0
 11
77.1800032249
 21
162.7677693208
 31
0.0
  0
LINE
  5
91
330
1B
100
AcDbEntity
 67
     1
  8
SLD-0
  6
Continuous
 62
     7
100
AcDbLine
 10
457.1800102881
 20
172.767766579
 30
0.0
 11
457.1800102881
 21
220.7677679275
 31
0.0
  0
LINE
  5
92
330
1B
100
AcDbEntity
 67
     1
  8
SLD-0
  6
Continuous
 62
     7
100
AcDbLine
 10
447.180008649
 20
220.7677679275
 30
0.0
 11
447.180008649
 21
172.767766579
 31
0.0
  0
LINE
  5
93
330
1B
100
AcDbEntity
 67
     1
  8
SLD-0
  6
Continuous
 62
     7
100
AcDbLine
 10
57.1800104669
 20
220.7677679275
 30
0.0
 11
57.1800104669
 21
172.767766579
 31
0.0
  0
LINE
  5
94
330
1B
100
AcDbEntity
 67
     1
  8
SLD-0
  6
Continuous
 62
     7
100
AcDbLine
 10
67.180012106
 20
172.767766579
 30
0.0
 11
67.180012106
 21
220.7677679275
 31
0.0
  0
LINE
  5
95
330
1B
100
AcDbEntity
 67
     1
  8
SLD-0
  6
Continuous
 62
     7
100
AcDbLine
 10
87.1800091817
 20
240.7677680951
 30
0.0
 11
77.1800038172
 21
240.7677680951
 31
0.0
  0
LINE
  5
96
330
1B
100
AcDbEntity
 67
     1
  8
SLD-0
  6
Continuous
 62
     7
100
AcDbLine
 10
77.1800038173
 20
230.767766456
 30
0.0
 11
87.1800091818
 21
230.767766456
 31
0.0
  0
LINE
  5
97
330
1B
100
AcDbEntity
 67
     1
  8
SLD-0
  6
Continuous
 62
     7
100
AcDbLine
 10
427.1800115732
 20
230.767766456
 30
0.0
 11
437.1800169377
 21
230.767766456
 31
0.0
  0
LINE
  5
98
330
1B
100
AcDbEntity
 67
     1
  8
SLD-0
  6
Continuous
 62
     7
100
AcDbLine
 10
437.1800169378
 20
240.7677680951
 30
0.0
 11
427.1800115733
 21
240.7677680951
 31
0.0
  0
LINE
  5
99
330
1B
100
AcDbEntity
 67
     1
  8
SLD-0
  6
Continuous
 62
     7
100
AcDbLine
 10
426.680002696
 20
225.7677668099
 30
0.0
 11
87.6800160474
 21
225.7677668099
 31
0.0
  0
LINE
  5
9A
330
1B
100
AcDbEntity
 67
     1
  8
SLD-0
  6
Continuous
 62
     7
100
AcDbLine
 10
426.680002696
 20
245.7677683745
 30
0.0
 11
87.6800160474
 21
245.7677683745
 31
0.0
  0
LINE
  5
9B
330
1B
100
AcDbEntity
 67
     1
  8
SLD-0
  6
Continuous
 62
     7
100
AcDbLine
 10
427.1800101541
 20
245.2677672868
 30
0.0
 11
427.1800101541
 21
226.2677678977
 31
0.0
  0
LINE
  5
9C
330
1B
100
AcDbEntity
 67
     1
  8
SLD-0
  6
Continuous
 62
     7
100
AcDbLine
 10
87.1800085894
 20
226.2677678977
 30
0.0
 11
87.1800085894
 21
245.2677672868
 31
0.0
  0
LINE
  5
9D
330
1B
100
AcDbEntity
 67
     1
  8
SLD-0
  6
CENTER
 62
     7
100
AcDbLine
 10
257.1800103775
 20
254.0391975485
 30
0.0
 11
257.1800103775
 21
148.1616953728
 31
0.0
  0
LINE
  5
9E
330
1B
100
AcDbEntity
 67
     1
  8
SLD-0
  6
CENTER
 62
     7
100
AcDbLine
 10
437.200592279
 20
235.7677675922
 30
0.0
 11
77.3368840523
 21
235.7677675922
 31
0.0
  0
LINE
  5
9F
330
1B
100
AcDbEntity
 67
     1
  8
SLD-0
  6
CENTER
 62
     7
100
AcDbLine
 10
452.1800103775
 20
172.7677675922
 30
0.0
 11
452.1800103775
 21
220.7677675922
 31
0.0
  0
LINE
  5
A0
330
1B
100
AcDbEntity
 67
     1
  8
SLD-0
  6
CENTER
 62
     7
100
AcDbLine
 10
77.1800103775
 20
157.7677675922
 30
0.0
 11
437.1800103775
 21
157.7677675922
 31
0.0
  0
LINE
  5
A1
330
1B
100
AcDbEntity
 67
     1
  8
SLD-0
  6
CENTER
 62
     7
100
AcDbLine
 10
62.1800103775
 20
220.7677675922
 30
0.0
 11
62.1800103775
 21
172.7677675922
 31
0.0
  0
LINE
  5
A2
330
1B
100
AcDbEntity
 67
     1
  8
SLD-0
  6
Continuous
 62
     7
100
AcDbLine
 10
259.1800104725
 20
337.1129650149
 30
0.0
 11
257.1800103775
 21
342.6079200107
 31
0.0
  0
LINE
  5
A3
330
1B
100
AcDbEntity
 67
     1
  8
SLD-0
  6
Continuous
 62
     7
100
AcDbLine
 10
257.1800103775
 20
342.6079200107
 30
0.0
 11
255.1800102825
 21
337.1129650149
 31
0.0
  0
LINE
  5
A4
330
1B
100
AcDbEntity
 67
     1
  8
SLD-0
  6
Continuous
 62
     7
100
AcDbLine
 10
255.1800102825
 20
337.1129650149
 30
0.0
 11
255.1800102825
 21
324.3079194325
 31
0.0
  0
LINE
  5
A5
330
1B
100
AcDbEntity
 67
     1
  8
SLD-0
  6
Continuous
 62
     7
100
AcDbLine
 10
259.1800104725
 20
324.3079194325
 30
0.0
 11
259.1800104725
 21
337.1129650149
 31
0.0
  0
LINE
  5
A6
330
1B
100
AcDbEntity
 67
     1
  8
SLD-0
  6
Continuous
 62
     7
100
AcDbLine
 10
119.1800138346
 20
337.1129650149
 30
0.0
 11
117.1800097815
 21
342.6079200107
 31
0.0
  0
LINE
  5
A7
330
1B
100
AcDbEntity
 67
     1
  8
SLD-0
  6
Continuous
 62
     7
100
AcDbLine
 10
117.1800097815
 20
342.6079200107
 30
0.0
 11
115.1800057283
 21
337.1129650149
 31
0.0
  0
LINE
  5
A8
330
1B
100
AcDbEntity
 67
     1
  8
SLD-0
  6
Continuous
 62
     7
100
AcDbLine
 10
115.1800057283
 20
337.1129650149
 30
0.0
 11
115.1800057283
 21
324.3079194325
 31
0.0
  0
LINE
  5
A9
330
1B
100
AcDbEntity
 67
     1
  8
SLD-0
  6
Continuous
 62
     7
100
AcDbLine
 10
119.1800138346
 20
324.3079194325
 30
0.0
 11
119.1800138346
 21
337.1129650149
 31
0.0
  0
LINE
  5
AA
330
1B
100
AcDbEntity
 67
     1
  8
SLD-0
  6
Continuous
 62
     7
100
AcDbLine
 10
399.1800150267
 20
337.1129650149
 30
0.0
 11
397.1800109735
 21
342.6079200107
 31
0.0
  0
LINE
  5
AB
330
1B
100
AcDbEntity
 67
     1
  8
SLD-0
  6
Continuous
 62
     7
100
AcDbLine
 10
397.1800109735
 20
342.6079200107
 30
0.0
 11
395.1800069204
 21
337.1129650149
 31
0.0
  0
LINE
  5
AC
330
1B
100
AcDbEntity
 67
     1
  8
SLD-0
  6
Continuous
 62
     7
100
AcDbLine
 10
395.1800069204
 20
337.1129650149
 30
0.0
 11
395.1800069204
 21
324.3079194325
 31
0.0
  0
LINE
  5
AD
330
1B
100
AcDbEntity
 67
     1
  8
SLD-0
  6
Continuous
 62
     7
100
AcDbLine
 10
399.1800150267
 20
324.3079194325
 30
0.0
 11
399.1800150267
 21
337.1129650149
 31
0.0
  0
LINE
  5
AE
330
1B
100
AcDbEntity
 67
     1
  8
SLD-0
  6
Continuous
 62
     7
100
AcDbLine
 10
427.1800121656
 20
301.3079193878
 30
0.0
 11
437.1800175301
 21
301.3079193878
 31
0.0
  0
LINE
  5
AF
330
1B
100
AcDbEntity
 67
     1
  8
SLD-0
  6
Continuous
 62
     7
100
AcDbLine
 10
437.1800175301
 20
311.3079191643
 30
0.0
 11
427.1800121656
 21
311.3079191643
 31
0.0
  0
LINE
  5
B0
330
1B
100
AcDbEntity
 67
     1
  8
SLD-0
  6
Continuous
 62
     7
100
AcDbLine
 10
437.1800175301
 20
301.3079193878
 30
0.0
 11
452.1800032249
 21
301.3079193878
 31
0.0
  0
LINE
  5
B1
330
1B
100
AcDbEntity
 67
     1
  8
SLD-0
  6
Continuous
 62
     7
100
AcDbLine
 10
452.1800032249
 20
311.3079191643
 30
0.0
 11
437.1800175301
 21
311.3079191643
 31
0.0
  0
LINE
  5
B2
330
1B
100
AcDbEntity
 67
     1
  8
SLD-0
  6
Continuous
 62
     7
100
AcDbLine
 10
87.1800085894
 20
311.3079191643
 30
0.0
 11
77.1800032249
 21
311.3079191643
 31
0.0
  0
LINE
  5
B3
330
1B
100
AcDbEntity
 67
     1
  8
SLD-0
  6
Continuous
 62
     7
100
AcDbLine
 10
77.1800032249
 20
301.3079193878
 30
0.0
 11
87.1800085894
 21
301.3079193878
 31
0.0
  0
LINE
  5
B4
330
1B
100
AcDbEntity
 67
     1
  8
SLD-0
  6
Continuous
 62
     7
100
AcDbLine
 10
62.1800175301
 20
301.3079193878
 30
0.0
 11
77.1800032249
 21
301.3079193878
 31
0.0
  0
LINE
  5
B5
330
1B
100
AcDbEntity
 67
     1
  8
SLD-0
  6
Continuous
 62
     7
100
AcDbLine
 10
77.1800032249
 20
311.3079191643
 30
0.0
 11
62.1800175301
 21
311.3079191643
 31
0.0
  0
LINE
  5
B6
330
1B
100
AcDbEntity
 67
     1
  8
SLD-0
  6
Continuous
 62
     7
100
AcDbLine
 10
87.6800165913
 20
296.3079181064
 30
0.0
 11
426.6800032399
 21
296.3079181064
 31
0.0
  0
LINE
  5
B7
330
1B
100
AcDbEntity
 67
     1
  8
SLD-0
  6
Continuous
 62
     7
100
AcDbLine
 10
106.6026589266
 20
321.3079194065
 30
0.0
 11
106.0253134361
 21
320.3079192425
 31
0.0
  0
LINE
  5
B8
330
1B
100
AcDbEntity
 67
     1
  8
SLD-0
  6
Continuous
 62
     7
100
AcDbLine
 10
106.0253134361
 20
320.3079192425
 30
0.0
 11
106.6026589266
 21
319.3079195443
 31
0.0
  0
LINE
  5
B9
330
1B
100
AcDbEntity
 67
     1
  8
SLD-0
  6
Continuous
 62
     7
100
AcDbLine
 10
106.6026589266
 20
319.3079195443
 30
0.0
 11
107.7573648087
 21
319.3079195443
 31
0.0
  0
LINE
  5
BA
330
1B
100
AcDbEntity
 67
     1
  8
SLD-0
  6
Continuous
 62
     7
100
AcDbLine
 10
107.7573648087
 20
319.3079195443
 30
0.0
 11
108.3347102991
 21
320.3079192425
 31
0.0
  0
LINE
  5
BB
330
1B
100
AcDbEntity
 67
     1
  8
SLD-0
  6
Continuous
 62
     7
100
AcDbLine
 10
108.3347102991
 20
320.3079192425
 30
0.0
 11
107.7573648087
 21
321.3079194065
 31
0.0
  0
LINE
  5
BC
330
1B
100
AcDbEntity
 67
     1
  8
SLD-0
  6
Continuous
 62
     7
100
AcDbLine
 10
107.7573648087
 20
321.3079194065
 30
0.0
 11
106.6026589266
 21
321.3079194065
 31
0.0
  0
LINE
  5
BD
330
1B
100
AcDbEntity
 67
     1
  8
SLD-0
  6
Continuous
 62
     7
100
AcDbLine
 10
406.6026559463
 20
321.3079194065
 30
0.0
 11
406.0253104559
 21
320.3079192425
 31
0.0
  0
LINE
  5
BE
330
1B
100
AcDbEntity
 67
     1
  8
SLD-0
  6
Continuous
 62
     7
100
AcDbLine
 10
406.0253104559
 20
320.3079192425
 30
0.0
 11
406.6026559463
 21
319.3079195443
 31
0.0
  0
LINE
  5
BF
330
1B
100
AcDbEntity
 67
     1
  8
SLD-0
  6
Continuous
 62
     7
100
AcDbLine
 10
406.6026559463
 20
319.3079195443
 30
0.0
 11
407.7573618284
 21
319.3079195443
 31
0.0
  0
LINE
  5
C0
330
1B
100
AcDbEntity
 67
     1
  8
SLD-0
  6
Continuous
 62
     7
100
AcDbLine
 10
407.7573618284
 20
319.3079195443
 30
0.0
 11
408.3347073189
 21
320.3079192425
 31
0.0
  0
LINE
  5
C1
330
1B
100
AcDbEntity
 67
     1
  8
SLD-0
  6
Continuous
 62
     7
100
AcDbLine
 10
408.3347073189
 20
320.3079192425
 30
0.0
 11
407.7573618284
 21
321.3079194065
 31
0.0
  0
LINE
  5
C2
330
1B
100
AcDbEntity
 67
     1
  8
SLD-0
  6
Continuous
 62
     7
100
AcDbLine
 10
407.7573618284
 20
321.3079194065
 30
0.0
 11
406.6026559463
 21
321.3079194065
 31
0.0
  0
LINE
  5
C3
330
1B
100
AcDbEntity
 67
     1
  8
SLD-0
  6
Continuous
 62
     7
100
AcDbLine
 10
257.1800103775
 20
337.1129650149
 30
0.0
 11
259.1800104725
 21
337.1129650149
 31
0.0
  0
LINE
  5
C4
330
1B
100
AcDbEntity
 67
     1
  8
SLD-0
  6
Continuous
 62
     7
100
AcDbLine
 10
255.1800102825
 20
337.1129650149
 30
0.0
 11
257.1800103775
 21
337.1129650149
 31
0.0
  0
LINE
  5
C5
330
1B
100
AcDbEntity
 67
     1
  8
SLD-0
  6
Continuous
 62
     7
100
AcDbLine
 10
117.1800097815
 20
337.1129650149
 30
0.0
 11
119.1800138346
 21
337.1129650149
 31
0.0
  0
LINE
  5
C6
330
1B
100
AcDbEntity
 67
     1
  8
SLD-0
  6
Continuous
 62
     7
100
AcDbLine
 10
115.1800057283
 20
337.1129650149
 30
0.0
 11
117.1800097815
 21
337.1129650149
 31
0.0
  0
LINE
  5
C7
330
1B
100
AcDbEntity
 67
     1
  8
SLD-0
  6
Continuous
 62
     7
100
AcDbLine
 10
397.1800109735
 20
337.1129650149
 30
0.0
 11
399.1800150267
 21
337.1129650149
 31
0.0
  0
LINE
  5
C8
330
1B
100
AcDbEntity
 67
     1
  8
SLD-0
  6
Continuous
 62
     7
100
AcDbLine
 10
395.1800069204
 20
337.1129650149
 30
0.0
 11
397.1800109735
 21
337.1129650149
 31
0.0
  0
LINE
  5
C9
330
1B
100
AcDbEntity
 67
     1
  8
SLD-0
  6
Continuous
 62
     7
100
AcDbLine
 10
427.1800112418
 20
324.3079194325
 30
0.0
 11
427.1800112418
 21
306.3079202074
 31
0.0
  0
LINE
  5
CA
330
1B
100
AcDbEntity
 67
     1
  8
SLD-0
  6
Continuous
 62
     7
100
AcDbLine
 10
426.6800037018
 20
324.3079194325
 30
0.0
 11
427.1800112418
 21
324.3079194325
 31
0.0
  0
LINE
  5
CB
330
1B
100
AcDbEntity
 67
     1
  8
SLD-0
  6
Continuous
 62
     7
100
AcDbLine
 10
426.6800037018
 20
324.3079194325
 30
0.0
 11
87.6800170532
 21
324.3079194325
 31
0.0
  0
LINE
  5
CC
330
1B
100
AcDbEntity
 67
     1
  8
SLD-0
  6
Continuous
 62
     7
100
AcDbLine
 10
87.1800085894
 20
306.3079202074
 30
0.0
 11
87.1800085894
 21
324.3079194325
 31
0.0
  0
LINE
  5
CD
330
1B
100
AcDbEntity
 67
     1
  8
SLD-0
  6
Continuous
 62
     7
100
AcDbLine
 10
87.1800085894
 20
324.3079194325
 30
0.0
 11
87.6800170532
 21
324.3079194325
 31
0.0
  0
LINE
  5
CE
330
1B
100
AcDbEntity
 67
     1
  8
SLD-0
  6
Continuous
 62
     7
100
AcDbLine
 10
427.1800112418
 20
306.3079202074
 30
0.0
 11
427.1800112418
 21
296.8079195815
 31
0.0
  0
LINE
  5
CF
330
1B
100
AcDbEntity
 67
     1
  8
SLD-0
  6
Continuous
 62
     7
100
AcDbLine
 10
87.1800085894
 20
296.8079195815
 30
0.0
 11
87.1800085894
 21
306.3079202074
 31
0.0
  0
LINE
  5
D0
330
1B
100
AcDbEntity
 67
     1
  8
SLD-0
  6
Continuous
 62
     7
100
AcDbLine
 10
87.1800085894
 20
301.3079193878
 30
0.0
 11
87.1800085894
 21
301.1079197276
 31
0.0
  0
LINE
  5
D1
330
1B
100
AcDbEntity
 67
     1
  8
SLD-0
  6
Continuous
 62
     7
100
AcDbLine
 10
427.1800121656
 20
301.3079193878
 30
0.0
 11
427.1800121656
 21
301.1079197276
 31
0.0
  0
LINE
  5
D2
330
1B
100
AcDbEntity
 67
     1
  8
SLD-0
  6
CENTER
 62
     7
100
AcDbLine
 10
52.4787140292
 20
306.3079194325
 30
0.0
 11
462.5605551026
 21
306.3079194325
 31
0.0
  0
LINE
  5
D3
330
1B
100
AcDbEntity
 67
     1
  8
SLD-0
  6
CENTER
 62
     7
100
AcDbLine
 10
117.1800103775
 20
321.2767600283
 30
0.0
 11
117.1800103775
 21
345.2557959954
 31
0.0
  0
LINE
  5
D4
330
1B
100
AcDbEntity
 67
     1
  8
SLD-0
  6
CENTER
 62
     7
100
AcDbLine
 10
257.1800103775
 20
320.6599694221
 30
0.0
 11
257.1800103775
 21
345.5164376907
 31
0.0
  0
LINE
  5
D5
330
1B
100
AcDbEntity
 67
     1
  8
SLD-0
  6
CENTER
 62
     7
100
AcDbLine
 10
397.1800103775
 20
321.2307593359
 30
0.0
 11
397.1800103775
 21
345.1849062053
 31
0.0
  0
LINE
  5
D6
330
1B
100
AcDbEntity
 67
     1
  8
SLD-0
  6
PHANTOM
 62
     7
100
AcDbLine
 10
549.0286061853
 20
245.7677677039
 30
0.0
 11
549.0286061853
 21
255.8018066957
 31
0.0
  0
LINE
  5
D7
330
1B
100
AcDbEntity
 67
     1
  8
SLD-0
  6
Continuous
 62
     7
100
AcDbLine
 10
536.0075619087
 20
237.2677676053
 30
0.0
 11
535.798302108
 21
237.2677676053
 31
0.0
  0
LINE
  5
D8
330
1B
100
AcDbEntity
 67
     1
  8
SLD-0
  6
Continuous
 62
     7
100
AcDbLine
 10
547.0286062468
 20
229.167767628
 30
0.0
 11
547.0286062468
 21
229.2677674581
 31
0.0
  0
LINE
  5
D9
330
1B
100
AcDbEntity
 67
     1
  8
SLD-0
  6
Continuous
 62
     7
100
AcDbLine
 10
543.0286062896
 20
229.2677674581
 30
0.0
 11
543.0286062896
 21
229.167767628
 31
0.0
  0
LINE
  5
DA
330
1B
100
AcDbEntity
 67
     1
  8
SLD-0
  6
Continuous
 62
     7
100
AcDbLine
 10
543.0286062896
 20
242.3677675565
 30
0.0
 11
543.0286062896
 21
242.2677677263
 31
0.0
  0
LINE
  5
DB
330
1B
100
AcDbEntity
 67
     1
  8
SLD-0
  6
Continuous
 62
     7
100
AcDbLine
 10
547.0286062468
 20
242.2677677263
 30
0.0
 11
547.0286062468
 21
242.3677675565
 31
0.0
  0
LINE
  5
DC
330
1B
100
AcDbEntity
 67
     1
  8
SLD-0
  6
Continuous
 62
     7
100
AcDbLine
 10
561.8336519241
 20
233.7677674972
 30
0.0
 11
567.3286069199
 21
235.7677675922
 31
0.0
  0
LINE
  5
DD
330
1B
100
AcDbEntity
 67
     1
  8
SLD-0
  6
Continuous
 62
     7
100
AcDbLine
 10
567.3286069199
 20
235.7677675922
 30
0.0
 11
561.8336519241
 21
237.7677676872
 31
0.0
  0
LINE
  5
DE
330
1B
100
AcDbEntity
 67
     1
  8
SLD-0
  6
Continuous
 62
     7
100
AcDbLine
 10
561.8336519241
 20
237.7677676872
 30
0.0
 11
549.0286063418
 21
237.7677676872
 31
0.0
  0
LINE
  5
DF
330
1B
100
AcDbEntity
 67
     1
  8
SLD-0
  6
Continuous
 62
     7
100
AcDbLine
 10
549.0286063418
 20
233.7677674972
 30
0.0
 11
561.8336519241
 21
233.7677674972
 31
0.0
  0
LINE
  5
E0
330
1B
100
AcDbEntity
 67
     1
  8
SLD-0
  6
Continuous
 62
     7
100
AcDbLine
 10
526.0286062971
 20
172.767766579
 30
0.0
 11
526.0286062971
 21
157.7677659829
 31
0.0
  0
LINE
  5
E1
330
1B
100
AcDbEntity
 67
     1
  8
SLD-0
  6
Continuous
 62
     7
100
AcDbLine
 10
536.0286060735
 20
157.7677659829
 30
0.0
 11
536.0286060735
 21
172.767766579
 31
0.0
  0
LINE
  5
E2
330
1B
100
AcDbEntity
 67
     1
  8
SLD-0
  6
Continuous
 62
     7
100
AcDbLine
 10
536.0286060735
 20
172.767766579
 30
0.0
 11
536.0286060735
 21
220.7677679275
 31
0.0
  0
LINE
  5
E3
330
1B
100
AcDbEntity
 67
     1
  8
SLD-0
  6
Continuous
 62
     7
100
AcDbLine
 10
526.0286062971
 20
220.7677679275
 30
0.0
 11
526.0286062971
 21
172.767766579
 31
0.0
  0
LINE
  5
E4
330
1B
100
AcDbEntity
 67
     1
  8
SLD-0
  6
Continuous
 62
     7
100
AcDbLine
 10
526.0286062971
 20
235.7677675922
 30
0.0
 11
526.0286062971
 21
220.7677679275
 31
0.0
  0
LINE
  5
E5
330
1B
100
AcDbEntity
 67
     1
  8
SLD-0
  6
Continuous
 62
     7
100
AcDbLine
 10
536.0286060735
 20
220.7677679275
 30
0.0
 11
536.0286060735
 21
235.7677675922
 31
0.0
  0
LINE
  5
E6
330
1B
100
AcDbEntity
 67
     1
  8
SLD-0
  6
Continuous
 62
     7
100
AcDbLine
 10
536.0286060735
 20
234.3535540298
 30
0.0
 11
536.0326051727
 21
234.3535540298
 31
0.0
  0
LINE
  5
E7
330
1B
100
AcDbEntity
 67
     1
  8
SLD-0
  6
Continuous
 62
     7
100
AcDbLine
 10
561.8336519241
 20
237.7677676872
 30
0.0
 11
561.8336519241
 21
233.7677674972
 31
0.0
  0
LINE
  5
E8
330
1B
100
AcDbEntity
 67
     1
  8
SLD-0
  6
Continuous
 62
     7
100
AcDbLine
 10
549.0286063418
 20
225.7677678157
 30
0.0
 11
536.0286060735
 21
225.7677678157
 31
0.0
  0
LINE
  5
E9
330
1B
100
AcDbEntity
 67
     1
  8
SLD-0
  6
Continuous
 62
     7
100
AcDbLine
 10
549.0286063418
 20
226.2677678977
 30
0.0
 11
549.0286063418
 21
225.7677678157
 31
0.0
  0
LINE
  5
EA
330
1B
100
AcDbEntity
 67
     1
  8
SLD-0
  6
Continuous
 62
     7
100
AcDbLine
 10
531.0286069601
 20
245.7677674804
 30
0.0
 11
549.0286061853
 21
245.7677677039
 31
0.0
  0
LINE
  5
EB
330
1B
100
AcDbEntity
 67
     1
  8
SLD-0
  6
Continuous
 62
     7
100
AcDbLine
 10
549.0286061853
 20
245.7677677039
 30
0.0
 11
549.0286061853
 21
245.2677673986
 31
0.0
  0
LINE
  5
EC
330
1B
100
AcDbEntity
 67
     1
  8
SLD-0
  6
Continuous
 62
     7
100
AcDbLine
 10
531.0286069601
 20
242.3677676683
 30
0.0
 11
549.0286061853
 21
242.3677676683
 31
0.0
  0
LINE
  5
ED
330
1B
100
AcDbEntity
 67
     1
  8
SLD-0
  6
Continuous
 62
     7
100
AcDbLine
 10
531.0286069601
 20
240.9677677182
 30
0.0
 11
531.0286069601
 21
242.3677676683
 31
0.0
  0
LINE
  5
EE
330
1B
100
AcDbEntity
 67
     1
  8
SLD-0
  6
Continuous
 62
     7
100
AcDbLine
 10
549.0286061853
 20
242.3677676683
 30
0.0
 11
549.0286061853
 21
245.2677673986
 31
0.0
  0
LINE
  5
EF
330
1B
100
AcDbEntity
 67
     1
  8
SLD-0
  6
Continuous
 62
     7
100
AcDbLine
 10
549.0286063418
 20
229.167767628
 30
0.0
 11
536.0286060735
 21
229.167767628
 31
0.0
  0
LINE
  5
F0
330
1B
100
AcDbEntity
 67
     1
  8
SLD-0
  6
Continuous
 62
     7
100
AcDbLine
 10
549.0286063418
 20
226.2677678977
 30
0.0
 11
549.0286063418
 21
229.167767628
 31
0.0
  0
LINE
  5
F1
330
1B
100
AcDbEntity
 67
     1
  8
SLD-0
  6
Continuous
 62
     7
100
AcDbLine
 10
531.0286069601
 20
242.2677678381
 30
0.0
 11
531.0286069601
 21
240.9677677182
 31
0.0
  0
LINE
  5
F2
330
1B
100
AcDbEntity
 67
     1
  8
SLD-0
  6
Continuous
 62
     7
100
AcDbLine
 10
549.0286061853
 20
229.2677675699
 30
0.0
 11
549.0286061853
 21
242.2677678381
 31
0.0
  0
LINE
  5
F3
330
1B
100
AcDbEntity
 67
     1
  8
SLD-0
  6
Continuous
 62
     7
100
AcDbLine
 10
536.028605917
 20
229.2677675699
 30
0.0
 11
549.0286061853
 21
229.2677675699
 31
0.0
  0
LINE
  5
F4
330
1B
100
AcDbEntity
 67
     1
  8
SLD-0
  6
Continuous
 62
     7
100
AcDbLine
 10
549.0286061853
 20
242.2677678381
 30
0.0
 11
531.0286069601
 21
242.2677678381
 31
0.0
  0
LINE
  5
F5
330
1B
100
AcDbEntity
 67
     1
  8
SLD-0
  6
CENTER
 62
     7
100
AcDbLine
 10
111.3300103775
 20
320.3079194325
 30
0.0
 11
103.0300103775
 21
320.3079194325
 31
0.0
  0
LINE
  5
F6
330
1B
100
AcDbEntity
 67
     1
  8
SLD-0
  6
CENTER
 62
     7
100
AcDbLine
 10
107.1800103775
 20
324.4579194325
 30
0.0
 11
107.1800103775
 21
316.1579194325
 31
0.0
  0
LINE
  5
F7
330
1B
100
AcDbEntity
 67
     1
  8
SLD-0
  6
CENTER
 62
     7
100
AcDbLine
 10
411.3300103775
 20
320.3079194325
 30
0.0
 11
403.0300103775
 21
320.3079194325
 31
0.0
  0
LINE
  5
F8
330
1B
100
AcDbEntity
 67
     1
  8
SLD-0
  6
CENTER
 62
     7
100
AcDbLine
 10
407.1800103775
 20
324.4579194325
 30
0.0
 11
407.1800103775
 21
316.1579194325
 31
0.0
  0
LINE
  5
F9
330
1B
100
AcDbEntity
 67
     1
  8
SLD-0
  6
CENTER
 62
     7
100
AcDbLine
 10
539.0286063418
 20
157.7677675922
 30
0.0
 11
523.0286063418
 21
157.7677675922
 31
0.0
  0
LINE
  5
FA
330
1B
100
AcDbEntity
 67
     1
  8
SLD-0
  6
CENTER
 62
     7
100
AcDbLine
 10
531.0286063418
 20
165.7677675922
 30
0.0
 11
531.0286063418
 21
149.7677675922
 31
0.0
  0
LINE
  5
FB
330
1B
100
AcDbEntity
 67
     1
  8
SLD-0
  6
CENTER
 62
     7
100
AcDbLine
 10
570.9274745076
 20
235.7677675922
 30
0.0
 11
520.0286063418
 21
235.7677675922
 31
0.0
  0
LINE
  5
FC
330
1B
100
AcDbEntity
 67
     1
  8
SLD-0
  6
CENTER
 62
     7
100
AcDbLine
 10
531.0286063418
 20
246.7677675922
 30
0.0
 11
531.0286063418
 21
165.7677675922
 31
0.0
  0
LINE
  5
FD
330
1B
100
AcDbEntity
 67
     1
  8
SLD-0
  6
Continuous
 62
     7
100
AcDbLine
 10
514.4056697985
 20
42.7197415391
 30
0.0
 11
512.154552146
 21
42.7197415391
 31
0.0
  0
LINE
  5
FE
330
1B
100
AcDbEntity
 67
     1
  8
SLD-0
  6
Continuous
 62
     7
100
AcDbLine
 10
514.4056697985
 20
42.7197415391
 30
0.0
 11
514.4056697985
 21
36.9311529971
 31
0.0
  0
LINE
  5
FF
330
1B
100
AcDbEntity
 67
     1
  8
SLD-0
  6
Continuous
 62
     7
100
AcDbLine
 10
516.1744049174
 20
36.9311529971
 30
0.0
 11
514.4056697985
 21
36.9311529971
 31
0.0
  0
LINE
  5
100
330
1B
100
AcDbEntity
 67
     1
  8
SLD-0
  6
Continuous
 62
     7
100
AcDbLine
 10
516.1744049174
 20
42.7197415391
 30
0.0
 11
516.1744049174
 21
36.9311529971
 31
0.0
  0
LINE
  5
101
330
1B
100
AcDbEntity
 67
     1
  8
SLD-0
  6
Continuous
 62
     7
100
AcDbLine
 10
518.7471108326
 20
42.7197415391
 30
0.0
 11
516.1744049174
 21
42.7197415391
 31
0.0
  0
LINE
  5
102
330
1B
100
AcDbEntity
 67
     1
  8
SLD-0
  6
Continuous
 62
     7
100
AcDbLine
 10
518.7471108326
 20
42.7197415391
 30
0.0
 11
518.7471108326
 21
35.6448003188
 31
0.0
  0
LINE
  5
103
330
1B
100
AcDbEntity
 67
     1
  8
SLD-0
  6
Continuous
 62
     7
100
AcDbLine
 10
514.4056697985
 20
35.6448003188
 30
0.0
 11
518.7471108326
 21
35.6448003188
 31
0.0
  0
LINE
  5
104
330
1B
100
AcDbEntity
 67
     1
  8
SLD-0
  6
Continuous
 62
     7
100
AcDbLine
 10
514.4056697985
 20
35.6448003188
 30
0.0
 11
514.4056697985
 21
34.0368590985
 31
0.0
  0
LINE
  5
105
330
1B
100
AcDbEntity
 67
     1
  8
SLD-0
  6
Continuous
 62
     7
100
AcDbLine
 10
507.8131108326
 20
34.0368590985
 30
0.0
 11
514.4056697985
 21
34.0368590985
 31
0.0
  0
LINE
  5
106
330
1B
100
AcDbEntity
 67
     1
  8
SLD-0
  6
Continuous
 62
     7
100
AcDbLine
 10
507.8131108326
 20
42.7197415391
 30
0.0
 11
507.8131108326
 21
34.0368590985
 31
0.0
  0
LINE
  5
107
330
1B
100
AcDbEntity
 67
     1
  8
SLD-0
  6
Continuous
 62
     7
100
AcDbLine
 10
512.154552146
 20
42.7197415391
 30
0.0
 11
512.154552146
 21
35.6448003188
 31
0.0
  0
LINE
  5
108
330
1B
100
AcDbEntity
 67
     1
  8
SLD-0
  6
Continuous
 62
     7
100
AcDbLine
 10
510.3858167478
 20
42.7197415391
 30
0.0
 11
510.3858167478
 21
35.6448003188
 31
0.0
  0
LINE
  5
109
330
1B
100
AcDbEntity
 67
     1
  8
SLD-0
  6
Continuous
 62
     7
100
AcDbLine
 10
512.154552146
 20
35.6448003188
 30
0.0
 11
510.3858167478
 21
35.6448003188
 31
0.0
  0
LINE
  5
10A
330
1B
100
AcDbEntity
 67
     1
  8
SLD-0
  6
Continuous
 62
     7
100
AcDbLine
 10
510.3858167478
 20
42.7197415391
 30
0.0
 11
507.8131108326
 21
42.7197415391
 31
0.0
  0
LINE
  5
10B
330
1B
100
AcDbEntity
 67
     1
  8
SLD-0
  6
Continuous
 62
     7
100
AcDbLine
 10
411.885
 20
12.74475
 30
0.0
 11
411.885
 21
43.98475
 31
0.0
  0
LINE
  5
10C
330
1B
100
AcDbEntity
 67
     1
  8
SLD-0
  6
Continuous
 62
     7
370
    35
100
AcDbLine
 10
28.485
 20
12.74475
 30
0.0
 11
578.735
 21
12.74475
 31
0.0
  0
LINE
  5
10D
330
1B
100
AcDbEntity
 67
     1
  8
SLD-0
  6
Continuous
 62
     7
370
    35
100
AcDbLine
 10
28.485
 20
406.08475
 30
0.0
 11
28.485
 21
12.74475
 31
0.0
  0
LINE
  5
10E
330
1B
100
AcDbEntity
 67
     1
  8
SLD-0
  6
Continuous
 62
     7
370
    35
100
AcDbLine
 10
28.485
 20
43.98475
 30
0.0
 11
194.625
 21
43.98475
 31
0.0
  0
LINE
  5
10F
330
1B
100
AcDbEntity
 67
     1
  8
SLD-0
  6
Continuous
 62
     7
370
    35
100
AcDbLine
 10
578.735
 20
406.08475
 30
0.0
 11
578.735
 21
12.74475
 31
0.0
  0
LINE
  5
110
330
1B
100
AcDbEntity
 67
     1
  8
SLD-0
  6
Continuous
 62
     7
370
    35
100
AcDbLine
 10
194.625
 20
43.98475
 30
0.0
 11
578.735
 21
43.98475
 31
0.0
  0
LINE
  5
111
330
1B
100
AcDbEntity
 67
     1
  8
SLD-0
  6
Continuous
 62
     7
370
    35
100
AcDbLine
 10
28.485
 20
406.08475
 30
0.0
 11
578.735
 21
406.08475
 31
0.0
  0
LINE
  5
112
330
1B
100
AcDbEntity
 67
     1
  8
SLD-0
  6
Continuous
 62
     7
100
AcDbLine
 10
36.295
 20
28.36475
 30
0.0
 11
194.625
 21
28.36475
 31
0.0
  0
LINE
  5
113
330
1B
100
AcDbEntity
 67
     1
  8
SLD-0
  6
Continuous
 62
     7
100
AcDbLine
 10
68.955
 20
43.98475
 30
0.0
 11
68.955
 21
12.74475
 31
0.0
  0
LINE
  5
114
330
1B
100
AcDbEntity
 67
     1
  8
SLD-0
  6
Continuous
 62
     7
100
AcDbLine
 10
36.295
 20
36.17475
 30
0.0
 11
194.625
 21
36.17475
 31
0.0
  0
LINE
  5
115
330
1B
100
AcDbEntity
 67
     1
  8
SLD-0
  6
Continuous
 62
     7
100
AcDbLine
 10
47.655
 20
43.98475
 30
0.0
 11
47.655
 21
12.74475
 31
0.0
  0
LINE
  5
116
330
1B
100
AcDbEntity
 67
     1
  8
SLD-0
  6
Continuous
 62
     7
100
AcDbLine
 10
36.295
 20
43.98475
 30
0.0
 11
36.295
 21
12.74475
 31
0.0
  0
LINE
  5
117
330
1B
100
AcDbEntity
 67
     1
  8
SLD-0
  6
Continuous
 62
     7
100
AcDbLine
 10
36.295
 20
20.55475
 30
0.0
 11
194.625
 21
20.55475
 31
0.0
  0
LINE
  5
118
330
1B
100
AcDbEntity
 67
     1
  8
SLD-0
  6
Continuous
 62
     7
100
AcDbLine
 10
286.925
 20
43.98475
 30
0.0
 11
286.925
 21
12.74475
 31
0.0
  0
LINE
  5
119
330
1B
100
AcDbEntity
 67
     1
  8
SLD-0
  6
Continuous
 62
     7
100
AcDbLine
 10
279.825
 20
43.98475
 30
0.0
 11
279.825
 21
12.74475
 31
0.0
  0
LINE
  5
11A
330
1B
100
AcDbEntity
 67
     1
  8
SLD-0
  6
Continuous
 62
     7
100
AcDbLine
 10
201.725
 20
43.98475
 30
0.0
 11
201.725
 21
12.74475
 31
0.0
  0
LINE
  5
11B
330
1B
100
AcDbEntity
 67
     1
  8
SLD-0
  6
Continuous
 62
     7
100
AcDbLine
 10
194.625
 20
43.98475
 30
0.0
 11
194.625
 21
28.36475
 31
0.0
  0
LINE
  5
11C
330
1B
100
AcDbEntity
 67
     1
  8
SLD-0
  6
Continuous
 62
     7
100
AcDbLine
 10
83.155
 20
43.98475
 30
0.0
 11
83.155
 21
12.74475
 31
0.0
  0
LINE
  5
11D
330
1B
100
AcDbEntity
 67
     1
  8
SLD-0
  6
Continuous
 62
     7
100
AcDbLine
 10
326.685
 20
43.98475
 30
0.0
 11
326.685
 21
28.36475
 31
0.0
  0
LINE
  5
11E
330
1B
100
AcDbEntity
 67
     1
  8
SLD-0
  6
Continuous
 62
     7
100
AcDbLine
 10
333.785
 20
43.98475
 30
0.0
 11
333.785
 21
28.36475
 31
0.0
  0
LINE
  5
11F
330
1B
100
AcDbEntity
 67
     1
  8
SLD-0
  6
Continuous
 62
     7
100
AcDbLine
 10
355.085
 20
43.98475
 30
0.0
 11
355.085
 21
28.36475
 31
0.0
  0
LINE
  5
120
330
1B
100
AcDbEntity
 67
     1
  8
SLD-0
  6
Continuous
 62
     7
100
AcDbLine
 10
362.185
 20
43.98475
 30
0.0
 11
362.185
 21
28.36475
 31
0.0
  0
LINE
  5
121
330
1B
100
AcDbEntity
 67
     1
  8
SLD-0
  6
Continuous
 62
     7
100
AcDbLine
 10
418.985
 20
43.98475
 30
0.0
 11
418.985
 21
28.36475
 31
0.0
  0
LINE
  5
122
330
1B
100
AcDbEntity
 67
     1
  8
SLD-0
  6
Continuous
 62
     7
100
AcDbLine
 10
440.285
 20
43.98475
 30
0.0
 11
440.285
 21
12.74475
 31
0.0
  0
LINE
  5
123
330
1B
100
AcDbEntity
 67
     1
  8
SLD-0
  6
Continuous
 62
     7
100
AcDbLine
 10
461.585
 20
43.98475
 30
0.0
 11
461.585
 21
12.74475
 31
0.0
  0
LINE
  5
124
330
1B
100
AcDbEntity
 67
     1
  8
SLD-0
  6
Continuous
 62
     7
100
AcDbLine
 10
482.885
 20
43.98475
 30
0.0
 11
482.885
 21
12.74475
 31
0.0
  0
LINE
  5
125
330
1B
100
AcDbEntity
 67
     1
  8
SLD-0
  6
Continuous
 62
     7
100
AcDbLine
 10
504.185
 20
43.98475
 30
0.0
 11
504.185
 21
12.74475
 31
0.0
  0
LINE
  5
126
330
1B
100
AcDbEntity
 67
     1
  8
SLD-0
  6
Continuous
 62
     7
100
AcDbLine
 10
504.185
 20
28.36475
 30
0.0
 11
578.735
 21
28.36475
 31
0.0
  0
LINE
  5
127
330
1B
100
AcDbEntity
 67
     1
  8
SLD-0
  6
Continuous
 62
     7
100
AcDbLine
 10
511.285
 20
28.36475
 30
0.0
 11
511.285
 21
12.74475
 31
0.0
  0
LINE
  5
128
330
1B
100
AcDbEntity
 67
     1
  8
SLD-0
  6
Continuous
 62
     7
100
AcDbLine
 10
440.285
 20
36.88475
 30
0.0
 11
504.185
 21
36.88475
 31
0.0
  0
LINE
  5
129
330
1B
100
AcDbEntity
 67
     1
  8
SLD-0
  6
Continuous
 62
     7
100
AcDbLine
 10
194.625
 20
28.36475
 30
0.0
 11
440.285
 21
28.36475
 31
0.0
  0
LINE
  5
12A
330
1B
100
AcDbEntity
 67
     1
  8
SLD-0
  6
Continuous
 62
     7
100
AcDbLine
 10
194.625
 20
28.36475
 30
0.0
 11
194.625
 21
12.74475
 31
0.0
  0
LINE
  5
12B
330
1B
100
AcDbEntity
 67
     1
  8
SLD-0
  6
Continuous
 62
     7
100
AcDbLine
 10
41.3873265892
 20
27.1115576482
 30
0.0
 11
38.3373265892
 21
21.8288026851
 31
0.0
  0
LINE
  5
12C
330
1B
100
AcDbEntity
 67
     1
  8
SLD-0
  6
Continuous
 62
     7
100
AcDbLine
 10
38.3373265892
 20
21.8288026851
 30
0.0
 11
44.4373265892
 21
21.8288026851
 31
0.0
  0
LINE
  5
12D
330
1B
100
AcDbEntity
 67
     1
  8
SLD-0
  6
Continuous
 62
     7
100
AcDbLine
 10
44.4373265892
 20
21.8288026851
 30
0.0
 11
41.3873265892
 21
27.1115576482
 31
0.0
  0
LINE
  5
12E
330
1B
100
AcDbEntity
 67
     1
  8
SLD-0
  6
Continuous
 62
     7
100
AcDbLine
 10
41.3440309427
 20
34.5208790554
 30
0.0
 11
38.2940309427
 21
29.2381240923
 31
0.0
  0
LINE
  5
12F
330
1B
100
AcDbEntity
 67
     1
  8
SLD-0
  6
Continuous
 62
     7
100
AcDbLine
 10
38.2940309427
 20
29.2381240923
 30
0.0
 11
44.3940309427
 21
29.2381240923
 31
0.0
  0
LINE
  5
130
330
1B
100
AcDbEntity
 67
     1
  8
SLD-0
  6
Continuous
 62
     7
100
AcDbLine
 10
44.3940309427
 20
29.2381240923
 30
0.0
 11
41.3440309427
 21
34.5208790554
 31
0.0
  0
LINE
  5
131
330
1B
100
AcDbEntity
 67
     1
  8
SLD-0
  6
Continuous
 62
     7
100
AcDbLine
 10
41.1834490337
 20
42.881404091
 30
0.0
 11
38.1334490337
 21
37.5986491279
 31
0.0
  0
LINE
  5
132
330
1B
100
AcDbEntity
 67
     1
  8
SLD-0
  6
Continuous
 62
     7
100
AcDbLine
 10
38.1334490337
 20
37.5986491279
 30
0.0
 11
44.2334490337
 21
37.5986491279
 31
0.0
  0
LINE
  5
133
330
1B
100
AcDbEntity
 67
     1
  8
SLD-0
  6
Continuous
 62
     7
100
AcDbLine
 10
44.2334490337
 20
37.5986491279
 30
0.0
 11
41.1834490337
 21
42.881404091
 31
0.0
  0
LINE
  5
134
330
1B
100
AcDbEntity
 67
     1
  8
SLD-0
  6
Continuous
 62
     7
100
AcDbLine
 10
173.325
 20
43.98475
 30
0.0
 11
173.325
 21
12.74475
 31
0.0
  0
ARC
  5
135
330
1B
100
AcDbEntity
 67
     1
  8
SLD-0
  6
Continuous
 62
     7
100
AcDbCircle
 10
437.1800103775
 20
172.7677675922
 30
0.0
 40
9.999998271452279
100
AcDbArc
 50
270.0000409814
 51
359.9999941948
  0
ARC
  5
136
330
1B
100
AcDbEntity
 67
     1
  8
SLD-0
  6
Continuous
 62
     7
100
AcDbCircle
 10
437.1800103775
 20
172.7677675922
 30
0.0
 40
19.99999991055162
100
AcDbArc
 50
270.0000204907
 51
359.9999970974
  0
ARC
  5
137
330
1B
100
AcDbEntity
 67
     1
  8
SLD-0
  6
Continuous
 62
     7
100
AcDbCircle
 10
77.1800103775
 20
172.7677675922
 30
0.0
 40
9.999998271451298
100
AcDbArc
 50
180.0000058052
 51
269.9999590186
  0
ARC
  5
138
330
1B
100
AcDbEntity
 67
     1
  8
SLD-0
  6
Continuous
 62
     7
100
AcDbCircle
 10
77.1800103775
 20
172.7677675922
 30
0.0
 40
19.99999991055066
100
AcDbArc
 50
180.0000029026
 51
269.9999795093
  0
ARC
  5
139
330
1B
100
AcDbEntity
 67
     1
  8
SLD-0
  6
Continuous
 62
     7
100
AcDbCircle
 10
437.1800097852
 20
220.7677675922
 30
0.0
 40
9.999998863801357
100
AcDbArc
 50
0.0000019211
 51
89.9999590186
  0
ARC
  5
13A
330
1B
100
AcDbEntity
 67
     1
  8
SLD-0
  6
Continuous
 62
     7
100
AcDbCircle
 10
437.1800097852
 20
220.7677675922
 30
0.0
 40
20.00000050290072
100
AcDbArc
 50
0.0000009606
 51
89.9999795093
  0
ARC
  5
13B
330
1B
100
AcDbEntity
 67
     1
  8
SLD-0
  6
Continuous
 62
     7
100
AcDbCircle
 10
77.1800109699
 20
220.7677675922
 30
0.0
 40
9.9999988638013
100
AcDbArc
 50
90.0000409814
 51
179.9999980789
  0
ARC
  5
13C
330
1B
100
AcDbEntity
 67
     1
  8
SLD-0
  6
Continuous
 62
     7
100
AcDbCircle
 10
77.1800109699
 20
220.7677675922
 30
0.0
 40
20.00000050290068
100
AcDbArc
 50
90.0000204907
 51
179.9999990394
  0
ARC
  5
13D
330
1B
100
AcDbEntity
 67
     1
  8
SLD-0
  6
Continuous
 62
     7
100
AcDbCircle
 10
426.6800093717
 20
245.2677675922
 30
0.0
 40
0.5000007823222743
100
AcDbArc
 50
359.9999650039
 51
90.0007649792
  0
ARC
  5
13E
330
1B
100
AcDbEntity
 67
     1
  8
SLD-0
  6
Continuous
 62
     7
100
AcDbCircle
 10
426.6800093717
 20
226.2677675922
 30
0.0
 40
0.5000007823223027
100
AcDbArc
 50
269.9992350208
 51
0.0000350076
  0
ARC
  5
13F
330
1B
100
AcDbEntity
 67
     1
  8
SLD-0
  6
Continuous
 62
     7
100
AcDbCircle
 10
87.6800093717
 20
245.2677675922
 30
0.0
 40
0.5000007823223251
100
AcDbArc
 50
89.9992350208
 51
180.0000349961
  0
ARC
  5
140
330
1B
100
AcDbEntity
 67
     1
  8
SLD-0
  6
Continuous
 62
     7
100
AcDbCircle
 10
87.6800093717
 20
226.2677675922
 30
0.0
 40
0.5000007823223311
100
AcDbArc
 50
179.9999649924
 51
270.0007649792
  0
ARC
  5
141
330
1B
100
AcDbEntity
 67
     1
  8
SLD-0
  6
CENTER
 62
     7
100
AcDbCircle
 10
437.1800097852
 20
220.7677675922
 30
0.0
 40
15.00000059235008
100
AcDbArc
 50
0.0
 51
89.9268178502
  0
ARC
  5
142
330
1B
100
AcDbEntity
 67
     1
  8
SLD-0
  6
CENTER
 62
     7
100
AcDbCircle
 10
437.1800103775
 20
172.7677675922
 30
0.0
 40
15.0
100
AcDbArc
 50
270.0
 51
0.0
  0
ARC
  5
143
330
1B
100
AcDbEntity
 67
     1
  8
SLD-0
  6
CENTER
 62
     7
100
AcDbCircle
 10
77.1800103775
 20
172.7677675922
 30
0.0
 40
15.0
100
AcDbArc
 50
180.0
 51
270.0
  0
ARC
  5
144
330
1B
100
AcDbEntity
 67
     1
  8
SLD-0
  6
CENTER
 62
     7
100
AcDbCircle
 10
77.1800109699
 20
220.7677675922
 30
0.0
 40
15.00000059235005
100
AcDbArc
 50
88.573515971
 51
180.0
  0
ARC
  5
145
330
1B
100
AcDbEntity
 67
     1
  8
SLD-0
  6
Continuous
 62
     7
100
AcDbCircle
 10
426.6800099156
 20
296.8079194325
 30
0.0
 40
0.5000013261722526
100
AcDbArc
 50
269.9992350224
 51
0.0000170741
  0
ARC
  5
146
330
1B
100
AcDbEntity
 67
     1
  8
SLD-0
  6
Continuous
 62
     7
100
AcDbCircle
 10
87.6800099156
 20
296.8079194325
 30
0.0
 40
0.5000013261722751
100
AcDbArc
 50
179.9999829259
 51
270.0007649776
  0
ARC
  5
147
330
1B
100
AcDbEntity
 67
     1
  8
SLD-0
  6
Continuous
 62
     7
100
AcDbCircle
 10
107.1800103775
 20
320.3079194325
 30
0.0
 40
1.000000000000008
100
AcDbArc
 50
90.0
 51
150.0
  0
ARC
  5
148
330
1B
100
AcDbEntity
 67
     1
  8
SLD-0
  6
Continuous
 62
     7
100
AcDbCircle
 10
107.1800103775
 20
320.3079194325
 30
0.0
 40
1.000000000000008
100
AcDbArc
 50
30.0
 51
90.0
  0
ARC
  5
149
330
1B
100
AcDbEntity
 67
     1
  8
SLD-0
  6
Continuous
 62
     7
100
AcDbCircle
 10
107.1800103775
 20
320.3079194325
 30
0.0
 40
1.000000000000008
100
AcDbArc
 50
150.0
 51
210.0
  0
ARC
  5
14A
330
1B
100
AcDbEntity
 67
     1
  8
SLD-0
  6
Continuous
 62
     7
100
AcDbCircle
 10
107.1800103775
 20
320.3079194325
 30
0.0
 40
1.000000000000008
100
AcDbArc
 50
330.0
 51
30.0
  0
ARC
  5
14B
330
1B
100
AcDbEntity
 67
     1
  8
SLD-0
  6
Continuous
 62
     7
100
AcDbCircle
 10
107.1800103775
 20
320.3079194325
 30
0.0
 40
1.000000000000008
100
AcDbArc
 50
270.0
 51
330.0
  0
ARC
  5
14C
330
1B
100
AcDbEntity
 67
     1
  8
SLD-0
  6
Continuous
 62
     7
100
AcDbCircle
 10
107.1800103775
 20
320.3079194325
 30
0.0
 40
1.000000000000008
100
AcDbArc
 50
210.0
 51
270.0
  0
ARC
  5
14D
330
1B
100
AcDbEntity
 67
     1
  8
SLD-0
  6
Continuous
 62
     7
100
AcDbCircle
 10
407.1800103775
 20
320.3079194325
 30
0.0
 40
0.9999999999999836
100
AcDbArc
 50
150.0
 51
210.0
  0
ARC
  5
14E
330
1B
100
AcDbEntity
 67
     1
  8
SLD-0
  6
Continuous
 62
     7
100
AcDbCircle
 10
407.1800103775
 20
320.3079194325
 30
0.0
 40
1.0
100
AcDbArc
 50
90.0
 51
150.0
  0
ARC
  5
14F
330
1B
100
AcDbEntity
 67
     1
  8
SLD-0
  6
Continuous
 62
     7
100
AcDbCircle
 10
407.1800103775
 20
320.3079194325
 30
0.0
 40
1.0
100
AcDbArc
 50
30.0
 51
90.0
  0
ARC
  5
150
330
1B
100
AcDbEntity
 67
     1
  8
SLD-0
  6
Continuous
 62
     7
100
AcDbCircle
 10
407.1800103775
 20
320.3079194325
 30
0.0
 40
0.9999999999999836
100
AcDbArc
 50
330.0
 51
30.0
  0
ARC
  5
151
330
1B
100
AcDbEntity
 67
     1
  8
SLD-0
  6
Continuous
 62
     7
100
AcDbCircle
 10
407.1800103775
 20
320.3079194325
 30
0.0
 40
1.0
100
AcDbArc
 50
270.0
 51
330.0
  0
ARC
  5
152
330
1B
100
AcDbEntity
 67
     1
  8
SLD-0
  6
Continuous
 62
     7
100
AcDbCircle
 10
407.1800103775
 20
320.3079194325
 30
0.0
 40
1.0
100
AcDbArc
 50
210.0
 51
270.0
  0
ARC
  5
153
330
1B
100
AcDbEntity
 67
     1
  8
SLD-0
  6
Continuous
 62
     7
100
AcDbCircle
 10
452.1800103775
 20
306.307919276
 30
0.0
 40
4.999999888255161
100
AcDbArc
 50
269.9999180372
 51
90.0000819628
  0
ARC
  5
154
330
1B
100
AcDbEntity
 67
     1
  8
SLD-0
  6
Continuous
 62
     7
100
AcDbCircle
 10
62.1800103775
 20
306.307919276
 30
0.0
 40
4.999999888255161
100
AcDbArc
 50
89.9999180372
 51
270.0000819628
  0
CIRCLE
  5
155
330
1B
100
AcDbEntity
 67
     1
  8
SLD-0
  6
Continuous
 62
     7
100
AcDbCircle
 10
107.1800103775
 20
320.3079194325
 30
0.0
 40
2.149999999999977
  0
CIRCLE
  5
156
330
1B
100
AcDbEntity
 67
     1
  8
SLD-0
  6
Continuous
 62
     7
100
AcDbCircle
 10
407.1800103775
 20
320.3079194325
 30
0.0
 40
2.149999999999977
  0
CIRCLE
  5
157
330
1B
100
AcDbEntity
 67
     1
  8
SLD-0
  6
Continuous
 62
     7
100
AcDbCircle
 10
107.1800103775
 20
320.3079194325
 30
0.0
 40
1.649999999999963
  0
CIRCLE
  5
158
330
1B
100
AcDbEntity
 67
     1
  8
SLD-0
  6
Continuous
 62
     7
100
AcDbCircle
 10
407.1800103775
 20
320.3079194325
 30
0.0
 40
1.649999999999977
  0
ARC
  5
159
330
1B
100
AcDbEntity
 67
     1
  8
SLD-0
  6
Continuous
 62
     7
100
AcDbCircle
 10
531.0286061853
 20
157.7677675922
 30
0.0
 40
4.999999888200282
100
AcDbArc
 50
180.0000184412
 51
359.9999815588
  0
ARC
  5
15A
330
1B
100
AcDbEntity
 67
     1
  8
SLD-0
  6
Continuous
 62
     7
100
AcDbCircle
 10
531.0286061853
 20
235.7677675922
 30
0.0
 40
4.999999888200023
100
AcDbArc
 50
0.0
 51
180.0
  0
ARC
  5
15B
330
1B
100
AcDbEntity
 67
     1
  8
SLD-0
  6
Continuous
 62
     7
100
AcDbCircle
 10
531.0286061853
 20
235.7677675922
 30
0.0
 40
5.200000125950084
100
AcDbArc
 50
89.9999914629
 51
195.9423686056
  0
ARC
  5
15C
330
1B
100
AcDbEntity
 67
     1
  8
SLD-0
  6
Continuous
 62
     7
100
AcDbCircle
 10
531.0286061853
 20
235.7677675922
 30
0.0
 40
9.999999888250018
100
AcDbArc
 50
89.9999955607
 51
240.0
  0
ARC
  5
15D
330
1B
100
AcDbEntity
 67
     1
  8
SLD-0
  6
Continuous
 62
     7
100
AcDbCircle
 10
531.0286061853
 20
235.7677675922
 30
0.0
 40
5.2000001259501
100
AcDbArc
 50
344.0576313944
 51
89.9999914629
  0
INSERT
  5
15E
330
1B
100
AcDbEntity
 67
     1
  8
0
  6
Continuous
 62
     7
100
AcDbBlockReference
  2
KOZU0010
 10
62.1800103775
 20
306.3079194325
 30
0.0
  0
INSERT
  5
15F
330
1B
100
AcDbEntity
 67
     1
  8
0
  6
Continuous
 62
     7
100
AcDbBlockReference
  2
KOZU0009
 10
452.1800103775
 20
306.3079194325
 30
0.0
  0
DIMENSION
  5
160
330
1B
100
AcDbEntity
 67
     1
  8
SLD-0
 62
     7
100
AcDbDimension
  2
_D
 10
457.1800103775
 20
124.7677675922
 30
0.0
 11
257.1800103775
 21
124.7677675922
 31
0.0
 70
   160
  1
<>
 71
     2
 42
-1.0
  3
SLDDIMSTYLE0
100
AcDbAlignedDimension
 13
57.1800103775
 23
172.7677675922
 33
0.0
 14
457.1800103775
 24
172.7677675922
 34
0.0
 50
0.0
100
AcDbRotatedDimension
  0
DIMENSION
  5
174
330
1B
100
AcDbEntity
 67
     1
  8
SLD-0
 62
     7
100
AcDbDimension
  2
_D_1
 10
67.1800103775
 20
139.1892349688
 30
0.0
 11
257.1800103775
 21
139.1892349688
 31
0.0
 70
   160
  1
<>
 71
     2
 42
-1.0
  3
SLDDIMSTYLE0
100
AcDbAlignedDimension
 13
447.1800103775
 23
172.7677675922
 33
0.0
 14
67.1800103775
 24
172.7677675922
 34
0.0
100
AcDbRotatedDimension
  0
DIMENSION
  5
182
330
1B
100
AcDbEntity
 67
     1
  8
SLD-0
 62
     7
100
AcDbDimension
  2
_D_2
 10
447.1800103775
 20
139.1892349688
 30
0.0
 11
452.1800103775
 21
139.1892349688
 31
0.0
 70
   160
  1
<>
 71
     2
 42
-1.0
  3
SLDDIMSTYLE1
100
AcDbAlignedDimension
 13
457.1800103775
 23
172.7677675922
 33
0.0
 14
447.1800103775
 24
172.7677675922
 34
0.0
100
AcDbRotatedDimension
  0
DIMENSION
  5
192
330
1B
100
AcDbEntity
 67
     1
  8
SLD-0
 62
     7
100
AcDbDimension
  2
_D_3
 10
67.1800103775
 20
139.1892349688
 30
0.0
 11
62.1800103775
 21
139.1892349688
 31
0.0
 70
   160
  1
<>
 71
     2
 42
-1.0
  3
SLDDIMSTYLE1
100
AcDbAlignedDimension
 13
57.1800103775
 23
172.7677675922
 33
0.0
 14
67.1800103775
 24
172.7677675922
 34
0.0
100
AcDbRotatedDimension
  0
DIMENSION
  5
1A1
330
1B
100
AcDbEntity
 67
     1
  8
SLD-0
 62
     7
100
AcDbDimension
  2
_D_4
 10
43.2600103775
 20
162.7677675922
 30
0.0
 11
43.2600103775
 21
157.7677675922
 31
0.0
 70
   160
  1
<>
 71
     2
 42
-1.0
  3
SLDDIMSTYLE1
100
AcDbAlignedDimension
 13
77.1800103775
 23
152.7677675922
 33
0.0
 14
77.1800103775
 24
162.7677675922
 34
0.0
 50
90.0
100
AcDbRotatedDimension
  0
DIMENSION
  5
1B0
330
1B
100
AcDbEntity
 67
     1
  8
SLD-0
 62
     7
100
AcDbDimension
  2
_D_5
 10
485.1800103775
 20
245.7677675922
 30
0.0
 11
485.1800103775
 21
199.2677675922
 31
0.0
 70
   160
  1
<>
 71
     2
 42
-1.0
  3
SLDDIMSTYLE0
100
AcDbAlignedDimension
 13
437.1800103775
 23
152.7677675922
 33
0.0
 14
426.6800103775
 24
245.7677675922
 34
0.0
 50
90.0
100
AcDbRotatedDimension
  0
DIMENSION
  5
1BE
330
1B
100
AcDbEntity
 67
     1
  8
SLD-0
 62
     7
100
AcDbDimension
  2
_D_6
 10
473.1800103775
 20
245.7677675922
 30
0.0
 11
473.1800103775
 21
235.7677675922
 31
0.0
 70
   160
  1
<>
 71
     2
 42
-1.0
  3
SLDDIMSTYLE0
100
AcDbAlignedDimension
 13
426.6800103775
 23
225.7677675922
 33
0.0
 14
426.6800103775
 24
245.7677675922
 34
0.0
 50
90.0
100
AcDbRotatedDimension
  0
DIMENSION
  5
1CC
330
1B
100
AcDbEntity
 67
     1
  8
SLD-0
 62
     7
100
AcDbDimension
  2
_D_7
 10
473.1800103775
 20
225.7677675922
 30
0.0
 11
473.1800103775
 21
194.2677675922
 31
0.0
 70
   160
  1
<>
 71
     2
 42
-1.0
  3
SLDDIMSTYLE0
100
AcDbAlignedDimension
 13
437.1800103775
 23
162.7677675922
 33
0.0
 14
426.6800103775
 24
225.7677675922
 34
0.0
 50
90.0
100
AcDbRotatedDimension
  0
DIMENSION
  5
1DA
330
1B
100
AcDbEntity
 67
     1
  8
SLD-0
 62
     7
100
AcDbDimension
  2
_D_8
 10
87.1800103775
 20
259.8907365471
 30
0.0
 11
257.1800103775
 21
259.8907365471
 31
0.0
 70
   160
  1
<>
 71
     2
 42
-1.0
  3
SLDDIMSTYLE0
100
AcDbAlignedDimension
 13
427.1800103775
 23
245.2677675922
 33
0.0
 14
87.1800103775
 24
245.2677675922
 34
0.0
100
AcDbRotatedDimension
  0
DIMENSION
  5
1E8
330
1B
100
AcDbEntity
 67
     1
  8
SLD-0
 62
     7
100
AcDbDimension
  2
_D_9
 10
43.2600103775
 20
240.7677675922
 30
0.0
 11
43.2600103775
 21
235.7677675922
 31
0.0
 70
   160
  1
<>
 71
     2
 42
-1.0
  3
SLDDIMSTYLE1
100
AcDbAlignedDimension
 13
77.1800103775
 23
230.7677675922
 33
0.0
 14
77.1800103775
 24
240.7677675922
 34
0.0
 50
90.0
100
AcDbRotatedDimension
  0
DIMENSION
  5
1F7
330
1B
100
AcDbEntity
 67
     1
  8
SLD-0
 62
     7
100
AcDbDimension
  2
_D_10
 10
43.2600103775
 20
162.7677675922
 30
0.0
 11
43.2600103775
 21
196.7677675922
 31
0.0
 70
   160
  1
<>
 71
     2
 42
-1.0
  3
SLDDIMSTYLE0
100
AcDbAlignedDimension
 13
77.1800103775
 23
230.7677675922
 33
0.0
 14
77.1800103775
 24
162.7677675922
 34
0.0
 50
90.0
100
AcDbRotatedDimension
  0
DIMENSION
  5
205
330
1B
100
AcDbEntity
 67
     1
  8
SLD-0
 62
     7
100
AcDbDimension
  2
_D_11
 10
397.1800103775
 20
352.6079194325
 30
0.0
 11
327.1800103775
 21
352.6079194325
 31
0.0
 70
   160
  1
<>
 71
     2
 42
-1.0
  3
SLDDIMSTYLE0
100
AcDbAlignedDimension
 13
257.1800103775
 23
345.5164376907
 33
0.0
 14
397.1800103775
 24
345.1849062053
 34
0.0
100
AcDbRotatedDimension
  0
DIMENSION
  5
213
330
1B
100
AcDbEntity
 67
     1
  8
SLD-0
 62
     7
100
AcDbDimension
  2
_D_12
 10
257.1800103775
 20
352.6079194325
 30
0.0
 11
187.1800103775
 21
352.6079194325
 31
0.0
 70
   160
  1
<>
 71
     2
 42
-1.0
  3
SLDDIMSTYLE0
100
AcDbAlignedDimension
 13
117.1800103775
 23
345.2557959954
 33
0.0
 14
257.1800103775
 24
345.5164376907
 34
0.0
100
AcDbRotatedDimension
  0
DIMENSION
  5
221
330
1B
100
AcDbEntity
 67
     1
  8
SLD-0
 62
     7
100
AcDbDimension
  2
_D_13
 10
407.1800103775
 20
352.6079194325
 30
0.0
 11
417.1800103775
 21
352.6079194325
 31
0.0
 70
   160
  1
<>
 71
     2
 42
-1.0
  3
SLDDIMSTYLE0
100
AcDbAlignedDimension
 13
427.1800103775
 23
324.3079194325
 33
0.0
 14
407.1800103775
 24
323.4579194325
 34
0.0
100
AcDbRotatedDimension
  0
DIMENSION
  5
22F
330
1B
100
AcDbEntity
 67
     1
  8
SLD-0
 62
     7
100
AcDbDimension
  2
_D_14
 10
462.6122584861
 20
320.3079194325
 30
0.0
 11
462.6122584861
 21
330.6111371256
 31
0.0
 70
   160
  1
<>
 71
     2
 42
-1.0
  3
SLDDIMSTYLE0
100
AcDbAlignedDimension
 13
427.1800103775
 23
324.3079194325
 33
0.0
 14
410.3300103775
 24
320.3079194325
 34
0.0
 50
90.0
100
AcDbRotatedDimension
  0
DIMENSION
  5
240
330
1B
100
AcDbEntity
 67
     1
  8
SLD-0
 62
     7
100
AcDbDimension
  2
_D_15
 10
107.1800103775
 20
352.6079194325
 30
0.0
 11
97.1800103775
 21
352.6079194325
 31
0.0
 70
   160
  1
<>
 71
     2
 42
-1.0
  3
SLDDIMSTYLE0
100
AcDbAlignedDimension
 13
87.1800103775
 23
324.3079194325
 33
0.0
 14
107.1800103775
 24
323.4579194325
 34
0.0
100
AcDbRotatedDimension
  0
DIMENSION
  5
24E
330
1B
100
AcDbEntity
 67
     1
  8
SLD-0
 62
     7
100
AcDbDimension
  2
_D_16
 10
531.0286063418
 20
252.5718595591
 30
0.0
 11
540.0286063418
 21
252.5718595591
 31
0.0
 70
   160
  1
<>
 71
     2
 42
-1.0
  3
SLDDIMSTYLE0
100
AcDbAlignedDimension
 13
549.0286063418
 23
255.801806584
 33
0.0
 14
531.0286063418
 24
246.7677675922
 34
0.0
100
AcDbRotatedDimension
  0
DIMENSION
  5
25C
330
1B
100
AcDbEntity
 67
     1
  8
SLD-0
 62
     7
100
AcDbDimension
  2
_D_17
 10
511.0286063418
 20
245.7677675922
 30
0.0
 11
511.0286063418
 21
240.7677675922
 31
0.0
 70
   160
  1
<>
 71
     2
 42
-1.0
  3
SLDDIMSTYLE0
100
AcDbAlignedDimension
 13
520.0286063418
 23
235.7677675922
 33
0.0
 14
531.0286063418
 24
245.7677675922
 34
0.0
 50
90.0
100
AcDbRotatedDimension
  0
DIMENSION
  5
26A
330
1B
100
AcDbEntity
 67
     1
  8
SLD-0
 62
     7
100
AcDbDimension
  2
_D_18
 10
511.0286063418
 20
235.7677675922
 30
0.0
 11
511.0286063418
 21
194.2677675922
 31
0.0
 70
   160
  1
<>
 71
     2
 42
-1.0
  3
SLDDIMSTYLE0
100
AcDbAlignedDimension
 13
531.0286063418
 23
152.7677675922
 33
0.0
 14
520.0286063418
 24
235.7677675922
 34
0.0
 50
90.0
100
AcDbRotatedDimension
  0
DIMENSION
  5
278
330
1B
100
AcDbEntity
 67
     1
  8
SLD-0
 62
     7
100
AcDbDimension
  2
_D_19
 10
526.0286063418
 20
124.7677675922
 30
0.0
 11
519.4420766375
 21
124.7677675922
 31
0.0
 70
   160
  1
<>
 71
     2
 42
-1.0
  3
SLDDIMSTYLE1
100
AcDbAlignedDimension
 13
536.0286063418
 23
157.7677675922
 33
0.0
 14
526.0286063418
 24
157.7677675922
 34
0.0
100
AcDbRotatedDimension
  0
DIMENSION
  5
288
330
1B
100
AcDbEntity
 67
     1
  8
SLD-0
 62
     7
100
AcDbDimension
  2
_D_20
 10
521.0286063418
 20
259.8907365471
 30
0.0
 11
535.0286063418
 21
259.8907365471
 31
0.0
 70
   160
  1
<>
 71
     2
 42
-1.0
  3
SLDDIMSTYLE0
100
AcDbAlignedDimension
 13
549.0286063418
 23
242.2677675922
 33
0.0
 14
521.0286063418
 24
235.7677675922
 34
0.0
100
AcDbRotatedDimension
  0
DIMENSION
  5
296
330
1B
100
AcDbEntity
 67
     1
  8
SLD-0
 62
     7
100
AcDbDimension
  2
_D_21
 10
536.0286063418
 20
124.7677675922
 30
0.0
 11
542.5286063418
 21
124.7677675922
 31
0.0
 70
   160
  1
<>
 71
     2
 42
-1.0
  3
SLDDIMSTYLE0
100
AcDbAlignedDimension
 13
549.0286063418
 23
225.7677675922
 33
0.0
 14
536.0286063418
 24
157.7677675922
 34
0.0
100
AcDbRotatedDimension
  0
MTEXT
  5
2A5
330
1B
100
AcDbEntity
 67
     1
  8
SLD-0
 62
     7
100
AcDbMText
 10
521.0439524099
 20
21.1238190005
 30
0.0
 40
4.7624998093
 41
0.0
 71
     1
 72
     1
  1
11548XJ
  7
SLDTEXTSTYLE2
 73
     1
 44
1.0
  0
MTEXT
  5
2A7
330
1B
100
AcDbEntity
 67
     1
  8
SLD-0
 62
     7
100
AcDbMText
 10
203.8600144944
 20
22.4712830762
 30
0.0
 40
4.9699997902
 41
0.0
 71
     1
 72
     1
  1
41M
  7
SLDTEXTSTYLE3
 73
     1
 44
1.0
  0
MTEXT
  5
2A9
330
1B
100
AcDbEntity
 67
     1
  8
SLD-0
 62
     7
100
AcDbMText
 10
203.8307925291
 20
38.9628730721
 30
0.0
 40
4.9699997902
 41
0.0
 71
     1
 72
     1
  1
承認図
  7
SLDTEXTSTYLE4
 73
     1
 44
1.0
  0
MTEXT
  5
2AA
330
1B
100
AcDbEntity
 67
     1
  8
SLD-0
 62
     7
100
AcDbMText
 10
424.1197137166
 20
37.8823764765
 30
0.0
 40
4.7624998093
 41
0.0
 71
     1
 72
     1
  1
1/1
  7
SLDTEXTSTYLE0
 73
     1
 44
1.0
  0
MTEXT
  5
2AC
330
1B
100
AcDbEntity
 67
     1
  8
SLD-0
 62
     7
100
AcDbMText
 10
507.9479548555
 20
32.2299420537
 30
0.0
 40
3.1749999523
 41
0.0
 71
     1
 72
     1
  1
WEST
  7
SLDTEXTSTYLE5
 73
     1
 44
1.0
  0
MTEXT
  5
2AE
330
1B
100
AcDbEntity
 67
     1
  8
SLD-0
 62
     7
100
AcDbMText
 10
488.5383241848
 20
42.5020345617
 30
0.0
 40
3.5
 41
0.0
 71
     1
 72
     1
  1
承　認
  7
SLDTEXTSTYLE6
 73
     1
 44
1.0
  0
MTEXT
  5
2B0
330
1B
100
AcDbEntity
 67
     1
  8
SLD-0
 62
     7
100
AcDbMText
 10
114.9868478385
 20
18.5449151837
 30
0.0
 40
3.1749999523
 41
0.0
 71
     1
 72
     1
  1
変　更　内　容
  7
SLDTEXTSTYLE7
 73
     1
 44
1.0
  0
MTEXT
  5
2B1
330
1B
100
AcDbEntity
 67
     1
  8
SLD-0
 62
     7
100
AcDbMText
 10
512.6464247343
 20
21.1238190587
 30
0.0
 40
4.7624998093
 41
0.0
 71
     1
 72
     1
  1
No.
  7
SLDTEXTSTYLE3
 73
     1
 44
1.0
  0
MTEXT
  5
2B2
330
1B
100
AcDbEntity
 67
     1
  8
SLD-0
 62
     7
100
AcDbMText
 10
506.1792863947
 20
19.9301796904
 30
0.0
 40
5.0
 41
0.0
 71
     1
 72
     1
  1
番
  7
SLDTEXTSTYLE4
 73
     1
 44
1.0
  0
MTEXT
  5
2B3
330
1B
100
AcDbEntity
 67
     1
  8
SLD-0
 62
     7
100
AcDbMText
 10
506.1809172984
 20
26.9324205507
 30
0.0
 40
5.0
 41
0.0
 71
     1
 72
     1
  1
図
  7
SLDTEXTSTYLE4
 73
     1
 44
1.0
  0
MTEXT
  5
2B4
330
1B
100
AcDbEntity
 67
     1
  8
SLD-0
 62
     7
100
AcDbMText
 10
467.2109099641
 20
42.5168357257
 30
0.0
 40
3.5
 41
0.0
 71
     1
 72
     1
  1
照　査
  7
SLDTEXTSTYLE6
 73
     1
 44
1.0
  0
MTEXT
  5
2B5
330
1B
100
AcDbEntity
 67
     1
  8
SLD-0
 62
     7
100
AcDbMText
 10
441.7864149466
 20
42.5205830192
 30
0.0
 40
3.5
 41
0.0
 71
     1
 72
     1
  1
製図・設計
  7
SLDTEXTSTYLE6
 73
     1
 44
1.0
  0
MTEXT
  5
2B6
330
1B
100
AcDbEntity
 67
     1
  8
SLD-0
 62
     7
100
AcDbMText
 10
416.8440157056
 20
23.2305638895
 30
0.0
 40
4.2333331108
 41
0.0
 71
     1
 72
     1
  1
第三角法
  7
SLDTEXTSTYLE7
 73
     1
 44
1.0
  0
MTEXT
  5
2B7
330
1B
100
AcDbEntity
 67
     1
  8
SLD-0
 62
     7
100
AcDbMText
 10
413.6427239016
 20
35.5538263859
 30
0.0
 40
5.0
 41
0.0
 71
     1
 72
     1
  1
度
  7
SLDTEXTSTYLE4
 73
     1
 44
1.0
  0
MTEXT
  5
2B8
330
1B
100
AcDbEntity
 67
     1
  8
SLD-0
 62
     7
100
AcDbMText
 10
413.6366684396
 20
42.8056100577
 30
0.0
 40
5.0
 41
0.0
 71
     1
 72
     1
  1
尺
  7
SLDTEXTSTYLE4
 73
     1
 44
1.0
  0
MTEXT
  5
2B9
330
1B
100
AcDbEntity
 67
     1
  8
SLD-0
 62
     7
100
AcDbMText
 10
356.8570670177
 20
35.5538263859
 30
0.0
 40
5.0
 41
0.0
 71
     1
 72
     1
  1
考
  7
SLDTEXTSTYLE4
 73
     1
 44
1.0
  0
MTEXT
  5
2BA
330
1B
100
AcDbEntity
 67
     1
  8
SLD-0
 62
     7
100
AcDbMText
 10
356.8663808387
 20
42.8612677296
 30
0.0
 40
5.0
 41
0.0
 71
     1
 72
     1
  1
備
  7
SLDTEXTSTYLE4
 73
     1
 44
1.0
  0
MTEXT
  5
2BB
330
1B
100
AcDbEntity
 67
     1
  8
SLD-0
 62
     7
100
AcDbMText
 10
196.3818565931
 20
20.2509373794
 30
0.0
 40
5.0
 41
0.0
 71
     1
 72
     1
  1
名
  7
SLDTEXTSTYLE4
 73
     1
 44
1.0
  0
MTEXT
  5
2BC
330
1B
100
AcDbEntity
 67
     1
  8
SLD-0
 62
     7
100
AcDbMText
 10
196.3698432033
 20
27.479064442
 30
0.0
 40
5.0
 41
0.0
 71
     1
 72
     1
  1
品
  7
SLDTEXTSTYLE4
 73
     1
 44
1.0
  0
MTEXT
  5
2BD
330
1B
100
AcDbEntity
 67
     1
  8
SLD-0
 62
     7
100
AcDbMText
 10
196.4501024409
 20
35.4078562037
 30
0.0
 40
5.0
 41
0.0
 71
     1
 72
     1
  1
称
  7
SLDTEXTSTYLE4
 73
     1
 44
1.0
  0
MTEXT
  5
2BE
330
1B
100
AcDbEntity
 67
     1
  8
SLD-0
 62
     7
100
AcDbMText
 10
196.4501024409
 20
42.9522505813
 30
0.0
 40
5.0
 41
0.0
 71
     1
 72
     1
  1
名
  7
SLDTEXTSTYLE4
 73
     1
 44
1.0
  0
MTEXT
  5
2BF
330
1B
100
AcDbEntity
 67
     1
  8
SLD-0
 62
     7
100
AcDbMText
 10
31.0928532846
 20
23.7438263859
 30
0.0
 40
5.0
 41
0.0
 71
     1
 72
     1
  1
訂
  7
SLDTEXTSTYLE4
 73
     1
 44
1.0
  0
MTEXT
  5
2C0
330
1B
100
AcDbEntity
 67
     1
  8
SLD-0
 62
     7
100
AcDbMText
 10
31.1168324536
 20
39.9191297664
 30
0.0
 40
5.0
 41
0.0
 71
     1
 72
     1
  1
改
  7
SLDTEXTSTYLE4
 73
     1
 44
1.0
  0
MTEXT
  5
2C1
330
1B
100
AcDbEntity
 67
     1
  8
SLD-0
 62
     7
100
AcDbMText
 10
281.5592910401
 20
20.1714224946
 30
0.0
 40
5.0
 41
0.0
 71
     1
 72
     1
  1
番
  7
SLDTEXTSTYLE4
 73
     1
 44
1.0
  0
MTEXT
  5
2C2
330
1B
100
AcDbEntity
 67
     1
  8
SLD-0
 62
     7
100
AcDbMText
 10
281.6501024409
 20
35.4078562037
 30
0.0
 40
5.0
 41
0.0
 71
     1
 72
     1
  1
質
  7
SLDTEXTSTYLE4
 73
     1
 44
1.0
  0
MTEXT
  5
2C3
330
1B
100
AcDbEntity
 67
     1
  8
SLD-0
 62
     7
100
AcDbMText
 10
281.5592910401
 20
27.3379097986
 30
0.0
 40
5.0
 41
0.0
 71
     1
 72
     1
  1
工
  7
SLDTEXTSTYLE4
 73
     1
 44
1.0
  0
MTEXT
  5
2C4
330
1B
100
AcDbEntity
 67
     1
  8
SLD-0
 62
     7
100
AcDbMText
 10
281.6501024409
 20
42.9522505813
 30
0.0
 40
5.0
 41
0.0
 71
     1
 72
     1
  1
材
  7
SLDTEXTSTYLE4
 73
     1
 44
1.0
  0
MTEXT
  5
2C5
330
1B
100
AcDbEntity
 67
     1
  8
SLD-0
 62
     7
100
AcDbMText
 10
71.2287446922
 20
18.5440393675
 30
0.0
 40
3.1749999523
 41
0.0
 71
     1
 72
     1
  1
担当者
  7
SLDTEXTSTYLE6
 73
     1
 44
1.0
  0
MTEXT
  5
2C6
330
1B
100
AcDbEntity
 67
     1
  8
SLD-0
 62
     7
100
AcDbMText
 10
55.6199420963
 20
18.6943587202
 30
0.0
 40
3.1749999523
 41
0.0
 71
     1
 72
     1
  1
日付
  7
SLDTEXTSTYLE7
 73
     1
 44
1.0
  0
MTEXT
  5
2C7
330
1B
100
AcDbEntity
 67
     1
  8
SLD-0
 62
     7
100
AcDbMText
 10
39.2629132992
 20
18.4976059764
 30
0.0
 40
3.1749999523
 41
0.0
 71
     1
 72
     1
  1
記号
  7
SLDTEXTSTYLE7
 73
     1
 44
1.0
  0
MTEXT
  5
2C9
330
1B
100
AcDbEntity
 67
     1
  8
SLD-0
 62
     7
100
AcDbMText
 10
602.2331315244
 20
21.608098364
 30
0.0
 40
7.9375
 41
0.0
 71
     1
 72
     1
  1
A2
  7
SLDTEXTSTYLE8
 73
     1
 44
1.0
  0
MTEXT
  5
2CA
330
1B
100
AcDbEntity
 67
     1
  8
SLD-0
 62
     7
100
AcDbMText
 10
575.196409591
 20
10.7546136612
 30
0.0
 40
2.6458332539
 41
0.0
 71
     1
 72
     1
  1
A2
  7
SLDTEXTSTYLE5
 73
     1
 44
1.0
  0
MTEXT
  5
2CC
330
1B
100
AcDbEntity
 67
     1
  8
SLD-0
 62
     7
100
AcDbMText
 10
176.1819999933
 20
18.439766775
 30
0.0
 40
3.2000000477
 41
0.0
 71
     1
 72
     1
  1
通　知　書
  7
SLDTEXTSTYLE9
 73
     1
 44
1.0
  0
MTEXT
  5
2CE
330
1B
100
AcDbEntity
 67
     1
  8
SLD-0
 62
     7
100
AcDbMText
 10
328.0433062755
 20
43.0886902341
 30
0.0
 40
5.0
 41
0.0
 71
     1
 72
     1
  1
個
  7
SLDTEXTSTYLE10
 73
     1
 44
1.0
  0
MTEXT
  5
2CF
330
1B
100
AcDbEntity
 67
     1
  8
SLD-0
 62
     7
100
AcDbMText
 10
328.0433062755
 20
35.5886902341
 30
0.0
 40
5.0
 41
0.0
 71
     1
 72
     1
  1
数
  7
SLDTEXTSTYLE10
 73
     1
 44
1.0
  0
MTEXT
  5
2D1
330
1B
100
AcDbEntity
 67
     1
  8
SLD-0
 62
     7
100
AcDbMText
 10
441.1031852711
 20
18.6929296531
 30
0.0
 40
4.3000001907
 41
0.0
 71
     1
 72
     1
  1
′０８．１０．２０
  7
SLDTEXTSTYLE11
 73
     1
 44
1.0
  0
ENDSEC
  0
SECTION
  2
OBJECTS
  0
DICTIONARY
  5
C
330
0
100
AcDbDictionary
281
     1
  3
ACAD_GROUP
350
D
  3
ACAD_LAYOUT
350
1A
  3
ACAD_MLINESTYLE
350
17
  3
ACAD_PLOTSETTINGS
350
19
  3
ACAD_PLOTSTYLENAME
350
E
  3
ACAD_SCALELIST
350
47
  0
DICTIONARY
  5
D
102
{ACAD_REACTORS
330
C
102
}
330
C
100
AcDbDictionary
281
     1
  0
DICTIONARY
  5
1A
102
{ACAD_REACTORS
330
C
102
}
330
C
100
AcDbDictionary
281
     1
  3
Model
350
22
  3
SW_Model_1
350
1E
  0
DICTIONARY
  5
17
102
{ACAD_REACTORS
330
C
102
}
330
C
100
AcDbDictionary
281
     1
  3
Standard
350
18
  0
DICTIONARY
  5
19
102
{ACAD_REACTORS
330
C
102
}
330
C
100
AcDbDictionary
281
     1
  0
ACDBDICTIONARYWDFLT
  5
E
102
{ACAD_REACTORS
330
C
102
}
330
C
100
AcDbDictionary
281
     1
  3
Normal
350
F
100
AcDbDictionaryWithDefault
340
F
  0
DICTIONARY
  5
47
102
{ACAD_REACTORS
330
C
102
}
330
C
100
AcDbDictionary
281
     1
  3
A0
350
48
  3
A1
350
49
  3
A2
350
4A
  3
A3
350
4B
  3
A4
350
4C
  3
A5
350
4D
  3
A6
350
4E
  3
A7
350
4F
  3
A8
350
50
  3
A9
350
51
  3
B0
350
52
  3
B1
350
53
  3
B2
350
54
  3
B3
350
55
  3
B4
350
56
  3
B5
350
57
  3
B6
350
58
  3
B7
350
59
  3
B8
350
5A
  3
B9
350
5B
  3
C0
350
5C
  3
C1
350
5D
  3
C2
350
5E
  3
C3
350
5F
  3
C4
350
60
  3
C5
350
61
  3
C6
350
62
  3
C7
350
63
  3
C8
350
64
  3
C9
350
65
  3
D0
350
66
  3
D1
350
67
  3
D2
350
68
  0
LAYOUT
  5
22
102
{ACAD_REACTORS
330
1A
102
}
330
1A
100
AcDbPlotSettings
  1

  2
none_device
  4
Letter_(8.50_x_11.00_Inches)
  6

 40
6.35
 41
6.35
 42
6.35000508
 43
6.35000508
 44
215.9
 45
279.4
 46
0.0
 47
0.0
 48
0.0
 49
0.0
140
0.0
141
0.0
142
1.0
143
1.0
 70
  1712
 72
     1
 73
     0
 74
     0
  7

 75
     0
147
1.0
148
0.0
149
0.0
100
AcDbLayout
  1
Model
 70
     1
 71
     0
 10
0.0
 20
0.0
 11
594.0
 21
420.0
 12
0.0
 22
0.0
 32
0.0
 14
0.0
 24
0.0
 34
0.0
 15
594.0
 25
420.0
 35
0.0
146
0.0
 13
0.0
 23
0.0
 33
0.0
 16
1.0
 26
0.0
 36
0.0
 17
0.0
 27
1.0
 37
0.0
 76
     0
330
1F
331
29
  0
LAYOUT
  5
1E
102
{ACAD_REACTORS
330
1A
102
}
330
1A
100
AcDbPlotSettings
  1

  2
none_device
  4
ISO_A2_(594.00_x_420.00_MM)
  6

 40
7.5
 41
20.0
 42
7.5
 43
20.0
 44
594.0
 45
420.0
 46
0.0
 47
0.0
 48
0.0
 49
0.0
140
0.0
141
0.0
142
1.0
143
1.0
 70
  4832
 72
     1
 73
     0
 74
     1
  7

 75
     0
147
1.0
148
0.0
149
0.0
100
AcDbLayout
  1
SW_Model_1
 70
     1
 71
     1
 10
0.0
 20
0.0
 11
594.0
 21
420.0
 12
0.0
 22
0.0
 32
0.0
 14
0.0
 24
0.0
 34
0.0
 15
594.0
 25
420.0
 35
0.0
146
0.0
 13
0.0
 23
0.0
 33
0.0
 16
1.0
 26
0.0
 36
0.0
 17
0.0
 27
1.0
 37
0.0
 76
     0
330
1B
331
8D
  0
MLINESTYLE
  5
18
102
{ACAD_REACTORS
330
17
102
}
330
17
100
AcDbMlineStyle
  2
Standard
 70
     0
  3

 62
   256
 51
90.0
 52
90.0
 71
     2
 49
0.5
 62
   256
  6
BYLAYER
 49
-0.5
 62
   256
  6
BYLAYER
  0
ACDBPLACEHOLDER
  5
F
102
{ACAD_REACTORS
330
E
102
}
330
E
  0
SCALE
  5
48
102
{ACAD_REACTORS
330
47
102
}
330
47
100
AcDbScale
 70
     0
300
1:1
140
1.0
141
1.0
290
     1
  0
SCALE
  5
49
102
{ACAD_REACTORS
330
47
102
}
330
47
100
AcDbScale
 70
     0
300
1:2
140
1.0
141
2.0
290
     0
  0
SCALE
  5
4A
102
{ACAD_REACTORS
330
47
102
}
330
47
100
AcDbScale
 70
     0
300
1:4
140
1.0
141
4.0
290
     0
  0
SCALE
  5
4B
102
{ACAD_REACTORS
330
47
102
}
330
47
100
AcDbScale
 70
     0
300
1:5
140
1.0
141
5.0
290
     0
  0
SCALE
  5
4C
102
{ACAD_REACTORS
330
47
102
}
330
47
100
AcDbScale
 70
     0
300
1:8
140
1.0
141
8.0
290
     0
  0
SCALE
  5
4D
102
{ACAD_REACTORS
330
47
102
}
330
47
100
AcDbScale
 70
     0
300
1:10
140
1.0
141
10.0
290
     0
  0
SCALE
  5
4E
102
{ACAD_REACTORS
330
47
102
}
330
47
100
AcDbScale
 70
     0
300
1:16
140
1.0
141
16.0
290
     0
  0
SCALE
  5
4F
102
{ACAD_REACTORS
330
47
102
}
330
47
100
AcDbScale
 70
     0
300
1:20
140
1.0
141
20.0
290
     0
  0
SCALE
  5
50
102
{ACAD_REACTORS
330
47
102
}
330
47
100
AcDbScale
 70
     0
300
1:30
140
1.0
141
30.0
290
     0
  0
SCALE
  5
51
102
{ACAD_REACTORS
330
47
102
}
330
47
100
AcDbScale
 70
     0
300
1:40
140
1.0
141
40.0
290
     0
  0
SCALE
  5
52
102
{ACAD_REACTORS
330
47
102
}
330
47
100
AcDbScale
 70
     0
300
1:50
140
1.0
141
50.0
290
     0
  0
SCALE
  5
53
102
{ACAD_REACTORS
330
47
102
}
330
47
100
AcDbScale
 70
     0
300
1:100
140
1.0
141
100.0
290
     0
  0
SCALE
  5
54
102
{ACAD_REACTORS
330
47
102
}
330
47
100
AcDbScale
 70
     0
300
2:1
140
2.0
141
1.0
290
     0
  0
SCALE
  5
55
102
{ACAD_REACTORS
330
47
102
}
330
47
100
AcDbScale
 70
     0
300
4:1
140
4.0
141
1.0
290
     0
  0
SCALE
  5
56
102
{ACAD_REACTORS
330
47
102
}
330
47
100
AcDbScale
 70
     0
300
8:1
140
8.0
141
1.0
290
     0
  0
SCALE
  5
57
102
{ACAD_REACTORS
330
47
102
}
330
47
100
AcDbScale
 70
     0
300
10:1
140
10.0
141
1.0
290
     0
  0
SCALE
  5
58
102
{ACAD_REACTORS
330
47
102
}
330
47
100
AcDbScale
 70
     0
300
100:1
140
100.0
141
1.0
290
     0
  0
SCALE
  5
59
102
{ACAD_REACTORS
330
47
102
}
330
47
100
AcDbScale
 70
     0
300
1/128" = 1'-0"
140
0.0078125
141
12.0
290
     0
  0
SCALE
  5
5A
102
{ACAD_REACTORS
330
47
102
}
330
47
100
AcDbScale
 70
     0
300
1/64" = 1'-0"
140
0.015625
141
12.0
290
     0
  0
SCALE
  5
5B
102
{ACAD_REACTORS
330
47
102
}
330
47
100
AcDbScale
 70
     0
300
1/32" = 1'-0"
140
0.03125
141
12.0
290
     0
  0
SCALE
  5
5C
102
{ACAD_REACTORS
330
47
102
}
330
47
100
AcDbScale
 70
     0
300
1/16" = 1'-0"
140
0.0625
141
12.0
290
     0
  0
SCALE
  5
5D
102
{ACAD_REACTORS
330
47
102
}
330
47
100
AcDbScale
 70
     0
300
3/32" = 1'-0"
140
0.09375
141
12.0
290
     0
  0
SCALE
  5
5E
102
{ACAD_REACTORS
330
47
102
}
330
47
100
AcDbScale
 70
     0
300
1/8" = 1'-0"
140
0.125
141
12.0
290
     0
  0
SCALE
  5
5F
102
{ACAD_REACTORS
330
47
102
}
330
47
100
AcDbScale
 70
     0
300
3/16" = 1'-0"
140
0.1875
141
12.0
290
     0
  0
SCALE
  5
60
102
{ACAD_REACTORS
330
47
102
}
330
47
100
AcDbScale
 70
     0
300
1/4" = 1'-0"
140
0.25
141
12.0
290
     0
  0
SCALE
  5
61
102
{ACAD_REACTORS
330
47
102
}
330
47
100
AcDbScale
 70
     0
300
3/8" = 1'-0"
140
0.375
141
12.0
290
     0
  0
SCALE
  5
62
102
{ACAD_REACTORS
330
47
102
}
330
47
100
AcDbScale
 70
     0
300
1/2" = 1'-0"
140
0.5
141
12.0
290
     0
  0
SCALE
  5
63
102
{ACAD_REACTORS
330
47
102
}
330
47
100
AcDbScale
 70
     0
300
3/4" = 1'-0"
140
0.75
141
12.0
290
     0
  0
SCALE
  5
64
102
{ACAD_REACTORS
330
47
102
}
330
47
100
AcDbScale
 70
     0
300
1" = 1'-0"
140
1.0
141
12.0
290
     0
  0
SCALE
  5
65
102
{ACAD_REACTORS
330
47
102
}
330
47
100
AcDbScale
 70
     0
300
1-1/2" = 1'-0"
140
1.5
141
12.0
290
     0
  0
SCALE
  5
66
102
{ACAD_REACTORS
330
47
102
}
330
47
100
AcDbScale
 70
     0
300
3" = 1'-0"
140
3.0
141
12.0
290
     0
  0
SCALE
  5
67
102
{ACAD_REACTORS
330
47
102
}
330
47
100
AcDbScale
 70
     0
300
6" = 1'-0"
140
6.0
141
12.0
290
     0
  0
SCALE
  5
68
102
{ACAD_REACTORS
330
47
102
}
330
47
100
AcDbScale
 70
     0
300
1'-0" = 1'-0"
140
12.0
141
12.0
290
     0
  0
ENDSEC
  0
EOF
