  0
SECTION
  2
HEADER
  9
$ACADVER
  1
AC1015
  9
$ACADMAINTVER
 70
     6
  9
$DWGCODEPAGE
  3
DOS932
  9
$INSBASE
 10
0.0
 20
0.0
 30
0.0
  9
$EXTMIN
 10
0.0
 20
0.0
 30
0.0
  9
$EXTMAX
 10
594.0
 20
420.0
 30
0.0
  9
$LIMMIN
 10
0.0
 20
0.0
  9
$LIMMAX
 10
594.0
 20
420.0
  9
$ORTHOMODE
 70
     0
  9
$REGENMODE
 70
     1
  9
$FILLMODE
 70
     1
  9
$QTEXTMODE
 70
     0
  9
$MIRRTEXT
 70
     1
  9
$LTSCALE
 40
1.0
  9
$ATTMODE
 70
     1
  9
$TEXTSIZE
 40
3.5
  9
$TRACEWID
 40
1.0
  9
$TEXTSTYLE
  7
Standard
  9
$CLAYER
  8
0
  9
$CELTYPE
  6
ByLayer
  9
$CECOLOR
 62
   256
  9
$CELTSCALE
 40
1.0
  9
$DISPSILH
 70
     0
  9
$DIMSCALE
 40
1.0
  9
$DIMASZ
 40
3.302
  9
$DIMEXO
 40
1.0
  9
$DIMDLI
 40
3.75
  9
$DIMRND
 40
0.0
  9
$DIMDLE
 40
0.0
  9
$DIMEXE
 40
1.0
  9
$DIMTP
 40
0.0
  9
$DIMTM
 40
0.0
  9
$DIMTXT
 40
3.5
  9
$DIMCEN
 40
2.5
  9
$DIMTSZ
 40
0.0
  9
$DIMTOL
 70
     0
  9
$DIMLIM
 70
     0
  9
$DIMTIH
 70
     1
  9
$DIMTOH
 70
     1
  9
$DIMSE1
 70
     0
  9
$DIMSE2
 70
     0
  9
$DIMTAD
 70
     1
  9
$DIMZIN
 70
     1
  9
$DIMBLK
  1

  9
$DIMASO
 70
     1
  9
$DIMSHO
 70
     1
  9
$DIMPOST
  1

  9
$DIMAPOST
  1

  9
$DIMALT
 70
     0
  9
$DIMALTD
 70
     3
  9
$DIMALTF
 40
0.0393700787
  9
$DIMLFAC
 40
1.0
  9
$DIMTOFL
 70
     1
  9
$DIMTVP
 40
0.0
  9
$DIMTIX
 70
     0
  9
$DIMSOXD
 70
     0
  9
$DIMSAH
 70
     0
  9
$DIMBLK1
  1

  9
$DIMBLK2
  1

  9
$DIMSTYLE
  2
ISO-25
  9
$DIMCLRD
 70
     0
  9
$DIMCLRE
 70
     0
  9
$DIMCLRT
 70
     0
  9
$DIMTFAC
 40
1.0
  9
$DIMGAP
 40
1.524
  9
$DIMJUST
 70
     0
  9
$DIMSD1
 70
     0
  9
$DIMSD2
 70
     0
  9
$DIMTOLJ
 70
     0
  9
$DIMTZIN
 70
     1
  9
$DIMALTZ
 70
     0
  9
$DIMALTTZ
 70
     0
  9
$DIMUPT
 70
     0
  9
$DIMDEC
 70
     4
  9
$DIMTDEC
 70
     4
  9
$DIMALTU
 70
     2
  9
$DIMALTTD
 70
     3
  9
$DIMTXSTY
  7
Standard
  9
$DIMAUNIT
 70
     0
  9
$DIMADEC
 70
     0
  9
$DIMALTRND
 40
0.0
  9
$DIMAZIN
 70
     0
  9
$DIMDSEP
 70
    44
  9
$DIMATFIT
 70
     3
  9
$DIMFRAC
 70
     0
  9
$DIMLDRBLK
  1

  9
$DIMLUNIT
 70
     2
  9
$DIMLWD
 70
    -2
  9
$DIMLWE
 70
    -2
  9
$DIMTMOVE
 70
     0
  9
$LUNITS
 70
     2
  9
$LUPREC
 70
     4
  9
$SKETCHINC
 40
1.0
  9
$FILLETRAD
 40
10.0
  9
$AUNITS
 70
     0
  9
$AUPREC
 70
     0
  9
$MENU
  1
.
  9
$ELEVATION
 40
0.0
  9
$PELEVATION
 40
0.0
  9
$THICKNESS
 40
0.0
  9
$LIMCHECK
 70
     0
  9
$CHAMFERA
 40
0.0
  9
$CHAMFERB
 40
0.0
  9
$CHAMFERC
 40
0.0
  9
$CHAMFERD
 40
0.0
  9
$SKPOLY
 70
     0
  9
$TDCREATE
 40
2458290.478771597
  9
$TDUCREATE
 40
2458290.103771597
  9
$TDUPDATE
 40
2458290.47878169
  9
$TDUUPDATE
 40
2458290.10378169
  9
$TDINDWG
 40
0.0000000116
  9
$TDUSRTIMER
 40
0.0000000116
  9
$USRTIMER
 70
     1
  9
$ANGBASE
 50
0.0
  9
$ANGDIR
 70
     0
  9
$PDMODE
 70
     0
  9
$PDSIZE
 40
-1.0
  9
$PLINEWID
 40
0.0
  9
$SPLFRAME
 70
     0
  9
$SPLINETYPE
 70
     6
  9
$SPLINESEGS
 70
     8
  9
$HANDSEED
  5
417
  9
$SURFTAB1
 70
     6
  9
$SURFTAB2
 70
     6
  9
$SURFTYPE
 70
     6
  9
$SURFU
 70
     6
  9
$SURFV
 70
     6
  9
$UCSBASE
  2

  9
$UCSNAME
  2

  9
$UCSORG
 10
0.0
 20
0.0
 30
0.0
  9
$UCSXDIR
 10
1.0
 20
0.0
 30
0.0
  9
$UCSYDIR
 10
0.0
 20
1.0
 30
0.0
  9
$UCSORTHOREF
  2

  9
$UCSORTHOVIEW
 70
     0
  9
$UCSORGTOP
 10
0.0
 20
0.0
 30
0.0
  9
$UCSORGBOTTOM
 10
0.0
 20
0.0
 30
0.0
  9
$UCSORGLEFT
 10
0.0
 20
0.0
 30
0.0
  9
$UCSORGRIGHT
 10
0.0
 20
0.0
 30
0.0
  9
$UCSORGFRONT
 10
0.0
 20
0.0
 30
0.0
  9
$UCSORGBACK
 10
0.0
 20
0.0
 30
0.0
  9
$PUCSBASE
  2

  9
$PUCSNAME
  2

  9
$PUCSORG
 10
0.0
 20
0.0
 30
0.0
  9
$PUCSXDIR
 10
1.0
 20
0.0
 30
0.0
  9
$PUCSYDIR
 10
0.0
 20
1.0
 30
0.0
  9
$PUCSORTHOREF
  2

  9
$PUCSORTHOVIEW
 70
     0
  9
$PUCSORGTOP
 10
0.0
 20
0.0
 30
0.0
  9
$PUCSORGBOTTOM
 10
0.0
 20
0.0
 30
0.0
  9
$PUCSORGLEFT
 10
0.0
 20
0.0
 30
0.0
  9
$PUCSORGRIGHT
 10
0.0
 20
0.0
 30
0.0
  9
$PUCSORGFRONT
 10
0.0
 20
0.0
 30
0.0
  9
$PUCSORGBACK
 10
0.0
 20
0.0
 30
0.0
  9
$USERI1
 70
     0
  9
$USERI2
 70
     0
  9
$USERI3
 70
     0
  9
$USERI4
 70
     0
  9
$USERI5
 70
     0
  9
$USERR1
 40
0.0
  9
$USERR2
 40
0.0
  9
$USERR3
 40
0.0
  9
$USERR4
 40
0.0
  9
$USERR5
 40
0.0
  9
$WORLDVIEW
 70
     1
  9
$SHADEDGE
 70
     3
  9
$SHADEDIF
 70
    70
  9
$TILEMODE
 70
     0
  9
$MAXACTVP
 70
    64
  9
$PINSBASE
 10
0.0
 20
0.0
 30
0.0
  9
$PLIMCHECK
 70
     0
  9
$PEXTMIN
 10
0.0
 20
0.0
 30
0.0
  9
$PEXTMAX
 10
594.0
 20
420.0
 30
0.0
  9
$PLIMMIN
 10
0.0
 20
0.0
  9
$PLIMMAX
 10
594.0
 20
420.0
  9
$UNITMODE
 70
     0
  9
$VISRETAIN
 70
     1
  9
$PLINEGEN
 70
     0
  9
$PSLTSCALE
 70
     1
  9
$TREEDEPTH
 70
  3020
  9
$CMLSTYLE
  2
Standard
  9
$CMLJUST
 70
     0
  9
$CMLSCALE
 40
20.0
  9
$PROXYGRAPHICS
 70
     1
  9
$MEASUREMENT
 70
     1
  9
$CELWEIGHT
370
    -1
  9
$ENDCAPS
280
     0
  9
$JOINSTYLE
280
     0
  9
$LWDISPLAY
290
     1
  9
$INSUNITS
 70
     4
  9
$HYPERLINKBASE
  1

  9
$STYLESHEET
  1

  9
$XEDIT
290
     1
  9
$CEPSNTYPE
380
     0
  9
$PSTYLEMODE
290
     1
  9
$FINGERPRINTGUID
  2
{51EA2A1C-C615-48BA-8627-199B5AC37043}
  9
$VERSIONGUID
  2
{FAEB1C32-E019-11D5-929B-00C0DF256EC4}
  9
$EXTNAMES
290
     1
  9
$PSVPSCALE
 40
0.0
  9
$OLESTARTUP
290
     0
  0
ENDSEC
  0
SECTION
  2
CLASSES
  0
CLASS
  1
ACDBDICTIONARYWDFLT
  2
AcDbDictionaryWithDefault
  3
ObjectDBX Classes
 90
        0
280
     0
281
     0
  0
CLASS
  1
VISUALSTYLE
  2
AcDbVisualStyle
  3
ObjectDBX Classes
 90
     4095
280
     0
281
     0
  0
CLASS
  1
MATERIAL
  2
AcDbMaterial
  3
ObjectDBX Classes
 90
     1153
280
     0
281
     0
  0
CLASS
  1
SCALE
  2
AcDbScale
  3
ObjectDBX Classes
 90
     1153
280
     0
281
     0
  0
CLASS
  1
TABLESTYLE
  2
AcDbTableStyle
  3
ObjectDBX Classes
 90
     4095
280
     0
281
     0
  0
CLASS
  1
MLEADERSTYLE
  2
AcDbMLeaderStyle
  3
ACDB_MLEADERSTYLE_CLASS
 90
     4095
280
     0
281
     0
  0
CLASS
  1
SUN
  2
AcDbSun
  3
SCENEOE
 90
     1153
280
     0
281
     0
  0
CLASS
  1
ACDBPLACEHOLDER
  2
AcDbPlaceHolder
  3
ObjectDBX Classes
 90
        0
280
     0
281
     0
  0
CLASS
  1
LAYOUT
  2
AcDbLayout
  3
ObjectDBX Classes
 90
        0
280
     0
281
     0
  0
ENDSEC
  0
SECTION
  2
TABLES
  0
TABLE
  2
VPORT
  5
8
330
0
100
AcDbSymbolTable
 70
     1
  0
VPORT
  5
29
330
8
100
AcDbSymbolTableRecord
100
AcDbViewportTableRecord
  2
*Active
 70
     0
 10
0.0
 20
0.0
 11
1.0
 21
1.0
 12
297.0
 22
210.0
 13
0.0
 23
0.0
 14
10.0
 24
10.0
 15
10.0
 25
10.0
 16
0.0
 26
0.0
 36
1.0
 17
0.0
 27
0.0
 37
0.0
 40
420.0
 41
1.4142857143
 42
50.0
 43
0.0
 44
0.0
 50
0.0
 51
0.0
 71
     0
 72
  2000
 73
     1
 74
     3
 75
     0
 76
     0
 77
     0
 78
     0
281
     0
 65
     1
110
0.0
120
0.0
130
0.0
111
1.0
121
0.0
131
0.0
112
0.0
122
1.0
132
0.0
 79
     0
146
0.0
  0
ENDTAB
  0
TABLE
  2
LTYPE
  5
5
330
0
100
AcDbSymbolTable
 70
     6
  0
LTYPE
  5
14
330
5
100
AcDbSymbolTableRecord
100
AcDbLinetypeTableRecord
  2
ByBlock
 70
     0
  3

 72
    65
 73
     0
 40
0.0
  0
LTYPE
  5
15
330
5
100
AcDbSymbolTableRecord
100
AcDbLinetypeTableRecord
  2
ByLayer
 70
     0
  3

 72
    65
 73
     0
 40
0.0
  0
LTYPE
  5
16
330
5
100
AcDbSymbolTableRecord
100
AcDbLinetypeTableRecord
  2
Continuous
 70
     0
  3
Solid line
 72
    65
 73
     0
 40
0.0
  0
LTYPE
  5
6E
330
5
100
AcDbSymbolTableRecord
100
AcDbLinetypeTableRecord
  2
HIDDEN
 70
     0
  3
Hidden __ __ __ __ __ __ __ __ __ __ __ __ __ __
 72
    65
 73
     2
 40
1.905
 49
1.27
 74
     0
 49
-0.635
 74
     0
  0
LTYPE
  5
6F
330
5
100
AcDbSymbolTableRecord
100
AcDbLinetypeTableRecord
  2
PHANTOM
 70
     0
  3
Phantom ______  __  __  ______  __  __  ______
 72
    65
 73
     6
 40
12.7
 49
6.35
 74
     0
 49
-1.27
 74
     0
 49
1.27
 74
     0
 49
-1.27
 74
     0
 49
1.27
 74
     0
 49
-1.27
 74
     0
  0
LTYPE
  5
70
330
5
100
AcDbSymbolTableRecord
100
AcDbLinetypeTableRecord
  2
CENTER
 70
     0
  3
Center ____ _ ____ _ ____ _ ____ _ ____ _ ____
 72
    65
 73
     4
 40
10.16
 49
6.35
 74
     0
 49
-1.27
 74
     0
 49
1.27
 74
     0
 49
-1.27
 74
     0
  0
LTYPE
  5
71
330
5
100
AcDbSymbolTableRecord
100
AcDbLinetypeTableRecord
  2
CENTERX2
 70
     0
  3
Center (2x) ________  __  ________  __  _____
 72
    65
 73
     4
 40
20.32
 49
12.7
 74
     0
 49
-2.54
 74
     0
 49
2.54
 74
     0
 49
-2.54
 74
     0
  0
LTYPE
  5
72
330
5
100
AcDbSymbolTableRecord
100
AcDbLinetypeTableRecord
  2
DOT2
 70
     0
  3
Dot (.5x) ........................................
 72
    65
 73
     2
 40
0.635
 49
0.0
 74
     0
 49
-0.635
 74
     0
  0
ENDTAB
  0
TABLE
  2
LAYER
  5
2
330
0
100
AcDbSymbolTable
 70
     5
  0
LAYER
  5
10
330
2
100
AcDbSymbolTableRecord
100
AcDbLayerTableRecord
  2
0
 70
     0
 62
     7
  6
Continuous
370
    -3
390
F
  0
LAYER
  5
73
330
2
100
AcDbSymbolTableRecord
100
AcDbLayerTableRecord
  2
SLD-0
 70
     0
 62
     7
  6
Continuous
370
    -3
390
F
  0
LAYER
  5
74
330
2
100
AcDbSymbolTableRecord
100
AcDbLayerTableRecord
  2
1
 70
     0
 62
     7
  6
Continuous
370
    -3
390
F
  0
LAYER
  5
75
330
2
100
AcDbSymbolTableRecord
100
AcDbLayerTableRecord
  2
2
 70
     0
 62
     7
  6
Continuous
370
    -3
390
F
  0
LAYER
  5
76
330
2
100
AcDbSymbolTableRecord
100
AcDbLayerTableRecord
  2
SLD-DEFPOINTS
 70
     0
 62
     7
  6
Continuous
290
     0
370
    -3
390
F
  0
ENDTAB
  0
TABLE
  2
STYLE
  5
3
330
0
100
AcDbSymbolTable
 70
    13
  0
STYLE
  5
11
330
3
100
AcDbSymbolTableRecord
100
AcDbTextStyleTableRecord
  2
Standard
 70
     0
 40
0.0
 41
1.0
 50
0.0
 71
     0
 42
3.5
  3
txt
  4
bigfont
  0
STYLE
  5
296
330
3
100
AcDbSymbolTableRecord
100
AcDbTextStyleTableRecord
  2
SLDTEXTSTYLE0
 70
     0
 40
0.0
 41
1.0
 50
0.0
 71
     0
 42
3.5
  3
TXT
  4
bigfont
  0
STYLE
  5
2A7
330
3
100
AcDbSymbolTableRecord
100
AcDbTextStyleTableRecord
  2
SLDTEXTSTYLE1
 70
     0
 40
0.0
 41
0.96
 50
0.0
 71
     0
 42
3.5
  3
TXT
  4
bigfont
  0
STYLE
  5
3E9
330
3
100
AcDbSymbolTableRecord
100
AcDbTextStyleTableRecord
  2
SLDTEXTSTYLE2
 70
     0
 40
0.0
 41
1.0000000334
 50
0.0
 71
     0
 42
3.5
  3
TXT
  4
bigfont
  0
STYLE
  5
3EC
330
3
100
AcDbSymbolTableRecord
100
AcDbTextStyleTableRecord
  2
SLDTEXTSTYLE3
 70
     0
 40
0.0
 41
0.7000000113
 50
0.0
 71
     0
 42
3.5
  3
TXT
  4
bigfont
  0
STYLE
  5
3EF
330
3
100
AcDbSymbolTableRecord
100
AcDbTextStyleTableRecord
  2
SLDTEXTSTYLE4
 70
     0
 40
0.0
 41
1.0000000141
 50
0.0
 71
     0
 42
3.5
  3
TXT
  4
bigfont
  0
STYLE
  5
3F1
330
3
100
AcDbSymbolTableRecord
100
AcDbTextStyleTableRecord
  2
SLDTEXTSTYLE5
 70
     0
 40
0.0
 41
0.6999999936
 50
0.0
 71
     0
 42
3.5
  3
TXT
  4
bigfont
  0
STYLE
  5
3F3
330
3
100
AcDbSymbolTableRecord
100
AcDbTextStyleTableRecord
  2
SLDTEXTSTYLE6
 70
     0
 40
0.0
 41
0.7000000287
 50
0.0
 71
     0
 42
3.5
  3
TXT
  4
bigfont
  0
STYLE
  5
3F5
330
3
100
AcDbSymbolTableRecord
100
AcDbTextStyleTableRecord
  2
SLDTEXTSTYLE7
 70
     0
 40
0.0
 41
1.0000000776
 50
0.0
 71
     0
 42
3.5
  3
TXT
  4
bigfont
  0
STYLE
  5
40D
330
3
100
AcDbSymbolTableRecord
100
AcDbTextStyleTableRecord
  2
SLDTEXTSTYLE8
 70
     0
 40
0.0
 41
0.999999988
 50
0.0
 71
     0
 42
3.5
  3
TXT
  4
bigfont
  0
STYLE
  5
410
330
3
100
AcDbSymbolTableRecord
100
AcDbTextStyleTableRecord
  2
SLDTEXTSTYLE9
 70
     0
 40
0.0
 41
0.5942489394
 50
0.0
 71
     0
 42
3.5
  3
TXT
  4
bigfont
  0
STYLE
  5
412
330
3
100
AcDbSymbolTableRecord
100
AcDbTextStyleTableRecord
  2
SLDTEXTSTYLE10
 70
     0
 40
0.0
 41
0.6303308571
 50
0.0
 71
     0
 42
3.5
  3
TXT
  4
bigfont
  0
STYLE
  5
415
330
3
100
AcDbSymbolTableRecord
100
AcDbTextStyleTableRecord
  2
SLDTEXTSTYLE11
 70
     0
 40
0.0
 41
0.3054298643
 50
0.0
 71
     0
 42
3.5
  3
TXT
  4
bigfont
  0
ENDTAB
  0
TABLE
  2
VIEW
  5
6
330
0
100
AcDbSymbolTable
 70
     0
  0
ENDTAB
  0
TABLE
  2
UCS
  5
7
330
0
100
AcDbSymbolTable
 70
     0
  0
ENDTAB
  0
TABLE
  2
APPID
  5
9
330
0
100
AcDbSymbolTable
 70
     1
  0
APPID
  5
12
330
9
100
AcDbSymbolTableRecord
100
AcDbRegAppTableRecord
  2
ACAD
 70
     0
  0
ENDTAB
  0
TABLE
  2
DIMSTYLE
  5
A
330
0
100
AcDbSymbolTable
 70
     5
100
AcDbDimStyleTable
  0
DIMSTYLE
105
27
330
A
100
AcDbSymbolTableRecord
100
AcDbDimStyleTableRecord
  2
ISO-25
 70
     0
 41
2.5
 42
0.625
 43
3.75
 44
1.25
 73
     0
 74
     0
 77
     1
 78
     8
140
2.5
141
2.5
143
0.0393700787
147
0.625
171
     3
172
     1
178
     0
271
     2
272
     2
274
     3
278
    44
283
     0
284
     8
340
11
  0
DIMSTYLE
105
297
102
{ACAD_REACTORS
330
295
330
2AA
330
365
102
}
330
A
100
AcDbSymbolTableRecord
100
AcDbDimStyleTableRecord
  2
SLDDIMSTYLE0
 70
     0
 41
3.302
 44
0.0
 45
0.000000001
 73
     0
 74
     0
 77
     1
 78
     4
 79
     1
140
2.9104166031
147
0.7276041508
173
     1
178
     0
276
     2
284
    12
340
296
341
298
343
298
344
298
  0
DIMSTYLE
105
2BB
102
{ACAD_REACTORS
330
2BA
330
2C9
330
2D7
330
2E5
330
2F3
330
301
330
30F
330
31D
330
349
330
357
330
383
330
391
330
3A1
330
3AF
330
3BD
330
3CB
330
3D9
102
}
330
A
100
AcDbSymbolTableRecord
100
AcDbDimStyleTableRecord
  2
SLDDIMSTYLE1
 70
     0
 41
3.302
 44
0.0
 45
0.000000001
 73
     0
 74
     0
 77
     1
 78
    12
 79
     3
140
2.9104166031
147
0.7276041508
173
     1
178
     0
271
     0
276
     2
284
    12
340
296
341
298
343
298
344
298
  0
DIMSTYLE
105
32C
102
{ACAD_REACTORS
330
32B
330
375
102
}
330
A
100
AcDbSymbolTableRecord
100
AcDbDimStyleTableRecord
  2
SLDDIMSTYLE2
 70
     0
 41
3.302
 44
0.0
 45
0.000000001
 73
     0
 74
     0
 77
     1
 78
    12
 79
     3
140
2.9104166031
147
0.7276041508
173
     1
178
     0
271
     1
276
     2
284
    12
340
296
341
298
343
298
344
298
  0
DIMSTYLE
105
33B
102
{ACAD_REACTORS
330
33A
102
}
330
A
100
AcDbSymbolTableRecord
100
AcDbDimStyleTableRecord
  2
SLDDIMSTYLE3
 70
     0
 41
3.302
 44
0.0
 45
0.000000001
 73
     0
 74
     0
 77
     1
 78
    12
 79
     3
140
2.9104166031
147
0.7276041508
173
     1
178
     0
271
     2
276
     2
284
    12
340
296
341
298
343
298
344
298
  0
ENDTAB
  0
TABLE
  2
BLOCK_RECORD
  5
1
330
0
100
AcDbSymbolTable
 70
    25
  0
BLOCK_RECORD
  5
1F
330
1
100
AcDbSymbolTableRecord
100
AcDbBlockTableRecord
  2
*Model_Space
340
22
  0
BLOCK_RECORD
  5
1B
330
1
100
AcDbSymbolTableRecord
100
AcDbBlockTableRecord
  2
*Paper_Space
340
1E
  0
BLOCK_RECORD
  5
298
330
1
100
AcDbSymbolTableRecord
100
AcDbBlockTableRecord
  2
_NONE
340
0
  0
BLOCK_RECORD
  5
29B
330
1
100
AcDbSymbolTableRecord
100
AcDbBlockTableRecord
  2
_D
340
0
  0
BLOCK_RECORD
  5
2AB
330
1
100
AcDbSymbolTableRecord
100
AcDbBlockTableRecord
  2
_D_1
340
0
  0
BLOCK_RECORD
  5
2BC
330
1
100
AcDbSymbolTableRecord
100
AcDbBlockTableRecord
  2
_D_2
340
0
  0
BLOCK_RECORD
  5
2CA
330
1
100
AcDbSymbolTableRecord
100
AcDbBlockTableRecord
  2
_D_3
340
0
  0
BLOCK_RECORD
  5
2D8
330
1
100
AcDbSymbolTableRecord
100
AcDbBlockTableRecord
  2
_D_4
340
0
  0
BLOCK_RECORD
  5
2E6
330
1
100
AcDbSymbolTableRecord
100
AcDbBlockTableRecord
  2
_D_5
340
0
  0
BLOCK_RECORD
  5
2F4
330
1
100
AcDbSymbolTableRecord
100
AcDbBlockTableRecord
  2
_D_6
340
0
  0
BLOCK_RECORD
  5
302
330
1
100
AcDbSymbolTableRecord
100
AcDbBlockTableRecord
  2
_D_7
340
0
  0
BLOCK_RECORD
  5
310
330
1
100
AcDbSymbolTableRecord
100
AcDbBlockTableRecord
  2
_D_8
340
0
  0
BLOCK_RECORD
  5
31E
330
1
100
AcDbSymbolTableRecord
100
AcDbBlockTableRecord
  2
_D_9
340
0
  0
BLOCK_RECORD
  5
32D
330
1
100
AcDbSymbolTableRecord
100
AcDbBlockTableRecord
  2
_D_10
340
0
  0
BLOCK_RECORD
  5
33C
330
1
100
AcDbSymbolTableRecord
100
AcDbBlockTableRecord
  2
_D_11
340
0
  0
BLOCK_RECORD
  5
34A
330
1
100
AcDbSymbolTableRecord
100
AcDbBlockTableRecord
  2
_D_12
340
0
  0
BLOCK_RECORD
  5
358
330
1
100
AcDbSymbolTableRecord
100
AcDbBlockTableRecord
  2
_D_13
340
0
  0
BLOCK_RECORD
  5
366
330
1
100
AcDbSymbolTableRecord
100
AcDbBlockTableRecord
  2
_D_14
340
0
  0
BLOCK_RECORD
  5
376
330
1
100
AcDbSymbolTableRecord
100
AcDbBlockTableRecord
  2
_D_15
340
0
  0
BLOCK_RECORD
  5
384
330
1
100
AcDbSymbolTableRecord
100
AcDbBlockTableRecord
  2
_D_16
340
0
  0
BLOCK_RECORD
  5
392
330
1
100
AcDbSymbolTableRecord
100
AcDbBlockTableRecord
  2
_D_17
340
0
  0
BLOCK_RECORD
  5
3A2
330
1
100
AcDbSymbolTableRecord
100
AcDbBlockTableRecord
  2
_D_18
340
0
  0
BLOCK_RECORD
  5
3B0
330
1
100
AcDbSymbolTableRecord
100
AcDbBlockTableRecord
  2
_D_19
340
0
  0
BLOCK_RECORD
  5
3BE
330
1
100
AcDbSymbolTableRecord
100
AcDbBlockTableRecord
  2
_D_20
340
0
  0
BLOCK_RECORD
  5
3CC
330
1
100
AcDbSymbolTableRecord
100
AcDbBlockTableRecord
  2
_D_21
340
0
  0
BLOCK_RECORD
  5
3DA
330
1
100
AcDbSymbolTableRecord
100
AcDbBlockTableRecord
  2
_D_22
340
0
  0
ENDTAB
  0
ENDSEC
  0
SECTION
  2
BLOCKS
  0
BLOCK
  5
20
330
1F
100
AcDbEntity
  8
0
100
AcDbBlockBegin
  2
*Model_Space
 70
     0
 10
0.0
 20
0.0
 30
0.0
  3
*Model_Space
  1

  0
ENDBLK
  5
21
330
1F
100
AcDbEntity
  8
0
100
AcDbBlockEnd
  0
BLOCK
  5
1C
330
1B
100
AcDbEntity
 67
     1
  8
0
100
AcDbBlockBegin
  2
*Paper_Space
 70
     0
 10
0.0
 20
0.0
 30
0.0
  3
*Paper_Space
  1

  0
ENDBLK
  5
1D
330
1B
100
AcDbEntity
 67
     1
  8
0
100
AcDbBlockEnd
  0
BLOCK
  5
299
330
298
100
AcDbEntity
  8
0
100
AcDbBlockBegin
  2
_NONE
 70
     0
 10
0.0
 20
0.0
 30
0.0
  3
_NONE
  1

  0
ENDBLK
  5
29A
330
298
100
AcDbEntity
  8
0
100
AcDbBlockEnd
  0
BLOCK
  5
29C
330
29B
100
AcDbEntity
  8
0
100
AcDbBlockBegin
  2
_D
 70
     0
 10
0.0
 20
0.0
 30
0.0
  3
_D
  1

  0
LINE
  5
29E
330
29B
100
AcDbEntity
  8
SLD-0
 62
     7
100
AcDbLine
 10
47.5731725822
 20
141.1352988283
 30
0.0
 11
47.5731725822
 21
137.1352987381
 31
0.0
  0
LINE
  5
29F
330
29B
100
AcDbEntity
  8
SLD-0
 62
     7
100
AcDbLine
 10
47.5731725822
 20
144.1352987832
 30
0.0
 11
48.5731725672
 21
141.1352988283
 31
0.0
  0
LINE
  5
2A0
330
29B
100
AcDbEntity
  8
SLD-0
 62
     7
100
AcDbLine
 10
47.5731725822
 20
144.1352987832
 30
0.0
 11
46.5731725972
 21
141.1352988283
 31
0.0
  0
LINE
  5
2A1
330
29B
100
AcDbEntity
  8
SLD-0
 62
     7
100
AcDbLine
 10
47.5731725822
 20
144.1352987832
 30
0.0
 11
47.5731725822
 21
141.1352988283
 31
0.0
  0
LINE
  5
2A2
330
29B
100
AcDbEntity
  8
SLD-0
 62
     7
100
AcDbLine
 10
47.5731725822
 20
134.1352987832
 30
0.0
 11
46.5731725972
 21
137.1352987381
 31
0.0
  0
LINE
  5
2A3
330
29B
100
AcDbEntity
  8
SLD-0
 62
     7
100
AcDbLine
 10
47.5731725822
 20
134.1352987832
 30
0.0
 11
48.5731725672
 21
137.1352987381
 31
0.0
  0
LINE
  5
2A4
330
29B
100
AcDbEntity
  8
SLD-0
 62
     7
100
AcDbLine
 10
47.5731725822
 20
134.1352987832
 30
0.0
 11
47.5731725822
 21
137.1352987381
 31
0.0
  0
LINE
  5
2A5
330
29B
100
AcDbEntity
  8
SLD-0
 62
     7
100
AcDbLine
 10
82.0731726047
 20
144.1352987832
 30
0.0
 11
46.0731725822
 21
144.1352987832
 31
0.0
  0
LINE
  5
2A6
330
29B
100
AcDbEntity
  8
SLD-0
 62
     7
100
AcDbLine
 10
82.0731726047
 20
134.1352987832
 30
0.0
 11
46.0731725822
 21
134.1352987832
 31
0.0
  0
MTEXT
  5
2A8
330
29B
100
AcDbEntity
  8
SLD-0
 62
     7
100
AcDbMText
 10
44.153319792
 20
135.1853179282
 30
0.0
 40
2.9104166031
 41
0.0
 71
     1
 72
     1
  1
%%c
  7
SLDTEXTSTYLE1
 11
-3.828568698926949E-16
 21
1.0
 31
0.0
 73
     1
 44
1.0
  0
MTEXT
  5
2A9
330
29B
100
AcDbEntity
  8
SLD-0
 62
     7
100
AcDbMText
 10
44.153319792
 20
139.0408115464
 30
0.0
 40
2.9104166031
 41
0.0
 71
     1
 72
     1
  1
１０
  7
SLDTEXTSTYLE1
 11
-3.828568698926949E-16
 21
1.0
 31
0.0
 73
     1
 44
1.0
  0
ENDBLK
  5
29D
330
29B
100
AcDbEntity
  8
0
100
AcDbBlockEnd
  0
BLOCK
  5
2AC
330
2AB
100
AcDbEntity
  8
0
100
AcDbBlockBegin
  2
_D_1
 70
     0
 10
0.0
 20
0.0
 30
0.0
  3
_D_1
  1

  0
LINE
  5
2AE
330
2AB
100
AcDbEntity
  8
SLD-0
 62
     7
100
AcDbLine
 10
63.5731725822
 20
189.7928358407
 30
0.0
 11
51.6210070975
 21
189.7928358407
 31
0.0
  0
LINE
  5
2AF
330
2AB
100
AcDbEntity
  8
SLD-0
 62
     7
100
AcDbLine
 10
66.5731725371
 20
189.7928358407
 30
0.0
 11
70.5731726273
 21
189.7928358407
 31
0.0
  0
LINE
  5
2B0
330
2AB
100
AcDbEntity
  8
SLD-0
 62
     7
100
AcDbLine
 10
63.5731725822
 20
189.7928358407
 30
0.0
 11
66.5731725371
 21
190.7928358257
 31
0.0
  0
LINE
  5
2B1
330
2AB
100
AcDbEntity
  8
SLD-0
 62
     7
100
AcDbLine
 10
63.5731725822
 20
189.7928358407
 30
0.0
 11
66.5731725371
 21
188.7928358557
 31
0.0
  0
LINE
  5
2B2
330
2AB
100
AcDbEntity
  8
SLD-0
 62
     7
100
AcDbLine
 10
63.5731725822
 20
189.7928358407
 30
0.0
 11
66.5731725371
 21
189.7928358407
 31
0.0
  0
LINE
  5
2B3
330
2AB
100
AcDbEntity
  8
SLD-0
 62
     7
100
AcDbLine
 10
73.5731725822
 20
189.7928358407
 30
0.0
 11
70.5731726273
 21
188.7928358557
 31
0.0
  0
LINE
  5
2B4
330
2AB
100
AcDbEntity
  8
SLD-0
 62
     7
100
AcDbLine
 10
73.5731725822
 20
189.7928358407
 30
0.0
 11
70.5731726273
 21
190.7928358257
 31
0.0
  0
LINE
  5
2B5
330
2AB
100
AcDbEntity
  8
SLD-0
 62
     7
100
AcDbLine
 10
73.5731725822
 20
189.7928358407
 30
0.0
 11
70.5731726273
 21
189.7928358407
 31
0.0
  0
LINE
  5
2B6
330
2AB
100
AcDbEntity
  8
SLD-0
 62
     7
100
AcDbLine
 10
63.5731725822
 20
205.6352988057
 30
0.0
 11
63.5731725822
 21
188.2928358407
 31
0.0
  0
LINE
  5
2B7
330
2AB
100
AcDbEntity
  8
SLD-0
 62
     7
100
AcDbLine
 10
73.5731725822
 20
205.6352988057
 30
0.0
 11
73.5731725822
 21
188.2928358407
 31
0.0
  0
MTEXT
  5
2B8
330
2AB
100
AcDbEntity
  8
SLD-0
 62
     7
100
AcDbMText
 10
51.6210070975
 20
193.2126886309
 30
0.0
 40
2.9104166031
 41
0.0
 71
     1
 72
     1
  1
%%c
  7
SLDTEXTSTYLE1
 73
     1
 44
1.0
  0
MTEXT
  5
2B9
330
2AB
100
AcDbEntity
  8
SLD-0
 62
     7
100
AcDbMText
 10
55.4765007157
 20
193.2126886309
 30
0.0
 40
2.9104166031
 41
0.0
 71
     1
 72
     1
  1
１０
  7
SLDTEXTSTYLE1
 73
     1
 44
1.0
  0
ENDBLK
  5
2AD
330
2AB
100
AcDbEntity
  8
0
100
AcDbBlockEnd
  0
BLOCK
  5
2BD
330
2BC
100
AcDbEntity
  8
0
100
AcDbBlockBegin
  2
_D_2
 70
     0
 10
0.0
 20
0.0
 30
0.0
  3
_D_2
  1

  0
LINE
  5
2BF
330
2BC
100
AcDbEntity
  8
SLD-0
 62
     7
100
AcDbLine
 10
88.5731725371
 20
243.4613565475
 30
0.0
 11
192.5731726273
 21
243.4613565475
 31
0.0
  0
LINE
  5
2C0
330
2BC
100
AcDbEntity
  8
SLD-0
 62
     7
100
AcDbLine
 10
85.5731725822
 20
243.4613565475
 30
0.0
 11
88.5731725371
 21
244.4613565325
 31
0.0
  0
LINE
  5
2C1
330
2BC
100
AcDbEntity
  8
SLD-0
 62
     7
100
AcDbLine
 10
85.5731725822
 20
243.4613565475
 30
0.0
 11
88.5731725371
 21
242.4613565625
 31
0.0
  0
LINE
  5
2C2
330
2BC
100
AcDbEntity
  8
SLD-0
 62
     7
100
AcDbLine
 10
85.5731725822
 20
243.4613565475
 30
0.0
 11
88.5731725371
 21
243.4613565475
 31
0.0
  0
LINE
  5
2C3
330
2BC
100
AcDbEntity
  8
SLD-0
 62
     7
100
AcDbLine
 10
195.5731725822
 20
243.4613565475
 30
0.0
 11
192.5731726273
 21
242.4613565625
 31
0.0
  0
LINE
  5
2C4
330
2BC
100
AcDbEntity
  8
SLD-0
 62
     7
100
AcDbLine
 10
195.5731725822
 20
243.4613565475
 30
0.0
 11
192.5731726273
 21
244.4613565325
 31
0.0
  0
LINE
  5
2C5
330
2BC
100
AcDbEntity
  8
SLD-0
 62
     7
100
AcDbLine
 10
195.5731725822
 20
243.4613565475
 30
0.0
 11
192.5731726273
 21
243.4613565475
 31
0.0
  0
LINE
  5
2C6
330
2BC
100
AcDbEntity
  8
SLD-0
 62
     7
100
AcDbLine
 10
85.5731725822
 20
233.1352987607
 30
0.0
 11
85.5731725822
 21
244.9613565475
 31
0.0
  0
LINE
  5
2C7
330
2BC
100
AcDbEntity
  8
SLD-0
 62
     7
100
AcDbLine
 10
195.5731725822
 20
233.1352987607
 30
0.0
 11
195.5731725822
 21
244.9613565475
 31
0.0
  0
MTEXT
  5
2C8
330
2BC
100
AcDbEntity
  8
SLD-0
 62
     7
100
AcDbMText
 10
136.6231917272
 20
246.8812093377
 30
0.0
 40
2.9104166031
 41
0.0
 71
     1
 72
     1
  1
110
  7
SLDTEXTSTYLE1
 73
     1
 44
1.0
  0
ENDBLK
  5
2BE
330
2BC
100
AcDbEntity
  8
0
100
AcDbBlockEnd
  0
BLOCK
  5
2CB
330
2CA
100
AcDbEntity
  8
0
100
AcDbBlockBegin
  2
_D_3
 70
     0
 10
0.0
 20
0.0
 30
0.0
  3
_D_3
  1

  0
LINE
  5
2CD
330
2CA
100
AcDbEntity
  8
SLD-0
 62
     7
100
AcDbLine
 10
207.5731726273
 20
254.1352987832
 30
0.0
 11
73.5731725371
 21
254.1352987832
 31
0.0
  0
LINE
  5
2CE
330
2CA
100
AcDbEntity
  8
SLD-0
 62
     7
100
AcDbLine
 10
210.5731725822
 20
254.1352987832
 30
0.0
 11
207.5731726273
 21
253.1352987982
 31
0.0
  0
LINE
  5
2CF
330
2CA
100
AcDbEntity
  8
SLD-0
 62
     7
100
AcDbLine
 10
210.5731725822
 20
254.1352987832
 30
0.0
 11
207.5731726273
 21
255.1352987682
 31
0.0
  0
LINE
  5
2D0
330
2CA
100
AcDbEntity
  8
SLD-0
 62
     7
100
AcDbLine
 10
210.5731725822
 20
254.1352987832
 30
0.0
 11
207.5731726273
 21
254.1352987832
 31
0.0
  0
LINE
  5
2D1
330
2CA
100
AcDbEntity
  8
SLD-0
 62
     7
100
AcDbLine
 10
70.5731725822
 20
254.1352987832
 30
0.0
 11
73.5731725371
 21
255.1352987682
 31
0.0
  0
LINE
  5
2D2
330
2CA
100
AcDbEntity
  8
SLD-0
 62
     7
100
AcDbLine
 10
70.5731725822
 20
254.1352987832
 30
0.0
 11
73.5731725371
 21
253.1352987982
 31
0.0
  0
LINE
  5
2D3
330
2CA
100
AcDbEntity
  8
SLD-0
 62
     7
100
AcDbLine
 10
70.5731725822
 20
254.1352987832
 30
0.0
 11
73.5731725371
 21
254.1352987832
 31
0.0
  0
LINE
  5
2D4
330
2CA
100
AcDbEntity
  8
SLD-0
 62
     7
100
AcDbLine
 10
210.5731725822
 20
233.1352987607
 30
0.0
 11
210.5731725822
 21
255.6352987832
 31
0.0
  0
LINE
  5
2D5
330
2CA
100
AcDbEntity
  8
SLD-0
 62
     7
100
AcDbLine
 10
70.5731725822
 20
233.1352987607
 30
0.0
 11
70.5731725822
 21
255.6352987832
 31
0.0
  0
MTEXT
  5
2D6
330
2CA
100
AcDbEntity
  8
SLD-0
 62
     7
100
AcDbMText
 10
136.6231917272
 20
257.5551515734
 30
0.0
 40
2.9104166031
 41
0.0
 71
     1
 72
     1
  1
140
  7
SLDTEXTSTYLE1
 73
     1
 44
1.0
  0
ENDBLK
  5
2CC
330
2CA
100
AcDbEntity
  8
0
100
AcDbBlockEnd
  0
BLOCK
  5
2D9
330
2D8
100
AcDbEntity
  8
0
100
AcDbBlockBegin
  2
_D_4
 70
     0
 10
0.0
 20
0.0
 30
0.0
  3
_D_4
  1

  0
LINE
  5
2DB
330
2D8
100
AcDbEntity
  8
SLD-0
 62
     7
100
AcDbLine
 10
82.5731726273
 20
243.4613565475
 30
0.0
 11
73.5731725371
 21
243.4613565475
 31
0.0
  0
LINE
  5
2DC
330
2D8
100
AcDbEntity
  8
SLD-0
 62
     7
100
AcDbLine
 10
85.5731725822
 20
243.4613565475
 30
0.0
 11
82.5731726273
 21
242.4613565625
 31
0.0
  0
LINE
  5
2DD
330
2D8
100
AcDbEntity
  8
SLD-0
 62
     7
100
AcDbLine
 10
85.5731725822
 20
243.4613565475
 30
0.0
 11
82.5731726273
 21
244.4613565325
 31
0.0
  0
LINE
  5
2DE
330
2D8
100
AcDbEntity
  8
SLD-0
 62
     7
100
AcDbLine
 10
85.5731725822
 20
243.4613565475
 30
0.0
 11
82.5731726273
 21
243.4613565475
 31
0.0
  0
LINE
  5
2DF
330
2D8
100
AcDbEntity
  8
SLD-0
 62
     7
100
AcDbLine
 10
70.5731725822
 20
243.4613565475
 30
0.0
 11
73.5731725371
 21
244.4613565325
 31
0.0
  0
LINE
  5
2E0
330
2D8
100
AcDbEntity
  8
SLD-0
 62
     7
100
AcDbLine
 10
70.5731725822
 20
243.4613565475
 30
0.0
 11
73.5731725371
 21
242.4613565625
 31
0.0
  0
LINE
  5
2E1
330
2D8
100
AcDbEntity
  8
SLD-0
 62
     7
100
AcDbLine
 10
70.5731725822
 20
243.4613565475
 30
0.0
 11
73.5731725371
 21
243.4613565475
 31
0.0
  0
LINE
  5
2E2
330
2D8
100
AcDbEntity
  8
SLD-0
 62
     7
100
AcDbLine
 10
85.5731725822
 20
233.1352987607
 30
0.0
 11
85.5731725822
 21
244.9613565475
 31
0.0
  0
LINE
  5
2E3
330
2D8
100
AcDbEntity
  8
SLD-0
 62
     7
100
AcDbLine
 10
70.5731725822
 20
233.1352987607
 30
0.0
 11
70.5731725822
 21
244.9613565475
 31
0.0
  0
MTEXT
  5
2E4
330
2D8
100
AcDbEntity
  8
SLD-0
 62
     7
100
AcDbMText
 10
75.5783999692
 20
246.8812093377
 30
0.0
 40
2.9104166031
 41
0.0
 71
     1
 72
     1
  1
15
  7
SLDTEXTSTYLE1
 73
     1
 44
1.0
  0
ENDBLK
  5
2DA
330
2D8
100
AcDbEntity
  8
0
100
AcDbBlockEnd
  0
BLOCK
  5
2E7
330
2E6
100
AcDbEntity
  8
0
100
AcDbBlockBegin
  2
_D_5
 70
     0
 10
0.0
 20
0.0
 30
0.0
  3
_D_5
  1

  0
LINE
  5
2E9
330
2E6
100
AcDbEntity
  8
SLD-0
 62
     7
100
AcDbLine
 10
198.5731725371
 20
243.4613565475
 30
0.0
 11
207.5731726273
 21
243.4613565475
 31
0.0
  0
LINE
  5
2EA
330
2E6
100
AcDbEntity
  8
SLD-0
 62
     7
100
AcDbLine
 10
195.5731725822
 20
243.4613565475
 30
0.0
 11
198.5731725371
 21
244.4613565325
 31
0.0
  0
LINE
  5
2EB
330
2E6
100
AcDbEntity
  8
SLD-0
 62
     7
100
AcDbLine
 10
195.5731725822
 20
243.4613565475
 30
0.0
 11
198.5731725371
 21
242.4613565625
 31
0.0
  0
LINE
  5
2EC
330
2E6
100
AcDbEntity
  8
SLD-0
 62
     7
100
AcDbLine
 10
195.5731725822
 20
243.4613565475
 30
0.0
 11
198.5731725371
 21
243.4613565475
 31
0.0
  0
LINE
  5
2ED
330
2E6
100
AcDbEntity
  8
SLD-0
 62
     7
100
AcDbLine
 10
210.5731725822
 20
243.4613565475
 30
0.0
 11
207.5731726273
 21
242.4613565625
 31
0.0
  0
LINE
  5
2EE
330
2E6
100
AcDbEntity
  8
SLD-0
 62
     7
100
AcDbLine
 10
210.5731725822
 20
243.4613565475
 30
0.0
 11
207.5731726273
 21
244.4613565325
 31
0.0
  0
LINE
  5
2EF
330
2E6
100
AcDbEntity
  8
SLD-0
 62
     7
100
AcDbLine
 10
210.5731725822
 20
243.4613565475
 30
0.0
 11
207.5731726273
 21
243.4613565475
 31
0.0
  0
LINE
  5
2F0
330
2E6
100
AcDbEntity
  8
SLD-0
 62
     7
100
AcDbLine
 10
195.5731725822
 20
233.1352987607
 30
0.0
 11
195.5731725822
 21
244.9613565475
 31
0.0
  0
LINE
  5
2F1
330
2E6
100
AcDbEntity
  8
SLD-0
 62
     7
100
AcDbLine
 10
210.5731725822
 20
233.1352987607
 30
0.0
 11
210.5731725822
 21
244.9613565475
 31
0.0
  0
MTEXT
  5
2F2
330
2E6
100
AcDbEntity
  8
SLD-0
 62
     7
100
AcDbMText
 10
200.5783999692
 20
246.8812093377
 30
0.0
 40
2.9104166031
 41
0.0
 71
     1
 72
     1
  1
15
  7
SLDTEXTSTYLE1
 73
     1
 44
1.0
  0
ENDBLK
  5
2E8
330
2E6
100
AcDbEntity
  8
0
100
AcDbBlockEnd
  0
BLOCK
  5
2F5
330
2F4
100
AcDbEntity
  8
0
100
AcDbBlockBegin
  2
_D_6
 70
     0
 10
0.0
 20
0.0
 30
0.0
  3
_D_6
  1

  0
LINE
  5
2F7
330
2F4
100
AcDbEntity
  8
SLD-0
 62
     7
100
AcDbLine
 10
231.0731725822
 20
209.1352988283
 30
0.0
 11
231.0731725822
 21
170.1352987381
 31
0.0
  0
LINE
  5
2F8
330
2F4
100
AcDbEntity
  8
SLD-0
 62
     7
100
AcDbLine
 10
231.0731725822
 20
212.1352987832
 30
0.0
 11
232.0731725672
 21
209.1352988283
 31
0.0
  0
LINE
  5
2F9
330
2F4
100
AcDbEntity
  8
SLD-0
 62
     7
100
AcDbLine
 10
231.0731725822
 20
212.1352987832
 30
0.0
 11
230.0731725972
 21
209.1352988283
 31
0.0
  0
LINE
  5
2FA
330
2F4
100
AcDbEntity
  8
SLD-0
 62
     7
100
AcDbLine
 10
231.0731725822
 20
212.1352987832
 30
0.0
 11
231.0731725822
 21
209.1352988283
 31
0.0
  0
LINE
  5
2FB
330
2F4
100
AcDbEntity
  8
SLD-0
 62
     7
100
AcDbLine
 10
231.0731725822
 20
167.1352987832
 30
0.0
 11
230.0731725972
 21
170.1352987381
 31
0.0
  0
LINE
  5
2FC
330
2F4
100
AcDbEntity
  8
SLD-0
 62
     7
100
AcDbLine
 10
231.0731725822
 20
167.1352987832
 30
0.0
 11
232.0731725672
 21
170.1352987381
 31
0.0
  0
LINE
  5
2FD
330
2F4
100
AcDbEntity
  8
SLD-0
 62
     7
100
AcDbLine
 10
231.0731725822
 20
167.1352987832
 30
0.0
 11
231.0731725822
 21
170.1352987381
 31
0.0
  0
LINE
  5
2FE
330
2F4
100
AcDbEntity
  8
SLD-0
 62
     7
100
AcDbLine
 10
196.5731725597
 20
212.1352987832
 30
0.0
 11
232.5731725822
 21
212.1352987832
 31
0.0
  0
LINE
  5
2FF
330
2F4
100
AcDbEntity
  8
SLD-0
 62
     7
100
AcDbLine
 10
226.0449066101
 20
167.1352987832
 30
0.0
 11
232.5731725822
 21
167.1352987832
 31
0.0
  0
MTEXT
  5
300
330
2F4
100
AcDbEntity
  8
SLD-0
 62
     7
100
AcDbMText
 10
227.653319792
 20
187.1405261702
 30
0.0
 40
2.9104166031
 41
0.0
 71
     1
 72
     1
  1
45
  7
SLDTEXTSTYLE1
 11
-3.828568698926949E-16
 21
1.0
 31
0.0
 73
     1
 44
1.0
  0
ENDBLK
  5
2F6
330
2F4
100
AcDbEntity
  8
0
100
AcDbBlockEnd
  0
BLOCK
  5
303
330
302
100
AcDbEntity
  8
0
100
AcDbBlockBegin
  2
_D_7
 70
     0
 10
0.0
 20
0.0
 30
0.0
  3
_D_7
  1

  0
LINE
  5
305
330
302
100
AcDbEntity
  8
SLD-0
 62
     7
100
AcDbLine
 10
47.5731725822
 20
209.1352988283
 30
0.0
 11
47.5731725822
 21
147.1352987381
 31
0.0
  0
LINE
  5
306
330
302
100
AcDbEntity
  8
SLD-0
 62
     7
100
AcDbLine
 10
47.5731725822
 20
212.1352987832
 30
0.0
 11
48.5731725672
 21
209.1352988283
 31
0.0
  0
LINE
  5
307
330
302
100
AcDbEntity
  8
SLD-0
 62
     7
100
AcDbLine
 10
47.5731725822
 20
212.1352987832
 30
0.0
 11
46.5731725972
 21
209.1352988283
 31
0.0
  0
LINE
  5
308
330
302
100
AcDbEntity
  8
SLD-0
 62
     7
100
AcDbLine
 10
47.5731725822
 20
212.1352987832
 30
0.0
 11
47.5731725822
 21
209.1352988283
 31
0.0
  0
LINE
  5
309
330
302
100
AcDbEntity
  8
SLD-0
 62
     7
100
AcDbLine
 10
47.5731725822
 20
144.1352987832
 30
0.0
 11
46.5731725972
 21
147.1352987381
 31
0.0
  0
LINE
  5
30A
330
302
100
AcDbEntity
  8
SLD-0
 62
     7
100
AcDbLine
 10
47.5731725822
 20
144.1352987832
 30
0.0
 11
48.5731725672
 21
147.1352987381
 31
0.0
  0
LINE
  5
30B
330
302
100
AcDbEntity
  8
SLD-0
 62
     7
100
AcDbLine
 10
47.5731725822
 20
144.1352987832
 30
0.0
 11
47.5731725822
 21
147.1352987381
 31
0.0
  0
LINE
  5
30C
330
302
100
AcDbEntity
  8
SLD-0
 62
     7
100
AcDbLine
 10
84.5731726047
 20
212.1352987832
 30
0.0
 11
46.0731725822
 21
212.1352987832
 31
0.0
  0
LINE
  5
30D
330
302
100
AcDbEntity
  8
SLD-0
 62
     7
100
AcDbLine
 10
82.0731726047
 20
144.1352987832
 30
0.0
 11
46.0731725822
 21
144.1352987832
 31
0.0
  0
MTEXT
  5
30E
330
302
100
AcDbEntity
  8
SLD-0
 62
     7
100
AcDbMText
 10
44.153319792
 20
175.6405261702
 30
0.0
 40
2.9104166031
 41
0.0
 71
     1
 72
     1
  1
68
  7
SLDTEXTSTYLE1
 11
-3.828568698926949E-16
 21
1.0
 31
0.0
 73
     1
 44
1.0
  0
ENDBLK
  5
304
330
302
100
AcDbEntity
  8
0
100
AcDbBlockEnd
  0
BLOCK
  5
311
330
310
100
AcDbEntity
  8
0
100
AcDbBlockBegin
  2
_D_8
 70
     0
 10
0.0
 20
0.0
 30
0.0
  3
_D_8
  1

  0
LINE
  5
313
330
310
100
AcDbEntity
  8
SLD-0
 62
     7
100
AcDbLine
 10
249.0731725822
 20
229.1352988283
 30
0.0
 11
249.0731725822
 21
105.1352987381
 31
0.0
  0
LINE
  5
314
330
310
100
AcDbEntity
  8
SLD-0
 62
     7
100
AcDbLine
 10
249.0731725822
 20
232.1352987832
 30
0.0
 11
250.0731725672
 21
229.1352988283
 31
0.0
  0
LINE
  5
315
330
310
100
AcDbEntity
  8
SLD-0
 62
     7
100
AcDbLine
 10
249.0731725822
 20
232.1352987832
 30
0.0
 11
248.0731725972
 21
229.1352988283
 31
0.0
  0
LINE
  5
316
330
310
100
AcDbEntity
  8
SLD-0
 62
     7
100
AcDbLine
 10
249.0731725822
 20
232.1352987832
 30
0.0
 11
249.0731725822
 21
229.1352988283
 31
0.0
  0
LINE
  5
317
330
310
100
AcDbEntity
  8
SLD-0
 62
     7
100
AcDbLine
 10
249.0731725822
 20
102.1352987832
 30
0.0
 11
248.0731725972
 21
105.1352987381
 31
0.0
  0
LINE
  5
318
330
310
100
AcDbEntity
  8
SLD-0
 62
     7
100
AcDbLine
 10
249.0731725822
 20
102.1352987832
 30
0.0
 11
250.0731725672
 21
105.1352987381
 31
0.0
  0
LINE
  5
319
330
310
100
AcDbEntity
  8
SLD-0
 62
     7
100
AcDbLine
 10
249.0731725822
 20
102.1352987832
 30
0.0
 11
249.0731725822
 21
105.1352987381
 31
0.0
  0
LINE
  5
31A
330
310
100
AcDbEntity
  8
SLD-0
 62
     7
100
AcDbLine
 10
211.5731725597
 20
232.1352987832
 30
0.0
 11
250.5731725822
 21
232.1352987832
 31
0.0
  0
LINE
  5
31B
330
310
100
AcDbEntity
  8
SLD-0
 62
     7
100
AcDbLine
 10
211.5731725597
 20
102.1352987832
 30
0.0
 11
250.5731725822
 21
102.1352987832
 31
0.0
  0
MTEXT
  5
31C
330
310
100
AcDbEntity
  8
SLD-0
 62
     7
100
AcDbMText
 10
245.653319792
 20
163.1853179282
 30
0.0
 40
2.9104166031
 41
0.0
 71
     1
 72
     1
  1
130
  7
SLDTEXTSTYLE1
 11
-3.828568698926949E-16
 21
1.0
 31
0.0
 73
     1
 44
1.0
  0
ENDBLK
  5
312
330
310
100
AcDbEntity
  8
0
100
AcDbBlockEnd
  0
BLOCK
  5
31F
330
31E
100
AcDbEntity
  8
0
100
AcDbBlockBegin
  2
_D_9
 70
     0
 10
0.0
 20
0.0
 30
0.0
  3
_D_9
  1

  0
LINE
  5
321
330
31E
100
AcDbEntity
  8
SLD-0
 62
     7
100
AcDbLine
 10
231.0731725822
 20
229.1352988283
 30
0.0
 11
231.0731725822
 21
215.1352987381
 31
0.0
  0
LINE
  5
322
330
31E
100
AcDbEntity
  8
SLD-0
 62
     7
100
AcDbLine
 10
231.0731725822
 20
232.1352987832
 30
0.0
 11
232.0731725672
 21
229.1352988283
 31
0.0
  0
LINE
  5
323
330
31E
100
AcDbEntity
  8
SLD-0
 62
     7
100
AcDbLine
 10
231.0731725822
 20
232.1352987832
 30
0.0
 11
230.0731725972
 21
229.1352988283
 31
0.0
  0
LINE
  5
324
330
31E
100
AcDbEntity
  8
SLD-0
 62
     7
100
AcDbLine
 10
231.0731725822
 20
232.1352987832
 30
0.0
 11
231.0731725822
 21
229.1352988283
 31
0.0
  0
LINE
  5
325
330
31E
100
AcDbEntity
  8
SLD-0
 62
     7
100
AcDbLine
 10
231.0731725822
 20
212.1352987832
 30
0.0
 11
230.0731725972
 21
215.1352987381
 31
0.0
  0
LINE
  5
326
330
31E
100
AcDbEntity
  8
SLD-0
 62
     7
100
AcDbLine
 10
231.0731725822
 20
212.1352987832
 30
0.0
 11
232.0731725672
 21
215.1352987381
 31
0.0
  0
LINE
  5
327
330
31E
100
AcDbEntity
  8
SLD-0
 62
     7
100
AcDbLine
 10
231.0731725822
 20
212.1352987832
 30
0.0
 11
231.0731725822
 21
215.1352987381
 31
0.0
  0
LINE
  5
328
330
31E
100
AcDbEntity
  8
SLD-0
 62
     7
100
AcDbLine
 10
211.5731725597
 20
232.1352987832
 30
0.0
 11
232.5731725822
 21
232.1352987832
 31
0.0
  0
LINE
  5
329
330
31E
100
AcDbEntity
  8
SLD-0
 62
     7
100
AcDbLine
 10
196.5731725597
 20
212.1352987832
 30
0.0
 11
232.5731725822
 21
212.1352987832
 31
0.0
  0
MTEXT
  5
32A
330
31E
100
AcDbEntity
  8
SLD-0
 62
     7
100
AcDbMText
 10
227.653319792
 20
219.6405261702
 30
0.0
 40
2.9104166031
 41
0.0
 71
     1
 72
     1
  1
20
  7
SLDTEXTSTYLE1
 11
-3.828568698926949E-16
 21
1.0
 31
0.0
 73
     1
 44
1.0
  0
ENDBLK
  5
320
330
31E
100
AcDbEntity
  8
0
100
AcDbBlockEnd
  0
BLOCK
  5
32E
330
32D
100
AcDbEntity
  8
0
100
AcDbBlockBegin
  2
_D_10
 70
     0
 10
0.0
 20
0.0
 30
0.0
  3
_D_10
  1

  0
LINE
  5
330
330
32D
100
AcDbEntity
  8
SLD-0
 62
     7
100
AcDbLine
 10
66.5731725371
 20
84.6152987832
 30
0.0
 11
218.0731726273
 21
84.6152987832
 31
0.0
  0
LINE
  5
331
330
32D
100
AcDbEntity
  8
SLD-0
 62
     7
100
AcDbLine
 10
63.5731725822
 20
84.6152987832
 30
0.0
 11
66.5731725371
 21
85.6152987682
 31
0.0
  0
LINE
  5
332
330
32D
100
AcDbEntity
  8
SLD-0
 62
     7
100
AcDbLine
 10
63.5731725822
 20
84.6152987832
 30
0.0
 11
66.5731725371
 21
83.6152987982
 31
0.0
  0
LINE
  5
333
330
32D
100
AcDbEntity
  8
SLD-0
 62
     7
100
AcDbLine
 10
63.5731725822
 20
84.6152987832
 30
0.0
 11
66.5731725371
 21
84.6152987832
 31
0.0
  0
LINE
  5
334
330
32D
100
AcDbEntity
  8
SLD-0
 62
     7
100
AcDbLine
 10
221.0731725822
 20
84.6152987832
 30
0.0
 11
218.0731726273
 21
83.6152987982
 31
0.0
  0
LINE
  5
335
330
32D
100
AcDbEntity
  8
SLD-0
 62
     7
100
AcDbLine
 10
221.0731725822
 20
84.6152987832
 30
0.0
 11
218.0731726273
 21
85.6152987682
 31
0.0
  0
LINE
  5
336
330
32D
100
AcDbEntity
  8
SLD-0
 62
     7
100
AcDbLine
 10
221.0731725822
 20
84.6152987832
 30
0.0
 11
218.0731726273
 21
84.6152987832
 31
0.0
  0
LINE
  5
337
330
32D
100
AcDbEntity
  8
SLD-0
 62
     7
100
AcDbLine
 10
63.5731725822
 20
152.6352988057
 30
0.0
 11
63.5731725822
 21
83.1152987832
 31
0.0
  0
LINE
  5
338
330
32D
100
AcDbEntity
  8
SLD-0
 62
     7
100
AcDbLine
 10
221.0731725822
 20
158.3051717867
 30
0.0
 11
221.0731725822
 21
83.1152987832
 31
0.0
  0
MTEXT
  5
339
330
32D
100
AcDbEntity
  8
SLD-0
 62
     7
100
AcDbMText
 10
136.3359001885
 20
88.0351515734
 30
0.0
 40
2.9104166031
 41
0.0
 71
     1
 72
     1
  1
157.5
  7
SLDTEXTSTYLE1
 73
     1
 44
1.0
  0
ENDBLK
  5
32F
330
32D
100
AcDbEntity
  8
0
100
AcDbBlockEnd
  0
BLOCK
  5
33D
330
33C
100
AcDbEntity
  8
0
100
AcDbBlockBegin
  2
_D_11
 70
     0
 10
0.0
 20
0.0
 30
0.0
  3
_D_11
  1

  0
LINE
  5
33F
330
33C
100
AcDbEntity
  8
SLD-0
 62
     7
100
AcDbLine
 10
231.0731725822
 20
137.1352987381
 30
0.0
 11
231.0731725822
 21
161.8051718093
 31
0.0
  0
LINE
  5
340
330
33C
100
AcDbEntity
  8
SLD-0
 62
     7
100
AcDbLine
 10
231.0731725822
 20
134.1352987832
 30
0.0
 11
230.0731725972
 21
137.1352987381
 31
0.0
  0
LINE
  5
341
330
33C
100
AcDbEntity
  8
SLD-0
 62
     7
100
AcDbLine
 10
231.0731725822
 20
134.1352987832
 30
0.0
 11
232.0731725672
 21
137.1352987381
 31
0.0
  0
LINE
  5
342
330
33C
100
AcDbEntity
  8
SLD-0
 62
     7
100
AcDbLine
 10
231.0731725822
 20
134.1352987832
 30
0.0
 11
231.0731725822
 21
137.1352987381
 31
0.0
  0
LINE
  5
343
330
33C
100
AcDbEntity
  8
SLD-0
 62
     7
100
AcDbLine
 10
231.0731725822
 20
164.8051717642
 30
0.0
 11
232.0731725672
 21
161.8051718093
 31
0.0
  0
LINE
  5
344
330
33C
100
AcDbEntity
  8
SLD-0
 62
     7
100
AcDbLine
 10
231.0731725822
 20
164.8051717642
 30
0.0
 11
230.0731725972
 21
161.8051718093
 31
0.0
  0
LINE
  5
345
330
33C
100
AcDbEntity
  8
SLD-0
 62
     7
100
AcDbLine
 10
231.0731725822
 20
164.8051717642
 30
0.0
 11
231.0731725822
 21
161.8051718093
 31
0.0
  0
LINE
  5
346
330
33C
100
AcDbEntity
  8
SLD-0
 62
     7
100
AcDbLine
 10
196.9791617921
 20
134.1352987832
 30
0.0
 11
232.5731725822
 21
134.1352987832
 31
0.0
  0
LINE
  5
347
330
33C
100
AcDbEntity
  8
SLD-0
 62
     7
100
AcDbLine
 10
217.5731725597
 20
164.8051717642
 30
0.0
 11
232.5731725822
 21
164.8051717642
 31
0.0
  0
MTEXT
  5
348
330
33C
100
AcDbEntity
  8
SLD-0
 62
     7
100
AcDbMText
 10
227.653319792
 20
143.48296288
 30
0.0
 40
2.9104166031
 41
0.0
 71
     1
 72
     1
  1
30.67
  7
SLDTEXTSTYLE1
 11
-3.828568698926949E-16
 21
1.0
 31
0.0
 73
     1
 44
1.0
  0
ENDBLK
  5
33E
330
33C
100
AcDbEntity
  8
0
100
AcDbBlockEnd
  0
BLOCK
  5
34B
330
34A
100
AcDbEntity
  8
0
100
AcDbBlockBegin
  2
_D_12
 70
     0
 10
0.0
 20
0.0
 30
0.0
  3
_D_12
  1

  0
LINE
  5
34D
330
34A
100
AcDbEntity
  8
SLD-0
 62
     7
100
AcDbLine
 10
294.5145110722
 20
254.1352987832
 30
0.0
 11
321.5145111624
 21
254.1352987832
 31
0.0
  0
LINE
  5
34E
330
34A
100
AcDbEntity
  8
SLD-0
 62
     7
100
AcDbLine
 10
291.5145111173
 20
254.1352987832
 30
0.0
 11
294.5145110722
 21
255.1352987682
 31
0.0
  0
LINE
  5
34F
330
34A
100
AcDbEntity
  8
SLD-0
 62
     7
100
AcDbLine
 10
291.5145111173
 20
254.1352987832
 30
0.0
 11
294.5145110722
 21
253.1352987982
 31
0.0
  0
LINE
  5
350
330
34A
100
AcDbEntity
  8
SLD-0
 62
     7
100
AcDbLine
 10
291.5145111173
 20
254.1352987832
 30
0.0
 11
294.5145110722
 21
254.1352987832
 31
0.0
  0
LINE
  5
351
330
34A
100
AcDbEntity
  8
SLD-0
 62
     7
100
AcDbLine
 10
324.5145111173
 20
254.1352987832
 30
0.0
 11
321.5145111624
 21
253.1352987982
 31
0.0
  0
LINE
  5
352
330
34A
100
AcDbEntity
  8
SLD-0
 62
     7
100
AcDbLine
 10
324.5145111173
 20
254.1352987832
 30
0.0
 11
321.5145111624
 21
255.1352987682
 31
0.0
  0
LINE
  5
353
330
34A
100
AcDbEntity
  8
SLD-0
 62
     7
100
AcDbLine
 10
324.5145111173
 20
254.1352987832
 30
0.0
 11
321.5145111624
 21
254.1352987832
 31
0.0
  0
LINE
  5
354
330
34A
100
AcDbEntity
  8
SLD-0
 62
     7
100
AcDbLine
 10
291.5145111173
 20
223.6352987607
 30
0.0
 11
291.5145111173
 21
255.6352987832
 31
0.0
  0
LINE
  5
355
330
34A
100
AcDbEntity
  8
SLD-0
 62
     7
100
AcDbLine
 10
324.5145111173
 20
233.6352987607
 30
0.0
 11
324.5145111173
 21
255.6352987832
 31
0.0
  0
MTEXT
  5
356
330
34A
100
AcDbEntity
  8
SLD-0
 62
     7
100
AcDbMText
 10
305.5197385043
 20
257.5551515734
 30
0.0
 40
2.9104166031
 41
0.0
 71
     1
 72
     1
  1
33
  7
SLDTEXTSTYLE1
 73
     1
 44
1.0
  0
ENDBLK
  5
34C
330
34A
100
AcDbEntity
  8
0
100
AcDbBlockEnd
  0
BLOCK
  5
359
330
358
100
AcDbEntity
  8
0
100
AcDbBlockBegin
  2
_D_13
 70
     0
 10
0.0
 20
0.0
 30
0.0
  3
_D_13
  1

  0
LINE
  5
35B
330
358
100
AcDbEntity
  8
SLD-0
 62
     7
100
AcDbLine
 10
309.5145110722
 20
84.6152987832
 30
0.0
 11
316.5145111624
 21
84.6152987832
 31
0.0
  0
LINE
  5
35C
330
358
100
AcDbEntity
  8
SLD-0
 62
     7
100
AcDbLine
 10
306.5145111173
 20
84.6152987832
 30
0.0
 11
309.5145110722
 21
85.6152987682
 31
0.0
  0
LINE
  5
35D
330
358
100
AcDbEntity
  8
SLD-0
 62
     7
100
AcDbLine
 10
306.5145111173
 20
84.6152987832
 30
0.0
 11
309.5145110722
 21
83.6152987982
 31
0.0
  0
LINE
  5
35E
330
358
100
AcDbEntity
  8
SLD-0
 62
     7
100
AcDbLine
 10
306.5145111173
 20
84.6152987832
 30
0.0
 11
309.5145110722
 21
84.6152987832
 31
0.0
  0
LINE
  5
35F
330
358
100
AcDbEntity
  8
SLD-0
 62
     7
100
AcDbLine
 10
319.5145111173
 20
84.6152987832
 30
0.0
 11
316.5145111624
 21
83.6152987982
 31
0.0
  0
LINE
  5
360
330
358
100
AcDbEntity
  8
SLD-0
 62
     7
100
AcDbLine
 10
319.5145111173
 20
84.6152987832
 30
0.0
 11
316.5145111624
 21
85.6152987682
 31
0.0
  0
LINE
  5
361
330
358
100
AcDbEntity
  8
SLD-0
 62
     7
100
AcDbLine
 10
319.5145111173
 20
84.6152987832
 30
0.0
 11
316.5145111624
 21
84.6152987832
 31
0.0
  0
LINE
  5
362
330
358
100
AcDbEntity
  8
SLD-0
 62
     7
100
AcDbLine
 10
306.5145111173
 20
137.6352988057
 30
0.0
 11
306.5145111173
 21
83.1152987832
 31
0.0
  0
LINE
  5
363
330
358
100
AcDbEntity
  8
SLD-0
 62
     7
100
AcDbLine
 10
319.5145111173
 20
101.1352988057
 30
0.0
 11
319.5145111173
 21
83.1152987832
 31
0.0
  0
MTEXT
  5
364
330
358
100
AcDbEntity
  8
SLD-0
 62
     7
100
AcDbMText
 10
310.5197385043
 20
88.0351515734
 30
0.0
 40
2.9104166031
 41
0.0
 71
     1
 72
     1
  1
13
  7
SLDTEXTSTYLE1
 73
     1
 44
1.0
  0
ENDBLK
  5
35A
330
358
100
AcDbEntity
  8
0
100
AcDbBlockEnd
  0
BLOCK
  5
367
330
366
100
AcDbEntity
  8
0
100
AcDbBlockBegin
  2
_D_14
 70
     0
 10
0.0
 20
0.0
 30
0.0
  3
_D_14
  1

  0
LINE
  5
369
330
366
100
AcDbEntity
  8
SLD-0
 62
     7
100
AcDbLine
 10
296.5145111173
 20
84.6152987832
 30
0.0
 11
285.1309767798
 21
84.6152987832
 31
0.0
  0
LINE
  5
36A
330
366
100
AcDbEntity
  8
SLD-0
 62
     7
100
AcDbLine
 10
303.5145111624
 20
84.6152987832
 30
0.0
 11
299.5145110722
 21
84.6152987832
 31
0.0
  0
LINE
  5
36B
330
366
100
AcDbEntity
  8
SLD-0
 62
     7
100
AcDbLine
 10
306.5145111173
 20
84.6152987832
 30
0.0
 11
303.5145111624
 21
83.6152987982
 31
0.0
  0
LINE
  5
36C
330
366
100
AcDbEntity
  8
SLD-0
 62
     7
100
AcDbLine
 10
306.5145111173
 20
84.6152987832
 30
0.0
 11
303.5145111624
 21
85.6152987682
 31
0.0
  0
LINE
  5
36D
330
366
100
AcDbEntity
  8
SLD-0
 62
     7
100
AcDbLine
 10
306.5145111173
 20
84.6152987832
 30
0.0
 11
303.5145111624
 21
84.6152987832
 31
0.0
  0
LINE
  5
36E
330
366
100
AcDbEntity
  8
SLD-0
 62
     7
100
AcDbLine
 10
296.5145111173
 20
84.6152987832
 30
0.0
 11
299.5145110722
 21
85.6152987682
 31
0.0
  0
LINE
  5
36F
330
366
100
AcDbEntity
  8
SLD-0
 62
     7
100
AcDbLine
 10
296.5145111173
 20
84.6152987832
 30
0.0
 11
299.5145110722
 21
83.6152987982
 31
0.0
  0
LINE
  5
370
330
366
100
AcDbEntity
  8
SLD-0
 62
     7
100
AcDbLine
 10
296.5145111173
 20
84.6152987832
 30
0.0
 11
299.5145110722
 21
84.6152987832
 31
0.0
  0
LINE
  5
371
330
366
100
AcDbEntity
  8
SLD-0
 62
     7
100
AcDbLine
 10
306.5145111173
 20
137.6352988057
 30
0.0
 11
306.5145111173
 21
83.1152987832
 31
0.0
  0
LINE
  5
372
330
366
100
AcDbEntity
  8
SLD-0
 62
     7
100
AcDbLine
 10
296.5145111173
 20
137.6352988057
 30
0.0
 11
296.5145111173
 21
83.1152987832
 31
0.0
  0
MTEXT
  5
373
330
366
100
AcDbEntity
  8
SLD-0
 62
     7
100
AcDbMText
 10
285.1309767798
 20
88.0351515734
 30
0.0
 40
2.9104166031
 41
0.0
 71
     1
 72
     1
  1
%%c
  7
SLDTEXTSTYLE1
 73
     1
 44
1.0
  0
MTEXT
  5
374
330
366
100
AcDbEntity
  8
SLD-0
 62
     7
100
AcDbMText
 10
288.986470398
 20
88.0351515734
 30
0.0
 40
2.9104166031
 41
0.0
 71
     1
 72
     1
  1
１０
  7
SLDTEXTSTYLE1
 73
     1
 44
1.0
  0
ENDBLK
  5
368
330
366
100
AcDbEntity
  8
0
100
AcDbBlockEnd
  0
BLOCK
  5
377
330
376
100
AcDbEntity
  8
0
100
AcDbBlockBegin
  2
_D_15
 70
     0
 10
0.0
 20
0.0
 30
0.0
  3
_D_15
  1

  0
LINE
  5
379
330
376
100
AcDbEntity
  8
SLD-0
 62
     7
100
AcDbLine
 10
275.5145111173
 20
167.8051717191
 30
0.0
 11
275.5145111173
 21
209.1352988283
 31
0.0
  0
LINE
  5
37A
330
376
100
AcDbEntity
  8
SLD-0
 62
     7
100
AcDbLine
 10
275.5145111173
 20
164.8051717642
 30
0.0
 11
274.5145111323
 21
167.8051717191
 31
0.0
  0
LINE
  5
37B
330
376
100
AcDbEntity
  8
SLD-0
 62
     7
100
AcDbLine
 10
275.5145111173
 20
164.8051717642
 30
0.0
 11
276.5145111023
 21
167.8051717191
 31
0.0
  0
LINE
  5
37C
330
376
100
AcDbEntity
  8
SLD-0
 62
     7
100
AcDbLine
 10
275.5145111173
 20
164.8051717642
 30
0.0
 11
275.5145111173
 21
167.8051717191
 31
0.0
  0
LINE
  5
37D
330
376
100
AcDbEntity
  8
SLD-0
 62
     7
100
AcDbLine
 10
275.5145111173
 20
212.1352987832
 30
0.0
 11
276.5145111023
 21
209.1352988283
 31
0.0
  0
LINE
  5
37E
330
376
100
AcDbEntity
  8
SLD-0
 62
     7
100
AcDbLine
 10
275.5145111173
 20
212.1352987832
 30
0.0
 11
274.5145111323
 21
209.1352988283
 31
0.0
  0
LINE
  5
37F
330
376
100
AcDbEntity
  8
SLD-0
 62
     7
100
AcDbLine
 10
275.5145111173
 20
212.1352987832
 30
0.0
 11
275.5145111173
 21
209.1352988283
 31
0.0
  0
LINE
  5
380
330
376
100
AcDbEntity
  8
SLD-0
 62
     7
100
AcDbLine
 10
300.0145111398
 20
164.8051717642
 30
0.0
 11
274.0145111173
 21
164.8051717642
 31
0.0
  0
LINE
  5
381
330
376
100
AcDbEntity
  8
SLD-0
 62
     7
100
AcDbLine
 10
300.0145111398
 20
212.1352987832
 30
0.0
 11
274.0145111173
 21
212.1352987832
 31
0.0
  0
MTEXT
  5
382
330
376
100
AcDbEntity
  8
SLD-0
 62
     7
100
AcDbMText
 10
272.0946583271
 20
183.9381711219
 30
0.0
 40
2.9104166031
 41
0.0
 71
     1
 72
     1
  1
47.3
  7
SLDTEXTSTYLE1
 11
-3.828568698926949E-16
 21
1.0
 31
0.0
 73
     1
 44
1.0
  0
ENDBLK
  5
378
330
376
100
AcDbEntity
  8
0
100
AcDbBlockEnd
  0
BLOCK
  5
385
330
384
100
AcDbEntity
  8
0
100
AcDbBlockBegin
  2
_D_16
 70
     0
 10
0.0
 20
0.0
 30
0.0
  3
_D_16
  1

  0
LINE
  5
387
330
384
100
AcDbEntity
  8
SLD-0
 62
     7
100
AcDbLine
 10
304.5145110722
 20
243.4613565475
 30
0.0
 11
321.5145111624
 21
243.4613565475
 31
0.0
  0
LINE
  5
388
330
384
100
AcDbEntity
  8
SLD-0
 62
     7
100
AcDbLine
 10
301.5145111173
 20
243.4613565475
 30
0.0
 11
304.5145110722
 21
244.4613565325
 31
0.0
  0
LINE
  5
389
330
384
100
AcDbEntity
  8
SLD-0
 62
     7
100
AcDbLine
 10
301.5145111173
 20
243.4613565475
 30
0.0
 11
304.5145110722
 21
242.4613565625
 31
0.0
  0
LINE
  5
38A
330
384
100
AcDbEntity
  8
SLD-0
 62
     7
100
AcDbLine
 10
301.5145111173
 20
243.4613565475
 30
0.0
 11
304.5145110722
 21
243.4613565475
 31
0.0
  0
LINE
  5
38B
330
384
100
AcDbEntity
  8
SLD-0
 62
     7
100
AcDbLine
 10
324.5145111173
 20
243.4613565475
 30
0.0
 11
321.5145111624
 21
242.4613565625
 31
0.0
  0
LINE
  5
38C
330
384
100
AcDbEntity
  8
SLD-0
 62
     7
100
AcDbLine
 10
324.5145111173
 20
243.4613565475
 30
0.0
 11
321.5145111624
 21
244.4613565325
 31
0.0
  0
LINE
  5
38D
330
384
100
AcDbEntity
  8
SLD-0
 62
     7
100
AcDbLine
 10
324.5145111173
 20
243.4613565475
 30
0.0
 11
321.5145111624
 21
243.4613565475
 31
0.0
  0
LINE
  5
38E
330
384
100
AcDbEntity
  8
SLD-0
 62
     7
100
AcDbLine
 10
301.5145111173
 20
235.6500286455
 30
0.0
 11
301.5145111173
 21
244.9613565475
 31
0.0
  0
LINE
  5
38F
330
384
100
AcDbEntity
  8
SLD-0
 62
     7
100
AcDbLine
 10
324.5145111173
 20
233.6352987607
 30
0.0
 11
324.5145111173
 21
244.9613565475
 31
0.0
  0
MTEXT
  5
390
330
384
100
AcDbEntity
  8
SLD-0
 62
     7
100
AcDbMText
 10
310.5197385043
 20
246.8812093377
 30
0.0
 40
2.9104166031
 41
0.0
 71
     1
 72
     1
  1
23
  7
SLDTEXTSTYLE1
 73
     1
 44
1.0
  0
ENDBLK
  5
386
330
384
100
AcDbEntity
  8
0
100
AcDbBlockEnd
  0
BLOCK
  5
393
330
392
100
AcDbEntity
  8
0
100
AcDbBlockBegin
  2
_D_17
 70
     0
 10
0.0
 20
0.0
 30
0.0
  3
_D_17
  1

  0
LINE
  5
395
330
392
100
AcDbEntity
  8
SLD-0
 62
     7
100
AcDbLine
 10
319.5145111173
 20
84.6152987832
 30
0.0
 11
324.5145111173
 21
84.6152987832
 31
0.0
  0
LINE
  5
396
330
392
100
AcDbEntity
  8
SLD-0
 62
     7
100
AcDbLine
 10
319.5145111173
 20
84.6152987832
 30
0.0
 11
316.5145111624
 21
83.6152987982
 31
0.0
  0
LINE
  5
397
330
392
100
AcDbEntity
  8
SLD-0
 62
     7
100
AcDbLine
 10
319.5145111173
 20
84.6152987832
 30
0.0
 11
316.5145111624
 21
85.6152987682
 31
0.0
  0
LINE
  5
398
330
392
100
AcDbEntity
  8
SLD-0
 62
     7
100
AcDbLine
 10
319.5145111173
 20
84.6152987832
 30
0.0
 11
316.5145111624
 21
84.6152987832
 31
0.0
  0
LINE
  5
399
330
392
100
AcDbEntity
  8
SLD-0
 62
     7
100
AcDbLine
 10
316.5145111624
 20
84.6152987832
 30
0.0
 11
313.1645112127
 21
84.6152987832
 31
0.0
  0
LINE
  5
39A
330
392
100
AcDbEntity
  8
SLD-0
 62
     7
100
AcDbLine
 10
324.5145111173
 20
84.6152987832
 30
0.0
 11
327.5145110722
 21
85.6152987682
 31
0.0
  0
LINE
  5
39B
330
392
100
AcDbEntity
  8
SLD-0
 62
     7
100
AcDbLine
 10
324.5145111173
 20
84.6152987832
 30
0.0
 11
327.5145110722
 21
83.6152987982
 31
0.0
  0
LINE
  5
39C
330
392
100
AcDbEntity
  8
SLD-0
 62
     7
100
AcDbLine
 10
324.5145111173
 20
84.6152987832
 30
0.0
 11
327.5145110722
 21
84.6152987832
 31
0.0
  0
LINE
  5
39D
330
392
100
AcDbEntity
  8
SLD-0
 62
     7
100
AcDbLine
 10
327.5145110722
 20
84.6152987832
 30
0.0
 11
330.8645110219
 21
84.6152987832
 31
0.0
  0
LINE
  5
39E
330
392
100
AcDbEntity
  8
SLD-0
 62
     7
100
AcDbLine
 10
319.5145111173
 20
101.1352988057
 30
0.0
 11
319.5145111173
 21
83.1152987832
 31
0.0
  0
LINE
  5
39F
330
392
100
AcDbEntity
  8
SLD-0
 62
     7
100
AcDbLine
 10
324.5145111173
 20
100.6352988057
 30
0.0
 11
324.5145111173
 21
83.1152987832
 31
0.0
  0
MTEXT
  5
3A0
330
392
100
AcDbEntity
  8
SLD-0
 62
     7
100
AcDbMText
 10
320.9749467462
 20
88.0351515734
 30
0.0
 40
2.9104166031
 41
0.0
 71
     1
 72
     1
  1
5
  7
SLDTEXTSTYLE1
 73
     1
 44
1.0
  0
ENDBLK
  5
394
330
392
100
AcDbEntity
  8
0
100
AcDbBlockEnd
  0
BLOCK
  5
3A3
330
3A2
100
AcDbEntity
  8
0
100
AcDbBlockBegin
  2
_D_18
 70
     0
 10
0.0
 20
0.0
 30
0.0
  3
_D_18
  1

  0
LINE
  5
3A5
330
3A2
100
AcDbEntity
  8
SLD-0
 62
     7
100
AcDbLine
 10
399.1461689715
 20
254.1352987832
 30
0.0
 11
493.1461690617
 21
254.1352987832
 31
0.0
  0
LINE
  5
3A6
330
3A2
100
AcDbEntity
  8
SLD-0
 62
     7
100
AcDbLine
 10
396.1461690166
 20
254.1352987832
 30
0.0
 11
399.1461689715
 21
255.1352987682
 31
0.0
  0
LINE
  5
3A7
330
3A2
100
AcDbEntity
  8
SLD-0
 62
     7
100
AcDbLine
 10
396.1461690166
 20
254.1352987832
 30
0.0
 11
399.1461689715
 21
253.1352987982
 31
0.0
  0
LINE
  5
3A8
330
3A2
100
AcDbEntity
  8
SLD-0
 62
     7
100
AcDbLine
 10
396.1461690166
 20
254.1352987832
 30
0.0
 11
399.1461689715
 21
254.1352987832
 31
0.0
  0
LINE
  5
3A9
330
3A2
100
AcDbEntity
  8
SLD-0
 62
     7
100
AcDbLine
 10
496.1461690166
 20
254.1352987832
 30
0.0
 11
493.1461690617
 21
253.1352987982
 31
0.0
  0
LINE
  5
3AA
330
3A2
100
AcDbEntity
  8
SLD-0
 62
     7
100
AcDbLine
 10
496.1461690166
 20
254.1352987832
 30
0.0
 11
493.1461690617
 21
255.1352987682
 31
0.0
  0
LINE
  5
3AB
330
3A2
100
AcDbEntity
  8
SLD-0
 62
     7
100
AcDbLine
 10
496.1461690166
 20
254.1352987832
 30
0.0
 11
493.1461690617
 21
254.1352987832
 31
0.0
  0
LINE
  5
3AC
330
3A2
100
AcDbEntity
  8
SLD-0
 62
     7
100
AcDbLine
 10
396.1461690166
 20
228.7352987607
 30
0.0
 11
396.1461690166
 21
255.6352987832
 31
0.0
  0
LINE
  5
3AD
330
3A2
100
AcDbEntity
  8
SLD-0
 62
     7
100
AcDbLine
 10
496.1461690166
 20
228.7352987607
 30
0.0
 11
496.1461690166
 21
255.6352987832
 31
0.0
  0
MTEXT
  5
3AE
330
3A2
100
AcDbEntity
  8
SLD-0
 62
     7
100
AcDbMText
 10
442.1961881616
 20
257.5551515734
 30
0.0
 40
2.9104166031
 41
0.0
 71
     1
 72
     1
  1
100
  7
SLDTEXTSTYLE1
 73
     1
 44
1.0
  0
ENDBLK
  5
3A4
330
3A2
100
AcDbEntity
  8
0
100
AcDbBlockEnd
  0
BLOCK
  5
3B1
330
3B0
100
AcDbEntity
  8
0
100
AcDbBlockBegin
  2
_D_19
 70
     0
 10
0.0
 20
0.0
 30
0.0
  3
_D_19
  1

  0
LINE
  5
3B3
330
3B0
100
AcDbEntity
  8
SLD-0
 62
     7
100
AcDbLine
 10
535.7736611493
 20
219.1352988283
 30
0.0
 11
535.7736611493
 21
170.1352987381
 31
0.0
  0
LINE
  5
3B4
330
3B0
100
AcDbEntity
  8
SLD-0
 62
     7
100
AcDbLine
 10
535.7736611493
 20
222.1352987832
 30
0.0
 11
536.7736611343
 21
219.1352988283
 31
0.0
  0
LINE
  5
3B5
330
3B0
100
AcDbEntity
  8
SLD-0
 62
     7
100
AcDbLine
 10
535.7736611493
 20
222.1352987832
 30
0.0
 11
534.7736611643
 21
219.1352988283
 31
0.0
  0
LINE
  5
3B6
330
3B0
100
AcDbEntity
  8
SLD-0
 62
     7
100
AcDbLine
 10
535.7736611493
 20
222.1352987832
 30
0.0
 11
535.7736611493
 21
219.1352988283
 31
0.0
  0
LINE
  5
3B7
330
3B0
100
AcDbEntity
  8
SLD-0
 62
     7
100
AcDbLine
 10
535.7736611493
 20
167.1352987832
 30
0.0
 11
534.7736611643
 21
170.1352987381
 31
0.0
  0
LINE
  5
3B8
330
3B0
100
AcDbEntity
  8
SLD-0
 62
     7
100
AcDbLine
 10
535.7736611493
 20
167.1352987832
 30
0.0
 11
536.7736611343
 21
170.1352987381
 31
0.0
  0
LINE
  5
3B9
330
3B0
100
AcDbEntity
  8
SLD-0
 62
     7
100
AcDbLine
 10
535.7736611493
 20
167.1352987832
 30
0.0
 11
535.7736611493
 21
170.1352987381
 31
0.0
  0
LINE
  5
3BA
330
3B0
100
AcDbEntity
  8
SLD-0
 62
     7
100
AcDbLine
 10
502.7461689941
 20
222.1352987832
 30
0.0
 11
537.2736611493
 21
222.1352987832
 31
0.0
  0
LINE
  5
3BB
330
3B0
100
AcDbEntity
  8
SLD-0
 62
     7
100
AcDbLine
 10
519.1461689941
 20
167.1352987832
 30
0.0
 11
537.2736611493
 21
167.1352987832
 31
0.0
  0
MTEXT
  5
3BC
330
3B0
100
AcDbEntity
  8
SLD-0
 62
     7
100
AcDbMText
 10
532.3538083591
 20
192.1405261702
 30
0.0
 40
2.9104166031
 41
0.0
 71
     1
 72
     1
  1
55
  7
SLDTEXTSTYLE1
 11
-3.828568698926949E-16
 21
1.0
 31
0.0
 73
     1
 44
1.0
  0
ENDBLK
  5
3B2
330
3B0
100
AcDbEntity
  8
0
100
AcDbBlockEnd
  0
BLOCK
  5
3BF
330
3BE
100
AcDbEntity
  8
0
100
AcDbBlockBegin
  2
_D_20
 70
     0
 10
0.0
 20
0.0
 30
0.0
  3
_D_20
  1

  0
LINE
  5
3C1
330
3BE
100
AcDbEntity
  8
SLD-0
 62
     7
100
AcDbLine
 10
409.1461689715
 20
243.4613565475
 30
0.0
 11
483.1461690617
 21
243.4613565475
 31
0.0
  0
LINE
  5
3C2
330
3BE
100
AcDbEntity
  8
SLD-0
 62
     7
100
AcDbLine
 10
406.1461690166
 20
243.4613565475
 30
0.0
 11
409.1461689715
 21
244.4613565325
 31
0.0
  0
LINE
  5
3C3
330
3BE
100
AcDbEntity
  8
SLD-0
 62
     7
100
AcDbLine
 10
406.1461690166
 20
243.4613565475
 30
0.0
 11
409.1461689715
 21
242.4613565625
 31
0.0
  0
LINE
  5
3C4
330
3BE
100
AcDbEntity
  8
SLD-0
 62
     7
100
AcDbLine
 10
406.1461690166
 20
243.4613565475
 30
0.0
 11
409.1461689715
 21
243.4613565475
 31
0.0
  0
LINE
  5
3C5
330
3BE
100
AcDbEntity
  8
SLD-0
 62
     7
100
AcDbLine
 10
486.1461690166
 20
243.4613565475
 30
0.0
 11
483.1461690617
 21
242.4613565625
 31
0.0
  0
LINE
  5
3C6
330
3BE
100
AcDbEntity
  8
SLD-0
 62
     7
100
AcDbLine
 10
486.1461690166
 20
243.4613565475
 30
0.0
 11
483.1461690617
 21
244.4613565325
 31
0.0
  0
LINE
  5
3C7
330
3BE
100
AcDbEntity
  8
SLD-0
 62
     7
100
AcDbLine
 10
486.1461690166
 20
243.4613565475
 30
0.0
 11
483.1461690617
 21
243.4613565475
 31
0.0
  0
LINE
  5
3C8
330
3BE
100
AcDbEntity
  8
SLD-0
 62
     7
100
AcDbLine
 10
406.1461690166
 20
227.3852987607
 30
0.0
 11
406.1461690166
 21
244.9613565475
 31
0.0
  0
LINE
  5
3C9
330
3BE
100
AcDbEntity
  8
SLD-0
 62
     7
100
AcDbLine
 10
486.1461690166
 20
227.3852987607
 30
0.0
 11
486.1461690166
 21
244.9613565475
 31
0.0
  0
MTEXT
  5
3CA
330
3BE
100
AcDbEntity
  8
SLD-0
 62
     7
100
AcDbMText
 10
443.6513964036
 20
246.8812093377
 30
0.0
 40
2.9104166031
 41
0.0
 71
     1
 72
     1
  1
80
  7
SLDTEXTSTYLE1
 73
     1
 44
1.0
  0
ENDBLK
  5
3C0
330
3BE
100
AcDbEntity
  8
0
100
AcDbBlockEnd
  0
BLOCK
  5
3CD
330
3CC
100
AcDbEntity
  8
0
100
AcDbBlockBegin
  2
_D_21
 70
     0
 10
0.0
 20
0.0
 30
0.0
  3
_D_21
  1

  0
LINE
  5
3CF
330
3CC
100
AcDbEntity
  8
SLD-0
 62
     7
100
AcDbLine
 10
548.9271440029
 20
219.1352988283
 30
0.0
 11
548.9271440029
 21
120.1352987381
 31
0.0
  0
LINE
  5
3D0
330
3CC
100
AcDbEntity
  8
SLD-0
 62
     7
100
AcDbLine
 10
548.9271440029
 20
222.1352987832
 30
0.0
 11
549.9271439879
 21
219.1352988283
 31
0.0
  0
LINE
  5
3D1
330
3CC
100
AcDbEntity
  8
SLD-0
 62
     7
100
AcDbLine
 10
548.9271440029
 20
222.1352987832
 30
0.0
 11
547.9271440179
 21
219.1352988283
 31
0.0
  0
LINE
  5
3D2
330
3CC
100
AcDbEntity
  8
SLD-0
 62
     7
100
AcDbLine
 10
548.9271440029
 20
222.1352987832
 30
0.0
 11
548.9271440029
 21
219.1352988283
 31
0.0
  0
LINE
  5
3D3
330
3CC
100
AcDbEntity
  8
SLD-0
 62
     7
100
AcDbLine
 10
548.9271440029
 20
117.1352987832
 30
0.0
 11
547.9271440179
 21
120.1352987381
 31
0.0
  0
LINE
  5
3D4
330
3CC
100
AcDbEntity
  8
SLD-0
 62
     7
100
AcDbLine
 10
548.9271440029
 20
117.1352987832
 30
0.0
 11
549.9271439879
 21
120.1352987381
 31
0.0
  0
LINE
  5
3D5
330
3CC
100
AcDbEntity
  8
SLD-0
 62
     7
100
AcDbLine
 10
548.9271440029
 20
117.1352987832
 30
0.0
 11
548.9271440029
 21
120.1352987381
 31
0.0
  0
LINE
  5
3D6
330
3CC
100
AcDbEntity
  8
SLD-0
 62
     7
100
AcDbLine
 10
502.7461689941
 20
222.1352987832
 30
0.0
 11
550.4271440029
 21
222.1352987832
 31
0.0
  0
LINE
  5
3D7
330
3CC
100
AcDbEntity
  8
SLD-0
 62
     7
100
AcDbLine
 10
450.8961689941
 20
117.1352987832
 30
0.0
 11
550.4271440029
 21
117.1352987832
 31
0.0
  0
MTEXT
  5
3D8
330
3CC
100
AcDbEntity
  8
SLD-0
 62
     7
100
AcDbMText
 10
545.5072912127
 20
165.6853179282
 30
0.0
 40
2.9104166031
 41
0.0
 71
     1
 72
     1
  1
105
  7
SLDTEXTSTYLE1
 11
-3.828568698926949E-16
 21
1.0
 31
0.0
 73
     1
 44
1.0
  0
ENDBLK
  5
3CE
330
3CC
100
AcDbEntity
  8
0
100
AcDbBlockEnd
  0
BLOCK
  5
3DB
330
3DA
100
AcDbEntity
  8
0
100
AcDbBlockBegin
  2
_D_22
 70
     0
 10
0.0
 20
0.0
 30
0.0
  3
_D_22
  1

  0
LINE
  5
3DD
330
3DA
100
AcDbEntity
  8
SLD-0
 62
     7
100
AcDbLine
 10
231.0731725822
 20
317.0160264454
 30
0.0
 11
231.0731725822
 21
326.0160264454
 31
0.0
  0
LINE
  5
3DE
330
3DA
100
AcDbEntity
  8
SLD-0
 62
     7
100
AcDbLine
 10
231.0731725822
 20
317.0160264454
 30
0.0
 11
232.0731725672
 21
314.0160264905
 31
0.0
  0
LINE
  5
3DF
330
3DA
100
AcDbEntity
  8
SLD-0
 62
     7
100
AcDbLine
 10
231.0731725822
 20
317.0160264454
 30
0.0
 11
230.0731725972
 21
314.0160264905
 31
0.0
  0
LINE
  5
3E0
330
3DA
100
AcDbEntity
  8
SLD-0
 62
     7
100
AcDbLine
 10
231.0731725822
 20
317.0160264454
 30
0.0
 11
231.0731725822
 21
314.0160264905
 31
0.0
  0
LINE
  5
3E1
330
3DA
100
AcDbEntity
  8
SLD-0
 62
     7
100
AcDbLine
 10
231.0731725822
 20
314.0160264905
 30
0.0
 11
231.0731725822
 21
310.6660265408
 31
0.0
  0
LINE
  5
3E2
330
3DA
100
AcDbEntity
  8
SLD-0
 62
     7
100
AcDbLine
 10
231.0731725822
 20
326.0160264454
 30
0.0
 11
230.0731725972
 21
329.0160264003
 31
0.0
  0
LINE
  5
3E3
330
3DA
100
AcDbEntity
  8
SLD-0
 62
     7
100
AcDbLine
 10
231.0731725822
 20
326.0160264454
 30
0.0
 11
232.0731725672
 21
329.0160264003
 31
0.0
  0
LINE
  5
3E4
330
3DA
100
AcDbEntity
  8
SLD-0
 62
     7
100
AcDbLine
 10
231.0731725822
 20
326.0160264454
 30
0.0
 11
231.0731725822
 21
329.0160264003
 31
0.0
  0
LINE
  5
3E5
330
3DA
100
AcDbEntity
  8
SLD-0
 62
     7
100
AcDbLine
 10
231.0731725822
 20
329.0160264003
 30
0.0
 11
231.0731725822
 21
332.36602635
 31
0.0
  0
LINE
  5
3E6
330
3DA
100
AcDbEntity
  8
SLD-0
 62
     7
100
AcDbLine
 10
180.2231725597
 20
317.0160264454
 30
0.0
 11
232.5731725822
 21
317.0160264454
 31
0.0
  0
LINE
  5
3E7
330
3DA
100
AcDbEntity
  8
SLD-0
 62
     7
100
AcDbLine
 10
212.0731725597
 20
326.0160264454
 30
0.0
 11
232.5731725822
 21
326.0160264454
 31
0.0
  0
MTEXT
  5
3E8
330
3DA
100
AcDbEntity
  8
SLD-0
 62
     7
100
AcDbMText
 10
227.653319792
 20
320.4764620743
 30
0.0
 40
2.9104166031
 41
0.0
 71
     1
 72
     1
  1
9
  7
SLDTEXTSTYLE1
 11
-3.828568698926949E-16
 21
1.0
 31
0.0
 73
     1
 44
1.0
  0
ENDBLK
  5
3DC
330
3DA
100
AcDbEntity
  8
0
100
AcDbBlockEnd
  0
ENDSEC
  0
SECTION
  2
ENTITIES
  0
VIEWPORT
  5
77
330
1B
100
AcDbEntity
 67
     1
  8
0
100
AcDbViewport
 10
297.0
 20
210.0
 30
0.0
 40
628.452
 41
444.36
 68
     1
 69
     1
 12
297.0
 22
210.0
 13
0.0
 23
0.0
 14
10.0
 24
10.0
 15
10.0
 25
10.0
 16
0.0
 26
0.0
 36
1.0
 17
0.0
 27
0.0
 37
0.0
 42
50.0
 43
0.0
 44
0.0
 45
444.36
 50
0.0
 51
0.0
 72
   100
 90
   557152
  1

281
     0
 71
     1
 74
     0
110
0.0
120
0.0
130
0.0
111
1.0
121
0.0
131
0.0
112
0.0
122
1.0
132
0.0
 79
     0
146
0.0
  0
LINE
  5
79
330
1B
100
AcDbEntity
 67
     1
  8
SLD-0
  6
Continuous
 62
     7
100
AcDbLine
 10
73.5731717254
 20
154.1352985149
 30
0.0
 11
73.5731717254
 21
207.1352978891
 31
0.0
  0
LINE
  5
7A
330
1B
100
AcDbEntity
 67
     1
  8
SLD-0
  6
Continuous
 62
     7
100
AcDbLine
 10
63.5731728802
 20
207.1352978891
 30
0.0
 11
63.5731728802
 21
154.1352985149
 31
0.0
  0
LINE
  5
7B
330
1B
100
AcDbEntity
 67
     1
  8
SLD-0
  6
Continuous
 62
     7
100
AcDbLine
 10
195.4791608582
 20
144.1352979264
 30
0.0
 11
83.5731725524
 21
144.1352979264
 31
0.0
  0
LINE
  5
7C
330
1B
100
AcDbEntity
 67
     1
  8
SLD-0
  6
Continuous
 62
     7
100
AcDbLine
 10
83.5731725524
 20
134.1352990812
 30
0.0
 11
195.4791608582
 21
134.1352990812
 31
0.0
  0
LINE
  5
7D
330
1B
100
AcDbEntity
 67
     1
  8
SLD-0
  6
Continuous
 62
     7
100
AcDbLine
 10
85.5731728802
 20
227.1352984852
 30
0.0
 11
83.5731725524
 21
227.1352984852
 31
0.0
  0
LINE
  5
7E
330
1B
100
AcDbEntity
 67
     1
  8
SLD-0
  6
Continuous
 62
     7
100
AcDbLine
 10
83.5731725524
 20
217.1352996401
 30
0.0
 11
85.5731728802
 21
217.1352996401
 31
0.0
  0
LINE
  5
7F
330
1B
100
AcDbEntity
 67
     1
  8
SLD-0
  6
Continuous
 62
     7
100
AcDbLine
 10
211.7430476309
 20
162.3051717442
 30
0.0
 11
204.1394172073
 21
149.1352996353
 31
0.0
  0
LINE
  5
80
330
1B
100
AcDbEntity
 67
     1
  8
SLD-0
  6
Continuous
 62
     7
100
AcDbLine
 10
212.7996687337
 20
144.1352975951
 30
0.0
 11
220.4032991572
 21
157.3051701697
 31
0.0
  0
LINE
  5
81
330
1B
100
AcDbEntity
 67
     1
  8
SLD-0
  6
Continuous
 62
     7
100
AcDbLine
 10
139.6246725776
 20
117.6502970701
 30
0.0
 11
139.6246725776
 21
116.6202990061
 31
0.0
  0
LINE
  5
82
330
1B
100
AcDbEntity
 67
     1
  8
SLD-0
  6
Continuous
 62
     7
100
AcDbLine
 10
138.3731725941
 20
117.6502970701
 30
0.0
 11
138.3731725941
 21
116.6202990061
 31
0.0
  0
LINE
  5
83
330
1B
100
AcDbEntity
 67
     1
  8
SLD-0
  6
Continuous
 62
     7
100
AcDbLine
 10
141.5216725868
 20
116.6202990061
 30
0.0
 11
141.5216725868
 21
117.6502970701
 31
0.0
  0
LINE
  5
84
330
1B
100
AcDbEntity
 67
     1
  8
SLD-0
  6
Continuous
 62
     7
100
AcDbLine
 10
142.7731742827
 20
116.6202986559
 30
0.0
 11
142.7731742827
 21
117.6502979384
 31
0.0
  0
LINE
  5
85
330
1B
100
AcDbEntity
 67
     1
  8
SLD-0
  6
Continuous
 62
     7
100
AcDbLine
 10
141.0881728387
 20
117.8115201468
 30
0.0
 11
141.0881728387
 21
119.3352976419
 31
0.0
  0
LINE
  5
86
330
1B
100
AcDbEntity
 67
     1
  8
SLD-0
  6
Continuous
 62
     7
100
AcDbLine
 10
141.0881728387
 20
119.3352976419
 30
0.0
 11
140.0581738428
 21
119.3352976419
 31
0.0
  0
LINE
  5
87
330
1B
100
AcDbEntity
 67
     1
  8
SLD-0
  6
Continuous
 62
     7
100
AcDbLine
 10
138.3731725941
 20
116.6202990061
 30
0.0
 11
139.8969514844
 21
116.6202990061
 31
0.0
  0
LINE
  5
88
330
1B
100
AcDbEntity
 67
     1
  8
SLD-0
  6
Continuous
 62
     7
100
AcDbLine
 10
140.0581736639
 20
116.4590769958
 30
0.0
 11
140.0581736639
 21
114.9352991533
 31
0.0
  0
LINE
  5
89
330
1B
100
AcDbEntity
 67
     1
  8
SLD-0
  6
Continuous
 62
     7
100
AcDbLine
 10
140.0581736639
 20
114.9352991533
 30
0.0
 11
141.088173707
 21
114.9352991533
 31
0.0
  0
LINE
  5
8A
330
1B
100
AcDbEntity
 67
     1
  8
SLD-0
  6
Continuous
 62
     7
100
AcDbLine
 10
141.088173707
 20
114.9352991533
 30
0.0
 11
141.088173707
 21
116.4590769958
 31
0.0
  0
LINE
  5
8B
330
1B
100
AcDbEntity
 67
     1
  8
SLD-0
  6
Continuous
 62
     7
100
AcDbLine
 10
141.2493953924
 20
116.6202986559
 30
0.0
 11
142.7731742827
 21
116.6202986559
 31
0.0
  0
LINE
  5
8C
330
1B
100
AcDbEntity
 67
     1
  8
SLD-0
  6
Continuous
 62
     7
100
AcDbLine
 10
140.0581738428
 20
119.3352976419
 30
0.0
 11
140.0581738428
 21
117.8115197994
 31
0.0
  0
LINE
  5
8D
330
1B
100
AcDbEntity
 67
     1
  8
SLD-0
  6
Continuous
 62
     7
100
AcDbLine
 10
139.8969514844
 20
117.6502970701
 30
0.0
 11
138.3731725941
 21
117.6502970701
 31
0.0
  0
LINE
  5
8E
330
1B
100
AcDbEntity
 67
     1
  8
SLD-0
  6
Continuous
 62
     7
100
AcDbLine
 10
142.7731742827
 20
117.6502979384
 30
0.0
 11
141.2493948201
 21
117.6502979384
 31
0.0
  0
LINE
  5
8F
330
1B
100
AcDbEntity
 67
     1
  8
SLD-0
  6
Continuous
 62
     7
100
AcDbLine
 10
140.0581725606
 20
116.1867981499
 30
0.0
 11
141.0881726037
 21
116.1867981499
 31
0.0
  0
LINE
  5
90
330
1B
100
AcDbEntity
 67
     1
  8
SLD-0
  6
Continuous
 62
     7
100
AcDbLine
 10
141.0881726037
 20
118.0837979263
 30
0.0
 11
140.0581725606
 21
118.0837979263
 31
0.0
  0
LINE
  5
91
330
1B
100
AcDbEntity
 67
     1
  8
SLD-0
  6
Continuous
 62
     7
100
AcDbLine
 10
85.5731728802
 20
212.6352978593
 30
0.0
 11
85.5731728802
 21
231.6352953857
 31
0.0
  0
LINE
  5
92
330
1B
100
AcDbEntity
 67
     1
  8
SLD-0
  6
Continuous
 62
     7
100
AcDbLine
 10
195.0731705259
 20
212.1352998262
 30
0.0
 11
86.0731731485
 21
212.1352998262
 31
0.0
  0
LINE
  5
93
330
1B
100
AcDbEntity
 67
     1
  8
SLD-0
  6
Continuous
 62
     7
100
AcDbLine
 10
195.0731702278
 20
232.1352974421
 30
0.0
 11
86.0731728504
 21
232.1352974421
 31
0.0
  0
LINE
  5
94
330
1B
100
AcDbEntity
 67
     1
  8
SLD-0
  6
Continuous
 62
     7
100
AcDbLine
 10
195.5731707941
 20
231.6352953857
 30
0.0
 11
195.5731707941
 21
212.6352978593
 31
0.0
  0
LINE
  5
95
330
1B
100
AcDbEntity
 67
     1
  8
SLD-0
  6
Continuous
 62
     7
100
AcDbLine
 10
210.0731705258
 20
102.1352998263
 30
0.0
 11
71.0731719563
 21
102.1352998263
 31
0.0
  0
LINE
  5
96
330
1B
100
AcDbEntity
 67
     1
  8
SLD-0
  6
Continuous
 62
     7
100
AcDbLine
 10
210.573170496
 20
231.6352950877
 30
0.0
 11
210.573170496
 21
160.2788919119
 31
0.0
  0
LINE
  5
97
330
1B
100
AcDbEntity
 67
     1
  8
SLD-0
  6
Continuous
 62
     7
100
AcDbLine
 10
210.5731701981
 20
141.0139096623
 30
0.0
 11
210.5731701981
 21
102.6353021806
 31
0.0
  0
LINE
  5
98
330
1B
100
AcDbEntity
 67
     1
  8
SLD-0
  6
Continuous
 62
     7
100
AcDbLine
 10
71.0731722543
 20
232.1352974421
 30
0.0
 11
86.0731728504
 21
232.1352974421
 31
0.0
  0
LINE
  5
99
330
1B
100
AcDbEntity
 67
     1
  8
SLD-0
  6
Continuous
 62
     7
100
AcDbLine
 10
195.0731702278
 20
232.1352974421
 30
0.0
 11
210.0731708238
 21
232.1352974421
 31
0.0
  0
LINE
  5
9A
330
1B
100
AcDbEntity
 67
     1
  8
SLD-0
  6
Continuous
 62
     7
100
AcDbLine
 10
70.5731722842
 20
102.6353021806
 30
0.0
 11
70.5731722842
 21
138.9366151488
 31
0.0
  0
LINE
  5
9B
330
1B
100
AcDbEntity
 67
     1
  8
SLD-0
  6
Continuous
 62
     7
100
AcDbLine
 10
70.5731725822
 20
222.3339828199
 30
0.0
 11
70.5731725822
 21
231.6352950877
 31
0.0
  0
LINE
  5
9C
330
1B
100
AcDbEntity
 67
     1
  8
SLD-0
  6
CENTER
 62
     7
100
AcDbLine
 10
140.5731725822
 20
240.2857711295
 30
0.0
 11
140.5731725822
 21
94.2162653786
 31
0.0
  0
LINE
  5
9D
330
1B
100
AcDbEntity
 67
     1
  8
SLD-0
  6
CENTER
 62
     7
100
AcDbLine
 10
224.5449066326
 20
167.1352987832
 30
0.0
 11
59.6150656828
 21
167.1352987832
 31
0.0
  0
LINE
  5
9E
330
1B
100
AcDbEntity
 67
     1
  8
SLD-0
  6
CENTER
 62
     7
100
AcDbLine
 10
83.5731725822
 20
222.1352987832
 30
0.0
 11
203.8879058527
 21
222.1352987832
 31
0.0
  0
LINE
  5
9F
330
1B
100
AcDbEntity
 67
     1
  8
SLD-0
  6
CENTER
 62
     7
100
AcDbLine
 10
68.5731725822
 20
207.1352987832
 30
0.0
 11
68.5731725822
 21
154.1352987832
 31
0.0
  0
LINE
  5
A0
330
1B
100
AcDbEntity
 67
     1
  8
SLD-0
  6
CENTER
 62
     7
100
AcDbLine
 10
83.5731725822
 20
139.1352987832
 30
0.0
 11
195.4791618146
 21
139.1352987832
 31
0.0
  0
LINE
  5
A1
330
1B
100
AcDbEntity
 67
     1
  8
SLD-0
  6
CENTER
 62
     7
100
AcDbLine
 10
197.5731725822
 20
222.1352987832
 30
0.0
 11
83.5731725822
 21
222.1352987832
 31
0.0
  0
LINE
  5
A2
330
1B
100
AcDbEntity
 67
     1
  8
SLD-0
  6
CENTER
 62
     7
100
AcDbLine
 10
68.5731725822
 20
207.1352987832
 30
0.0
 11
68.5731725822
 21
154.1352987832
 31
0.0
  0
LINE
  5
A3
330
1B
100
AcDbEntity
 67
     1
  8
SLD-0
  6
CENTER
 62
     7
100
AcDbLine
 10
83.5731725822
 20
139.1352987832
 30
0.0
 11
195.4791618146
 21
139.1352987832
 31
0.0
  0
LINE
  5
A4
330
1B
100
AcDbEntity
 67
     1
  8
SLD-0
  6
CENTER
 62
     7
100
AcDbLine
 10
208.4695426816
 20
146.6352986737
 30
0.0
 11
219.5731723924
 21
165.8673494812
 31
0.0
  0
LINE
  5
A5
330
1B
100
AcDbEntity
 67
     1
  8
SLD-0
  6
PHANTOM
 62
     7
100
AcDbLine
 10
324.5145099811
 20
232.1352999194
 30
0.0
 11
324.5145099811
 21
245.5462797965
 31
0.0
  0
LINE
  5
A6
330
1B
100
AcDbEntity
 67
     1
  8
SLD-0
  6
Continuous
 62
     7
100
AcDbLine
 10
342.3195565879
 20
220.1352981573
 30
0.0
 11
347.8145106524
 21
222.1352984851
 31
0.0
  0
LINE
  5
A7
330
1B
100
AcDbEntity
 67
     1
  8
SLD-0
  6
Continuous
 62
     7
100
AcDbLine
 10
347.8145106524
 20
222.1352984851
 30
0.0
 11
342.3195565879
 21
224.135298813
 31
0.0
  0
LINE
  5
A8
330
1B
100
AcDbEntity
 67
     1
  8
SLD-0
  6
Continuous
 62
     7
100
AcDbLine
 10
342.3195565879
 20
224.135298813
 30
0.0
 11
324.5145111173
 21
224.135298813
 31
0.0
  0
LINE
  5
A9
330
1B
100
AcDbEntity
 67
     1
  8
SLD-0
  6
Continuous
 62
     7
100
AcDbLine
 10
324.5145111173
 20
220.1352981573
 30
0.0
 11
342.3195565879
 21
220.1352981573
 31
0.0
  0
LINE
  5
AA
330
1B
100
AcDbEntity
 67
     1
  8
SLD-0
  6
Continuous
 62
     7
100
AcDbLine
 10
354.3195566922
 20
115.1352977103
 30
0.0
 11
359.8145126194
 21
117.1352980381
 31
0.0
  0
LINE
  5
AB
330
1B
100
AcDbEntity
 67
     1
  8
SLD-0
  6
Continuous
 62
     7
100
AcDbLine
 10
359.8145126194
 20
117.1352980381
 30
0.0
 11
354.3195566922
 21
119.1352983659
 31
0.0
  0
LINE
  5
AC
330
1B
100
AcDbEntity
 67
     1
  8
SLD-0
  6
Continuous
 62
     7
100
AcDbLine
 10
354.3195566922
 20
119.1352983659
 30
0.0
 11
324.5145111173
 21
119.1352983659
 31
0.0
  0
LINE
  5
AD
330
1B
100
AcDbEntity
 67
     1
  8
SLD-0
  6
Continuous
 62
     7
100
AcDbLine
 10
324.5145111173
 20
115.1352977103
 30
0.0
 11
354.3195566922
 21
115.1352977103
 31
0.0
  0
LINE
  5
AE
330
1B
100
AcDbEntity
 67
     1
  8
SLD-0
  6
Continuous
 62
     7
100
AcDbLine
 10
313.5145111769
 20
228.7352984494
 30
0.0
 11
313.5145111769
 21
228.6353004819
 31
0.0
  0
LINE
  5
AF
330
1B
100
AcDbEntity
 67
     1
  8
SLD-0
  6
Continuous
 62
     7
100
AcDbLine
 10
317.5145109013
 20
228.6353004819
 30
0.0
 11
317.5145109013
 21
228.7352984494
 31
0.0
  0
LINE
  5
B0
330
1B
100
AcDbEntity
 67
     1
  8
SLD-0
  6
Continuous
 62
     7
100
AcDbLine
 10
317.5145109013
 20
215.5352985209
 30
0.0
 11
317.5145109013
 21
215.6353002137
 31
0.0
  0
LINE
  5
B1
330
1B
100
AcDbEntity
 67
     1
  8
SLD-0
  6
Continuous
 62
     7
100
AcDbLine
 10
313.5145111769
 20
215.6353002137
 30
0.0
 11
313.5145111769
 21
215.5352985209
 31
0.0
  0
LINE
  5
B2
330
1B
100
AcDbEntity
 67
     1
  8
SLD-0
  6
Continuous
 62
     7
100
AcDbLine
 10
296.5145102531
 20
159.8051717227
 30
0.0
 11
296.5145102531
 21
146.6352982169
 31
0.0
  0
LINE
  5
B3
330
1B
100
AcDbEntity
 67
     1
  8
SLD-0
  6
Continuous
 62
     7
100
AcDbLine
 10
306.5145111173
 20
146.6352982169
 30
0.0
 11
306.5145111173
 21
159.8051717227
 31
0.0
  0
LINE
  5
B4
330
1B
100
AcDbEntity
 67
     1
  8
SLD-0
  6
Continuous
 62
     7
100
AcDbLine
 10
306.5145111173
 20
139.1352979189
 30
0.0
 11
306.5145111173
 21
146.6352982169
 31
0.0
  0
LINE
  5
B5
330
1B
100
AcDbEntity
 67
     1
  8
SLD-0
  6
Continuous
 62
     7
100
AcDbLine
 10
296.5145102531
 20
146.6352982169
 30
0.0
 11
296.5145102531
 21
139.1352979189
 31
0.0
  0
LINE
  5
B6
330
1B
100
AcDbEntity
 67
     1
  8
SLD-0
  6
Continuous
 62
     7
100
AcDbLine
 10
306.5145111173
 20
207.1352978891
 30
0.0
 11
306.5145111173
 21
212.1353005713
 31
0.0
  0
LINE
  5
B7
330
1B
100
AcDbEntity
 67
     1
  8
SLD-0
  6
Continuous
 62
     7
100
AcDbLine
 10
306.5145118922
 20
215.5352985209
 30
0.0
 11
306.5145118922
 21
215.6353002137
 31
0.0
  0
LINE
  5
B8
330
1B
100
AcDbEntity
 67
     1
  8
SLD-0
  6
Continuous
 62
     7
100
AcDbLine
 10
296.5145102531
 20
222.1352984851
 30
0.0
 11
296.5145102531
 21
220.7070147341
 31
0.0
  0
LINE
  5
B9
330
1B
100
AcDbEntity
 67
     1
  8
SLD-0
  6
Continuous
 62
     7
100
AcDbLine
 10
296.5145102531
 20
213.4750453478
 30
0.0
 11
296.5145102531
 21
207.1352978891
 31
0.0
  0
LINE
  5
BA
330
1B
100
AcDbEntity
 67
     1
  8
SLD-0
  6
Continuous
 62
     7
100
AcDbLine
 10
306.5145111173
 20
159.8051717227
 30
0.0
 11
306.5145111173
 21
207.1352978891
 31
0.0
  0
LINE
  5
BB
330
1B
100
AcDbEntity
 67
     1
  8
SLD-0
  6
Continuous
 62
     7
100
AcDbLine
 10
296.5145102531
 20
207.1352978891
 30
0.0
 11
296.5145102531
 21
159.8051717227
 31
0.0
  0
LINE
  5
BC
330
1B
100
AcDbEntity
 67
     1
  8
SLD-0
  6
Continuous
 62
     7
100
AcDbLine
 10
342.3195565879
 20
224.135298813
 30
0.0
 11
342.3195565879
 21
220.1352981573
 31
0.0
  0
LINE
  5
BD
330
1B
100
AcDbEntity
 67
     1
  8
SLD-0
  6
Continuous
 62
     7
100
AcDbLine
 10
354.3195566922
 20
117.1352980381
 30
0.0
 11
354.3195566922
 21
115.1352977103
 31
0.0
  0
LINE
  5
BE
330
1B
100
AcDbEntity
 67
     1
  8
SLD-0
  6
Continuous
 62
     7
100
AcDbLine
 10
354.3195566922
 20
119.1352983659
 30
0.0
 11
354.3195566922
 21
117.1352980381
 31
0.0
  0
LINE
  5
BF
330
1B
100
AcDbEntity
 67
     1
  8
SLD-0
  6
Continuous
 62
     7
100
AcDbLine
 10
319.5145112291
 20
212.1353005713
 30
0.0
 11
301.5145110726
 21
212.1353005713
 31
0.0
  0
LINE
  5
C0
330
1B
100
AcDbEntity
 67
     1
  8
SLD-0
  6
Continuous
 62
     7
100
AcDbLine
 10
301.5145110726
 20
232.135296399
 30
0.0
 11
319.5145112291
 21
232.135296399
 31
0.0
  0
LINE
  5
C1
330
1B
100
AcDbEntity
 67
     1
  8
SLD-0
  6
Continuous
 62
     7
100
AcDbLine
 10
319.5145112291
 20
232.135296399
 30
0.0
 11
319.5145112291
 21
231.6352953857
 31
0.0
  0
LINE
  5
C2
330
1B
100
AcDbEntity
 67
     1
  8
SLD-0
  6
Continuous
 62
     7
100
AcDbLine
 10
301.5145110726
 20
227.3352971023
 30
0.0
 11
301.5145110726
 21
228.7352984494
 31
0.0
  0
LINE
  5
C3
330
1B
100
AcDbEntity
 67
     1
  8
SLD-0
  6
Continuous
 62
     7
100
AcDbLine
 10
301.5145110726
 20
215.5352985209
 30
0.0
 11
301.5145110726
 21
216.935299868
 31
0.0
  0
LINE
  5
C4
330
1B
100
AcDbEntity
 67
     1
  8
SLD-0
  6
Continuous
 62
     7
100
AcDbLine
 10
301.5145110726
 20
228.7352984494
 30
0.0
 11
319.5145112291
 21
228.7352984494
 31
0.0
  0
LINE
  5
C5
330
1B
100
AcDbEntity
 67
     1
  8
SLD-0
  6
Continuous
 62
     7
100
AcDbLine
 10
319.5145112291
 20
215.5352985209
 30
0.0
 11
301.5145110726
 21
215.5352985209
 31
0.0
  0
LINE
  5
C6
330
1B
100
AcDbEntity
 67
     1
  8
SLD-0
  6
Continuous
 62
     7
100
AcDbLine
 10
301.5145110726
 20
216.935299868
 30
0.0
 11
301.5145110726
 21
215.6353002137
 31
0.0
  0
LINE
  5
C7
330
1B
100
AcDbEntity
 67
     1
  8
SLD-0
  6
Continuous
 62
     7
100
AcDbLine
 10
301.5145110726
 20
228.6353004819
 30
0.0
 11
301.5145110726
 21
227.3352971023
 31
0.0
  0
LINE
  5
C8
330
1B
100
AcDbEntity
 67
     1
  8
SLD-0
  6
Continuous
 62
     7
100
AcDbLine
 10
319.5145112291
 20
228.6353004819
 30
0.0
 11
301.5145110726
 21
228.6353004819
 31
0.0
  0
LINE
  5
C9
330
1B
100
AcDbEntity
 67
     1
  8
SLD-0
  6
Continuous
 62
     7
100
AcDbLine
 10
301.5145110726
 20
215.6353002137
 30
0.0
 11
319.5145112291
 21
215.6353002137
 31
0.0
  0
LINE
  5
CA
330
1B
100
AcDbEntity
 67
     1
  8
SLD-0
  6
Continuous
 62
     7
100
AcDbLine
 10
324.5145099811
 20
102.1353000312
 30
0.0
 11
320.0145101748
 21
102.1353000312
 31
0.0
  0
LINE
  5
CB
330
1B
100
AcDbEntity
 67
     1
  8
SLD-0
  6
Continuous
 62
     7
100
AcDbLine
 10
324.5145099811
 20
102.6353010445
 30
0.0
 11
324.5145099811
 21
102.1353000312
 31
0.0
  0
LINE
  5
CC
330
1B
100
AcDbEntity
 67
     1
  8
SLD-0
  6
Continuous
 62
     7
100
AcDbLine
 10
320.0145101748
 20
232.1352975352
 30
0.0
 11
324.5145099811
 21
232.1352999194
 31
0.0
  0
LINE
  5
CD
330
1B
100
AcDbEntity
 67
     1
  8
SLD-0
  6
Continuous
 62
     7
100
AcDbLine
 10
324.5145099811
 20
232.1352999194
 30
0.0
 11
324.5145099811
 21
231.6352942496
 31
0.0
  0
LINE
  5
CE
330
1B
100
AcDbEntity
 67
     1
  8
SLD-0
  6
Continuous
 62
     7
100
AcDbLine
 10
324.5145099811
 20
102.6353010445
 30
0.0
 11
324.5145099811
 21
231.6352942496
 31
0.0
  0
LINE
  5
CF
330
1B
100
AcDbEntity
 67
     1
  8
SLD-0
  6
Continuous
 62
     7
100
AcDbLine
 10
319.5145112291
 20
102.6353021806
 30
0.0
 11
319.5145112291
 21
231.6352953857
 31
0.0
  0
LINE
  5
D0
330
1B
100
AcDbEntity
 67
     1
  8
SLD-0
  6
CENTER
 62
     7
100
AcDbLine
 10
301.5145111173
 20
131.2155701411
 30
0.0
 11
301.5145111173
 21
224.1352987832
 31
0.0
  0
LINE
  5
D1
330
1B
100
AcDbEntity
 67
     1
  8
SLD-0
  6
CENTER
 62
     7
100
AcDbLine
 10
349.346003551
 20
222.1352987832
 30
0.0
 11
308.1145111173
 21
222.1352987832
 31
0.0
  0
LINE
  5
D2
330
1B
100
AcDbEntity
 67
     1
  8
SLD-0
  6
CENTER
 62
     7
100
AcDbLine
 10
328.2703652893
 20
167.1352987832
 30
0.0
 11
290.7620823343
 21
167.1352987832
 31
0.0
  0
LINE
  5
D3
330
1B
100
AcDbEntity
 67
     1
  8
SLD-0
  6
CENTER
 62
     7
100
AcDbLine
 10
320.1145111173
 20
117.1352987832
 30
0.0
 11
361.6019421877
 21
117.1352987832
 31
0.0
  0
LINE
  5
D4
330
1B
100
AcDbEntity
 67
     1
  8
SLD-0
  6
Continuous
 62
     7
100
AcDbLine
 10
523.1461685994
 20
154.1352985149
 30
0.0
 11
523.1461685994
 21
207.1352978891
 31
0.0
  0
LINE
  5
D5
330
1B
100
AcDbEntity
 67
     1
  8
SLD-0
  6
Continuous
 62
     7
100
AcDbLine
 10
366.3160440424
 20
157.305171313
 30
0.0
 11
373.9196744659
 21
144.1352987384
 31
0.0
  0
LINE
  5
D6
330
1B
100
AcDbEntity
 67
     1
  8
SLD-0
  6
Continuous
 62
     7
100
AcDbLine
 10
376.1461706966
 20
160.2788933519
 30
0.0
 11
374.9762954324
 21
162.3051728089
 31
0.0
  0
LINE
  5
D7
330
1B
100
AcDbEntity
 67
     1
  8
SLD-0
  6
Continuous
 62
     7
100
AcDbLine
 10
396.8223905497
 20
221.6202993007
 30
0.0
 11
398.3461683922
 21
221.6202993007
 31
0.0
  0
LINE
  5
D8
330
1B
100
AcDbEntity
 67
     1
  8
SLD-0
  6
Continuous
 62
     7
100
AcDbLine
 10
398.3461683922
 20
221.6202993007
 30
0.0
 11
398.3461683922
 21
222.6502975171
 31
0.0
  0
LINE
  5
D9
330
1B
100
AcDbEntity
 67
     1
  8
SLD-0
  6
Continuous
 62
     7
100
AcDbLine
 10
398.3461683922
 20
222.6502975171
 30
0.0
 11
396.8223904171
 21
222.6502975171
 31
0.0
  0
LINE
  5
DA
330
1B
100
AcDbEntity
 67
     1
  8
SLD-0
  6
Continuous
 62
     7
100
AcDbLine
 10
396.6611672442
 20
222.8115205713
 30
0.0
 11
396.6611672442
 21
224.3352985959
 31
0.0
  0
LINE
  5
DB
330
1B
100
AcDbEntity
 67
     1
  8
SLD-0
  6
Continuous
 62
     7
100
AcDbLine
 10
396.6611672442
 20
224.3352985959
 30
0.0
 11
395.6311690928
 21
224.3352985959
 31
0.0
  0
LINE
  5
DC
330
1B
100
AcDbEntity
 67
     1
  8
SLD-0
  6
Continuous
 62
     7
100
AcDbLine
 10
395.6311690928
 20
224.3352985959
 30
0.0
 11
395.6311690928
 21
222.8115207534
 31
0.0
  0
LINE
  5
DD
330
1B
100
AcDbEntity
 67
     1
  8
SLD-0
  6
Continuous
 62
     7
100
AcDbLine
 10
395.469946126
 20
222.6502975171
 30
0.0
 11
393.9461682835
 21
222.6502975171
 31
0.0
  0
LINE
  5
DE
330
1B
100
AcDbEntity
 67
     1
  8
SLD-0
  6
Continuous
 62
     7
100
AcDbLine
 10
393.9461682835
 20
222.6502975171
 30
0.0
 11
393.9461682835
 21
221.6202994531
 31
0.0
  0
LINE
  5
DF
330
1B
100
AcDbEntity
 67
     1
  8
SLD-0
  6
Continuous
 62
     7
100
AcDbLine
 10
393.9461682835
 20
221.6202994531
 30
0.0
 11
395.469946126
 21
221.6202994531
 31
0.0
  0
LINE
  5
E0
330
1B
100
AcDbEntity
 67
     1
  8
SLD-0
  6
Continuous
 62
     7
100
AcDbLine
 10
395.6311691801
 20
221.4590762802
 30
0.0
 11
395.6311691801
 21
219.9352984376
 31
0.0
  0
LINE
  5
E1
330
1B
100
AcDbEntity
 67
     1
  8
SLD-0
  6
Continuous
 62
     7
100
AcDbLine
 10
395.6311691801
 20
219.9352984376
 30
0.0
 11
396.6611672442
 21
219.9352984376
 31
0.0
  0
LINE
  5
E2
330
1B
100
AcDbEntity
 67
     1
  8
SLD-0
  6
Continuous
 62
     7
100
AcDbLine
 10
396.6611672442
 20
219.9352984376
 30
0.0
 11
396.6611672442
 21
221.4590762802
 31
0.0
  0
LINE
  5
E3
330
1B
100
AcDbEntity
 67
     1
  8
SLD-0
  6
Continuous
 62
     7
100
AcDbLine
 10
397.0946681597
 20
221.6202994531
 30
0.0
 11
397.0946681597
 21
222.6502975171
 31
0.0
  0
LINE
  5
E4
330
1B
100
AcDbEntity
 67
     1
  8
SLD-0
  6
Continuous
 62
     7
100
AcDbLine
 10
395.6311692395
 20
221.1867985969
 30
0.0
 11
396.6611673036
 21
221.1867985969
 31
0.0
  0
LINE
  5
E5
330
1B
100
AcDbEntity
 67
     1
  8
SLD-0
  6
Continuous
 62
     7
100
AcDbLine
 10
396.6611673036
 20
223.0837983733
 30
0.0
 11
395.6311692395
 21
223.0837983733
 31
0.0
  0
LINE
  5
E6
330
1B
100
AcDbEntity
 67
     1
  8
SLD-0
  6
Continuous
 62
     7
100
AcDbLine
 10
395.1976683834
 20
222.6502975171
 30
0.0
 11
395.1976683834
 21
221.6202994531
 31
0.0
  0
LINE
  5
E7
330
1B
100
AcDbEntity
 67
     1
  8
SLD-0
  6
Continuous
 62
     7
100
AcDbLine
 10
496.8223918975
 20
221.6202995803
 30
0.0
 11
498.34616974
 21
221.6202995803
 31
0.0
  0
LINE
  5
E8
330
1B
100
AcDbEntity
 67
     1
  8
SLD-0
  6
Continuous
 62
     7
100
AcDbLine
 10
498.34616974
 20
221.6202995803
 30
0.0
 11
498.34616974
 21
222.6502975171
 31
0.0
  0
LINE
  5
E9
330
1B
100
AcDbEntity
 67
     1
  8
SLD-0
  6
Continuous
 62
     7
100
AcDbLine
 10
498.34616974
 20
222.6502975171
 30
0.0
 11
496.8223919072
 21
222.6502975171
 31
0.0
  0
LINE
  5
EA
330
1B
100
AcDbEntity
 67
     1
  8
SLD-0
  6
Continuous
 62
     7
100
AcDbLine
 10
496.6611689323
 20
222.8115207693
 30
0.0
 11
496.6611689323
 21
224.3352984866
 31
0.0
  0
LINE
  5
EB
330
1B
100
AcDbEntity
 67
     1
  8
SLD-0
  6
Continuous
 62
     7
100
AcDbLine
 10
496.6611689323
 20
224.3352984866
 30
0.0
 11
495.6311708438
 21
224.3352984866
 31
0.0
  0
LINE
  5
EC
330
1B
100
AcDbEntity
 67
     1
  8
SLD-0
  6
Continuous
 62
     7
100
AcDbLine
 10
495.6311708438
 20
224.3352984866
 30
0.0
 11
495.6311708438
 21
222.8115206441
 31
0.0
  0
LINE
  5
ED
330
1B
100
AcDbEntity
 67
     1
  8
SLD-0
  6
Continuous
 62
     7
100
AcDbLine
 10
495.4699476161
 20
222.6502975171
 30
0.0
 11
493.9461697736
 21
222.6502975171
 31
0.0
  0
LINE
  5
EE
330
1B
100
AcDbEntity
 67
     1
  8
SLD-0
  6
Continuous
 62
     7
100
AcDbLine
 10
493.9461697736
 20
222.6502975171
 30
0.0
 11
493.9461697736
 21
221.6202994531
 31
0.0
  0
LINE
  5
EF
330
1B
100
AcDbEntity
 67
     1
  8
SLD-0
  6
Continuous
 62
     7
100
AcDbLine
 10
493.9461697736
 20
221.6202994531
 30
0.0
 11
495.4699476161
 21
221.6202994531
 31
0.0
  0
LINE
  5
F0
330
1B
100
AcDbEntity
 67
     1
  8
SLD-0
  6
Continuous
 62
     7
100
AcDbLine
 10
495.6311708682
 20
221.4590764782
 30
0.0
 11
495.6311708682
 21
219.9352986356
 31
0.0
  0
LINE
  5
F1
330
1B
100
AcDbEntity
 67
     1
  8
SLD-0
  6
Continuous
 62
     7
100
AcDbLine
 10
495.6311708682
 20
219.9352986356
 30
0.0
 11
496.6611689323
 21
219.9352986356
 31
0.0
  0
LINE
  5
F2
330
1B
100
AcDbEntity
 67
     1
  8
SLD-0
  6
Continuous
 62
     7
100
AcDbLine
 10
496.6611689323
 20
219.9352986356
 30
0.0
 11
496.6611689323
 21
221.4590764782
 31
0.0
  0
LINE
  5
F3
330
1B
100
AcDbEntity
 67
     1
  8
SLD-0
  6
Continuous
 62
     7
100
AcDbLine
 10
497.0946696498
 20
221.6202994531
 30
0.0
 11
497.0946696498
 21
222.6502975171
 31
0.0
  0
LINE
  5
F4
330
1B
100
AcDbEntity
 67
     1
  8
SLD-0
  6
Continuous
 62
     7
100
AcDbLine
 10
495.6311707296
 20
221.1867985969
 30
0.0
 11
496.6611687937
 21
221.1867985969
 31
0.0
  0
LINE
  5
F5
330
1B
100
AcDbEntity
 67
     1
  8
SLD-0
  6
Continuous
 62
     7
100
AcDbLine
 10
496.6611687937
 20
223.0837983733
 30
0.0
 11
495.6311707296
 21
223.0837983733
 31
0.0
  0
LINE
  5
F6
330
1B
100
AcDbEntity
 67
     1
  8
SLD-0
  6
Continuous
 62
     7
100
AcDbLine
 10
495.1976698735
 20
222.6502975171
 30
0.0
 11
495.1976698735
 21
221.6202994531
 31
0.0
  0
LINE
  5
F7
330
1B
100
AcDbEntity
 67
     1
  8
SLD-0
  6
Continuous
 62
     7
100
AcDbLine
 10
376.6461683908
 20
232.1352977401
 30
0.0
 11
515.6461669602
 21
232.1352977401
 31
0.0
  0
LINE
  5
F8
330
1B
100
AcDbEntity
 67
     1
  8
SLD-0
  6
Continuous
 62
     7
100
AcDbLine
 10
516.1461666325
 20
231.6352953857
 30
0.0
 11
516.1461666325
 21
102.6353021806
 31
0.0
  0
LINE
  5
F9
330
1B
100
AcDbEntity
 67
     1
  8
SLD-0
  6
Continuous
 62
     7
100
AcDbLine
 10
515.6461669602
 20
102.1352998263
 30
0.0
 11
376.6461683908
 21
102.1352998263
 31
0.0
  0
LINE
  5
FA
330
1B
100
AcDbEntity
 67
     1
  8
SLD-0
  6
Continuous
 62
     7
100
AcDbLine
 10
376.1461687186
 20
102.6353021806
 30
0.0
 11
376.1461687186
 21
231.6352953857
 31
0.0
  0
LINE
  5
FB
330
1B
100
AcDbEntity
 67
     1
  8
SLD-0
  6
Continuous
 62
     7
100
AcDbLine
 10
385.581256161
 20
107.8008567637
 30
0.0
 11
385.581256161
 21
106.5758621043
 31
0.0
  0
LINE
  5
FC
330
1B
100
AcDbEntity
 67
     1
  8
SLD-0
  6
Continuous
 62
     7
100
AcDbLine
 10
385.581256161
 20
106.5758621043
 30
0.0
 11
385.7343804934
 21
106.5758621043
 31
0.0
  0
LINE
  5
FD
330
1B
100
AcDbEntity
 67
     1
  8
SLD-0
  6
Continuous
 62
     7
100
AcDbLine
 10
385.7343804934
 20
106.5758621043
 30
0.0
 11
385.7343804934
 21
107.8008567637
 31
0.0
  0
LINE
  5
FE
330
1B
100
AcDbEntity
 67
     1
  8
SLD-0
  6
Continuous
 62
     7
100
AcDbLine
 10
385.7343804934
 20
107.8008567637
 30
0.0
 11
386.1937497654
 21
107.8008567637
 31
0.0
  0
LINE
  5
FF
330
1B
100
AcDbEntity
 67
     1
  8
SLD-0
  6
Continuous
 62
     7
100
AcDbLine
 10
386.1937497654
 20
107.8008567637
 30
0.0
 11
386.1937497654
 21
107.9539810961
 31
0.0
  0
LINE
  5
100
330
1B
100
AcDbEntity
 67
     1
  8
SLD-0
  6
Continuous
 62
     7
100
AcDbLine
 10
386.1937497654
 20
107.9539810961
 30
0.0
 11
385.1218831637
 21
107.9539810961
 31
0.0
  0
LINE
  5
101
330
1B
100
AcDbEntity
 67
     1
  8
SLD-0
  6
Continuous
 62
     7
100
AcDbLine
 10
385.1218831637
 20
107.9539810961
 30
0.0
 11
385.1218831637
 21
107.8008567637
 31
0.0
  0
LINE
  5
102
330
1B
100
AcDbEntity
 67
     1
  8
SLD-0
  6
Continuous
 62
     7
100
AcDbLine
 10
385.1218831637
 20
107.8008567637
 30
0.0
 11
385.581256161
 21
107.8008567637
 31
0.0
  0
LINE
  5
103
330
1B
100
AcDbEntity
 67
     1
  8
SLD-0
  6
Continuous
 62
     7
100
AcDbLine
 10
383.8689674535
 20
106.6151341146
 30
0.0
 11
383.8689674535
 21
106.7623128837
 31
0.0
  0
LINE
  5
104
330
1B
100
AcDbEntity
 67
     1
  8
SLD-0
  6
Continuous
 62
     7
100
AcDbLine
 10
383.8689674535
 20
106.7623128837
 30
0.0
 11
383.0594879487
 21
106.7623128837
 31
0.0
  0
LINE
  5
105
330
1B
100
AcDbEntity
 67
     1
  8
SLD-0
  6
Continuous
 62
     7
100
AcDbLine
 10
383.0594879487
 20
106.7623128837
 30
0.0
 11
383.0594879487
 21
107.203849191
 31
0.0
  0
LINE
  5
106
330
1B
100
AcDbEntity
 67
     1
  8
SLD-0
  6
Continuous
 62
     7
100
AcDbLine
 10
383.0594879487
 20
107.203849191
 30
0.0
 11
383.7953780689
 21
107.203849191
 31
0.0
  0
LINE
  5
107
330
1B
100
AcDbEntity
 67
     1
  8
SLD-0
  6
Continuous
 62
     7
100
AcDbLine
 10
383.7953780689
 20
107.203849191
 30
0.0
 11
383.7953780689
 21
107.3510279601
 31
0.0
  0
LINE
  5
108
330
1B
100
AcDbEntity
 67
     1
  8
SLD-0
  6
Continuous
 62
     7
100
AcDbLine
 10
383.7953780689
 20
107.3510279601
 30
0.0
 11
383.0594879487
 21
107.3510279601
 31
0.0
  0
LINE
  5
109
330
1B
100
AcDbEntity
 67
     1
  8
SLD-0
  6
Continuous
 62
     7
100
AcDbLine
 10
383.0594879487
 20
107.3510279601
 30
0.0
 11
383.0594879487
 21
107.7925605422
 31
0.0
  0
LINE
  5
10A
330
1B
100
AcDbEntity
 67
     1
  8
SLD-0
  6
Continuous
 62
     7
100
AcDbLine
 10
383.0594879487
 20
107.7925605422
 30
0.0
 11
383.8689674535
 21
107.7925605422
 31
0.0
  0
LINE
  5
10B
330
1B
100
AcDbEntity
 67
     1
  8
SLD-0
  6
Continuous
 62
     7
100
AcDbLine
 10
383.8689674535
 20
107.7925605422
 30
0.0
 11
383.8689674535
 21
107.9397393113
 31
0.0
  0
LINE
  5
10C
330
1B
100
AcDbEntity
 67
     1
  8
SLD-0
  6
Continuous
 62
     7
100
AcDbLine
 10
383.8689674535
 20
107.9397393113
 30
0.0
 11
382.9123091795
 21
107.9397393113
 31
0.0
  0
LINE
  5
10D
330
1B
100
AcDbEntity
 67
     1
  8
SLD-0
  6
Continuous
 62
     7
100
AcDbLine
 10
382.9123091795
 20
107.9397393113
 30
0.0
 11
382.9123091795
 21
106.6151341146
 31
0.0
  0
LINE
  5
10E
330
1B
100
AcDbEntity
 67
     1
  8
SLD-0
  6
Continuous
 62
     7
100
AcDbLine
 10
382.9123091795
 20
106.6151341146
 30
0.0
 11
383.8689674535
 21
106.6151341146
 31
0.0
  0
LINE
  5
10F
330
1B
100
AcDbEntity
 67
     1
  8
SLD-0
  6
Continuous
 62
     7
100
AcDbLine
 10
384.1633249917
 20
108.8973773366
 30
0.0
 11
386.1502309241
 21
108.8973773366
 31
0.0
  0
LINE
  5
110
330
1B
100
AcDbEntity
 67
     1
  8
SLD-0
  6
Continuous
 62
     7
100
AcDbLine
 10
386.1502309241
 20
108.8973773366
 30
0.0
 11
386.1502309241
 21
112.1352990812
 31
0.0
  0
LINE
  5
111
330
1B
100
AcDbEntity
 67
     1
  8
SLD-0
  6
Continuous
 62
     7
100
AcDbLine
 10
386.1502309241
 20
112.1352990812
 30
0.0
 11
384.9728044965
 21
112.1352990812
 31
0.0
  0
LINE
  5
112
330
1B
100
AcDbEntity
 67
     1
  8
SLD-0
  6
Continuous
 62
     7
100
AcDbLine
 10
384.9728044965
 20
112.1352990812
 30
0.0
 11
384.9728044965
 21
109.4860886877
 31
0.0
  0
LINE
  5
113
330
1B
100
AcDbEntity
 67
     1
  8
SLD-0
  6
Continuous
 62
     7
100
AcDbLine
 10
384.9728044965
 20
109.4860886877
 30
0.0
 11
384.1633249917
 21
109.4860886877
 31
0.0
  0
LINE
  5
114
330
1B
100
AcDbEntity
 67
     1
  8
SLD-0
  6
Continuous
 62
     7
100
AcDbLine
 10
384.1633249917
 20
109.4860886877
 30
0.0
 11
384.1633249917
 21
112.1352990812
 31
0.0
  0
LINE
  5
115
330
1B
100
AcDbEntity
 67
     1
  8
SLD-0
  6
Continuous
 62
     7
100
AcDbLine
 10
384.1633249917
 20
112.1352990812
 30
0.0
 11
383.1330773332
 21
112.1352990812
 31
0.0
  0
LINE
  5
116
330
1B
100
AcDbEntity
 67
     1
  8
SLD-0
  6
Continuous
 62
     7
100
AcDbLine
 10
383.1330773332
 20
112.1352990812
 30
0.0
 11
383.1330773332
 21
108.8973773366
 31
0.0
  0
LINE
  5
117
330
1B
100
AcDbEntity
 67
     1
  8
SLD-0
  6
Continuous
 62
     7
100
AcDbLine
 10
383.1330773332
 20
108.8973773366
 30
0.0
 11
382.3235941031
 21
108.8973773366
 31
0.0
  0
LINE
  5
118
330
1B
100
AcDbEntity
 67
     1
  8
SLD-0
  6
Continuous
 62
     7
100
AcDbLine
 10
382.3235941031
 20
108.8973773366
 30
0.0
 11
382.3235941031
 21
112.1352990812
 31
0.0
  0
LINE
  5
119
330
1B
100
AcDbEntity
 67
     1
  8
SLD-0
  6
Continuous
 62
     7
100
AcDbLine
 10
382.3235941031
 20
112.1352990812
 30
0.0
 11
381.1461714008
 21
112.1352990812
 31
0.0
  0
LINE
  5
11A
330
1B
100
AcDbEntity
 67
     1
  8
SLD-0
  6
Continuous
 62
     7
100
AcDbLine
 10
381.1461714008
 20
112.1352990812
 30
0.0
 11
381.1461714008
 21
108.1614872163
 31
0.0
  0
LINE
  5
11B
330
1B
100
AcDbEntity
 67
     1
  8
SLD-0
  6
Continuous
 62
     7
100
AcDbLine
 10
381.1461714008
 20
108.1614872163
 30
0.0
 11
384.1633249917
 21
108.1614872163
 31
0.0
  0
LINE
  5
11C
330
1B
100
AcDbEntity
 67
     1
  8
SLD-0
  6
Continuous
 62
     7
100
AcDbLine
 10
384.1633249917
 20
108.1614872163
 30
0.0
 11
384.1633249917
 21
108.8973773366
 31
0.0
  0
LINE
  5
11D
330
1B
100
AcDbEntity
 67
     1
  8
SLD-0
  6
Continuous
 62
     7
100
AcDbLine
 10
384.0980132022
 20
107.0566704219
 30
0.0
 11
383.9437563815
 21
107.0566704219
 31
0.0
  0
LINE
  5
11E
330
1B
100
AcDbEntity
 67
     1
  8
SLD-0
  6
Continuous
 62
     7
100
AcDbLine
 10
384.9287710864
 20
107.3004458227
 30
0.0
 11
384.8476826925
 21
107.3198210575
 31
0.0
  0
LINE
  5
11F
330
1B
100
AcDbEntity
 67
     1
  8
SLD-0
  6
Continuous
 62
     7
100
AcDbLine
 10
384.9200692871
 20
107.587248618
 30
0.0
 11
385.072944025
 21
107.587248618
 31
0.0
  0
LINE
  5
120
330
1B
100
AcDbEntity
 67
     1
  8
SLD-0
  6
Continuous
 62
     7
100
AcDbLine
 10
382.3395085433
 20
106.9462863451
 30
0.0
 11
382.0359569886
 21
107.9397393113
 31
0.0
  0
LINE
  5
121
330
1B
100
AcDbEntity
 67
     1
  8
SLD-0
  6
Continuous
 62
     7
100
AcDbLine
 10
382.0359569886
 20
107.9397393113
 30
0.0
 11
381.8753448226
 21
107.9397393113
 31
0.0
  0
LINE
  5
122
330
1B
100
AcDbEntity
 67
     1
  8
SLD-0
  6
Continuous
 62
     7
100
AcDbLine
 10
381.8753448226
 20
107.9397393113
 30
0.0
 11
381.5717858174
 21
106.9462863451
 31
0.0
  0
LINE
  5
123
330
1B
100
AcDbEntity
 67
     1
  8
SLD-0
  6
Continuous
 62
     7
100
AcDbLine
 10
381.5717858174
 20
106.9462863451
 30
0.0
 11
381.5462377765
 21
106.9462863451
 31
0.0
  0
LINE
  5
124
330
1B
100
AcDbEntity
 67
     1
  8
SLD-0
  6
Continuous
 62
     7
100
AcDbLine
 10
381.5462377765
 20
106.9462863451
 30
0.0
 11
381.2978801229
 21
107.9397393113
 31
0.0
  0
LINE
  5
125
330
1B
100
AcDbEntity
 67
     1
  8
SLD-0
  6
Continuous
 62
     7
100
AcDbLine
 10
381.2978801229
 20
107.9397393113
 30
0.0
 11
381.1461714008
 21
107.9397393113
 31
0.0
  0
LINE
  5
126
330
1B
100
AcDbEntity
 67
     1
  8
SLD-0
  6
Continuous
 62
     7
100
AcDbLine
 10
381.1461714008
 20
107.9397393113
 30
0.0
 11
381.477319906
 21
106.6151341146
 31
0.0
  0
LINE
  5
127
330
1B
100
AcDbEntity
 67
     1
  8
SLD-0
  6
Continuous
 62
     7
100
AcDbLine
 10
381.477319906
 20
106.6151341146
 30
0.0
 11
381.6244986751
 21
106.6151341146
 31
0.0
  0
LINE
  5
128
330
1B
100
AcDbEntity
 67
     1
  8
SLD-0
  6
Continuous
 62
     7
100
AcDbLine
 10
381.6244986751
 20
106.6151341146
 30
0.0
 11
381.9392931559
 21
107.6453817731
 31
0.0
  0
LINE
  5
129
330
1B
100
AcDbEntity
 67
     1
  8
SLD-0
  6
Continuous
 62
     7
100
AcDbLine
 10
381.9392931559
 20
107.6453817731
 30
0.0
 11
381.9720012047
 21
107.6453817731
 31
0.0
  0
LINE
  5
12A
330
1B
100
AcDbEntity
 67
     1
  8
SLD-0
  6
Continuous
 62
     7
100
AcDbLine
 10
381.9720012047
 20
107.6453817731
 30
0.0
 11
382.2868031361
 21
106.6151341146
 31
0.0
  0
LINE
  5
12B
330
1B
100
AcDbEntity
 67
     1
  8
SLD-0
  6
Continuous
 62
     7
100
AcDbLine
 10
382.2868031361
 20
106.6151341146
 30
0.0
 11
382.4339819052
 21
106.6151341146
 31
0.0
  0
LINE
  5
12C
330
1B
100
AcDbEntity
 67
     1
  8
SLD-0
  6
Continuous
 62
     7
100
AcDbLine
 10
382.4339819052
 20
106.6151341146
 30
0.0
 11
382.7651304104
 21
107.9397393113
 31
0.0
  0
LINE
  5
12D
330
1B
100
AcDbEntity
 67
     1
  8
SLD-0
  6
Continuous
 62
     7
100
AcDbLine
 10
382.7651304104
 20
107.9397393113
 30
0.0
 11
382.6134216883
 21
107.9397393113
 31
0.0
  0
LINE
  5
12E
330
1B
100
AcDbEntity
 67
     1
  8
SLD-0
  6
Continuous
 62
     7
100
AcDbLine
 10
382.6134216883
 20
107.9397393113
 30
0.0
 11
382.3650565841
 21
106.9462863451
 31
0.0
  0
LINE
  5
12F
330
1B
100
AcDbEntity
 67
     1
  8
SLD-0
  6
Continuous
 62
     7
100
AcDbLine
 10
382.3650565841
 20
106.9462863451
 30
0.0
 11
382.3395085433
 21
106.9462863451
 31
0.0
  0
LINE
  5
130
330
1B
100
AcDbEntity
 67
     1
  8
SLD-0
  6
CENTER
 62
     7
100
AcDbLine
 10
514.7195339565
 20
222.1352987832
 30
0.0
 11
503.1461690166
 21
222.1352987832
 31
0.0
  0
LINE
  5
131
330
1B
100
AcDbEntity
 67
     1
  8
SLD-0
  6
CENTER
 62
     7
100
AcDbLine
 10
517.6461690166
 20
167.1352987832
 30
0.0
 11
374.6461690166
 21
167.1352987832
 31
0.0
  0
LINE
  5
132
330
1B
100
AcDbEntity
 67
     1
  8
SLD-0
  6
CENTER
 62
     7
100
AcDbLine
 10
446.1461690166
 20
233.6352987832
 30
0.0
 11
446.1461690166
 21
100.6352987832
 31
0.0
  0
LINE
  5
133
330
1B
100
AcDbEntity
 67
     1
  8
SLD-0
  6
Continuous
 62
     7
100
AcDbLine
 10
182.5731720159
 20
343.821071916
 30
0.0
 11
180.5731716881
 21
349.3160259805
 31
0.0
  0
LINE
  5
134
330
1B
100
AcDbEntity
 67
     1
  8
SLD-0
  6
Continuous
 62
     7
100
AcDbLine
 10
180.5731716881
 20
349.3160259805
 30
0.0
 11
178.5731713603
 21
343.821071916
 31
0.0
  0
LINE
  5
135
330
1B
100
AcDbEntity
 67
     1
  8
SLD-0
  6
Continuous
 62
     7
100
AcDbLine
 10
178.5731713603
 20
343.821071916
 30
0.0
 11
178.5731713603
 21
326.0160264454
 31
0.0
  0
LINE
  5
136
330
1B
100
AcDbEntity
 67
     1
  8
SLD-0
  6
Continuous
 62
     7
100
AcDbLine
 10
182.5731720159
 20
326.0160264454
 30
0.0
 11
182.5731720159
 21
343.821071916
 31
0.0
  0
LINE
  5
137
330
1B
100
AcDbEntity
 67
     1
  8
SLD-0
  6
Continuous
 62
     7
100
AcDbLine
 10
102.5731738041
 20
343.821071916
 30
0.0
 11
100.5731734763
 21
349.3160259805
 31
0.0
  0
LINE
  5
138
330
1B
100
AcDbEntity
 67
     1
  8
SLD-0
  6
Continuous
 62
     7
100
AcDbLine
 10
100.5731734763
 20
349.3160259805
 30
0.0
 11
98.5731731484
 21
343.821071916
 31
0.0
  0
LINE
  5
139
330
1B
100
AcDbEntity
 67
     1
  8
SLD-0
  6
Continuous
 62
     7
100
AcDbLine
 10
98.5731731484
 20
343.821071916
 30
0.0
 11
98.5731731484
 21
326.0160264454
 31
0.0
  0
LINE
  5
13A
330
1B
100
AcDbEntity
 67
     1
  8
SLD-0
  6
Continuous
 62
     7
100
AcDbLine
 10
102.5731738041
 20
326.0160264454
 30
0.0
 11
102.5731738041
 21
343.821071916
 31
0.0
  0
LINE
  5
13B
330
1B
100
AcDbEntity
 67
     1
  8
SLD-0
  6
Continuous
 62
     7
100
AcDbLine
 10
142.5731726772
 20
355.8210720203
 30
0.0
 11
140.5731725822
 21
361.3160279475
 31
0.0
  0
LINE
  5
13C
330
1B
100
AcDbEntity
 67
     1
  8
SLD-0
  6
Continuous
 62
     7
100
AcDbLine
 10
140.5731725822
 20
361.3160279475
 30
0.0
 11
138.5731724872
 21
355.8210720203
 31
0.0
  0
LINE
  5
13D
330
1B
100
AcDbEntity
 67
     1
  8
SLD-0
  6
Continuous
 62
     7
100
AcDbLine
 10
138.5731724872
 20
355.8210720203
 30
0.0
 11
138.5731724872
 21
326.0160264454
 31
0.0
  0
LINE
  5
13E
330
1B
100
AcDbEntity
 67
     1
  8
SLD-0
  6
Continuous
 62
     7
100
AcDbLine
 10
142.5731726772
 20
326.0160264454
 30
0.0
 11
142.5731726772
 21
355.8210720203
 31
0.0
  0
LINE
  5
13F
330
1B
100
AcDbEntity
 67
     1
  8
SLD-0
  6
Continuous
 62
     7
100
AcDbLine
 10
85.5731728802
 20
308.0160264454
 30
0.0
 11
83.5731725524
 21
308.0160264454
 31
0.0
  0
LINE
  5
140
330
1B
100
AcDbEntity
 67
     1
  8
SLD-0
  6
Continuous
 62
     7
100
AcDbLine
 10
83.5731725524
 20
298.0160255812
 30
0.0
 11
85.5731728802
 21
298.0160255812
 31
0.0
  0
LINE
  5
141
330
1B
100
AcDbEntity
 67
     1
  8
SLD-0
  6
Continuous
 62
     7
100
AcDbLine
 10
83.5731725524
 20
308.0160264454
 30
0.0
 11
68.5731756816
 21
308.0160264454
 31
0.0
  0
LINE
  5
142
330
1B
100
AcDbEntity
 67
     1
  8
SLD-0
  6
Continuous
 62
     7
100
AcDbLine
 10
68.5731756816
 20
298.0160255812
 30
0.0
 11
83.5731725524
 21
298.0160255812
 31
0.0
  0
LINE
  5
143
330
1B
100
AcDbEntity
 67
     1
  8
SLD-0
  6
Continuous
 62
     7
100
AcDbLine
 10
216.0731691251
 20
308.0160272203
 30
0.0
 11
208.4695461522
 21
308.0160272203
 31
0.0
  0
LINE
  5
144
330
1B
100
AcDbEntity
 67
     1
  8
SLD-0
  6
Continuous
 62
     7
100
AcDbLine
 10
208.4695461522
 20
298.0160255812
 30
0.0
 11
216.0731691251
 21
298.0160255812
 31
0.0
  0
LINE
  5
145
330
1B
100
AcDbEntity
 67
     1
  8
SLD-0
  6
Continuous
 62
     7
100
AcDbLine
 10
208.4695461522
 20
308.0160272203
 30
0.0
 11
195.4791608582
 21
308.0160272203
 31
0.0
  0
LINE
  5
146
330
1B
100
AcDbEntity
 67
     1
  8
SLD-0
  6
Continuous
 62
     7
100
AcDbLine
 10
195.4791608582
 20
298.0160255812
 30
0.0
 11
208.4695461522
 21
298.0160255812
 31
0.0
  0
LINE
  5
147
330
1B
100
AcDbEntity
 67
     1
  8
SLD-0
  6
Continuous
 62
     7
100
AcDbLine
 10
86.0731739531
 20
293.0160266838
 30
0.0
 11
195.0731713305
 21
293.0160266838
 31
0.0
  0
LINE
  5
148
330
1B
100
AcDbEntity
 67
     1
  8
SLD-0
  6
Continuous
 62
     7
100
AcDbLine
 10
178.5731713603
 20
343.821071916
 30
0.0
 11
182.5731720159
 21
343.821071916
 31
0.0
  0
LINE
  5
149
330
1B
100
AcDbEntity
 67
     1
  8
SLD-0
  6
Continuous
 62
     7
100
AcDbLine
 10
98.5731731484
 20
343.821071916
 30
0.0
 11
102.5731738041
 21
343.821071916
 31
0.0
  0
LINE
  5
14A
330
1B
100
AcDbEntity
 67
     1
  8
SLD-0
  6
Continuous
 62
     7
100
AcDbLine
 10
138.5731724872
 20
355.8210720203
 30
0.0
 11
142.5731726772
 21
355.8210720203
 31
0.0
  0
LINE
  5
14B
330
1B
100
AcDbEntity
 67
     1
  8
SLD-0
  6
Continuous
 62
     7
100
AcDbLine
 10
104.9958232174
 20
318.0160260654
 30
0.0
 11
104.4184702764
 21
317.0160268328
 31
0.0
  0
LINE
  5
14C
330
1B
100
AcDbEntity
 67
     1
  8
SLD-0
  6
Continuous
 62
     7
100
AcDbLine
 10
104.4184702764
 20
317.0160268328
 30
0.0
 11
104.9958232174
 21
316.0160266689
 31
0.0
  0
LINE
  5
14D
330
1B
100
AcDbEntity
 67
     1
  8
SLD-0
  6
Continuous
 62
     7
100
AcDbLine
 10
104.9958232174
 20
316.0160266689
 30
0.0
 11
106.1505216489
 21
316.0160266689
 31
0.0
  0
LINE
  5
14E
330
1B
100
AcDbEntity
 67
     1
  8
SLD-0
  6
Continuous
 62
     7
100
AcDbLine
 10
106.1505216489
 20
316.0160266689
 30
0.0
 11
106.72787459
 21
317.0160268328
 31
0.0
  0
LINE
  5
14F
330
1B
100
AcDbEntity
 67
     1
  8
SLD-0
  6
Continuous
 62
     7
100
AcDbLine
 10
106.72787459
 20
317.0160268328
 30
0.0
 11
106.1505216489
 21
318.0160260654
 31
0.0
  0
LINE
  5
150
330
1B
100
AcDbEntity
 67
     1
  8
SLD-0
  6
Continuous
 62
     7
100
AcDbLine
 10
106.1505216489
 20
318.0160260654
 30
0.0
 11
104.9958232174
 21
318.0160260654
 31
0.0
  0
LINE
  5
151
330
1B
100
AcDbEntity
 67
     1
  8
SLD-0
  6
Continuous
 62
     7
100
AcDbLine
 10
174.9958235155
 20
318.0160260654
 30
0.0
 11
174.4184705744
 21
317.0160268328
 31
0.0
  0
LINE
  5
152
330
1B
100
AcDbEntity
 67
     1
  8
SLD-0
  6
Continuous
 62
     7
100
AcDbLine
 10
174.9958235155
 20
316.0160266689
 30
0.0
 11
176.1505219469
 21
316.0160266689
 31
0.0
  0
LINE
  5
153
330
1B
100
AcDbEntity
 67
     1
  8
SLD-0
  6
Continuous
 62
     7
100
AcDbLine
 10
176.1505219469
 20
318.0160260654
 30
0.0
 11
174.9958235155
 21
318.0160260654
 31
0.0
  0
LINE
  5
154
330
1B
100
AcDbEntity
 67
     1
  8
SLD-0
  6
Continuous
 62
     7
100
AcDbLine
 10
176.727874888
 20
317.0160268328
 30
0.0
 11
176.1505219469
 21
318.0160260654
 31
0.0
  0
LINE
  5
155
330
1B
100
AcDbEntity
 67
     1
  8
SLD-0
  6
Continuous
 62
     7
100
AcDbLine
 10
176.1505219469
 20
316.0160266689
 30
0.0
 11
176.727874888
 21
317.0160268328
 31
0.0
  0
LINE
  5
156
330
1B
100
AcDbEntity
 67
     1
  8
SLD-0
  6
Continuous
 62
     7
100
AcDbLine
 10
174.4184705744
 20
317.0160268328
 30
0.0
 11
174.9958235155
 21
316.0160266689
 31
0.0
  0
LINE
  5
157
330
1B
100
AcDbEntity
 67
     1
  8
SLD-0
  6
Continuous
 62
     7
100
AcDbLine
 10
195.0731712709
 20
321.0160265572
 30
0.0
 11
86.0731738935
 21
321.0160265572
 31
0.0
  0
LINE
  5
158
330
1B
100
AcDbEntity
 67
     1
  8
SLD-0
  6
Continuous
 62
     7
100
AcDbLine
 10
85.5731728802
 20
303.0160264007
 30
0.0
 11
85.5731728802
 21
321.0160265572
 31
0.0
  0
LINE
  5
159
330
1B
100
AcDbEntity
 67
     1
  8
SLD-0
  6
Continuous
 62
     7
100
AcDbLine
 10
85.5731728802
 20
321.0160265572
 30
0.0
 11
86.0731738935
 21
321.0160265572
 31
0.0
  0
LINE
  5
15A
330
1B
100
AcDbEntity
 67
     1
  8
SLD-0
  6
Continuous
 62
     7
100
AcDbLine
 10
195.5731724034
 20
321.0160265572
 30
0.0
 11
195.5731724034
 21
303.0160264007
 31
0.0
  0
LINE
  5
15B
330
1B
100
AcDbEntity
 67
     1
  8
SLD-0
  6
Continuous
 62
     7
100
AcDbLine
 10
195.0731712709
 20
321.0160265572
 30
0.0
 11
195.5731724034
 21
321.0160265572
 31
0.0
  0
LINE
  5
15C
330
1B
100
AcDbEntity
 67
     1
  8
SLD-0
  6
Continuous
 62
     7
100
AcDbLine
 10
195.5731724034
 20
303.0160264007
 30
0.0
 11
195.5731724034
 21
293.5160276375
 31
0.0
  0
LINE
  5
15D
330
1B
100
AcDbEntity
 67
     1
  8
SLD-0
  6
Continuous
 62
     7
100
AcDbLine
 10
85.5731728802
 20
293.5160276375
 30
0.0
 11
85.5731728802
 21
303.0160264007
 31
0.0
  0
LINE
  5
15E
330
1B
100
AcDbEntity
 67
     1
  8
SLD-0
  6
Continuous
 62
     7
100
AcDbLine
 10
85.5731728802
 20
298.0160255812
 30
0.0
 11
85.5731728802
 21
297.8160259209
 31
0.0
  0
LINE
  5
15F
330
1B
100
AcDbEntity
 67
     1
  8
SLD-0
  6
Continuous
 62
     7
100
AcDbLine
 10
195.5731722842
 20
298.5160265944
 30
0.0
 11
195.5731722842
 21
297.8160259209
 31
0.0
  0
LINE
  5
160
330
1B
100
AcDbEntity
 67
     1
  8
SLD-0
  6
Continuous
 62
     7
100
AcDbLine
 10
70.5731724891
 20
321.516026844
 30
0.0
 11
70.5731724891
 21
326.0160266503
 31
0.0
  0
LINE
  5
161
330
1B
100
AcDbEntity
 67
     1
  8
SLD-0
  6
Continuous
 62
     7
100
AcDbLine
 10
70.5731724891
 20
326.0160266503
 30
0.0
 11
71.0731735023
 21
326.0160266503
 31
0.0
  0
LINE
  5
162
330
1B
100
AcDbEntity
 67
     1
  8
SLD-0
  6
Continuous
 62
     7
100
AcDbLine
 10
210.5731727945
 20
326.0160266503
 30
0.0
 11
210.5731727945
 21
321.516026844
 31
0.0
  0
LINE
  5
163
330
1B
100
AcDbEntity
 67
     1
  8
SLD-0
  6
Continuous
 62
     7
100
AcDbLine
 10
210.0731720718
 20
326.0160266503
 30
0.0
 11
210.5731727945
 21
326.0160266503
 31
0.0
  0
LINE
  5
164
330
1B
100
AcDbEntity
 67
     1
  8
SLD-0
  6
Continuous
 62
     7
100
AcDbLine
 10
210.0731720718
 20
326.0160266503
 30
0.0
 11
71.0731735023
 21
326.0160266503
 31
0.0
  0
LINE
  5
165
330
1B
100
AcDbEntity
 67
     1
  8
SLD-0
  6
Continuous
 62
     7
100
AcDbLine
 10
210.0731719861
 20
321.0160265572
 30
0.0
 11
195.5731724034
 21
321.0160265572
 31
0.0
  0
LINE
  5
166
330
1B
100
AcDbEntity
 67
     1
  8
SLD-0
  6
Continuous
 62
     7
100
AcDbLine
 10
85.5731728802
 20
321.0160265572
 30
0.0
 11
71.0731732974
 21
321.0160265572
 31
0.0
  0
LINE
  5
167
330
1B
100
AcDbEntity
 67
     1
  8
SLD-0
  6
CENTER
 62
     7
100
AcDbLine
 10
140.5731725822
 20
364.2076356187
 30
0.0
 11
140.5731725822
 21
322.959878199
 31
0.0
  0
LINE
  5
168
330
1B
100
AcDbEntity
 67
     1
  8
SLD-0
  6
CENTER
 62
     7
100
AcDbLine
 10
180.5731725822
 20
323.3723557732
 30
0.0
 11
180.5731725822
 21
353.0707411154
 31
0.0
  0
LINE
  5
169
330
1B
100
AcDbEntity
 67
     1
  8
SLD-0
  6
CENTER
 62
     7
100
AcDbLine
 10
100.5731725822
 20
322.5474006248
 30
0.0
 11
100.5731725822
 21
353.8956962638
 31
0.0
  0
LINE
  5
16A
330
1B
100
AcDbEntity
 67
     1
  8
SLD-0
  6
CENTER
 62
     7
100
AcDbLine
 10
59.3057079796
 20
303.0160264454
 30
0.0
 11
225.7193998023
 21
303.0160264454
 31
0.0
  0
LINE
  5
16B
330
1B
100
AcDbEntity
 67
     1
  8
SLD-0
  6
CENTER
 62
     7
100
AcDbLine
 10
146.6731725822
 20
117.1352987832
 30
0.0
 11
134.4731725822
 21
117.1352987832
 31
0.0
  0
LINE
  5
16C
330
1B
100
AcDbEntity
 67
     1
  8
SLD-0
  6
CENTER
 62
     7
100
AcDbLine
 10
140.5731725822
 20
123.2352987832
 30
0.0
 11
140.5731725822
 21
111.0352987832
 31
0.0
  0
LINE
  5
16D
330
1B
100
AcDbEntity
 67
     1
  8
SLD-0
  6
CENTER
 62
     7
100
AcDbLine
 10
109.7231725822
 20
317.0160264454
 30
0.0
 11
101.4231725822
 21
317.0160264454
 31
0.0
  0
LINE
  5
16E
330
1B
100
AcDbEntity
 67
     1
  8
SLD-0
  6
CENTER
 62
     7
100
AcDbLine
 10
105.5731725822
 20
321.1660264454
 30
0.0
 11
105.5731725822
 21
312.8660264454
 31
0.0
  0
LINE
  5
16F
330
1B
100
AcDbEntity
 67
     1
  8
SLD-0
  6
CENTER
 62
     7
100
AcDbLine
 10
179.7231725822
 20
317.0160264454
 30
0.0
 11
171.4231725822
 21
317.0160264454
 31
0.0
  0
LINE
  5
170
330
1B
100
AcDbEntity
 67
     1
  8
SLD-0
  6
CENTER
 62
     7
100
AcDbLine
 10
175.5731725822
 20
321.1660264454
 30
0.0
 11
175.5731725822
 21
312.8660264454
 31
0.0
  0
LINE
  5
171
330
1B
100
AcDbEntity
 67
     1
  8
SLD-0
  6
CENTER
 62
     7
100
AcDbLine
 10
402.2461690166
 20
222.1352987832
 30
0.0
 11
390.0461690166
 21
222.1352987832
 31
0.0
  0
LINE
  5
172
330
1B
100
AcDbEntity
 67
     1
  8
SLD-0
  6
CENTER
 62
     7
100
AcDbLine
 10
396.1461690166
 20
228.2352987832
 30
0.0
 11
396.1461690166
 21
216.0352987832
 31
0.0
  0
LINE
  5
173
330
1B
100
AcDbEntity
 67
     1
  8
SLD-0
  6
CENTER
 62
     7
100
AcDbLine
 10
410.8961690166
 20
222.1352987832
 30
0.0
 11
401.3961690166
 21
222.1352987832
 31
0.0
  0
LINE
  5
174
330
1B
100
AcDbEntity
 67
     1
  8
SLD-0
  6
CENTER
 62
     7
100
AcDbLine
 10
406.1461690166
 20
226.8852987832
 30
0.0
 11
406.1461690166
 21
217.3852987832
 31
0.0
  0
LINE
  5
175
330
1B
100
AcDbEntity
 67
     1
  8
SLD-0
  6
CENTER
 62
     7
100
AcDbLine
 10
502.2461690166
 20
222.1352987832
 30
0.0
 11
490.0461690166
 21
222.1352987832
 31
0.0
  0
LINE
  5
176
330
1B
100
AcDbEntity
 67
     1
  8
SLD-0
  6
CENTER
 62
     7
100
AcDbLine
 10
496.1461690166
 20
228.2352987832
 30
0.0
 11
496.1461690166
 21
216.0352987832
 31
0.0
  0
LINE
  5
177
330
1B
100
AcDbEntity
 67
     1
  8
SLD-0
  6
CENTER
 62
     7
100
AcDbLine
 10
490.8961690166
 20
222.1352987832
 30
0.0
 11
481.3961690166
 21
222.1352987832
 31
0.0
  0
LINE
  5
178
330
1B
100
AcDbEntity
 67
     1
  8
SLD-0
  6
CENTER
 62
     7
100
AcDbLine
 10
486.1461690166
 20
226.8852987832
 30
0.0
 11
486.1461690166
 21
217.3852987832
 31
0.0
  0
LINE
  5
179
330
1B
100
AcDbEntity
 67
     1
  8
SLD-0
  6
CENTER
 62
     7
100
AcDbLine
 10
450.3961690166
 20
117.1352987832
 30
0.0
 11
441.8961690166
 21
117.1352987832
 31
0.0
  0
LINE
  5
17A
330
1B
100
AcDbEntity
 67
     1
  8
SLD-0
  6
CENTER
 62
     7
100
AcDbLine
 10
446.1461690166
 20
121.3852987832
 30
0.0
 11
446.1461690166
 21
112.8852987832
 31
0.0
  0
LINE
  5
17B
330
1B
100
AcDbEntity
 67
     1
  8
SLD-0
  6
CENTER
 62
     7
100
AcDbLine
 10
314.7145111173
 20
222.1352987832
 30
0.0
 11
288.3145111173
 21
222.1352987832
 31
0.0
  0
LINE
  5
17C
330
1B
100
AcDbEntity
 67
     1
  8
SLD-0
  6
CENTER
 62
     7
100
AcDbLine
 10
301.5145111173
 20
235.3352987832
 30
0.0
 11
301.5145111173
 21
208.9352987832
 31
0.0
  0
LINE
  5
17D
330
1B
100
AcDbEntity
 67
     1
  8
SLD-0
  6
Continuous
 62
     7
100
AcDbLine
 10
514.4056697985
 20
42.7197415391
 30
0.0
 11
512.154552146
 21
42.7197415391
 31
0.0
  0
LINE
  5
17E
330
1B
100
AcDbEntity
 67
     1
  8
SLD-0
  6
Continuous
 62
     7
100
AcDbLine
 10
514.4056697985
 20
42.7197415391
 30
0.0
 11
514.4056697985
 21
36.9311529971
 31
0.0
  0
LINE
  5
17F
330
1B
100
AcDbEntity
 67
     1
  8
SLD-0
  6
Continuous
 62
     7
100
AcDbLine
 10
516.1744049174
 20
36.9311529971
 30
0.0
 11
514.4056697985
 21
36.9311529971
 31
0.0
  0
LINE
  5
180
330
1B
100
AcDbEntity
 67
     1
  8
SLD-0
  6
Continuous
 62
     7
100
AcDbLine
 10
516.1744049174
 20
42.7197415391
 30
0.0
 11
516.1744049174
 21
36.9311529971
 31
0.0
  0
LINE
  5
181
330
1B
100
AcDbEntity
 67
     1
  8
SLD-0
  6
Continuous
 62
     7
100
AcDbLine
 10
518.7471108326
 20
42.7197415391
 30
0.0
 11
516.1744049174
 21
42.7197415391
 31
0.0
  0
LINE
  5
182
330
1B
100
AcDbEntity
 67
     1
  8
SLD-0
  6
Continuous
 62
     7
100
AcDbLine
 10
518.7471108326
 20
42.7197415391
 30
0.0
 11
518.7471108326
 21
35.6448003188
 31
0.0
  0
LINE
  5
183
330
1B
100
AcDbEntity
 67
     1
  8
SLD-0
  6
Continuous
 62
     7
100
AcDbLine
 10
514.4056697985
 20
35.6448003188
 30
0.0
 11
518.7471108326
 21
35.6448003188
 31
0.0
  0
LINE
  5
184
330
1B
100
AcDbEntity
 67
     1
  8
SLD-0
  6
Continuous
 62
     7
100
AcDbLine
 10
514.4056697985
 20
35.6448003188
 30
0.0
 11
514.4056697985
 21
34.0368590985
 31
0.0
  0
LINE
  5
185
330
1B
100
AcDbEntity
 67
     1
  8
SLD-0
  6
Continuous
 62
     7
100
AcDbLine
 10
507.8131108326
 20
34.0368590985
 30
0.0
 11
514.4056697985
 21
34.0368590985
 31
0.0
  0
LINE
  5
186
330
1B
100
AcDbEntity
 67
     1
  8
SLD-0
  6
Continuous
 62
     7
100
AcDbLine
 10
507.8131108326
 20
42.7197415391
 30
0.0
 11
507.8131108326
 21
34.0368590985
 31
0.0
  0
LINE
  5
187
330
1B
100
AcDbEntity
 67
     1
  8
SLD-0
  6
Continuous
 62
     7
100
AcDbLine
 10
512.154552146
 20
42.7197415391
 30
0.0
 11
512.154552146
 21
35.6448003188
 31
0.0
  0
LINE
  5
188
330
1B
100
AcDbEntity
 67
     1
  8
SLD-0
  6
Continuous
 62
     7
100
AcDbLine
 10
510.3858167478
 20
42.7197415391
 30
0.0
 11
510.3858167478
 21
35.6448003188
 31
0.0
  0
LINE
  5
189
330
1B
100
AcDbEntity
 67
     1
  8
SLD-0
  6
Continuous
 62
     7
100
AcDbLine
 10
512.154552146
 20
35.6448003188
 30
0.0
 11
510.3858167478
 21
35.6448003188
 31
0.0
  0
LINE
  5
18A
330
1B
100
AcDbEntity
 67
     1
  8
SLD-0
  6
Continuous
 62
     7
100
AcDbLine
 10
510.3858167478
 20
42.7197415391
 30
0.0
 11
507.8131108326
 21
42.7197415391
 31
0.0
  0
LINE
  5
18B
330
1B
100
AcDbEntity
 67
     1
  8
SLD-0
  6
Continuous
 62
     7
100
AcDbLine
 10
411.885
 20
12.74475
 30
0.0
 11
411.885
 21
43.98475
 31
0.0
  0
LINE
  5
18C
330
1B
100
AcDbEntity
 67
     1
  8
SLD-0
  6
Continuous
 62
     7
370
    35
100
AcDbLine
 10
28.485
 20
12.74475
 30
0.0
 11
578.735
 21
12.74475
 31
0.0
  0
LINE
  5
18D
330
1B
100
AcDbEntity
 67
     1
  8
SLD-0
  6
Continuous
 62
     7
370
    35
100
AcDbLine
 10
28.485
 20
406.08475
 30
0.0
 11
28.485
 21
12.74475
 31
0.0
  0
LINE
  5
18E
330
1B
100
AcDbEntity
 67
     1
  8
SLD-0
  6
Continuous
 62
     7
370
    35
100
AcDbLine
 10
28.485
 20
43.98475
 30
0.0
 11
194.625
 21
43.98475
 31
0.0
  0
LINE
  5
18F
330
1B
100
AcDbEntity
 67
     1
  8
SLD-0
  6
Continuous
 62
     7
370
    35
100
AcDbLine
 10
578.735
 20
406.08475
 30
0.0
 11
578.735
 21
12.74475
 31
0.0
  0
LINE
  5
190
330
1B
100
AcDbEntity
 67
     1
  8
SLD-0
  6
Continuous
 62
     7
370
    35
100
AcDbLine
 10
194.625
 20
43.98475
 30
0.0
 11
578.735
 21
43.98475
 31
0.0
  0
LINE
  5
191
330
1B
100
AcDbEntity
 67
     1
  8
SLD-0
  6
Continuous
 62
     7
370
    35
100
AcDbLine
 10
28.485
 20
406.08475
 30
0.0
 11
578.735
 21
406.08475
 31
0.0
  0
LINE
  5
192
330
1B
100
AcDbEntity
 67
     1
  8
SLD-0
  6
Continuous
 62
     7
100
AcDbLine
 10
36.295
 20
28.36475
 30
0.0
 11
194.625
 21
28.36475
 31
0.0
  0
LINE
  5
193
330
1B
100
AcDbEntity
 67
     1
  8
SLD-0
  6
Continuous
 62
     7
100
AcDbLine
 10
68.955
 20
43.98475
 30
0.0
 11
68.955
 21
12.74475
 31
0.0
  0
LINE
  5
194
330
1B
100
AcDbEntity
 67
     1
  8
SLD-0
  6
Continuous
 62
     7
100
AcDbLine
 10
36.295
 20
36.17475
 30
0.0
 11
194.625
 21
36.17475
 31
0.0
  0
LINE
  5
195
330
1B
100
AcDbEntity
 67
     1
  8
SLD-0
  6
Continuous
 62
     7
100
AcDbLine
 10
47.655
 20
43.98475
 30
0.0
 11
47.655
 21
12.74475
 31
0.0
  0
LINE
  5
196
330
1B
100
AcDbEntity
 67
     1
  8
SLD-0
  6
Continuous
 62
     7
100
AcDbLine
 10
36.295
 20
43.98475
 30
0.0
 11
36.295
 21
12.74475
 31
0.0
  0
LINE
  5
197
330
1B
100
AcDbEntity
 67
     1
  8
SLD-0
  6
Continuous
 62
     7
100
AcDbLine
 10
36.295
 20
20.55475
 30
0.0
 11
194.625
 21
20.55475
 31
0.0
  0
LINE
  5
198
330
1B
100
AcDbEntity
 67
     1
  8
SLD-0
  6
Continuous
 62
     7
100
AcDbLine
 10
286.925
 20
43.98475
 30
0.0
 11
286.925
 21
12.74475
 31
0.0
  0
LINE
  5
199
330
1B
100
AcDbEntity
 67
     1
  8
SLD-0
  6
Continuous
 62
     7
100
AcDbLine
 10
279.825
 20
43.98475
 30
0.0
 11
279.825
 21
12.74475
 31
0.0
  0
LINE
  5
19A
330
1B
100
AcDbEntity
 67
     1
  8
SLD-0
  6
Continuous
 62
     7
100
AcDbLine
 10
201.725
 20
43.98475
 30
0.0
 11
201.725
 21
12.74475
 31
0.0
  0
LINE
  5
19B
330
1B
100
AcDbEntity
 67
     1
  8
SLD-0
  6
Continuous
 62
     7
100
AcDbLine
 10
194.625
 20
43.98475
 30
0.0
 11
194.625
 21
28.36475
 31
0.0
  0
LINE
  5
19C
330
1B
100
AcDbEntity
 67
     1
  8
SLD-0
  6
Continuous
 62
     7
100
AcDbLine
 10
83.155
 20
43.98475
 30
0.0
 11
83.155
 21
12.74475
 31
0.0
  0
LINE
  5
19D
330
1B
100
AcDbEntity
 67
     1
  8
SLD-0
  6
Continuous
 62
     7
100
AcDbLine
 10
326.685
 20
43.98475
 30
0.0
 11
326.685
 21
28.36475
 31
0.0
  0
LINE
  5
19E
330
1B
100
AcDbEntity
 67
     1
  8
SLD-0
  6
Continuous
 62
     7
100
AcDbLine
 10
333.785
 20
43.98475
 30
0.0
 11
333.785
 21
28.36475
 31
0.0
  0
LINE
  5
19F
330
1B
100
AcDbEntity
 67
     1
  8
SLD-0
  6
Continuous
 62
     7
100
AcDbLine
 10
355.085
 20
43.98475
 30
0.0
 11
355.085
 21
28.36475
 31
0.0
  0
LINE
  5
1A0
330
1B
100
AcDbEntity
 67
     1
  8
SLD-0
  6
Continuous
 62
     7
100
AcDbLine
 10
362.185
 20
43.98475
 30
0.0
 11
362.185
 21
28.36475
 31
0.0
  0
LINE
  5
1A1
330
1B
100
AcDbEntity
 67
     1
  8
SLD-0
  6
Continuous
 62
     7
100
AcDbLine
 10
418.985
 20
43.98475
 30
0.0
 11
418.985
 21
28.36475
 31
0.0
  0
LINE
  5
1A2
330
1B
100
AcDbEntity
 67
     1
  8
SLD-0
  6
Continuous
 62
     7
100
AcDbLine
 10
440.285
 20
43.98475
 30
0.0
 11
440.285
 21
12.74475
 31
0.0
  0
LINE
  5
1A3
330
1B
100
AcDbEntity
 67
     1
  8
SLD-0
  6
Continuous
 62
     7
100
AcDbLine
 10
461.585
 20
43.98475
 30
0.0
 11
461.585
 21
12.74475
 31
0.0
  0
LINE
  5
1A4
330
1B
100
AcDbEntity
 67
     1
  8
SLD-0
  6
Continuous
 62
     7
100
AcDbLine
 10
482.885
 20
43.98475
 30
0.0
 11
482.885
 21
12.74475
 31
0.0
  0
LINE
  5
1A5
330
1B
100
AcDbEntity
 67
     1
  8
SLD-0
  6
Continuous
 62
     7
100
AcDbLine
 10
504.185
 20
43.98475
 30
0.0
 11
504.185
 21
12.74475
 31
0.0
  0
LINE
  5
1A6
330
1B
100
AcDbEntity
 67
     1
  8
SLD-0
  6
Continuous
 62
     7
100
AcDbLine
 10
504.185
 20
28.36475
 30
0.0
 11
578.735
 21
28.36475
 31
0.0
  0
LINE
  5
1A7
330
1B
100
AcDbEntity
 67
     1
  8
SLD-0
  6
Continuous
 62
     7
100
AcDbLine
 10
511.285
 20
28.36475
 30
0.0
 11
511.285
 21
12.74475
 31
0.0
  0
LINE
  5
1A8
330
1B
100
AcDbEntity
 67
     1
  8
SLD-0
  6
Continuous
 62
     7
100
AcDbLine
 10
440.285
 20
36.88475
 30
0.0
 11
504.185
 21
36.88475
 31
0.0
  0
LINE
  5
1A9
330
1B
100
AcDbEntity
 67
     1
  8
SLD-0
  6
Continuous
 62
     7
100
AcDbLine
 10
194.625
 20
28.36475
 30
0.0
 11
440.285
 21
28.36475
 31
0.0
  0
LINE
  5
1AA
330
1B
100
AcDbEntity
 67
     1
  8
SLD-0
  6
Continuous
 62
     7
100
AcDbLine
 10
194.625
 20
28.36475
 30
0.0
 11
194.625
 21
12.74475
 31
0.0
  0
LINE
  5
1AB
330
1B
100
AcDbEntity
 67
     1
  8
SLD-0
  6
Continuous
 62
     7
100
AcDbLine
 10
41.3873265892
 20
27.1115576482
 30
0.0
 11
38.3373265892
 21
21.8288026851
 31
0.0
  0
LINE
  5
1AC
330
1B
100
AcDbEntity
 67
     1
  8
SLD-0
  6
Continuous
 62
     7
100
AcDbLine
 10
38.3373265892
 20
21.8288026851
 30
0.0
 11
44.4373265892
 21
21.8288026851
 31
0.0
  0
LINE
  5
1AD
330
1B
100
AcDbEntity
 67
     1
  8
SLD-0
  6
Continuous
 62
     7
100
AcDbLine
 10
44.4373265892
 20
21.8288026851
 30
0.0
 11
41.3873265892
 21
27.1115576482
 31
0.0
  0
LINE
  5
1AE
330
1B
100
AcDbEntity
 67
     1
  8
SLD-0
  6
Continuous
 62
     7
100
AcDbLine
 10
41.3440309427
 20
34.5208790554
 30
0.0
 11
38.2940309427
 21
29.2381240923
 31
0.0
  0
LINE
  5
1AF
330
1B
100
AcDbEntity
 67
     1
  8
SLD-0
  6
Continuous
 62
     7
100
AcDbLine
 10
38.2940309427
 20
29.2381240923
 30
0.0
 11
44.3940309427
 21
29.2381240923
 31
0.0
  0
LINE
  5
1B0
330
1B
100
AcDbEntity
 67
     1
  8
SLD-0
  6
Continuous
 62
     7
100
AcDbLine
 10
44.3940309427
 20
29.2381240923
 30
0.0
 11
41.3440309427
 21
34.5208790554
 31
0.0
  0
LINE
  5
1B1
330
1B
100
AcDbEntity
 67
     1
  8
SLD-0
  6
Continuous
 62
     7
100
AcDbLine
 10
41.1834490337
 20
42.881404091
 30
0.0
 11
38.1334490337
 21
37.5986491279
 31
0.0
  0
LINE
  5
1B2
330
1B
100
AcDbEntity
 67
     1
  8
SLD-0
  6
Continuous
 62
     7
100
AcDbLine
 10
38.1334490337
 20
37.5986491279
 30
0.0
 11
44.2334490337
 21
37.5986491279
 31
0.0
  0
LINE
  5
1B3
330
1B
100
AcDbEntity
 67
     1
  8
SLD-0
  6
Continuous
 62
     7
100
AcDbLine
 10
44.2334490337
 20
37.5986491279
 30
0.0
 11
41.1834490337
 21
42.881404091
 31
0.0
  0
LINE
  5
1B4
330
1B
100
AcDbEntity
 67
     1
  8
SLD-0
  6
Continuous
 62
     7
100
AcDbLine
 10
173.325
 20
43.98475
 30
0.0
 11
173.325
 21
12.74475
 31
0.0
  0
LINE
  5
1B5
330
1B
100
AcDbEntity
 67
     1
  8
SLD-0
  6
Continuous
 62
     7
100
AcDbLine
 10
141.0881728387
 20
117.6502979384
 30
0.0
 11
141.0881728387
 21
117.6771675522
 31
0.0
  0
LINE
  5
1B6
330
1B
100
AcDbEntity
 67
     1
  8
SLD-0
  6
Continuous
 62
     7
100
AcDbLine
 10
141.0881728387
 20
117.6771675522
 30
0.0
 11
141.0881728387
 21
117.7040380711
 31
0.0
  0
LINE
  5
1B7
330
1B
100
AcDbEntity
 67
     1
  8
SLD-0
  6
Continuous
 62
     7
100
AcDbLine
 10
141.0881728387
 20
117.7040380711
 30
0.0
 11
141.0881728387
 21
117.73090859
 31
0.0
  0
LINE
  5
1B8
330
1B
100
AcDbEntity
 67
     1
  8
SLD-0
  6
Continuous
 62
     7
100
AcDbLine
 10
141.0881728387
 20
117.73090859
 30
0.0
 11
141.0881728387
 21
117.7577791089
 31
0.0
  0
LINE
  5
1B9
330
1B
100
AcDbEntity
 67
     1
  8
SLD-0
  6
Continuous
 62
     7
100
AcDbLine
 10
141.0881728387
 20
117.7577791089
 30
0.0
 11
141.0881728387
 21
117.7846496279
 31
0.0
  0
LINE
  5
1BA
330
1B
100
AcDbEntity
 67
     1
  8
SLD-0
  6
Continuous
 62
     7
100
AcDbLine
 10
141.0881728387
 20
117.7846496279
 30
0.0
 11
141.0881728387
 21
117.8115201468
 31
0.0
  0
LINE
  5
1BB
330
1B
100
AcDbEntity
 67
     1
  8
SLD-0
  6
Continuous
 62
     7
100
AcDbLine
 10
141.2493948201
 20
117.6502979384
 30
0.0
 11
141.168784282
 21
117.6502979384
 31
0.0
  0
LINE
  5
1BC
330
1B
100
AcDbEntity
 67
     1
  8
SLD-0
  6
Continuous
 62
     7
100
AcDbLine
 10
141.168784282
 20
117.6502979384
 30
0.0
 11
141.0881728387
 21
117.6502979384
 31
0.0
  0
LINE
  5
1BD
330
1B
100
AcDbEntity
 67
     1
  8
SLD-0
  6
Continuous
 62
     7
100
AcDbLine
 10
140.0581738428
 20
117.8115197994
 30
0.0
 11
140.0581738428
 21
117.7309082426
 31
0.0
  0
LINE
  5
1BE
330
1B
100
AcDbEntity
 67
     1
  8
SLD-0
  6
Continuous
 62
     7
100
AcDbLine
 10
140.0581738428
 20
117.7309082426
 30
0.0
 11
140.0581738428
 21
117.6502970701
 31
0.0
  0
LINE
  5
1BF
330
1B
100
AcDbEntity
 67
     1
  8
SLD-0
  6
Continuous
 62
     7
100
AcDbLine
 10
140.0581738428
 20
117.6502970701
 30
0.0
 11
140.0313023813
 21
117.6502970701
 31
0.0
  0
LINE
  5
1C0
330
1B
100
AcDbEntity
 67
     1
  8
SLD-0
  6
Continuous
 62
     7
100
AcDbLine
 10
140.0313023813
 20
117.6502970701
 30
0.0
 11
140.0044322019
 21
117.6502970701
 31
0.0
  0
LINE
  5
1C1
330
1B
100
AcDbEntity
 67
     1
  8
SLD-0
  6
Continuous
 62
     7
100
AcDbLine
 10
140.0044322019
 20
117.6502970701
 30
0.0
 11
139.9775620225
 21
117.6502970701
 31
0.0
  0
LINE
  5
1C2
330
1B
100
AcDbEntity
 67
     1
  8
SLD-0
  6
Continuous
 62
     7
100
AcDbLine
 10
139.9775620225
 20
117.6502970701
 30
0.0
 11
139.9506918431
 21
117.6502970701
 31
0.0
  0
LINE
  5
1C3
330
1B
100
AcDbEntity
 67
     1
  8
SLD-0
  6
Continuous
 62
     7
100
AcDbLine
 10
139.9506918431
 20
117.6502970701
 30
0.0
 11
139.9238216637
 21
117.6502970701
 31
0.0
  0
LINE
  5
1C4
330
1B
100
AcDbEntity
 67
     1
  8
SLD-0
  6
Continuous
 62
     7
100
AcDbLine
 10
139.9238216637
 20
117.6502970701
 30
0.0
 11
139.8969514844
 21
117.6502970701
 31
0.0
  0
LINE
  5
1C5
330
1B
100
AcDbEntity
 67
     1
  8
SLD-0
  6
Continuous
 62
     7
100
AcDbLine
 10
140.0581736639
 20
116.6202990061
 30
0.0
 11
140.0581736639
 21
116.5934295904
 31
0.0
  0
LINE
  5
1C6
330
1B
100
AcDbEntity
 67
     1
  8
SLD-0
  6
Continuous
 62
     7
100
AcDbLine
 10
140.0581736639
 20
116.5934295904
 30
0.0
 11
140.0581736639
 21
116.5665590715
 31
0.0
  0
LINE
  5
1C7
330
1B
100
AcDbEntity
 67
     1
  8
SLD-0
  6
Continuous
 62
     7
100
AcDbLine
 10
140.0581736639
 20
116.5665590715
 30
0.0
 11
140.0581736639
 21
116.5396885526
 31
0.0
  0
LINE
  5
1C8
330
1B
100
AcDbEntity
 67
     1
  8
SLD-0
  6
Continuous
 62
     7
100
AcDbLine
 10
140.0581736639
 20
116.5396885526
 30
0.0
 11
140.0581736639
 21
116.5128180337
 31
0.0
  0
LINE
  5
1C9
330
1B
100
AcDbEntity
 67
     1
  8
SLD-0
  6
Continuous
 62
     7
100
AcDbLine
 10
140.0581736639
 20
116.5128180337
 30
0.0
 11
140.0581736639
 21
116.4859475147
 31
0.0
  0
LINE
  5
1CA
330
1B
100
AcDbEntity
 67
     1
  8
SLD-0
  6
Continuous
 62
     7
100
AcDbLine
 10
140.0581736639
 20
116.4859475147
 30
0.0
 11
140.0581736639
 21
116.4590769958
 31
0.0
  0
LINE
  5
1CB
330
1B
100
AcDbEntity
 67
     1
  8
SLD-0
  6
Continuous
 62
     7
100
AcDbLine
 10
139.8969514844
 20
116.6202990061
 30
0.0
 11
139.9775620225
 21
116.6202990061
 31
0.0
  0
LINE
  5
1CC
330
1B
100
AcDbEntity
 67
     1
  8
SLD-0
  6
Continuous
 62
     7
100
AcDbLine
 10
139.9775620225
 20
116.6202990061
 30
0.0
 11
140.0581736639
 21
116.6202990061
 31
0.0
  0
LINE
  5
1CD
330
1B
100
AcDbEntity
 67
     1
  8
SLD-0
  6
Continuous
 62
     7
100
AcDbLine
 10
141.088173707
 20
116.6202986559
 30
0.0
 11
141.1150444955
 21
116.6202986559
 31
0.0
  0
LINE
  5
1CE
330
1B
100
AcDbEntity
 67
     1
  8
SLD-0
  6
Continuous
 62
     7
100
AcDbLine
 10
141.1150444955
 20
116.6202986559
 30
0.0
 11
141.1419146749
 21
116.6202986559
 31
0.0
  0
LINE
  5
1CF
330
1B
100
AcDbEntity
 67
     1
  8
SLD-0
  6
Continuous
 62
     7
100
AcDbLine
 10
141.1419146749
 20
116.6202986559
 30
0.0
 11
141.1687848542
 21
116.6202986559
 31
0.0
  0
LINE
  5
1D0
330
1B
100
AcDbEntity
 67
     1
  8
SLD-0
  6
Continuous
 62
     7
100
AcDbLine
 10
141.1687848542
 20
116.6202986559
 30
0.0
 11
141.1956550336
 21
116.6202986559
 31
0.0
  0
LINE
  5
1D1
330
1B
100
AcDbEntity
 67
     1
  8
SLD-0
  6
Continuous
 62
     7
100
AcDbLine
 10
141.1956550336
 20
116.6202986559
 30
0.0
 11
141.222525213
 21
116.6202986559
 31
0.0
  0
LINE
  5
1D2
330
1B
100
AcDbEntity
 67
     1
  8
SLD-0
  6
Continuous
 62
     7
100
AcDbLine
 10
141.222525213
 20
116.6202986559
 30
0.0
 11
141.2493953924
 21
116.6202986559
 31
0.0
  0
LINE
  5
1D3
330
1B
100
AcDbEntity
 67
     1
  8
SLD-0
  6
Continuous
 62
     7
100
AcDbLine
 10
141.088173707
 20
116.4590769958
 30
0.0
 11
141.088173707
 21
116.5396885526
 31
0.0
  0
LINE
  5
1D4
330
1B
100
AcDbEntity
 67
     1
  8
SLD-0
  6
Continuous
 62
     7
100
AcDbLine
 10
141.088173707
 20
116.5396885526
 30
0.0
 11
141.088173707
 21
116.6202986559
 31
0.0
  0
LINE
  5
1D5
330
1B
100
AcDbEntity
 67
     1
  8
SLD-0
  6
Continuous
 62
     7
100
AcDbLine
 10
373.9196744659
 20
144.1352987384
 30
0.0
 11
375.0598368146
 21
142.3795936352
 31
0.0
  0
LINE
  5
1D6
330
1B
100
AcDbEntity
 67
     1
  8
SLD-0
  6
Continuous
 62
     7
100
AcDbLine
 10
375.0598368146
 20
142.3795936352
 30
0.0
 11
376.1461687186
 21
141.0139096623
 31
0.0
  0
LINE
  5
1D7
330
1B
100
AcDbEntity
 67
     1
  8
SLD-0
  6
Continuous
 62
     7
100
AcDbLine
 10
396.6611672442
 20
222.6502975171
 30
0.0
 11
396.6611672442
 21
222.6771679766
 31
0.0
  0
LINE
  5
1D8
330
1B
100
AcDbEntity
 67
     1
  8
SLD-0
  6
Continuous
 62
     7
100
AcDbLine
 10
396.6611672442
 20
222.6771679766
 30
0.0
 11
396.6611672442
 21
222.7040384956
 31
0.0
  0
LINE
  5
1D9
330
1B
100
AcDbEntity
 67
     1
  8
SLD-0
  6
Continuous
 62
     7
100
AcDbLine
 10
396.6611672442
 20
222.7040384956
 30
0.0
 11
396.6611672442
 21
222.7309090145
 31
0.0
  0
LINE
  5
1DA
330
1B
100
AcDbEntity
 67
     1
  8
SLD-0
  6
Continuous
 62
     7
100
AcDbLine
 10
396.6611672442
 20
222.7309090145
 30
0.0
 11
396.6611672442
 21
222.7577795334
 31
0.0
  0
LINE
  5
1DB
330
1B
100
AcDbEntity
 67
     1
  8
SLD-0
  6
Continuous
 62
     7
100
AcDbLine
 10
396.6611672442
 20
222.7577795334
 30
0.0
 11
396.6611672442
 21
222.7846500523
 31
0.0
  0
LINE
  5
1DC
330
1B
100
AcDbEntity
 67
     1
  8
SLD-0
  6
Continuous
 62
     7
100
AcDbLine
 10
396.6611672442
 20
222.7846500523
 30
0.0
 11
396.6611672442
 21
222.8115205713
 31
0.0
  0
LINE
  5
1DD
330
1B
100
AcDbEntity
 67
     1
  8
SLD-0
  6
Continuous
 62
     7
100
AcDbLine
 10
396.8223904171
 20
222.6502975171
 30
0.0
 11
396.7417788604
 21
222.6502975171
 31
0.0
  0
LINE
  5
1DE
330
1B
100
AcDbEntity
 67
     1
  8
SLD-0
  6
Continuous
 62
     7
100
AcDbLine
 10
396.7417788604
 20
222.6502975171
 30
0.0
 11
396.6611672442
 21
222.6502975171
 31
0.0
  0
LINE
  5
1DF
330
1B
100
AcDbEntity
 67
     1
  8
SLD-0
  6
Continuous
 62
     7
100
AcDbLine
 10
396.6611672442
 20
221.4590762802
 30
0.0
 11
396.6611672442
 21
221.5396878369
 31
0.0
  0
LINE
  5
1E0
330
1B
100
AcDbEntity
 67
     1
  8
SLD-0
  6
Continuous
 62
     7
100
AcDbLine
 10
396.6611672442
 20
221.5396878369
 30
0.0
 11
396.6611672442
 21
221.6202993007
 31
0.0
  0
LINE
  5
1E1
330
1B
100
AcDbEntity
 67
     1
  8
SLD-0
  6
Continuous
 62
     7
100
AcDbLine
 10
396.6611672442
 20
221.6202993007
 30
0.0
 11
396.6880379551
 21
221.6202993007
 31
0.0
  0
LINE
  5
1E2
330
1B
100
AcDbEntity
 67
     1
  8
SLD-0
  6
Continuous
 62
     7
100
AcDbLine
 10
396.6880379551
 20
221.6202993007
 30
0.0
 11
396.7149084741
 21
221.6202993007
 31
0.0
  0
LINE
  5
1E3
330
1B
100
AcDbEntity
 67
     1
  8
SLD-0
  6
Continuous
 62
     7
100
AcDbLine
 10
396.7149084741
 20
221.6202993007
 30
0.0
 11
396.741778993
 21
221.6202993007
 31
0.0
  0
LINE
  5
1E4
330
1B
100
AcDbEntity
 67
     1
  8
SLD-0
  6
Continuous
 62
     7
100
AcDbLine
 10
396.741778993
 20
221.6202993007
 30
0.0
 11
396.7686495119
 21
221.6202993007
 31
0.0
  0
LINE
  5
1E5
330
1B
100
AcDbEntity
 67
     1
  8
SLD-0
  6
Continuous
 62
     7
100
AcDbLine
 10
396.7686495119
 20
221.6202993007
 30
0.0
 11
396.7955200308
 21
221.6202993007
 31
0.0
  0
LINE
  5
1E6
330
1B
100
AcDbEntity
 67
     1
  8
SLD-0
  6
Continuous
 62
     7
100
AcDbLine
 10
396.7955200308
 20
221.6202993007
 30
0.0
 11
396.8223905497
 21
221.6202993007
 31
0.0
  0
LINE
  5
1E7
330
1B
100
AcDbEntity
 67
     1
  8
SLD-0
  6
Continuous
 62
     7
100
AcDbLine
 10
395.6311690928
 20
222.6502975171
 30
0.0
 11
395.6042987206
 21
222.6502975171
 31
0.0
  0
LINE
  5
1E8
330
1B
100
AcDbEntity
 67
     1
  8
SLD-0
  6
Continuous
 62
     7
100
AcDbLine
 10
395.6042987206
 20
222.6502975171
 30
0.0
 11
395.5774282017
 21
222.6502975171
 31
0.0
  0
LINE
  5
1E9
330
1B
100
AcDbEntity
 67
     1
  8
SLD-0
  6
Continuous
 62
     7
100
AcDbLine
 10
395.5774282017
 20
222.6502975171
 30
0.0
 11
395.5505576828
 21
222.6502975171
 31
0.0
  0
LINE
  5
1EA
330
1B
100
AcDbEntity
 67
     1
  8
SLD-0
  6
Continuous
 62
     7
100
AcDbLine
 10
395.5505576828
 20
222.6502975171
 30
0.0
 11
395.5236871638
 21
222.6502975171
 31
0.0
  0
LINE
  5
1EB
330
1B
100
AcDbEntity
 67
     1
  8
SLD-0
  6
Continuous
 62
     7
100
AcDbLine
 10
395.5236871638
 20
222.6502975171
 30
0.0
 11
395.4968166449
 21
222.6502975171
 31
0.0
  0
LINE
  5
1EC
330
1B
100
AcDbEntity
 67
     1
  8
SLD-0
  6
Continuous
 62
     7
100
AcDbLine
 10
395.4968166449
 20
222.6502975171
 30
0.0
 11
395.469946126
 21
222.6502975171
 31
0.0
  0
LINE
  5
1ED
330
1B
100
AcDbEntity
 67
     1
  8
SLD-0
  6
Continuous
 62
     7
100
AcDbLine
 10
395.6311690928
 20
222.8115207534
 30
0.0
 11
395.6311690928
 21
222.7309091966
 31
0.0
  0
LINE
  5
1EE
330
1B
100
AcDbEntity
 67
     1
  8
SLD-0
  6
Continuous
 62
     7
100
AcDbLine
 10
395.6311690928
 20
222.7309091966
 30
0.0
 11
395.6311690928
 21
222.6502975171
 31
0.0
  0
LINE
  5
1EF
330
1B
100
AcDbEntity
 67
     1
  8
SLD-0
  6
Continuous
 62
     7
100
AcDbLine
 10
395.6311691801
 20
221.6202994531
 30
0.0
 11
395.6311691801
 21
221.5934288748
 31
0.0
  0
LINE
  5
1F0
330
1B
100
AcDbEntity
 67
     1
  8
SLD-0
  6
Continuous
 62
     7
100
AcDbLine
 10
395.6311691801
 20
221.5934288748
 30
0.0
 11
395.6311691801
 21
221.5665583559
 31
0.0
  0
LINE
  5
1F1
330
1B
100
AcDbEntity
 67
     1
  8
SLD-0
  6
Continuous
 62
     7
100
AcDbLine
 10
395.6311691801
 20
221.5665583559
 30
0.0
 11
395.6311691801
 21
221.5396878369
 31
0.0
  0
LINE
  5
1F2
330
1B
100
AcDbEntity
 67
     1
  8
SLD-0
  6
Continuous
 62
     7
100
AcDbLine
 10
395.6311691801
 20
221.5396878369
 30
0.0
 11
395.6311691801
 21
221.512817318
 31
0.0
  0
LINE
  5
1F3
330
1B
100
AcDbEntity
 67
     1
  8
SLD-0
  6
Continuous
 62
     7
100
AcDbLine
 10
395.6311691801
 20
221.512817318
 30
0.0
 11
395.6311691801
 21
221.4859467991
 31
0.0
  0
LINE
  5
1F4
330
1B
100
AcDbEntity
 67
     1
  8
SLD-0
  6
Continuous
 62
     7
100
AcDbLine
 10
395.6311691801
 20
221.4859467991
 30
0.0
 11
395.6311691801
 21
221.4590762802
 31
0.0
  0
LINE
  5
1F5
330
1B
100
AcDbEntity
 67
     1
  8
SLD-0
  6
Continuous
 62
     7
100
AcDbLine
 10
395.469946126
 20
221.6202994531
 30
0.0
 11
395.5505576828
 21
221.6202994531
 31
0.0
  0
LINE
  5
1F6
330
1B
100
AcDbEntity
 67
     1
  8
SLD-0
  6
Continuous
 62
     7
100
AcDbLine
 10
395.5505576828
 20
221.6202994531
 30
0.0
 11
395.6311691801
 21
221.6202994531
 31
0.0
  0
LINE
  5
1F7
330
1B
100
AcDbEntity
 67
     1
  8
SLD-0
  6
Continuous
 62
     7
100
AcDbLine
 10
496.6611689323
 20
221.4590764782
 30
0.0
 11
496.6611689323
 21
221.539688035
 31
0.0
  0
LINE
  5
1F8
330
1B
100
AcDbEntity
 67
     1
  8
SLD-0
  6
Continuous
 62
     7
100
AcDbLine
 10
496.6611689323
 20
221.539688035
 30
0.0
 11
496.6611689323
 21
221.6202995803
 31
0.0
  0
LINE
  5
1F9
330
1B
100
AcDbEntity
 67
     1
  8
SLD-0
  6
Continuous
 62
     7
100
AcDbLine
 10
496.6611689323
 20
221.6202995803
 30
0.0
 11
496.6880393029
 21
221.6202995803
 31
0.0
  0
LINE
  5
1FA
330
1B
100
AcDbEntity
 67
     1
  8
SLD-0
  6
Continuous
 62
     7
100
AcDbLine
 10
496.6880393029
 20
221.6202995803
 30
0.0
 11
496.7149098219
 21
221.6202995803
 31
0.0
  0
LINE
  5
1FB
330
1B
100
AcDbEntity
 67
     1
  8
SLD-0
  6
Continuous
 62
     7
100
AcDbLine
 10
496.7149098219
 20
221.6202995803
 30
0.0
 11
496.7417803408
 21
221.6202995803
 31
0.0
  0
LINE
  5
1FC
330
1B
100
AcDbEntity
 67
     1
  8
SLD-0
  6
Continuous
 62
     7
100
AcDbLine
 10
496.7417803408
 20
221.6202995803
 30
0.0
 11
496.7686508597
 21
221.6202995803
 31
0.0
  0
LINE
  5
1FD
330
1B
100
AcDbEntity
 67
     1
  8
SLD-0
  6
Continuous
 62
     7
100
AcDbLine
 10
496.7686508597
 20
221.6202995803
 30
0.0
 11
496.7955213786
 21
221.6202995803
 31
0.0
  0
LINE
  5
1FE
330
1B
100
AcDbEntity
 67
     1
  8
SLD-0
  6
Continuous
 62
     7
100
AcDbLine
 10
496.7955213786
 20
221.6202995803
 30
0.0
 11
496.8223918975
 21
221.6202995803
 31
0.0
  0
LINE
  5
1FF
330
1B
100
AcDbEntity
 67
     1
  8
SLD-0
  6
Continuous
 62
     7
100
AcDbLine
 10
496.6611689323
 20
222.6502975171
 30
0.0
 11
496.6611689323
 21
222.6771681747
 31
0.0
  0
LINE
  5
200
330
1B
100
AcDbEntity
 67
     1
  8
SLD-0
  6
Continuous
 62
     7
100
AcDbLine
 10
496.6611689323
 20
222.6771681747
 30
0.0
 11
496.6611689323
 21
222.7040386936
 31
0.0
  0
LINE
  5
201
330
1B
100
AcDbEntity
 67
     1
  8
SLD-0
  6
Continuous
 62
     7
100
AcDbLine
 10
496.6611689323
 20
222.7040386936
 30
0.0
 11
496.6611689323
 21
222.7309092125
 31
0.0
  0
LINE
  5
202
330
1B
100
AcDbEntity
 67
     1
  8
SLD-0
  6
Continuous
 62
     7
100
AcDbLine
 10
496.6611689323
 20
222.7309092125
 30
0.0
 11
496.6611689323
 21
222.7577797315
 31
0.0
  0
LINE
  5
203
330
1B
100
AcDbEntity
 67
     1
  8
SLD-0
  6
Continuous
 62
     7
100
AcDbLine
 10
496.6611689323
 20
222.7577797315
 30
0.0
 11
496.6611689323
 21
222.7846502504
 31
0.0
  0
LINE
  5
204
330
1B
100
AcDbEntity
 67
     1
  8
SLD-0
  6
Continuous
 62
     7
100
AcDbLine
 10
496.6611689323
 20
222.7846502504
 30
0.0
 11
496.6611689323
 21
222.8115207693
 31
0.0
  0
LINE
  5
205
330
1B
100
AcDbEntity
 67
     1
  8
SLD-0
  6
Continuous
 62
     7
100
AcDbLine
 10
496.8223919072
 20
222.6502975171
 30
0.0
 11
496.7417803505
 21
222.6502975171
 31
0.0
  0
LINE
  5
206
330
1B
100
AcDbEntity
 67
     1
  8
SLD-0
  6
Continuous
 62
     7
100
AcDbLine
 10
496.7417803505
 20
222.6502975171
 30
0.0
 11
496.6611689323
 21
222.6502975171
 31
0.0
  0
LINE
  5
207
330
1B
100
AcDbEntity
 67
     1
  8
SLD-0
  6
Continuous
 62
     7
100
AcDbLine
 10
495.6311708438
 20
222.6502975171
 30
0.0
 11
495.6043002107
 21
222.6502975171
 31
0.0
  0
LINE
  5
208
330
1B
100
AcDbEntity
 67
     1
  8
SLD-0
  6
Continuous
 62
     7
100
AcDbLine
 10
495.6043002107
 20
222.6502975171
 30
0.0
 11
495.5774296918
 21
222.6502975171
 31
0.0
  0
LINE
  5
209
330
1B
100
AcDbEntity
 67
     1
  8
SLD-0
  6
Continuous
 62
     7
100
AcDbLine
 10
495.5774296918
 20
222.6502975171
 30
0.0
 11
495.5505591729
 21
222.6502975171
 31
0.0
  0
LINE
  5
20A
330
1B
100
AcDbEntity
 67
     1
  8
SLD-0
  6
Continuous
 62
     7
100
AcDbLine
 10
495.5505591729
 20
222.6502975171
 30
0.0
 11
495.5236886539
 21
222.6502975171
 31
0.0
  0
LINE
  5
20B
330
1B
100
AcDbEntity
 67
     1
  8
SLD-0
  6
Continuous
 62
     7
100
AcDbLine
 10
495.5236886539
 20
222.6502975171
 30
0.0
 11
495.496818135
 21
222.6502975171
 31
0.0
  0
LINE
  5
20C
330
1B
100
AcDbEntity
 67
     1
  8
SLD-0
  6
Continuous
 62
     7
100
AcDbLine
 10
495.496818135
 20
222.6502975171
 30
0.0
 11
495.4699476161
 21
222.6502975171
 31
0.0
  0
LINE
  5
20D
330
1B
100
AcDbEntity
 67
     1
  8
SLD-0
  6
Continuous
 62
     7
100
AcDbLine
 10
495.6311708438
 20
222.8115206441
 30
0.0
 11
495.6311708438
 21
222.7309090873
 31
0.0
  0
LINE
  5
20E
330
1B
100
AcDbEntity
 67
     1
  8
SLD-0
  6
Continuous
 62
     7
100
AcDbLine
 10
495.6311708438
 20
222.7309090873
 30
0.0
 11
495.6311708438
 21
222.6502975171
 31
0.0
  0
LINE
  5
20F
330
1B
100
AcDbEntity
 67
     1
  8
SLD-0
  6
Continuous
 62
     7
100
AcDbLine
 10
495.6311708682
 20
221.6202994531
 30
0.0
 11
495.6311708682
 21
221.5934290728
 31
0.0
  0
LINE
  5
210
330
1B
100
AcDbEntity
 67
     1
  8
SLD-0
  6
Continuous
 62
     7
100
AcDbLine
 10
495.6311708682
 20
221.5934290728
 30
0.0
 11
495.6311708682
 21
221.5665585539
 31
0.0
  0
LINE
  5
211
330
1B
100
AcDbEntity
 67
     1
  8
SLD-0
  6
Continuous
 62
     7
100
AcDbLine
 10
495.6311708682
 20
221.5665585539
 30
0.0
 11
495.6311708682
 21
221.539688035
 31
0.0
  0
LINE
  5
212
330
1B
100
AcDbEntity
 67
     1
  8
SLD-0
  6
Continuous
 62
     7
100
AcDbLine
 10
495.6311708682
 20
221.539688035
 30
0.0
 11
495.6311708682
 21
221.5128175161
 31
0.0
  0
LINE
  5
213
330
1B
100
AcDbEntity
 67
     1
  8
SLD-0
  6
Continuous
 62
     7
100
AcDbLine
 10
495.6311708682
 20
221.5128175161
 30
0.0
 11
495.6311708682
 21
221.4859469971
 31
0.0
  0
LINE
  5
214
330
1B
100
AcDbEntity
 67
     1
  8
SLD-0
  6
Continuous
 62
     7
100
AcDbLine
 10
495.6311708682
 20
221.4859469971
 30
0.0
 11
495.6311708682
 21
221.4590764782
 31
0.0
  0
LINE
  5
215
330
1B
100
AcDbEntity
 67
     1
  8
SLD-0
  6
Continuous
 62
     7
100
AcDbLine
 10
495.4699476161
 20
221.6202994531
 30
0.0
 11
495.5505591729
 21
221.6202994531
 31
0.0
  0
LINE
  5
216
330
1B
100
AcDbEntity
 67
     1
  8
SLD-0
  6
Continuous
 62
     7
100
AcDbLine
 10
495.5505591729
 20
221.6202994531
 30
0.0
 11
495.6311708682
 21
221.6202994531
 31
0.0
  0
LINE
  5
217
330
1B
100
AcDbEntity
 67
     1
  8
SLD-0
  6
Continuous
 62
     7
100
AcDbLine
 10
384.1752361532
 20
107.4188803223
 30
0.0
 11
384.2125309072
 21
107.3993061848
 31
0.0
  0
LINE
  5
218
330
1B
100
AcDbEntity
 67
     1
  8
SLD-0
  6
Continuous
 62
     7
100
AcDbLine
 10
384.2125309072
 20
107.3993061848
 30
0.0
 11
384.2499163031
 21
107.3799086076
 31
0.0
  0
LINE
  5
219
330
1B
100
AcDbEntity
 67
     1
  8
SLD-0
  6
Continuous
 62
     7
100
AcDbLine
 10
384.2499163031
 20
107.3799086076
 30
0.0
 11
384.2877926732
 21
107.3614976703
 31
0.0
  0
LINE
  5
21A
330
1B
100
AcDbEntity
 67
     1
  8
SLD-0
  6
Continuous
 62
     7
100
AcDbLine
 10
384.2877926732
 20
107.3614976703
 30
0.0
 11
384.3260025601
 21
107.3437753677
 31
0.0
  0
LINE
  5
21B
330
1B
100
AcDbEntity
 67
     1
  8
SLD-0
  6
Continuous
 62
     7
100
AcDbLine
 10
384.3260025601
 20
107.3437753677
 30
0.0
 11
384.3643974699
 21
107.3264559601
 31
0.0
  0
LINE
  5
21C
330
1B
100
AcDbEntity
 67
     1
  8
SLD-0
  6
Continuous
 62
     7
100
AcDbLine
 10
384.3643974699
 20
107.3264559601
 30
0.0
 11
384.4030273946
 21
107.3096740924
 31
0.0
  0
LINE
  5
21D
330
1B
100
AcDbEntity
 67
     1
  8
SLD-0
  6
Continuous
 62
     7
100
AcDbLine
 10
384.4030273946
 20
107.3096740924
 30
0.0
 11
384.4419255848
 21
107.2935234909
 31
0.0
  0
LINE
  5
21E
330
1B
100
AcDbEntity
 67
     1
  8
SLD-0
  6
Continuous
 62
     7
100
AcDbLine
 10
384.4419255848
 20
107.2935234909
 30
0.0
 11
384.4810664613
 21
107.2779671982
 31
0.0
  0
LINE
  5
21F
330
1B
100
AcDbEntity
 67
     1
  8
SLD-0
  6
Continuous
 62
     7
100
AcDbLine
 10
384.4810664613
 20
107.2779671982
 30
0.0
 11
384.5204331338
 21
107.2629918006
 31
0.0
  0
LINE
  5
220
330
1B
100
AcDbEntity
 67
     1
  8
SLD-0
  6
Continuous
 62
     7
100
AcDbLine
 10
384.5204331338
 20
107.2629918006
 30
0.0
 11
384.5600233713
 21
107.2486200622
 31
0.0
  0
LINE
  5
221
330
1B
100
AcDbEntity
 67
     1
  8
SLD-0
  6
Continuous
 62
     7
100
AcDbLine
 10
384.5600233713
 20
107.2486200622
 30
0.0
 11
384.5998238835
 21
107.2348408329
 31
0.0
  0
LINE
  5
222
330
1B
100
AcDbEntity
 67
     1
  8
SLD-0
  6
Continuous
 62
     7
100
AcDbLine
 10
384.5998238835
 20
107.2348408329
 30
0.0
 11
384.639817084
 21
107.2216273573
 31
0.0
  0
LINE
  5
223
330
1B
100
AcDbEntity
 67
     1
  8
SLD-0
  6
Continuous
 62
     7
100
AcDbLine
 10
384.639817084
 20
107.2216273573
 30
0.0
 11
384.680008292
 21
107.2090322234
 31
0.0
  0
LINE
  5
224
330
1B
100
AcDbEntity
 67
     1
  8
SLD-0
  6
Continuous
 62
     7
100
AcDbLine
 10
384.680008292
 20
107.2090322234
 30
0.0
 11
384.7203916516
 21
107.1970745309
 31
0.0
  0
LINE
  5
225
330
1B
100
AcDbEntity
 67
     1
  8
SLD-0
  6
Continuous
 62
     7
100
AcDbLine
 10
384.7203916516
 20
107.1970745309
 30
0.0
 11
384.7609138423
 21
107.1855832225
 31
0.0
  0
LINE
  5
226
330
1B
100
AcDbEntity
 67
     1
  8
SLD-0
  6
Continuous
 62
     7
100
AcDbLine
 10
384.7609138423
 20
107.1855832225
 30
0.0
 11
384.8015993899
 21
107.1746830994
 31
0.0
  0
LINE
  5
227
330
1B
100
AcDbEntity
 67
     1
  8
SLD-0
  6
Continuous
 62
     7
100
AcDbLine
 10
384.8015993899
 20
107.1746830994
 30
0.0
 11
384.842548125
 21
107.164832402
 31
0.0
  0
LINE
  5
228
330
1B
100
AcDbEntity
 67
     1
  8
SLD-0
  6
Continuous
 62
     7
100
AcDbLine
 10
384.842548125
 20
107.164832402
 30
0.0
 11
384.8835764556
 21
107.1553089165
 31
0.0
  0
ARC
  5
229
330
1B
100
AcDbEntity
 67
     1
  8
SLD-0
  6
Continuous
 62
     7
100
AcDbCircle
 10
83.5731725822
 20
154.1352987832
 30
0.0
 40
10.00000085684999
100
AcDbArc
 50
180.0000015372
 51
269.9999998293
  0
ARC
  5
22A
330
1B
100
AcDbEntity
 67
     1
  8
SLD-0
  6
Continuous
 62
     7
100
AcDbCircle
 10
83.5731725822
 20
154.1352987832
 30
0.0
 40
19.99999970199999
100
AcDbArc
 50
180.0000007686
 51
269.9999999146
  0
ARC
  5
22B
330
1B
100
AcDbEntity
 67
     1
  8
SLD-0
  6
Continuous
 62
     7
100
AcDbCircle
 10
83.5731725822
 20
207.1352987832
 30
0.0
 40
10.00000085685002
100
AcDbArc
 50
90.0000001707
 51
180.0000051228
  0
ARC
  5
22C
330
1B
100
AcDbEntity
 67
     1
  8
SLD-0
  6
Continuous
 62
     7
100
AcDbCircle
 10
83.5731725822
 20
207.1352987832
 30
0.0
 40
19.999999702
100
AcDbArc
 50
90.0000000854
 51
180.0000025614
  0
ARC
  5
22D
330
1B
100
AcDbEntity
 67
     1
  8
SLD-0
  6
Continuous
 62
     7
100
AcDbCircle
 10
216.0731733941
 20
159.8051709569
 30
0.0
 40
4.999999306106914
100
AcDbArc
 50
329.9999849919
 51
149.9999849919
  0
ARC
  5
22E
330
1B
100
AcDbEntity
 67
     1
  8
SLD-0
  6
Continuous
 62
     7
100
AcDbCircle
 10
195.4791618146
 20
154.1352985641
 30
0.0
 40
10.00000063772183
100
AcDbArc
 50
269.9999945202
 51
330.000009197
  0
ARC
  5
22F
330
1B
100
AcDbEntity
 67
     1
  8
SLD-0
  6
Continuous
 62
     7
100
AcDbCircle
 10
195.4791618146
 20
154.1352985641
 30
0.0
 40
19.99999948287177
100
AcDbArc
 50
269.9999972601
 51
329.9999959392
  0
ARC
  5
230
330
1B
100
AcDbEntity
 67
     1
  8
SLD-0
  6
Continuous
 62
     7
100
AcDbCircle
 10
140.5731732085
 20
117.1352992602
 30
0.0
 40
0.8499991555077688
100
AcDbArc
 50
127.2923516969
 51
142.7077801219
  0
ARC
  5
231
330
1B
100
AcDbEntity
 67
     1
  8
SLD-0
  6
Continuous
 62
     7
100
AcDbCircle
 10
140.5731732085
 20
117.1352992602
 30
0.0
 40
0.8500006363751191
100
AcDbArc
 50
217.2923509478
 51
232.7077091636
  0
ARC
  5
232
330
1B
100
AcDbEntity
 67
     1
  8
SLD-0
  6
Continuous
 62
     7
100
AcDbCircle
 10
140.5731732085
 20
117.1352992602
 30
0.0
 40
0.8500012142972418
100
AcDbArc
 50
307.2923419875
 51
322.7076490522
  0
ARC
  5
233
330
1B
100
AcDbEntity
 67
     1
  8
SLD-0
  6
Continuous
 62
     7
100
AcDbCircle
 10
140.5731732085
 20
117.1352992602
 30
0.0
 40
0.8499995921346754
100
AcDbArc
 50
37.2922710346
 51
52.7076483085
  0
CIRCLE
  5
234
330
1B
100
AcDbEntity
 67
     1
  8
SLD-0
  6
Continuous
 62
     7
100
AcDbCircle
 10
140.5731732085
 20
117.1352992602
 30
0.0
 40
3.99999999999999
  0
CIRCLE
  5
235
330
1B
100
AcDbEntity
 67
     1
  8
SLD-0
  6
Continuous
 62
     7
100
AcDbCircle
 10
140.5731732085
 20
117.1352992602
 30
0.0
 40
0.7059507673963731
  0
ARC
  5
236
330
1B
100
AcDbEntity
 67
     1
  8
SLD-0
  6
Continuous
 62
     7
100
AcDbCircle
 10
86.0731715391
 20
231.6352987832
 30
0.0
 40
0.4999986589066197
100
AcDbArc
 50
89.9998497354
 51
180.0003893251
  0
ARC
  5
237
330
1B
100
AcDbEntity
 67
     1
  8
SLD-0
  6
Continuous
 62
     7
100
AcDbCircle
 10
86.0731718372
 20
212.6352987832
 30
0.0
 40
0.4999989569512744
100
AcDbArc
 50
180.0001058712
 51
270.0001502644
  0
ARC
  5
238
330
1B
100
AcDbEntity
 67
     1
  8
SLD-0
  6
Continuous
 62
     7
100
AcDbCircle
 10
195.0731721352
 20
231.6352987832
 30
0.0
 40
0.4999986589066661
100
AcDbArc
 50
359.9996106747
 51
90.0002185739
  0
ARC
  5
239
330
1B
100
AcDbEntity
 67
     1
  8
SLD-0
  6
Continuous
 62
     7
100
AcDbCircle
 10
195.0731718372
 20
212.6352987832
 30
0.0
 40
0.4999989569512887
100
AcDbArc
 50
269.9998497356
 51
359.9998941288
  0
ARC
  5
23A
330
1B
100
AcDbEntity
 67
     1
  8
SLD-0
  6
Continuous
 62
     7
100
AcDbCircle
 10
210.0731712411
 20
102.6352987832
 30
0.0
 40
0.4999989569560372
100
AcDbArc
 50
269.9999180323
 51
0.0003893131
  0
ARC
  5
23B
330
1B
100
AcDbEntity
 67
     1
  8
SLD-0
  6
Continuous
 62
     7
100
AcDbCircle
 10
71.0731712411
 20
102.6352987832
 30
0.0
 40
0.499998956956034
100
AcDbArc
 50
179.9996106869
 51
270.0000819563
  0
ARC
  5
23C
330
1B
100
AcDbEntity
 67
     1
  8
SLD-0
  6
Continuous
 62
     7
100
AcDbCircle
 10
71.0731715391
 20
231.6352984852
 30
0.0
 40
0.4999989569060403
100
AcDbArc
 50
89.9999180437
 51
180.0003893246
  0
ARC
  5
23D
330
1B
100
AcDbEntity
 67
     1
  8
SLD-0
  6
Continuous
 62
     7
100
AcDbCircle
 10
210.0731715391
 20
231.6352984852
 30
0.0
 40
0.4999989569060404
100
AcDbArc
 50
359.9996106754
 51
90.0000819677
  0
CIRCLE
  5
23E
330
1B
100
AcDbEntity
 67
     1
  8
SLD-0
  6
Continuous
 62
     7
100
AcDbCircle
 10
140.5731732085
 20
117.1352992602
 30
0.0
 40
4.100000000000004
  0
ARC
  5
23F
330
1B
100
AcDbEntity
 67
     1
  8
SLD-0
  6
CENTER
 62
     7
100
AcDbCircle
 10
83.5731725822
 20
207.1352987832
 30
0.0
 40
15.0
100
AcDbArc
 50
90.0
 51
180.0
  0
ARC
  5
240
330
1B
100
AcDbEntity
 67
     1
  8
SLD-0
  6
CENTER
 62
     7
100
AcDbCircle
 10
83.5731725822
 20
154.1352987832
 30
0.0
 40
15.0
100
AcDbArc
 50
180.0
 51
270.0
  0
ARC
  5
241
330
1B
100
AcDbEntity
 67
     1
  8
SLD-0
  6
CENTER
 62
     7
100
AcDbCircle
 10
83.5731725822
 20
207.1352987832
 30
0.0
 40
15.0
100
AcDbArc
 50
90.0
 51
180.0
  0
ARC
  5
242
330
1B
100
AcDbEntity
 67
     1
  8
SLD-0
  6
CENTER
 62
     7
100
AcDbCircle
 10
83.5731725822
 20
154.1352987832
 30
0.0
 40
15.0
100
AcDbArc
 50
180.0
 51
270.0
  0
ARC
  5
243
330
1B
100
AcDbEntity
 67
     1
  8
SLD-0
  6
CENTER
 62
     7
100
AcDbCircle
 10
195.4791618146
 20
154.1352985641
 30
0.0
 40
14.99999978087178
100
AcDbArc
 50
270.0
 51
330.0000000001
  0
ARC
  5
244
330
1B
100
AcDbEntity
 67
     1
  8
SLD-0
  6
Continuous
 62
     7
100
AcDbCircle
 10
301.5145106852
 20
159.8051717227
 30
0.0
 40
5.000000432099966
100
AcDbArc
 50
0.0
 51
180.0
  0
ARC
  5
245
330
1B
100
AcDbEntity
 67
     1
  8
SLD-0
  6
Continuous
 62
     7
100
AcDbCircle
 10
301.5145106852
 20
139.1352987832
 30
0.0
 40
5.000000432100052
100
AcDbArc
 50
180.0000099041
 51
270.0
  0
ARC
  5
246
330
1B
100
AcDbEntity
 67
     1
  8
SLD-0
  6
Continuous
 62
     7
100
AcDbCircle
 10
301.5145106852
 20
139.1352987832
 30
0.0
 40
5.000000432100052
100
AcDbArc
 50
270.0
 51
359.9999900959
  0
CIRCLE
  5
247
330
1B
100
AcDbEntity
 67
     1
  8
SLD-0
  6
Continuous
 62
     7
100
AcDbCircle
 10
301.5145111173
 20
222.1352984852
 30
0.0
 40
4.50000000000001
  0
CIRCLE
  5
248
330
1B
100
AcDbEntity
 67
     1
  8
SLD-0
  6
Continuous
 62
     7
100
AcDbCircle
 10
301.5145111173
 20
222.1352984852
 30
0.0
 40
5.000000000000009
  0
ARC
  5
249
330
1B
100
AcDbEntity
 67
     1
  8
SLD-0
  6
Continuous
 62
     7
100
AcDbCircle
 10
301.5145111173
 20
222.1352984852
 30
0.0
 40
5.199998617149987
100
AcDbArc
 50
90.0000004925
 51
269.9999995075
  0
ARC
  5
24A
330
1B
100
AcDbEntity
 67
     1
  8
SLD-0
  6
Continuous
 62
     7
100
AcDbCircle
 10
301.5145111173
 20
222.1352984852
 30
0.0
 40
9.999997913849995
100
AcDbArc
 50
90.0000002561
 51
269.9999997439
  0
ARC
  5
24B
330
1B
100
AcDbEntity
 67
     1
  8
SLD-0
  6
Continuous
 62
     7
100
AcDbCircle
 10
301.5145111173
 20
222.1352984852
 30
0.0
 40
5.199998617149987
100
AcDbArc
 50
269.9999995075
 51
90.0000004925
  0
ARC
  5
24C
330
1B
100
AcDbEntity
 67
     1
  8
SLD-0
  6
Continuous
 62
     7
100
AcDbCircle
 10
320.0145099811
 20
231.6352987832
 30
0.0
 40
0.4999987520058176
100
AcDbArc
 50
89.9999778035
 51
180.0003893249
  0
ARC
  5
24D
330
1B
100
AcDbEntity
 67
     1
  8
SLD-0
  6
Continuous
 62
     7
100
AcDbCircle
 10
320.0145099811
 20
102.6352987832
 30
0.0
 40
0.4999987520557971
100
AcDbArc
 50
179.9996106866
 51
270.0000221965
  0
ARC
  5
24E
330
1B
100
AcDbEntity
 67
     1
  8
SLD-0
  6
Continuous
 62
     7
100
AcDbCircle
 10
503.146168808
 20
207.1352987832
 30
0.0
 40
19.99999979140004
100
AcDbArc
 50
359.9999974386
 51
49.4583981265
  0
ARC
  5
24F
330
1B
100
AcDbEntity
 67
     1
  8
SLD-0
  6
Continuous
 62
     7
100
AcDbCircle
 10
503.146168808
 20
154.1352987832
 30
0.0
 40
19.99999979140004
100
AcDbArc
 50
310.5416018735
 51
359.9999992314
  0
ARC
  5
250
330
1B
100
AcDbEntity
 67
     1
  8
SLD-0
  6
Continuous
 62
     7
100
AcDbCircle
 10
370.6461696857
 20
159.8051721505
 30
0.0
 40
4.999999227409489
100
AcDbArc
 50
30.0000138232
 51
180.0
  0
ARC
  5
251
330
1B
100
AcDbEntity
 67
     1
  8
SLD-0
  6
Continuous
 62
     7
100
AcDbCircle
 10
370.6461696857
 20
159.8051721505
 30
0.0
 40
4.999999227409489
100
AcDbArc
 50
180.0
 51
210.0000161931
  0
CIRCLE
  5
252
330
1B
100
AcDbEntity
 67
     1
  8
SLD-0
  6
Continuous
 62
     7
100
AcDbCircle
 10
406.1461690166
 20
222.1352987832
 30
0.0
 40
1.999999999999943
  0
CIRCLE
  5
253
330
1B
100
AcDbEntity
 67
     1
  8
SLD-0
  6
Continuous
 62
     7
100
AcDbCircle
 10
486.1461690166
 20
222.1352987832
 30
0.0
 40
1.999999999999943
  0
CIRCLE
  5
254
330
1B
100
AcDbEntity
 67
     1
  8
SLD-0
  6
Continuous
 62
     7
100
AcDbCircle
 10
446.1461690166
 20
117.1352987832
 30
0.0
 40
1.999999999999943
  0
ARC
  5
255
330
1B
100
AcDbEntity
 67
     1
  8
SLD-0
  6
Continuous
 62
     7
100
AcDbCircle
 10
396.1461689829
 20
222.1352987575
 30
0.0
 40
0.8499995003121684
100
AcDbArc
 50
37.292282643
 51
52.7077595782
  0
ARC
  5
256
330
1B
100
AcDbEntity
 67
     1
  8
SLD-0
  6
Continuous
 62
     7
100
AcDbCircle
 10
396.1461689829
 20
222.1352987575
 30
0.0
 40
0.8500006320782691
100
AcDbArc
 50
127.2923203297
 51
142.7077754587
  0
ARC
  5
257
330
1B
100
AcDbEntity
 67
     1
  8
SLD-0
  6
Continuous
 62
     7
100
AcDbCircle
 10
396.1461689829
 20
222.1352987575
 30
0.0
 40
0.8500009621807397
100
AcDbArc
 50
217.2922537583
 51
232.7077040153
  0
ARC
  5
258
330
1B
100
AcDbEntity
 67
     1
  8
SLD-0
  6
Continuous
 62
     7
100
AcDbCircle
 10
396.1461689829
 20
222.1352987575
 30
0.0
 40
0.8500000282339826
100
AcDbArc
 50
307.2922133221
 51
322.7076853853
  0
CIRCLE
  5
259
330
1B
100
AcDbEntity
 67
     1
  8
SLD-0
  6
Continuous
 62
     7
100
AcDbCircle
 10
396.1461689829
 20
222.1352987575
 30
0.0
 40
3.999999999999928
  0
CIRCLE
  5
25A
330
1B
100
AcDbEntity
 67
     1
  8
SLD-0
  6
Continuous
 62
     7
100
AcDbCircle
 10
396.1461689829
 20
222.1352987575
 30
0.0
 40
0.7059507673963417
  0
ARC
  5
25B
330
1B
100
AcDbEntity
 67
     1
  8
SLD-0
  6
Continuous
 62
     7
100
AcDbCircle
 10
496.1461690953
 20
222.1352988431
 30
0.0
 40
0.8500005444525623
100
AcDbArc
 50
37.2922217865
 51
52.7076796703
  0
ARC
  5
25C
330
1B
100
AcDbEntity
 67
     1
  8
SLD-0
  6
Continuous
 62
     7
100
AcDbCircle
 10
496.1461690953
 20
222.1352988431
 30
0.0
 40
0.84999948418538
100
AcDbArc
 50
127.2922404218
 51
142.7077237853
  0
ARC
  5
25D
330
1B
100
AcDbEntity
 67
     1
  8
SLD-0
  6
Continuous
 62
     7
100
AcDbCircle
 10
496.1461690953
 20
222.1352988431
 30
0.0
 40
0.8499999180408857
100
AcDbArc
 50
217.2923146147
 51
232.7077839232
  0
ARC
  5
25E
330
1B
100
AcDbEntity
 67
     1
  8
SLD-0
  6
Continuous
 62
     7
100
AcDbCircle
 10
496.1461690953
 20
222.1352988431
 30
0.0
 40
0.850000893492806
100
AcDbArc
 50
307.2923024129
 51
322.7077462417
  0
CIRCLE
  5
25F
330
1B
100
AcDbEntity
 67
     1
  8
SLD-0
  6
Continuous
 62
     7
100
AcDbCircle
 10
496.1461690953
 20
222.1352988431
 30
0.0
 40
3.999999999999982
  0
CIRCLE
  5
260
330
1B
100
AcDbEntity
 67
     1
  8
SLD-0
  6
Continuous
 62
     7
100
AcDbCircle
 10
496.1461690953
 20
222.1352988431
 30
0.0
 40
0.7059507673963961
  0
CIRCLE
  5
261
330
1B
100
AcDbEntity
 67
     1
  8
SLD-0
  6
Continuous
 62
     7
100
AcDbCircle
 10
406.1461690166
 20
222.1352987832
 30
0.0
 40
2.249999999999943
  0
CIRCLE
  5
262
330
1B
100
AcDbEntity
 67
     1
  8
SLD-0
  6
Continuous
 62
     7
100
AcDbCircle
 10
486.1461690166
 20
222.1352987832
 30
0.0
 40
2.249999999999943
  0
CIRCLE
  5
263
330
1B
100
AcDbEntity
 67
     1
  8
SLD-0
  6
Continuous
 62
     7
100
AcDbCircle
 10
486.1461690166
 20
222.1352987832
 30
0.0
 40
2.749999999999886
  0
CIRCLE
  5
264
330
1B
100
AcDbEntity
 67
     1
  8
SLD-0
  6
Continuous
 62
     7
100
AcDbCircle
 10
406.1461690166
 20
222.1352987832
 30
0.0
 40
2.749999999999943
  0
ARC
  5
265
330
1B
100
AcDbEntity
 67
     1
  8
SLD-0
  6
Continuous
 62
     7
100
AcDbCircle
 10
376.6461676755
 20
231.6352987832
 30
0.0
 40
0.499998956906101
100
AcDbArc
 50
89.9999180323
 51
180.0003893246
  0
ARC
  5
266
330
1B
100
AcDbEntity
 67
     1
  8
SLD-0
  6
Continuous
 62
     7
100
AcDbCircle
 10
515.6461676756
 20
231.6352987832
 30
0.0
 40
0.4999989569060441
100
AcDbArc
 50
359.9996106754
 51
90.0000819792
  0
ARC
  5
267
330
1B
100
AcDbEntity
 67
     1
  8
SLD-0
  6
Continuous
 62
     7
100
AcDbCircle
 10
515.6461676755
 20
102.6352987832
 30
0.0
 40
0.4999989569560656
100
AcDbArc
 50
269.9999180323
 51
0.0003893131
  0
ARC
  5
268
330
1B
100
AcDbEntity
 67
     1
  8
SLD-0
  6
Continuous
 62
     7
100
AcDbCircle
 10
376.6461676755
 20
102.6352987832
 30
0.0
 40
0.4999989569560484
100
AcDbArc
 50
179.9996106869
 51
270.0000819677
  0
CIRCLE
  5
269
330
1B
100
AcDbEntity
 67
     1
  8
SLD-0
  6
Continuous
 62
     7
100
AcDbCircle
 10
446.1461690166
 20
117.1352987832
 30
0.0
 40
2.25
  0
CIRCLE
  5
26A
330
1B
100
AcDbEntity
 67
     1
  8
SLD-0
  6
Continuous
 62
     7
100
AcDbCircle
 10
496.1461690953
 20
222.1352988431
 30
0.0
 40
4.100000000000027
  0
CIRCLE
  5
26B
330
1B
100
AcDbEntity
 67
     1
  8
SLD-0
  6
Continuous
 62
     7
100
AcDbCircle
 10
396.1461689829
 20
222.1352987575
 30
0.0
 40
4.100000000000043
  0
ARC
  5
26C
330
1B
100
AcDbEntity
 67
     1
  8
SLD-0
  6
Continuous
 62
     7
100
AcDbCircle
 10
384.6049031525
 20
107.5144819101
 30
0.0
 40
0.7609994033274755
100
AcDbArc
 50
245.4704370132
 51
290.9829576053
  0
ARC
  5
26D
330
1B
100
AcDbEntity
 67
     1
  8
SLD-0
  6
Continuous
 62
     7
100
AcDbCircle
 10
384.4305707364
 20
107.132466803
 30
0.0
 40
0.3410859201523003
100
AcDbArc
 50
192.8395039815
 51
245.4704370169
  0
ARC
  5
26E
330
1B
100
AcDbEntity
 67
     1
  8
SLD-0
  6
Continuous
 62
     7
100
AcDbCircle
 10
384.4305707364
 20
107.132466803
 30
0.0
 40
0.4926797210168642
100
AcDbArc
 50
188.8498243643
 51
245.4704370132
  0
ARC
  5
26F
330
1B
100
AcDbEntity
 67
     1
  8
SLD-0
  6
Continuous
 62
     7
100
AcDbCircle
 10
384.6049031525
 20
107.5144819101
 30
0.0
 40
0.9125932041920559
100
AcDbArc
 50
245.4704370118
 51
290.9829576053
  0
ARC
  5
270
330
1B
100
AcDbEntity
 67
     1
  8
SLD-0
  6
Continuous
 62
     7
100
AcDbCircle
 10
384.8095543545
 20
106.9808728573
 30
0.0
 40
0.3410857801077343
100
AcDbArc
 50
290.982963168
 51
69.5419639159
  0
ARC
  5
271
330
1B
100
AcDbEntity
 67
     1
  8
SLD-0
  6
Continuous
 62
     7
100
AcDbCircle
 10
384.2789773425
 20
107.6630443573
 30
0.0
 40
0.1136951956077842
100
AcDbArc
 50
109.6554568868
 51
249.6263182525
  0
ARC
  5
272
330
1B
100
AcDbEntity
 67
     1
  8
SLD-0
  6
Continuous
 62
     7
100
AcDbCircle
 10
384.4977544203
 20
107.0505236504
 30
0.0
 40
0.7641143114357299
100
AcDbArc
 50
68.3398365874
 51
109.6554568855
  0
ARC
  5
273
330
1B
100
AcDbEntity
 67
     1
  8
SLD-0
  6
Continuous
 62
     7
100
AcDbCircle
 10
384.6958596205
 20
107.5493493028
 30
0.0
 40
0.2273902651672717
100
AcDbArc
 50
9.5943078555
 51
68.3398365799
  0
ARC
  5
274
330
1B
100
AcDbEntity
 67
     1
  8
SLD-0
  6
Continuous
 62
     7
100
AcDbCircle
 10
384.6958596205
 20
107.5493493028
 30
0.0
 40
0.3789841767319458
100
AcDbArc
 50
5.7393068577
 51
68.3398365874
  0
ARC
  5
275
330
1B
100
AcDbEntity
 67
     1
  8
SLD-0
  6
Continuous
 62
     7
100
AcDbCircle
 10
384.4977544203
 20
107.0505236504
 30
0.0
 40
0.9157082230003987
100
AcDbArc
 50
68.3398365893
 51
109.6554568869
  0
ARC
  5
276
330
1B
100
AcDbEntity
 67
     1
  8
SLD-0
  6
Continuous
 62
     7
100
AcDbCircle
 10
384.2789773425
 20
107.6630443573
 30
0.0
 40
0.2652891071724263
100
AcDbArc
 50
109.6554568909
 51
246.9801779813
  0
ARC
  5
277
330
1B
100
AcDbEntity
 67
     1
  8
SLD-0
  6
Continuous
 62
     7
100
AcDbCircle
 10
384.8095543545
 20
106.9808728573
 30
0.0
 40
0.1894919792431636
100
AcDbArc
 50
290.9829676182
 51
67.0060155354
  0
ARC
  5
278
330
1B
100
AcDbEntity
 67
     1
  8
SLD-0
  6
Continuous
 62
     7
100
AcDbCircle
 10
216.0731725822
 20
303.0160264007
 30
0.0
 40
5.000000819551191
100
AcDbArc
 50
269.9999603846
 51
90.0000396154
  0
ARC
  5
279
330
1B
100
AcDbEntity
 67
     1
  8
SLD-0
  6
Continuous
 62
     7
100
AcDbCircle
 10
195.0731726418
 20
293.5160264454
 30
0.0
 40
0.4999997616015719
100
AcDbArc
 50
269.999849736
 51
0.0001366047
  0
ARC
  5
27A
330
1B
100
AcDbEntity
 67
     1
  8
SLD-0
  6
Continuous
 62
     7
100
AcDbCircle
 10
86.0731726418
 20
293.5160264454
 30
0.0
 40
0.4999997616015435
100
AcDbArc
 50
179.9998633953
 51
270.000150264
  0
ARC
  5
27B
330
1B
100
AcDbEntity
 67
     1
  8
SLD-0
  6
Continuous
 62
     7
100
AcDbCircle
 10
105.5731725822
 20
317.0160264454
 30
0.0
 40
1.000000000000057
100
AcDbArc
 50
30.0
 51
90.0
  0
ARC
  5
27C
330
1B
100
AcDbEntity
 67
     1
  8
SLD-0
  6
Continuous
 62
     7
100
AcDbCircle
 10
105.5731725822
 20
317.0160264454
 30
0.0
 40
1.000000000000057
100
AcDbArc
 50
90.0
 51
150.0
  0
ARC
  5
27D
330
1B
100
AcDbEntity
 67
     1
  8
SLD-0
  6
Continuous
 62
     7
100
AcDbCircle
 10
105.5731725822
 20
317.0160264454
 30
0.0
 40
1.000000000000024
100
AcDbArc
 50
150.0
 51
210.0
  0
ARC
  5
27E
330
1B
100
AcDbEntity
 67
     1
  8
SLD-0
  6
Continuous
 62
     7
100
AcDbCircle
 10
105.5731725822
 20
317.0160264454
 30
0.0
 40
1.000000000000024
100
AcDbArc
 50
330.0
 51
30.0
  0
ARC
  5
27F
330
1B
100
AcDbEntity
 67
     1
  8
SLD-0
  6
Continuous
 62
     7
100
AcDbCircle
 10
105.5731725822
 20
317.0160264454
 30
0.0
 40
1.0
100
AcDbArc
 50
270.0
 51
330.0
  0
ARC
  5
280
330
1B
100
AcDbEntity
 67
     1
  8
SLD-0
  6
Continuous
 62
     7
100
AcDbCircle
 10
105.5731725822
 20
317.0160264454
 30
0.0
 40
1.0
100
AcDbArc
 50
210.0
 51
270.0
  0
ARC
  5
281
330
1B
100
AcDbEntity
 67
     1
  8
SLD-0
  6
Continuous
 62
     7
100
AcDbCircle
 10
175.5731725822
 20
317.0160264454
 30
0.0
 40
1.000000000000037
100
AcDbArc
 50
150.0
 51
210.0
  0
ARC
  5
282
330
1B
100
AcDbEntity
 67
     1
  8
SLD-0
  6
Continuous
 62
     7
100
AcDbCircle
 10
175.5731725822
 20
317.0160264454
 30
0.0
 40
1.000000000000057
100
AcDbArc
 50
90.0
 51
150.0
  0
ARC
  5
283
330
1B
100
AcDbEntity
 67
     1
  8
SLD-0
  6
Continuous
 62
     7
100
AcDbCircle
 10
175.5731725822
 20
317.0160264454
 30
0.0
 40
1.000000000000061
100
AcDbArc
 50
30.0
 51
90.0
  0
ARC
  5
284
330
1B
100
AcDbEntity
 67
     1
  8
SLD-0
  6
Continuous
 62
     7
100
AcDbCircle
 10
175.5731725822
 20
317.0160264454
 30
0.0
 40
1.000000000000061
100
AcDbArc
 50
330.0
 51
30.0
  0
ARC
  5
285
330
1B
100
AcDbEntity
 67
     1
  8
SLD-0
  6
Continuous
 62
     7
100
AcDbCircle
 10
175.5731725822
 20
317.0160264454
 30
0.0
 40
1.0
100
AcDbArc
 50
270.0
 51
330.0
  0
ARC
  5
286
330
1B
100
AcDbEntity
 67
     1
  8
SLD-0
  6
Continuous
 62
     7
100
AcDbCircle
 10
175.5731725822
 20
317.0160264454
 30
0.0
 40
1.000000000000008
100
AcDbArc
 50
210.0
 51
270.0
  0
ARC
  5
287
330
1B
100
AcDbEntity
 67
     1
  8
SLD-0
  6
Continuous
 62
     7
100
AcDbCircle
 10
68.5731725822
 20
303.0160260133
 30
0.0
 40
5.000000432100478
100
AcDbArc
 50
180.0
 51
270.0000355165
  0
ARC
  5
288
330
1B
100
AcDbEntity
 67
     1
  8
SLD-0
  6
Continuous
 62
     7
100
AcDbCircle
 10
68.5731725822
 20
303.0160260133
 30
0.0
 40
5.00000043210053
100
AcDbArc
 50
89.9999644835
 51
180.0
  0
CIRCLE
  5
289
330
1B
100
AcDbEntity
 67
     1
  8
SLD-0
  6
Continuous
 62
     7
100
AcDbCircle
 10
105.5731725822
 20
317.0160264454
 30
0.0
 40
2.150000000000048
  0
CIRCLE
  5
28A
330
1B
100
AcDbEntity
 67
     1
  8
SLD-0
  6
Continuous
 62
     7
100
AcDbCircle
 10
175.5731725822
 20
317.0160264454
 30
0.0
 40
2.150000000000034
  0
CIRCLE
  5
28B
330
1B
100
AcDbEntity
 67
     1
  8
SLD-0
  6
Continuous
 62
     7
100
AcDbCircle
 10
105.5731725822
 20
317.0160264454
 30
0.0
 40
1.649999999999977
  0
CIRCLE
  5
28C
330
1B
100
AcDbEntity
 67
     1
  8
SLD-0
  6
Continuous
 62
     7
100
AcDbCircle
 10
175.5731725822
 20
317.0160264454
 30
0.0
 40
1.649999999999977
  0
ARC
  5
28D
330
1B
100
AcDbEntity
 67
     1
  8
SLD-0
  6
Continuous
 62
     7
100
AcDbCircle
 10
71.0731725822
 20
321.5160266503
 30
0.0
 40
0.5000000931002637
100
AcDbArc
 50
179.9999778036
 51
270.0000819559
  0
ARC
  5
28E
330
1B
100
AcDbEntity
 67
     1
  8
SLD-0
  6
Continuous
 62
     7
100
AcDbCircle
 10
210.0731727014
 20
321.5160266503
 30
0.0
 40
0.5000000931002637
100
AcDbArc
 50
269.9999180326
 51
0.0000221964
  0
ARC
  5
28F
330
1B
100
AcDbEntity
 67
     1
  8
SLD-0
  6
Continuous
 62
     7
100
AcDbCircle
 10
385.1858847442
 20
109.0925960579
 30
0.0
 40
1.804747026509647
100
AcDbArc
 50
255.032597124
 51
259.1991538233
  0
ARC
  5
290
330
1B
100
AcDbEntity
 67
     1
  8
SLD-0
  6
Continuous
 62
     7
100
AcDbCircle
 10
385.1797605648
 20
109.0698717985
 30
0.0
 40
1.781212047014269
100
AcDbArc
 50
250.811694529
 51
255.0341225235
  0
ARC
  5
291
330
1B
100
AcDbEntity
 67
     1
  8
SLD-0
  6
Continuous
 62
     7
100
AcDbCircle
 10
385.1846668154
 20
109.0834133887
 30
0.0
 40
1.795613879366468
100
AcDbArc
 50
246.6175214663
 51
250.8058581215
  0
ARC
  5
292
330
1B
100
AcDbEntity
 67
     1
  8
SLD-0
  6
Continuous
 62
     7
100
AcDbCircle
 10
385.1926964805
 20
109.1020610959
 30
0.0
 40
1.815916873909444
100
AcDbArc
 50
242.4762631366
 51
246.6184814842
  0
ARC
  5
293
330
1B
100
AcDbEntity
 67
     1
  8
SLD-0
  6
Continuous
 62
     7
100
AcDbCircle
 10
385.1968824623
 20
109.1102568134
 30
0.0
 40
1.825119406683534
100
AcDbArc
 50
238.3575931174
 51
242.4786227026
  0
POINT
  5
294
330
1B
100
AcDbEntity
 67
     1
  8
SLD-0
100
AcDbPoint
 10
291.5145111173
 20
222.1352987832
 30
0.0
  0
DIMENSION
  5
295
330
1B
100
AcDbEntity
 67
     1
  8
SLD-0
 62
     7
100
AcDbDimension
  2
_D
 10
47.5731725822
 20
144.1352987832
 30
0.0
 11
47.5731725822
 21
139.1352987832
 31
0.0
 70
   160
  1
<>
 71
     2
 42
-1.0
  3
SLDDIMSTYLE0
100
AcDbAlignedDimension
 13
83.5731725822
 23
134.1352987832
 33
0.0
 14
83.5731725822
 24
144.1352987832
 34
0.0
 50
90.0
100
AcDbRotatedDimension
  0
DIMENSION
  5
2AA
330
1B
100
AcDbEntity
 67
     1
  8
SLD-0
 62
     7
100
AcDbDimension
  2
_D_1
 10
63.5731725822
 20
189.7928358407
 30
0.0
 11
55.5709879525
 21
189.7928358407
 31
0.0
 70
   160
  1
<>
 71
     2
 42
-1.0
  3
SLDDIMSTYLE0
100
AcDbAlignedDimension
 13
73.5731725822
 23
207.1352987832
 33
0.0
 14
63.5731725822
 24
207.1352987832
 34
0.0
100
AcDbRotatedDimension
  0
DIMENSION
  5
2BA
330
1B
100
AcDbEntity
 67
     1
  8
SLD-0
 62
     7
100
AcDbDimension
  2
_D_2
 10
85.5731725822
 20
243.4613565475
 30
0.0
 11
140.5731725822
 21
243.4613565475
 31
0.0
 70
   160
  1
<>
 71
     2
 42
-1.0
  3
SLDDIMSTYLE1
100
AcDbAlignedDimension
 13
195.5731725822
 23
231.6352987832
 33
0.0
 14
85.5731725822
 24
231.6352987832
 34
0.0
100
AcDbRotatedDimension
  0
DIMENSION
  5
2C9
330
1B
100
AcDbEntity
 67
     1
  8
SLD-0
 62
     7
100
AcDbDimension
  2
_D_3
 10
210.5731725822
 20
254.1352987832
 30
0.0
 11
140.5731725822
 21
254.1352987832
 31
0.0
 70
   160
  1
<>
 71
     2
 42
-1.0
  3
SLDDIMSTYLE1
100
AcDbAlignedDimension
 13
70.5731725822
 23
231.6352987832
 33
0.0
 14
210.5731725822
 24
231.6352987832
 34
0.0
100
AcDbRotatedDimension
  0
DIMENSION
  5
2D7
330
1B
100
AcDbEntity
 67
     1
  8
SLD-0
 62
     7
100
AcDbDimension
  2
_D_4
 10
85.5731725822
 20
243.4613565475
 30
0.0
 11
78.0731725822
 21
243.4613565475
 31
0.0
 70
   160
  1
<>
 71
     2
 42
-1.0
  3
SLDDIMSTYLE1
100
AcDbAlignedDimension
 13
70.5731725822
 23
231.6352987832
 33
0.0
 14
85.5731725822
 24
231.6352987832
 34
0.0
100
AcDbRotatedDimension
  0
DIMENSION
  5
2E5
330
1B
100
AcDbEntity
 67
     1
  8
SLD-0
 62
     7
100
AcDbDimension
  2
_D_5
 10
195.5731725822
 20
243.4613565475
 30
0.0
 11
203.0731725822
 21
243.4613565475
 31
0.0
 70
   160
  1
<>
 71
     2
 42
-1.0
  3
SLDDIMSTYLE1
100
AcDbAlignedDimension
 13
210.5731725822
 23
231.6352987832
 33
0.0
 14
195.5731725822
 24
231.6352987832
 34
0.0
100
AcDbRotatedDimension
  0
DIMENSION
  5
2F3
330
1B
100
AcDbEntity
 67
     1
  8
SLD-0
 62
     7
100
AcDbDimension
  2
_D_6
 10
231.0731725822
 20
212.1352987832
 30
0.0
 11
231.0731725822
 21
189.6352987832
 31
0.0
 70
   160
  1
<>
 71
     2
 42
-1.0
  3
SLDDIMSTYLE1
100
AcDbAlignedDimension
 13
224.5449066326
 23
167.1352987832
 33
0.0
 14
195.0731725822
 24
212.1352987832
 34
0.0
 50
90.0
100
AcDbRotatedDimension
  0
DIMENSION
  5
301
330
1B
100
AcDbEntity
 67
     1
  8
SLD-0
 62
     7
100
AcDbDimension
  2
_D_7
 10
47.5731725822
 20
212.1352987832
 30
0.0
 11
47.5731725822
 21
178.1352987832
 31
0.0
 70
   160
  1
<>
 71
     2
 42
-1.0
  3
SLDDIMSTYLE1
100
AcDbAlignedDimension
 13
83.5731725822
 23
144.1352987832
 33
0.0
 14
86.0731725822
 24
212.1352987832
 34
0.0
 50
90.0
100
AcDbRotatedDimension
  0
DIMENSION
  5
30F
330
1B
100
AcDbEntity
 67
     1
  8
SLD-0
 62
     7
100
AcDbDimension
  2
_D_8
 10
249.0731725822
 20
232.1352987832
 30
0.0
 11
249.0731725822
 21
167.1352987832
 31
0.0
 70
   160
  1
<>
 71
     2
 42
-1.0
  3
SLDDIMSTYLE1
100
AcDbAlignedDimension
 13
210.0731725822
 23
102.1352987832
 33
0.0
 14
210.0731725822
 24
232.1352987832
 34
0.0
 50
90.0
100
AcDbRotatedDimension
  0
DIMENSION
  5
31D
330
1B
100
AcDbEntity
 67
     1
  8
SLD-0
 62
     7
100
AcDbDimension
  2
_D_9
 10
231.0731725822
 20
232.1352987832
 30
0.0
 11
231.0731725822
 21
222.1352987832
 31
0.0
 70
   160
  1
<>
 71
     2
 42
-1.0
  3
SLDDIMSTYLE1
100
AcDbAlignedDimension
 13
195.0731725822
 23
212.1352987832
 33
0.0
 14
210.0731725822
 24
232.1352987832
 34
0.0
 50
90.0
100
AcDbRotatedDimension
  0
DIMENSION
  5
32B
330
1B
100
AcDbEntity
 67
     1
  8
SLD-0
 62
     7
100
AcDbDimension
  2
_D_10
 10
63.5731725822
 20
84.6152987832
 30
0.0
 11
142.3231725822
 21
84.6152987832
 31
0.0
 70
   160
  1
<>
 71
     2
 42
-1.0
  3
SLDDIMSTYLE2
100
AcDbAlignedDimension
 13
221.0731725822
 23
159.8051717642
 33
0.0
 14
63.5731725822
 24
154.1352987832
 34
0.0
100
AcDbRotatedDimension
  0
DIMENSION
  5
33A
330
1B
100
AcDbEntity
 67
     1
  8
SLD-0
 62
     7
100
AcDbDimension
  2
_D_11
 10
231.0731725822
 20
134.1352987832
 30
0.0
 11
231.0731725822
 21
149.4702352737
 31
0.0
 70
   160
  1
<>
 71
     2
 42
-1.0
  3
SLDDIMSTYLE3
100
AcDbAlignedDimension
 13
216.0731725822
 23
164.8051717642
 33
0.0
 14
195.4791618146
 24
134.1352987832
 34
0.0
 50
90.0
100
AcDbRotatedDimension
  0
DIMENSION
  5
349
330
1B
100
AcDbEntity
 67
     1
  8
SLD-0
 62
     7
100
AcDbDimension
  2
_D_12
 10
291.5145111173
 20
254.1352987832
 30
0.0
 11
308.0145111173
 21
254.1352987832
 31
0.0
 70
   160
  1
<>
 71
     2
 42
-1.0
  3
SLDDIMSTYLE1
100
AcDbAlignedDimension
 13
324.5145111173
 23
232.1352987832
 33
0.0
 14
291.5145111173
 24
222.1352987832
 34
0.0
100
AcDbRotatedDimension
  0
DIMENSION
  5
357
330
1B
100
AcDbEntity
 67
     1
  8
SLD-0
 62
     7
100
AcDbDimension
  2
_D_13
 10
306.5145111173
 20
84.6152987832
 30
0.0
 11
313.0145111173
 21
84.6152987832
 31
0.0
 70
   160
  1
<>
 71
     2
 42
-1.0
  3
SLDDIMSTYLE1
100
AcDbAlignedDimension
 13
319.5145111173
 23
102.6352987832
 33
0.0
 14
306.5145111173
 24
139.1352987832
 34
0.0
100
AcDbRotatedDimension
  0
DIMENSION
  5
365
330
1B
100
AcDbEntity
 67
     1
  8
SLD-0
 62
     7
100
AcDbDimension
  2
_D_14
 10
306.5145111173
 20
84.6152987832
 30
0.0
 11
289.0809576348
 21
84.6152987832
 31
0.0
 70
   160
  1
<>
 71
     2
 42
-1.0
  3
SLDDIMSTYLE0
100
AcDbAlignedDimension
 13
296.5145111173
 23
139.1352987832
 33
0.0
 14
306.5145111173
 24
139.1352987832
 34
0.0
100
AcDbRotatedDimension
  0
DIMENSION
  5
375
330
1B
100
AcDbEntity
 67
     1
  8
SLD-0
 62
     7
100
AcDbDimension
  2
_D_15
 10
275.5145111173
 20
164.8051717642
 30
0.0
 11
275.5145111173
 21
188.4702352737
 31
0.0
 70
   160
  1
<>
 71
     2
 42
-1.0
  3
SLDDIMSTYLE2
100
AcDbAlignedDimension
 13
301.5145111173
 23
212.1352987832
 33
0.0
 14
301.5145111173
 24
164.8051717642
 34
0.0
 50
90.0
100
AcDbRotatedDimension
  0
DIMENSION
  5
383
330
1B
100
AcDbEntity
 67
     1
  8
SLD-0
 62
     7
100
AcDbDimension
  2
_D_16
 10
301.5145111173
 20
243.4613565475
 30
0.0
 11
313.0145111173
 21
243.4613565475
 31
0.0
 70
   160
  1
<>
 71
     2
 42
-1.0
  3
SLDDIMSTYLE1
100
AcDbAlignedDimension
 13
324.5145111173
 23
232.1352987832
 33
0.0
 14
301.5145111173
 24
234.150028668
 34
0.0
100
AcDbRotatedDimension
  0
DIMENSION
  5
391
330
1B
100
AcDbEntity
 67
     1
  8
SLD-0
 62
     7
100
AcDbDimension
  2
_D_17
 10
319.5145111173
 20
84.6152987832
 30
0.0
 11
322.0145111173
 21
84.6152987832
 31
0.0
 70
   160
  1
<>
 71
     2
 42
-1.0
  3
SLDDIMSTYLE1
100
AcDbAlignedDimension
 13
324.5145111173
 23
102.1352987832
 33
0.0
 14
319.5145111173
 24
102.6352987832
 34
0.0
100
AcDbRotatedDimension
  0
DIMENSION
  5
3A1
330
1B
100
AcDbEntity
 67
     1
  8
SLD-0
 62
     7
100
AcDbDimension
  2
_D_18
 10
396.1461690166
 20
254.1352987832
 30
0.0
 11
446.1461690166
 21
254.1352987832
 31
0.0
 70
   160
  1
<>
 71
     2
 42
-1.0
  3
SLDDIMSTYLE1
100
AcDbAlignedDimension
 13
496.1461690166
 23
227.2352987832
 33
0.0
 14
396.1461690166
 24
227.2352987832
 34
0.0
100
AcDbRotatedDimension
  0
DIMENSION
  5
3AF
330
1B
100
AcDbEntity
 67
     1
  8
SLD-0
 62
     7
100
AcDbDimension
  2
_D_19
 10
535.7736611493
 20
222.1352987832
 30
0.0
 11
535.7736611493
 21
194.6352987832
 31
0.0
 70
   160
  1
<>
 71
     2
 42
-1.0
  3
SLDDIMSTYLE1
100
AcDbAlignedDimension
 13
517.6461690166
 23
167.1352987832
 33
0.0
 14
501.2461690166
 24
222.1352987832
 34
0.0
 50
90.0
100
AcDbRotatedDimension
  0
DIMENSION
  5
3BD
330
1B
100
AcDbEntity
 67
     1
  8
SLD-0
 62
     7
100
AcDbDimension
  2
_D_20
 10
406.1461690166
 20
243.4613565475
 30
0.0
 11
446.1461690166
 21
243.4613565475
 31
0.0
 70
   160
  1
<>
 71
     2
 42
-1.0
  3
SLDDIMSTYLE1
100
AcDbAlignedDimension
 13
486.1461690166
 23
225.8852987832
 33
0.0
 14
406.1461690166
 24
225.8852987832
 34
0.0
100
AcDbRotatedDimension
  0
DIMENSION
  5
3CB
330
1B
100
AcDbEntity
 67
     1
  8
SLD-0
 62
     7
100
AcDbDimension
  2
_D_21
 10
548.9271440029
 20
222.1352987832
 30
0.0
 11
548.9271440029
 21
169.6352987832
 31
0.0
 70
   160
  1
<>
 71
     2
 42
-1.0
  3
SLDDIMSTYLE1
100
AcDbAlignedDimension
 13
449.3961690166
 23
117.1352987832
 33
0.0
 14
501.2461690166
 24
222.1352987832
 34
0.0
 50
90.0
100
AcDbRotatedDimension
  0
DIMENSION
  5
3D9
330
1B
100
AcDbEntity
 67
     1
  8
SLD-0
 62
     7
100
AcDbDimension
  2
_D_22
 10
231.0731725822
 20
317.0160264454
 30
0.0
 11
231.0731725822
 21
321.5160264454
 31
0.0
 70
   160
  1
<>
 71
     2
 42
-1.0
  3
SLDDIMSTYLE1
100
AcDbAlignedDimension
 13
210.5731725822
 23
326.0160264454
 33
0.0
 14
178.7231725822
 24
317.0160264454
 34
0.0
 50
90.0
100
AcDbRotatedDimension
  0
MTEXT
  5
3EA
330
1B
100
AcDbEntity
 67
     1
  8
SLD-0
 62
     7
100
AcDbMText
 10
521.0439524099
 20
21.1238190005
 30
0.0
 40
4.7624998093
 41
0.0
 71
     1
 72
     1
  1
11548XE
  7
SLDTEXTSTYLE2
 73
     1
 44
1.0
  0
MTEXT
  5
3EB
330
1B
100
AcDbEntity
 67
     1
  8
SLD-0
 62
     7
100
AcDbMText
 10
203.8600144348
 20
22.4712830762
 30
0.0
 40
4.9699997902
 41
0.0
 71
     1
 72
     1
  1
43M
  7
SLDTEXTSTYLE2
 73
     1
 44
1.0
  0
MTEXT
  5
3ED
330
1B
100
AcDbEntity
 67
     1
  8
SLD-0
 62
     7
100
AcDbMText
 10
203.8307925291
 20
38.9628730721
 30
0.0
 40
4.9699997902
 41
0.0
 71
     1
 72
     1
  1
承認図
  7
SLDTEXTSTYLE3
 73
     1
 44
1.0
  0
MTEXT
  5
3EE
330
1B
100
AcDbEntity
 67
     1
  8
SLD-0
 62
     7
100
AcDbMText
 10
424.1197137166
 20
37.8823764765
 30
0.0
 40
4.7624998093
 41
0.0
 71
     1
 72
     1
  1
1/1
  7
SLDTEXTSTYLE0
 73
     1
 44
1.0
  0
MTEXT
  5
3F0
330
1B
100
AcDbEntity
 67
     1
  8
SLD-0
 62
     7
100
AcDbMText
 10
507.9479548555
 20
32.2299420537
 30
0.0
 40
3.1749999523
 41
0.0
 71
     1
 72
     1
  1
WEST
  7
SLDTEXTSTYLE4
 73
     1
 44
1.0
  0
MTEXT
  5
3F2
330
1B
100
AcDbEntity
 67
     1
  8
SLD-0
 62
     7
100
AcDbMText
 10
488.5383241848
 20
42.5020345617
 30
0.0
 40
3.5
 41
0.0
 71
     1
 72
     1
  1
承　認
  7
SLDTEXTSTYLE5
 73
     1
 44
1.0
  0
MTEXT
  5
3F4
330
1B
100
AcDbEntity
 67
     1
  8
SLD-0
 62
     7
100
AcDbMText
 10
114.9868478385
 20
18.5449151837
 30
0.0
 40
3.1749999523
 41
0.0
 71
     1
 72
     1
  1
変　更　内　容
  7
SLDTEXTSTYLE6
 73
     1
 44
1.0
  0
MTEXT
  5
3F6
330
1B
100
AcDbEntity
 67
     1
  8
SLD-0
 62
     7
100
AcDbMText
 10
512.6464247343
 20
21.1238190587
 30
0.0
 40
4.7624998093
 41
0.0
 71
     1
 72
     1
  1
No.
  7
SLDTEXTSTYLE7
 73
     1
 44
1.0
  0
MTEXT
  5
3F7
330
1B
100
AcDbEntity
 67
     1
  8
SLD-0
 62
     7
100
AcDbMText
 10
506.1792863947
 20
19.9301796904
 30
0.0
 40
5.0
 41
0.0
 71
     1
 72
     1
  1
番
  7
SLDTEXTSTYLE3
 73
     1
 44
1.0
  0
MTEXT
  5
3F8
330
1B
100
AcDbEntity
 67
     1
  8
SLD-0
 62
     7
100
AcDbMText
 10
506.1809172984
 20
26.9324205507
 30
0.0
 40
5.0
 41
0.0
 71
     1
 72
     1
  1
図
  7
SLDTEXTSTYLE3
 73
     1
 44
1.0
  0
MTEXT
  5
3F9
330
1B
100
AcDbEntity
 67
     1
  8
SLD-0
 62
     7
100
AcDbMText
 10
467.2109099641
 20
42.5168357257
 30
0.0
 40
3.5
 41
0.0
 71
     1
 72
     1
  1
照　査
  7
SLDTEXTSTYLE5
 73
     1
 44
1.0
  0
MTEXT
  5
3FA
330
1B
100
AcDbEntity
 67
     1
  8
SLD-0
 62
     7
100
AcDbMText
 10
441.7864149466
 20
42.5205830192
 30
0.0
 40
3.5
 41
0.0
 71
     1
 72
     1
  1
製図・設計
  7
SLDTEXTSTYLE5
 73
     1
 44
1.0
  0
MTEXT
  5
3FB
330
1B
100
AcDbEntity
 67
     1
  8
SLD-0
 62
     7
100
AcDbMText
 10
416.8440157056
 20
23.2305638895
 30
0.0
 40
4.2333331108
 41
0.0
 71
     1
 72
     1
  1
第三角法
  7
SLDTEXTSTYLE6
 73
     1
 44
1.0
  0
MTEXT
  5
3FC
330
1B
100
AcDbEntity
 67
     1
  8
SLD-0
 62
     7
100
AcDbMText
 10
413.6427239016
 20
35.5538263859
 30
0.0
 40
5.0
 41
0.0
 71
     1
 72
     1
  1
度
  7
SLDTEXTSTYLE3
 73
     1
 44
1.0
  0
MTEXT
  5
3FD
330
1B
100
AcDbEntity
 67
     1
  8
SLD-0
 62
     7
100
AcDbMText
 10
413.6366684396
 20
42.8056100577
 30
0.0
 40
5.0
 41
0.0
 71
     1
 72
     1
  1
尺
  7
SLDTEXTSTYLE3
 73
     1
 44
1.0
  0
MTEXT
  5
3FE
330
1B
100
AcDbEntity
 67
     1
  8
SLD-0
 62
     7
100
AcDbMText
 10
356.8570670177
 20
35.5538263859
 30
0.0
 40
5.0
 41
0.0
 71
     1
 72
     1
  1
考
  7
SLDTEXTSTYLE3
 73
     1
 44
1.0
  0
MTEXT
  5
3FF
330
1B
100
AcDbEntity
 67
     1
  8
SLD-0
 62
     7
100
AcDbMText
 10
356.8663808387
 20
42.8612677296
 30
0.0
 40
5.0
 41
0.0
 71
     1
 72
     1
  1
備
  7
SLDTEXTSTYLE3
 73
     1
 44
1.0
  0
MTEXT
  5
400
330
1B
100
AcDbEntity
 67
     1
  8
SLD-0
 62
     7
100
AcDbMText
 10
196.3818565931
 20
20.2509373794
 30
0.0
 40
5.0
 41
0.0
 71
     1
 72
     1
  1
名
  7
SLDTEXTSTYLE3
 73
     1
 44
1.0
  0
MTEXT
  5
401
330
1B
100
AcDbEntity
 67
     1
  8
SLD-0
 62
     7
100
AcDbMText
 10
196.3698432033
 20
27.479064442
 30
0.0
 40
5.0
 41
0.0
 71
     1
 72
     1
  1
品
  7
SLDTEXTSTYLE3
 73
     1
 44
1.0
  0
MTEXT
  5
402
330
1B
100
AcDbEntity
 67
     1
  8
SLD-0
 62
     7
100
AcDbMText
 10
196.4501024409
 20
35.4078562037
 30
0.0
 40
5.0
 41
0.0
 71
     1
 72
     1
  1
称
  7
SLDTEXTSTYLE3
 73
     1
 44
1.0
  0
MTEXT
  5
403
330
1B
100
AcDbEntity
 67
     1
  8
SLD-0
 62
     7
100
AcDbMText
 10
196.4501024409
 20
42.9522505813
 30
0.0
 40
5.0
 41
0.0
 71
     1
 72
     1
  1
名
  7
SLDTEXTSTYLE3
 73
     1
 44
1.0
  0
MTEXT
  5
404
330
1B
100
AcDbEntity
 67
     1
  8
SLD-0
 62
     7
100
AcDbMText
 10
31.0928532846
 20
23.7438263859
 30
0.0
 40
5.0
 41
0.0
 71
     1
 72
     1
  1
訂
  7
SLDTEXTSTYLE3
 73
     1
 44
1.0
  0
MTEXT
  5
405
330
1B
100
AcDbEntity
 67
     1
  8
SLD-0
 62
     7
100
AcDbMText
 10
31.1168324536
 20
39.9191297664
 30
0.0
 40
5.0
 41
0.0
 71
     1
 72
     1
  1
改
  7
SLDTEXTSTYLE3
 73
     1
 44
1.0
  0
MTEXT
  5
406
330
1B
100
AcDbEntity
 67
     1
  8
SLD-0
 62
     7
100
AcDbMText
 10
281.5592910401
 20
20.1714224946
 30
0.0
 40
5.0
 41
0.0
 71
     1
 72
     1
  1
番
  7
SLDTEXTSTYLE3
 73
     1
 44
1.0
  0
MTEXT
  5
407
330
1B
100
AcDbEntity
 67
     1
  8
SLD-0
 62
     7
100
AcDbMText
 10
281.6501024409
 20
35.4078562037
 30
0.0
 40
5.0
 41
0.0
 71
     1
 72
     1
  1
質
  7
SLDTEXTSTYLE3
 73
     1
 44
1.0
  0
MTEXT
  5
408
330
1B
100
AcDbEntity
 67
     1
  8
SLD-0
 62
     7
100
AcDbMText
 10
281.5592910401
 20
27.3379097986
 30
0.0
 40
5.0
 41
0.0
 71
     1
 72
     1
  1
工
  7
SLDTEXTSTYLE3
 73
     1
 44
1.0
  0
MTEXT
  5
409
330
1B
100
AcDbEntity
 67
     1
  8
SLD-0
 62
     7
100
AcDbMText
 10
281.6501024409
 20
42.9522505813
 30
0.0
 40
5.0
 41
0.0
 71
     1
 72
     1
  1
材
  7
SLDTEXTSTYLE3
 73
     1
 44
1.0
  0
MTEXT
  5
40A
330
1B
100
AcDbEntity
 67
     1
  8
SLD-0
 62
     7
100
AcDbMText
 10
71.2287446922
 20
18.5440393675
 30
0.0
 40
3.1749999523
 41
0.0
 71
     1
 72
     1
  1
担当者
  7
SLDTEXTSTYLE5
 73
     1
 44
1.0
  0
MTEXT
  5
40B
330
1B
100
AcDbEntity
 67
     1
  8
SLD-0
 62
     7
100
AcDbMText
 10
55.6199420963
 20
18.6943587202
 30
0.0
 40
3.1749999523
 41
0.0
 71
     1
 72
     1
  1
日付
  7
SLDTEXTSTYLE6
 73
     1
 44
1.0
  0
MTEXT
  5
40C
330
1B
100
AcDbEntity
 67
     1
  8
SLD-0
 62
     7
100
AcDbMText
 10
39.2629132992
 20
18.4976059764
 30
0.0
 40
3.1749999523
 41
0.0
 71
     1
 72
     1
  1
記号
  7
SLDTEXTSTYLE6
 73
     1
 44
1.0
  0
MTEXT
  5
40E
330
1B
100
AcDbEntity
 67
     1
  8
SLD-0
 62
     7
100
AcDbMText
 10
602.2331315244
 20
21.608098364
 30
0.0
 40
7.9375
 41
0.0
 71
     1
 72
     1
  1
A2
  7
SLDTEXTSTYLE8
 73
     1
 44
1.0
  0
MTEXT
  5
40F
330
1B
100
AcDbEntity
 67
     1
  8
SLD-0
 62
     7
100
AcDbMText
 10
575.196409591
 20
10.7546136612
 30
0.0
 40
2.6458332539
 41
0.0
 71
     1
 72
     1
  1
A2
  7
SLDTEXTSTYLE4
 73
     1
 44
1.0
  0
MTEXT
  5
411
330
1B
100
AcDbEntity
 67
     1
  8
SLD-0
 62
     7
100
AcDbMText
 10
176.1819999933
 20
18.439766775
 30
0.0
 40
3.2000000477
 41
0.0
 71
     1
 72
     1
  1
通　知　書
  7
SLDTEXTSTYLE9
 73
     1
 44
1.0
  0
MTEXT
  5
413
330
1B
100
AcDbEntity
 67
     1
  8
SLD-0
 62
     7
100
AcDbMText
 10
328.0433062755
 20
43.0886902341
 30
0.0
 40
5.0
 41
0.0
 71
     1
 72
     1
  1
個
  7
SLDTEXTSTYLE10
 73
     1
 44
1.0
  0
MTEXT
  5
414
330
1B
100
AcDbEntity
 67
     1
  8
SLD-0
 62
     7
100
AcDbMText
 10
328.0433062755
 20
35.5886902341
 30
0.0
 40
5.0
 41
0.0
 71
     1
 72
     1
  1
数
  7
SLDTEXTSTYLE10
 73
     1
 44
1.0
  0
MTEXT
  5
416
330
1B
100
AcDbEntity
 67
     1
  8
SLD-0
 62
     7
100
AcDbMText
 10
441.1031852711
 20
18.6929296531
 30
0.0
 40
4.3000001907
 41
0.0
 71
     1
 72
     1
  1
′０８．１０．２０
  7
SLDTEXTSTYLE11
 73
     1
 44
1.0
  0
ENDSEC
  0
SECTION
  2
OBJECTS
  0
DICTIONARY
  5
C
330
0
100
AcDbDictionary
281
     1
  3
ACAD_GROUP
350
D
  3
ACAD_LAYOUT
350
1A
  3
ACAD_MLINESTYLE
350
17
  3
ACAD_PLOTSETTINGS
350
19
  3
ACAD_PLOTSTYLENAME
350
E
  3
ACAD_SCALELIST
350
47
  0
DICTIONARY
  5
D
102
{ACAD_REACTORS
330
C
102
}
330
C
100
AcDbDictionary
281
     1
  0
DICTIONARY
  5
1A
102
{ACAD_REACTORS
330
C
102
}
330
C
100
AcDbDictionary
281
     1
  3
Model
350
22
  3
SW_Model_1
350
1E
  0
DICTIONARY
  5
17
102
{ACAD_REACTORS
330
C
102
}
330
C
100
AcDbDictionary
281
     1
  3
Standard
350
18
  0
DICTIONARY
  5
19
102
{ACAD_REACTORS
330
C
102
}
330
C
100
AcDbDictionary
281
     1
  0
ACDBDICTIONARYWDFLT
  5
E
102
{ACAD_REACTORS
330
C
102
}
330
C
100
AcDbDictionary
281
     1
  3
Normal
350
F
100
AcDbDictionaryWithDefault
340
F
  0
DICTIONARY
  5
47
102
{ACAD_REACTORS
330
C
102
}
330
C
100
AcDbDictionary
281
     1
  3
A0
350
48
  3
A1
350
49
  3
A2
350
4A
  3
A3
350
4B
  3
A4
350
4C
  3
A5
350
4D
  3
A6
350
4E
  3
A7
350
4F
  3
A8
350
50
  3
A9
350
51
  3
B0
350
52
  3
B1
350
53
  3
B2
350
54
  3
B3
350
55
  3
B4
350
56
  3
B5
350
57
  3
B6
350
58
  3
B7
350
59
  3
B8
350
5A
  3
B9
350
5B
  3
C0
350
5C
  3
C1
350
5D
  3
C2
350
5E
  3
C3
350
5F
  3
C4
350
60
  3
C5
350
61
  3
C6
350
62
  3
C7
350
63
  3
C8
350
64
  3
C9
350
65
  3
D0
350
66
  3
D1
350
67
  3
D2
350
68
  0
LAYOUT
  5
22
102
{ACAD_REACTORS
330
1A
102
}
330
1A
100
AcDbPlotSettings
  1

  2
none_device
  4
Letter_(8.50_x_11.00_Inches)
  6

 40
6.35
 41
6.35
 42
6.35000508
 43
6.35000508
 44
215.9
 45
279.4
 46
0.0
 47
0.0
 48
0.0
 49
0.0
140
0.0
141
0.0
142
1.0
143
1.0
 70
  1712
 72
     1
 73
     0
 74
     0
  7

 75
     0
147
1.0
148
0.0
149
0.0
100
AcDbLayout
  1
Model
 70
     1
 71
     0
 10
0.0
 20
0.0
 11
594.0
 21
420.0
 12
0.0
 22
0.0
 32
0.0
 14
0.0
 24
0.0
 34
0.0
 15
594.0
 25
420.0
 35
0.0
146
0.0
 13
0.0
 23
0.0
 33
0.0
 16
1.0
 26
0.0
 36
0.0
 17
0.0
 27
1.0
 37
0.0
 76
     0
330
1F
331
29
  0
LAYOUT
  5
1E
102
{ACAD_REACTORS
330
1A
102
}
330
1A
100
AcDbPlotSettings
  1

  2
none_device
  4
ISO_A2_(594.00_x_420.00_MM)
  6

 40
7.5
 41
20.0
 42
7.5
 43
20.0
 44
594.0
 45
420.0
 46
0.0
 47
0.0
 48
0.0
 49
0.0
140
0.0
141
0.0
142
1.0
143
1.0
 70
  4832
 72
     1
 73
     0
 74
     1
  7

 75
     0
147
1.0
148
0.0
149
0.0
100
AcDbLayout
  1
SW_Model_1
 70
     1
 71
     1
 10
0.0
 20
0.0
 11
594.0
 21
420.0
 12
0.0
 22
0.0
 32
0.0
 14
0.0
 24
0.0
 34
0.0
 15
594.0
 25
420.0
 35
0.0
146
0.0
 13
0.0
 23
0.0
 33
0.0
 16
1.0
 26
0.0
 36
0.0
 17
0.0
 27
1.0
 37
0.0
 76
     0
330
1B
331
77
  0
MLINESTYLE
  5
18
102
{ACAD_REACTORS
330
17
102
}
330
17
100
AcDbMlineStyle
  2
Standard
 70
     0
  3

 62
   256
 51
90.0
 52
90.0
 71
     2
 49
0.5
 62
   256
  6
BYLAYER
 49
-0.5
 62
   256
  6
BYLAYER
  0
ACDBPLACEHOLDER
  5
F
102
{ACAD_REACTORS
330
E
102
}
330
E
  0
SCALE
  5
48
102
{ACAD_REACTORS
330
47
102
}
330
47
100
AcDbScale
 70
     0
300
1:1
140
1.0
141
1.0
290
     1
  0
SCALE
  5
49
102
{ACAD_REACTORS
330
47
102
}
330
47
100
AcDbScale
 70
     0
300
1:2
140
1.0
141
2.0
290
     0
  0
SCALE
  5
4A
102
{ACAD_REACTORS
330
47
102
}
330
47
100
AcDbScale
 70
     0
300
1:4
140
1.0
141
4.0
290
     0
  0
SCALE
  5
4B
102
{ACAD_REACTORS
330
47
102
}
330
47
100
AcDbScale
 70
     0
300
1:5
140
1.0
141
5.0
290
     0
  0
SCALE
  5
4C
102
{ACAD_REACTORS
330
47
102
}
330
47
100
AcDbScale
 70
     0
300
1:8
140
1.0
141
8.0
290
     0
  0
SCALE
  5
4D
102
{ACAD_REACTORS
330
47
102
}
330
47
100
AcDbScale
 70
     0
300
1:10
140
1.0
141
10.0
290
     0
  0
SCALE
  5
4E
102
{ACAD_REACTORS
330
47
102
}
330
47
100
AcDbScale
 70
     0
300
1:16
140
1.0
141
16.0
290
     0
  0
SCALE
  5
4F
102
{ACAD_REACTORS
330
47
102
}
330
47
100
AcDbScale
 70
     0
300
1:20
140
1.0
141
20.0
290
     0
  0
SCALE
  5
50
102
{ACAD_REACTORS
330
47
102
}
330
47
100
AcDbScale
 70
     0
300
1:30
140
1.0
141
30.0
290
     0
  0
SCALE
  5
51
102
{ACAD_REACTORS
330
47
102
}
330
47
100
AcDbScale
 70
     0
300
1:40
140
1.0
141
40.0
290
     0
  0
SCALE
  5
52
102
{ACAD_REACTORS
330
47
102
}
330
47
100
AcDbScale
 70
     0
300
1:50
140
1.0
141
50.0
290
     0
  0
SCALE
  5
53
102
{ACAD_REACTORS
330
47
102
}
330
47
100
AcDbScale
 70
     0
300
1:100
140
1.0
141
100.0
290
     0
  0
SCALE
  5
54
102
{ACAD_REACTORS
330
47
102
}
330
47
100
AcDbScale
 70
     0
300
2:1
140
2.0
141
1.0
290
     0
  0
SCALE
  5
55
102
{ACAD_REACTORS
330
47
102
}
330
47
100
AcDbScale
 70
     0
300
4:1
140
4.0
141
1.0
290
     0
  0
SCALE
  5
56
102
{ACAD_REACTORS
330
47
102
}
330
47
100
AcDbScale
 70
     0
300
8:1
140
8.0
141
1.0
290
     0
  0
SCALE
  5
57
102
{ACAD_REACTORS
330
47
102
}
330
47
100
AcDbScale
 70
     0
300
10:1
140
10.0
141
1.0
290
     0
  0
SCALE
  5
58
102
{ACAD_REACTORS
330
47
102
}
330
47
100
AcDbScale
 70
     0
300
100:1
140
100.0
141
1.0
290
     0
  0
SCALE
  5
59
102
{ACAD_REACTORS
330
47
102
}
330
47
100
AcDbScale
 70
     0
300
1/128" = 1'-0"
140
0.0078125
141
12.0
290
     0
  0
SCALE
  5
5A
102
{ACAD_REACTORS
330
47
102
}
330
47
100
AcDbScale
 70
     0
300
1/64" = 1'-0"
140
0.015625
141
12.0
290
     0
  0
SCALE
  5
5B
102
{ACAD_REACTORS
330
47
102
}
330
47
100
AcDbScale
 70
     0
300
1/32" = 1'-0"
140
0.03125
141
12.0
290
     0
  0
SCALE
  5
5C
102
{ACAD_REACTORS
330
47
102
}
330
47
100
AcDbScale
 70
     0
300
1/16" = 1'-0"
140
0.0625
141
12.0
290
     0
  0
SCALE
  5
5D
102
{ACAD_REACTORS
330
47
102
}
330
47
100
AcDbScale
 70
     0
300
3/32" = 1'-0"
140
0.09375
141
12.0
290
     0
  0
SCALE
  5
5E
102
{ACAD_REACTORS
330
47
102
}
330
47
100
AcDbScale
 70
     0
300
1/8" = 1'-0"
140
0.125
141
12.0
290
     0
  0
SCALE
  5
5F
102
{ACAD_REACTORS
330
47
102
}
330
47
100
AcDbScale
 70
     0
300
3/16" = 1'-0"
140
0.1875
141
12.0
290
     0
  0
SCALE
  5
60
102
{ACAD_REACTORS
330
47
102
}
330
47
100
AcDbScale
 70
     0
300
1/4" = 1'-0"
140
0.25
141
12.0
290
     0
  0
SCALE
  5
61
102
{ACAD_REACTORS
330
47
102
}
330
47
100
AcDbScale
 70
     0
300
3/8" = 1'-0"
140
0.375
141
12.0
290
     0
  0
SCALE
  5
62
102
{ACAD_REACTORS
330
47
102
}
330
47
100
AcDbScale
 70
     0
300
1/2" = 1'-0"
140
0.5
141
12.0
290
     0
  0
SCALE
  5
63
102
{ACAD_REACTORS
330
47
102
}
330
47
100
AcDbScale
 70
     0
300
3/4" = 1'-0"
140
0.75
141
12.0
290
     0
  0
SCALE
  5
64
102
{ACAD_REACTORS
330
47
102
}
330
47
100
AcDbScale
 70
     0
300
1" = 1'-0"
140
1.0
141
12.0
290
     0
  0
SCALE
  5
65
102
{ACAD_REACTORS
330
47
102
}
330
47
100
AcDbScale
 70
     0
300
1-1/2" = 1'-0"
140
1.5
141
12.0
290
     0
  0
SCALE
  5
66
102
{ACAD_REACTORS
330
47
102
}
330
47
100
AcDbScale
 70
     0
300
3" = 1'-0"
140
3.0
141
12.0
290
     0
  0
SCALE
  5
67
102
{ACAD_REACTORS
330
47
102
}
330
47
100
AcDbScale
 70
     0
300
6" = 1'-0"
140
6.0
141
12.0
290
     0
  0
SCALE
  5
68
102
{ACAD_REACTORS
330
47
102
}
330
47
100
AcDbScale
 70
     0
300
1'-0" = 1'-0"
140
12.0
141
12.0
290
     0
  0
ENDSEC
  0
EOF
