  0
SECTION
  2
HEADER
  9
$ACADVER
  1
AC1015
  9
$ACADMAINTVER
 70
     6
  9
$DWGCODEPAGE
  3
ANSI_932
  9
$INSBASE
 10
0.0
 20
0.0
 30
0.0
  9
$EXTMIN
 10
-105.0
 20
-148.5
 30
0.0
  9
$EXTMAX
 10
105.0
 20
148.5
 30
0.0
  9
$LIMMIN
 10
-105.0
 20
-148.5
  9
$LIMMAX
 10
105.0
 20
148.5
  9
$ORTHOMODE
 70
     0
  9
$REGENMODE
 70
     1
  9
$FILLMODE
 70
     1
  9
$QTEXTMODE
 70
     0
  9
$MIRRTEXT
 70
     1
  9
$LTSCALE
 40
1.0
  9
$ATTMODE
 70
     1
  9
$TEXTSIZE
 40
2.5
  9
$TRACEWID
 40
0.05
  9
$TEXTSTYLE
  7
MX_NOTE_STANDARD
  9
$CLAYER
  8
DEFPOINTS
  9
$CELTYPE
  6
CONTINUOUS
  9
$CECOLOR
 62
   256
  9
$CELTSCALE
 40
1.0
  9
$DISPSILH
 70
     0
  9
$DIMSCALE
 40
1.0
  9
$DIMASZ
 40
2.5
  9
$DIMEXO
 40
1.5
  9
$DIMDLI
 40
3.75
  9
$DIMRND
 40
0.0
  9
$DIMDLE
 40
0.0
  9
$DIMEXE
 40
1.5
  9
$DIMTP
 40
0.0
  9
$DIMTM
 40
0.0
  9
$DIMTXT
 40
2.5
  9
$DIMCEN
 40
2.5
  9
$DIMTSZ
 40
0.0
  9
$DIMTOL
 70
     0
  9
$DIMLIM
 70
     0
  9
$DIMTIH
 70
     0
  9
$DIMTOH
 70
     0
  9
$DIMSE1
 70
     0
  9
$DIMSE2
 70
     0
  9
$DIMTAD
 70
     1
  9
$DIMZIN
 70
     8
  9
$DIMBLK
  1

  9
$DIMASO
 70
     1
  9
$DIMSHO
 70
     1
  9
$DIMPOST
  1

  9
$DIMAPOST
  1

  9
$DIMALT
 70
     0
  9
$DIMALTD
 70
     4
  9
$DIMALTF
 40
0.03937
  9
$DIMLFAC
 40
1.0
  9
$DIMTOFL
 70
     1
  9
$DIMTVP
 40
0.0
  9
$DIMTIX
 70
     0
  9
$DIMSOXD
 70
     0
  9
$DIMSAH
 70
     1
  9
$DIMBLK1
  1
_OPEN30
  9
$DIMBLK2
  1
_OPEN30
  9
$DIMSTYLE
  2
MXDIMSTYLE
  9
$DIMCLRD
 70
     0
  9
$DIMCLRE
 70
     0
  9
$DIMCLRT
 70
     0
  9
$DIMTFAC
 40
1.0
  9
$DIMGAP
 40
1.0
  9
$DIMJUST
 70
     0
  9
$DIMSD1
 70
     0
  9
$DIMSD2
 70
     0
  9
$DIMTOLJ
 70
     0
  9
$DIMTZIN
 70
     0
  9
$DIMALTZ
 70
     0
  9
$DIMALTTZ
 70
     0
  9
$DIMUPT
 70
     0
  9
$DIMDEC
 70
     2
  9
$DIMTDEC
 70
     2
  9
$DIMALTU
 70
     2
  9
$DIMALTTD
 70
     4
  9
$DIMTXSTY
  7
MX_NOTE_STANDARD
  9
$DIMAUNIT
 70
     0
  9
$DIMADEC
 70
     0
  9
$DIMALTRND
 40
0.0
  9
$DIMAZIN
 70
     0
  9
$DIMDSEP
 70
    46
  9
$DIMATFIT
 70
     3
  9
$DIMFRAC
 70
     0
  9
$DIMLDRBLK
  1
_OPEN30
  9
$DIMLUNIT
 70
     2
  9
$DIMLWD
 70
    -2
  9
$DIMLWE
 70
    -2
  9
$DIMTMOVE
 70
     0
  9
$LUNITS
 70
     2
  9
$LUPREC
 70
     4
  9
$SKETCHINC
 40
0.1
  9
$FILLETRAD
 40
0.0
  9
$AUNITS
 70
     0
  9
$AUPREC
 70
     0
  9
$MENU
  1
acad
  9
$ELEVATION
 40
0.0
  9
$PELEVATION
 40
0.0
  9
$THICKNESS
 40
0.0
  9
$LIMCHECK
 70
     0
  9
$CHAMFERA
 40
0.0
  9
$CHAMFERB
 40
0.0
  9
$CHAMFERC
 40
0.0
  9
$CHAMFERD
 40
0.0
  9
$SKPOLY
 70
     0
  9
$TDCREATE
 40
2459144.754502315
  9
$TDUCREATE
 40
0.000000000
  9
$TDUPDATE
 40
2459144.754502315
  9
$TDUUPDATE
 40
0.000000000
  9
$TDINDWG
 40
0.0000000000
  9
$TDUSRTIMER
 40
0.0000000000
  9
$USRTIMER
 70
     1
  9
$ANGBASE
 50
0.0
  9
$ANGDIR
 70
     0
  9
$PDMODE
 70
     0
  9
$PDSIZE
 40
0.0
  9
$PLINEWID
 40
0.0
  9
$SPLFRAME
 70
     0
  9
$SPLINETYPE
 70
     6
  9
$SPLINESEGS
 70
     8
  9
$HANDSEED
  5
4DC
  9
$SURFTAB1
 70
     6
  9
$SURFTAB2
 70
     6
  9
$SURFTYPE
 70
     6
  9
$SURFU
 70
     6
  9
$SURFV
 70
     6
  9
$UCSBASE
  2

  9
$UCSNAME
  2

  9
$UCSORG
 10
0.0
 20
0.0
 30
0.0
  9
$UCSXDIR
 10
1.0
 20
0.0
 30
0.0
  9
$UCSYDIR
 10
0.0
 20
1.0
 30
0.0
  9
$UCSORTHOREF
  2

  9
$UCSORTHOVIEW
 70
     0
  9
$UCSORGTOP
 10
0.0
 20
0.0
 30
0.0
  9
$UCSORGBOTTOM
 10
0.0
 20
0.0
 30
0.0
  9
$UCSORGLEFT
 10
0.0
 20
0.0
 30
0.0
  9
$UCSORGRIGHT
 10
0.0
 20
0.0
 30
0.0
  9
$UCSORGFRONT
 10
0.0
 20
0.0
 30
0.0
  9
$UCSORGBACK
 10
0.0
 20
0.0
 30
0.0
  9
$PUCSBASE
  2

  9
$PUCSNAME
  2

  9
$PUCSORG
 10
0.0
 20
0.0
 30
0.0
  9
$PUCSXDIR
 10
1.0
 20
0.0
 30
0.0
  9
$PUCSYDIR
 10
0.0
 20
1.0
 30
0.0
  9
$PUCSORTHOREF
  2

  9
$PUCSORTHOVIEW
 70
     0
  9
$PUCSORGTOP
 10
0.0
 20
0.0
 30
0.0
  9
$PUCSORGBOTTOM
 10
0.0
 20
0.0
 30
0.0
  9
$PUCSORGLEFT
 10
0.0
 20
0.0
 30
0.0
  9
$PUCSORGRIGHT
 10
0.0
 20
0.0
 30
0.0
  9
$PUCSORGFRONT
 10
0.0
 20
0.0
 30
0.0
  9
$PUCSORGBACK
 10
0.0
 20
0.0
 30
0.0
  9
$USERI1
 70
     0
  9
$USERI2
 70
     0
  9
$USERI3
 70
     0
  9
$USERI4
 70
     0
  9
$USERI5
 70
     0
  9
$USERR1
 40
0.0
  9
$USERR2
 40
0.0
  9
$USERR3
 40
0.0
  9
$USERR4
 40
0.0
  9
$USERR5
 40
0.0
  9
$WORLDVIEW
 70
     1
  9
$SHADEDGE
 70
     3
  9
$SHADEDIF
 70
    70
  9
$TILEMODE
 70
     1
  9
$MAXACTVP
 70
    16
  9
$PINSBASE
 10
0.0
 20
0.0
 30
0.0
  9
$PLIMCHECK
 70
     0
  9
$PEXTMIN
 10
1.000000E+20
 20
1.000000E+20
 30
1.000000E+20
  9
$PEXTMAX
 10
-1.000000E+20
 20
-1.000000E+20
 30
-1.000000E+20
  9
$PLIMMIN
 10
0.0
 20
0.0
  9
$PLIMMAX
 10
12.0
 20
9.0
  9
$UNITMODE
 70
     0
  9
$VISRETAIN
 70
     0
  9
$PLINEGEN
 70
     1
  9
$PSLTSCALE
 70
     0
  9
$TREEDEPTH
 70
  3020
  9
$CMLSTYLE
  2
Standard
  9
$CMLJUST
 70
     0
  9
$CMLSCALE
 40
1.0
  9
$PROXYGRAPHICS
 70
     0
  9
$MEASUREMENT
 70
     1
  9
$CELWEIGHT
370
     0
  9
$ENDCAPS
280
     0
  9
$JOINSTYLE
280
     0
  9
$LWDISPLAY
290
     0
  9
$INSUNITS
 70
     0
  9
$HYPERLINKBASE
  1

  9
$STYLESHEET
  1

  9
$XEDIT
290
     1
  9
$CEPSNTYPE
380
     0
  9
$PSTYLEMODE
290
     1
  9
$FINGERPRINTGUID
  2

  9
$VERSIONGUID
  2

  9
$EXTNAMES
290
     1
  9
$PSVPSCALE
 40
0.0
  0
ENDSEC
  0
SECTION
  2
CLASSES
  0
CLASS
  1
LWPOLYLINE
  2
AcDbPolyline
  3
AutoCAD 2000
 90
        0
280
     0
281
     1
  0
CLASS
  1
IMAGE
  2
AcDbRasterImage
  3
ISM
 90
      127
280
     0
281
     1
  0
CLASS
  1
OLE2FRAME
  2
AcDbOle2Frame
  3
AutoCAD 2000
 90
        0
280
     0
281
     1
  0
CLASS
  1
HATCH
  2
AcDbHatch
  3
AutoCAD 2000
 90
        0
280
     0
281
     1
  0
CLASS
  1
DICTIONARYVAR
  2
AcDbDictionaryVar
  3
AutoCAD 2000
 90
        0
280
     0
281
     0
  0
CLASS
  1
RASTERVARIABLES
  2
AcDbRasterVariables
  3
ISM
 90
        0
280
     0
281
     0
  0
CLASS
  1
IMAGEDEF
  2
AcDbRasterImageDef
  3
ISM
 90
        0
280
     0
281
     0
  0
CLASS
  1
IMAGEDEF_REACTOR
  2
AcDbRasterImageDefReactor
  3
ISM
 90
        1
280
     0
281
     0
  0
CLASS
  1
IDBUFFER
  2
AcDbIdBuffer
  3
AutoCAD 2000
 90
        0
280
     0
281
     0
  0
CLASS
  1
SPATIAL_FILTER
  2
AcDbSpatialFilter
  3
AutoCAD 2000
 90
        0
280
     0
281
     0
  0
CLASS
  1
XRECORD
  2
AcDbXrecord
  3
AutoCAD 2000
 90
        0
280
     0
281
     0
  0
CLASS
  1
SORTENTSTABLE
  2
AcDbSortentsTable
  3
AutoCAD 2000
 90
        0
280
     0
281
     0
  0
CLASS
  1
LAYER_INDEX
  2
AcDbLayerIndex
  3
AutoCAD 2000
 90
        0
280
     0
281
     0
  0
CLASS
  1
SPATIAL_INDEX
  2
AcDbSpatialIndex
  3
AutoCAD 2000
 90
        0
280
     0
281
     0
  0
CLASS
  1
OBJECT_PTR
  2
CAseDLPNTableRecord
  3
"ASE-LPNTableRecord"
 90
        1
280
     0
281
     0
  0
CLASS
  1
LAYOUT
  2
AcDbLayout
  3
AutoCAD 2000
 90
        0
280
     0
281
     0
  0
CLASS
  1
PLOTSETTINGS
  2
AcDbPlotSettings
  3
AutoCAD 2000
 90
        0
280
     0
281
     0
  0
CLASS
  1
ACDBDICTIONARYWDFLT
  2
AcDbDictionaryWithDefault
  3
AutoCAD 2000
 90
        0
280
     0
281
     0
  0
CLASS
  1
ACDBPLACEHOLDER
  2
AcDbPlaceHolder
  3
AutoCAD 2000
 90
        0
280
     0
281
     0
  0
ENDSEC
  0
SECTION
  2
TABLES
  0
TABLE
  2
VPORT
  5
7
100
AcDbSymbolTable
 70
     1
  0
VPORT
  5
15
100
AcDbSymbolTableRecord
100
AcDbViewportTableRecord
  2
*ACTIVE
 70
     0
 10
0.0
 20
0.0
 11
1.0
 21
1.0
 12
0.0
 22
0.0
 13
0.0
 23
0.0
 14
1.0
 24
1.0
 15
0.0
 25
0.0
 16
0.0
 26
0.0
 36
1.0
 17
0.0
 27
0.0
 37
0.0
 40
299.97
 41
1.732051
 42
50.0
 43
0.0
 44
0.0
 50
0.0
 51
0.0
 71
     0
 72
   100
 73
     1
 74
     1
 75
     0
 76
     0
 77
     0
 78
     0
281
     0
 65
     0
110
0.0
120
0.0
130
0.0
111
1.0
121
0.0
131
0.0
112
0.0
122
1.0
132
0.0
345
0
346
0
 79
     0
146
0.0
  0
ENDTAB
  0
TABLE
  2
LTYPE
  5
4
100
AcDbSymbolTable
 70
     5
  0
LTYPE
  5
11
100
AcDbSymbolTableRecord
100
AcDbLinetypeTableRecord
  2
BYBLOCK
 70
    64
  3

 72
    65
 73
     0
 40
0.0
  0
LTYPE
  5
12
100
AcDbSymbolTableRecord
100
AcDbLinetypeTableRecord
  2
BYLAYER
 70
    64
  3

 72
    65
 73
     0
 40
0.0
  0
LTYPE
  5
13
100
AcDbSymbolTableRecord
100
AcDbLinetypeTableRecord
  2
CONTINUOUS
 70
    64
  3
Solid line
 72
    65
 73
     0
 40
0.0
  0
LTYPE
  5
8E
100
AcDbSymbolTableRecord
100
AcDbLinetypeTableRecord
  2
CENTER
 70
    64
  3
Center ____ _ ____ _ ____ _ ____ _ ____ _ ____
 72
    65
 73
     4
 40
50.8
 49
31.75
 74
     0
 49
-6.35
 74
     0
 49
6.35
 74
     0
 49
-6.35
 74
     0
  0
LTYPE
  5
B5
100
AcDbSymbolTableRecord
100
AcDbLinetypeTableRecord
  2
NON_PLOTING
 70
     0
  3
Solid line
 72
    65
 73
     0
 40
0.0
  0
ENDTAB
  0
TABLE
  2
LAYER
  5
2
100
AcDbSymbolTable
 70
     4
  0
LAYER
  5
14
100
AcDbSymbolTableRecord
100
AcDbLayerTableRecord
  2
0
 70
     0
 62
     7
  6
CONTINUOUS
290
     1
370
    -3
390
1D
  0
LAYER
  5
23
100
AcDbSymbolTableRecord
100
AcDbLayerTableRecord
  2
DEFPOINTS
 70
     0
 62
     7
  6
CONTINUOUS
290
     0
370
    -3
390
1D
  0
LAYER
  5
24
100
AcDbSymbolTableRecord
100
AcDbLayerTableRecord
  2
CLASS1
 70
     0
 62
     7
  6
CONTINUOUS
290
     1
370
    -3
390
1D
  0
LAYER
  5
25
100
AcDbSymbolTableRecord
100
AcDbLayerTableRecord
  2
1_2
 70
     0
 62
     7
  6
CONTINUOUS
290
     1
370
    -3
390
1D
  0
ENDTAB
  0
TABLE
  2
STYLE
  5
3
100
AcDbSymbolTable
 70
     7
  0
STYLE
  5
17
100
AcDbSymbolTableRecord
100
AcDbTextStyleTableRecord
  2
MX_NOTE_STANDARD
 70
     0
 40
0.0
 41
1.0
 50
0.0
 71
     0
 42
2.5
  3
txt.shx
  4
extfont.shx
  0
STYLE
  5
CE
100
AcDbSymbolTableRecord
100
AcDbTextStyleTableRecord
  2
MX_DIMTXSTY_2
 70
     0
 40
0.0
 41
1.4
 50
0.0
 71
     0
 42
2.5
  3
txt.shx
  4
extfont.shx
  0
STYLE
  5
1C3
100
AcDbSymbolTableRecord
100
AcDbTextStyleTableRecord
  2
MX_DIMTXSTY_3
 70
     0
 40
0.0
 41
1.15
 50
0.0
 71
     0
 42
2.5
  3
txt.shx
  4
extfont.shx
  0
STYLE
  5
1F1
100
AcDbSymbolTableRecord
100
AcDbTextStyleTableRecord
  2
MX_DIMTXSTY_4
 70
     0
 40
0.0
 41
1.25
 50
0.0
 71
     0
 42
2.5
  3
txt.shx
  4
extfont.shx
  0
STYLE
  5
234
100
AcDbSymbolTableRecord
100
AcDbTextStyleTableRecord
  2
MX_DIMTXSTY_5
 70
     0
 40
0.0
 41
1.55
 50
0.0
 71
     0
 42
2.5
  3
txt.shx
  4
extfont.shx
  0
STYLE
  5
251
100
AcDbSymbolTableRecord
100
AcDbTextStyleTableRecord
  2
MX_DIMTXSTY_6
 70
     0
 40
0.0
 41
1.65
 50
0.0
 71
     0
 42
2.5
  3
txt.shx
  4
extfont.shx
  0
STYLE
  5
4B2
100
AcDbSymbolTableRecord
100
AcDbTextStyleTableRecord
  2
MX_DIMTXSTY_7
 70
     0
 40
0.0
 41
0.85
 50
0.0
 71
     0
 42
2.5
  3
txt.shx
  4
extfont.shx
  0
ENDTAB
  0
TABLE
  2
VIEW
  5
5
100
AcDbSymbolTable
 70
     0
  0
ENDTAB
  0
TABLE
  2
UCS
  5
6
100
AcDbSymbolTable
 70
     0
  0
ENDTAB
  0
TABLE
  2
APPID
  5
8
100
AcDbSymbolTable
 70
     2
  0
APPID
  5
16
100
AcDbSymbolTableRecord
100
AcDbRegAppTableRecord
  2
ACAD
 70
     0
  0
APPID
  5
30
100
AcDbSymbolTableRecord
100
AcDbRegAppTableRecord
  2
CONTENTBLOCKDESCRIPTION
 70
     0
  0
ENDTAB
  0
TABLE
  2
DIMSTYLE
  5
9
100
AcDbSymbolTable
 70
     2
100
AcDbDimStyleTable
 71
     0
  0
DIMSTYLE
105
18
100
AcDbSymbolTableRecord
100
AcDbDimStyleTableRecord
  2
MXDIMSTYLE
 70
     0
  3

  4

 40
1.0
 41
2.5
 42
1.5
 43
3.75
 44
1.5
 45
0.0
 46
0.0
 47
0.0
 48
0.0
 71
     0
 72
     0
 73
     0
 74
     0
 75
     0
 76
     0
 77
     1
 78
     8
 79
     0
140
2.5
141
2.5
142
0.0
143
0.03937
144
1.0
145
0.0
146
1.0
147
1.0
148
0.0
170
     0
171
     4
172
     1
173
     1
174
     0
175
     0
176
     0
177
     0
178
     0
179
     0
271
     2
272
     2
273
     2
274
     4
275
     0
276
     0
277
     2
278
    46
279
     0
280
     0
281
     0
282
     0
283
     0
284
     0
285
     0
286
     0
288
     0
289
     3
340
17
341
26
342
0
343
26
344
26
371
    -2
372
    -2
  0
DIMSTYLE
105
4AA
100
AcDbSymbolTableRecord
100
AcDbDimStyleTableRecord
  2
MX_DIMSTYLE_1_2
 70
     0
  3

  4

 40
1.0
 41
2.5
 42
1.5
 43
3.75
 44
1.5
 45
0.0
 46
0.0
 47
0.0
 48
0.0
 71
     0
 72
     0
 73
     0
 74
     0
 75
     0
 76
     0
 77
     1
 78
     8
 79
     0
140
2.5
141
2.5
142
0.0
143
0.03937
144
2.0
145
0.0
146
1.0
147
1.0
148
0.0
170
     0
171
     4
172
     1
173
     1
174
     0
175
     0
176
     0
177
     0
178
     0
179
     0
271
     2
272
     2
273
     2
274
     4
275
     0
276
     0
277
     2
278
    46
279
     0
280
     0
281
     0
282
     0
283
     0
284
     0
285
     0
286
     0
288
     0
289
     3
340
17
341
26
342
0
343
26
344
26
371
    -2
372
    -2
  0
ENDTAB
  0
TABLE
  2
BLOCK_RECORD
  5
1
100
AcDbSymbolTable
 70
    17
  0
BLOCK_RECORD
  5
A
100
AcDbSymbolTableRecord
100
AcDbBlockTableRecord
  2
*MODEL_SPACE
340
20
  0
BLOCK_RECORD
  5
B
100
AcDbSymbolTableRecord
100
AcDbBlockTableRecord
  2
*PAPER_SPACE
340
21
  0
BLOCK_RECORD
  5
26
100
AcDbSymbolTableRecord
100
AcDbBlockTableRecord
  2
_OPEN30
340
0
102
{BLKREFS
331
CC
331
CD
331
1C1
331
1C2
331
1D2
331
1D3
331
1E2
331
1E3
331
1EF
331
1F0
331
1FD
331
1FE
331
20A
331
20B
331
217
331
218
331
232
331
233
331
24F
331
250
331
4B0
331
4B1
331
4BD
331
4BE
102
}
  0
BLOCK_RECORD
  5
2F
100
AcDbSymbolTableRecord
100
AcDbBlockTableRecord
  2
$KAKUDAI-2
340
0
102
{BLKREFS
331
7F
102
}
1001
CONTENTBLOCKDESCRIPTION
1071
        0
1000
ICAD/MX UserSymbol^M^Jtable_name:KAKUDAI^M^Jsymbol_no.:  2
  0
BLOCK_RECORD
  5
80
100
AcDbSymbolTableRecord
100
AcDbBlockTableRecord
  2
$KAKUDAI-3
340
0
102
{BLKREFS
331
8D
102
}
1001
CONTENTBLOCKDESCRIPTION
1071
        0
1000
ICAD/MX UserSymbol^M^Jtable_name:KAKUDAI^M^Jsymbol_no.:  3
  0
BLOCK_RECORD
  5
C4
100
AcDbSymbolTableRecord
100
AcDbBlockTableRecord
  2
*D3
340
0
  0
BLOCK_RECORD
  5
1BC
100
AcDbSymbolTableRecord
100
AcDbBlockTableRecord
  2
*D4
340
0
  0
BLOCK_RECORD
  5
1CD
100
AcDbSymbolTableRecord
100
AcDbBlockTableRecord
  2
*D5
340
0
  0
BLOCK_RECORD
  5
1DA
100
AcDbSymbolTableRecord
100
AcDbBlockTableRecord
  2
*D6
340
0
  0
BLOCK_RECORD
  5
1EA
100
AcDbSymbolTableRecord
100
AcDbBlockTableRecord
  2
*D7
340
0
  0
BLOCK_RECORD
  5
1F8
100
AcDbSymbolTableRecord
100
AcDbBlockTableRecord
  2
*D8
340
0
  0
BLOCK_RECORD
  5
205
100
AcDbSymbolTableRecord
100
AcDbBlockTableRecord
  2
*D9
340
0
  0
BLOCK_RECORD
  5
212
100
AcDbSymbolTableRecord
100
AcDbBlockTableRecord
  2
*D10
340
0
  0
BLOCK_RECORD
  5
22A
100
AcDbSymbolTableRecord
100
AcDbBlockTableRecord
  2
*D11
340
0
  0
BLOCK_RECORD
  5
247
100
AcDbSymbolTableRecord
100
AcDbBlockTableRecord
  2
*D12
340
0
  0
BLOCK_RECORD
  5
48E
100
AcDbSymbolTableRecord
100
AcDbBlockTableRecord
  2
$BALOON
340
0
102
{BLKREFS
331
493
331
497
331
49C
102
}
1001
CONTENTBLOCKDESCRIPTION
1071
        0
1000
ICAD/MX Balloon symbol^M^Jrad_len : sacle^M^Jtext_h  : 0.8 * scale^M^Jattdef  : tag=no.
  0
BLOCK_RECORD
  5
4A3
100
AcDbSymbolTableRecord
100
AcDbBlockTableRecord
  2
$SYSSYM-10
340
0
102
{BLKREFS
331
4A9
102
}
1001
CONTENTBLOCKDESCRIPTION
1071
        0
1000
ICAD/MX UserSymbol^M^Jtable_name:SYSSYM^M^Jsymbol_no.: 10
  0
BLOCK_RECORD
  5
4AB
100
AcDbSymbolTableRecord
100
AcDbBlockTableRecord
  2
*D15
340
0
  0
BLOCK_RECORD
  5
4B9
100
AcDbSymbolTableRecord
100
AcDbBlockTableRecord
  2
*D16
340
0
  0
ENDTAB
  0
ENDSEC
  0
SECTION
  2
BLOCKS
  0
BLOCK
  5
D
100
AcDbEntity
  8
0
390
0
100
AcDbBlockBegin
  2
*MODEL_SPACE
 70
     0
 10
0.0
 20
0.0
 30
0.0
  3
*MODEL_SPACE
  1

  0
ENDBLK
  5
E
100
AcDbEntity
  8
0
390
0
100
AcDbBlockEnd
  0
BLOCK
  5
F
100
AcDbEntity
 67
     1
  8
0
390
0
100
AcDbBlockBegin
  2
*PAPER_SPACE
 70
     0
 10
0.0
 20
0.0
 30
0.0
  3
*PAPER_SPACE
  1

  0
ENDBLK
  5
10
100
AcDbEntity
 67
     1
  8
0
390
0
100
AcDbBlockEnd
  0
BLOCK
  5
27
100
AcDbEntity
  8
0
370
    -2
390
0
  6
ByBlock
 62
     0
100
AcDbBlockBegin
  2
_OPEN30
 70
     2
 10
0.0
 20
0.0
 30
0.0
  3
_OPEN30
  1

  0
LINE
  5
28
100
AcDbEntity
  8
0
370
    -2
390
0
  6
ByBlock
 62
     0
100
AcDbLine
 10
-1.0
 20
0.267949
 30
0.0
 11
0.0
 21
0.0
 31
0.0
  0
LINE
  5
29
100
AcDbEntity
  8
0
370
    -2
390
0
  6
ByBlock
 62
     0
100
AcDbLine
 10
0.0
 20
0.0
 30
0.0
 11
-1.0
 21
-0.267949
 31
0.0
  0
LINE
  5
2A
100
AcDbEntity
  8
0
370
    -2
390
0
  6
ByBlock
 62
     0
100
AcDbLine
 10
0.0
 20
0.0
 30
0.0
 11
-1.0
 21
0.0
 31
0.0
  0
ENDBLK
  5
2B
100
AcDbEntity
  8
0
370
    -2
390
0
  6
ByBlock
 62
     0
100
AcDbBlockEnd
  0
BLOCK
  5
31
100
AcDbEntity
  8
0
370
    -2
390
0
  6
ByBlock
 62
     0
100
AcDbBlockBegin
  2
$KAKUDAI-2
 70
     0
 10
0.0
 20
0.0
 30
0.0
  3
$KAKUDAI-2
  1

  0
ARC
  5
32
100
AcDbEntity
  8
0
390
0
  6
CONTINUOUS
 62
     0
100
AcDbCircle
 10
29.31842
 20
1.863708
 30
0.0
 40
0.591628
100
AcDbArc
 50
270.000025
 51
354.40127
  0
ARC
  5
33
100
AcDbEntity
  8
0
390
0
  6
CONTINUOUS
 62
     0
100
AcDbCircle
 10
29.318405
 20
2.573524
 30
0.0
 40
0.591628
100
AcDbArc
 50
5.59873
 51
89.999982
  0
ARC
  5
34
100
AcDbEntity
  8
0
390
0
  6
CONTINUOUS
 62
     0
100
AcDbCircle
 10
25.69725
 20
2.218666
 30
0.0
 40
4.230142
100
AcDbArc
 50
354.401273
 51
5.598727
  0
ARC
  5
35
100
AcDbEntity
  8
0
390
0
  6
CONTINUOUS
 62
     0
100
AcDbCircle
 10
29.621689
 20
1.479218
 30
0.0
 40
1.479071
100
AcDbArc
 50
270.000025
 51
349.328068
  0
ARC
  5
36
100
AcDbEntity
  8
0
390
0
  6
CONTINUOUS
 62
     0
100
AcDbCircle
 10
29.621689
 20
2.958115
 30
0.0
 40
1.479071
100
AcDbArc
 50
10.671932
 51
89.999982
  0
ARC
  5
37
100
AcDbEntity
  8
0
390
0
  6
CONTINUOUS
 62
     0
100
AcDbCircle
 10
25.69725
 20
2.218666
 30
0.0
 40
5.472562
100
AcDbArc
 50
349.328068
 51
10.671932
  0
ARC
  5
38
100
AcDbEntity
  8
0
390
0
  6
CONTINUOUS
 62
     0
100
AcDbCircle
 10
22.88707
 20
1.622192
 30
0.0
 40
0.591628
100
AcDbArc
 50
276.999029
 51
0.0
  0
ARC
  5
39
100
AcDbEntity
  8
0
390
0
  6
CONTINUOUS
 62
     0
100
AcDbCircle
 10
21.112137
 20
1.622177
 30
0.0
 40
0.591628
100
AcDbArc
 50
179.999964
 51
263.000915
  0
ARC
  5
3A
100
AcDbEntity
  8
0
390
0
  6
CONTINUOUS
 62
     0
100
AcDbCircle
 10
21.999603
 20
8.85083
 30
0.0
 40
7.874568
100
AcDbArc
 50
263.000966
 51
276.999015
  0
ARC
  5
3B
100
AcDbEntity
  8
0
390
0
  6
CONTINUOUS
 62
     0
100
AcDbCircle
 10
23.271584
 20
1.28949
 30
0.0
 40
1.479071
100
AcDbArc
 50
279.549258
 51
0.0
  0
ARC
  5
3C
100
AcDbEntity
  8
0
390
0
  6
CONTINUOUS
 62
     0
100
AcDbCircle
 10
20.727631
 20
1.28949
 30
0.0
 40
1.479071
100
AcDbArc
 50
179.999964
 51
260.450713
  0
ARC
  5
3D
100
AcDbEntity
  8
0
390
0
  6
CONTINUOUS
 62
     0
100
AcDbCircle
 10
21.999603
 20
8.85083
 30
0.0
 40
9.146571
100
AcDbArc
 50
260.450737
 51
279.54923
  0
LINE
  5
3E
100
AcDbEntity
  8
0
390
0
  6
CONTINUOUS
 62
     0
100
AcDbLine
 10
39.999893
 20
4.437317
 30
0.0
 11
39.999893
 21
0.000015
 31
0.0
  0
LINE
  5
3F
100
AcDbEntity
  8
0
390
0
  6
CONTINUOUS
 62
     0
100
AcDbLine
 10
38.72789
 20
4.437317
 30
0.0
 11
38.72789
 21
0.000015
 31
0.0
  0
LINE
  5
40
100
AcDbEntity
  8
0
390
0
  6
CONTINUOUS
 62
     0
100
AcDbLine
 10
12.752607
 20
-0.000183
 30
0.0
 11
10.238149
 21
4.437112
 31
0.0
  0
LINE
  5
41
100
AcDbEntity
  8
0
390
0
  6
CONTINUOUS
 62
     0
100
AcDbLine
 10
11.290825
 20
0.0
 30
0.0
 11
12.752815
 21
0.0
 31
0.0
  0
LINE
  5
42
100
AcDbEntity
  8
0
390
0
  6
CONTINUOUS
 62
     0
100
AcDbLine
 10
11.290678
 20
-0.000035
 30
0.0
 11
10.871566
 21
0.739584
 31
0.0
  0
LINE
  5
43
100
AcDbEntity
  8
0
390
0
  6
CONTINUOUS
 62
     0
100
AcDbLine
 10
10.368869
 20
1.627127
 30
0.0
 11
9.328812
 21
3.462514
 31
0.0
  0
LINE
  5
44
100
AcDbEntity
  8
0
390
0
  6
CONTINUOUS
 62
     0
100
AcDbLine
 10
8.289557
 20
1.626387
 30
0.0
 11
9.329624
 21
3.46183
 31
0.0
  0
LINE
  5
45
100
AcDbEntity
  8
0
390
0
  6
CONTINUOUS
 62
     0
100
AcDbLine
 10
8.288605
 20
1.627098
 30
0.0
 11
10.368835
 21
1.627098
 31
0.0
  0
LINE
  5
46
100
AcDbEntity
  8
0
390
0
  6
CONTINUOUS
 62
     0
100
AcDbLine
 10
7.785843
 20
0.739464
 30
0.0
 11
10.871651
 21
0.739464
 31
0.0
  0
LINE
  5
47
100
AcDbEntity
  8
0
390
0
  6
CONTINUOUS
 62
     0
100
AcDbLine
 10
5.904288
 20
0.000176
 30
0.0
 11
8.41872
 21
4.437407
 31
0.0
  0
LINE
  5
48
100
AcDbEntity
  8
0
390
0
  6
CONTINUOUS
 62
     0
100
AcDbLine
 10
7.366972
 20
-0.000121
 30
0.0
 11
7.786036
 21
0.739421
 31
0.0
  0
LINE
  5
49
100
AcDbEntity
  8
0
390
0
  6
CONTINUOUS
 62
     0
100
AcDbLine
 10
5.904747
 20
0.0
 30
0.0
 11
7.366676
 21
0.0
 31
0.0
  0
LINE
  5
4A
100
AcDbEntity
  8
0
390
0
  6
CONTINUOUS
 62
     0
100
AcDbLine
 10
8.419144
 20
4.437302
 30
0.0
 11
10.238426
 21
4.437302
 31
0.0
  0
LINE
  5
4B
100
AcDbEntity
  8
0
390
0
  6
CONTINUOUS
 62
     0
100
AcDbLine
 10
26.821381
 20
3.16539
 30
0.0
 11
26.821381
 21
1.27224
 31
0.0
  0
LINE
  5
4C
100
AcDbEntity
  8
0
390
0
  6
CONTINUOUS
 62
     0
100
AcDbLine
 10
25.549355
 20
4.437317
 30
0.0
 11
25.549355
 21
0.000015
 31
0.0
  0
LINE
  5
4D
100
AcDbEntity
  8
0
390
0
  6
CONTINUOUS
 62
     0
100
AcDbLine
 10
26.821388
 20
3.1651
 30
0.0
 11
29.318481
 21
3.1651
 31
0.0
  0
LINE
  5
4E
100
AcDbEntity
  8
0
390
0
  6
CONTINUOUS
 62
     0
100
AcDbLine
 10
26.821388
 20
1.271919
 30
0.0
 11
29.318481
 21
1.271919
 31
0.0
  0
LINE
  5
4F
100
AcDbEntity
  8
0
390
0
  6
CONTINUOUS
 62
     0
100
AcDbLine
 10
38.727936
 20
0.000015
 30
0.0
 11
39.999947
 21
0.000015
 31
0.0
  0
LINE
  5
50
100
AcDbEntity
  8
0
390
0
  6
CONTINUOUS
 62
     0
100
AcDbLine
 10
38.727936
 20
4.437317
 30
0.0
 11
39.999947
 21
4.437317
 31
0.0
  0
LINE
  5
51
100
AcDbEntity
  8
0
390
0
  6
CONTINUOUS
 62
     0
100
AcDbLine
 10
23.478714
 20
4.437302
 30
0.0
 11
24.750725
 21
4.437302
 31
0.0
  0
LINE
  5
52
100
AcDbEntity
  8
0
390
0
  6
CONTINUOUS
 62
     0
100
AcDbLine
 10
25.549408
 20
4.437302
 30
0.0
 11
29.621742
 21
4.437302
 31
0.0
  0
LINE
  5
53
100
AcDbEntity
  8
0
390
0
  6
CONTINUOUS
 62
     0
100
AcDbLine
 10
24.750397
 20
4.437317
 30
0.0
 11
24.750397
 21
1.28949
 31
0.0
  0
LINE
  5
54
100
AcDbEntity
  8
0
390
0
  6
CONTINUOUS
 62
     0
100
AcDbLine
 10
23.478989
 20
4.437309
 30
0.0
 11
23.478989
 21
1.622185
 31
0.0
  0
LINE
  5
55
100
AcDbEntity
  8
0
390
0
  6
CONTINUOUS
 62
     0
100
AcDbLine
 10
19.248566
 20
4.437302
 30
0.0
 11
19.248566
 21
1.28949
 31
0.0
  0
LINE
  5
56
100
AcDbEntity
  8
0
390
0
  6
CONTINUOUS
 62
     0
100
AcDbLine
 10
20.5205
 20
4.437302
 30
0.0
 11
20.5205
 21
1.622192
 31
0.0
  0
LINE
  5
57
100
AcDbEntity
  8
0
390
0
  6
CONTINUOUS
 62
     0
100
AcDbLine
 10
3.786705
 20
4.437302
 30
0.0
 11
5.608849
 21
4.437302
 31
0.0
  0
LINE
  5
58
100
AcDbEntity
  8
0
390
0
  6
CONTINUOUS
 62
     0
100
AcDbLine
 10
3.228285
 20
2.219162
 30
0.0
 11
5.608237
 21
4.437769
 31
0.0
  0
LINE
  5
59
100
AcDbEntity
  8
0
390
0
  6
CONTINUOUS
 62
     0
100
AcDbLine
 10
3.228971
 20
2.218703
 30
0.0
 11
5.608881
 21
0.000134
 31
0.0
  0
LINE
  5
5A
100
AcDbEntity
  8
0
390
0
  6
CONTINUOUS
 62
     0
100
AcDbLine
 10
3.786705
 20
0.000015
 30
0.0
 11
5.608849
 21
0.000015
 31
0.0
  0
LINE
  5
5B
100
AcDbEntity
  8
0
390
0
  6
CONTINUOUS
 62
     0
100
AcDbLine
 10
2.041563
 20
1.627004
 30
0.0
 11
3.786919
 21
-0.000054
 31
0.0
  0
LINE
  5
5C
100
AcDbEntity
  8
0
390
0
  6
CONTINUOUS
 62
     0
100
AcDbLine
 10
1.242905
 20
1.627098
 30
0.0
 11
2.041748
 21
1.627098
 31
0.0
  0
LINE
  5
5D
100
AcDbEntity
  8
0
390
0
  6
CONTINUOUS
 62
     0
100
AcDbLine
 10
2.041729
 20
2.809854
 30
0.0
 11
3.78704
 21
4.436829
 31
0.0
  0
LINE
  5
5E
100
AcDbEntity
  8
0
390
0
  6
CONTINUOUS
 62
     0
100
AcDbLine
 10
1.242905
 20
2.810196
 30
0.0
 11
2.041748
 21
2.810196
 31
0.0
  0
LINE
  5
5F
100
AcDbEntity
  8
0
390
0
  6
CONTINUOUS
 62
     0
100
AcDbLine
 10
1.242874
 20
4.437302
 30
0.0
 11
1.242874
 21
2.810211
 31
0.0
  0
LINE
  5
60
100
AcDbEntity
  8
0
390
0
  6
CONTINUOUS
 62
     0
100
AcDbLine
 10
0.000366
 20
4.437302
 30
0.0
 11
1.242905
 21
4.437302
 31
0.0
  0
LINE
  5
61
100
AcDbEntity
  8
0
390
0
  6
CONTINUOUS
 62
     0
100
AcDbLine
 10
0.0
 20
4.437302
 30
0.0
 11
0.0
 21
0.000015
 31
0.0
  0
LINE
  5
62
100
AcDbEntity
  8
0
390
0
  6
CONTINUOUS
 62
     0
100
AcDbLine
 10
1.243866
 20
1.627106
 30
0.0
 11
1.243866
 21
0.0
 31
0.0
  0
LINE
  5
63
100
AcDbEntity
  8
0
390
0
  6
CONTINUOUS
 62
     0
100
AcDbLine
 10
0.000366
 20
0.0
 30
0.0
 11
1.242905
 21
0.0
 31
0.0
  0
LINE
  5
64
100
AcDbEntity
  8
0
390
0
  6
CONTINUOUS
 62
     0
100
AcDbLine
 10
25.549408
 20
0.000015
 30
0.0
 11
29.621742
 21
0.000015
 31
0.0
  0
LINE
  5
65
100
AcDbEntity
  8
0
390
0
  6
CONTINUOUS
 62
     0
100
AcDbLine
 10
19.248573
 20
4.437302
 30
0.0
 11
20.520576
 21
4.437302
 31
0.0
  0
LINE
  5
66
100
AcDbEntity
  8
0
390
0
  6
CONTINUOUS
 62
     0
100
AcDbLine
 10
36.674271
 20
0.000015
 30
0.0
 11
38.136307
 21
0.000015
 31
0.0
  0
LINE
  5
67
100
AcDbEntity
  8
0
390
0
  6
CONTINUOUS
 62
     0
100
AcDbLine
 10
31.288223
 20
0.0
 30
0.0
 11
32.750244
 21
0.0
 31
0.0
  0
LINE
  5
68
100
AcDbEntity
  8
0
390
0
  6
CONTINUOUS
 62
     0
100
AcDbLine
 10
33.802635
 20
4.437317
 30
0.0
 11
35.621895
 21
4.437317
 31
0.0
  0
LINE
  5
69
100
AcDbEntity
  8
0
390
0
  6
CONTINUOUS
 62
     0
100
AcDbLine
 10
16.834892
 20
4.437302
 30
0.0
 11
18.656952
 21
4.437302
 31
0.0
  0
LINE
  5
6A
100
AcDbEntity
  8
0
390
0
  6
CONTINUOUS
 62
     0
100
AcDbLine
 10
16.834892
 20
0.000015
 30
0.0
 11
18.656952
 21
0.000015
 31
0.0
  0
LINE
  5
6B
100
AcDbEntity
  8
0
390
0
  6
CONTINUOUS
 62
     0
100
AcDbLine
 10
14.29081
 20
1.627098
 30
0.0
 11
14.29081
 21
0.0
 31
0.0
  0
LINE
  5
6C
100
AcDbEntity
  8
0
390
0
  6
CONTINUOUS
 62
     0
100
AcDbLine
 10
38.136126
 20
0.000097
 30
0.0
 11
35.62175
 21
4.437263
 31
0.0
  0
LINE
  5
6D
100
AcDbEntity
  8
0
390
0
  6
CONTINUOUS
 62
     0
100
AcDbLine
 10
36.674036
 20
0.000002
 30
0.0
 11
36.254984
 21
0.739515
 31
0.0
  0
LINE
  5
6E
100
AcDbEntity
  8
0
390
0
  6
CONTINUOUS
 62
     0
100
AcDbLine
 10
35.752436
 20
1.626965
 30
0.0
 11
34.712341
 21
3.462418
 31
0.0
  0
LINE
  5
6F
100
AcDbEntity
  8
0
390
0
  6
CONTINUOUS
 62
     0
100
AcDbLine
 10
33.672051
 20
1.627072
 30
0.0
 11
34.712108
 21
3.462442
 31
0.0
  0
LINE
  5
70
100
AcDbEntity
  8
0
390
0
  6
CONTINUOUS
 62
     0
100
AcDbLine
 10
33.672188
 20
1.627083
 30
0.0
 11
35.752327
 21
1.627083
 31
0.0
  0
LINE
  5
71
100
AcDbEntity
  8
0
390
0
  6
CONTINUOUS
 62
     0
100
AcDbLine
 10
33.169319
 20
0.738998
 30
0.0
 11
36.255188
 21
0.738998
 31
0.0
  0
LINE
  5
72
100
AcDbEntity
  8
0
390
0
  6
CONTINUOUS
 62
     0
100
AcDbLine
 10
32.750442
 20
-0.000219
 30
0.0
 11
33.169532
 21
0.739348
 31
0.0
  0
LINE
  5
73
100
AcDbEntity
  8
0
390
0
  6
CONTINUOUS
 62
     0
100
AcDbLine
 10
31.287743
 20
0.000262
 30
0.0
 11
33.80215
 21
4.437459
 31
0.0
  0
LINE
  5
74
100
AcDbEntity
  8
0
390
0
  6
CONTINUOUS
 62
     0
100
AcDbLine
 10
16.277017
 20
2.218516
 30
0.0
 11
18.656834
 21
0.000049
 31
0.0
  0
LINE
  5
75
100
AcDbEntity
  8
0
390
0
  6
CONTINUOUS
 62
     0
100
AcDbLine
 10
15.089823
 20
1.626855
 30
0.0
 11
16.835171
 21
-0.000145
 31
0.0
  0
LINE
  5
76
100
AcDbEntity
  8
0
390
0
  6
CONTINUOUS
 62
     0
100
AcDbLine
 10
16.277186
 20
2.218402
 30
0.0
 11
18.657143
 21
4.437007
 31
0.0
  0
LINE
  5
77
100
AcDbEntity
  8
0
390
0
  6
CONTINUOUS
 62
     0
100
AcDbLine
 10
15.089013
 20
2.810919
 30
0.0
 11
16.834306
 21
4.437876
 31
0.0
  0
LINE
  5
78
100
AcDbEntity
  8
0
390
0
  6
CONTINUOUS
 62
     0
100
AcDbLine
 10
14.290756
 20
2.810212
 30
0.0
 11
15.089454
 21
2.810197
 31
0.0
  0
LINE
  5
79
100
AcDbEntity
  8
0
390
0
  6
CONTINUOUS
 62
     0
100
AcDbLine
 10
14.290886
 20
1.627098
 30
0.0
 11
15.089615
 21
1.627098
 31
0.0
  0
LINE
  5
7A
100
AcDbEntity
  8
0
390
0
  6
CONTINUOUS
 62
     0
100
AcDbLine
 10
14.29081
 20
4.437302
 30
0.0
 11
14.29081
 21
2.810196
 31
0.0
  0
LINE
  5
7B
100
AcDbEntity
  8
0
390
0
  6
CONTINUOUS
 62
     0
100
AcDbLine
 10
13.0485
 20
0.000015
 30
0.0
 11
14.290878
 21
0.000015
 31
0.0
  0
LINE
  5
7C
100
AcDbEntity
  8
0
390
0
  6
CONTINUOUS
 62
     0
100
AcDbLine
 10
13.048416
 20
4.437317
 30
0.0
 11
13.048416
 21
0.000015
 31
0.0
  0
LINE
  5
7D
100
AcDbEntity
  8
0
390
0
  6
CONTINUOUS
 62
     0
100
AcDbLine
 10
13.048546
 20
4.437316
 30
0.0
 11
14.290932
 21
4.437301
 31
0.0
  0
ENDBLK
  5
7E
100
AcDbEntity
  8
0
370
    -2
390
0
  6
ByBlock
 62
     0
100
AcDbBlockEnd
  0
BLOCK
  5
81
100
AcDbEntity
  8
0
370
    -2
390
0
  6
ByBlock
 62
     0
100
AcDbBlockBegin
  2
$KAKUDAI-3
 70
     0
 10
0.0
 20
0.0
 30
0.0
  3
$KAKUDAI-3
  1

  0
ARC
  5
82
100
AcDbEntity
  8
0
390
0
  6
CONTINUOUS
 62
     0
100
AcDbCircle
 10
0.0
 20
0.0
 30
0.0
 40
4.14
100
AcDbArc
 50
299.461315
 51
60.538685
  0
ARC
  5
83
100
AcDbEntity
  8
0
390
0
  6
CONTINUOUS
 62
     0
100
AcDbCircle
 10
0.0
 20
0.0
 30
0.0
 40
4.14
100
AcDbArc
 50
105.408581
 51
254.591422
  0
ARC
  5
84
100
AcDbEntity
  8
0
390
0
  6
CONTINUOUS
 62
     0
100
AcDbCircle
 10
0.0
 20
0.0
 30
0.0
 40
5.0
100
AcDbArc
 50
92.751257
 51
267.248746
  0
ARC
  5
85
100
AcDbEntity
  8
0
390
0
  6
CONTINUOUS
 62
     0
100
AcDbCircle
 10
0.0
 20
0.0
 30
0.0
 40
5.0
100
AcDbArc
 50
286.992764
 51
73.007236
  0
LINE
  5
86
100
AcDbEntity
  8
0
390
0
  6
CONTINUOUS
 62
     0
100
AcDbLine
 10
2.0362
 20
-3.604648
 30
0.0
 11
1.070337
 21
0.0
 31
0.0
  0
LINE
  5
87
100
AcDbEntity
  8
0
390
0
  6
CONTINUOUS
 62
     0
100
AcDbLine
 10
1.461255
 20
-4.781708
 30
0.0
 11
0.18
 21
0.0
 31
0.0
  0
LINE
  5
88
100
AcDbEntity
  8
0
390
0
  6
CONTINUOUS
 62
     0
100
AcDbLine
 10
1.070337
 20
0.0
 30
0.0
 11
2.0362
 21
3.604648
 31
0.0
  0
LINE
  5
89
100
AcDbEntity
  8
0
390
0
  6
CONTINUOUS
 62
     0
100
AcDbLine
 10
0.18
 20
0.0
 30
0.0
 11
1.461255
 21
4.781708
 31
0.0
  0
LINE
  5
8A
100
AcDbEntity
  8
0
390
0
  6
CONTINUOUS
 62
     0
100
AcDbLine
 10
-1.1
 20
3.99119
 30
0.0
 11
-1.1
 21
-3.99119
 31
0.0
  0
LINE
  5
8B
100
AcDbEntity
  8
0
390
0
  6
CONTINUOUS
 62
     0
100
AcDbLine
 10
-0.24
 20
4.994236
 30
0.0
 11
-0.24
 21
-4.994236
 31
0.0
  0
ENDBLK
  5
8C
100
AcDbEntity
  8
0
370
    -2
390
0
  6
ByBlock
 62
     0
100
AcDbBlockEnd
  0
BLOCK
  5
C5
100
AcDbEntity
  8
0
370
    -2
390
0
  6
ByBlock
 62
     0
100
AcDbBlockBegin
  2
*D3
 70
     1
 10
0.0
 20
0.0
 30
0.0
  3
*D3
  1

  0
LINE
  5
C6
100
AcDbEntity
  8
0
390
0
  6
CONTINUOUS
 62
   143
100
AcDbLine
 10
-2.190336
 20
42.456447
 30
0.0
 11
-2.190336
 21
37.456447
 31
0.0
  0
LINE
  5
C7
100
AcDbEntity
  8
0
390
0
  6
CONTINUOUS
 62
   143
100
AcDbLine
 10
-2.190336
 20
37.456447
 30
0.0
 11
-2.190336
 21
25.232189
 31
0.0
  0
LINE
  5
C8
100
AcDbEntity
  8
0
390
0
  6
CONTINUOUS
 62
   143
100
AcDbLine
 10
-21.645947
 20
42.456447
 30
0.0
 11
-0.690336
 21
42.456447
 31
0.0
  0
LINE
  5
C9
100
AcDbEntity
  8
0
390
0
  6
CONTINUOUS
 62
   143
100
AcDbLine
 10
-29.145947
 20
37.456447
 30
0.0
 11
-0.690336
 21
37.456447
 31
0.0
  0
LINE
  5
CA
100
AcDbEntity
  8
0
390
0
  6
CONTINUOUS
 62
   143
100
AcDbLine
 10
-2.190336
 20
42.456447
 30
0.0
 11
-2.190336
 21
46.956447
 31
0.0
  0
LINE
  5
CB
100
AcDbEntity
  8
0
390
0
  6
CONTINUOUS
 62
   143
100
AcDbLine
 10
-2.190336
 20
37.456447
 30
0.0
 11
-2.190336
 21
32.956447
 31
0.0
  0
INSERT
  5
CC
100
AcDbEntity
  8
0
390
0
  6
CONTINUOUS
 62
   143
100
AcDbBlockReference
  2
_OPEN30
 10
-2.190336
 20
42.456447
 30
0.0
 41
2.77
 42
2.77
 43
2.77
 50
270.0
  0
INSERT
  5
CD
100
AcDbEntity
  8
0
390
0
  6
CONTINUOUS
 62
   143
100
AcDbBlockReference
  2
_OPEN30
 10
-2.190336
 20
37.456447
 30
0.0
 41
2.77
 42
2.77
 43
2.77
 50
90.0
  0
MTEXT
  5
CF
100
AcDbEntity
  8
0
390
0
  6
CONTINUOUS
 62
   143
100
AcDbMText
 10
-4.440336
 20
28.982189
 30
0.0
 40
2.5
 41
0.0
 71
     5
 72
     1
  1
\A1;5.0
  7
MX_DIMTXSTY_2
 11
0.0
 21
1.0
 31
0.0
 73
     1
 44
0.96
  0
POINT
  5
D0
100
AcDbEntity
  8
DEFPOINTS
390
0
  6
CONTINUOUS
 62
     0
100
AcDbPoint
 10
-23.145947
 20
42.456447
 30
0.0
  0
POINT
  5
D1
100
AcDbEntity
  8
DEFPOINTS
390
0
  6
CONTINUOUS
 62
     0
100
AcDbPoint
 10
-30.645947
 20
37.456447
 30
0.0
  0
POINT
  5
D2
100
AcDbEntity
  8
DEFPOINTS
390
0
  6
CONTINUOUS
 62
     0
100
AcDbPoint
 10
-2.190336
 20
37.456447
 30
0.0
  0
ENDBLK
  5
D3
100
AcDbEntity
  8
0
370
    -2
390
0
  6
ByBlock
 62
     0
100
AcDbBlockEnd
  0
BLOCK
  5
1BD
100
AcDbEntity
  8
0
370
    -2
390
0
  6
ByBlock
 62
     0
100
AcDbBlockBegin
  2
*D4
 70
     1
 10
0.0
 20
0.0
 30
0.0
  3
*D4
  1

  0
LINE
  5
1BE
100
AcDbEntity
  8
0
390
0
  6
CONTINUOUS
 62
   143
100
AcDbLine
 10
-30.145946
 20
17.456447
 30
0.0
 11
-64.145946
 21
17.456447
 31
0.0
  0
LINE
  5
1BF
100
AcDbEntity
  8
0
390
0
  6
CONTINUOUS
 62
   143
100
AcDbLine
 10
-30.145946
 20
36.456447
 30
0.0
 11
-30.145946
 21
15.956447
 31
0.0
  0
LINE
  5
1C0
100
AcDbEntity
  8
0
390
0
  6
CONTINUOUS
 62
   143
100
AcDbLine
 10
-64.145946
 20
36.456447
 30
0.0
 11
-64.145946
 21
15.956447
 31
0.0
  0
INSERT
  5
1C1
100
AcDbEntity
  8
0
390
0
  6
CONTINUOUS
 62
   143
100
AcDbBlockReference
  2
_OPEN30
 10
-30.145946
 20
17.456447
 30
0.0
 41
2.77
 42
2.77
 43
2.77
  0
INSERT
  5
1C2
100
AcDbEntity
  8
0
390
0
  6
CONTINUOUS
 62
   143
100
AcDbBlockReference
  2
_OPEN30
 10
-64.145946
 20
17.456447
 30
0.0
 41
2.77
 42
2.77
 43
2.77
 50
180.0
  0
MTEXT
  5
1C4
100
AcDbEntity
  8
0
390
0
  6
CONTINUOUS
 62
   143
100
AcDbMText
 10
-47.145946
 20
19.706447
 30
0.0
 40
2.5
 41
0.0
 71
     5
 72
     1
  1
\A1;\U+220534.0
  7
MX_DIMTXSTY_3
 11
1.0
 21
0.0
 31
0.0
 73
     1
 44
0.96
  0
POINT
  5
1C5
100
AcDbEntity
  8
DEFPOINTS
390
0
  6
CONTINUOUS
 62
     0
100
AcDbPoint
 10
-30.145946
 20
37.956447
 30
0.0
  0
POINT
  5
1C6
100
AcDbEntity
  8
DEFPOINTS
390
0
  6
CONTINUOUS
 62
     0
100
AcDbPoint
 10
-64.145946
 20
37.956447
 30
0.0
  0
POINT
  5
1C7
100
AcDbEntity
  8
DEFPOINTS
390
0
  6
CONTINUOUS
 62
     0
100
AcDbPoint
 10
-64.145946
 20
17.456447
 30
0.0
  0
ENDBLK
  5
1C8
100
AcDbEntity
  8
0
370
    -2
390
0
  6
ByBlock
 62
     0
100
AcDbBlockEnd
  0
BLOCK
  5
1CE
100
AcDbEntity
  8
0
370
    -2
390
0
  6
ByBlock
 62
     0
100
AcDbBlockBegin
  2
*D5
 70
     1
 10
0.0
 20
0.0
 30
0.0
  3
*D5
  1

  0
LINE
  5
1CF
100
AcDbEntity
  8
0
390
0
  6
CONTINUOUS
 62
   143
100
AcDbLine
 10
-71.145946
 20
61.615488
 30
0.0
 11
-23.145946
 21
61.615488
 31
0.0
  0
LINE
  5
1D0
100
AcDbEntity
  8
0
390
0
  6
CONTINUOUS
 62
   143
100
AcDbLine
 10
-71.145946
 20
48.956447
 30
0.0
 11
-71.145946
 21
63.115488
 31
0.0
  0
LINE
  5
1D1
100
AcDbEntity
  8
0
390
0
  6
CONTINUOUS
 62
   143
100
AcDbLine
 10
-23.145946
 20
48.956447
 30
0.0
 11
-23.145946
 21
63.115488
 31
0.0
  0
INSERT
  5
1D2
100
AcDbEntity
  8
0
390
0
  6
CONTINUOUS
 62
   143
100
AcDbBlockReference
  2
_OPEN30
 10
-71.145946
 20
61.615488
 30
0.0
 41
2.77
 42
2.77
 43
2.77
 50
180.0
  0
INSERT
  5
1D3
100
AcDbEntity
  8
0
390
0
  6
CONTINUOUS
 62
   143
100
AcDbBlockReference
  2
_OPEN30
 10
-23.145946
 20
61.615488
 30
0.0
 41
2.77
 42
2.77
 43
2.77
  0
MTEXT
  5
1D4
100
AcDbEntity
  8
0
390
0
  6
CONTINUOUS
 62
   143
100
AcDbMText
 10
-47.145946
 20
63.865488
 30
0.0
 40
2.5
 41
0.0
 71
     5
 72
     1
  1
\A1;\U+220548.0
  7
MX_DIMTXSTY_3
 73
     1
 44
0.96
  0
POINT
  5
1D5
100
AcDbEntity
  8
DEFPOINTS
390
0
  6
CONTINUOUS
 62
     0
100
AcDbPoint
 10
-71.145946
 20
47.456447
 30
0.0
  0
POINT
  5
1D6
100
AcDbEntity
  8
DEFPOINTS
390
0
  6
CONTINUOUS
 62
     0
100
AcDbPoint
 10
-23.145946
 20
47.456447
 30
0.0
  0
POINT
  5
1D7
100
AcDbEntity
  8
DEFPOINTS
390
0
  6
CONTINUOUS
 62
     0
100
AcDbPoint
 10
-23.145946
 20
61.615488
 30
0.0
  0
ENDBLK
  5
1D8
100
AcDbEntity
  8
0
370
    -2
390
0
  6
ByBlock
 62
     0
100
AcDbBlockEnd
  0
BLOCK
  5
1DB
100
AcDbEntity
  8
0
370
    -2
390
0
  6
ByBlock
 62
     0
100
AcDbBlockBegin
  2
*D6
 70
     1
 10
0.0
 20
0.0
 30
0.0
  3
*D6
  1

  0
LINE
  5
1DC
100
AcDbEntity
  8
0
390
0
  6
CONTINUOUS
 62
   143
100
AcDbLine
 10
-2.190336
 20
47.456447
 30
0.0
 11
-2.190336
 21
42.456447
 31
0.0
  0
LINE
  5
1DD
100
AcDbEntity
  8
0
390
0
  6
CONTINUOUS
 62
   143
100
AcDbLine
 10
-2.190336
 20
59.680704
 30
0.0
 11
-2.190336
 21
47.456447
 31
0.0
  0
LINE
  5
1DE
100
AcDbEntity
  8
0
390
0
  6
CONTINUOUS
 62
   143
100
AcDbLine
 10
-21.645947
 20
47.456447
 30
0.0
 11
-0.690336
 21
47.456447
 31
0.0
  0
LINE
  5
1DF
100
AcDbEntity
  8
0
390
0
  6
CONTINUOUS
 62
   143
100
AcDbLine
 10
-21.645947
 20
42.456447
 30
0.0
 11
-0.690336
 21
42.456447
 31
0.0
  0
LINE
  5
1E0
100
AcDbEntity
  8
0
390
0
  6
CONTINUOUS
 62
   143
100
AcDbLine
 10
-2.190336
 20
47.456447
 30
0.0
 11
-2.190336
 21
51.956447
 31
0.0
  0
LINE
  5
1E1
100
AcDbEntity
  8
0
390
0
  6
CONTINUOUS
 62
   143
100
AcDbLine
 10
-2.190336
 20
42.456447
 30
0.0
 11
-2.190336
 21
37.956447
 31
0.0
  0
INSERT
  5
1E2
100
AcDbEntity
  8
0
390
0
  6
CONTINUOUS
 62
   143
100
AcDbBlockReference
  2
_OPEN30
 10
-2.190336
 20
47.456447
 30
0.0
 41
2.77
 42
2.77
 43
2.77
 50
270.0
  0
INSERT
  5
1E3
100
AcDbEntity
  8
0
390
0
  6
CONTINUOUS
 62
   143
100
AcDbBlockReference
  2
_OPEN30
 10
-2.190336
 20
42.456447
 30
0.0
 41
2.77
 42
2.77
 43
2.77
 50
90.0
  0
MTEXT
  5
1E4
100
AcDbEntity
  8
0
390
0
  6
CONTINUOUS
 62
   143
100
AcDbMText
 10
-4.440336
 20
55.930704
 30
0.0
 40
2.5
 41
0.0
 71
     5
 72
     1
  1
\A1;5.0
  7
MX_DIMTXSTY_2
 11
0.0
 21
1.0
 31
0.0
 73
     1
 44
0.96
  0
POINT
  5
1E5
100
AcDbEntity
  8
DEFPOINTS
390
0
  6
CONTINUOUS
 62
     0
100
AcDbPoint
 10
-23.145947
 20
47.456447
 30
0.0
  0
POINT
  5
1E6
100
AcDbEntity
  8
DEFPOINTS
390
0
  6
CONTINUOUS
 62
     0
100
AcDbPoint
 10
-23.145947
 20
42.456447
 30
0.0
  0
POINT
  5
1E7
100
AcDbEntity
  8
DEFPOINTS
390
0
  6
CONTINUOUS
 62
     0
100
AcDbPoint
 10
-2.190336
 20
42.456447
 30
0.0
  0
ENDBLK
  5
1E8
100
AcDbEntity
  8
0
370
    -2
390
0
  6
ByBlock
 62
     0
100
AcDbBlockEnd
  0
BLOCK
  5
1EB
100
AcDbEntity
  8
0
370
    -2
390
0
  6
ByBlock
 62
     0
100
AcDbBlockBegin
  2
*D7
 70
     1
 10
0.0
 20
0.0
 30
0.0
  3
*D7
  1

  0
LINE
  5
1EC
100
AcDbEntity
  8
0
390
0
  6
CONTINUOUS
 62
   143
100
AcDbLine
 10
28.211462
 20
-15.664255
 30
0.0
 11
49.211462
 21
-15.664255
 31
0.0
  0
LINE
  5
1ED
100
AcDbEntity
  8
0
390
0
  6
CONTINUOUS
 62
   143
100
AcDbLine
 10
28.211462
 20
-46.664255
 30
0.0
 11
28.211462
 21
-14.164255
 31
0.0
  0
LINE
  5
1EE
100
AcDbEntity
  8
0
390
0
  6
CONTINUOUS
 62
   143
100
AcDbLine
 10
49.211462
 20
-46.664255
 30
0.0
 11
49.211462
 21
-14.164255
 31
0.0
  0
INSERT
  5
1EF
100
AcDbEntity
  8
0
390
0
  6
CONTINUOUS
 62
   143
100
AcDbBlockReference
  2
_OPEN30
 10
28.211462
 20
-15.664255
 30
0.0
 41
2.77
 42
2.77
 43
2.77
 50
180.0
  0
INSERT
  5
1F0
100
AcDbEntity
  8
0
390
0
  6
CONTINUOUS
 62
   143
100
AcDbBlockReference
  2
_OPEN30
 10
49.211462
 20
-15.664255
 30
0.0
 41
2.77
 42
2.77
 43
2.77
  0
MTEXT
  5
1F2
100
AcDbEntity
  8
0
390
0
  6
CONTINUOUS
 62
   143
100
AcDbMText
 10
38.711462
 20
-13.414255
 30
0.0
 40
2.5
 41
0.0
 71
     5
 72
     1
  1
\A1;\U+220521.0
  7
MX_DIMTXSTY_4
 73
     1
 44
0.96
  0
POINT
  5
1F3
100
AcDbEntity
  8
DEFPOINTS
390
0
  6
CONTINUOUS
 62
     0
100
AcDbPoint
 10
28.211462
 20
-48.164255
 30
0.0
  0
POINT
  5
1F4
100
AcDbEntity
  8
DEFPOINTS
390
0
  6
CONTINUOUS
 62
     0
100
AcDbPoint
 10
49.211462
 20
-48.164255
 30
0.0
  0
POINT
  5
1F5
100
AcDbEntity
  8
DEFPOINTS
390
0
  6
CONTINUOUS
 62
     0
100
AcDbPoint
 10
49.211462
 20
-15.664255
 30
0.0
  0
ENDBLK
  5
1F6
100
AcDbEntity
  8
0
370
    -2
390
0
  6
ByBlock
 62
     0
100
AcDbBlockEnd
  0
BLOCK
  5
1F9
100
AcDbEntity
  8
0
370
    -2
390
0
  6
ByBlock
 62
     0
100
AcDbBlockBegin
  2
*D8
 70
     1
 10
0.0
 20
0.0
 30
0.0
  3
*D8
  1

  0
LINE
  5
1FA
100
AcDbEntity
  8
0
390
0
  6
CONTINUOUS
 62
   143
100
AcDbLine
 10
16.211462
 20
-5.664255
 30
0.0
 11
61.211462
 21
-5.664255
 31
0.0
  0
LINE
  5
1FB
100
AcDbEntity
  8
0
390
0
  6
CONTINUOUS
 62
   143
100
AcDbLine
 10
16.211462
 20
-46.664255
 30
0.0
 11
16.211462
 21
-4.164255
 31
0.0
  0
LINE
  5
1FC
100
AcDbEntity
  8
0
390
0
  6
CONTINUOUS
 62
   143
100
AcDbLine
 10
61.211462
 20
-46.664255
 30
0.0
 11
61.211462
 21
-4.164255
 31
0.0
  0
INSERT
  5
1FD
100
AcDbEntity
  8
0
390
0
  6
CONTINUOUS
 62
   143
100
AcDbBlockReference
  2
_OPEN30
 10
16.211462
 20
-5.664255
 30
0.0
 41
2.77
 42
2.77
 43
2.77
 50
180.0
  0
INSERT
  5
1FE
100
AcDbEntity
  8
0
390
0
  6
CONTINUOUS
 62
   143
100
AcDbBlockReference
  2
_OPEN30
 10
61.211462
 20
-5.664255
 30
0.0
 41
2.77
 42
2.77
 43
2.77
  0
MTEXT
  5
1FF
100
AcDbEntity
  8
0
390
0
  6
CONTINUOUS
 62
   143
100
AcDbMText
 10
38.711462
 20
-3.414255
 30
0.0
 40
2.5
 41
0.0
 71
     5
 72
     1
  1
\A1;\U+220545.0
  7
MX_DIMTXSTY_3
 73
     1
 44
0.96
  0
POINT
  5
200
100
AcDbEntity
  8
DEFPOINTS
390
0
  6
CONTINUOUS
 62
     0
100
AcDbPoint
 10
16.211462
 20
-48.164255
 30
0.0
  0
POINT
  5
201
100
AcDbEntity
  8
DEFPOINTS
390
0
  6
CONTINUOUS
 62
     0
100
AcDbPoint
 10
61.211462
 20
-48.164255
 30
0.0
  0
POINT
  5
202
100
AcDbEntity
  8
DEFPOINTS
390
0
  6
CONTINUOUS
 62
     0
100
AcDbPoint
 10
61.211462
 20
-5.664255
 30
0.0
  0
ENDBLK
  5
203
100
AcDbEntity
  8
0
370
    -2
390
0
  6
ByBlock
 62
     0
100
AcDbBlockEnd
  0
BLOCK
  5
206
100
AcDbEntity
  8
0
370
    -2
390
0
  6
ByBlock
 62
     0
100
AcDbBlockBegin
  2
*D9
 70
     1
 10
0.0
 20
0.0
 30
0.0
  3
*D9
  1

  0
LINE
  5
207
100
AcDbEntity
  8
0
390
0
  6
CONTINUOUS
 62
   143
100
AcDbLine
 10
-59.645946
 20
-15.664255
 30
0.0
 11
-34.645946
 21
-15.664255
 31
0.0
  0
LINE
  5
208
100
AcDbEntity
  8
0
390
0
  6
CONTINUOUS
 62
   143
100
AcDbLine
 10
-59.645946
 20
-46.664255
 30
0.0
 11
-59.645946
 21
-14.164255
 31
0.0
  0
LINE
  5
209
100
AcDbEntity
  8
0
390
0
  6
CONTINUOUS
 62
   143
100
AcDbLine
 10
-34.645946
 20
-46.664255
 30
0.0
 11
-34.645946
 21
-14.164255
 31
0.0
  0
INSERT
  5
20A
100
AcDbEntity
  8
0
390
0
  6
CONTINUOUS
 62
   143
100
AcDbBlockReference
  2
_OPEN30
 10
-59.645946
 20
-15.664255
 30
0.0
 41
2.77
 42
2.77
 43
2.77
 50
180.0
  0
INSERT
  5
20B
100
AcDbEntity
  8
0
390
0
  6
CONTINUOUS
 62
   143
100
AcDbBlockReference
  2
_OPEN30
 10
-34.645946
 20
-15.664255
 30
0.0
 41
2.77
 42
2.77
 43
2.77
  0
MTEXT
  5
20C
100
AcDbEntity
  8
0
390
0
  6
CONTINUOUS
 62
   143
100
AcDbMText
 10
-47.145946
 20
-13.414255
 30
0.0
 40
2.5
 41
0.0
 71
     5
 72
     1
  1
\A1;\U+220525.0
  7
MX_DIMTXSTY_3
 73
     1
 44
0.96
  0
POINT
  5
20D
100
AcDbEntity
  8
DEFPOINTS
390
0
  6
CONTINUOUS
 62
     0
100
AcDbPoint
 10
-59.645946
 20
-48.164255
 30
0.0
  0
POINT
  5
20E
100
AcDbEntity
  8
DEFPOINTS
390
0
  6
CONTINUOUS
 62
     0
100
AcDbPoint
 10
-34.645946
 20
-48.164255
 30
0.0
  0
POINT
  5
20F
100
AcDbEntity
  8
DEFPOINTS
390
0
  6
CONTINUOUS
 62
     0
100
AcDbPoint
 10
-34.645946
 20
-15.664255
 30
0.0
  0
ENDBLK
  5
210
100
AcDbEntity
  8
0
370
    -2
390
0
  6
ByBlock
 62
     0
100
AcDbBlockEnd
  0
BLOCK
  5
213
100
AcDbEntity
  8
0
370
    -2
390
0
  6
ByBlock
 62
     0
100
AcDbBlockBegin
  2
*D10
 70
     1
 10
0.0
 20
0.0
 30
0.0
  3
*D10
  1

  0
LINE
  5
214
100
AcDbEntity
  8
0
390
0
  6
CONTINUOUS
 62
   143
100
AcDbLine
 10
-69.645946
 20
-5.664255
 30
0.0
 11
-24.645946
 21
-5.664255
 31
0.0
  0
LINE
  5
215
100
AcDbEntity
  8
0
390
0
  6
CONTINUOUS
 62
   143
100
AcDbLine
 10
-69.645946
 20
-46.664255
 30
0.0
 11
-69.645946
 21
-4.164255
 31
0.0
  0
LINE
  5
216
100
AcDbEntity
  8
0
390
0
  6
CONTINUOUS
 62
   143
100
AcDbLine
 10
-24.645946
 20
-46.664255
 30
0.0
 11
-24.645946
 21
-4.164255
 31
0.0
  0
INSERT
  5
217
100
AcDbEntity
  8
0
390
0
  6
CONTINUOUS
 62
   143
100
AcDbBlockReference
  2
_OPEN30
 10
-69.645946
 20
-5.664255
 30
0.0
 41
2.77
 42
2.77
 43
2.77
 50
180.0
  0
INSERT
  5
218
100
AcDbEntity
  8
0
390
0
  6
CONTINUOUS
 62
   143
100
AcDbBlockReference
  2
_OPEN30
 10
-24.645946
 20
-5.664255
 30
0.0
 41
2.77
 42
2.77
 43
2.77
  0
MTEXT
  5
219
100
AcDbEntity
  8
0
390
0
  6
CONTINUOUS
 62
   143
100
AcDbMText
 10
-47.145946
 20
-3.414255
 30
0.0
 40
2.5
 41
0.0
 71
     5
 72
     1
  1
\A1;\U+220545.0
  7
MX_DIMTXSTY_3
 73
     1
 44
0.96
  0
POINT
  5
21A
100
AcDbEntity
  8
DEFPOINTS
390
0
  6
CONTINUOUS
 62
     0
100
AcDbPoint
 10
-69.645946
 20
-48.164255
 30
0.0
  0
POINT
  5
21B
100
AcDbEntity
  8
DEFPOINTS
390
0
  6
CONTINUOUS
 62
     0
100
AcDbPoint
 10
-24.645946
 20
-48.164255
 30
0.0
  0
POINT
  5
21C
100
AcDbEntity
  8
DEFPOINTS
390
0
  6
CONTINUOUS
 62
     0
100
AcDbPoint
 10
-24.645946
 20
-5.664255
 30
0.0
  0
ENDBLK
  5
21D
100
AcDbEntity
  8
0
370
    -2
390
0
  6
ByBlock
 62
     0
100
AcDbBlockEnd
  0
BLOCK
  5
22B
100
AcDbEntity
  8
0
370
    -2
390
0
  6
ByBlock
 62
     0
100
AcDbBlockBegin
  2
*D11
 70
     1
 10
0.0
 20
0.0
 30
0.0
  3
*D11
  1

  0
LINE
  5
22C
100
AcDbEntity
  8
0
390
0
  6
CONTINUOUS
 62
   143
100
AcDbLine
 10
69.433444
 20
-86.952863
 30
0.0
 11
69.433444
 21
-88.15286
 31
0.0
  0
LINE
  5
22D
100
AcDbEntity
  8
0
390
0
  6
CONTINUOUS
 62
   143
100
AcDbLine
 10
69.433444
 20
-73.563252
 30
0.0
 11
69.433444
 21
-86.952863
 31
0.0
  0
LINE
  5
22E
100
AcDbEntity
  8
0
390
0
  6
CONTINUOUS
 62
   143
100
AcDbLine
 10
62.711554
 20
-86.952863
 30
0.0
 11
70.933444
 21
-86.952863
 31
0.0
  0
LINE
  5
22F
100
AcDbEntity
  8
0
390
0
  6
CONTINUOUS
 62
   143
100
AcDbLine
 10
62.711554
 20
-88.15286
 30
0.0
 11
70.933444
 21
-88.15286
 31
0.0
  0
LINE
  5
230
100
AcDbEntity
  8
0
390
0
  6
CONTINUOUS
 62
   143
100
AcDbLine
 10
69.433444
 20
-86.952863
 30
0.0
 11
69.433444
 21
-82.452863
 31
0.0
  0
LINE
  5
231
100
AcDbEntity
  8
0
390
0
  6
CONTINUOUS
 62
   143
100
AcDbLine
 10
69.433444
 20
-88.15286
 30
0.0
 11
69.433444
 21
-92.65286
 31
0.0
  0
INSERT
  5
232
100
AcDbEntity
  8
0
390
0
  6
CONTINUOUS
 62
   143
100
AcDbBlockReference
  2
_OPEN30
 10
69.433444
 20
-86.952863
 30
0.0
 41
2.77
 42
2.77
 43
2.77
 50
270.0
  0
INSERT
  5
233
100
AcDbEntity
  8
0
390
0
  6
CONTINUOUS
 62
   143
100
AcDbBlockReference
  2
_OPEN30
 10
69.433444
 20
-88.15286
 30
0.0
 41
2.77
 42
2.77
 43
2.77
 50
90.0
  0
MTEXT
  5
235
100
AcDbEntity
  8
0
390
0
  6
CONTINUOUS
 62
   143
100
AcDbMText
 10
67.183444
 20
-79.813252
 30
0.0
 40
2.5
 41
0.0
 71
     5
 72
     1
  1
\A1;(1.0)
  7
MX_DIMTXSTY_5
 11
0.0
 21
1.0
 31
0.0
 73
     1
 44
0.96
  0
POINT
  5
236
100
AcDbEntity
  8
DEFPOINTS
390
0
  6
CONTINUOUS
 62
     0
100
AcDbPoint
 10
61.211554
 20
-86.952863
 30
0.0
  0
POINT
  5
237
100
AcDbEntity
  8
DEFPOINTS
390
0
  6
CONTINUOUS
 62
     0
100
AcDbPoint
 10
61.211554
 20
-88.15286
 30
0.0
  0
POINT
  5
238
100
AcDbEntity
  8
DEFPOINTS
390
0
  6
CONTINUOUS
 62
     0
100
AcDbPoint
 10
69.433444
 20
-88.15286
 30
0.0
  0
ENDBLK
  5
239
100
AcDbEntity
  8
0
370
    -2
390
0
  6
ByBlock
 62
     0
100
AcDbBlockEnd
  0
BLOCK
  5
248
100
AcDbEntity
  8
0
370
    -2
390
0
  6
ByBlock
 62
     0
100
AcDbBlockBegin
  2
*D12
 70
     1
 10
0.0
 20
0.0
 30
0.0
  3
*D12
  1

  0
LINE
  5
249
100
AcDbEntity
  8
0
390
0
  6
CONTINUOUS
 62
   143
100
AcDbLine
 10
-13.051573
 20
-87.152859
 30
0.0
 11
-13.051573
 21
-88.152859
 31
0.0
  0
LINE
  5
24A
100
AcDbEntity
  8
0
390
0
  6
CONTINUOUS
 62
   143
100
AcDbLine
 10
-13.051573
 20
-76.284275
 30
0.0
 11
-13.051573
 21
-87.152859
 31
0.0
  0
LINE
  5
24B
100
AcDbEntity
  8
0
390
0
  6
CONTINUOUS
 62
   143
100
AcDbLine
 10
-23.145946
 20
-87.152859
 30
0.0
 11
-11.551573
 21
-87.152859
 31
0.0
  0
LINE
  5
24C
100
AcDbEntity
  8
0
390
0
  6
CONTINUOUS
 62
   143
100
AcDbLine
 10
-23.145946
 20
-88.152859
 30
0.0
 11
-11.551573
 21
-88.152859
 31
0.0
  0
LINE
  5
24D
100
AcDbEntity
  8
0
390
0
  6
CONTINUOUS
 62
   143
100
AcDbLine
 10
-13.051573
 20
-87.152859
 30
0.0
 11
-13.051573
 21
-82.652859
 31
0.0
  0
LINE
  5
24E
100
AcDbEntity
  8
0
390
0
  6
CONTINUOUS
 62
   143
100
AcDbLine
 10
-13.051573
 20
-88.152859
 30
0.0
 11
-13.051573
 21
-92.652859
 31
0.0
  0
INSERT
  5
24F
100
AcDbEntity
  8
0
390
0
  6
CONTINUOUS
 62
   143
100
AcDbBlockReference
  2
_OPEN30
 10
-13.051573
 20
-87.152859
 30
0.0
 41
2.77
 42
2.77
 43
2.77
 50
270.0
  0
INSERT
  5
250
100
AcDbEntity
  8
0
390
0
  6
CONTINUOUS
 62
   143
100
AcDbBlockReference
  2
_OPEN30
 10
-13.051573
 20
-88.152859
 30
0.0
 41
2.77
 42
2.77
 43
2.77
 50
90.0
  0
MTEXT
  5
252
100
AcDbEntity
  8
0
390
0
  6
CONTINUOUS
 62
   143
100
AcDbMText
 10
-15.301573
 20
-80.034275
 30
0.0
 40
2.5
 41
0.0
 71
     5
 72
     1
  1
\A1;1.0
  7
MX_DIMTXSTY_6
 11
0.0
 21
1.0
 31
0.0
 73
     1
 44
1.2
  0
POINT
  5
253
100
AcDbEntity
  8
DEFPOINTS
390
0
  6
CONTINUOUS
 62
     0
100
AcDbPoint
 10
-24.645946
 20
-87.152859
 30
0.0
  0
POINT
  5
254
100
AcDbEntity
  8
DEFPOINTS
390
0
  6
CONTINUOUS
 62
     0
100
AcDbPoint
 10
-24.645946
 20
-88.152859
 30
0.0
  0
POINT
  5
255
100
AcDbEntity
  8
DEFPOINTS
390
0
  6
CONTINUOUS
 62
     0
100
AcDbPoint
 10
-13.051573
 20
-88.152859
 30
0.0
  0
ENDBLK
  5
256
100
AcDbEntity
  8
0
370
    -2
390
0
  6
ByBlock
 62
     0
100
AcDbBlockEnd
  0
BLOCK
  5
48F
100
AcDbEntity
  8
0
370
    -2
390
0
  6
ByBlock
 62
     0
100
AcDbBlockBegin
  2
$BALOON
 70
     2
 10
0.0
 20
0.0
 30
0.0
  3
$BALOON
  1

  0
CIRCLE
  5
490
100
AcDbEntity
  8
0
370
    -2
390
0
  6
CONTINUOUS
 62
     0
100
AcDbCircle
 10
0.0
 20
0.0
 30
0.0
 40
1.0
  0
ATTDEF
  5
491
100
AcDbEntity
  8
0
370
    -2
390
0
  6
CONTINUOUS
 62
     0
100
AcDbText
 10
-1.333333
 20
-0.4
 30
0.0
 40
0.8
  1

 72
     1
 11
0.0
 21
0.0
 31
0.0
100
AcDbAttributeDefinition
  3
balloon no.
  2
NO.
 70
     0
 74
     2
  0
ENDBLK
  5
492
100
AcDbEntity
  8
0
370
    -2
390
0
  6
ByBlock
 62
     0
100
AcDbBlockEnd
  0
BLOCK
  5
4A4
100
AcDbEntity
  8
0
370
    -2
390
0
  6
ByBlock
 62
     0
100
AcDbBlockBegin
  2
$SYSSYM-10
 70
     0
 10
0.0
 20
0.0
 30
0.0
  3
$SYSSYM-10
  1

  0
LINE
  5
4A5
100
AcDbEntity
  8
0
390
0
  6
CONTINUOUS
 62
     0
100
AcDbLine
 10
-1.833087
 20
3.175
 30
0.0
 11
1.833087
 21
3.175
 31
0.0
  0
LINE
  5
4A6
100
AcDbEntity
  8
0
390
0
  6
CONTINUOUS
 62
     0
100
AcDbLine
 10
-0.000001
 20
0.000003
 30
0.0
 11
-1.833087
 21
3.175002
 31
0.0
  0
LINE
  5
4A7
100
AcDbEntity
  8
0
390
0
  6
CONTINUOUS
 62
     0
100
AcDbLine
 10
0.0
 20
0.000002
 30
0.0
 11
1.833087
 21
3.175
 31
0.0
  0
ENDBLK
  5
4A8
100
AcDbEntity
  8
0
370
    -2
390
0
  6
ByBlock
 62
     0
100
AcDbBlockEnd
  0
BLOCK
  5
4AC
100
AcDbEntity
  8
0
370
    -2
390
0
  6
ByBlock
 62
     0
100
AcDbBlockBegin
  2
*D15
 70
     1
 10
0.0
 20
0.0
 30
0.0
  3
*D15
  1

  0
LINE
  5
4AD
100
AcDbEntity
  8
0
390
0
  6
CONTINUOUS
 62
   143
100
AcDbLine
 10
72.973631
 20
79.308573
 30
0.0
 11
72.973631
 21
72.226781
 31
0.0
  0
LINE
  5
4AE
100
AcDbEntity
  8
0
390
0
  6
CONTINUOUS
 62
   143
100
AcDbLine
 10
72.973631
 20
72.226781
 30
0.0
 11
72.973631
 21
59.251506
 31
0.0
  0
LINE
  5
4AF
100
AcDbEntity
  8
0
390
0
  6
CONTINUOUS
 62
   143
100
AcDbLine
 10
66.508132
 20
72.226781
 30
0.0
 11
74.473631
 21
72.226781
 31
0.0
  0
INSERT
  5
4B0
100
AcDbEntity
  8
0
390
0
  6
CONTINUOUS
 62
   143
100
AcDbBlockReference
  2
_OPEN30
 10
72.973631
 20
79.308573
 30
0.0
 41
2.77
 42
2.77
 43
2.77
 50
90.0
  0
INSERT
  5
4B1
100
AcDbEntity
  8
0
390
0
  6
CONTINUOUS
 62
   143
100
AcDbBlockReference
  2
_OPEN30
 10
72.973631
 20
72.226781
 30
0.0
 41
2.77
 42
2.77
 43
2.77
 50
270.0
  0
MTEXT
  5
4B3
100
AcDbEntity
  8
0
390
0
  6
CONTINUOUS
 62
   143
100
AcDbMText
 10
68.723631
 20
64.251506
 30
0.0
 40
2.5
 41
0.0
 71
     5
 72
     1
  1
\A1;対応厚さ\P6～25
  7
MX_DIMTXSTY_7
 11
0.0
 21
1.0
 31
0.0
 73
     1
 44
0.96
  0
POINT
  5
4B4
100
AcDbEntity
  8
DEFPOINTS
390
0
  6
CONTINUOUS
 62
     0
100
AcDbPoint
 10
73.451128
 20
79.308573
 30
0.0
  0
POINT
  5
4B5
100
AcDbEntity
  8
DEFPOINTS
390
0
  6
CONTINUOUS
 62
     0
100
AcDbPoint
 10
65.008132
 20
72.226781
 30
0.0
  0
POINT
  5
4B6
100
AcDbEntity
  8
DEFPOINTS
390
0
  6
CONTINUOUS
 62
     0
100
AcDbPoint
 10
72.973631
 20
72.226781
 30
0.0
  0
ENDBLK
  5
4B7
100
AcDbEntity
  8
0
370
    -2
390
0
  6
ByBlock
 62
     0
100
AcDbBlockEnd
  0
BLOCK
  5
4BA
100
AcDbEntity
  8
0
370
    -2
390
0
  6
ByBlock
 62
     0
100
AcDbBlockBegin
  2
*D16
 70
     1
 10
0.0
 20
0.0
 30
0.0
  3
*D16
  1

  0
LINE
  5
4BB
100
AcDbEntity
  8
0
390
0
  6
CONTINUOUS
 62
   143
100
AcDbLine
 10
79.008888
 20
53.808573
 30
0.0
 11
79.008888
 21
79.308573
 31
0.0
  0
LINE
  5
4BC
100
AcDbEntity
  8
0
390
0
  6
CONTINUOUS
 62
   143
100
AcDbLine
 10
58.756942
 20
53.808573
 30
0.0
 11
80.508888
 21
53.808573
 31
0.0
  0
INSERT
  5
4BD
100
AcDbEntity
  8
0
390
0
  6
CONTINUOUS
 62
   143
100
AcDbBlockReference
  2
_OPEN30
 10
79.008888
 20
53.808573
 30
0.0
 41
2.77
 42
2.77
 43
2.77
 50
270.0
  0
INSERT
  5
4BE
100
AcDbEntity
  8
0
390
0
  6
CONTINUOUS
 62
   143
100
AcDbBlockReference
  2
_OPEN30
 10
79.008888
 20
79.308573
 30
0.0
 41
2.77
 42
2.77
 43
2.77
 50
90.0
  0
MTEXT
  5
4BF
100
AcDbEntity
  8
0
390
0
  6
CONTINUOUS
 62
   143
100
AcDbMText
 10
76.758888
 20
67.203686
 30
0.0
 40
2.5
 41
0.0
 71
     5
 72
     1
  1
\A1;51.0
  7
MX_DIMTXSTY_2
 11
0.0
 21
1.0
 31
0.0
 73
     1
 44
0.96
  0
POINT
  5
4C0
100
AcDbEntity
  8
DEFPOINTS
390
0
  6
CONTINUOUS
 62
     0
100
AcDbPoint
 10
57.256942
 20
53.808573
 30
0.0
  0
POINT
  5
4C1
100
AcDbEntity
  8
DEFPOINTS
390
0
  6
CONTINUOUS
 62
     0
100
AcDbPoint
 10
114.523186
 20
79.308573
 30
0.0
  0
POINT
  5
4C2
100
AcDbEntity
  8
DEFPOINTS
390
0
  6
CONTINUOUS
 62
     0
100
AcDbPoint
 10
79.008888
 20
79.308573
 30
0.0
  0
ENDBLK
  5
4C3
100
AcDbEntity
  8
0
370
    -2
390
0
  6
ByBlock
 62
     0
100
AcDbBlockEnd
  0
ENDSEC
  0
SECTION
  2
ENTITIES
  0
LINE
  5
2C
100
AcDbEntity
  8
CLASS1
390
0
  6
CONTINUOUS
 62
     3
100
AcDbLine
 10
-63.645946
 20
37.456447
 30
0.0
 11
-30.645946
 21
37.456447
 31
0.0
  0
MTEXT
  5
2D
100
AcDbEntity
  8
CLASS1
390
0
  6
CONTINUOUS
 62
   143
100
AcDbMText
 10
-23.944444
 20
-126.0
 30
0.0
 40
4.0
 41
0.0
 71
     4
 72
     1
  1
\W0.833333;\A1;黒崎
 73
     1
 44
0.96
  0
MTEXT
  5
2E
100
AcDbEntity
  8
CLASS1
390
0
  6
CONTINUOUS
 62
   143
100
AcDbMText
 10
8.055556
 20
-126.0
 30
0.0
 40
4.0
 41
0.0
 71
     4
 72
     1
  1
\W0.833333;\A1;祝
 73
     1
 44
0.96
  0
INSERT
  5
7F
100
AcDbEntity
  8
CLASS1
390
0
  6
ByBlock
 62
   143
100
AcDbBlockReference
  2
$KAKUDAI-2
 10
-75.129906
 20
-134.630508
 30
0.0
  0
INSERT
  5
8D
100
AcDbEntity
  8
CLASS1
390
0
  6
ByBlock
 62
   143
100
AcDbBlockReference
  2
$KAKUDAI-3
 10
-84.340515
 20
-132.25
 30
0.0
  0
LINE
  5
8F
100
AcDbEntity
  8
CLASS1
390
0
  6
CENTER
 62
   140
100
AcDbLine
 10
-91.108955
 20
-119.75
 30
0.0
 11
-71.675331
 21
-119.75
 31
0.0
  0
LINE
  5
90
100
AcDbEntity
  8
CLASS1
390
0
  6
CENTER
 62
   140
100
AcDbLine
 10
-86.340515
 20
-114.676628
 30
0.0
 11
-86.340515
 21
-124.753326
 31
0.0
  0
LINE
  5
91
100
AcDbEntity
  8
CLASS1
390
0
  6
CONTINUOUS
 62
   130
100
AcDbLine
 10
-80.715515
 20
-117.875
 30
0.0
 11
-80.715515
 21
-121.624985
 31
0.0
  0
LINE
  5
92
100
AcDbEntity
  8
CLASS1
390
0
  6
CONTINUOUS
 62
   130
100
AcDbLine
 10
-73.215515
 20
-116.375
 30
0.0
 11
-73.215515
 21
-123.124985
 31
0.0
  0
LINE
  5
93
100
AcDbEntity
  8
CLASS1
390
0
  6
CONTINUOUS
 62
   130
100
AcDbLine
 10
-80.715524
 20
-117.875012
 30
0.0
 11
-73.215524
 21
-116.375012
 31
0.0
  0
LINE
  5
94
100
AcDbEntity
  8
CLASS1
390
0
  6
CONTINUOUS
 62
   130
100
AcDbLine
 10
-80.715521
 20
-121.625005
 30
0.0
 11
-73.215521
 21
-123.125005
 31
0.0
  0
LINE
  5
95
100
AcDbEntity
  8
CLASS1
390
0
  6
CONTINUOUS
 62
   130
100
AcDbLine
 10
-28.0
 20
-133.5
 30
0.0
 11
17.0
 21
-133.5
 31
0.0
  0
LINE
  5
96
100
AcDbEntity
  8
CLASS1
390
0
  6
CONTINUOUS
 62
   130
100
AcDbLine
 10
-28.0
 20
-118.5
 30
0.0
 11
17.0
 21
-118.5
 31
0.0
  0
LINE
  5
97
100
AcDbEntity
  8
CLASS1
390
0
  6
CONTINUOUS
 62
   130
100
AcDbLine
 10
-95.0
 20
-113.5
 30
0.0
 11
95.0
 21
-113.5
 31
0.0
  0
LINE
  5
98
100
AcDbEntity
  8
CLASS1
390
0
  6
CONTINUOUS
 62
   130
100
AcDbLine
 10
-95.0
 20
-126.0
 30
0.0
 11
-28.0
 21
-126.0
 31
0.0
  0
LINE
  5
99
100
AcDbEntity
  8
CLASS1
390
0
  6
CONTINUOUS
 62
   130
100
AcDbLine
 10
-48.0
 20
-113.5
 30
0.0
 11
-48.0
 21
-126.0
 31
0.0
  0
LINE
  5
9A
100
AcDbEntity
  8
CLASS1
390
0
  6
CONTINUOUS
 62
   130
100
AcDbLine
 10
-68.0
 20
-113.5
 30
0.0
 11
-68.0
 21
-126.0
 31
0.0
  0
LINE
  5
9B
100
AcDbEntity
  8
CLASS1
390
0
  6
CONTINUOUS
 62
   130
100
AcDbLine
 10
-43.0
 20
-113.5
 30
0.0
 11
-43.0
 21
-126.0
 31
0.0
  0
LINE
  5
9C
100
AcDbEntity
  8
CLASS1
390
0
  6
CONTINUOUS
 62
   130
100
AcDbLine
 10
-32.217645
 20
-117.014689
 30
0.0
 11
-39.920969
 21
-123.434125
 31
0.0
  0
LINE
  5
9D
100
AcDbEntity
  8
CLASS1
390
0
  6
CONTINUOUS
 62
   130
100
AcDbLine
 10
17.0
 20
-126.0
 30
0.0
 11
95.0
 21
-126.0
 31
0.0
  0
CIRCLE
  5
9E
100
AcDbEntity
  8
CLASS1
390
0
  6
CONTINUOUS
 62
   130
100
AcDbCircle
 10
-86.340515
 20
-119.75
 30
0.0
 40
3.375
  0
CIRCLE
  5
9F
100
AcDbEntity
  8
CLASS1
390
0
  6
CONTINUOUS
 62
   130
100
AcDbCircle
 10
-86.340515
 20
-119.75
 30
0.0
 40
1.875
  0
MTEXT
  5
A0
100
AcDbEntity
  8
CLASS1
390
0
  6
CONTINUOUS
 62
   140
100
AcDbMText
 10
4.121792
 20
-114.398474
 30
0.0
 40
3.2
 41
0.0
 71
     1
 72
     1
  1
\T0.958395;\W1.043411;\A1;承　認
 73
     1
 44
1.152
  0
MTEXT
  5
A1
100
AcDbEntity
  8
CLASS1
390
0
  6
CONTINUOUS
 62
   140
100
AcDbMText
 10
-25.878208
 20
-114.398474
 30
0.0
 40
3.2
 41
0.0
 71
     1
 72
     1
  1
\T0.958395;\W1.043411;\A1;製　図
 73
     1
 44
1.152
  0
MTEXT
  5
A2
100
AcDbEntity
  8
CLASS1
390
0
  6
CONTINUOUS
 62
   140
100
AcDbMText
 10
-10.878208
 20
-114.398474
 30
0.0
 40
3.2
 41
0.0
 71
     1
 72
     1
  1
\T0.958395;\W1.043411;\A1;検　図
 73
     1
 44
1.152
  0
MTEXT
  5
A3
100
AcDbEntity
  8
CLASS1
390
0
  6
CONTINUOUS
 62
   140
100
AcDbMText
 10
17.889511
 20
-115.09462
 30
0.0
 40
3.75
 41
0.0
 71
     1
 72
     1
  1
\T0.958395;\W1.043411;\A1;品
 73
     1
 44
1.152
  0
MTEXT
  5
A4
100
AcDbEntity
  8
CLASS1
390
0
  6
CONTINUOUS
 62
   140
100
AcDbMText
 10
17.889511
 20
-120.09462
 30
0.0
 40
3.75
 41
0.0
 71
     1
 72
     1
  1
\T0.958395;\W1.043411;\A1;番
 73
     1
 44
1.152
  0
MTEXT
  5
A5
100
AcDbEntity
  8
CLASS1
390
0
  6
CONTINUOUS
 62
   140
100
AcDbMText
 10
17.889511
 20
-127.59462
 30
0.0
 40
3.75
 41
0.0
 71
     1
 72
     1
  1
\T0.958395;\W1.043411;\A1;品
 73
     1
 44
1.152
  0
MTEXT
  5
A6
100
AcDbEntity
  8
CLASS1
390
0
  6
CONTINUOUS
 62
   140
100
AcDbMText
 10
-66.626118
 20
-117.951172
 30
0.0
 40
3.75
 41
0.0
 71
     1
 72
     1
  1
\T0.958395;\W1.043411;\A1;単位ｍｍ
 73
     1
 44
1.152
  0
MTEXT
  5
A7
100
AcDbEntity
  8
CLASS1
390
0
  6
CONTINUOUS
 62
   140
100
AcDbMText
 10
-47.110489
 20
-120.09462
 30
0.0
 40
3.75
 41
0.0
 71
     1
 72
     1
  1
\T0.958395;\W1.043411;\A1;度
 73
     1
 44
1.152
  0
MTEXT
  5
A8
100
AcDbEntity
  8
CLASS1
390
0
  6
CONTINUOUS
 62
   140
100
AcDbMText
 10
-47.110489
 20
-115.09462
 30
0.0
 40
3.75
 41
0.0
 71
     1
 72
     1
  1
\T0.958395;\W1.043411;\A1;尺
 73
     1
 44
1.152
  0
MTEXT
  5
A9
100
AcDbEntity
  8
CLASS1
390
0
  6
CONTINUOUS
 62
   143
100
AcDbMText
 10
-39.862743
 20
-115.332664
 30
0.0
 40
3.75
 41
0.0
 71
     1
 72
     1
  1
\T1.285821;\W1.399883;\A1;1
 73
     1
 44
1.152
  0
MTEXT
  5
AA
100
AcDbEntity
  8
CLASS1
390
0
  6
CONTINUOUS
 62
   143
100
AcDbMText
 10
-32.959413
 20
-120.569679
 30
0.0
 40
3.75
 41
0.0
 71
     1
 72
     1
  1
\T1.285821;\W1.399883;\A1;1
 73
     1
 44
1.152
  0
MTEXT
  5
AB
100
AcDbEntity
  8
CLASS1
390
0
  6
CONTINUOUS
 62
   140
100
AcDbMText
 10
17.889511
 20
-132.59462
 30
0.0
 40
3.75
 41
0.0
 71
     1
 72
     1
  1
\T0.958395;\W1.043411;\A1;名
 73
     1
 44
1.152
  0
LINE
  5
AC
100
AcDbEntity
  8
CLASS1
390
0
  6
CONTINUOUS
 62
   130
100
AcDbLine
 10
-28.0
 20
-113.5
 30
0.0
 11
-28.0
 21
-138.5
 31
0.0
  0
LINE
  5
AD
100
AcDbEntity
  8
CLASS1
390
0
  6
CONTINUOUS
 62
   130
100
AcDbLine
 10
22.0
 20
-113.5
 30
0.0
 11
22.0
 21
-138.5
 31
0.0
  0
LINE
  5
AE
100
AcDbEntity
  8
CLASS1
390
0
  6
CONTINUOUS
 62
   130
100
AcDbLine
 10
-13.0
 20
-113.5
 30
0.0
 11
-13.0
 21
-133.5
 31
0.0
  0
LINE
  5
AF
100
AcDbEntity
  8
CLASS1
390
0
  6
CONTINUOUS
 62
   130
100
AcDbLine
 10
2.0
 20
-113.5
 30
0.0
 11
2.0
 21
-133.5
 31
0.0
  0
LINE
  5
B0
100
AcDbEntity
  8
CLASS1
390
0
  6
CONTINUOUS
 62
   130
100
AcDbLine
 10
17.0
 20
-113.5
 30
0.0
 11
17.0
 21
-138.5
 31
0.0
  0
LINE
  5
B1
100
AcDbEntity
  8
CLASS1
390
0
  6
CONTINUOUS
 62
   130
100
AcDbLine
 10
-95.0
 20
-138.5
 30
0.0
 11
-95.0
 21
138.5
 31
0.0
  0
LINE
  5
B2
100
AcDbEntity
  8
CLASS1
390
0
  6
CONTINUOUS
 62
   130
100
AcDbLine
 10
-95.0
 20
138.5
 30
0.0
 11
95.0
 21
138.5
 31
0.0
  0
LINE
  5
B3
100
AcDbEntity
  8
CLASS1
390
0
  6
CONTINUOUS
 62
   130
100
AcDbLine
 10
95.0
 20
-138.5
 30
0.0
 11
95.0
 21
138.5
 31
0.0
  0
LINE
  5
B4
100
AcDbEntity
  8
CLASS1
390
0
  6
CONTINUOUS
 62
   130
100
AcDbLine
 10
-95.0
 20
-138.5
 30
0.0
 11
95.0
 21
-138.5
 31
0.0
  0
LINE
  5
B6
100
AcDbEntity
  8
DEFPOINTS
390
0
  6
NON_PLOTING
 62
   130
100
AcDbLine
 10
105.0
 20
-148.5
 30
0.0
 11
105.0
 21
148.5
 31
0.0
  0
LINE
  5
B7
100
AcDbEntity
  8
DEFPOINTS
390
0
  6
NON_PLOTING
 62
   130
100
AcDbLine
 10
-105.0
 20
-148.5
 30
0.0
 11
-105.0
 21
148.5
 31
0.0
  0
LINE
  5
B8
100
AcDbEntity
  8
DEFPOINTS
390
0
  6
NON_PLOTING
 62
   130
100
AcDbLine
 10
-105.0
 20
-148.5
 30
0.0
 11
105.0
 21
-148.5
 31
0.0
  0
LINE
  5
B9
100
AcDbEntity
  8
DEFPOINTS
390
0
  6
NON_PLOTING
 62
   130
100
AcDbLine
 10
-105.0
 20
148.5
 30
0.0
 11
105.0
 21
148.5
 31
0.0
  0
MTEXT
  5
BA
100
AcDbEntity
  8
CLASS1
390
0
  6
CONTINUOUS
 62
   143
100
AcDbMText
 10
-8.944444
 20
-126.0
 30
0.0
 40
4.0
 41
0.0
 71
     4
 72
     1
  1
\W0.833333;\A1;山田
 73
     1
 44
0.96
  0
MTEXT
  5
BB
100
AcDbEntity
  8
CLASS1
390
0
  6
CONTINUOUS
 62
   143
100
AcDbMText
 10
-26.491525
 20
-134.5
 30
0.0
 40
3.0
 41
0.0
 71
     1
 72
     1
  1
\W1.016949;\A1;2020年07月14日 作成
 73
     1
 44
0.96
  0
MTEXT
  5
BC
100
AcDbEntity
  8
CLASS1
390
0
  6
CONTINUOUS
 62
   143
100
AcDbMText
 10
90.416667
 20
-139.25
 30
0.0
 40
2.5
 41
0.0
 71
     1
 72
     1
  1
\A1;A4
 73
     1
 44
0.96
  0
MTEXT
  5
BD
100
AcDbEntity
  8
CLASS1
390
0
  6
CONTINUOUS
 62
   143
100
AcDbMText
 10
25.4
 20
-117.5
 30
0.0
 40
4.5
 41
0.0
 71
     1
 72
     1
  1
\W1.200000;\A1;107-811
 73
     1
 44
0.96
  0
MTEXT
  5
BE
100
AcDbEntity
  8
CLASS1
390
0
  6
CONTINUOUS
 62
   143
100
AcDbMText
 10
25.125
 20
-130.0
 30
0.0
 40
4.5
 41
0.0
 71
     1
 72
     1
  1
\W0.833333;\A1;単水栓取付アダプ\M+1835Eー
 73
     1
 44
0.96
  0
MTEXT
  5
BF
100
AcDbEntity
  8
CLASS1
390
0
  6
CONTINUOUS
 62
   143
100
AcDbMText
 10
18.56962
 20
-107.3
 30
0.0
 40
4.0
 41
0.0
 71
     7
 72
     1
  1
\W0.854430;\A1;※1　（　）内寸法は参考寸法である。
 73
     1
 44
0.96
  0
LEADER
  5
C0
100
AcDbEntity
  8
CLASS1
390
0
  6
CONTINUOUS
 62
   143
100
AcDbLeader
  3
MXDIMSTYLE
 73
     3
 74
     0
 75
     0
 40
0.0
 76
     3
 10
-26.145946
 20
39.456447
 30
0.0
 10
-4.145946
 20
17.456447
 30
0.0
 10
8.354054
 20
17.456447
 30
0.0
 77
   143
1001
ACAD
1000
DSTYLE
1002
{
1070
    41
1040
2.77
1002
}
  0
MTEXT
  5
C1
100
AcDbEntity
  8
CLASS1
390
0
  6
CONTINUOUS
 62
   143
100
AcDbMText
 10
-4.145946
 20
20.456447
 30
0.0
 40
2.5
 41
0.0
 71
     4
 72
     1
  1
\W0.833333;\A1;台座シート
 73
     1
 44
0.96
  0
LEADER
  5
C2
100
AcDbEntity
  8
CLASS1
390
0
  6
CONTINUOUS
 62
   143
100
AcDbLeader
  3
MXDIMSTYLE
 73
     3
 74
     0
 75
     0
 40
0.0
 76
     3
 10
-36.895946
 20
37.456447
 30
0.0
 10
-25.348941
 20
17.456447
 30
0.0
 10
-15.348941
 20
17.456447
 30
0.0
 77
   143
1001
ACAD
1000
DSTYLE
1002
{
1070
    41
1040
2.77
1002
}
  0
MTEXT
  5
C3
100
AcDbEntity
  8
CLASS1
390
0
  6
CONTINUOUS
 62
   143
100
AcDbMText
 10
-25.348941
 20
20.456447
 30
0.0
 40
2.5
 41
0.0
 71
     4
 72
     1
  1
\W1.090909;\A1;G1/2
 73
     1
 44
0.96
  0
DIMENSION
  5
D4
100
AcDbEntity
  8
CLASS1
390
0
  6
CONTINUOUS
 62
   143
100
AcDbDimension
  2
*D3
 10
-2.190336
 20
37.456447
 30
0.0
 11
-2.190336
 21
28.982189
 31
0.0
 70
   128
 71
     5
 72
     1
 41
0.96
 42
5.0
  1
\A1;<>
  3
MXDIMSTYLE
100
AcDbAlignedDimension
 13
-23.145947
 23
42.456447
 33
0.0
 14
-30.645947
 24
37.456447
 34
0.0
 50
90.0
100
AcDbRotatedDimension
1001
ACAD
1000
DSTYLE
1002
{
1070
    41
1040
2.77
1070
    78
1070
     0
1070
   271
1070
     1
1070
   340
1005
CE
1002
}
  0
ARC
  5
D5
100
AcDbEntity
  8
CLASS1
390
0
  6
CONTINUOUS
 62
     3
100
AcDbCircle
 10
28.763084
 20
-92.446801
 30
0.0
 40
6.236345
100
AcDbArc
 50
117.459816
 51
118.242243
  0
ARC
  5
D6
100
AcDbEntity
  8
CLASS1
390
0
  6
CONTINUOUS
 62
     3
100
AcDbCircle
 10
28.742447
 20
-92.406998
 30
0.0
 40
6.19151
100
AcDbArc
 50
116.358898
 51
117.460213
  0
ARC
  5
D7
100
AcDbEntity
  8
CLASS1
390
0
  6
CONTINUOUS
 62
     3
100
AcDbCircle
 10
28.718417
 20
-92.358496
 30
0.0
 40
6.137381
100
AcDbArc
 50
115.250277
 51
116.358928
  0
ARC
  5
D8
100
AcDbEntity
  8
CLASS1
390
0
  6
CONTINUOUS
 62
     3
100
AcDbCircle
 10
28.694548
 20
-92.307879
 30
0.0
 40
6.081419
100
AcDbArc
 50
114.133854
 51
115.250306
  0
ARC
  5
D9
100
AcDbEntity
  8
CLASS1
390
0
  6
CONTINUOUS
 62
     3
100
AcDbCircle
 10
28.670991
 20
-92.255291
 30
0.0
 40
6.023796
100
AcDbArc
 50
113.009167
 51
114.133882
  0
ARC
  5
DA
100
AcDbEntity
  8
CLASS1
390
0
  6
CONTINUOUS
 62
     3
100
AcDbCircle
 10
28.647895
 20
-92.200898
 30
0.0
 40
5.964702
100
AcDbArc
 50
111.875767
 51
113.009195
  0
ARC
  5
DB
100
AcDbEntity
  8
CLASS1
390
0
  6
CONTINUOUS
 62
     3
100
AcDbCircle
 10
28.625401
 20
-92.144867
 30
0.0
 40
5.904325
100
AcDbArc
 50
110.73321
 51
111.875793
  0
ARC
  5
DC
100
AcDbEntity
  8
CLASS1
390
0
  6
CONTINUOUS
 62
     3
100
AcDbCircle
 10
28.603647
 20
-92.08739
 30
0.0
 40
5.842869
100
AcDbArc
 50
109.581065
 51
110.733235
  0
ARC
  5
DD
100
AcDbEntity
  8
CLASS1
390
0
  6
CONTINUOUS
 62
     3
100
AcDbCircle
 10
28.582759
 20
-92.028661
 30
0.0
 40
5.780536
100
AcDbArc
 50
108.418916
 51
109.581089
  0
ARC
  5
DE
100
AcDbEntity
  8
CLASS1
390
0
  6
CONTINUOUS
 62
     3
100
AcDbCircle
 10
28.564257
 20
-91.973187
 30
0.0
 40
5.722058
100
AcDbArc
 50
107.414234
 51
108.418651
  0
ARC
  5
DF
100
AcDbEntity
  8
CLASS1
390
0
  6
CONTINUOUS
 62
     3
100
AcDbCircle
 10
28.547994
 20
-91.921333
 30
0.0
 40
5.667713
100
AcDbArc
 50
106.401943
 51
107.414247
  0
ARC
  5
E0
100
AcDbEntity
  8
CLASS1
390
0
  6
CONTINUOUS
 62
     3
100
AcDbCircle
 10
28.532589
 20
-91.868996
 30
0.0
 40
5.613156
100
AcDbArc
 50
105.38153
 51
106.401954
  0
ARC
  5
E1
100
AcDbEntity
  8
CLASS1
390
0
  6
CONTINUOUS
 62
     3
100
AcDbCircle
 10
28.518102
 20
-91.81633
 30
0.0
 40
5.558534
100
AcDbArc
 50
104.352775
 51
105.38154
  0
ARC
  5
E2
100
AcDbEntity
  8
CLASS1
390
0
  6
CONTINUOUS
 62
     3
100
AcDbCircle
 10
28.50458
 20
-91.763479
 30
0.0
 40
5.50398
100
AcDbArc
 50
103.315471
 51
104.352784
  0
ARC
  5
E3
100
AcDbEntity
  8
CLASS1
390
0
  6
CONTINUOUS
 62
     3
100
AcDbCircle
 10
28.492064
 20
-91.710594
 30
0.0
 40
5.449635
100
AcDbArc
 50
102.269423
 51
103.315479
  0
ARC
  5
E4
100
AcDbEntity
  8
CLASS1
390
0
  6
CONTINUOUS
 62
     3
100
AcDbCircle
 10
28.48059
 20
-91.657832
 30
0.0
 40
5.395639
100
AcDbArc
 50
101.214453
 51
102.269429
  0
ARC
  5
E5
100
AcDbEntity
  8
CLASS1
390
0
  6
CONTINUOUS
 62
     3
100
AcDbCircle
 10
28.470184
 20
-91.605346
 30
0.0
 40
5.342132
100
AcDbArc
 50
100.150398
 51
101.214457
  0
ARC
  5
E6
100
AcDbEntity
  8
CLASS1
390
0
  6
CONTINUOUS
 62
     3
100
AcDbCircle
 10
28.460866
 20
-91.553295
 30
0.0
 40
5.289254
100
AcDbArc
 50
99.077115
 51
100.150401
  0
ARC
  5
E7
100
AcDbEntity
  8
CLASS1
390
0
  6
CONTINUOUS
 62
     3
100
AcDbCircle
 10
28.452645
 20
-91.501836
 30
0.0
 40
5.237142
100
AcDbArc
 50
97.994478
 51
99.077116
  0
ARC
  5
E8
100
AcDbEntity
  8
CLASS1
390
0
  6
CONTINUOUS
 62
     3
100
AcDbCircle
 10
28.445523
 20
-91.451128
 30
0.0
 40
5.185936
100
AcDbArc
 50
96.902385
 51
97.994478
  0
ARC
  5
E9
100
AcDbEntity
  8
CLASS1
390
0
  6
CONTINUOUS
 62
     3
100
AcDbCircle
 10
28.439494
 20
-91.401327
 30
0.0
 40
5.135771
100
AcDbArc
 50
95.800754
 51
96.902383
  0
ARC
  5
EA
100
AcDbEntity
  8
CLASS1
390
0
  6
CONTINUOUS
 62
     3
100
AcDbCircle
 10
28.434543
 20
-91.352593
 30
0.0
 40
5.086786
100
AcDbArc
 50
94.689526
 51
95.800748
  0
ARC
  5
EB
100
AcDbEntity
  8
CLASS1
390
0
  6
CONTINUOUS
 62
     3
100
AcDbCircle
 10
28.430644
 20
-91.305074
 30
0.0
 40
5.039108
100
AcDbArc
 50
93.568668
 51
94.689518
  0
ARC
  5
EC
100
AcDbEntity
  8
CLASS1
390
0
  6
CONTINUOUS
 62
     3
100
AcDbCircle
 10
28.427765
 20
-91.258934
 30
0.0
 40
4.992879
100
AcDbArc
 50
92.438175
 51
93.568658
  0
ARC
  5
ED
100
AcDbEntity
  8
CLASS1
390
0
  6
CONTINUOUS
 62
     3
100
AcDbCircle
 10
28.425865
 20
-91.214315
 30
0.0
 40
4.948219
100
AcDbArc
 50
91.298067
 51
92.438162
  0
ARC
  5
EE
100
AcDbEntity
  8
CLASS1
390
0
  6
CONTINUOUS
 62
     3
100
AcDbCircle
 10
28.42489
 20
-91.171374
 30
0.0
 40
4.905267
100
AcDbArc
 50
90.148396
 51
91.298052
  0
ARC
  5
EF
100
AcDbEntity
  8
CLASS1
390
0
  6
CONTINUOUS
 62
     3
100
AcDbCircle
 10
28.424782
 20
-91.130248
 30
0.0
 40
4.864141
100
AcDbArc
 50
88.989244
 51
90.148378
  0
ARC
  5
F0
100
AcDbEntity
  8
CLASS1
390
0
  6
CONTINUOUS
 62
     3
100
AcDbCircle
 10
28.425471
 20
-91.091088
 30
0.0
 40
4.824974
100
AcDbArc
 50
87.820722
 51
88.989223
  0
ARC
  5
F1
100
AcDbEntity
  8
CLASS1
390
0
  6
CONTINUOUS
 62
     3
100
AcDbCircle
 10
28.42688
 20
-91.054022
 30
0.0
 40
4.787882
100
AcDbArc
 50
86.642978
 51
87.820699
  0
ARC
  5
F2
100
AcDbEntity
  8
CLASS1
390
0
  6
CONTINUOUS
 62
     3
100
AcDbCircle
 10
28.428921
 20
-91.019192
 30
0.0
 40
4.752992
100
AcDbArc
 50
85.456192
 51
86.642952
  0
ARC
  5
F3
100
AcDbEntity
  8
CLASS1
390
0
  6
CONTINUOUS
 62
     3
100
AcDbCircle
 10
28.431499
 20
-90.986723
 30
0.0
 40
4.720421
100
AcDbArc
 50
84.260578
 51
85.456162
  0
ARC
  5
F4
100
AcDbEntity
  8
CLASS1
390
0
  6
CONTINUOUS
 62
     3
100
AcDbCircle
 10
28.434254
 20
-90.959128
 30
0.0
 40
4.692689
100
AcDbArc
 50
83.257478
 51
84.260356
  0
ARC
  5
F5
100
AcDbEntity
  8
CLASS1
390
0
  6
CONTINUOUS
 62
     3
100
AcDbCircle
 10
28.428153
 20
-91.007591
 30
0.0
 40
4.741533
100
AcDbArc
 50
82.055577
 51
83.253018
  0
ARC
  5
F6
100
AcDbEntity
  8
CLASS1
390
0
  6
CONTINUOUS
 62
     3
100
AcDbCircle
 10
28.37469
 20
-91.390265
 30
0.0
 40
5.127923
100
AcDbArc
 50
80.943906
 51
82.054914
  0
ARC
  5
F7
100
AcDbEntity
  8
CLASS1
390
0
  6
CONTINUOUS
 62
     3
100
AcDbCircle
 10
28.300956
 20
-91.852875
 30
0.0
 40
5.596372
100
AcDbArc
 50
79.924481
 51
80.943913
  0
ARC
  5
F8
100
AcDbEntity
  8
CLASS1
390
0
  6
CONTINUOUS
 62
     3
100
AcDbCircle
 10
28.193809
 20
-92.454182
 30
0.0
 40
6.207151
100
AcDbArc
 50
78.847656
 51
79.921728
  0
ARC
  5
F9
100
AcDbEntity
  8
CLASS1
390
0
  6
CONTINUOUS
 62
     3
100
AcDbCircle
 10
28.022511
 20
-93.321107
 30
0.0
 40
7.090837
100
AcDbArc
 50
77.767937
 51
78.844552
  0
ARC
  5
FA
100
AcDbEntity
  8
CLASS1
390
0
  6
CONTINUOUS
 62
     3
100
AcDbCircle
 10
27.738077
 20
-94.630738
 30
0.0
 40
8.431
100
AcDbArc
 50
76.743733
 51
77.764519
  0
ARC
  5
FB
100
AcDbEntity
  8
CLASS1
390
0
  6
CONTINUOUS
 62
     3
100
AcDbCircle
 10
27.161334
 20
-97.068292
 30
0.0
 40
10.935855
100
AcDbArc
 50
75.679454
 51
76.731017
  0
ARC
  5
FC
100
AcDbEntity
  8
CLASS1
390
0
  6
CONTINUOUS
 62
     3
100
AcDbCircle
 10
20.19991
 20
-123.55412
 30
0.0
 40
38.321066
100
AcDbArc
 50
74.387699
 51
75.389488
  0
ARC
  5
FD
100
AcDbEntity
  8
CLASS1
390
0
  6
CONTINUOUS
 62
     3
100
AcDbCircle
 10
35.765084
 20
-67.557827
 30
0.0
 40
19.798394
100
AcDbArc
 50
254.616894
 51
255.629821
  0
ARC
  5
FE
100
AcDbEntity
  8
CLASS1
390
0
  6
CONTINUOUS
 62
     3
100
AcDbCircle
 10
33.486307
 20
-76.407055
 30
0.0
 40
10.660482
100
AcDbArc
 50
255.690163
 51
256.758384
  0
ARC
  5
FF
100
AcDbEntity
  8
CLASS1
390
0
  6
CONTINUOUS
 62
     3
100
AcDbCircle
 10
32.912177
 20
-78.838739
 30
0.0
 40
8.161941
100
AcDbArc
 50
256.771509
 51
257.812706
  0
ARC
  5
100
100
AcDbEntity
  8
CLASS1
390
0
  6
CONTINUOUS
 62
     3
100
AcDbCircle
 10
32.629647
 20
-80.144907
 30
0.0
 40
6.825566
100
AcDbArc
 50
257.816225
 51
258.918083
  0
ARC
  5
101
100
AcDbEntity
  8
CLASS1
390
0
  6
CONTINUOUS
 62
     3
100
AcDbCircle
 10
32.460021
 20
-81.009197
 30
0.0
 40
5.944788
100
AcDbArc
 50
258.921326
 51
260.023898
  0
ARC
  5
102
100
AcDbEntity
  8
CLASS1
390
0
  6
CONTINUOUS
 62
     3
100
AcDbCircle
 10
32.354361
 20
-81.608324
 30
0.0
 40
5.336416
100
AcDbArc
 50
260.02681
 51
261.076029
  0
ARC
  5
103
100
AcDbEntity
  8
CLASS1
390
0
  6
CONTINUOUS
 62
     3
100
AcDbCircle
 10
32.282031
 20
-82.068972
 30
0.0
 40
4.870124
100
AcDbArc
 50
261.075994
 51
262.22221
  0
ARC
  5
104
100
AcDbEntity
  8
CLASS1
390
0
  6
CONTINUOUS
 62
     3
100
AcDbCircle
 10
32.232593
 20
-82.429435
 30
0.0
 40
4.506286
100
AcDbArc
 50
262.224772
 51
263.254422
  0
ARC
  5
105
100
AcDbEntity
  8
CLASS1
390
0
  6
CONTINUOUS
 62
     3
100
AcDbCircle
 10
32.198853
 20
-82.714674
 30
0.0
 40
4.219059
100
AcDbArc
 50
263.254439
 51
264.351876
  0
ARC
  5
106
100
AcDbEntity
  8
CLASS1
390
0
  6
CONTINUOUS
 62
     3
100
AcDbCircle
 10
32.174038
 20
-82.96556
 30
0.0
 40
3.966948
100
AcDbArc
 50
264.351917
 51
265.516982
  0
ARC
  5
107
100
AcDbEntity
  8
CLASS1
390
0
  6
CONTINUOUS
 62
     3
100
AcDbCircle
 10
32.156702
 20
-83.186618
 30
0.0
 40
3.745212
100
AcDbArc
 50
265.517049
 51
266.749295
  0
ARC
  5
108
100
AcDbEntity
  8
CLASS1
390
0
  6
CONTINUOUS
 62
     3
100
AcDbCircle
 10
32.146547
 20
-83.363106
 30
0.0
 40
3.568432
100
AcDbArc
 50
266.751397
 51
267.785045
  0
ARC
  5
109
100
AcDbEntity
  8
CLASS1
390
0
  6
CONTINUOUS
 62
     3
100
AcDbCircle
 10
32.141101
 20
-83.503816
 30
0.0
 40
3.427617
100
AcDbArc
 50
267.785108
 51
268.860681
  0
ARC
  5
10A
100
AcDbEntity
  8
CLASS1
390
0
  6
CONTINUOUS
 62
     3
100
AcDbCircle
 10
32.138574
 20
-83.63067
 30
0.0
 40
3.300738
100
AcDbArc
 50
268.860759
 51
269.977517
  0
ARC
  5
10B
100
AcDbEntity
  8
CLASS1
390
0
  6
CONTINUOUS
 62
     3
100
AcDbCircle
 10
32.138524
 20
-83.744676
 30
0.0
 40
3.186732
100
AcDbArc
 50
269.977612
 51
271.134623
  0
ARC
  5
10C
100
AcDbEntity
  8
CLASS1
390
0
  6
CONTINUOUS
 62
     3
100
AcDbCircle
 10
32.140477
 20
-83.844281
 30
0.0
 40
3.087107
100
AcDbArc
 50
271.134974
 51
272.330166
  0
ARC
  5
10D
100
AcDbEntity
  8
CLASS1
390
0
  6
CONTINUOUS
 62
     3
100
AcDbCircle
 10
32.136851
 20
-83.762681
 30
0.0
 40
3.168787
100
AcDbArc
 50
272.335702
 51
273.501434
  0
ARC
  5
10E
100
AcDbEntity
  8
CLASS1
390
0
  6
CONTINUOUS
 62
     3
100
AcDbCircle
 10
32.127181
 20
-83.604695
 30
0.0
 40
3.327069
100
AcDbArc
 50
273.501484
 51
274.613435
  0
ARC
  5
10F
100
AcDbEntity
  8
CLASS1
390
0
  6
CONTINUOUS
 62
     3
100
AcDbCircle
 10
32.112978
 20
-83.428711
 30
0.0
 40
3.503625
100
AcDbArc
 50
274.613467
 51
275.671302
  0
ARC
  5
110
100
AcDbEntity
  8
CLASS1
390
0
  6
CONTINUOUS
 62
     3
100
AcDbCircle
 10
32.093511
 20
-83.232691
 30
0.0
 40
3.70061
100
AcDbArc
 50
275.671317
 51
276.674912
  0
ARC
  5
111
100
AcDbEntity
  8
CLASS1
390
0
  6
CONTINUOUS
 62
     3
100
AcDbCircle
 10
32.064335
 20
-82.984955
 30
0.0
 40
3.950058
100
AcDbArc
 50
276.677556
 51
277.855841
  0
ARC
  5
112
100
AcDbEntity
  8
CLASS1
390
0
  6
CONTINUOUS
 62
     3
100
AcDbCircle
 10
32.020967
 20
-82.670626
 30
0.0
 40
4.267364
100
AcDbArc
 50
277.855817
 51
278.949827
  0
ARC
  5
113
100
AcDbEntity
  8
CLASS1
390
0
  6
CONTINUOUS
 62
     3
100
AcDbCircle
 10
31.963749
 20
-82.307283
 30
0.0
 40
4.635185
100
AcDbArc
 50
278.94978
 51
279.960202
  0
ARC
  5
114
100
AcDbEntity
  8
CLASS1
390
0
  6
CONTINUOUS
 62
     3
100
AcDbCircle
 10
31.881046
 20
-81.837914
 30
0.0
 40
5.111784
100
AcDbArc
 50
279.963262
 51
281.066674
  0
ARC
  5
115
100
AcDbEntity
  8
CLASS1
390
0
  6
CONTINUOUS
 62
     3
100
AcDbCircle
 10
31.748434
 20
-81.161733
 30
0.0
 40
5.800846
100
AcDbArc
 50
281.070154
 51
282.209345
  0
ARC
  5
116
100
AcDbEntity
  8
CLASS1
390
0
  6
CONTINUOUS
 62
     3
100
AcDbCircle
 10
31.529691
 20
-80.152963
 30
0.0
 40
6.83306
100
AcDbArc
 50
282.213171
 51
283.323593
  0
ARC
  5
117
100
AcDbEntity
  8
CLASS1
390
0
  6
CONTINUOUS
 62
     3
100
AcDbCircle
 10
31.147978
 20
-78.543819
 30
0.0
 40
8.486858
100
AcDbArc
 50
283.327711
 51
284.33835
  0
ARC
  5
118
100
AcDbEntity
  8
CLASS1
390
0
  6
CONTINUOUS
 62
     3
100
AcDbCircle
 10
19.814551
 20
-36.745394
 30
0.0
 40
51.793787
100
AcDbArc
 50
285.034313
 51
286.036835
  0
ARC
  5
119
100
AcDbEntity
  8
CLASS1
390
0
  6
CONTINUOUS
 62
     3
100
AcDbCircle
 10
37.32514
 20
-98.17136
 30
0.0
 40
12.079949
100
AcDbArc
 50
104.34008
 51
105.372336
  0
ARC
  5
11A
100
AcDbEntity
  8
CLASS1
390
0
  6
CONTINUOUS
 62
     3
100
AcDbCircle
 10
36.429236
 20
-94.679821
 30
0.0
 40
8.475304
100
AcDbArc
 50
103.304387
 51
104.318336
  0
ARC
  5
11B
100
AcDbEntity
  8
CLASS1
390
0
  6
CONTINUOUS
 62
     3
100
AcDbCircle
 10
36.052203
 20
-93.087534
 30
0.0
 40
6.838987
100
AcDbArc
 50
102.188212
 51
103.300285
  0
ARC
  5
11C
100
AcDbEntity
  8
CLASS1
390
0
  6
CONTINUOUS
 62
     3
100
AcDbCircle
 10
35.83579
 20
-92.087414
 30
0.0
 40
5.815721
100
AcDbArc
 50
101.044996
 51
102.184407
  0
ARC
  5
11D
100
AcDbEntity
  8
CLASS1
390
0
  6
CONTINUOUS
 62
     3
100
AcDbCircle
 10
35.704465
 20
-91.416242
 30
0.0
 40
5.131821
100
AcDbArc
 50
99.939019
 51
101.041543
  0
ARC
  5
11E
100
AcDbEntity
  8
CLASS1
390
0
  6
CONTINUOUS
 62
     3
100
AcDbCircle
 10
35.622503
 20
-90.949927
 30
0.0
 40
4.658358
100
AcDbArc
 50
98.92716
 51
99.935989
  0
ARC
  5
11F
100
AcDbEntity
  8
CLASS1
390
0
  6
CONTINUOUS
 62
     3
100
AcDbCircle
 10
35.565772
 20
-90.588752
 30
0.0
 40
4.292755
100
AcDbArc
 50
97.835648
 51
98.927202
  0
ARC
  5
120
100
AcDbEntity
  8
CLASS1
390
0
  6
CONTINUOUS
 62
     3
100
AcDbCircle
 10
35.522754
 20
-90.276149
 30
0.0
 40
3.977206
100
AcDbArc
 50
96.660777
 51
97.835667
  0
ARC
  5
121
100
AcDbEntity
  8
CLASS1
390
0
  6
CONTINUOUS
 62
     3
100
AcDbCircle
 10
35.4938
 20
-90.029676
 30
0.0
 40
3.729038
100
AcDbArc
 50
95.65802
 51
96.65817
  0
ARC
  5
122
100
AcDbEntity
  8
CLASS1
390
0
  6
CONTINUOUS
 62
     3
100
AcDbCircle
 10
35.474472
 20
-89.834596
 30
0.0
 40
3.533003
100
AcDbArc
 50
94.6043
 51
95.658003
  0
ARC
  5
123
100
AcDbEntity
  8
CLASS1
390
0
  6
CONTINUOUS
 62
     3
100
AcDbCircle
 10
35.460362
 20
-89.659413
 30
0.0
 40
3.357253
100
AcDbArc
 50
93.497167
 51
94.604267
  0
ARC
  5
124
100
AcDbEntity
  8
CLASS1
390
0
  6
CONTINUOUS
 62
     3
100
AcDbCircle
 10
35.450747
 20
-89.502122
 30
0.0
 40
3.199668
100
AcDbArc
 50
92.336989
 51
93.497115
  0
ARC
  5
125
100
AcDbEntity
  8
CLASS1
390
0
  6
CONTINUOUS
 62
     3
100
AcDbCircle
 10
35.444983
 20
-89.360995
 30
0.0
 40
3.058424
100
AcDbArc
 50
91.124348
 51
92.336917
  0
ARC
  5
126
100
AcDbEntity
  8
CLASS1
390
0
  6
CONTINUOUS
 62
     3
100
AcDbCircle
 10
35.442499
 20
-89.234664
 30
0.0
 40
2.932068
100
AcDbArc
 50
89.860092
 51
91.124254
  0
ARC
  5
127
100
AcDbEntity
  8
CLASS1
390
0
  6
CONTINUOUS
 62
     3
100
AcDbCircle
 10
35.442616
 20
-89.140597
 30
0.0
 40
2.838001
100
AcDbArc
 50
88.550917
 51
89.857814
  0
ARC
  5
128
100
AcDbEntity
  8
CLASS1
390
0
  6
CONTINUOUS
 62
     3
100
AcDbCircle
 10
35.439862
 20
-89.244847
 30
0.0
 40
2.942287
100
AcDbArc
 50
87.286638
 51
88.548646
  0
ARC
  5
129
100
AcDbEntity
  8
CLASS1
390
0
  6
CONTINUOUS
 62
     3
100
AcDbCircle
 10
35.433329
 20
-89.382594
 30
0.0
 40
3.080189
100
AcDbArc
 50
86.079963
 51
87.286554
  0
ARC
  5
12A
100
AcDbEntity
  8
CLASS1
390
0
  6
CONTINUOUS
 62
     3
100
AcDbCircle
 10
35.422768
 20
-89.53667
 30
0.0
 40
3.234626
100
AcDbArc
 50
84.929437
 51
86.079902
  0
ARC
  5
12B
100
AcDbEntity
  8
CLASS1
390
0
  6
CONTINUOUS
 62
     3
100
AcDbCircle
 10
35.407497
 20
-89.708751
 30
0.0
 40
3.407384
100
AcDbArc
 50
83.83549
 51
84.929398
  0
ARC
  5
12C
100
AcDbEntity
  8
CLASS1
390
0
  6
CONTINUOUS
 62
     3
100
AcDbCircle
 10
35.386734
 20
-89.900974
 30
0.0
 40
3.600725
100
AcDbArc
 50
82.798337
 51
83.83547
  0
ARC
  5
12D
100
AcDbEntity
  8
CLASS1
390
0
  6
CONTINUOUS
 62
     3
100
AcDbCircle
 10
35.355773
 20
-90.144516
 30
0.0
 40
3.846227
100
AcDbArc
 50
81.578992
 51
82.795569
  0
ARC
  5
12E
100
AcDbEntity
  8
CLASS1
390
0
  6
CONTINUOUS
 62
     3
100
AcDbCircle
 10
35.309895
 20
-90.454426
 30
0.0
 40
4.159514
100
AcDbArc
 50
80.450814
 51
81.579016
  0
ARC
  5
12F
100
AcDbEntity
  8
CLASS1
390
0
  6
CONTINUOUS
 62
     3
100
AcDbCircle
 10
35.249436
 20
-90.813844
 30
0.0
 40
4.523982
100
AcDbArc
 50
79.410386
 51
80.450863
  0
ARC
  5
130
100
AcDbEntity
  8
CLASS1
390
0
  6
CONTINUOUS
 62
     3
100
AcDbCircle
 10
35.162031
 20
-91.279834
 30
0.0
 40
4.998098
100
AcDbArc
 50
78.273155
 51
79.407179
  0
ARC
  5
131
100
AcDbEntity
  8
CLASS1
390
0
  6
CONTINUOUS
 62
     3
100
AcDbCircle
 10
35.021619
 20
-91.954478
 30
0.0
 40
5.687199
100
AcDbArc
 50
77.10208
 51
78.269503
  0
ARC
  5
132
100
AcDbEntity
  8
CLASS1
390
0
  6
CONTINUOUS
 62
     3
100
AcDbCircle
 10
34.789002
 20
-92.968192
 30
0.0
 40
6.72726
100
AcDbArc
 50
75.965114
 51
77.098062
  0
ARC
  5
133
100
AcDbEntity
  8
CLASS1
390
0
  6
CONTINUOUS
 62
     3
100
AcDbCircle
 10
34.348701
 20
-94.723711
 30
0.0
 40
8.537152
100
AcDbArc
 50
74.834286
 51
75.955572
  0
ARC
  5
134
100
AcDbEntity
  8
CLASS1
390
0
  6
CONTINUOUS
 62
     3
100
AcDbCircle
 10
24.207002
 20
-130.40394
 30
0.0
 40
45.6302
100
AcDbArc
 50
73.24962
 51
74.264043
  0
ARC
  5
135
100
AcDbEntity
  8
CLASS1
390
0
  6
CONTINUOUS
 62
     3
100
AcDbCircle
 10
40.947755
 20
-74.362066
 30
0.0
 40
12.859085
100
AcDbArc
 50
253.788677
 51
254.835208
  0
ARC
  5
136
100
AcDbEntity
  8
CLASS1
390
0
  6
CONTINUOUS
 62
     3
100
AcDbCircle
 10
39.822907
 20
-78.495027
 30
0.0
 40
8.575788
100
AcDbArc
 50
254.865351
 51
255.868998
  0
ARC
  5
137
100
AcDbEntity
  8
CLASS1
390
0
  6
CONTINUOUS
 62
     3
100
AcDbCircle
 10
39.395328
 20
-80.191288
 30
0.0
 40
6.826468
100
AcDbArc
 50
255.873323
 51
256.988767
  0
ARC
  5
138
100
AcDbEntity
  8
CLASS1
390
0
  6
CONTINUOUS
 62
     3
100
AcDbCircle
 10
39.153536
 20
-81.235874
 30
0.0
 40
5.754262
100
AcDbArc
 50
256.992789
 51
258.145299
  0
ARC
  5
139
100
AcDbEntity
  8
CLASS1
390
0
  6
CONTINUOUS
 62
     3
100
AcDbCircle
 10
39.007844
 20
-81.928387
 30
0.0
 40
5.046591
100
AcDbArc
 50
258.148957
 51
259.270596
  0
ARC
  5
13A
100
AcDbEntity
  8
CLASS1
390
0
  6
CONTINUOUS
 62
     3
100
AcDbCircle
 10
38.917155
 20
-82.405622
 30
0.0
 40
4.560814
100
AcDbArc
 50
259.273814
 51
260.304338
  0
ARC
  5
13B
100
AcDbEntity
  8
CLASS1
390
0
  6
CONTINUOUS
 62
     3
100
AcDbCircle
 10
38.854372
 20
-82.773105
 30
0.0
 40
4.188008
100
AcDbArc
 50
260.304284
 51
261.422935
  0
ARC
  5
13C
100
AcDbEntity
  8
CLASS1
390
0
  6
CONTINUOUS
 62
     3
100
AcDbCircle
 10
38.806634
 20
-83.089631
 30
0.0
 40
3.867902
100
AcDbArc
 50
261.422908
 51
262.630419
  0
ARC
  5
13D
100
AcDbEntity
  8
CLASS1
390
0
  6
CONTINUOUS
 62
     3
100
AcDbCircle
 10
38.774308
 20
-83.338192
 30
0.0
 40
3.617247
100
AcDbArc
 50
262.633207
 51
263.663504
  0
ARC
  5
13E
100
AcDbEntity
  8
CLASS1
390
0
  6
CONTINUOUS
 62
     3
100
AcDbCircle
 10
38.752534
 20
-83.534266
 30
0.0
 40
3.419968
100
AcDbArc
 50
263.66352
 51
264.751007
  0
ARC
  5
13F
100
AcDbEntity
  8
CLASS1
390
0
  6
CONTINUOUS
 62
     3
100
AcDbCircle
 10
38.736408
 20
-83.709775
 30
0.0
 40
3.24372
100
AcDbArc
 50
264.751043
 51
265.895563
  0
ARC
  5
140
100
AcDbEntity
  8
CLASS1
390
0
  6
CONTINUOUS
 62
     3
100
AcDbCircle
 10
38.725129
 20
-83.866906
 30
0.0
 40
3.086185
100
AcDbArc
 50
265.895618
 51
267.096793
  0
ARC
  5
141
100
AcDbEntity
  8
CLASS1
390
0
  6
CONTINUOUS
 62
     3
100
AcDbCircle
 10
38.718
 20
-84.007409
 30
0.0
 40
2.945501
100
AcDbArc
 50
267.096872
 51
268.35405
  0
ARC
  5
142
100
AcDbEntity
  8
CLASS1
390
0
  6
CONTINUOUS
 62
     3
100
AcDbCircle
 10
38.714392
 20
-84.132785
 30
0.0
 40
2.820073
100
AcDbArc
 50
268.354156
 51
269.666408
  0
ARC
  5
143
100
AcDbEntity
  8
CLASS1
390
0
  6
CONTINUOUS
 62
     3
100
AcDbCircle
 10
38.713768
 20
-84.199981
 30
0.0
 40
2.752874
100
AcDbArc
 50
269.671255
 51
270.679056
  0
ARC
  5
144
100
AcDbEntity
  8
CLASS1
390
0
  6
CONTINUOUS
 62
     3
100
AcDbCircle
 10
38.712493
 20
-84.102709
 30
0.0
 40
2.850155
100
AcDbArc
 50
270.681505
 51
271.979567
  0
ARC
  5
145
100
AcDbEntity
  8
CLASS1
390
0
  6
CONTINUOUS
 62
     3
100
AcDbCircle
 10
38.708026
 20
-83.973608
 30
0.0
 40
2.979334
100
AcDbArc
 50
271.979667
 51
273.222395
  0
ARC
  5
146
100
AcDbEntity
  8
CLASS1
390
0
  6
CONTINUOUS
 62
     3
100
AcDbCircle
 10
38.69988
 20
-83.829
 30
0.0
 40
3.12417
100
AcDbArc
 50
273.222469
 51
274.408999
  0
ARC
  5
147
100
AcDbEntity
  8
CLASS1
390
0
  6
CONTINUOUS
 62
     3
100
AcDbCircle
 10
38.687416
 20
-83.667385
 30
0.0
 40
3.286266
100
AcDbArc
 50
274.409049
 51
275.538814
  0
ARC
  5
148
100
AcDbEntity
  8
CLASS1
390
0
  6
CONTINUOUS
 62
     3
100
AcDbCircle
 10
38.669907
 20
-83.486848
 30
0.0
 40
3.46765
100
AcDbArc
 50
275.538844
 51
276.611516
  0
ARC
  5
149
100
AcDbEntity
  8
CLASS1
390
0
  6
CONTINUOUS
 62
     3
100
AcDbCircle
 10
38.646527
 20
-83.285143
 30
0.0
 40
3.670705
100
AcDbArc
 50
276.611528
 51
277.627012
  0
ARC
  5
14A
100
AcDbEntity
  8
CLASS1
390
0
  6
CONTINUOUS
 62
     3
100
AcDbCircle
 10
38.612075
 20
-83.029295
 30
0.0
 40
3.928862
100
AcDbArc
 50
277.62979
 51
278.818851
  0
ARC
  5
14B
100
AcDbEntity
  8
CLASS1
390
0
  6
CONTINUOUS
 62
     3
100
AcDbCircle
 10
38.561478
 20
-82.703153
 30
0.0
 40
4.258905
100
AcDbArc
 50
278.818817
 51
279.919151
  0
ARC
  5
14C
100
AcDbEntity
  8
CLASS1
390
0
  6
CONTINUOUS
 62
     3
100
AcDbCircle
 10
38.49517
 20
-82.323946
 30
0.0
 40
4.643866
100
AcDbArc
 50
279.919097
 51
280.931493
  0
ARC
  5
14D
100
AcDbEntity
  8
CLASS1
390
0
  6
CONTINUOUS
 62
     3
100
AcDbCircle
 10
38.39957
 20
-81.830487
 30
0.0
 40
5.1465
100
AcDbArc
 50
280.9347
 51
282.034895
  0
ARC
  5
14E
100
AcDbEntity
  8
CLASS1
390
0
  6
CONTINUOUS
 62
     3
100
AcDbCircle
 10
38.246028
 20
-81.112076
 30
0.0
 40
5.881136
100
AcDbArc
 50
282.038534
 51
283.166497
  0
ARC
  5
14F
100
AcDbEntity
  8
CLASS1
390
0
  6
CONTINUOUS
 62
     3
100
AcDbCircle
 10
37.990665
 20
-80.022608
 30
0.0
 40
7.000131
100
AcDbArc
 50
283.170497
 51
284.25852
  0
ARC
  5
150
100
AcDbEntity
  8
CLASS1
390
0
  6
CONTINUOUS
 62
     3
100
AcDbCircle
 10
37.501997
 20
-78.105722
 30
0.0
 40
8.978323
100
AcDbArc
 50
284.268031
 51
285.333615
  0
ARC
  5
151
100
AcDbEntity
  8
CLASS1
390
0
  6
CONTINUOUS
 62
     3
100
AcDbCircle
 10
29.36247
 20
-49.522101
 30
0.0
 40
38.69794
100
AcDbArc
 50
285.764705
 51
286.810914
  0
ARC
  5
152
100
AcDbEntity
  8
CLASS1
390
0
  6
CONTINUOUS
 62
     3
100
AcDbCircle
 10
44.771712
 20
-100.871519
 30
0.0
 40
14.913938
100
AcDbArc
 50
105.393085
 51
106.425737
  0
ARC
  5
153
100
AcDbEntity
  8
CLASS1
390
0
  6
CONTINUOUS
 62
     3
100
AcDbCircle
 10
43.210907
 20
-95.226483
 30
0.0
 40
9.057106
100
AcDbArc
 50
104.295109
 51
105.352615
  0
ARC
  5
154
100
AcDbEntity
  8
CLASS1
390
0
  6
CONTINUOUS
 62
     3
100
AcDbCircle
 10
42.716206
 20
-93.289728
 30
0.0
 40
7.058171
100
AcDbArc
 50
103.205023
 51
104.285635
  0
ARC
  5
155
100
AcDbEntity
  8
CLASS1
390
0
  6
CONTINUOUS
 62
     3
100
AcDbCircle
 10
42.457967
 20
-92.190957
 30
0.0
 40
5.929461
100
AcDbArc
 50
102.080409
 51
103.201042
  0
ARC
  5
156
100
AcDbEntity
  8
CLASS1
390
0
  6
CONTINUOUS
 62
     3
100
AcDbCircle
 10
42.302714
 20
-91.467123
 30
0.0
 40
5.189164
100
AcDbArc
 50
100.983599
 51
102.076792
  0
ARC
  5
157
100
AcDbEntity
  8
CLASS1
390
0
  6
CONTINUOUS
 62
     3
100
AcDbCircle
 10
42.206009
 20
-90.970223
 30
0.0
 40
4.682941
100
AcDbArc
 50
99.974415
 51
100.980416
  0
ARC
  5
158
100
AcDbEntity
  8
CLASS1
390
0
  6
CONTINUOUS
 62
     3
100
AcDbCircle
 10
42.138881
 20
-90.588499
 30
0.0
 40
4.29536
100
AcDbArc
 50
98.881078
 51
99.97447
  0
ARC
  5
159
100
AcDbEntity
  8
CLASS1
390
0
  6
CONTINUOUS
 62
     3
100
AcDbCircle
 10
42.087593
 20
-90.260259
 30
0.0
 40
3.963137
100
AcDbArc
 50
97.699571
 51
98.881112
  0
ARC
  5
15A
100
AcDbEntity
  8
CLASS1
390
0
  6
CONTINUOUS
 62
     3
100
AcDbCircle
 10
42.052608
 20
-90.002816
 30
0.0
 40
3.703328
100
AcDbArc
 50
96.687788
 51
97.696815
  0
ARC
  5
15B
100
AcDbEntity
  8
CLASS1
390
0
  6
CONTINUOUS
 62
     3
100
AcDbCircle
 10
42.028803
 20
-89.799806
 30
0.0
 40
3.498927
100
AcDbArc
 50
95.621946
 51
96.687774
  0
ARC
  5
15C
100
AcDbEntity
  8
CLASS1
390
0
  6
CONTINUOUS
 62
     3
100
AcDbCircle
 10
42.010916
 20
-89.618123
 30
0.0
 40
3.316366
100
AcDbArc
 50
94.499399
 51
95.621917
  0
ARC
  5
15D
100
AcDbEntity
  8
CLASS1
390
0
  6
CONTINUOUS
 62
     3
100
AcDbCircle
 10
41.998112
 20
-89.45544
 30
0.0
 40
3.15318
100
AcDbArc
 50
93.320464
 51
94.49935
  0
ARC
  5
15E
100
AcDbEntity
  8
CLASS1
390
0
  6
CONTINUOUS
 62
     3
100
AcDbCircle
 10
41.989662
 20
-89.309866
 30
0.0
 40
3.00736
100
AcDbArc
 50
92.085706
 51
93.320392
  0
ARC
  5
15F
100
AcDbEntity
  8
CLASS1
390
0
  6
CONTINUOUS
 62
     3
100
AcDbCircle
 10
41.984922
 20
-89.179846
 30
0.0
 40
2.877254
100
AcDbArc
 50
90.795966
 51
92.085608
  0
ARC
  5
160
100
AcDbEntity
  8
CLASS1
390
0
  6
CONTINUOUS
 62
     3
100
AcDbCircle
 10
41.984414
 20
-89.174854
 30
0.0
 40
2.872256
100
AcDbArc
 50
89.497374
 51
90.787205
  0
ARC
  5
161
100
AcDbEntity
  8
CLASS1
390
0
  6
CONTINUOUS
 62
     3
100
AcDbCircle
 10
41.983361
 20
-89.294187
 30
0.0
 40
2.991594
100
AcDbArc
 50
88.258521
 51
89.497267
  0
ARC
  5
162
100
AcDbEntity
  8
CLASS1
390
0
  6
CONTINUOUS
 62
     3
100
AcDbCircle
 10
41.979297
 20
-89.427711
 30
0.0
 40
3.125179
100
AcDbArc
 50
87.071767
 51
88.258439
  0
ARC
  5
163
100
AcDbEntity
  8
CLASS1
390
0
  6
CONTINUOUS
 62
     3
100
AcDbCircle
 10
41.971674
 20
-89.576674
 30
0.0
 40
3.274337
100
AcDbArc
 50
85.937817
 51
87.071705
  0
ARC
  5
164
100
AcDbEntity
  8
CLASS1
390
0
  6
CONTINUOUS
 62
     3
100
AcDbCircle
 10
41.959886
 20
-89.742618
 30
0.0
 40
3.440699
100
AcDbArc
 50
84.857146
 51
85.937775
  0
ARC
  5
165
100
AcDbEntity
  8
CLASS1
390
0
  6
CONTINUOUS
 62
     3
100
AcDbCircle
 10
41.943254
 20
-89.927401
 30
0.0
 40
3.626229
100
AcDbArc
 50
83.83001
 51
84.857121
  0
ARC
  5
166
100
AcDbEntity
  8
CLASS1
390
0
  6
CONTINUOUS
 62
     3
100
AcDbCircle
 10
41.917859
 20
-90.160668
 30
0.0
 40
3.860874
100
AcDbArc
 50
82.618865
 51
83.827394
  0
ARC
  5
167
100
AcDbEntity
  8
CLASS1
390
0
  6
CONTINUOUS
 62
     3
100
AcDbCircle
 10
41.879591
 20
-90.456087
 30
0.0
 40
4.158762
100
AcDbArc
 50
81.493881
 51
82.618876
  0
ARC
  5
168
100
AcDbEntity
  8
CLASS1
390
0
  6
CONTINUOUS
 62
     3
100
AcDbCircle
 10
41.828663
 20
-90.796622
 30
0.0
 40
4.503084
100
AcDbArc
 50
80.451949
 51
81.493915
  0
ARC
  5
169
100
AcDbEntity
  8
CLASS1
390
0
  6
CONTINUOUS
 62
     3
100
AcDbCircle
 10
41.754703
 20
-91.234735
 30
0.0
 40
4.947395
100
AcDbArc
 50
79.307094
 51
80.448895
  0
ARC
  5
16A
100
AcDbEntity
  8
CLASS1
390
0
  6
CONTINUOUS
 62
     3
100
AcDbCircle
 10
41.646334
 20
-91.808712
 30
0.0
 40
5.531514
100
AcDbArc
 50
78.28231
 51
79.307211
  0
ARC
  5
16B
100
AcDbEntity
  8
CLASS1
390
0
  6
CONTINUOUS
 62
     3
100
AcDbCircle
 10
41.485618
 20
-92.581732
 30
0.0
 40
6.321064
100
AcDbArc
 50
77.228581
 51
78.278914
  0
ARC
  5
16C
100
AcDbEntity
  8
CLASS1
390
0
  6
CONTINUOUS
 62
     3
100
AcDbCircle
 10
41.218745
 20
-93.756869
 30
0.0
 40
7.526123
100
AcDbArc
 50
76.212533
 51
77.224835
  0
ARC
  5
16D
100
AcDbEntity
  8
CLASS1
390
0
  6
CONTINUOUS
 62
     3
100
AcDbCircle
 10
40.670108
 20
-95.982349
 30
0.0
 40
9.818231
100
AcDbArc
 50
75.126485
 51
76.198236
  0
ARC
  5
16E
100
AcDbEntity
  8
CLASS1
390
0
  6
CONTINUOUS
 62
     3
100
AcDbCircle
 10
34.632464
 20
-118.115661
 30
0.0
 40
32.760104
100
AcDbArc
 50
73.829113
 51
74.857076
  0
ARC
  5
16F
100
AcDbEntity
  8
CLASS1
390
0
  6
CONTINUOUS
 62
     3
100
AcDbCircle
 10
48.966686
 20
-68.447407
 30
0.0
 40
18.935282
100
AcDbArc
 50
254.027826
 51
255.042387
  0
ARC
  5
170
100
AcDbEntity
  8
CLASS1
390
0
  6
CONTINUOUS
 62
     3
100
AcDbCircle
 10
46.608166
 20
-77.230139
 30
0.0
 40
9.841397
100
AcDbArc
 50
255.110761
 51
256.178223
  0
ARC
  5
171
100
AcDbEntity
  8
CLASS1
390
0
  6
CONTINUOUS
 62
     3
100
AcDbCircle
 10
46.052638
 20
-79.480239
 30
0.0
 40
7.523735
100
AcDbArc
 50
256.192598
 51
257.203049
  0
ARC
  5
172
100
AcDbEntity
  8
CLASS1
390
0
  6
CONTINUOUS
 62
     3
100
AcDbCircle
 10
45.782956
 20
-80.665669
 30
0.0
 40
6.308016
100
AcDbArc
 50
257.206812
 51
258.256644
  0
ARC
  5
173
100
AcDbEntity
  8
CLASS1
390
0
  6
CONTINUOUS
 62
     3
100
AcDbCircle
 10
45.620743
 20
-81.444379
 30
0.0
 40
5.51259
100
AcDbArc
 50
258.260062
 51
259.285512
  0
ARC
  5
174
100
AcDbEntity
  8
CLASS1
390
0
  6
CONTINUOUS
 62
     3
100
AcDbCircle
 10
45.511444
 20
-82.022083
 30
0.0
 40
4.924637
100
AcDbArc
 50
259.285386
 51
260.428776
  0
ARC
  5
175
100
AcDbEntity
  8
CLASS1
390
0
  6
CONTINUOUS
 62
     3
100
AcDbCircle
 10
45.436896
 20
-82.462736
 30
0.0
 40
4.477723
100
AcDbArc
 50
260.431864
 51
261.476049
  0
ARC
  5
176
100
AcDbEntity
  8
CLASS1
390
0
  6
CONTINUOUS
 62
     3
100
AcDbCircle
 10
45.385591
 20
-82.805066
 30
0.0
 40
4.131571
100
AcDbArc
 50
261.47601
 51
262.604116
  0
ARC
  5
177
100
AcDbEntity
  8
CLASS1
390
0
  6
CONTINUOUS
 62
     3
100
AcDbCircle
 10
45.34706
 20
-83.101914
 30
0.0
 40
3.832232
100
AcDbArc
 50
262.604101
 51
263.816711
  0
ARC
  5
178
100
AcDbEntity
  8
CLASS1
390
0
  6
CONTINUOUS
 62
     3
100
AcDbCircle
 10
45.321506
 20
-83.336237
 30
0.0
 40
3.59652
100
AcDbArc
 50
263.819365
 51
264.850492
  0
ARC
  5
179
100
AcDbEntity
  8
CLASS1
390
0
  6
CONTINUOUS
 62
     3
100
AcDbCircle
 10
45.304784
 20
-83.521784
 30
0.0
 40
3.41022
100
AcDbArc
 50
264.850514
 51
265.935858
  0
ARC
  5
17A
100
AcDbEntity
  8
CLASS1
390
0
  6
CONTINUOUS
 62
     3
100
AcDbCircle
 10
45.292943
 20
-83.688398
 30
0.0
 40
3.243187
100
AcDbArc
 50
265.935898
 51
267.075237
  0
ARC
  5
17B
100
AcDbEntity
  8
CLASS1
390
0
  6
CONTINUOUS
 62
     3
100
AcDbCircle
 10
45.285415
 20
-83.835435
 30
0.0
 40
3.095957
100
AcDbArc
 50
267.075536
 51
268.267467
  0
ARC
  5
17C
100
AcDbEntity
  8
CLASS1
390
0
  6
CONTINUOUS
 62
     3
100
AcDbCircle
 10
45.2862
 20
-83.799407
 30
0.0
 40
3.131992
100
AcDbArc
 50
268.273037
 51
269.450173
  0
ARC
  5
17D
100
AcDbEntity
  8
CLASS1
390
0
  6
CONTINUOUS
 62
     3
100
AcDbCircle
 10
45.287229
 20
-83.691534
 30
0.0
 40
3.23987
100
AcDbArc
 50
269.450276
 51
270.587676
  0
ARC
  5
17E
100
AcDbEntity
  8
CLASS1
390
0
  6
CONTINUOUS
 62
     3
100
AcDbCircle
 10
45.285991
 20
-83.571293
 30
0.0
 40
3.360118
100
AcDbArc
 50
270.587763
 51
271.684401
  0
ARC
  5
17F
100
AcDbEntity
  8
CLASS1
390
0
  6
CONTINUOUS
 62
     3
100
AcDbCircle
 10
45.282059
 20
-83.437726
 30
0.0
 40
3.493742
100
AcDbArc
 50
271.684471
 51
272.739513
  0
ARC
  5
180
100
AcDbEntity
  8
CLASS1
390
0
  6
CONTINUOUS
 62
     3
100
AcDbCircle
 10
45.274972
 20
-83.289702
 30
0.0
 40
3.641936
100
AcDbArc
 50
272.739569
 51
273.752357
  0
ARC
  5
181
100
AcDbEntity
  8
CLASS1
390
0
  6
CONTINUOUS
 62
     3
100
AcDbCircle
 10
45.262663
 20
-83.104169
 30
0.0
 40
3.827877
100
AcDbArc
 50
273.754467
 51
274.9603
  0
ARC
  5
182
100
AcDbEntity
  8
CLASS1
390
0
  6
CONTINUOUS
 62
     3
100
AcDbCircle
 10
45.24249
 20
-82.871779
 30
0.0
 40
4.06114
100
AcDbArc
 50
274.960354
 51
276.098759
  0
ARC
  5
183
100
AcDbEntity
  8
CLASS1
390
0
  6
CONTINUOUS
 62
     3
100
AcDbCircle
 10
45.214291
 20
-82.607887
 30
0.0
 40
4.326535
100
AcDbArc
 50
276.098789
 51
277.169438
  0
ARC
  5
184
100
AcDbEntity
  8
CLASS1
390
0
  6
CONTINUOUS
 62
     3
100
AcDbCircle
 10
45.17223
 20
-82.275185
 30
0.0
 40
4.661885
100
AcDbArc
 50
277.172019
 51
278.367288
  0
ARC
  5
185
100
AcDbEntity
  8
CLASS1
390
0
  6
CONTINUOUS
 62
     3
100
AcDbCircle
 10
45.109933
 20
-81.851629
 30
0.0
 40
5.089998
100
AcDbArc
 50
278.367269
 51
279.465203
  0
ARC
  5
186
100
AcDbEntity
  8
CLASS1
390
0
  6
CONTINUOUS
 62
     3
100
AcDbCircle
 10
45.018321
 20
-81.30389
 30
0.0
 40
5.645346
100
AcDbArc
 50
279.468147
 51
280.626947
  0
ARC
  5
187
100
AcDbEntity
  8
CLASS1
390
0
  6
CONTINUOUS
 62
     3
100
AcDbCircle
 10
44.882329
 20
-80.579042
 30
0.0
 40
6.38284
100
AcDbArc
 50
280.626836
 51
281.655557
  0
ARC
  5
188
100
AcDbEntity
  8
CLASS1
390
0
  6
CONTINUOUS
 62
     3
100
AcDbCircle
 10
44.66104
 20
-79.510787
 30
0.0
 40
7.473775
100
AcDbArc
 50
281.662528
 51
282.796871
  0
ARC
  5
189
100
AcDbEntity
  8
CLASS1
390
0
  6
CONTINUOUS
 62
     3
100
AcDbCircle
 10
44.226419
 20
-77.6035
 30
0.0
 40
9.429953
100
AcDbArc
 50
282.805203
 51
283.909502
  0
ARC
  5
18A
100
AcDbEntity
  8
CLASS1
390
0
  6
CONTINUOUS
 62
     3
100
AcDbCircle
 10
33.178115
 20
-35.352539
 30
0.0
 40
53.100899
100
AcDbArc
 50
284.52202
 51
285.531022
  0
ARC
  5
18B
100
AcDbEntity
  8
CLASS1
390
0
  6
CONTINUOUS
 62
     3
100
AcDbCircle
 10
51.08696
 20
-100.334952
 30
0.0
 40
14.304728
100
AcDbArc
 50
103.945334
 51
104.951108
  0
ARC
  5
18C
100
AcDbEntity
  8
CLASS1
390
0
  6
CONTINUOUS
 62
     3
100
AcDbCircle
 10
49.97334
 20
-95.864785
 30
0.0
 40
9.697937
100
AcDbArc
 50
102.838971
 51
103.924625
  0
ARC
  5
18D
100
AcDbEntity
  8
CLASS1
390
0
  6
CONTINUOUS
 62
     3
100
AcDbCircle
 10
49.536767
 20
-93.954136
 30
0.0
 40
7.738045
100
AcDbArc
 50
101.720176
 51
102.830904
  0
ARC
  5
18E
100
AcDbEntity
  8
CLASS1
390
0
  6
CONTINUOUS
 62
     3
100
AcDbCircle
 10
49.313868
 20
-92.883497
 30
0.0
 40
6.644449
100
AcDbArc
 50
100.709484
 51
101.713531
  0
ARC
  5
18F
100
AcDbEntity
  8
CLASS1
390
0
  6
CONTINUOUS
 62
     3
100
AcDbCircle
 10
49.176411
 20
-92.156652
 30
0.0
 40
5.904722
100
AcDbArc
 50
99.581753
 51
100.709544
  0
ARC
  5
190
100
AcDbEntity
  8
CLASS1
390
0
  6
CONTINUOUS
 62
     3
100
AcDbCircle
 10
49.083361
 20
-91.606998
 30
0.0
 40
5.347247
100
AcDbArc
 50
98.513226
 51
99.578981
  0
ARC
  5
191
100
AcDbEntity
  8
CLASS1
390
0
  6
CONTINUOUS
 62
     3
100
AcDbCircle
 10
49.019698
 20
-91.181693
 30
0.0
 40
4.917204
100
AcDbArc
 50
97.355771
 51
98.51322
  0
ARC
  5
192
100
AcDbEntity
  8
CLASS1
390
0
  6
CONTINUOUS
 62
     3
100
AcDbCircle
 10
48.988207
 20
-90.942252
 30
0.0
 40
4.675701
100
AcDbArc
 50
96.340783
 51
97.34871
  0
ARC
  5
193
100
AcDbEntity
  8
CLASS1
390
0
  6
CONTINUOUS
 62
     3
100
AcDbCircle
 10
48.990934
 20
-90.967022
 30
0.0
 40
4.700622
100
AcDbArc
 50
95.13992
 51
96.340474
  0
ARC
  5
194
100
AcDbEntity
  8
CLASS1
390
0
  6
CONTINUOUS
 62
     3
100
AcDbCircle
 10
48.993748
 20
-90.998333
 30
0.0
 40
4.732059
100
AcDbArc
 50
93.948069
 51
95.139888
  0
ARC
  5
195
100
AcDbEntity
  8
CLASS1
390
0
  6
CONTINUOUS
 62
     3
100
AcDbCircle
 10
48.996075
 20
-91.03208
 30
0.0
 40
4.765885
100
AcDbArc
 50
92.765191
 51
93.948041
  0
ARC
  5
196
100
AcDbEntity
  8
CLASS1
390
0
  6
CONTINUOUS
 62
     3
100
AcDbCircle
 10
48.997814
 20
-91.068134
 30
0.0
 40
4.801981
100
AcDbArc
 50
91.591485
 51
92.765166
  0
ARC
  5
197
100
AcDbEntity
  8
CLASS1
390
0
  6
CONTINUOUS
 62
     3
100
AcDbCircle
 10
48.998874
 20
-91.106364
 30
0.0
 40
4.840226
100
AcDbArc
 50
90.427115
 51
91.591463
  0
ARC
  5
198
100
AcDbEntity
  8
CLASS1
390
0
  6
CONTINUOUS
 62
     3
100
AcDbCircle
 10
48.999173
 20
-91.146634
 30
0.0
 40
4.880497
100
AcDbArc
 50
89.272211
 51
90.427095
  0
ARC
  5
199
100
AcDbEntity
  8
CLASS1
390
0
  6
CONTINUOUS
 62
     3
100
AcDbCircle
 10
48.998636
 20
-91.188802
 30
0.0
 40
4.922669
100
AcDbArc
 50
88.126871
 51
89.272194
  0
ARC
  5
19A
100
AcDbEntity
  8
CLASS1
390
0
  6
CONTINUOUS
 62
     3
100
AcDbCircle
 10
48.997198
 20
-91.232728
 30
0.0
 40
4.966618
100
AcDbArc
 50
86.991163
 51
88.126858
  0
ARC
  5
19B
100
AcDbEntity
  8
CLASS1
390
0
  6
CONTINUOUS
 62
     3
100
AcDbCircle
 10
48.994804
 20
-91.278262
 30
0.0
 40
5.012215
100
AcDbArc
 50
85.865123
 51
86.991152
  0
ARC
  5
19C
100
AcDbEntity
  8
CLASS1
390
0
  6
CONTINUOUS
 62
     3
100
AcDbCircle
 10
48.991406
 20
-91.325254
 30
0.0
 40
5.059329
100
AcDbArc
 50
84.748759
 51
85.865114
  0
ARC
  5
19D
100
AcDbEntity
  8
CLASS1
390
0
  6
CONTINUOUS
 62
     3
100
AcDbCircle
 10
48.986966
 20
-91.373551
 30
0.0
 40
5.10783
100
AcDbArc
 50
83.642052
 51
84.748753
  0
ARC
  5
19E
100
AcDbEntity
  8
CLASS1
390
0
  6
CONTINUOUS
 62
     3
100
AcDbCircle
 10
48.981456
 20
-91.422995
 30
0.0
 40
5.157581
100
AcDbArc
 50
82.544955
 51
83.642048
  0
ARC
  5
19F
100
AcDbEntity
  8
CLASS1
390
0
  6
CONTINUOUS
 62
     3
100
AcDbCircle
 10
48.974856
 20
-91.473435
 30
0.0
 40
5.208451
100
AcDbArc
 50
81.457401
 51
82.544954
  0
ARC
  5
1A0
100
AcDbEntity
  8
CLASS1
390
0
  6
CONTINUOUS
 62
     3
100
AcDbCircle
 10
48.967154
 20
-91.524711
 30
0.0
 40
5.260302
100
AcDbArc
 50
80.379294
 51
81.457401
  0
ARC
  5
1A1
100
AcDbEntity
  8
CLASS1
390
0
  6
CONTINUOUS
 62
     3
100
AcDbCircle
 10
48.958348
 20
-91.576662
 30
0.0
 40
5.312993
100
AcDbArc
 50
79.310521
 51
80.379296
  0
ARC
  5
1A2
100
AcDbEntity
  8
CLASS1
390
0
  6
CONTINUOUS
 62
     3
100
AcDbCircle
 10
48.948443
 20
-91.629135
 30
0.0
 40
5.366394
100
AcDbArc
 50
78.250947
 51
79.310525
  0
ARC
  5
1A3
100
AcDbEntity
  8
CLASS1
390
0
  6
CONTINUOUS
 62
     3
100
AcDbCircle
 10
48.937456
 20
-91.681965
 30
0.0
 40
5.420353
100
AcDbArc
 50
77.200419
 51
78.250953
  0
ARC
  5
1A4
100
AcDbEntity
  8
CLASS1
390
0
  6
CONTINUOUS
 62
     3
100
AcDbCircle
 10
48.925408
 20
-91.735
 30
0.0
 40
5.47474
100
AcDbArc
 50
76.158765
 51
77.200426
  0
ARC
  5
1A5
100
AcDbEntity
  8
CLASS1
390
0
  6
CONTINUOUS
 62
     3
100
AcDbCircle
 10
48.91233
 20
-91.788083
 30
0.0
 40
5.52941
100
AcDbArc
 50
75.125799
 51
76.158773
  0
ARC
  5
1A6
100
AcDbEntity
  8
CLASS1
390
0
  6
CONTINUOUS
 62
     3
100
AcDbCircle
 10
48.898261
 20
-91.841058
 30
0.0
 40
5.584221
100
AcDbArc
 50
74.101318
 51
75.125808
  0
ARC
  5
1A7
100
AcDbEntity
  8
CLASS1
390
0
  6
CONTINUOUS
 62
     3
100
AcDbCircle
 10
48.883246
 20
-91.893778
 30
0.0
 40
5.639038
100
AcDbArc
 50
73.085108
 51
74.101329
  0
ARC
  5
1A8
100
AcDbEntity
  8
CLASS1
390
0
  6
CONTINUOUS
 62
     3
100
AcDbCircle
 10
48.867337
 20
-91.946094
 30
0.0
 40
5.69372
100
AcDbArc
 50
72.076942
 51
73.08512
  0
ARC
  5
1A9
100
AcDbEntity
  8
CLASS1
390
0
  6
CONTINUOUS
 62
     3
100
AcDbCircle
 10
48.849181
 20
-92.002141
 30
0.0
 40
5.752634
100
AcDbArc
 50
70.910311
 51
72.076672
  0
ARC
  5
1AA
100
AcDbEntity
  8
CLASS1
390
0
  6
CONTINUOUS
 62
     3
100
AcDbCircle
 10
48.828612
 20
-92.061583
 30
0.0
 40
5.815534
100
AcDbArc
 50
69.754199
 51
70.910334
  0
ARC
  5
1AB
100
AcDbEntity
  8
CLASS1
390
0
  6
CONTINUOUS
 62
     3
100
AcDbCircle
 10
48.807121
 20
-92.119857
 30
0.0
 40
5.877645
100
AcDbArc
 50
68.607901
 51
69.754223
  0
ARC
  5
1AC
100
AcDbEntity
  8
CLASS1
390
0
  6
CONTINUOUS
 62
     3
100
AcDbCircle
 10
48.784832
 20
-92.176763
 30
0.0
 40
5.93876
100
AcDbArc
 50
67.470992
 51
68.607927
  0
ARC
  5
1AD
100
AcDbEntity
  8
CLASS1
390
0
  6
CONTINUOUS
 62
     3
100
AcDbCircle
 10
48.761877
 20
-92.232108
 30
0.0
 40
5.998677
100
AcDbArc
 50
66.343032
 51
67.471019
  0
ARC
  5
1AE
100
AcDbEntity
  8
CLASS1
390
0
  6
CONTINUOUS
 62
     3
100
AcDbCircle
 10
48.738398
 20
-92.285713
 30
0.0
 40
6.057198
100
AcDbArc
 50
65.223571
 51
66.34306
  0
ARC
  5
1AF
100
AcDbEntity
  8
CLASS1
390
0
  6
CONTINUOUS
 62
     3
100
AcDbCircle
 10
48.714539
 20
-92.337412
 30
0.0
 40
6.114137
100
AcDbArc
 50
64.112152
 51
65.2236
  0
ARC
  5
1B0
100
AcDbEntity
  8
CLASS1
390
0
  6
CONTINUOUS
 62
     3
100
AcDbCircle
 10
48.690453
 20
-92.387048
 30
0.0
 40
6.169308
100
AcDbArc
 50
63.008309
 51
64.112182
  0
ARC
  5
1B1
100
AcDbEntity
  8
CLASS1
390
0
  6
CONTINUOUS
 62
     3
100
AcDbCircle
 10
48.666296
 20
-92.434483
 30
0.0
 40
6.22254
100
AcDbArc
 50
61.91157
 51
63.008339
  0
ARC
  5
1B2
100
AcDbEntity
  8
CLASS1
390
0
  6
CONTINUOUS
 62
     3
100
AcDbCircle
 10
48.652462
 20
-92.460577
 30
0.0
 40
6.252074
100
AcDbArc
 50
61.756185
 51
61.912316
  0
LINE
  5
1B3
100
AcDbEntity
  8
CLASS1
390
0
  6
CONTINUOUS
 62
     3
100
AcDbLine
 10
-26.145946
 20
39.456447
 30
0.0
 11
-26.145946
 21
42.456447
 31
0.0
  0
LINE
  5
1B4
100
AcDbEntity
  8
CLASS1
390
0
  6
CONTINUOUS
 62
     3
100
AcDbLine
 10
-30.145946
 20
39.456447
 30
0.0
 11
-30.145946
 21
37.956447
 31
0.0
  0
LINE
  5
1B5
100
AcDbEntity
  8
CLASS1
390
0
  6
CONTINUOUS
 62
     3
100
AcDbLine
 10
-64.145946
 20
37.956447
 30
0.0
 11
-64.145946
 21
39.456447
 31
0.0
  0
LINE
  5
1B6
100
AcDbEntity
  8
CLASS1
390
0
  6
CONTINUOUS
 62
     3
100
AcDbLine
 10
-71.145946
 20
47.456447
 30
0.0
 11
-23.145946
 21
47.456447
 31
0.0
  0
LINE
  5
1B7
100
AcDbEntity
  8
CLASS1
390
0
  6
CONTINUOUS
 62
     3
100
AcDbLine
 10
-71.145946
 20
47.456447
 30
0.0
 11
-71.145946
 21
42.456447
 31
0.0
  0
LINE
  5
1B8
100
AcDbEntity
  8
CLASS1
390
0
  6
CONTINUOUS
 62
     3
100
AcDbLine
 10
-23.145946
 20
47.456447
 30
0.0
 11
-23.145946
 21
42.456447
 31
0.0
  0
LINE
  5
1B9
100
AcDbEntity
  8
CLASS1
390
0
  6
CONTINUOUS
 62
     3
100
AcDbLine
 10
-71.145946
 20
42.456447
 30
0.0
 11
-23.145946
 21
42.456447
 31
0.0
  0
LINE
  5
1BA
100
AcDbEntity
  8
CLASS1
390
0
  6
CONTINUOUS
 62
     3
100
AcDbLine
 10
-64.145946
 20
37.956447
 30
0.0
 11
-63.645946
 21
37.456447
 31
0.0
  0
LINE
  5
1BB
100
AcDbEntity
  8
CLASS1
390
0
  6
CONTINUOUS
 62
     4
100
AcDbLine
 10
-30.145946
 20
37.956447
 30
0.0
 11
-30.645946
 21
37.456447
 31
0.0
  0
DIMENSION
  5
1C9
100
AcDbEntity
  8
CLASS1
390
0
  6
CONTINUOUS
 62
   143
100
AcDbDimension
  2
*D4
 10
-64.145946
 20
17.456447
 30
0.0
 11
-47.145946
 21
17.456447
 31
0.0
 70
   128
 71
     5
 72
     1
 41
0.96
 42
34.0
  1
\A1;\U+2205<>
  3
MXDIMSTYLE
100
AcDbAlignedDimension
 13
-30.145946
 23
37.956447
 33
0.0
 14
-64.145946
 24
37.956447
 34
0.0
100
AcDbRotatedDimension
1001
ACAD
1000
DSTYLE
1002
{
1070
    41
1040
2.77
1070
    78
1070
     0
1070
   271
1070
     1
1070
   340
1005
1C3
1002
}
  0
LINE
  5
1CA
100
AcDbEntity
  8
CLASS1
390
0
  6
CENTER
 62
   110
100
AcDbLine
 10
-47.145946
 20
52.456447
 30
0.0
 11
-47.145946
 21
30.906985
 31
0.0
  0
LINE
  5
1CB
100
AcDbEntity
  8
CLASS1
390
0
  6
CONTINUOUS
 62
     3
100
AcDbLine
 10
-68.145946
 20
39.456447
 30
0.0
 11
-68.145946
 21
42.456447
 31
0.0
  0
LINE
  5
1CC
100
AcDbEntity
  8
CLASS1
390
0
  6
CONTINUOUS
 62
     3
100
AcDbLine
 10
-68.145946
 20
39.456447
 30
0.0
 11
-26.145946
 21
39.456447
 31
0.0
  0
DIMENSION
  5
1D9
100
AcDbEntity
  8
CLASS1
390
0
  6
CONTINUOUS
 62
   143
100
AcDbDimension
  2
*D5
 10
-23.145946
 20
61.615488
 30
0.0
 11
-47.145946
 21
61.615488
 31
0.0
 70
   128
 71
     5
 72
     1
 41
0.96
 42
48.0
  1
\A1;\U+2205<>
  3
MXDIMSTYLE
100
AcDbAlignedDimension
 13
-71.145946
 23
47.456447
 33
0.0
 14
-23.145946
 24
47.456447
 34
0.0
100
AcDbRotatedDimension
1001
ACAD
1000
DSTYLE
1002
{
1070
    41
1040
2.77
1070
    78
1070
     0
1070
   271
1070
     1
1070
   340
1005
1C3
1002
}
  0
DIMENSION
  5
1E9
100
AcDbEntity
  8
CLASS1
390
0
  6
CONTINUOUS
 62
   143
100
AcDbDimension
  2
*D6
 10
-2.190336
 20
42.456447
 30
0.0
 11
-2.190336
 21
55.930704
 31
0.0
 70
   128
 71
     5
 72
     1
 41
0.96
 42
5.0
  1
\A1;<>
  3
MXDIMSTYLE
100
AcDbAlignedDimension
 13
-23.145947
 23
47.456447
 33
0.0
 14
-23.145947
 24
42.456447
 34
0.0
 50
90.0
100
AcDbRotatedDimension
1001
ACAD
1000
DSTYLE
1002
{
1070
    41
1040
2.77
1070
    78
1070
     0
1070
   271
1070
     1
1070
   340
1005
CE
1002
}
  0
DIMENSION
  5
1F7
100
AcDbEntity
  8
CLASS1
390
0
  6
CONTINUOUS
 62
   143
100
AcDbDimension
  2
*D7
 10
49.211462
 20
-15.664255
 30
0.0
 11
38.711462
 21
-15.664255
 31
0.0
 70
   128
 71
     5
 72
     1
 41
0.96
 42
21.0
  1
\A1;\U+2205<>
  3
MXDIMSTYLE
100
AcDbAlignedDimension
 13
28.211462
 23
-48.164255
 33
0.0
 14
49.211462
 24
-48.164255
 34
0.0
100
AcDbRotatedDimension
1001
ACAD
1000
DSTYLE
1002
{
1070
    41
1040
2.77
1070
    78
1070
     0
1070
   271
1070
     1
1070
   340
1005
1F1
1002
}
  0
DIMENSION
  5
204
100
AcDbEntity
  8
CLASS1
390
0
  6
CONTINUOUS
 62
   143
100
AcDbDimension
  2
*D8
 10
61.211462
 20
-5.664255
 30
0.0
 11
38.711462
 21
-5.664255
 31
0.0
 70
   128
 71
     5
 72
     1
 41
0.96
 42
45.0
  1
\A1;\U+2205<>
  3
MXDIMSTYLE
100
AcDbAlignedDimension
 13
16.211462
 23
-48.164255
 33
0.0
 14
61.211462
 24
-48.164255
 34
0.0
100
AcDbRotatedDimension
1001
ACAD
1000
DSTYLE
1002
{
1070
    41
1040
2.77
1070
    78
1070
     0
1070
   271
1070
     1
1070
   340
1005
1C3
1002
}
  0
DIMENSION
  5
211
100
AcDbEntity
  8
CLASS1
390
0
  6
CONTINUOUS
 62
   143
100
AcDbDimension
  2
*D9
 10
-34.645946
 20
-15.664255
 30
0.0
 11
-47.145946
 21
-15.664255
 31
0.0
 70
   128
 71
     5
 72
     1
 41
0.96
 42
25.0
  1
\A1;\U+2205<>
  3
MXDIMSTYLE
100
AcDbAlignedDimension
 13
-59.645946
 23
-48.164255
 33
0.0
 14
-34.645946
 24
-48.164255
 34
0.0
100
AcDbRotatedDimension
1001
ACAD
1000
DSTYLE
1002
{
1070
    41
1040
2.77
1070
    78
1070
     0
1070
   271
1070
     1
1070
   340
1005
1C3
1002
}
  0
DIMENSION
  5
21E
100
AcDbEntity
  8
CLASS1
390
0
  6
CONTINUOUS
 62
   143
100
AcDbDimension
  2
*D10
 10
-24.645946
 20
-5.664255
 30
0.0
 11
-47.145946
 21
-5.664255
 31
0.0
 70
   128
 71
     5
 72
     1
 41
0.96
 42
45.0
  1
\A1;\U+2205<>
  3
MXDIMSTYLE
100
AcDbAlignedDimension
 13
-69.645946
 23
-48.164255
 33
0.0
 14
-24.645946
 24
-48.164255
 34
0.0
100
AcDbRotatedDimension
1001
ACAD
1000
DSTYLE
1002
{
1070
    41
1040
2.77
1070
    78
1070
     0
1070
   271
1070
     1
1070
   340
1005
1C3
1002
}
  0
CIRCLE
  5
21F
100
AcDbEntity
  8
CLASS1
390
0
  6
CONTINUOUS
 62
     3
100
AcDbCircle
 10
-69.179122
 20
3.481263
 30
0.0
 40
3.0
  0
MTEXT
  5
220
100
AcDbEntity
  8
CLASS1
390
0
  6
CONTINUOUS
 62
   143
100
AcDbMText
 10
-75.034969
 20
131.909783
 30
0.0
 40
2.5
 41
0.0
 71
     1
 72
     1
  1
\W0.989011;\A1;1  アダプ\M+1835Eー（Ｘ1）
 73
     1
 44
0.96
  0
MTEXT
  5
221
100
AcDbEntity
  8
CLASS1
390
0
  6
CONTINUOUS
 62
   143
100
AcDbMText
 10
10.661121
 20
4.848625
 30
0.0
 40
2.5
 41
0.0
 71
     1
 72
     1
  1
\W0.943396;\A1;3  菊座　（×２）
 73
     1
 44
0.96
  0
CIRCLE
  5
222
100
AcDbEntity
  8
CLASS1
390
0
  6
CONTINUOUS
 62
     3
100
AcDbCircle
 10
-74.392096
 20
130.649554
 30
0.0
 40
3.0
  0
CIRCLE
  5
223
100
AcDbEntity
  8
CLASS1
390
0
  6
CONTINUOUS
 62
     3
100
AcDbCircle
 10
11.465313
 20
3.481263
 30
0.0
 40
3.0
  0
LINE
  5
224
100
AcDbEntity
  8
CLASS1
390
0
  6
CONTINUOUS
 62
     3
100
AcDbLine
 10
-69.645946
 20
-87.152859
 30
0.0
 11
-69.645946
 21
-88.152859
 31
0.0
  0
LINE
  5
225
100
AcDbEntity
  8
CLASS1
390
0
  6
CONTINUOUS
 62
     3
100
AcDbLine
 10
-69.645946
 20
-88.152859
 30
0.0
 11
-47.145946
 21
-88.152859
 31
0.0
  0
LINE
  5
226
100
AcDbEntity
  8
CLASS1
390
0
  6
CONTINUOUS
 62
     3
100
AcDbLine
 10
-69.645946
 20
-87.152859
 30
0.0
 11
-47.145946
 21
-87.152859
 31
0.0
  0
LINE
  5
227
100
AcDbEntity
  8
CLASS1
390
0
  6
CONTINUOUS
 62
     3
100
AcDbLine
 10
-24.645946
 20
-88.152859
 30
0.0
 11
-47.145946
 21
-88.152859
 31
0.0
  0
LINE
  5
228
100
AcDbEntity
  8
CLASS1
390
0
  6
CONTINUOUS
 62
     3
100
AcDbLine
 10
-24.645946
 20
-87.152859
 30
0.0
 11
-47.145946
 21
-87.152859
 31
0.0
  0
MTEXT
  5
229
100
AcDbEntity
  8
CLASS1
390
0
  6
CONTINUOUS
 62
   143
100
AcDbMText
 10
-69.916143
 20
4.956186
 30
0.0
 40
2.5
 41
0.0
 71
     1
 72
     1
  1
\W0.951219;\A1;2  ゴムパッキン（×1）
 73
     1
 44
0.96
  0
DIMENSION
  5
23A
100
AcDbEntity
  8
CLASS1
390
0
  6
CONTINUOUS
 62
   143
100
AcDbDimension
  2
*D11
 10
69.433444
 20
-88.15286
 30
0.0
 11
69.433444
 21
-79.813252
 31
0.0
 70
   128
 71
     5
 72
     1
 41
0.96
 42
0.0
  1
\A1;(1.0)
  3
MXDIMSTYLE
100
AcDbAlignedDimension
 13
61.211554
 23
-86.952863
 33
0.0
 14
61.211554
 24
-88.15286
 34
0.0
 50
90.0
100
AcDbRotatedDimension
1001
ACAD
1000
DSTYLE
1002
{
1070
    41
1040
2.77
1070
    78
1070
     0
1070
   271
1070
     1
1070
   340
1005
234
1002
}
  0
LINE
  5
23B
100
AcDbEntity
  8
CLASS1
390
0
  6
CENTER
 62
   110
100
AcDbLine
 10
38.711561
 20
-81.952863
 30
0.0
 11
38.711561
 21
-93.15286
 31
0.0
  0
LINE
  5
23C
100
AcDbEntity
  8
CLASS1
390
0
  6
CONTINUOUS
 62
     3
100
AcDbLine
 10
61.211554
 20
-86.952863
 30
0.0
 11
61.211554
 21
-88.15286
 31
0.0
  0
LINE
  5
23D
100
AcDbEntity
  8
CLASS1
390
0
  6
CONTINUOUS
 62
     3
100
AcDbLine
 10
16.211569
 20
-88.15286
 30
0.0
 11
61.211554
 21
-88.15286
 31
0.0
  0
LINE
  5
23E
100
AcDbEntity
  8
CLASS1
390
0
  6
CONTINUOUS
 62
     3
100
AcDbLine
 10
16.211569
 20
-86.952863
 30
0.0
 11
61.211554
 21
-86.952863
 31
0.0
  0
LINE
  5
23F
100
AcDbEntity
  8
CLASS1
390
0
  6
CONTINUOUS
 62
     3
100
AcDbLine
 10
16.211569
 20
-86.952863
 30
0.0
 11
16.211569
 21
-88.15286
 31
0.0
  0
LINE
  5
240
100
AcDbEntity
  8
CLASS1
390
0
  6
CENTER
 62
   110
100
AcDbLine
 10
-47.145946
 20
-20.664255
 30
0.0
 11
-47.145946
 21
-75.664255
 31
0.0
  0
LINE
  5
241
100
AcDbEntity
  8
CLASS1
390
0
  6
CENTER
 62
   110
100
AcDbLine
 10
-19.645946
 20
-48.164255
 30
0.0
 11
-74.645946
 21
-48.164255
 31
0.0
  0
LINE
  5
242
100
AcDbEntity
  8
CLASS1
390
0
  6
CENTER
 62
   110
100
AcDbLine
 10
38.711462
 20
-20.664255
 30
0.0
 11
38.711462
 21
-75.664255
 31
0.0
  0
LINE
  5
243
100
AcDbEntity
  8
CLASS1
390
0
  6
CENTER
 62
   110
100
AcDbLine
 10
66.211462
 20
-48.164255
 30
0.0
 11
11.211462
 21
-48.164255
 31
0.0
  0
LINE
  5
244
100
AcDbEntity
  8
CLASS1
390
0
  6
CONTINUOUS
 62
     3
100
AcDbLine
 10
-24.645946
 20
-87.152859
 30
0.0
 11
-24.645946
 21
-88.152859
 31
0.0
  0
CIRCLE
  5
245
100
AcDbEntity
  8
CLASS1
390
0
  6
CONTINUOUS
 62
     3
100
AcDbCircle
 10
-47.145946
 20
-48.164255
 30
0.0
 40
12.5
  0
CIRCLE
  5
246
100
AcDbEntity
  8
CLASS1
390
0
  6
CONTINUOUS
 62
     3
100
AcDbCircle
 10
-47.145946
 20
-48.164255
 30
0.0
 40
22.5
  0
DIMENSION
  5
257
100
AcDbEntity
  8
CLASS1
390
0
  6
CONTINUOUS
 62
   143
100
AcDbDimension
  2
*D12
 10
-13.051573
 20
-88.152859
 30
0.0
 11
-13.051573
 21
-80.034275
 31
0.0
 70
   128
 71
     5
 72
     1
 41
1.2
 42
1.0
  1
\A1;<>
  3
MXDIMSTYLE
100
AcDbAlignedDimension
 13
-24.645946
 23
-87.152859
 33
0.0
 14
-24.645946
 24
-88.152859
 34
0.0
 50
90.0
100
AcDbRotatedDimension
1001
ACAD
1000
DSTYLE
1002
{
1070
    41
1040
2.77
1070
    78
1070
     0
1070
   271
1070
     1
1070
   340
1005
251
1002
}
  0
LINE
  5
258
100
AcDbEntity
  8
CLASS1
390
0
  6
CENTER
 62
   110
100
AcDbLine
 10
-47.145946
 20
-81.047517
 30
0.0
 11
-47.145946
 21
-93.152859
 31
0.0
  0
LINE
  5
259
100
AcDbEntity
  8
CLASS1
390
0
  6
CONTINUOUS
 62
     3
100
AcDbLine
 10
60.398107
 20
-42.169328
 30
0.0
 11
56.615031
 21
-43.398523
 31
0.0
  0
LINE
  5
25A
100
AcDbEntity
  8
CLASS1
390
0
  6
CONTINUOUS
 62
     3
100
AcDbLine
 10
59.780073
 20
-40.267214
 30
0.0
 11
55.996998
 21
-41.496408
 31
0.0
  0
LINE
  5
25B
100
AcDbEntity
  8
CLASS1
390
0
  6
CONTINUOUS
 62
     3
100
AcDbLine
 10
55.996986
 20
-41.496392
 30
0.0
 11
56.61502
 21
-43.398505
 31
0.0
  0
LINE
  5
25C
100
AcDbEntity
  8
CLASS1
390
0
  6
CONTINUOUS
 62
     3
100
AcDbLine
 10
45.595465
 20
-34.240835
 30
0.0
 11
47.327516
 21
-35.240835
 31
0.0
  0
LINE
  5
25D
100
AcDbEntity
  8
CLASS1
390
0
  6
CONTINUOUS
 62
     3
100
AcDbLine
 10
47.327502
 20
-35.24086
 30
0.0
 11
44.803636
 21
-39.612322
 31
0.0
  0
LINE
  5
25E
100
AcDbEntity
  8
CLASS1
390
0
  6
CONTINUOUS
 62
     3
100
AcDbLine
 10
45.595447
 20
-34.240866
 30
0.0
 11
43.071585
 21
-38.612321
 31
0.0
  0
LINE
  5
25F
100
AcDbEntity
  8
CLASS1
390
0
  6
CONTINUOUS
 62
     3
100
AcDbLine
 10
37.711462
 20
-25.686495
 30
0.0
 11
37.711462
 21
-29.664255
 31
0.0
  0
LINE
  5
260
100
AcDbEntity
  8
CLASS1
390
0
  6
CONTINUOUS
 62
     3
100
AcDbLine
 10
37.711462
 20
-29.664255
 30
0.0
 11
39.711462
 21
-29.664255
 31
0.0
  0
LINE
  5
261
100
AcDbEntity
  8
CLASS1
390
0
  6
CONTINUOUS
 62
     3
100
AcDbLine
 10
39.711462
 20
-25.686495
 30
0.0
 11
39.711462
 21
-29.664255
 31
0.0
  0
LINE
  5
262
100
AcDbEntity
  8
CLASS1
390
0
  6
CONTINUOUS
 62
     3
100
AcDbLine
 10
17.02482
 20
-42.169303
 30
0.0
 11
20.807895
 21
-43.398498
 31
0.0
  0
LINE
  5
263
100
AcDbEntity
  8
CLASS1
390
0
  6
CONTINUOUS
 62
     3
100
AcDbLine
 10
20.807899
 20
-43.3985
 30
0.0
 11
21.425933
 21
-41.496387
 31
0.0
  0
LINE
  5
264
100
AcDbEntity
  8
CLASS1
390
0
  6
CONTINUOUS
 62
     3
100
AcDbLine
 10
17.642854
 20
-40.267205
 30
0.0
 11
21.425928
 21
-41.4964
 31
0.0
  0
LINE
  5
265
100
AcDbEntity
  8
CLASS1
390
0
  6
CONTINUOUS
 62
     3
100
AcDbLine
 10
26.308378
 20
-66.93694
 30
0.0
 11
28.646447
 21
-63.718865
 31
0.0
  0
LINE
  5
266
100
AcDbEntity
  8
CLASS1
390
0
  6
CONTINUOUS
 62
     3
100
AcDbLine
 10
28.646446
 20
-63.718845
 30
0.0
 11
27.028412
 21
-62.543275
 31
0.0
  0
LINE
  5
267
100
AcDbEntity
  8
CLASS1
390
0
  6
CONTINUOUS
 62
     3
100
AcDbLine
 10
24.690341
 20
-65.761372
 30
0.0
 11
27.02841
 21
-62.543296
 31
0.0
  0
LINE
  5
268
100
AcDbEntity
  8
CLASS1
390
0
  6
CONTINUOUS
 62
     3
100
AcDbLine
 10
52.73257
 20
-65.761374
 30
0.0
 11
50.394502
 21
-62.543297
 31
0.0
  0
LINE
  5
269
100
AcDbEntity
  8
CLASS1
390
0
  6
CONTINUOUS
 62
     3
100
AcDbLine
 10
50.394501
 20
-62.543302
 30
0.0
 11
48.776467
 21
-63.718872
 31
0.0
  0
LINE
  5
26A
100
AcDbEntity
  8
CLASS1
390
0
  6
CONTINUOUS
 62
     3
100
AcDbLine
 10
51.114536
 20
-66.936946
 30
0.0
 11
48.776468
 21
-63.718869
 31
0.0
  0
LINE
  5
26B
100
AcDbEntity
  8
CLASS1
390
0
  6
CONTINUOUS
 62
     3
100
AcDbLine
 10
37.711462
 20
-32.664255
 30
0.0
 11
37.711462
 21
-37.711985
 31
0.0
  0
LINE
  5
26C
100
AcDbEntity
  8
CLASS1
390
0
  6
CONTINUOUS
 62
     3
100
AcDbLine
 10
37.711462
 20
-32.664255
 30
0.0
 11
39.711462
 21
-32.664255
 31
0.0
  0
LINE
  5
26D
100
AcDbEntity
  8
CLASS1
390
0
  6
CONTINUOUS
 62
     3
100
AcDbLine
 10
39.711462
 20
-32.664255
 30
0.0
 11
39.711462
 21
-37.711985
 31
0.0
  0
LINE
  5
26E
100
AcDbEntity
  8
CLASS1
390
0
  6
CONTINUOUS
 62
     3
100
AcDbLine
 10
30.095445
 20
-35.240884
 30
0.0
 11
32.61931
 21
-39.612346
 31
0.0
  0
LINE
  5
26F
100
AcDbEntity
  8
CLASS1
390
0
  6
CONTINUOUS
 62
     3
100
AcDbLine
 10
30.095428
 20
-35.240846
 30
0.0
 11
31.827478
 21
-34.240846
 31
0.0
  0
LINE
  5
270
100
AcDbEntity
  8
CLASS1
390
0
  6
CONTINUOUS
 62
     3
100
AcDbLine
 10
31.827492
 20
-34.240877
 30
0.0
 11
34.351357
 21
-38.61234
 31
0.0
  0
LINE
  5
271
100
AcDbEntity
  8
CLASS1
390
0
  6
CONTINUOUS
 62
     3
100
AcDbLine
 10
24.78808
 20
-41.280283
 30
0.0
 11
29.15954
 21
-43.804148
 31
0.0
  0
LINE
  5
272
100
AcDbEntity
  8
CLASS1
390
0
  6
CONTINUOUS
 62
     3
100
AcDbLine
 10
24.788055
 20
-41.280254
 30
0.0
 11
25.788054
 21
-39.548207
 31
0.0
  0
LINE
  5
273
100
AcDbEntity
  8
CLASS1
390
0
  6
CONTINUOUS
 62
     3
100
AcDbLine
 10
25.788079
 20
-39.548225
 30
0.0
 11
30.159542
 21
-42.072091
 31
0.0
  0
LINE
  5
274
100
AcDbEntity
  8
CLASS1
390
0
  6
CONTINUOUS
 62
     3
100
AcDbLine
 10
23.211462
 20
-49.164255
 30
0.0
 11
28.259192
 21
-49.164255
 31
0.0
  0
LINE
  5
275
100
AcDbEntity
  8
CLASS1
390
0
  6
CONTINUOUS
 62
     3
100
AcDbLine
 10
23.211447
 20
-49.164255
 30
0.0
 11
23.211447
 21
-47.164255
 31
0.0
  0
LINE
  5
276
100
AcDbEntity
  8
CLASS1
390
0
  6
CONTINUOUS
 62
     3
100
AcDbLine
 10
23.211462
 20
-47.164255
 30
0.0
 11
28.259192
 21
-47.164255
 31
0.0
  0
LINE
  5
277
100
AcDbEntity
  8
CLASS1
390
0
  6
CONTINUOUS
 62
     3
100
AcDbLine
 10
25.788062
 20
-56.780279
 30
0.0
 11
30.159524
 21
-54.256415
 31
0.0
  0
LINE
  5
278
100
AcDbEntity
  8
CLASS1
390
0
  6
CONTINUOUS
 62
     3
100
AcDbLine
 10
25.78805
 20
-56.780303
 30
0.0
 11
24.788051
 21
-55.048253
 31
0.0
  0
LINE
  5
279
100
AcDbEntity
  8
CLASS1
390
0
  6
CONTINUOUS
 62
     3
100
AcDbLine
 10
24.788065
 20
-55.04822
 30
0.0
 11
29.159527
 21
-52.524355
 31
0.0
  0
LINE
  5
27A
100
AcDbEntity
  8
CLASS1
390
0
  6
CONTINUOUS
 62
     3
100
AcDbLine
 10
31.827482
 20
-62.08764
 30
0.0
 11
34.351347
 21
-57.716179
 31
0.0
  0
LINE
  5
27B
100
AcDbEntity
  8
CLASS1
390
0
  6
CONTINUOUS
 62
     3
100
AcDbLine
 10
31.827479
 20
-62.087677
 30
0.0
 11
30.095428
 21
-61.087677
 31
0.0
  0
LINE
  5
27C
100
AcDbEntity
  8
CLASS1
390
0
  6
CONTINUOUS
 62
     3
100
AcDbLine
 10
30.095428
 20
-61.087645
 30
0.0
 11
32.619293
 21
-56.716184
 31
0.0
  0
LINE
  5
27D
100
AcDbEntity
  8
CLASS1
390
0
  6
CONTINUOUS
 62
     3
100
AcDbLine
 10
39.711449
 20
-63.664259
 30
0.0
 11
39.711449
 21
-58.616529
 31
0.0
  0
LINE
  5
27E
100
AcDbEntity
  8
CLASS1
390
0
  6
CONTINUOUS
 62
     3
100
AcDbLine
 10
39.71146
 20
-63.664278
 30
0.0
 11
37.71146
 21
-63.664278
 31
0.0
  0
LINE
  5
27F
100
AcDbEntity
  8
CLASS1
390
0
  6
CONTINUOUS
 62
     3
100
AcDbLine
 10
37.711449
 20
-63.664259
 30
0.0
 11
37.711449
 21
-58.616529
 31
0.0
  0
LINE
  5
280
100
AcDbEntity
  8
CLASS1
390
0
  6
CONTINUOUS
 62
     3
100
AcDbLine
 10
47.327485
 20
-61.087659
 30
0.0
 11
44.803621
 21
-56.716197
 31
0.0
  0
LINE
  5
281
100
AcDbEntity
  8
CLASS1
390
0
  6
CONTINUOUS
 62
     3
100
AcDbLine
 10
47.327495
 20
-61.087668
 30
0.0
 11
45.595444
 21
-62.087668
 31
0.0
  0
LINE
  5
282
100
AcDbEntity
  8
CLASS1
390
0
  6
CONTINUOUS
 62
     3
100
AcDbLine
 10
45.595431
 20
-62.087659
 30
0.0
 11
43.071566
 21
-57.716197
 31
0.0
  0
LINE
  5
283
100
AcDbEntity
  8
CLASS1
390
0
  6
CONTINUOUS
 62
     3
100
AcDbLine
 10
52.634867
 20
-55.04825
 30
0.0
 11
48.263405
 21
-52.524385
 31
0.0
  0
LINE
  5
284
100
AcDbEntity
  8
CLASS1
390
0
  6
CONTINUOUS
 62
     3
100
AcDbLine
 10
52.634886
 20
-55.048251
 30
0.0
 11
51.634884
 21
-56.780305
 31
0.0
  0
LINE
  5
285
100
AcDbEntity
  8
CLASS1
390
0
  6
CONTINUOUS
 62
     3
100
AcDbLine
 10
51.634857
 20
-56.780303
 30
0.0
 11
47.263395
 21
-54.256438
 31
0.0
  0
LINE
  5
286
100
AcDbEntity
  8
CLASS1
390
0
  6
CONTINUOUS
 62
     3
100
AcDbLine
 10
54.21147
 20
-47.16427
 30
0.0
 11
49.16374
 21
-47.16427
 31
0.0
  0
LINE
  5
287
100
AcDbEntity
  8
CLASS1
390
0
  6
CONTINUOUS
 62
     3
100
AcDbLine
 10
54.211475
 20
-47.164263
 30
0.0
 11
54.211475
 21
-49.164263
 31
0.0
  0
LINE
  5
288
100
AcDbEntity
  8
CLASS1
390
0
  6
CONTINUOUS
 62
     3
100
AcDbLine
 10
54.211464
 20
-49.16427
 30
0.0
 11
49.163734
 21
-49.16427
 31
0.0
  0
LINE
  5
289
100
AcDbEntity
  8
CLASS1
390
0
  6
CONTINUOUS
 62
     3
100
AcDbLine
 10
51.634864
 20
-39.548235
 30
0.0
 11
47.263401
 21
-42.0721
 31
0.0
  0
LINE
  5
28A
100
AcDbEntity
  8
CLASS1
390
0
  6
CONTINUOUS
 62
     3
100
AcDbLine
 10
51.634884
 20
-39.548224
 30
0.0
 11
52.634884
 21
-41.280275
 31
0.0
  0
LINE
  5
28B
100
AcDbEntity
  8
CLASS1
390
0
  6
CONTINUOUS
 62
     3
100
AcDbLine
 10
52.63486
 20
-41.280295
 30
0.0
 11
48.263401
 21
-43.804158
 31
0.0
  0
CIRCLE
  5
28C
100
AcDbEntity
  8
CLASS1
390
0
  6
CONTINUOUS
 62
     3
100
AcDbCircle
 10
38.711462
 20
-48.164255
 30
0.0
 40
22.5
  0
CIRCLE
  5
28D
100
AcDbEntity
  8
CLASS1
390
0
  6
CONTINUOUS
 62
     3
100
AcDbCircle
 10
38.711462
 20
-48.164255
 30
0.0
 40
10.5
  0
LINE
  5
28E
100
AcDbEntity
  8
CLASS1
390
0
  6
CENTER
 62
   110
100
AcDbLine
 10
-47.145946
 20
127.015857
 30
0.0
 11
-47.145946
 21
69.015857
 31
0.0
  0
LINE
  5
28F
100
AcDbEntity
  8
CLASS1
390
0
  6
CENTER
 62
   110
100
AcDbLine
 10
-18.145946
 20
98.015857
 30
0.0
 11
-76.145946
 21
98.015857
 31
0.0
  0
CIRCLE
  5
290
100
AcDbEntity
  8
CLASS1
390
0
  6
CONTINUOUS
 62
     3
100
AcDbCircle
 10
-46.972578
 20
98.015857
 30
0.0
 40
11.5
  0
CIRCLE
  5
291
100
AcDbEntity
  8
CLASS1
390
0
  6
CONTINUOUS
 62
   110
100
AcDbCircle
 10
-46.972578
 20
98.015857
 30
0.0
 40
10.45
  0
CIRCLE
  5
292
100
AcDbEntity
  8
CLASS1
390
0
  6
CONTINUOUS
 62
     3
100
AcDbCircle
 10
-46.972578
 20
98.015857
 30
0.0
 40
9.25
  0
CIRCLE
  5
293
100
AcDbEntity
  8
CLASS1
390
0
  6
CONTINUOUS
 62
     3
100
AcDbCircle
 10
-47.145946
 20
98.015857
 30
0.0
 40
24.0
  0
ARC
  5
294
100
AcDbEntity
  8
1_2
390
0
  6
CONTINUOUS
 62
     3
100
AcDbCircle
 10
58.727638
 20
67.956259
 30
0.0
 40
3.128108
100
AcDbArc
 50
61.644558
 51
61.801244
  0
ARC
  5
295
100
AcDbEntity
  8
1_2
390
0
  6
CONTINUOUS
 62
     3
100
AcDbCircle
 10
58.734547
 20
67.96923
 30
0.0
 40
3.113411
100
AcDbArc
 50
61.800499
 51
62.901132
  0
ARC
  5
296
100
AcDbEntity
  8
1_2
390
0
  6
CONTINUOUS
 62
     3
100
AcDbCircle
 10
58.746616
 20
67.992819
 30
0.0
 40
3.086914
100
AcDbArc
 50
62.901101
 51
64.008804
  0
ARC
  5
297
100
AcDbEntity
  8
1_2
390
0
  6
CONTINUOUS
 62
     3
100
AcDbCircle
 10
58.758657
 20
68.01752
 30
0.0
 40
3.059434
100
AcDbArc
 50
64.008774
 51
65.124023
  0
ARC
  5
298
100
AcDbEntity
  8
1_2
390
0
  6
CONTINUOUS
 62
     3
100
AcDbCircle
 10
58.77059
 20
68.043261
 30
0.0
 40
3.031062
100
AcDbArc
 50
65.123994
 51
66.247258
  0
ARC
  5
299
100
AcDbEntity
  8
1_2
390
0
  6
CONTINUOUS
 62
     3
100
AcDbCircle
 10
58.782341
 20
68.069967
 30
0.0
 40
3.001885
100
AcDbArc
 50
66.24723
 51
67.378972
  0
ARC
  5
29A
100
AcDbEntity
  8
1_2
390
0
  6
CONTINUOUS
 62
     3
100
AcDbCircle
 10
58.793835
 20
68.097555
 30
0.0
 40
2.971998
100
AcDbArc
 50
67.378944
 51
68.519618
  0
ARC
  5
29B
100
AcDbEntity
  8
1_2
390
0
  6
CONTINUOUS
 62
     3
100
AcDbCircle
 10
58.805001
 20
68.125934
 30
0.0
 40
2.941501
100
AcDbArc
 50
68.519591
 51
69.669638
  0
ARC
  5
29C
100
AcDbEntity
  8
1_2
390
0
  6
CONTINUOUS
 62
     3
100
AcDbCircle
 10
58.815773
 20
68.155011
 30
0.0
 40
2.910494
100
AcDbArc
 50
69.669613
 51
70.829466
  0
ARC
  5
29D
100
AcDbEntity
  8
1_2
390
0
  6
CONTINUOUS
 62
     3
100
AcDbCircle
 10
58.825359
 20
68.182541
 30
0.0
 40
2.881342
100
AcDbArc
 50
70.829726
 51
71.832007
  0
ARC
  5
29E
100
AcDbEntity
  8
1_2
390
0
  6
CONTINUOUS
 62
     3
100
AcDbCircle
 10
58.833823
 20
68.208338
 30
0.0
 40
2.854192
100
AcDbArc
 50
71.831994
 51
72.842037
  0
ARC
  5
29F
100
AcDbEntity
  8
1_2
390
0
  6
CONTINUOUS
 62
     3
100
AcDbCircle
 10
58.841878
 20
68.234428
 30
0.0
 40
2.826887
100
AcDbArc
 50
72.842025
 51
73.860074
  0
ARC
  5
2A0
100
AcDbEntity
  8
1_2
390
0
  6
CONTINUOUS
 62
     3
100
AcDbCircle
 10
58.849492
 20
68.26074
 30
0.0
 40
2.799495
100
AcDbArc
 50
73.860062
 51
74.886349
  0
ARC
  5
2A1
100
AcDbEntity
  8
1_2
390
0
  6
CONTINUOUS
 62
     3
100
AcDbCircle
 10
58.856638
 20
68.287201
 30
0.0
 40
2.772086
100
AcDbArc
 50
74.886339
 51
75.921083
  0
ARC
  5
2A2
100
AcDbEntity
  8
1_2
390
0
  6
CONTINUOUS
 62
     3
100
AcDbCircle
 10
58.863292
 20
68.313735
 30
0.0
 40
2.744731
100
AcDbArc
 50
75.921074
 51
76.964482
  0
ARC
  5
2A3
100
AcDbEntity
  8
1_2
390
0
  6
CONTINUOUS
 62
     3
100
AcDbCircle
 10
58.869434
 20
68.340264
 30
0.0
 40
2.7175
100
AcDbArc
 50
76.964474
 51
78.016738
  0
ARC
  5
2A4
100
AcDbEntity
  8
1_2
390
0
  6
CONTINUOUS
 62
     3
100
AcDbCircle
 10
58.875047
 20
68.366711
 30
0.0
 40
2.690464
100
AcDbArc
 50
78.016732
 51
79.078028
  0
ARC
  5
2A5
100
AcDbEntity
  8
1_2
390
0
  6
CONTINUOUS
 62
     3
100
AcDbCircle
 10
58.880119
 20
68.392997
 30
0.0
 40
2.663693
100
AcDbArc
 50
79.078024
 51
80.148511
  0
ARC
  5
2A6
100
AcDbEntity
  8
1_2
390
0
  6
CONTINUOUS
 62
     3
100
AcDbCircle
 10
58.884642
 20
68.419042
 30
0.0
 40
2.637258
100
AcDbArc
 50
80.148508
 51
81.228326
  0
ARC
  5
2A7
100
AcDbEntity
  8
1_2
390
0
  6
CONTINUOUS
 62
     3
100
AcDbCircle
 10
58.888611
 20
68.444767
 30
0.0
 40
2.611229
100
AcDbArc
 50
81.228325
 51
82.317594
  0
ARC
  5
2A8
100
AcDbEntity
  8
1_2
390
0
  6
CONTINUOUS
 62
     3
100
AcDbCircle
 10
58.892027
 20
68.470091
 30
0.0
 40
2.585676
100
AcDbArc
 50
82.317595
 51
83.416414
  0
ARC
  5
2A9
100
AcDbEntity
  8
1_2
390
0
  6
CONTINUOUS
 62
     3
100
AcDbCircle
 10
58.894894
 20
68.494934
 30
0.0
 40
2.560667
100
AcDbArc
 50
83.416417
 51
84.524861
  0
ARC
  5
2AA
100
AcDbEntity
  8
1_2
390
0
  6
CONTINUOUS
 62
     3
100
AcDbCircle
 10
58.897222
 20
68.519219
 30
0.0
 40
2.536271
100
AcDbArc
 50
84.524867
 51
85.642987
  0
ARC
  5
2AB
100
AcDbEntity
  8
1_2
390
0
  6
CONTINUOUS
 62
     3
100
AcDbCircle
 10
58.899024
 20
68.542866
 30
0.0
 40
2.512556
100
AcDbArc
 50
85.642996
 51
86.770818
  0
ARC
  5
2AC
100
AcDbEntity
  8
1_2
390
0
  6
CONTINUOUS
 62
     3
100
AcDbCircle
 10
58.900319
 20
68.565799
 30
0.0
 40
2.489587
100
AcDbArc
 50
86.770829
 51
87.908351
  0
ARC
  5
2AD
100
AcDbEntity
  8
1_2
390
0
  6
CONTINUOUS
 62
     3
100
AcDbCircle
 10
58.901128
 20
68.587941
 30
0.0
 40
2.46743
100
AcDbArc
 50
87.908365
 51
89.055557
  0
ARC
  5
2AE
100
AcDbEntity
  8
1_2
390
0
  6
CONTINUOUS
 62
     3
100
AcDbCircle
 10
58.901479
 20
68.609216
 30
0.0
 40
2.446152
100
AcDbArc
 50
89.055573
 51
90.212372
  0
ARC
  5
2AF
100
AcDbEntity
  8
1_2
390
0
  6
CONTINUOUS
 62
     3
100
AcDbCircle
 10
58.901405
 20
68.629553
 30
0.0
 40
2.425814
100
AcDbArc
 50
90.212391
 51
91.378708
  0
ARC
  5
2B0
100
AcDbEntity
  8
1_2
390
0
  6
CONTINUOUS
 62
     3
100
AcDbCircle
 10
58.900941
 20
68.64888
 30
0.0
 40
2.406482
100
AcDbArc
 50
91.37873
 51
92.554436
  0
ARC
  5
2B1
100
AcDbEntity
  8
1_2
390
0
  6
CONTINUOUS
 62
     3
100
AcDbCircle
 10
58.900127
 20
68.667129
 30
0.0
 40
2.388215
100
AcDbArc
 50
92.554461
 51
93.739401
  0
ARC
  5
2B2
100
AcDbEntity
  8
1_2
390
0
  6
CONTINUOUS
 62
     3
100
AcDbCircle
 10
58.899011
 20
68.684232
 30
0.0
 40
2.371076
100
AcDbArc
 50
93.739429
 51
94.933408
  0
ARC
  5
2B3
100
AcDbEntity
  8
1_2
390
0
  6
CONTINUOUS
 62
     3
100
AcDbCircle
 10
58.897758
 20
68.698854
 30
0.0
 40
2.3564
100
AcDbArc
 50
94.933638
 51
95.935359
  0
ARC
  5
2B4
100
AcDbEntity
  8
1_2
390
0
  6
CONTINUOUS
 62
     3
100
AcDbCircle
 10
58.896474
 20
68.711219
 30
0.0
 40
2.343969
100
AcDbArc
 50
95.935379
 51
96.943067
  0
ARC
  5
2B5
100
AcDbEntity
  8
1_2
390
0
  6
CONTINUOUS
 62
     3
100
AcDbCircle
 10
58.903208
 20
68.65834
 30
0.0
 40
2.397273
100
AcDbArc
 50
96.950069
 51
98.136521
  0
ARC
  5
2B6
100
AcDbEntity
  8
1_2
390
0
  6
CONTINUOUS
 62
     3
100
AcDbCircle
 10
58.931945
 20
68.457375
 30
0.0
 40
2.600283
100
AcDbArc
 50
98.136621
 51
99.232352
  0
ARC
  5
2B7
100
AcDbEntity
  8
1_2
390
0
  6
CONTINUOUS
 62
     3
100
AcDbCircle
 10
58.974297
 20
68.197684
 30
0.0
 40
2.863405
100
AcDbArc
 50
99.235138
 51
100.397819
  0
ARC
  5
2B8
100
AcDbEntity
  8
1_2
390
0
  6
CONTINUOUS
 62
     3
100
AcDbCircle
 10
59.036987
 20
67.856025
 30
0.0
 40
3.210768
100
AcDbArc
 50
100.397767
 51
101.436518
  0
ARC
  5
2B9
100
AcDbEntity
  8
1_2
390
0
  6
CONTINUOUS
 62
     3
100
AcDbCircle
 10
59.131036
 20
67.392124
 30
0.0
 40
3.684106
100
AcDbArc
 50
101.439606
 51
102.476218
  0
ARC
  5
2BA
100
AcDbEntity
  8
1_2
390
0
  6
CONTINUOUS
 62
     3
100
AcDbCircle
 10
59.299364
 20
66.633999
 30
0.0
 40
4.460693
100
AcDbArc
 50
102.483562
 51
103.556028
  0
ARC
  5
2BB
100
AcDbEntity
  8
1_2
390
0
  6
CONTINUOUS
 62
     3
100
AcDbCircle
 10
65.942468
 20
41.037347
 30
0.0
 40
30.904768
100
AcDbArc
 50
104.405685
 51
105.429167
  0
ARC
  5
2BC
100
AcDbEntity
  8
1_2
390
0
  6
CONTINUOUS
 62
     3
100
AcDbCircle
 10
56.22876
 20
76.558254
 30
0.0
 40
5.920904
100
AcDbArc
 50
283.547753
 51
284.591133
  0
ARC
  5
2BD
100
AcDbEntity
  8
1_2
390
0
  6
CONTINUOUS
 62
     3
100
AcDbCircle
 10
56.603524
 20
75.007525
 30
0.0
 40
4.325533
100
AcDbArc
 50
282.440757
 51
283.533589
  0
ARC
  5
2BE
100
AcDbEntity
  8
1_2
390
0
  6
CONTINUOUS
 62
     3
100
AcDbCircle
 10
56.770831
 20
74.251336
 30
0.0
 40
3.551057
100
AcDbArc
 50
281.373059
 51
282.433126
  0
ARC
  5
2BF
100
AcDbEntity
  8
1_2
390
0
  6
CONTINUOUS
 62
     3
100
AcDbCircle
 10
56.864045
 20
73.788799
 30
0.0
 40
3.079221
100
AcDbArc
 50
280.304384
 51
281.369837
  0
ARC
  5
2C0
100
AcDbEntity
  8
1_2
390
0
  6
CONTINUOUS
 62
     3
100
AcDbCircle
 10
56.922098
 20
73.47027
 30
0.0
 40
2.755445
100
AcDbArc
 50
279.284435
 51
280.301491
  0
ARC
  5
2C1
100
AcDbEntity
  8
1_2
390
0
  6
CONTINUOUS
 62
     3
100
AcDbCircle
 10
56.961959
 20
73.226431
 30
0.0
 40
2.50837
100
AcDbArc
 50
278.170667
 51
279.284481
  0
ARC
  5
2C2
100
AcDbEntity
  8
1_2
390
0
  6
CONTINUOUS
 62
     3
100
AcDbCircle
 10
56.989378
 20
73.036184
 30
0.0
 40
2.316157
100
AcDbArc
 50
277.165573
 51
278.168119
  0
ARC
  5
2C3
100
AcDbEntity
  8
1_2
390
0
  6
CONTINUOUS
 62
     3
100
AcDbCircle
 10
57.008269
 20
72.885923
 30
0.0
 40
2.164713
100
AcDbArc
 50
276.095238
 51
277.165565
  0
ARC
  5
2C4
100
AcDbEntity
  8
1_2
390
0
  6
CONTINUOUS
 62
     3
100
AcDbCircle
 10
57.022367
 20
72.75391
 30
0.0
 40
2.031949
100
AcDbArc
 50
274.957156
 51
276.095209
  0
ARC
  5
2C5
100
AcDbEntity
  8
1_2
390
0
  6
CONTINUOUS
 62
     3
100
AcDbCircle
 10
57.032453
 20
72.637655
 30
0.0
 40
1.915258
100
AcDbArc
 50
273.751653
 51
274.957102
  0
ARC
  5
2C6
100
AcDbEntity
  8
1_2
390
0
  6
CONTINUOUS
 62
     3
100
AcDbCircle
 10
57.038606
 20
72.54484
 30
0.0
 40
1.822239
100
AcDbArc
 50
272.737085
 51
273.749544
  0
ARC
  5
2C7
100
AcDbEntity
  8
1_2
390
0
  6
CONTINUOUS
 62
     3
100
AcDbCircle
 10
57.042148
 20
72.470788
 30
0.0
 40
1.748102
100
AcDbArc
 50
271.682337
 51
272.73703
  0
ARC
  5
2C8
100
AcDbEntity
  8
1_2
390
0
  6
CONTINUOUS
 62
     3
100
AcDbCircle
 10
57.044112
 20
72.403967
 30
0.0
 40
1.681253
100
AcDbArc
 50
270.585997
 51
271.682267
  0
ARC
  5
2C9
100
AcDbEntity
  8
1_2
390
0
  6
CONTINUOUS
 62
     3
100
AcDbCircle
 10
57.04473
 20
72.343812
 30
0.0
 40
1.621095
100
AcDbArc
 50
269.448898
 51
270.585911
  0
ARC
  5
2CA
100
AcDbEntity
  8
1_2
390
0
  6
CONTINUOUS
 62
     3
100
AcDbCircle
 10
57.044214
 20
72.289844
 30
0.0
 40
1.567124
100
AcDbArc
 50
268.272064
 51
269.448795
  0
ARC
  5
2CB
100
AcDbEntity
  8
1_2
390
0
  6
CONTINUOUS
 62
     3
100
AcDbCircle
 10
57.043824
 20
72.271913
 30
0.0
 40
1.549189
100
AcDbArc
 50
267.075009
 51
268.266484
  0
ARC
  5
2CC
100
AcDbEntity
  8
1_2
390
0
  6
CONTINUOUS
 62
     3
100
AcDbCircle
 10
57.047593
 20
72.345508
 30
0.0
 40
1.622881
100
AcDbArc
 50
265.935813
 51
267.074713
  0
ARC
  5
2CD
100
AcDbEntity
  8
1_2
390
0
  6
CONTINUOUS
 62
     3
100
AcDbCircle
 10
57.053518
 20
72.428886
 30
0.0
 40
1.706469
100
AcDbArc
 50
264.850853
 51
265.935774
  0
ARC
  5
2CE
100
AcDbEntity
  8
1_2
390
0
  6
CONTINUOUS
 62
     3
100
AcDbCircle
 10
57.061886
 20
72.521738
 30
0.0
 40
1.799697
100
AcDbArc
 50
263.820108
 51
264.850831
  0
ARC
  5
2CF
100
AcDbEntity
  8
1_2
390
0
  6
CONTINUOUS
 62
     3
100
AcDbCircle
 10
57.074672
 20
72.638999
 30
0.0
 40
1.917653
100
AcDbArc
 50
262.605327
 51
263.817455
  0
ARC
  5
2D0
100
AcDbEntity
  8
1_2
390
0
  6
CONTINUOUS
 62
     3
100
AcDbCircle
 10
57.093951
 20
72.787549
 30
0.0
 40
2.067449
100
AcDbArc
 50
261.477689
 51
262.605342
  0
ARC
  5
2D1
100
AcDbEntity
  8
1_2
390
0
  6
CONTINUOUS
 62
     3
100
AcDbCircle
 10
57.11962
 20
72.958862
 30
0.0
 40
2.240674
100
AcDbArc
 50
260.433969
 51
261.477728
  0
ARC
  5
2D2
100
AcDbEntity
  8
1_2
390
0
  6
CONTINUOUS
 62
     3
100
AcDbCircle
 10
57.156919
 20
73.179381
 30
0.0
 40
2.464326
100
AcDbArc
 50
259.287966
 51
260.430882
  0
ARC
  5
2D3
100
AcDbEntity
  8
1_2
390
0
  6
CONTINUOUS
 62
     3
100
AcDbCircle
 10
57.211604
 20
73.468494
 30
0.0
 40
2.758565
100
AcDbArc
 50
258.263079
 51
259.288092
  0
ARC
  5
2D4
100
AcDbEntity
  8
1_2
390
0
  6
CONTINUOUS
 62
     3
100
AcDbCircle
 10
57.292765
 20
73.858215
 30
0.0
 40
3.156647
100
AcDbArc
 50
257.210293
 51
258.259662
  0
ARC
  5
2D5
100
AcDbEntity
  8
1_2
390
0
  6
CONTINUOUS
 62
     3
100
AcDbCircle
 10
57.438651
 20
74.49838
 30
0.0
 40
3.813224
100
AcDbArc
 50
256.079814
 51
257.202013
  0
ARC
  5
2D6
100
AcDbEntity
  8
1_2
390
0
  6
CONTINUOUS
 62
     3
100
AcDbCircle
 10
63.727215
 20
97.922098
 30
0.0
 40
28.065786
100
AcDbArc
 50
254.044055
 51
255.122651
  0
ARC
  5
2D7
100
AcDbEntity
  8
1_2
390
0
  6
CONTINUOUS
 62
     3
100
AcDbCircle
 10
54.653825
 20
65.877064
 30
0.0
 40
5.239613
100
AcDbArc
 50
74.976836
 51
75.982203
  0
ARC
  5
2D8
100
AcDbEntity
  8
1_2
390
0
  6
CONTINUOUS
 62
     3
100
AcDbCircle
 10
54.976293
 20
67.165957
 30
0.0
 40
3.910993
100
AcDbArc
 50
75.991956
 51
77.088977
  0
ARC
  5
2D9
100
AcDbEntity
  8
1_2
390
0
  6
CONTINUOUS
 62
     3
100
AcDbCircle
 10
55.128484
 20
67.827799
 30
0.0
 40
3.231879
100
AcDbArc
 50
77.097178
 51
78.125307
  0
ARC
  5
2DA
100
AcDbEntity
  8
1_2
390
0
  6
CONTINUOUS
 62
     3
100
AcDbCircle
 10
55.21301
 20
68.228976
 30
0.0
 40
2.821894
100
AcDbArc
 50
78.128686
 51
79.13419
  0
ARC
  5
2DB
100
AcDbEntity
  8
1_2
390
0
  6
CONTINUOUS
 62
     3
100
AcDbCircle
 10
55.269975
 20
68.525772
 30
0.0
 40
2.519681
100
AcDbArc
 50
79.134066
 51
80.256147
  0
ARC
  5
2DC
100
AcDbEntity
  8
1_2
390
0
  6
CONTINUOUS
 62
     3
100
AcDbCircle
 10
55.308904
 20
68.751756
 30
0.0
 40
2.290368
100
AcDbArc
 50
80.259185
 51
81.284501
  0
ARC
  5
2DD
100
AcDbEntity
  8
1_2
390
0
  6
CONTINUOUS
 62
     3
100
AcDbCircle
 10
55.335785
 20
68.927115
 30
0.0
 40
2.112961
100
AcDbArc
 50
81.284459
 51
82.392646
  0
ARC
  5
2DE
100
AcDbEntity
  8
1_2
390
0
  6
CONTINUOUS
 62
     3
100
AcDbCircle
 10
55.356078
 20
69.079063
 30
0.0
 40
1.959664
100
AcDbArc
 50
82.392628
 51
83.584236
  0
ARC
  5
2DF
100
AcDbEntity
  8
1_2
390
0
  6
CONTINUOUS
 62
     3
100
AcDbCircle
 10
55.369645
 20
69.198963
 30
0.0
 40
1.838998
100
AcDbArc
 50
83.586848
 51
84.60039
  0
ARC
  5
2E0
100
AcDbEntity
  8
1_2
390
0
  6
CONTINUOUS
 62
     3
100
AcDbCircle
 10
55.378621
 20
69.293918
 30
0.0
 40
1.743621
100
AcDbArc
 50
84.60041
 51
85.667489
  0
ARC
  5
2E1
100
AcDbEntity
  8
1_2
390
0
  6
CONTINUOUS
 62
     3
100
AcDbCircle
 10
55.385081
 20
69.379176
 30
0.0
 40
1.658118
100
AcDbArc
 50
85.667525
 51
86.787922
  0
ARC
  5
2E2
100
AcDbEntity
  8
1_2
390
0
  6
CONTINUOUS
 62
     3
100
AcDbCircle
 10
55.389379
 20
69.455735
 30
0.0
 40
1.581438
100
AcDbArc
 50
86.787978
 51
87.961283
  0
ARC
  5
2E3
100
AcDbEntity
  8
1_2
390
0
  6
CONTINUOUS
 62
     3
100
AcDbCircle
 10
55.391825
 20
69.524381
 30
0.0
 40
1.512749
100
AcDbArc
 50
87.96136
 51
89.186914
  0
ARC
  5
2E4
100
AcDbEntity
  8
1_2
390
0
  6
CONTINUOUS
 62
     3
100
AcDbCircle
 10
55.392699
 20
69.585797
 30
0.0
 40
1.451327
100
AcDbArc
 50
89.187016
 51
90.463912
  0
ARC
  5
2E5
100
AcDbEntity
  8
1_2
390
0
  6
CONTINUOUS
 62
     3
100
AcDbCircle
 10
55.392648
 20
69.611569
 30
0.0
 40
1.425555
100
AcDbArc
 50
90.470238
 51
91.770857
  0
ARC
  5
2E6
100
AcDbEntity
  8
1_2
390
0
  6
CONTINUOUS
 62
     3
100
AcDbCircle
 10
55.394574
 20
69.549577
 30
0.0
 40
1.487577
100
AcDbArc
 50
91.771229
 51
93.018499
  0
ARC
  5
2E7
100
AcDbEntity
  8
1_2
390
0
  6
CONTINUOUS
 62
     3
100
AcDbCircle
 10
55.398308
 20
69.478796
 30
0.0
 40
1.558457
100
AcDbArc
 50
93.018576
 51
94.210311
  0
ARC
  5
2E8
100
AcDbEntity
  8
1_2
390
0
  6
CONTINUOUS
 62
     3
100
AcDbCircle
 10
55.404134
 20
69.399685
 30
0.0
 40
1.637782
100
AcDbArc
 50
94.210366
 51
95.345942
  0
ARC
  5
2E9
100
AcDbEntity
  8
1_2
390
0
  6
CONTINUOUS
 62
     3
100
AcDbCircle
 10
55.412403
 20
69.311332
 30
0.0
 40
1.726521
100
AcDbArc
 50
95.345976
 51
96.42501
  0
ARC
  5
2EA
100
AcDbEntity
  8
1_2
390
0
  6
CONTINUOUS
 62
     3
100
AcDbCircle
 10
55.423516
 20
69.212643
 30
0.0
 40
1.825833
100
AcDbArc
 50
96.425027
 51
97.447363
  0
ARC
  5
2EB
100
AcDbEntity
  8
1_2
390
0
  6
CONTINUOUS
 62
     3
100
AcDbCircle
 10
55.439962
 20
69.087559
 30
0.0
 40
1.951994
100
AcDbArc
 50
97.45012
 51
98.648369
  0
ARC
  5
2EC
100
AcDbEntity
  8
1_2
390
0
  6
CONTINUOUS
 62
     3
100
AcDbCircle
 10
55.46419
 20
68.928261
 30
0.0
 40
2.113124
100
AcDbArc
 50
98.64834
 51
99.758463
  0
ARC
  5
2ED
100
AcDbEntity
  8
1_2
390
0
  6
CONTINUOUS
 62
     3
100
AcDbCircle
 10
55.496
 20
68.74329
 30
0.0
 40
2.30081
100
AcDbArc
 50
99.758412
 51
100.78111
  0
ARC
  5
2EE
100
AcDbEntity
  8
1_2
390
0
  6
CONTINUOUS
 62
     3
100
AcDbCircle
 10
55.54189
 20
68.50305
 30
0.0
 40
2.545394
100
AcDbArc
 50
100.784301
 51
101.897436
  0
ARC
  5
2EF
100
AcDbEntity
  8
1_2
390
0
  6
CONTINUOUS
 62
     3
100
AcDbCircle
 10
55.61556
 20
68.154274
 30
0.0
 40
2.901865
100
AcDbArc
 50
101.901066
 51
103.044778
  0
ARC
  5
2F0
100
AcDbEntity
  8
1_2
390
0
  6
CONTINUOUS
 62
     3
100
AcDbCircle
 10
55.737789
 20
67.627788
 30
0.0
 40
3.442353
100
AcDbArc
 50
103.048771
 51
104.155497
  0
ARC
  5
2F1
100
AcDbEntity
  8
1_2
390
0
  6
CONTINUOUS
 62
     3
100
AcDbCircle
 10
55.970347
 20
66.708691
 30
0.0
 40
4.390416
100
AcDbArc
 50
104.16499
 51
105.254763
  0
ARC
  5
2F2
100
AcDbEntity
  8
1_2
390
0
  6
CONTINUOUS
 62
     3
100
AcDbCircle
 10
60.531655
 20
50.677844
 30
0.0
 40
21.057347
100
AcDbArc
 50
105.751867
 51
106.781558
  0
ARC
  5
2F3
100
AcDbEntity
  8
1_2
390
0
  6
CONTINUOUS
 62
     3
100
AcDbCircle
 10
52.513277
 20
77.458387
 30
0.0
 40
6.897995
100
AcDbArc
 50
285.277511
 51
286.322382
  0
ARC
  5
2F4
100
AcDbEntity
  8
1_2
390
0
  6
CONTINUOUS
 62
     3
100
AcDbCircle
 10
53.182667
 20
75.017116
 30
0.0
 40
4.366617
100
AcDbArc
 50
284.150571
 51
285.245063
  0
ARC
  5
2F5
100
AcDbEntity
  8
1_2
390
0
  6
CONTINUOUS
 62
     3
100
AcDbCircle
 10
53.413889
 20
74.102336
 30
0.0
 40
3.423067
100
AcDbArc
 50
283.02964
 51
284.141043
  0
ARC
  5
2F6
100
AcDbEntity
  8
1_2
390
0
  6
CONTINUOUS
 62
     3
100
AcDbCircle
 10
53.535458
 20
73.577899
 30
0.0
 40
2.884725
100
AcDbArc
 50
281.877006
 51
283.025628
  0
ARC
  5
2F7
100
AcDbEntity
  8
1_2
390
0
  6
CONTINUOUS
 62
     3
100
AcDbCircle
 10
53.608714
 20
73.230363
 30
0.0
 40
2.529551
100
AcDbArc
 50
280.755317
 51
281.873357
  0
ARC
  5
2F8
100
AcDbEntity
  8
1_2
390
0
  6
CONTINUOUS
 62
     3
100
AcDbCircle
 10
53.654326
 20
72.990929
 30
0.0
 40
2.285812
100
AcDbArc
 50
279.724772
 51
280.752105
  0
ARC
  5
2F9
100
AcDbEntity
  8
1_2
390
0
  6
CONTINUOUS
 62
     3
100
AcDbCircle
 10
53.685919
 20
72.806571
 30
0.0
 40
2.098766
100
AcDbArc
 50
278.609532
 51
279.724823
  0
ARC
  5
2FA
100
AcDbEntity
  8
1_2
390
0
  6
CONTINUOUS
 62
     3
100
AcDbCircle
 10
53.70996
 20
72.64778
 30
0.0
 40
1.938165
100
AcDbArc
 50
277.405564
 51
278.60956
  0
ARC
  5
2FB
100
AcDbEntity
  8
1_2
390
0
  6
CONTINUOUS
 62
     3
100
AcDbCircle
 10
53.726254
 20
72.523097
 30
0.0
 40
1.812423
100
AcDbArc
 50
276.375413
 51
277.402786
  0
ARC
  5
2FC
100
AcDbEntity
  8
1_2
390
0
  6
CONTINUOUS
 62
     3
100
AcDbCircle
 10
53.737244
 20
72.424744
 30
0.0
 40
1.713458
100
AcDbArc
 50
275.29093
 51
276.375398
  0
ARC
  5
2FD
100
AcDbEntity
  8
1_2
390
0
  6
CONTINUOUS
 62
     3
100
AcDbCircle
 10
53.745399
 20
72.3367
 30
0.0
 40
1.625037
100
AcDbArc
 50
274.149479
 51
275.290894
  0
ARC
  5
2FE
100
AcDbEntity
  8
1_2
390
0
  6
CONTINUOUS
 62
     3
100
AcDbCircle
 10
53.75112
 20
72.257862
 30
0.0
 40
1.545991
100
AcDbArc
 50
272.951426
 51
274.149423
  0
ARC
  5
2FF
100
AcDbEntity
  8
1_2
390
0
  6
CONTINUOUS
 62
     3
100
AcDbCircle
 10
53.754757
 20
72.187356
 30
0.0
 40
1.475391
100
AcDbArc
 50
271.697408
 51
272.951348
  0
ARC
  5
300
100
AcDbEntity
  8
1_2
390
0
  6
CONTINUOUS
 62
     3
100
AcDbCircle
 10
53.756624
 20
72.124427
 30
0.0
 40
1.412435
100
AcDbArc
 50
270.388336
 51
271.697304
  0
ARC
  5
301
100
AcDbEntity
  8
1_2
390
0
  6
CONTINUOUS
 62
     3
100
AcDbCircle
 10
53.75697
 20
72.088634
 30
0.0
 40
1.37664
100
AcDbArc
 50
270.048363
 51
270.384053
  0
ARC
  5
302
100
AcDbEntity
  8
1_2
390
0
  6
CONTINUOUS
 62
     3
100
AcDbCircle
 10
58.727638
 20
66.672272
 30
0.0
 40
3.128108
100
AcDbArc
 50
61.644558
 51
61.801244
  0
ARC
  5
303
100
AcDbEntity
  8
1_2
390
0
  6
CONTINUOUS
 62
     3
100
AcDbCircle
 10
58.734547
 20
66.685243
 30
0.0
 40
3.113411
100
AcDbArc
 50
61.800499
 51
62.901132
  0
ARC
  5
304
100
AcDbEntity
  8
1_2
390
0
  6
CONTINUOUS
 62
     3
100
AcDbCircle
 10
58.746616
 20
66.708832
 30
0.0
 40
3.086914
100
AcDbArc
 50
62.901101
 51
64.008804
  0
ARC
  5
305
100
AcDbEntity
  8
1_2
390
0
  6
CONTINUOUS
 62
     3
100
AcDbCircle
 10
58.758657
 20
66.733534
 30
0.0
 40
3.059434
100
AcDbArc
 50
64.008774
 51
65.124023
  0
ARC
  5
306
100
AcDbEntity
  8
1_2
390
0
  6
CONTINUOUS
 62
     3
100
AcDbCircle
 10
58.77059
 20
66.759274
 30
0.0
 40
3.031062
100
AcDbArc
 50
65.123994
 51
66.247258
  0
ARC
  5
307
100
AcDbEntity
  8
1_2
390
0
  6
CONTINUOUS
 62
     3
100
AcDbCircle
 10
58.782341
 20
66.785981
 30
0.0
 40
3.001885
100
AcDbArc
 50
66.24723
 51
67.378972
  0
ARC
  5
308
100
AcDbEntity
  8
1_2
390
0
  6
CONTINUOUS
 62
     3
100
AcDbCircle
 10
58.793835
 20
66.813569
 30
0.0
 40
2.971998
100
AcDbArc
 50
67.378944
 51
68.519618
  0
ARC
  5
309
100
AcDbEntity
  8
1_2
390
0
  6
CONTINUOUS
 62
     3
100
AcDbCircle
 10
58.805001
 20
66.841947
 30
0.0
 40
2.941501
100
AcDbArc
 50
68.519591
 51
69.669638
  0
ARC
  5
30A
100
AcDbEntity
  8
1_2
390
0
  6
CONTINUOUS
 62
     3
100
AcDbCircle
 10
58.815773
 20
66.871024
 30
0.0
 40
2.910494
100
AcDbArc
 50
69.669613
 51
70.829466
  0
ARC
  5
30B
100
AcDbEntity
  8
1_2
390
0
  6
CONTINUOUS
 62
     3
100
AcDbCircle
 10
58.825359
 20
66.898555
 30
0.0
 40
2.881342
100
AcDbArc
 50
70.829726
 51
71.832007
  0
ARC
  5
30C
100
AcDbEntity
  8
1_2
390
0
  6
CONTINUOUS
 62
     3
100
AcDbCircle
 10
58.833823
 20
66.924351
 30
0.0
 40
2.854192
100
AcDbArc
 50
71.831994
 51
72.842037
  0
ARC
  5
30D
100
AcDbEntity
  8
1_2
390
0
  6
CONTINUOUS
 62
     3
100
AcDbCircle
 10
58.841878
 20
66.950442
 30
0.0
 40
2.826887
100
AcDbArc
 50
72.842025
 51
73.860074
  0
ARC
  5
30E
100
AcDbEntity
  8
1_2
390
0
  6
CONTINUOUS
 62
     3
100
AcDbCircle
 10
58.849492
 20
66.976754
 30
0.0
 40
2.799495
100
AcDbArc
 50
73.860062
 51
74.886349
  0
ARC
  5
30F
100
AcDbEntity
  8
1_2
390
0
  6
CONTINUOUS
 62
     3
100
AcDbCircle
 10
58.856638
 20
67.003215
 30
0.0
 40
2.772086
100
AcDbArc
 50
74.886339
 51
75.921083
  0
ARC
  5
310
100
AcDbEntity
  8
1_2
390
0
  6
CONTINUOUS
 62
     3
100
AcDbCircle
 10
58.863292
 20
67.029748
 30
0.0
 40
2.744731
100
AcDbArc
 50
75.921074
 51
76.964482
  0
ARC
  5
311
100
AcDbEntity
  8
1_2
390
0
  6
CONTINUOUS
 62
     3
100
AcDbCircle
 10
58.869434
 20
67.056278
 30
0.0
 40
2.7175
100
AcDbArc
 50
76.964474
 51
78.016738
  0
ARC
  5
312
100
AcDbEntity
  8
1_2
390
0
  6
CONTINUOUS
 62
     3
100
AcDbCircle
 10
58.875047
 20
67.082725
 30
0.0
 40
2.690464
100
AcDbArc
 50
78.016732
 51
79.078028
  0
ARC
  5
313
100
AcDbEntity
  8
1_2
390
0
  6
CONTINUOUS
 62
     3
100
AcDbCircle
 10
58.880119
 20
67.109011
 30
0.0
 40
2.663693
100
AcDbArc
 50
79.078024
 51
80.148511
  0
ARC
  5
314
100
AcDbEntity
  8
1_2
390
0
  6
CONTINUOUS
 62
     3
100
AcDbCircle
 10
58.884642
 20
67.135056
 30
0.0
 40
2.637258
100
AcDbArc
 50
80.148508
 51
81.228326
  0
ARC
  5
315
100
AcDbEntity
  8
1_2
390
0
  6
CONTINUOUS
 62
     3
100
AcDbCircle
 10
58.888611
 20
67.16078
 30
0.0
 40
2.611229
100
AcDbArc
 50
81.228325
 51
82.317594
  0
ARC
  5
316
100
AcDbEntity
  8
1_2
390
0
  6
CONTINUOUS
 62
     3
100
AcDbCircle
 10
58.892027
 20
67.186104
 30
0.0
 40
2.585676
100
AcDbArc
 50
82.317595
 51
83.416414
  0
ARC
  5
317
100
AcDbEntity
  8
1_2
390
0
  6
CONTINUOUS
 62
     3
100
AcDbCircle
 10
58.894894
 20
67.210948
 30
0.0
 40
2.560667
100
AcDbArc
 50
83.416417
 51
84.524861
  0
ARC
  5
318
100
AcDbEntity
  8
1_2
390
0
  6
CONTINUOUS
 62
     3
100
AcDbCircle
 10
58.897222
 20
67.235233
 30
0.0
 40
2.536271
100
AcDbArc
 50
84.524867
 51
85.642987
  0
ARC
  5
319
100
AcDbEntity
  8
1_2
390
0
  6
CONTINUOUS
 62
     3
100
AcDbCircle
 10
58.899024
 20
67.25888
 30
0.0
 40
2.512556
100
AcDbArc
 50
85.642996
 51
86.770818
  0
ARC
  5
31A
100
AcDbEntity
  8
1_2
390
0
  6
CONTINUOUS
 62
     3
100
AcDbCircle
 10
58.900319
 20
67.281812
 30
0.0
 40
2.489587
100
AcDbArc
 50
86.770829
 51
87.908351
  0
ARC
  5
31B
100
AcDbEntity
  8
1_2
390
0
  6
CONTINUOUS
 62
     3
100
AcDbCircle
 10
58.901128
 20
67.303955
 30
0.0
 40
2.46743
100
AcDbArc
 50
87.908365
 51
89.055557
  0
ARC
  5
31C
100
AcDbEntity
  8
1_2
390
0
  6
CONTINUOUS
 62
     3
100
AcDbCircle
 10
58.901479
 20
67.325229
 30
0.0
 40
2.446152
100
AcDbArc
 50
89.055573
 51
90.212372
  0
ARC
  5
31D
100
AcDbEntity
  8
1_2
390
0
  6
CONTINUOUS
 62
     3
100
AcDbCircle
 10
58.901405
 20
67.345567
 30
0.0
 40
2.425814
100
AcDbArc
 50
90.212391
 51
91.378708
  0
ARC
  5
31E
100
AcDbEntity
  8
1_2
390
0
  6
CONTINUOUS
 62
     3
100
AcDbCircle
 10
58.900941
 20
67.364893
 30
0.0
 40
2.406482
100
AcDbArc
 50
91.37873
 51
92.554436
  0
ARC
  5
31F
100
AcDbEntity
  8
1_2
390
0
  6
CONTINUOUS
 62
     3
100
AcDbCircle
 10
58.900127
 20
67.383143
 30
0.0
 40
2.388215
100
AcDbArc
 50
92.554461
 51
93.739401
  0
ARC
  5
320
100
AcDbEntity
  8
1_2
390
0
  6
CONTINUOUS
 62
     3
100
AcDbCircle
 10
58.899011
 20
67.400245
 30
0.0
 40
2.371076
100
AcDbArc
 50
93.739429
 51
94.933408
  0
ARC
  5
321
100
AcDbEntity
  8
1_2
390
0
  6
CONTINUOUS
 62
     3
100
AcDbCircle
 10
58.897758
 20
67.414867
 30
0.0
 40
2.3564
100
AcDbArc
 50
94.933638
 51
95.935359
  0
ARC
  5
322
100
AcDbEntity
  8
1_2
390
0
  6
CONTINUOUS
 62
     3
100
AcDbCircle
 10
58.896474
 20
67.427232
 30
0.0
 40
2.343969
100
AcDbArc
 50
95.935379
 51
96.943067
  0
ARC
  5
323
100
AcDbEntity
  8
1_2
390
0
  6
CONTINUOUS
 62
     3
100
AcDbCircle
 10
58.903208
 20
67.374354
 30
0.0
 40
2.397273
100
AcDbArc
 50
96.950069
 51
98.136521
  0
ARC
  5
324
100
AcDbEntity
  8
1_2
390
0
  6
CONTINUOUS
 62
     3
100
AcDbCircle
 10
58.931945
 20
67.173388
 30
0.0
 40
2.600283
100
AcDbArc
 50
98.136621
 51
99.232352
  0
ARC
  5
325
100
AcDbEntity
  8
1_2
390
0
  6
CONTINUOUS
 62
     3
100
AcDbCircle
 10
58.974297
 20
66.913698
 30
0.0
 40
2.863405
100
AcDbArc
 50
99.235138
 51
100.397819
  0
ARC
  5
326
100
AcDbEntity
  8
1_2
390
0
  6
CONTINUOUS
 62
     3
100
AcDbCircle
 10
59.036987
 20
66.572038
 30
0.0
 40
3.210768
100
AcDbArc
 50
100.397767
 51
101.436518
  0
ARC
  5
327
100
AcDbEntity
  8
1_2
390
0
  6
CONTINUOUS
 62
     3
100
AcDbCircle
 10
59.131036
 20
66.108137
 30
0.0
 40
3.684106
100
AcDbArc
 50
101.439606
 51
102.476218
  0
ARC
  5
328
100
AcDbEntity
  8
1_2
390
0
  6
CONTINUOUS
 62
     3
100
AcDbCircle
 10
59.299364
 20
65.350012
 30
0.0
 40
4.460693
100
AcDbArc
 50
102.483562
 51
103.556028
  0
ARC
  5
329
100
AcDbEntity
  8
1_2
390
0
  6
CONTINUOUS
 62
     3
100
AcDbCircle
 10
65.942468
 20
39.753361
 30
0.0
 40
30.904768
100
AcDbArc
 50
104.405685
 51
105.429167
  0
ARC
  5
32A
100
AcDbEntity
  8
1_2
390
0
  6
CONTINUOUS
 62
     3
100
AcDbCircle
 10
56.22876
 20
75.274268
 30
0.0
 40
5.920904
100
AcDbArc
 50
283.547753
 51
284.591133
  0
ARC
  5
32B
100
AcDbEntity
  8
1_2
390
0
  6
CONTINUOUS
 62
     3
100
AcDbCircle
 10
56.603524
 20
73.723538
 30
0.0
 40
4.325533
100
AcDbArc
 50
282.440757
 51
283.533589
  0
ARC
  5
32C
100
AcDbEntity
  8
1_2
390
0
  6
CONTINUOUS
 62
     3
100
AcDbCircle
 10
56.770831
 20
72.96735
 30
0.0
 40
3.551057
100
AcDbArc
 50
281.373059
 51
282.433126
  0
ARC
  5
32D
100
AcDbEntity
  8
1_2
390
0
  6
CONTINUOUS
 62
     3
100
AcDbCircle
 10
56.864045
 20
72.504813
 30
0.0
 40
3.079221
100
AcDbArc
 50
280.304384
 51
281.369837
  0
ARC
  5
32E
100
AcDbEntity
  8
1_2
390
0
  6
CONTINUOUS
 62
     3
100
AcDbCircle
 10
56.922098
 20
72.186284
 30
0.0
 40
2.755445
100
AcDbArc
 50
279.284435
 51
280.301491
  0
ARC
  5
32F
100
AcDbEntity
  8
1_2
390
0
  6
CONTINUOUS
 62
     3
100
AcDbCircle
 10
56.961959
 20
71.942445
 30
0.0
 40
2.50837
100
AcDbArc
 50
278.170667
 51
279.284481
  0
ARC
  5
330
100
AcDbEntity
  8
1_2
390
0
  6
CONTINUOUS
 62
     3
100
AcDbCircle
 10
56.989378
 20
71.752198
 30
0.0
 40
2.316157
100
AcDbArc
 50
277.165573
 51
278.168119
  0
ARC
  5
331
100
AcDbEntity
  8
1_2
390
0
  6
CONTINUOUS
 62
     3
100
AcDbCircle
 10
57.008269
 20
71.601936
 30
0.0
 40
2.164713
100
AcDbArc
 50
276.095238
 51
277.165565
  0
ARC
  5
332
100
AcDbEntity
  8
1_2
390
0
  6
CONTINUOUS
 62
     3
100
AcDbCircle
 10
57.022367
 20
71.469924
 30
0.0
 40
2.031949
100
AcDbArc
 50
274.957156
 51
276.095209
  0
ARC
  5
333
100
AcDbEntity
  8
1_2
390
0
  6
CONTINUOUS
 62
     3
100
AcDbCircle
 10
57.032453
 20
71.353669
 30
0.0
 40
1.915258
100
AcDbArc
 50
273.751653
 51
274.957102
  0
ARC
  5
334
100
AcDbEntity
  8
1_2
390
0
  6
CONTINUOUS
 62
     3
100
AcDbCircle
 10
57.038606
 20
71.260854
 30
0.0
 40
1.822239
100
AcDbArc
 50
272.737085
 51
273.749544
  0
ARC
  5
335
100
AcDbEntity
  8
1_2
390
0
  6
CONTINUOUS
 62
     3
100
AcDbCircle
 10
57.042148
 20
71.186802
 30
0.0
 40
1.748102
100
AcDbArc
 50
271.682337
 51
272.73703
  0
ARC
  5
336
100
AcDbEntity
  8
1_2
390
0
  6
CONTINUOUS
 62
     3
100
AcDbCircle
 10
57.044112
 20
71.119981
 30
0.0
 40
1.681253
100
AcDbArc
 50
270.585997
 51
271.682267
  0
ARC
  5
337
100
AcDbEntity
  8
1_2
390
0
  6
CONTINUOUS
 62
     3
100
AcDbCircle
 10
57.04473
 20
71.059826
 30
0.0
 40
1.621095
100
AcDbArc
 50
269.448898
 51
270.585911
  0
ARC
  5
338
100
AcDbEntity
  8
1_2
390
0
  6
CONTINUOUS
 62
     3
100
AcDbCircle
 10
57.044214
 20
71.005858
 30
0.0
 40
1.567124
100
AcDbArc
 50
268.272064
 51
269.448795
  0
ARC
  5
339
100
AcDbEntity
  8
1_2
390
0
  6
CONTINUOUS
 62
     3
100
AcDbCircle
 10
57.043824
 20
70.987927
 30
0.0
 40
1.549189
100
AcDbArc
 50
267.075009
 51
268.266484
  0
ARC
  5
33A
100
AcDbEntity
  8
1_2
390
0
  6
CONTINUOUS
 62
     3
100
AcDbCircle
 10
57.047593
 20
71.061522
 30
0.0
 40
1.622881
100
AcDbArc
 50
265.935813
 51
267.074713
  0
ARC
  5
33B
100
AcDbEntity
  8
1_2
390
0
  6
CONTINUOUS
 62
     3
100
AcDbCircle
 10
57.053518
 20
71.144899
 30
0.0
 40
1.706469
100
AcDbArc
 50
264.850853
 51
265.935774
  0
ARC
  5
33C
100
AcDbEntity
  8
1_2
390
0
  6
CONTINUOUS
 62
     3
100
AcDbCircle
 10
57.061886
 20
71.237752
 30
0.0
 40
1.799697
100
AcDbArc
 50
263.820108
 51
264.850831
  0
ARC
  5
33D
100
AcDbEntity
  8
1_2
390
0
  6
CONTINUOUS
 62
     3
100
AcDbCircle
 10
57.074672
 20
71.355012
 30
0.0
 40
1.917653
100
AcDbArc
 50
262.605327
 51
263.817455
  0
ARC
  5
33E
100
AcDbEntity
  8
1_2
390
0
  6
CONTINUOUS
 62
     3
100
AcDbCircle
 10
57.093951
 20
71.503563
 30
0.0
 40
2.067449
100
AcDbArc
 50
261.477689
 51
262.605342
  0
ARC
  5
33F
100
AcDbEntity
  8
1_2
390
0
  6
CONTINUOUS
 62
     3
100
AcDbCircle
 10
57.11962
 20
71.674875
 30
0.0
 40
2.240674
100
AcDbArc
 50
260.433969
 51
261.477728
  0
ARC
  5
340
100
AcDbEntity
  8
1_2
390
0
  6
CONTINUOUS
 62
     3
100
AcDbCircle
 10
57.156919
 20
71.895395
 30
0.0
 40
2.464326
100
AcDbArc
 50
259.287966
 51
260.430882
  0
ARC
  5
341
100
AcDbEntity
  8
1_2
390
0
  6
CONTINUOUS
 62
     3
100
AcDbCircle
 10
57.211604
 20
72.184508
 30
0.0
 40
2.758565
100
AcDbArc
 50
258.263079
 51
259.288092
  0
ARC
  5
342
100
AcDbEntity
  8
1_2
390
0
  6
CONTINUOUS
 62
     3
100
AcDbCircle
 10
57.292765
 20
72.574229
 30
0.0
 40
3.156647
100
AcDbArc
 50
257.210293
 51
258.259662
  0
ARC
  5
343
100
AcDbEntity
  8
1_2
390
0
  6
CONTINUOUS
 62
     3
100
AcDbCircle
 10
57.438651
 20
73.214393
 30
0.0
 40
3.813224
100
AcDbArc
 50
256.079814
 51
257.202013
  0
ARC
  5
344
100
AcDbEntity
  8
1_2
390
0
  6
CONTINUOUS
 62
     3
100
AcDbCircle
 10
63.727215
 20
96.638112
 30
0.0
 40
28.065786
100
AcDbArc
 50
254.044055
 51
255.122651
  0
ARC
  5
345
100
AcDbEntity
  8
1_2
390
0
  6
CONTINUOUS
 62
     3
100
AcDbCircle
 10
54.653825
 20
64.593078
 30
0.0
 40
5.239613
100
AcDbArc
 50
74.976836
 51
75.982203
  0
ARC
  5
346
100
AcDbEntity
  8
1_2
390
0
  6
CONTINUOUS
 62
     3
100
AcDbCircle
 10
54.976293
 20
65.881971
 30
0.0
 40
3.910993
100
AcDbArc
 50
75.991956
 51
77.088977
  0
ARC
  5
347
100
AcDbEntity
  8
1_2
390
0
  6
CONTINUOUS
 62
     3
100
AcDbCircle
 10
55.128484
 20
66.543812
 30
0.0
 40
3.231879
100
AcDbArc
 50
77.097178
 51
78.125307
  0
ARC
  5
348
100
AcDbEntity
  8
1_2
390
0
  6
CONTINUOUS
 62
     3
100
AcDbCircle
 10
55.21301
 20
66.94499
 30
0.0
 40
2.821894
100
AcDbArc
 50
78.128686
 51
79.13419
  0
ARC
  5
349
100
AcDbEntity
  8
1_2
390
0
  6
CONTINUOUS
 62
     3
100
AcDbCircle
 10
55.269975
 20
67.241786
 30
0.0
 40
2.519681
100
AcDbArc
 50
79.134066
 51
80.256147
  0
ARC
  5
34A
100
AcDbEntity
  8
1_2
390
0
  6
CONTINUOUS
 62
     3
100
AcDbCircle
 10
55.308904
 20
67.467769
 30
0.0
 40
2.290368
100
AcDbArc
 50
80.259185
 51
81.284501
  0
ARC
  5
34B
100
AcDbEntity
  8
1_2
390
0
  6
CONTINUOUS
 62
     3
100
AcDbCircle
 10
55.335785
 20
67.643129
 30
0.0
 40
2.112961
100
AcDbArc
 50
81.284459
 51
82.392646
  0
ARC
  5
34C
100
AcDbEntity
  8
1_2
390
0
  6
CONTINUOUS
 62
     3
100
AcDbCircle
 10
55.356078
 20
67.795077
 30
0.0
 40
1.959664
100
AcDbArc
 50
82.392628
 51
83.584236
  0
ARC
  5
34D
100
AcDbEntity
  8
1_2
390
0
  6
CONTINUOUS
 62
     3
100
AcDbCircle
 10
55.369645
 20
67.914977
 30
0.0
 40
1.838998
100
AcDbArc
 50
83.586848
 51
84.60039
  0
ARC
  5
34E
100
AcDbEntity
  8
1_2
390
0
  6
CONTINUOUS
 62
     3
100
AcDbCircle
 10
55.378621
 20
68.009931
 30
0.0
 40
1.743621
100
AcDbArc
 50
84.60041
 51
85.667489
  0
ARC
  5
34F
100
AcDbEntity
  8
1_2
390
0
  6
CONTINUOUS
 62
     3
100
AcDbCircle
 10
55.385081
 20
68.095189
 30
0.0
 40
1.658118
100
AcDbArc
 50
85.667525
 51
86.787922
  0
ARC
  5
350
100
AcDbEntity
  8
1_2
390
0
  6
CONTINUOUS
 62
     3
100
AcDbCircle
 10
55.389379
 20
68.171749
 30
0.0
 40
1.581438
100
AcDbArc
 50
86.787978
 51
87.961283
  0
ARC
  5
351
100
AcDbEntity
  8
1_2
390
0
  6
CONTINUOUS
 62
     3
100
AcDbCircle
 10
55.391825
 20
68.240394
 30
0.0
 40
1.512749
100
AcDbArc
 50
87.96136
 51
89.186914
  0
ARC
  5
352
100
AcDbEntity
  8
1_2
390
0
  6
CONTINUOUS
 62
     3
100
AcDbCircle
 10
55.392699
 20
68.30181
 30
0.0
 40
1.451327
100
AcDbArc
 50
89.187016
 51
90.463912
  0
ARC
  5
353
100
AcDbEntity
  8
1_2
390
0
  6
CONTINUOUS
 62
     3
100
AcDbCircle
 10
55.392648
 20
68.327583
 30
0.0
 40
1.425555
100
AcDbArc
 50
90.470238
 51
91.770857
  0
ARC
  5
354
100
AcDbEntity
  8
1_2
390
0
  6
CONTINUOUS
 62
     3
100
AcDbCircle
 10
55.394574
 20
68.265591
 30
0.0
 40
1.487577
100
AcDbArc
 50
91.771229
 51
93.018499
  0
ARC
  5
355
100
AcDbEntity
  8
1_2
390
0
  6
CONTINUOUS
 62
     3
100
AcDbCircle
 10
55.398308
 20
68.194809
 30
0.0
 40
1.558457
100
AcDbArc
 50
93.018576
 51
94.210311
  0
ARC
  5
356
100
AcDbEntity
  8
1_2
390
0
  6
CONTINUOUS
 62
     3
100
AcDbCircle
 10
55.404134
 20
68.115698
 30
0.0
 40
1.637782
100
AcDbArc
 50
94.210366
 51
95.345942
  0
ARC
  5
357
100
AcDbEntity
  8
1_2
390
0
  6
CONTINUOUS
 62
     3
100
AcDbCircle
 10
55.412403
 20
68.027345
 30
0.0
 40
1.726521
100
AcDbArc
 50
95.345976
 51
96.42501
  0
ARC
  5
358
100
AcDbEntity
  8
1_2
390
0
  6
CONTINUOUS
 62
     3
100
AcDbCircle
 10
55.423516
 20
67.928657
 30
0.0
 40
1.825833
100
AcDbArc
 50
96.425027
 51
97.447363
  0
ARC
  5
359
100
AcDbEntity
  8
1_2
390
0
  6
CONTINUOUS
 62
     3
100
AcDbCircle
 10
55.439962
 20
67.803572
 30
0.0
 40
1.951994
100
AcDbArc
 50
97.45012
 51
98.648369
  0
ARC
  5
35A
100
AcDbEntity
  8
1_2
390
0
  6
CONTINUOUS
 62
     3
100
AcDbCircle
 10
55.46419
 20
67.644274
 30
0.0
 40
2.113124
100
AcDbArc
 50
98.64834
 51
99.758463
  0
ARC
  5
35B
100
AcDbEntity
  8
1_2
390
0
  6
CONTINUOUS
 62
     3
100
AcDbCircle
 10
55.496
 20
67.459304
 30
0.0
 40
2.30081
100
AcDbArc
 50
99.758412
 51
100.78111
  0
ARC
  5
35C
100
AcDbEntity
  8
1_2
390
0
  6
CONTINUOUS
 62
     3
100
AcDbCircle
 10
55.54189
 20
67.219064
 30
0.0
 40
2.545394
100
AcDbArc
 50
100.784301
 51
101.897436
  0
ARC
  5
35D
100
AcDbEntity
  8
1_2
390
0
  6
CONTINUOUS
 62
     3
100
AcDbCircle
 10
55.61556
 20
66.870288
 30
0.0
 40
2.901865
100
AcDbArc
 50
101.901066
 51
103.044778
  0
ARC
  5
35E
100
AcDbEntity
  8
1_2
390
0
  6
CONTINUOUS
 62
     3
100
AcDbCircle
 10
55.737789
 20
66.343802
 30
0.0
 40
3.442353
100
AcDbArc
 50
103.048771
 51
104.155497
  0
ARC
  5
35F
100
AcDbEntity
  8
1_2
390
0
  6
CONTINUOUS
 62
     3
100
AcDbCircle
 10
55.970347
 20
65.424704
 30
0.0
 40
4.390416
100
AcDbArc
 50
104.16499
 51
105.254763
  0
ARC
  5
360
100
AcDbEntity
  8
1_2
390
0
  6
CONTINUOUS
 62
     3
100
AcDbCircle
 10
60.531655
 20
49.393858
 30
0.0
 40
21.057347
100
AcDbArc
 50
105.751867
 51
106.781558
  0
ARC
  5
361
100
AcDbEntity
  8
1_2
390
0
  6
CONTINUOUS
 62
     3
100
AcDbCircle
 10
52.513277
 20
76.1744
 30
0.0
 40
6.897995
100
AcDbArc
 50
285.277511
 51
286.322382
  0
ARC
  5
362
100
AcDbEntity
  8
1_2
390
0
  6
CONTINUOUS
 62
     3
100
AcDbCircle
 10
53.182667
 20
73.73313
 30
0.0
 40
4.366617
100
AcDbArc
 50
284.150571
 51
285.245063
  0
ARC
  5
363
100
AcDbEntity
  8
1_2
390
0
  6
CONTINUOUS
 62
     3
100
AcDbCircle
 10
53.413889
 20
72.81835
 30
0.0
 40
3.423067
100
AcDbArc
 50
283.02964
 51
284.141043
  0
ARC
  5
364
100
AcDbEntity
  8
1_2
390
0
  6
CONTINUOUS
 62
     3
100
AcDbCircle
 10
53.535458
 20
72.293913
 30
0.0
 40
2.884725
100
AcDbArc
 50
281.877006
 51
283.025628
  0
ARC
  5
365
100
AcDbEntity
  8
1_2
390
0
  6
CONTINUOUS
 62
     3
100
AcDbCircle
 10
53.608714
 20
71.946376
 30
0.0
 40
2.529551
100
AcDbArc
 50
280.755317
 51
281.873357
  0
ARC
  5
366
100
AcDbEntity
  8
1_2
390
0
  6
CONTINUOUS
 62
     3
100
AcDbCircle
 10
53.654326
 20
71.706943
 30
0.0
 40
2.285812
100
AcDbArc
 50
279.724772
 51
280.752105
  0
ARC
  5
367
100
AcDbEntity
  8
1_2
390
0
  6
CONTINUOUS
 62
     3
100
AcDbCircle
 10
53.685919
 20
71.522584
 30
0.0
 40
2.098766
100
AcDbArc
 50
278.609532
 51
279.724823
  0
ARC
  5
368
100
AcDbEntity
  8
1_2
390
0
  6
CONTINUOUS
 62
     3
100
AcDbCircle
 10
53.70996
 20
71.363793
 30
0.0
 40
1.938165
100
AcDbArc
 50
277.405564
 51
278.60956
  0
ARC
  5
369
100
AcDbEntity
  8
1_2
390
0
  6
CONTINUOUS
 62
     3
100
AcDbCircle
 10
53.726254
 20
71.239111
 30
0.0
 40
1.812423
100
AcDbArc
 50
276.375413
 51
277.402786
  0
ARC
  5
36A
100
AcDbEntity
  8
1_2
390
0
  6
CONTINUOUS
 62
     3
100
AcDbCircle
 10
53.737244
 20
71.140758
 30
0.0
 40
1.713458
100
AcDbArc
 50
275.29093
 51
276.375398
  0
ARC
  5
36B
100
AcDbEntity
  8
1_2
390
0
  6
CONTINUOUS
 62
     3
100
AcDbCircle
 10
53.745399
 20
71.052714
 30
0.0
 40
1.625037
100
AcDbArc
 50
274.149479
 51
275.290894
  0
ARC
  5
36C
100
AcDbEntity
  8
1_2
390
0
  6
CONTINUOUS
 62
     3
100
AcDbCircle
 10
53.75112
 20
70.973875
 30
0.0
 40
1.545991
100
AcDbArc
 50
272.951426
 51
274.149423
  0
ARC
  5
36D
100
AcDbEntity
  8
1_2
390
0
  6
CONTINUOUS
 62
     3
100
AcDbCircle
 10
53.754757
 20
70.903369
 30
0.0
 40
1.475391
100
AcDbArc
 50
271.697408
 51
272.951348
  0
ARC
  5
36E
100
AcDbEntity
  8
1_2
390
0
  6
CONTINUOUS
 62
     3
100
AcDbCircle
 10
53.756624
 20
70.840441
 30
0.0
 40
1.412435
100
AcDbArc
 50
270.388336
 51
271.697304
  0
ARC
  5
36F
100
AcDbEntity
  8
1_2
390
0
  6
CONTINUOUS
 62
     3
100
AcDbCircle
 10
53.75697
 20
70.804647
 30
0.0
 40
1.37664
100
AcDbArc
 50
270.048363
 51
270.384053
  0
ARC
  5
370
100
AcDbEntity
  8
1_2
390
0
  6
CONTINUOUS
 62
     3
100
AcDbCircle
 10
48.788625
 20
67.956259
 30
0.0
 40
3.128108
100
AcDbArc
 50
118.198756
 51
118.355442
  0
ARC
  5
371
100
AcDbEntity
  8
1_2
390
0
  6
CONTINUOUS
 62
     3
100
AcDbCircle
 10
48.781717
 20
67.96923
 30
0.0
 40
3.113411
100
AcDbArc
 50
117.098868
 51
118.199501
  0
ARC
  5
372
100
AcDbEntity
  8
1_2
390
0
  6
CONTINUOUS
 62
     3
100
AcDbCircle
 10
48.769648
 20
67.992819
 30
0.0
 40
3.086914
100
AcDbArc
 50
115.991196
 51
117.098899
  0
ARC
  5
373
100
AcDbEntity
  8
1_2
390
0
  6
CONTINUOUS
 62
     3
100
AcDbCircle
 10
48.757607
 20
68.01752
 30
0.0
 40
3.059434
100
AcDbArc
 50
114.875977
 51
115.991226
  0
ARC
  5
374
100
AcDbEntity
  8
1_2
390
0
  6
CONTINUOUS
 62
     3
100
AcDbCircle
 10
48.745673
 20
68.043261
 30
0.0
 40
3.031062
100
AcDbArc
 50
113.752742
 51
114.876006
  0
ARC
  5
375
100
AcDbEntity
  8
1_2
390
0
  6
CONTINUOUS
 62
     3
100
AcDbCircle
 10
48.733922
 20
68.069967
 30
0.0
 40
3.001885
100
AcDbArc
 50
112.621028
 51
113.75277
  0
ARC
  5
376
100
AcDbEntity
  8
1_2
390
0
  6
CONTINUOUS
 62
     3
100
AcDbCircle
 10
48.722428
 20
68.097555
 30
0.0
 40
2.971998
100
AcDbArc
 50
111.480382
 51
112.621056
  0
ARC
  5
377
100
AcDbEntity
  8
1_2
390
0
  6
CONTINUOUS
 62
     3
100
AcDbCircle
 10
48.711262
 20
68.125934
 30
0.0
 40
2.941501
100
AcDbArc
 50
110.330362
 51
111.480409
  0
ARC
  5
378
100
AcDbEntity
  8
1_2
390
0
  6
CONTINUOUS
 62
     3
100
AcDbCircle
 10
48.70049
 20
68.155011
 30
0.0
 40
2.910494
100
AcDbArc
 50
109.170534
 51
110.330387
  0
ARC
  5
379
100
AcDbEntity
  8
1_2
390
0
  6
CONTINUOUS
 62
     3
100
AcDbCircle
 10
48.690905
 20
68.182541
 30
0.0
 40
2.881342
100
AcDbArc
 50
108.167993
 51
109.170274
  0
ARC
  5
37A
100
AcDbEntity
  8
1_2
390
0
  6
CONTINUOUS
 62
     3
100
AcDbCircle
 10
48.68244
 20
68.208338
 30
0.0
 40
2.854192
100
AcDbArc
 50
107.157963
 51
108.168006
  0
ARC
  5
37B
100
AcDbEntity
  8
1_2
390
0
  6
CONTINUOUS
 62
     3
100
AcDbCircle
 10
48.674386
 20
68.234428
 30
0.0
 40
2.826887
100
AcDbArc
 50
106.139926
 51
107.157975
  0
ARC
  5
37C
100
AcDbEntity
  8
1_2
390
0
  6
CONTINUOUS
 62
     3
100
AcDbCircle
 10
48.666772
 20
68.26074
 30
0.0
 40
2.799495
100
AcDbArc
 50
105.113651
 51
106.139938
  0
ARC
  5
37D
100
AcDbEntity
  8
1_2
390
0
  6
CONTINUOUS
 62
     3
100
AcDbCircle
 10
48.659626
 20
68.287201
 30
0.0
 40
2.772086
100
AcDbArc
 50
104.078917
 51
105.113661
  0
ARC
  5
37E
100
AcDbEntity
  8
1_2
390
0
  6
CONTINUOUS
 62
     3
100
AcDbCircle
 10
48.652972
 20
68.313735
 30
0.0
 40
2.744731
100
AcDbArc
 50
103.035518
 51
104.078926
  0
ARC
  5
37F
100
AcDbEntity
  8
1_2
390
0
  6
CONTINUOUS
 62
     3
100
AcDbCircle
 10
48.64683
 20
68.340264
 30
0.0
 40
2.7175
100
AcDbArc
 50
101.983262
 51
103.035526
  0
ARC
  5
380
100
AcDbEntity
  8
1_2
390
0
  6
CONTINUOUS
 62
     3
100
AcDbCircle
 10
48.641217
 20
68.366711
 30
0.0
 40
2.690464
100
AcDbArc
 50
100.921972
 51
101.983268
  0
ARC
  5
381
100
AcDbEntity
  8
1_2
390
0
  6
CONTINUOUS
 62
     3
100
AcDbCircle
 10
48.636145
 20
68.392997
 30
0.0
 40
2.663693
100
AcDbArc
 50
99.851489
 51
100.921976
  0
ARC
  5
382
100
AcDbEntity
  8
1_2
390
0
  6
CONTINUOUS
 62
     3
100
AcDbCircle
 10
48.631622
 20
68.419042
 30
0.0
 40
2.637258
100
AcDbArc
 50
98.771674
 51
99.851492
  0
ARC
  5
383
100
AcDbEntity
  8
1_2
390
0
  6
CONTINUOUS
 62
     3
100
AcDbCircle
 10
48.627653
 20
68.444767
 30
0.0
 40
2.611229
100
AcDbArc
 50
97.682406
 51
98.771675
  0
ARC
  5
384
100
AcDbEntity
  8
1_2
390
0
  6
CONTINUOUS
 62
     3
100
AcDbCircle
 10
48.624237
 20
68.470091
 30
0.0
 40
2.585676
100
AcDbArc
 50
96.583586
 51
97.682405
  0
ARC
  5
385
100
AcDbEntity
  8
1_2
390
0
  6
CONTINUOUS
 62
     3
100
AcDbCircle
 10
48.621369
 20
68.494934
 30
0.0
 40
2.560667
100
AcDbArc
 50
95.475139
 51
96.583583
  0
ARC
  5
386
100
AcDbEntity
  8
1_2
390
0
  6
CONTINUOUS
 62
     3
100
AcDbCircle
 10
48.619041
 20
68.519219
 30
0.0
 40
2.536271
100
AcDbArc
 50
94.357013
 51
95.475133
  0
ARC
  5
387
100
AcDbEntity
  8
1_2
390
0
  6
CONTINUOUS
 62
     3
100
AcDbCircle
 10
48.617239
 20
68.542866
 30
0.0
 40
2.512556
100
AcDbArc
 50
93.229182
 51
94.357004
  0
ARC
  5
388
100
AcDbEntity
  8
1_2
390
0
  6
CONTINUOUS
 62
     3
100
AcDbCircle
 10
48.615945
 20
68.565799
 30
0.0
 40
2.489587
100
AcDbArc
 50
92.091649
 51
93.229171
  0
ARC
  5
389
100
AcDbEntity
  8
1_2
390
0
  6
CONTINUOUS
 62
     3
100
AcDbCircle
 10
48.615136
 20
68.587941
 30
0.0
 40
2.46743
100
AcDbArc
 50
90.944443
 51
92.091635
  0
ARC
  5
38A
100
AcDbEntity
  8
1_2
390
0
  6
CONTINUOUS
 62
     3
100
AcDbCircle
 10
48.614784
 20
68.609216
 30
0.0
 40
2.446152
100
AcDbArc
 50
89.787628
 51
90.944427
  0
ARC
  5
38B
100
AcDbEntity
  8
1_2
390
0
  6
CONTINUOUS
 62
     3
100
AcDbCircle
 10
48.614859
 20
68.629553
 30
0.0
 40
2.425814
100
AcDbArc
 50
88.621292
 51
89.787609
  0
ARC
  5
38C
100
AcDbEntity
  8
1_2
390
0
  6
CONTINUOUS
 62
     3
100
AcDbCircle
 10
48.615323
 20
68.64888
 30
0.0
 40
2.406482
100
AcDbArc
 50
87.445564
 51
88.62127
  0
ARC
  5
38D
100
AcDbEntity
  8
1_2
390
0
  6
CONTINUOUS
 62
     3
100
AcDbCircle
 10
48.616136
 20
68.667129
 30
0.0
 40
2.388215
100
AcDbArc
 50
86.260599
 51
87.445539
  0
ARC
  5
38E
100
AcDbEntity
  8
1_2
390
0
  6
CONTINUOUS
 62
     3
100
AcDbCircle
 10
48.617253
 20
68.684232
 30
0.0
 40
2.371076
100
AcDbArc
 50
85.066592
 51
86.260571
  0
ARC
  5
38F
100
AcDbEntity
  8
1_2
390
0
  6
CONTINUOUS
 62
     3
100
AcDbCircle
 10
48.618505
 20
68.698854
 30
0.0
 40
2.3564
100
AcDbArc
 50
84.064641
 51
85.066362
  0
ARC
  5
390
100
AcDbEntity
  8
1_2
390
0
  6
CONTINUOUS
 62
     3
100
AcDbCircle
 10
48.61979
 20
68.711219
 30
0.0
 40
2.343969
100
AcDbArc
 50
83.056933
 51
84.064621
  0
ARC
  5
391
100
AcDbEntity
  8
1_2
390
0
  6
CONTINUOUS
 62
     3
100
AcDbCircle
 10
48.613056
 20
68.65834
 30
0.0
 40
2.397273
100
AcDbArc
 50
81.863479
 51
83.049931
  0
ARC
  5
392
100
AcDbEntity
  8
1_2
390
0
  6
CONTINUOUS
 62
     3
100
AcDbCircle
 10
48.584319
 20
68.457375
 30
0.0
 40
2.600283
100
AcDbArc
 50
80.767648
 51
81.863379
  0
ARC
  5
393
100
AcDbEntity
  8
1_2
390
0
  6
CONTINUOUS
 62
     3
100
AcDbCircle
 10
48.541966
 20
68.197684
 30
0.0
 40
2.863405
100
AcDbArc
 50
79.602181
 51
80.764862
  0
ARC
  5
394
100
AcDbEntity
  8
1_2
390
0
  6
CONTINUOUS
 62
     3
100
AcDbCircle
 10
48.479277
 20
67.856025
 30
0.0
 40
3.210768
100
AcDbArc
 50
78.563482
 51
79.602233
  0
ARC
  5
395
100
AcDbEntity
  8
1_2
390
0
  6
CONTINUOUS
 62
     3
100
AcDbCircle
 10
48.385227
 20
67.392124
 30
0.0
 40
3.684106
100
AcDbArc
 50
77.523782
 51
78.560394
  0
ARC
  5
396
100
AcDbEntity
  8
1_2
390
0
  6
CONTINUOUS
 62
     3
100
AcDbCircle
 10
48.2169
 20
66.633999
 30
0.0
 40
4.460693
100
AcDbArc
 50
76.443972
 51
77.516438
  0
ARC
  5
397
100
AcDbEntity
  8
1_2
390
0
  6
CONTINUOUS
 62
     3
100
AcDbCircle
 10
41.573795
 20
41.037347
 30
0.0
 40
30.904768
100
AcDbArc
 50
74.570833
 51
75.594315
  0
ARC
  5
398
100
AcDbEntity
  8
1_2
390
0
  6
CONTINUOUS
 62
     3
100
AcDbCircle
 10
51.287504
 20
76.558254
 30
0.0
 40
5.920904
100
AcDbArc
 50
255.408867
 51
256.452247
  0
ARC
  5
399
100
AcDbEntity
  8
1_2
390
0
  6
CONTINUOUS
 62
     3
100
AcDbCircle
 10
50.912739
 20
75.007525
 30
0.0
 40
4.325533
100
AcDbArc
 50
256.466411
 51
257.559243
  0
ARC
  5
39A
100
AcDbEntity
  8
1_2
390
0
  6
CONTINUOUS
 62
     3
100
AcDbCircle
 10
50.745432
 20
74.251336
 30
0.0
 40
3.551057
100
AcDbArc
 50
257.566874
 51
258.626941
  0
ARC
  5
39B
100
AcDbEntity
  8
1_2
390
0
  6
CONTINUOUS
 62
     3
100
AcDbCircle
 10
50.652218
 20
73.788799
 30
0.0
 40
3.079221
100
AcDbArc
 50
258.630163
 51
259.695616
  0
ARC
  5
39C
100
AcDbEntity
  8
1_2
390
0
  6
CONTINUOUS
 62
     3
100
AcDbCircle
 10
50.594165
 20
73.47027
 30
0.0
 40
2.755445
100
AcDbArc
 50
259.698509
 51
260.715565
  0
ARC
  5
39D
100
AcDbEntity
  8
1_2
390
0
  6
CONTINUOUS
 62
     3
100
AcDbCircle
 10
50.554305
 20
73.226431
 30
0.0
 40
2.50837
100
AcDbArc
 50
260.715519
 51
261.829333
  0
ARC
  5
39E
100
AcDbEntity
  8
1_2
390
0
  6
CONTINUOUS
 62
     3
100
AcDbCircle
 10
50.526885
 20
73.036184
 30
0.0
 40
2.316157
100
AcDbArc
 50
261.831881
 51
262.834427
  0
ARC
  5
39F
100
AcDbEntity
  8
1_2
390
0
  6
CONTINUOUS
 62
     3
100
AcDbCircle
 10
50.507994
 20
72.885923
 30
0.0
 40
2.164713
100
AcDbArc
 50
262.834435
 51
263.904762
  0
ARC
  5
3A0
100
AcDbEntity
  8
1_2
390
0
  6
CONTINUOUS
 62
     3
100
AcDbCircle
 10
50.493896
 20
72.75391
 30
0.0
 40
2.031949
100
AcDbArc
 50
263.904791
 51
265.042844
  0
ARC
  5
3A1
100
AcDbEntity
  8
1_2
390
0
  6
CONTINUOUS
 62
     3
100
AcDbCircle
 10
50.483811
 20
72.637655
 30
0.0
 40
1.915258
100
AcDbArc
 50
265.042898
 51
266.248347
  0
ARC
  5
3A2
100
AcDbEntity
  8
1_2
390
0
  6
CONTINUOUS
 62
     3
100
AcDbCircle
 10
50.477658
 20
72.54484
 30
0.0
 40
1.822239
100
AcDbArc
 50
266.250456
 51
267.262915
  0
ARC
  5
3A3
100
AcDbEntity
  8
1_2
390
0
  6
CONTINUOUS
 62
     3
100
AcDbCircle
 10
50.474116
 20
72.470788
 30
0.0
 40
1.748102
100
AcDbArc
 50
267.26297
 51
268.317663
  0
ARC
  5
3A4
100
AcDbEntity
  8
1_2
390
0
  6
CONTINUOUS
 62
     3
100
AcDbCircle
 10
50.472151
 20
72.403967
 30
0.0
 40
1.681253
100
AcDbArc
 50
268.317733
 51
269.414003
  0
ARC
  5
3A5
100
AcDbEntity
  8
1_2
390
0
  6
CONTINUOUS
 62
     3
100
AcDbCircle
 10
50.471533
 20
72.343812
 30
0.0
 40
1.621095
100
AcDbArc
 50
269.414089
 51
270.551102
  0
ARC
  5
3A6
100
AcDbEntity
  8
1_2
390
0
  6
CONTINUOUS
 62
     3
100
AcDbCircle
 10
50.47205
 20
72.289844
 30
0.0
 40
1.567124
100
AcDbArc
 50
270.551205
 51
271.727936
  0
ARC
  5
3A7
100
AcDbEntity
  8
1_2
390
0
  6
CONTINUOUS
 62
     3
100
AcDbCircle
 10
50.47244
 20
72.271913
 30
0.0
 40
1.549189
100
AcDbArc
 50
271.733516
 51
272.924991
  0
ARC
  5
3A8
100
AcDbEntity
  8
1_2
390
0
  6
CONTINUOUS
 62
     3
100
AcDbCircle
 10
50.468671
 20
72.345508
 30
0.0
 40
1.622881
100
AcDbArc
 50
272.925287
 51
274.064187
  0
ARC
  5
3A9
100
AcDbEntity
  8
1_2
390
0
  6
CONTINUOUS
 62
     3
100
AcDbCircle
 10
50.462746
 20
72.428886
 30
0.0
 40
1.706469
100
AcDbArc
 50
274.064226
 51
275.149147
  0
ARC
  5
3AA
100
AcDbEntity
  8
1_2
390
0
  6
CONTINUOUS
 62
     3
100
AcDbCircle
 10
50.454378
 20
72.521738
 30
0.0
 40
1.799697
100
AcDbArc
 50
275.149169
 51
276.179892
  0
ARC
  5
3AB
100
AcDbEntity
  8
1_2
390
0
  6
CONTINUOUS
 62
     3
100
AcDbCircle
 10
50.441591
 20
72.638999
 30
0.0
 40
1.917653
100
AcDbArc
 50
276.182545
 51
277.394673
  0
ARC
  5
3AC
100
AcDbEntity
  8
1_2
390
0
  6
CONTINUOUS
 62
     3
100
AcDbCircle
 10
50.422313
 20
72.787549
 30
0.0
 40
2.067449
100
AcDbArc
 50
277.394658
 51
278.522311
  0
ARC
  5
3AD
100
AcDbEntity
  8
1_2
390
0
  6
CONTINUOUS
 62
     3
100
AcDbCircle
 10
50.396643
 20
72.958862
 30
0.0
 40
2.240674
100
AcDbArc
 50
278.522272
 51
279.566031
  0
ARC
  5
3AE
100
AcDbEntity
  8
1_2
390
0
  6
CONTINUOUS
 62
     3
100
AcDbCircle
 10
50.359345
 20
73.179381
 30
0.0
 40
2.464326
100
AcDbArc
 50
279.569118
 51
280.712034
  0
ARC
  5
3AF
100
AcDbEntity
  8
1_2
390
0
  6
CONTINUOUS
 62
     3
100
AcDbCircle
 10
50.30466
 20
73.468494
 30
0.0
 40
2.758565
100
AcDbArc
 50
280.711908
 51
281.736921
  0
ARC
  5
3B0
100
AcDbEntity
  8
1_2
390
0
  6
CONTINUOUS
 62
     3
100
AcDbCircle
 10
50.223498
 20
73.858215
 30
0.0
 40
3.156647
100
AcDbArc
 50
281.740338
 51
282.789707
  0
ARC
  5
3B1
100
AcDbEntity
  8
1_2
390
0
  6
CONTINUOUS
 62
     3
100
AcDbCircle
 10
50.077612
 20
74.49838
 30
0.0
 40
3.813224
100
AcDbArc
 50
282.797987
 51
283.920186
  0
ARC
  5
3B2
100
AcDbEntity
  8
1_2
390
0
  6
CONTINUOUS
 62
     3
100
AcDbCircle
 10
43.789049
 20
97.922098
 30
0.0
 40
28.065786
100
AcDbArc
 50
284.877349
 51
285.955945
  0
ARC
  5
3B3
100
AcDbEntity
  8
1_2
390
0
  6
CONTINUOUS
 62
     3
100
AcDbCircle
 10
52.862439
 20
65.877064
 30
0.0
 40
5.239613
100
AcDbArc
 50
104.017797
 51
105.023164
  0
ARC
  5
3B4
100
AcDbEntity
  8
1_2
390
0
  6
CONTINUOUS
 62
     3
100
AcDbCircle
 10
52.539971
 20
67.165957
 30
0.0
 40
3.910993
100
AcDbArc
 50
102.911023
 51
104.008044
  0
ARC
  5
3B5
100
AcDbEntity
  8
1_2
390
0
  6
CONTINUOUS
 62
     3
100
AcDbCircle
 10
52.38778
 20
67.827799
 30
0.0
 40
3.231879
100
AcDbArc
 50
101.874693
 51
102.902822
  0
ARC
  5
3B6
100
AcDbEntity
  8
1_2
390
0
  6
CONTINUOUS
 62
     3
100
AcDbCircle
 10
52.303254
 20
68.228976
 30
0.0
 40
2.821894
100
AcDbArc
 50
100.86581
 51
101.871314
  0
ARC
  5
3B7
100
AcDbEntity
  8
1_2
390
0
  6
CONTINUOUS
 62
     3
100
AcDbCircle
 10
52.246289
 20
68.525772
 30
0.0
 40
2.519681
100
AcDbArc
 50
99.743853
 51
100.865934
  0
ARC
  5
3B8
100
AcDbEntity
  8
1_2
390
0
  6
CONTINUOUS
 62
     3
100
AcDbCircle
 10
52.20736
 20
68.751756
 30
0.0
 40
2.290368
100
AcDbArc
 50
98.715499
 51
99.740815
  0
ARC
  5
3B9
100
AcDbEntity
  8
1_2
390
0
  6
CONTINUOUS
 62
     3
100
AcDbCircle
 10
52.180479
 20
68.927115
 30
0.0
 40
2.112961
100
AcDbArc
 50
97.607354
 51
98.715541
  0
ARC
  5
3BA
100
AcDbEntity
  8
1_2
390
0
  6
CONTINUOUS
 62
     3
100
AcDbCircle
 10
52.160185
 20
69.079063
 30
0.0
 40
1.959664
100
AcDbArc
 50
96.415764
 51
97.607372
  0
ARC
  5
3BB
100
AcDbEntity
  8
1_2
390
0
  6
CONTINUOUS
 62
     3
100
AcDbCircle
 10
52.146619
 20
69.198963
 30
0.0
 40
1.838998
100
AcDbArc
 50
95.39961
 51
96.413152
  0
ARC
  5
3BC
100
AcDbEntity
  8
1_2
390
0
  6
CONTINUOUS
 62
     3
100
AcDbCircle
 10
52.137643
 20
69.293918
 30
0.0
 40
1.743621
100
AcDbArc
 50
94.332511
 51
95.39959
  0
ARC
  5
3BD
100
AcDbEntity
  8
1_2
390
0
  6
CONTINUOUS
 62
     3
100
AcDbCircle
 10
52.131183
 20
69.379176
 30
0.0
 40
1.658118
100
AcDbArc
 50
93.212078
 51
94.332475
  0
ARC
  5
3BE
100
AcDbEntity
  8
1_2
390
0
  6
CONTINUOUS
 62
     3
100
AcDbCircle
 10
52.126884
 20
69.455735
 30
0.0
 40
1.581438
100
AcDbArc
 50
92.038717
 51
93.212022
  0
ARC
  5
3BF
100
AcDbEntity
  8
1_2
390
0
  6
CONTINUOUS
 62
     3
100
AcDbCircle
 10
52.124439
 20
69.524381
 30
0.0
 40
1.512749
100
AcDbArc
 50
90.813086
 51
92.03864
  0
ARC
  5
3C0
100
AcDbEntity
  8
1_2
390
0
  6
CONTINUOUS
 62
     3
100
AcDbCircle
 10
52.123565
 20
69.585797
 30
0.0
 40
1.451327
100
AcDbArc
 50
89.536088
 51
90.812984
  0
ARC
  5
3C1
100
AcDbEntity
  8
1_2
390
0
  6
CONTINUOUS
 62
     3
100
AcDbCircle
 10
52.123616
 20
69.611569
 30
0.0
 40
1.425555
100
AcDbArc
 50
88.229143
 51
89.529762
  0
ARC
  5
3C2
100
AcDbEntity
  8
1_2
390
0
  6
CONTINUOUS
 62
     3
100
AcDbCircle
 10
52.12169
 20
69.549577
 30
0.0
 40
1.487577
100
AcDbArc
 50
86.981501
 51
88.228771
  0
ARC
  5
3C3
100
AcDbEntity
  8
1_2
390
0
  6
CONTINUOUS
 62
     3
100
AcDbCircle
 10
52.117955
 20
69.478796
 30
0.0
 40
1.558457
100
AcDbArc
 50
85.789689
 51
86.981424
  0
ARC
  5
3C4
100
AcDbEntity
  8
1_2
390
0
  6
CONTINUOUS
 62
     3
100
AcDbCircle
 10
52.11213
 20
69.399685
 30
0.0
 40
1.637782
100
AcDbArc
 50
84.654058
 51
85.789634
  0
ARC
  5
3C5
100
AcDbEntity
  8
1_2
390
0
  6
CONTINUOUS
 62
     3
100
AcDbCircle
 10
52.103861
 20
69.311332
 30
0.0
 40
1.726521
100
AcDbArc
 50
83.57499
 51
84.654024
  0
ARC
  5
3C6
100
AcDbEntity
  8
1_2
390
0
  6
CONTINUOUS
 62
     3
100
AcDbCircle
 10
52.092747
 20
69.212643
 30
0.0
 40
1.825833
100
AcDbArc
 50
82.552637
 51
83.574973
  0
ARC
  5
3C7
100
AcDbEntity
  8
1_2
390
0
  6
CONTINUOUS
 62
     3
100
AcDbCircle
 10
52.076302
 20
69.087559
 30
0.0
 40
1.951994
100
AcDbArc
 50
81.351631
 51
82.54988
  0
ARC
  5
3C8
100
AcDbEntity
  8
1_2
390
0
  6
CONTINUOUS
 62
     3
100
AcDbCircle
 10
52.052074
 20
68.928261
 30
0.0
 40
2.113124
100
AcDbArc
 50
80.241537
 51
81.35166
  0
ARC
  5
3C9
100
AcDbEntity
  8
1_2
390
0
  6
CONTINUOUS
 62
     3
100
AcDbCircle
 10
52.020264
 20
68.74329
 30
0.0
 40
2.30081
100
AcDbArc
 50
79.21889
 51
80.241588
  0
ARC
  5
3CA
100
AcDbEntity
  8
1_2
390
0
  6
CONTINUOUS
 62
     3
100
AcDbCircle
 10
51.974373
 20
68.50305
 30
0.0
 40
2.545394
100
AcDbArc
 50
78.102564
 51
79.215699
  0
ARC
  5
3CB
100
AcDbEntity
  8
1_2
390
0
  6
CONTINUOUS
 62
     3
100
AcDbCircle
 10
51.900703
 20
68.154274
 30
0.0
 40
2.901865
100
AcDbArc
 50
76.955222
 51
78.098934
  0
ARC
  5
3CC
100
AcDbEntity
  8
1_2
390
0
  6
CONTINUOUS
 62
     3
100
AcDbCircle
 10
51.778474
 20
67.627788
 30
0.0
 40
3.442353
100
AcDbArc
 50
75.844503
 51
76.951229
  0
ARC
  5
3CD
100
AcDbEntity
  8
1_2
390
0
  6
CONTINUOUS
 62
     3
100
AcDbCircle
 10
51.545916
 20
66.708691
 30
0.0
 40
4.390416
100
AcDbArc
 50
74.745237
 51
75.83501
  0
ARC
  5
3CE
100
AcDbEntity
  8
1_2
390
0
  6
CONTINUOUS
 62
     3
100
AcDbCircle
 10
46.984609
 20
50.677844
 30
0.0
 40
21.057347
100
AcDbArc
 50
73.218442
 51
74.248133
  0
ARC
  5
3CF
100
AcDbEntity
  8
1_2
390
0
  6
CONTINUOUS
 62
     3
100
AcDbCircle
 10
55.002986
 20
77.458387
 30
0.0
 40
6.897995
100
AcDbArc
 50
253.677618
 51
254.722489
  0
ARC
  5
3D0
100
AcDbEntity
  8
1_2
390
0
  6
CONTINUOUS
 62
     3
100
AcDbCircle
 10
54.333597
 20
75.017116
 30
0.0
 40
4.366617
100
AcDbArc
 50
254.754937
 51
255.849429
  0
ARC
  5
3D1
100
AcDbEntity
  8
1_2
390
0
  6
CONTINUOUS
 62
     3
100
AcDbCircle
 10
54.102374
 20
74.102336
 30
0.0
 40
3.423067
100
AcDbArc
 50
255.858957
 51
256.97036
  0
ARC
  5
3D2
100
AcDbEntity
  8
1_2
390
0
  6
CONTINUOUS
 62
     3
100
AcDbCircle
 10
53.980805
 20
73.577899
 30
0.0
 40
2.884725
100
AcDbArc
 50
256.974372
 51
258.122994
  0
ARC
  5
3D3
100
AcDbEntity
  8
1_2
390
0
  6
CONTINUOUS
 62
     3
100
AcDbCircle
 10
53.907549
 20
73.230363
 30
0.0
 40
2.529551
100
AcDbArc
 50
258.126643
 51
259.244683
  0
ARC
  5
3D4
100
AcDbEntity
  8
1_2
390
0
  6
CONTINUOUS
 62
     3
100
AcDbCircle
 10
53.861938
 20
72.990929
 30
0.0
 40
2.285812
100
AcDbArc
 50
259.247895
 51
260.275228
  0
ARC
  5
3D5
100
AcDbEntity
  8
1_2
390
0
  6
CONTINUOUS
 62
     3
100
AcDbCircle
 10
53.830345
 20
72.806571
 30
0.0
 40
2.098766
100
AcDbArc
 50
260.275177
 51
261.390468
  0
ARC
  5
3D6
100
AcDbEntity
  8
1_2
390
0
  6
CONTINUOUS
 62
     3
100
AcDbCircle
 10
53.806304
 20
72.64778
 30
0.0
 40
1.938165
100
AcDbArc
 50
261.39044
 51
262.594436
  0
ARC
  5
3D7
100
AcDbEntity
  8
1_2
390
0
  6
CONTINUOUS
 62
     3
100
AcDbCircle
 10
53.790009
 20
72.523097
 30
0.0
 40
1.812423
100
AcDbArc
 50
262.597214
 51
263.624587
  0
ARC
  5
3D8
100
AcDbEntity
  8
1_2
390
0
  6
CONTINUOUS
 62
     3
100
AcDbCircle
 10
53.77902
 20
72.424744
 30
0.0
 40
1.713458
100
AcDbArc
 50
263.624602
 51
264.70907
  0
ARC
  5
3D9
100
AcDbEntity
  8
1_2
390
0
  6
CONTINUOUS
 62
     3
100
AcDbCircle
 10
53.770865
 20
72.3367
 30
0.0
 40
1.625037
100
AcDbArc
 50
264.709106
 51
265.850521
  0
ARC
  5
3DA
100
AcDbEntity
  8
1_2
390
0
  6
CONTINUOUS
 62
     3
100
AcDbCircle
 10
53.765144
 20
72.257862
 30
0.0
 40
1.545991
100
AcDbArc
 50
265.850577
 51
267.048574
  0
ARC
  5
3DB
100
AcDbEntity
  8
1_2
390
0
  6
CONTINUOUS
 62
     3
100
AcDbCircle
 10
53.761507
 20
72.187356
 30
0.0
 40
1.475391
100
AcDbArc
 50
267.048652
 51
268.302592
  0
ARC
  5
3DC
100
AcDbEntity
  8
1_2
390
0
  6
CONTINUOUS
 62
     3
100
AcDbCircle
 10
53.759639
 20
72.124427
 30
0.0
 40
1.412435
100
AcDbArc
 50
268.302696
 51
269.611664
  0
ARC
  5
3DD
100
AcDbEntity
  8
1_2
390
0
  6
CONTINUOUS
 62
     3
100
AcDbCircle
 10
53.759294
 20
72.088634
 30
0.0
 40
1.37664
100
AcDbArc
 50
269.615947
 51
269.951637
  0
ARC
  5
3DE
100
AcDbEntity
  8
1_2
390
0
  6
CONTINUOUS
 62
     3
100
AcDbCircle
 10
48.788625
 20
66.672272
 30
0.0
 40
3.128108
100
AcDbArc
 50
118.198756
 51
118.355442
  0
ARC
  5
3DF
100
AcDbEntity
  8
1_2
390
0
  6
CONTINUOUS
 62
     3
100
AcDbCircle
 10
48.781717
 20
66.685243
 30
0.0
 40
3.113411
100
AcDbArc
 50
117.098868
 51
118.199501
  0
ARC
  5
3E0
100
AcDbEntity
  8
1_2
390
0
  6
CONTINUOUS
 62
     3
100
AcDbCircle
 10
48.769648
 20
66.708832
 30
0.0
 40
3.086914
100
AcDbArc
 50
115.991196
 51
117.098899
  0
ARC
  5
3E1
100
AcDbEntity
  8
1_2
390
0
  6
CONTINUOUS
 62
     3
100
AcDbCircle
 10
48.757607
 20
66.733534
 30
0.0
 40
3.059434
100
AcDbArc
 50
114.875977
 51
115.991226
  0
ARC
  5
3E2
100
AcDbEntity
  8
1_2
390
0
  6
CONTINUOUS
 62
     3
100
AcDbCircle
 10
48.745673
 20
66.759274
 30
0.0
 40
3.031062
100
AcDbArc
 50
113.752742
 51
114.876006
  0
ARC
  5
3E3
100
AcDbEntity
  8
1_2
390
0
  6
CONTINUOUS
 62
     3
100
AcDbCircle
 10
48.733922
 20
66.785981
 30
0.0
 40
3.001885
100
AcDbArc
 50
112.621028
 51
113.75277
  0
ARC
  5
3E4
100
AcDbEntity
  8
1_2
390
0
  6
CONTINUOUS
 62
     3
100
AcDbCircle
 10
48.722428
 20
66.813569
 30
0.0
 40
2.971998
100
AcDbArc
 50
111.480382
 51
112.621056
  0
ARC
  5
3E5
100
AcDbEntity
  8
1_2
390
0
  6
CONTINUOUS
 62
     3
100
AcDbCircle
 10
48.711262
 20
66.841947
 30
0.0
 40
2.941501
100
AcDbArc
 50
110.330362
 51
111.480409
  0
ARC
  5
3E6
100
AcDbEntity
  8
1_2
390
0
  6
CONTINUOUS
 62
     3
100
AcDbCircle
 10
48.70049
 20
66.871024
 30
0.0
 40
2.910494
100
AcDbArc
 50
109.170534
 51
110.330387
  0
ARC
  5
3E7
100
AcDbEntity
  8
1_2
390
0
  6
CONTINUOUS
 62
     3
100
AcDbCircle
 10
48.690905
 20
66.898555
 30
0.0
 40
2.881342
100
AcDbArc
 50
108.167993
 51
109.170274
  0
ARC
  5
3E8
100
AcDbEntity
  8
1_2
390
0
  6
CONTINUOUS
 62
     3
100
AcDbCircle
 10
48.68244
 20
66.924351
 30
0.0
 40
2.854192
100
AcDbArc
 50
107.157963
 51
108.168006
  0
ARC
  5
3E9
100
AcDbEntity
  8
1_2
390
0
  6
CONTINUOUS
 62
     3
100
AcDbCircle
 10
48.674386
 20
66.950442
 30
0.0
 40
2.826887
100
AcDbArc
 50
106.139926
 51
107.157975
  0
ARC
  5
3EA
100
AcDbEntity
  8
1_2
390
0
  6
CONTINUOUS
 62
     3
100
AcDbCircle
 10
48.666772
 20
66.976754
 30
0.0
 40
2.799495
100
AcDbArc
 50
105.113651
 51
106.139938
  0
ARC
  5
3EB
100
AcDbEntity
  8
1_2
390
0
  6
CONTINUOUS
 62
     3
100
AcDbCircle
 10
48.659626
 20
67.003215
 30
0.0
 40
2.772086
100
AcDbArc
 50
104.078917
 51
105.113661
  0
ARC
  5
3EC
100
AcDbEntity
  8
1_2
390
0
  6
CONTINUOUS
 62
     3
100
AcDbCircle
 10
48.652972
 20
67.029748
 30
0.0
 40
2.744731
100
AcDbArc
 50
103.035518
 51
104.078926
  0
ARC
  5
3ED
100
AcDbEntity
  8
1_2
390
0
  6
CONTINUOUS
 62
     3
100
AcDbCircle
 10
48.64683
 20
67.056278
 30
0.0
 40
2.7175
100
AcDbArc
 50
101.983262
 51
103.035526
  0
ARC
  5
3EE
100
AcDbEntity
  8
1_2
390
0
  6
CONTINUOUS
 62
     3
100
AcDbCircle
 10
48.641217
 20
67.082725
 30
0.0
 40
2.690464
100
AcDbArc
 50
100.921972
 51
101.983268
  0
ARC
  5
3EF
100
AcDbEntity
  8
1_2
390
0
  6
CONTINUOUS
 62
     3
100
AcDbCircle
 10
48.636145
 20
67.109011
 30
0.0
 40
2.663693
100
AcDbArc
 50
99.851489
 51
100.921976
  0
ARC
  5
3F0
100
AcDbEntity
  8
1_2
390
0
  6
CONTINUOUS
 62
     3
100
AcDbCircle
 10
48.631622
 20
67.135056
 30
0.0
 40
2.637258
100
AcDbArc
 50
98.771674
 51
99.851492
  0
ARC
  5
3F1
100
AcDbEntity
  8
1_2
390
0
  6
CONTINUOUS
 62
     3
100
AcDbCircle
 10
48.627653
 20
67.16078
 30
0.0
 40
2.611229
100
AcDbArc
 50
97.682406
 51
98.771675
  0
ARC
  5
3F2
100
AcDbEntity
  8
1_2
390
0
  6
CONTINUOUS
 62
     3
100
AcDbCircle
 10
48.624237
 20
67.186104
 30
0.0
 40
2.585676
100
AcDbArc
 50
96.583586
 51
97.682405
  0
ARC
  5
3F3
100
AcDbEntity
  8
1_2
390
0
  6
CONTINUOUS
 62
     3
100
AcDbCircle
 10
48.621369
 20
67.210948
 30
0.0
 40
2.560667
100
AcDbArc
 50
95.475139
 51
96.583583
  0
ARC
  5
3F4
100
AcDbEntity
  8
1_2
390
0
  6
CONTINUOUS
 62
     3
100
AcDbCircle
 10
48.619041
 20
67.235233
 30
0.0
 40
2.536271
100
AcDbArc
 50
94.357013
 51
95.475133
  0
ARC
  5
3F5
100
AcDbEntity
  8
1_2
390
0
  6
CONTINUOUS
 62
     3
100
AcDbCircle
 10
48.617239
 20
67.25888
 30
0.0
 40
2.512556
100
AcDbArc
 50
93.229182
 51
94.357004
  0
ARC
  5
3F6
100
AcDbEntity
  8
1_2
390
0
  6
CONTINUOUS
 62
     3
100
AcDbCircle
 10
48.615945
 20
67.281812
 30
0.0
 40
2.489587
100
AcDbArc
 50
92.091649
 51
93.229171
  0
ARC
  5
3F7
100
AcDbEntity
  8
1_2
390
0
  6
CONTINUOUS
 62
     3
100
AcDbCircle
 10
48.615136
 20
67.303955
 30
0.0
 40
2.46743
100
AcDbArc
 50
90.944443
 51
92.091635
  0
ARC
  5
3F8
100
AcDbEntity
  8
1_2
390
0
  6
CONTINUOUS
 62
     3
100
AcDbCircle
 10
48.614784
 20
67.325229
 30
0.0
 40
2.446152
100
AcDbArc
 50
89.787628
 51
90.944427
  0
ARC
  5
3F9
100
AcDbEntity
  8
1_2
390
0
  6
CONTINUOUS
 62
     3
100
AcDbCircle
 10
48.614859
 20
67.345567
 30
0.0
 40
2.425814
100
AcDbArc
 50
88.621292
 51
89.787609
  0
ARC
  5
3FA
100
AcDbEntity
  8
1_2
390
0
  6
CONTINUOUS
 62
     3
100
AcDbCircle
 10
48.615323
 20
67.364893
 30
0.0
 40
2.406482
100
AcDbArc
 50
87.445564
 51
88.62127
  0
ARC
  5
3FB
100
AcDbEntity
  8
1_2
390
0
  6
CONTINUOUS
 62
     3
100
AcDbCircle
 10
48.616136
 20
67.383143
 30
0.0
 40
2.388215
100
AcDbArc
 50
86.260599
 51
87.445539
  0
ARC
  5
3FC
100
AcDbEntity
  8
1_2
390
0
  6
CONTINUOUS
 62
     3
100
AcDbCircle
 10
48.617253
 20
67.400245
 30
0.0
 40
2.371076
100
AcDbArc
 50
85.066592
 51
86.260571
  0
ARC
  5
3FD
100
AcDbEntity
  8
1_2
390
0
  6
CONTINUOUS
 62
     3
100
AcDbCircle
 10
48.618505
 20
67.414867
 30
0.0
 40
2.3564
100
AcDbArc
 50
84.064641
 51
85.066362
  0
ARC
  5
3FE
100
AcDbEntity
  8
1_2
390
0
  6
CONTINUOUS
 62
     3
100
AcDbCircle
 10
48.61979
 20
67.427232
 30
0.0
 40
2.343969
100
AcDbArc
 50
83.056933
 51
84.064621
  0
ARC
  5
3FF
100
AcDbEntity
  8
1_2
390
0
  6
CONTINUOUS
 62
     3
100
AcDbCircle
 10
48.613056
 20
67.374354
 30
0.0
 40
2.397273
100
AcDbArc
 50
81.863479
 51
83.049931
  0
ARC
  5
400
100
AcDbEntity
  8
1_2
390
0
  6
CONTINUOUS
 62
     3
100
AcDbCircle
 10
48.584319
 20
67.173388
 30
0.0
 40
2.600283
100
AcDbArc
 50
80.767648
 51
81.863379
  0
ARC
  5
401
100
AcDbEntity
  8
1_2
390
0
  6
CONTINUOUS
 62
     3
100
AcDbCircle
 10
48.541966
 20
66.913698
 30
0.0
 40
2.863405
100
AcDbArc
 50
79.602181
 51
80.764862
  0
ARC
  5
402
100
AcDbEntity
  8
1_2
390
0
  6
CONTINUOUS
 62
     3
100
AcDbCircle
 10
48.479277
 20
66.572038
 30
0.0
 40
3.210768
100
AcDbArc
 50
78.563482
 51
79.602233
  0
ARC
  5
403
100
AcDbEntity
  8
1_2
390
0
  6
CONTINUOUS
 62
     3
100
AcDbCircle
 10
48.385227
 20
66.108137
 30
0.0
 40
3.684106
100
AcDbArc
 50
77.523782
 51
78.560394
  0
ARC
  5
404
100
AcDbEntity
  8
1_2
390
0
  6
CONTINUOUS
 62
     3
100
AcDbCircle
 10
48.2169
 20
65.350012
 30
0.0
 40
4.460693
100
AcDbArc
 50
76.443972
 51
77.516438
  0
ARC
  5
405
100
AcDbEntity
  8
1_2
390
0
  6
CONTINUOUS
 62
     3
100
AcDbCircle
 10
41.573795
 20
39.753361
 30
0.0
 40
30.904768
100
AcDbArc
 50
74.570833
 51
75.594315
  0
ARC
  5
406
100
AcDbEntity
  8
1_2
390
0
  6
CONTINUOUS
 62
     3
100
AcDbCircle
 10
51.287504
 20
75.274268
 30
0.0
 40
5.920904
100
AcDbArc
 50
255.408867
 51
256.452247
  0
ARC
  5
407
100
AcDbEntity
  8
1_2
390
0
  6
CONTINUOUS
 62
     3
100
AcDbCircle
 10
50.912739
 20
73.723538
 30
0.0
 40
4.325533
100
AcDbArc
 50
256.466411
 51
257.559243
  0
ARC
  5
408
100
AcDbEntity
  8
1_2
390
0
  6
CONTINUOUS
 62
     3
100
AcDbCircle
 10
50.745432
 20
72.96735
 30
0.0
 40
3.551057
100
AcDbArc
 50
257.566874
 51
258.626941
  0
ARC
  5
409
100
AcDbEntity
  8
1_2
390
0
  6
CONTINUOUS
 62
     3
100
AcDbCircle
 10
50.652218
 20
72.504813
 30
0.0
 40
3.079221
100
AcDbArc
 50
258.630163
 51
259.695616
  0
ARC
  5
40A
100
AcDbEntity
  8
1_2
390
0
  6
CONTINUOUS
 62
     3
100
AcDbCircle
 10
50.594165
 20
72.186284
 30
0.0
 40
2.755445
100
AcDbArc
 50
259.698509
 51
260.715565
  0
ARC
  5
40B
100
AcDbEntity
  8
1_2
390
0
  6
CONTINUOUS
 62
     3
100
AcDbCircle
 10
50.554305
 20
71.942445
 30
0.0
 40
2.50837
100
AcDbArc
 50
260.715519
 51
261.829333
  0
ARC
  5
40C
100
AcDbEntity
  8
1_2
390
0
  6
CONTINUOUS
 62
     3
100
AcDbCircle
 10
50.526885
 20
71.752198
 30
0.0
 40
2.316157
100
AcDbArc
 50
261.831881
 51
262.834427
  0
ARC
  5
40D
100
AcDbEntity
  8
1_2
390
0
  6
CONTINUOUS
 62
     3
100
AcDbCircle
 10
50.507994
 20
71.601936
 30
0.0
 40
2.164713
100
AcDbArc
 50
262.834435
 51
263.904762
  0
ARC
  5
40E
100
AcDbEntity
  8
1_2
390
0
  6
CONTINUOUS
 62
     3
100
AcDbCircle
 10
50.493896
 20
71.469924
 30
0.0
 40
2.031949
100
AcDbArc
 50
263.904791
 51
265.042844
  0
ARC
  5
40F
100
AcDbEntity
  8
1_2
390
0
  6
CONTINUOUS
 62
     3
100
AcDbCircle
 10
50.483811
 20
71.353669
 30
0.0
 40
1.915258
100
AcDbArc
 50
265.042898
 51
266.248347
  0
ARC
  5
410
100
AcDbEntity
  8
1_2
390
0
  6
CONTINUOUS
 62
     3
100
AcDbCircle
 10
50.477658
 20
71.260854
 30
0.0
 40
1.822239
100
AcDbArc
 50
266.250456
 51
267.262915
  0
ARC
  5
411
100
AcDbEntity
  8
1_2
390
0
  6
CONTINUOUS
 62
     3
100
AcDbCircle
 10
50.474116
 20
71.186802
 30
0.0
 40
1.748102
100
AcDbArc
 50
267.26297
 51
268.317663
  0
ARC
  5
412
100
AcDbEntity
  8
1_2
390
0
  6
CONTINUOUS
 62
     3
100
AcDbCircle
 10
50.472151
 20
71.119981
 30
0.0
 40
1.681253
100
AcDbArc
 50
268.317733
 51
269.414003
  0
ARC
  5
413
100
AcDbEntity
  8
1_2
390
0
  6
CONTINUOUS
 62
     3
100
AcDbCircle
 10
50.471533
 20
71.059826
 30
0.0
 40
1.621095
100
AcDbArc
 50
269.414089
 51
270.551102
  0
ARC
  5
414
100
AcDbEntity
  8
1_2
390
0
  6
CONTINUOUS
 62
     3
100
AcDbCircle
 10
50.47205
 20
71.005858
 30
0.0
 40
1.567124
100
AcDbArc
 50
270.551205
 51
271.727936
  0
ARC
  5
415
100
AcDbEntity
  8
1_2
390
0
  6
CONTINUOUS
 62
     3
100
AcDbCircle
 10
50.47244
 20
70.987927
 30
0.0
 40
1.549189
100
AcDbArc
 50
271.733516
 51
272.924991
  0
ARC
  5
416
100
AcDbEntity
  8
1_2
390
0
  6
CONTINUOUS
 62
     3
100
AcDbCircle
 10
50.468671
 20
71.061522
 30
0.0
 40
1.622881
100
AcDbArc
 50
272.925287
 51
274.064187
  0
ARC
  5
417
100
AcDbEntity
  8
1_2
390
0
  6
CONTINUOUS
 62
     3
100
AcDbCircle
 10
50.462746
 20
71.144899
 30
0.0
 40
1.706469
100
AcDbArc
 50
274.064226
 51
275.149147
  0
ARC
  5
418
100
AcDbEntity
  8
1_2
390
0
  6
CONTINUOUS
 62
     3
100
AcDbCircle
 10
50.454378
 20
71.237752
 30
0.0
 40
1.799697
100
AcDbArc
 50
275.149169
 51
276.179892
  0
ARC
  5
419
100
AcDbEntity
  8
1_2
390
0
  6
CONTINUOUS
 62
     3
100
AcDbCircle
 10
50.441591
 20
71.355012
 30
0.0
 40
1.917653
100
AcDbArc
 50
276.182545
 51
277.394673
  0
ARC
  5
41A
100
AcDbEntity
  8
1_2
390
0
  6
CONTINUOUS
 62
     3
100
AcDbCircle
 10
50.422313
 20
71.503563
 30
0.0
 40
2.067449
100
AcDbArc
 50
277.394658
 51
278.522311
  0
ARC
  5
41B
100
AcDbEntity
  8
1_2
390
0
  6
CONTINUOUS
 62
     3
100
AcDbCircle
 10
50.396643
 20
71.674875
 30
0.0
 40
2.240674
100
AcDbArc
 50
278.522272
 51
279.566031
  0
ARC
  5
41C
100
AcDbEntity
  8
1_2
390
0
  6
CONTINUOUS
 62
     3
100
AcDbCircle
 10
50.359345
 20
71.895395
 30
0.0
 40
2.464326
100
AcDbArc
 50
279.569118
 51
280.712034
  0
ARC
  5
41D
100
AcDbEntity
  8
1_2
390
0
  6
CONTINUOUS
 62
     3
100
AcDbCircle
 10
50.30466
 20
72.184508
 30
0.0
 40
2.758565
100
AcDbArc
 50
280.711908
 51
281.736921
  0
ARC
  5
41E
100
AcDbEntity
  8
1_2
390
0
  6
CONTINUOUS
 62
     3
100
AcDbCircle
 10
50.223498
 20
72.574229
 30
0.0
 40
3.156647
100
AcDbArc
 50
281.740338
 51
282.789707
  0
ARC
  5
41F
100
AcDbEntity
  8
1_2
390
0
  6
CONTINUOUS
 62
     3
100
AcDbCircle
 10
50.077612
 20
73.214393
 30
0.0
 40
3.813224
100
AcDbArc
 50
282.797987
 51
283.920186
  0
ARC
  5
420
100
AcDbEntity
  8
1_2
390
0
  6
CONTINUOUS
 62
     3
100
AcDbCircle
 10
43.789049
 20
96.638112
 30
0.0
 40
28.065786
100
AcDbArc
 50
284.877349
 51
285.955945
  0
ARC
  5
421
100
AcDbEntity
  8
1_2
390
0
  6
CONTINUOUS
 62
     3
100
AcDbCircle
 10
52.862439
 20
64.593078
 30
0.0
 40
5.239613
100
AcDbArc
 50
104.017797
 51
105.023164
  0
ARC
  5
422
100
AcDbEntity
  8
1_2
390
0
  6
CONTINUOUS
 62
     3
100
AcDbCircle
 10
52.539971
 20
65.881971
 30
0.0
 40
3.910993
100
AcDbArc
 50
102.911023
 51
104.008044
  0
ARC
  5
423
100
AcDbEntity
  8
1_2
390
0
  6
CONTINUOUS
 62
     3
100
AcDbCircle
 10
52.38778
 20
66.543812
 30
0.0
 40
3.231879
100
AcDbArc
 50
101.874693
 51
102.902822
  0
ARC
  5
424
100
AcDbEntity
  8
1_2
390
0
  6
CONTINUOUS
 62
     3
100
AcDbCircle
 10
52.303254
 20
66.94499
 30
0.0
 40
2.821894
100
AcDbArc
 50
100.86581
 51
101.871314
  0
ARC
  5
425
100
AcDbEntity
  8
1_2
390
0
  6
CONTINUOUS
 62
     3
100
AcDbCircle
 10
52.246289
 20
67.241786
 30
0.0
 40
2.519681
100
AcDbArc
 50
99.743853
 51
100.865934
  0
ARC
  5
426
100
AcDbEntity
  8
1_2
390
0
  6
CONTINUOUS
 62
     3
100
AcDbCircle
 10
52.20736
 20
67.467769
 30
0.0
 40
2.290368
100
AcDbArc
 50
98.715499
 51
99.740815
  0
ARC
  5
427
100
AcDbEntity
  8
1_2
390
0
  6
CONTINUOUS
 62
     3
100
AcDbCircle
 10
52.180479
 20
67.643129
 30
0.0
 40
2.112961
100
AcDbArc
 50
97.607354
 51
98.715541
  0
ARC
  5
428
100
AcDbEntity
  8
1_2
390
0
  6
CONTINUOUS
 62
     3
100
AcDbCircle
 10
52.160185
 20
67.795077
 30
0.0
 40
1.959664
100
AcDbArc
 50
96.415764
 51
97.607372
  0
ARC
  5
429
100
AcDbEntity
  8
1_2
390
0
  6
CONTINUOUS
 62
     3
100
AcDbCircle
 10
52.146619
 20
67.914977
 30
0.0
 40
1.838998
100
AcDbArc
 50
95.39961
 51
96.413152
  0
ARC
  5
42A
100
AcDbEntity
  8
1_2
390
0
  6
CONTINUOUS
 62
     3
100
AcDbCircle
 10
52.137643
 20
68.009931
 30
0.0
 40
1.743621
100
AcDbArc
 50
94.332511
 51
95.39959
  0
ARC
  5
42B
100
AcDbEntity
  8
1_2
390
0
  6
CONTINUOUS
 62
     3
100
AcDbCircle
 10
52.131183
 20
68.095189
 30
0.0
 40
1.658118
100
AcDbArc
 50
93.212078
 51
94.332475
  0
ARC
  5
42C
100
AcDbEntity
  8
1_2
390
0
  6
CONTINUOUS
 62
     3
100
AcDbCircle
 10
52.126884
 20
68.171749
 30
0.0
 40
1.581438
100
AcDbArc
 50
92.038717
 51
93.212022
  0
ARC
  5
42D
100
AcDbEntity
  8
1_2
390
0
  6
CONTINUOUS
 62
     3
100
AcDbCircle
 10
52.124439
 20
68.240394
 30
0.0
 40
1.512749
100
AcDbArc
 50
90.813086
 51
92.03864
  0
ARC
  5
42E
100
AcDbEntity
  8
1_2
390
0
  6
CONTINUOUS
 62
     3
100
AcDbCircle
 10
52.123565
 20
68.30181
 30
0.0
 40
1.451327
100
AcDbArc
 50
89.536088
 51
90.812984
  0
ARC
  5
42F
100
AcDbEntity
  8
1_2
390
0
  6
CONTINUOUS
 62
     3
100
AcDbCircle
 10
52.123616
 20
68.327583
 30
0.0
 40
1.425555
100
AcDbArc
 50
88.229143
 51
89.529762
  0
ARC
  5
430
100
AcDbEntity
  8
1_2
390
0
  6
CONTINUOUS
 62
     3
100
AcDbCircle
 10
52.12169
 20
68.265591
 30
0.0
 40
1.487577
100
AcDbArc
 50
86.981501
 51
88.228771
  0
ARC
  5
431
100
AcDbEntity
  8
1_2
390
0
  6
CONTINUOUS
 62
     3
100
AcDbCircle
 10
52.117955
 20
68.194809
 30
0.0
 40
1.558457
100
AcDbArc
 50
85.789689
 51
86.981424
  0
ARC
  5
432
100
AcDbEntity
  8
1_2
390
0
  6
CONTINUOUS
 62
     3
100
AcDbCircle
 10
52.11213
 20
68.115698
 30
0.0
 40
1.637782
100
AcDbArc
 50
84.654058
 51
85.789634
  0
ARC
  5
433
100
AcDbEntity
  8
1_2
390
0
  6
CONTINUOUS
 62
     3
100
AcDbCircle
 10
52.103861
 20
68.027345
 30
0.0
 40
1.726521
100
AcDbArc
 50
83.57499
 51
84.654024
  0
ARC
  5
434
100
AcDbEntity
  8
1_2
390
0
  6
CONTINUOUS
 62
     3
100
AcDbCircle
 10
52.092747
 20
67.928657
 30
0.0
 40
1.825833
100
AcDbArc
 50
82.552637
 51
83.574973
  0
ARC
  5
435
100
AcDbEntity
  8
1_2
390
0
  6
CONTINUOUS
 62
     3
100
AcDbCircle
 10
52.076302
 20
67.803572
 30
0.0
 40
1.951994
100
AcDbArc
 50
81.351631
 51
82.54988
  0
ARC
  5
436
100
AcDbEntity
  8
1_2
390
0
  6
CONTINUOUS
 62
     3
100
AcDbCircle
 10
52.052074
 20
67.644274
 30
0.0
 40
2.113124
100
AcDbArc
 50
80.241537
 51
81.35166
  0
ARC
  5
437
100
AcDbEntity
  8
1_2
390
0
  6
CONTINUOUS
 62
     3
100
AcDbCircle
 10
52.020264
 20
67.459304
 30
0.0
 40
2.30081
100
AcDbArc
 50
79.21889
 51
80.241588
  0
ARC
  5
438
100
AcDbEntity
  8
1_2
390
0
  6
CONTINUOUS
 62
     3
100
AcDbCircle
 10
51.974373
 20
67.219064
 30
0.0
 40
2.545394
100
AcDbArc
 50
78.102564
 51
79.215699
  0
ARC
  5
439
100
AcDbEntity
  8
1_2
390
0
  6
CONTINUOUS
 62
     3
100
AcDbCircle
 10
51.900703
 20
66.870288
 30
0.0
 40
2.901865
100
AcDbArc
 50
76.955222
 51
78.098934
  0
ARC
  5
43A
100
AcDbEntity
  8
1_2
390
0
  6
CONTINUOUS
 62
     3
100
AcDbCircle
 10
51.778474
 20
66.343802
 30
0.0
 40
3.442353
100
AcDbArc
 50
75.844503
 51
76.951229
  0
ARC
  5
43B
100
AcDbEntity
  8
1_2
390
0
  6
CONTINUOUS
 62
     3
100
AcDbCircle
 10
51.545916
 20
65.424704
 30
0.0
 40
4.390416
100
AcDbArc
 50
74.745237
 51
75.83501
  0
ARC
  5
43C
100
AcDbEntity
  8
1_2
390
0
  6
CONTINUOUS
 62
     3
100
AcDbCircle
 10
46.984609
 20
49.393858
 30
0.0
 40
21.057347
100
AcDbArc
 50
73.218442
 51
74.248133
  0
ARC
  5
43D
100
AcDbEntity
  8
1_2
390
0
  6
CONTINUOUS
 62
     3
100
AcDbCircle
 10
55.002986
 20
76.1744
 30
0.0
 40
6.897995
100
AcDbArc
 50
253.677618
 51
254.722489
  0
ARC
  5
43E
100
AcDbEntity
  8
1_2
390
0
  6
CONTINUOUS
 62
     3
100
AcDbCircle
 10
54.333597
 20
73.73313
 30
0.0
 40
4.366617
100
AcDbArc
 50
254.754937
 51
255.849429
  0
ARC
  5
43F
100
AcDbEntity
  8
1_2
390
0
  6
CONTINUOUS
 62
     3
100
AcDbCircle
 10
54.102374
 20
72.81835
 30
0.0
 40
3.423067
100
AcDbArc
 50
255.858957
 51
256.97036
  0
ARC
  5
440
100
AcDbEntity
  8
1_2
390
0
  6
CONTINUOUS
 62
     3
100
AcDbCircle
 10
53.980805
 20
72.293913
 30
0.0
 40
2.884725
100
AcDbArc
 50
256.974372
 51
258.122994
  0
ARC
  5
441
100
AcDbEntity
  8
1_2
390
0
  6
CONTINUOUS
 62
     3
100
AcDbCircle
 10
53.907549
 20
71.946376
 30
0.0
 40
2.529551
100
AcDbArc
 50
258.126643
 51
259.244683
  0
ARC
  5
442
100
AcDbEntity
  8
1_2
390
0
  6
CONTINUOUS
 62
     3
100
AcDbCircle
 10
53.861938
 20
71.706943
 30
0.0
 40
2.285812
100
AcDbArc
 50
259.247895
 51
260.275228
  0
ARC
  5
443
100
AcDbEntity
  8
1_2
390
0
  6
CONTINUOUS
 62
     3
100
AcDbCircle
 10
53.830345
 20
71.522584
 30
0.0
 40
2.098766
100
AcDbArc
 50
260.275177
 51
261.390468
  0
ARC
  5
444
100
AcDbEntity
  8
1_2
390
0
  6
CONTINUOUS
 62
     3
100
AcDbCircle
 10
53.806304
 20
71.363793
 30
0.0
 40
1.938165
100
AcDbArc
 50
261.39044
 51
262.594436
  0
ARC
  5
445
100
AcDbEntity
  8
1_2
390
0
  6
CONTINUOUS
 62
     3
100
AcDbCircle
 10
53.790009
 20
71.239111
 30
0.0
 40
1.812423
100
AcDbArc
 50
262.597214
 51
263.624587
  0
ARC
  5
446
100
AcDbEntity
  8
1_2
390
0
  6
CONTINUOUS
 62
     3
100
AcDbCircle
 10
53.77902
 20
71.140758
 30
0.0
 40
1.713458
100
AcDbArc
 50
263.624602
 51
264.70907
  0
ARC
  5
447
100
AcDbEntity
  8
1_2
390
0
  6
CONTINUOUS
 62
     3
100
AcDbCircle
 10
53.770865
 20
71.052714
 30
0.0
 40
1.625037
100
AcDbArc
 50
264.709106
 51
265.850521
  0
ARC
  5
448
100
AcDbEntity
  8
1_2
390
0
  6
CONTINUOUS
 62
     3
100
AcDbCircle
 10
53.765144
 20
70.973875
 30
0.0
 40
1.545991
100
AcDbArc
 50
265.850577
 51
267.048574
  0
ARC
  5
449
100
AcDbEntity
  8
1_2
390
0
  6
CONTINUOUS
 62
     3
100
AcDbCircle
 10
53.761507
 20
70.903369
 30
0.0
 40
1.475391
100
AcDbArc
 50
267.048652
 51
268.302592
  0
ARC
  5
44A
100
AcDbEntity
  8
1_2
390
0
  6
CONTINUOUS
 62
     3
100
AcDbCircle
 10
53.759639
 20
70.840441
 30
0.0
 40
1.412435
100
AcDbArc
 50
268.302696
 51
269.611664
  0
ARC
  5
44B
100
AcDbEntity
  8
1_2
390
0
  6
CONTINUOUS
 62
     3
100
AcDbCircle
 10
53.759294
 20
70.804647
 30
0.0
 40
1.37664
100
AcDbArc
 50
269.615947
 51
269.951637
  0
LINE
  5
44C
100
AcDbEntity
  8
1_2
390
0
  6
CONTINUOUS
 62
     3
100
AcDbLine
 10
62.758132
 20
84.808573
 30
0.0
 11
62.758132
 21
100.642923
 31
0.0
  0
LINE
  5
44D
100
AcDbEntity
  8
1_2
390
0
  6
CONTINUOUS
 62
     3
100
AcDbLine
 10
44.758132
 20
101.999895
 30
0.0
 11
44.758132
 21
84.808573
 31
0.0
  0
LINE
  5
44E
100
AcDbEntity
  8
1_2
390
0
  6
CENTER
 62
   110
100
AcDbLine
 10
53.758132
 20
106.790596
 30
0.0
 11
53.758132
 21
44.453138
 31
0.0
  0
LINE
  5
44F
100
AcDbEntity
  8
1_2
390
0
  6
CONTINUOUS
 62
     3
100
AcDbLine
 10
42.508132
 20
72.226781
 30
0.0
 11
65.008132
 21
72.226781
 31
0.0
  0
LINE
  5
450
100
AcDbEntity
  8
1_2
390
0
  6
CONTINUOUS
 62
     3
100
AcDbLine
 10
42.508185
 20
69.428003
 30
0.0
 11
65.008078
 21
69.428003
 31
0.0
  0
LINE
  5
451
100
AcDbEntity
  8
1_2
390
0
  6
CONTINUOUS
 62
     3
100
AcDbLine
 10
42.508185
 20
69.428003
 30
0.0
 11
42.508185
 21
68.828005
 31
0.0
  0
LINE
  5
452
100
AcDbEntity
  8
1_2
390
0
  6
CONTINUOUS
 62
     3
100
AcDbLine
 10
42.508185
 20
70.71199
 30
0.0
 11
42.508185
 21
70.111991
 31
0.0
  0
LINE
  5
453
100
AcDbEntity
  8
1_2
390
0
  6
CONTINUOUS
 62
     3
100
AcDbLine
 10
42.508185
 20
70.71199
 30
0.0
 11
65.008078
 21
70.71199
 31
0.0
  0
LINE
  5
454
100
AcDbEntity
  8
1_2
390
0
  6
CONTINUOUS
 62
     3
100
AcDbLine
 10
42.508132
 20
71.726781
 30
0.0
 11
42.508132
 21
72.226781
 31
0.0
  0
LINE
  5
455
100
AcDbEntity
  8
1_2
390
0
  6
CONTINUOUS
 62
     3
100
AcDbLine
 10
48.519382
 20
77.058573
 30
0.0
 11
48.519382
 21
72.226781
 31
0.0
  0
LINE
  5
456
100
AcDbEntity
  8
1_2
390
0
  6
CONTINUOUS
 62
     3
100
AcDbLine
 10
63.758132
 20
84.308573
 30
0.0
 11
43.758132
 21
84.308573
 31
0.0
  0
LINE
  5
457
100
AcDbEntity
  8
1_2
390
0
  6
CONTINUOUS
 62
     3
100
AcDbLine
 10
43.758132
 20
84.308573
 30
0.0
 11
43.758132
 21
81.808573
 31
0.0
  0
LINE
  5
458
100
AcDbEntity
  8
1_2
390
0
  6
CONTINUOUS
 62
     3
100
AcDbLine
 10
63.758132
 20
81.808573
 30
0.0
 11
63.758132
 21
84.308573
 31
0.0
  0
ARC
  5
459
100
AcDbEntity
  8
1_2
390
0
  6
CONTINUOUS
 62
     3
100
AcDbCircle
 10
44.258132
 20
84.808573
 30
0.0
 40
0.5
100
AcDbArc
 50
270.0
 51
0.0
  0
ARC
  5
45A
100
AcDbEntity
  8
1_2
390
0
  6
CONTINUOUS
 62
     3
100
AcDbCircle
 10
63.258132
 20
84.808573
 30
0.0
 40
0.5
100
AcDbArc
 50
180.0
 51
270.0
  0
LINE
  5
45B
100
AcDbEntity
  8
1_2
390
0
  6
CONTINUOUS
 62
     3
100
AcDbLine
 10
48.519382
 20
66.327997
 30
0.0
 11
48.519382
 21
55.908573
 31
0.0
  0
ARC
  5
45C
100
AcDbEntity
  8
1_2
390
0
  6
CONTINUOUS
 62
     3
100
AcDbCircle
 10
58.881942
 20
54.08826
 30
0.0
 40
1.820319
100
AcDbArc
 50
63.215648
 51
153.214803
  0
ARC
  5
45D
100
AcDbEntity
  8
1_2
390
0
  6
CONTINUOUS
 62
     3
100
AcDbCircle
 10
53.756949
 20
49.284702
 30
0.0
 40
6.625
100
AcDbArc
 50
58.1092
 51
121.890818
  0
ARC
  5
45E
100
AcDbEntity
  8
1_2
390
0
  6
CONTINUOUS
 62
     3
100
AcDbCircle
 10
48.631942
 20
54.08826
 30
0.0
 40
1.820319
100
AcDbArc
 50
26.785208
 51
116.783298
  0
ARC
  5
45F
100
AcDbEntity
  8
1_2
390
0
  6
CONTINUOUS
 62
     3
100
AcDbCircle
 10
58.881942
 20
51.728901
 30
0.0
 40
1.820319
100
AcDbArc
 50
206.785197
 51
296.782201
  0
ARC
  5
460
100
AcDbEntity
  8
1_2
390
0
  6
CONTINUOUS
 62
     3
100
AcDbCircle
 10
48.631942
 20
51.728901
 30
0.0
 40
1.820319
100
AcDbArc
 50
243.216497
 51
333.214792
  0
ARC
  5
461
100
AcDbEntity
  8
1_2
390
0
  6
CONTINUOUS
 62
     3
100
AcDbCircle
 10
53.756949
 20
56.532444
 30
0.0
 40
6.625
100
AcDbArc
 50
238.109182
 51
301.8908
  0
ARC
  5
462
100
AcDbEntity
  8
1_2
390
0
  6
CONTINUOUS
 62
     3
100
AcDbCircle
 10
53.756949
 20
72.952997
 30
0.0
 40
6.625
100
AcDbArc
 50
238.109182
 51
270.010227
  0
ARC
  5
463
100
AcDbEntity
  8
1_2
390
0
  6
CONTINUOUS
 62
     3
100
AcDbCircle
 10
48.420089
 20
68.515028
 30
0.0
 40
2.187029
100
AcDbArc
 50
212.871619
 51
327.128376
  0
ARC
  5
464
100
AcDbEntity
  8
1_2
390
0
  6
CONTINUOUS
 62
     3
100
AcDbCircle
 10
53.756949
 20
56.532444
 30
0.0
 40
6.625
100
AcDbArc
 50
238.109182
 51
301.8908
  0
ARC
  5
465
100
AcDbEntity
  8
1_2
390
0
  6
CONTINUOUS
 62
     3
100
AcDbCircle
 10
47.930953
 20
68.305712
 30
0.0
 40
2.0
100
AcDbArc
 50
227.634212
 51
261.438663
  0
LINE
  5
466
100
AcDbEntity
  8
1_2
390
0
  6
CONTINUOUS
 62
     3
100
AcDbLine
 10
50.256942
 20
54.908573
 30
0.0
 11
50.256942
 21
50.908573
 31
0.0
  0
LINE
  5
467
100
AcDbEntity
  8
1_2
390
0
  6
CONTINUOUS
 62
     3
100
AcDbLine
 10
57.256942
 20
54.908573
 30
0.0
 11
57.256942
 21
50.908573
 31
0.0
  0
LINE
  5
468
100
AcDbEntity
  8
1_2
390
0
  6
CONTINUOUS
 62
     3
100
AcDbLine
 10
50.256942
 20
68.828005
 30
0.0
 11
50.256942
 21
67.327997
 31
0.0
  0
LINE
  5
469
100
AcDbEntity
  8
1_2
390
0
  6
CONTINUOUS
 62
     3
100
AcDbLine
 10
48.006983
 20
55.908552
 30
0.0
 11
47.007003
 21
54.908572
 31
0.0
  0
LINE
  5
46A
100
AcDbEntity
  8
1_2
390
0
  6
CONTINUOUS
 62
     3
100
AcDbLine
 10
48.006691
 20
49.908374
 30
0.0
 11
47.006657
 21
50.908385
 31
0.0
  0
LINE
  5
46B
100
AcDbEntity
  8
1_2
390
0
  6
CONTINUOUS
 62
     3
100
AcDbLine
 10
47.006942
 20
54.908573
 30
0.0
 11
47.006942
 21
50.908573
 31
0.0
  0
LINE
  5
46C
100
AcDbEntity
  8
1_2
390
0
  6
CONTINUOUS
 62
     3
100
AcDbLine
 10
59.506901
 20
49.908564
 30
0.0
 11
60.506923
 21
50.908587
 31
0.0
  0
LINE
  5
46D
100
AcDbEntity
  8
1_2
390
0
  6
CONTINUOUS
 62
     3
100
AcDbLine
 10
60.506942
 20
54.908573
 30
0.0
 11
60.506942
 21
50.908573
 31
0.0
  0
LINE
  5
46E
100
AcDbEntity
  8
1_2
390
0
  6
CONTINUOUS
 62
     3
100
AcDbLine
 10
59.507109
 20
55.908721
 30
0.0
 11
60.507083
 21
54.908736
 31
0.0
  0
LINE
  5
46F
100
AcDbEntity
  8
1_2
390
0
  6
CONTINUOUS
 62
     3
100
AcDbLine
 10
59.506942
 20
55.908573
 30
0.0
 11
48.006972
 21
55.908573
 31
0.0
  0
LINE
  5
470
100
AcDbEntity
  8
1_2
390
0
  6
CONTINUOUS
 62
     3
100
AcDbLine
 10
47.633223
 20
66.327997
 30
0.0
 11
48.519484
 21
66.327997
 31
0.0
  0
LINE
  5
471
100
AcDbEntity
  8
1_2
390
0
  6
CONTINUOUS
 62
     3
100
AcDbLine
 10
46.583236
 20
66.828005
 30
0.0
 11
46.583236
 21
68.828005
 31
0.0
  0
LINE
  5
472
100
AcDbEntity
  8
1_2
390
0
  6
CONTINUOUS
 62
     3
100
AcDbLine
 10
53.758132
 20
66.327997
 30
0.0
 11
47.633223
 21
66.327997
 31
0.0
  0
LINE
  5
473
100
AcDbEntity
  8
1_2
390
0
  6
CONTINUOUS
 62
     3
100
AcDbLine
 10
53.758132
 20
68.828005
 30
0.0
 11
46.583236
 21
68.828005
 31
0.0
  0
LINE
  5
474
100
AcDbEntity
  8
1_2
390
0
  6
CONTINUOUS
 62
   110
100
AcDbLine
 10
49.100382
 20
55.908573
 30
0.0
 11
49.100382
 21
66.327997
 31
0.0
  0
LINE
  5
475
100
AcDbEntity
  8
1_2
390
0
  6
CONTINUOUS
 62
     3
100
AcDbLine
 10
48.006691
 20
49.908374
 30
0.0
 11
59.506901
 21
49.908374
 31
0.0
  0
LINE
  5
476
100
AcDbEntity
  8
1_2
390
0
  6
CONTINUOUS
 62
     3
100
AcDbLine
 10
45.258132
 20
77.058573
 30
0.0
 11
45.258132
 21
77.808573
 31
0.0
  0
LINE
  5
477
100
AcDbEntity
  8
1_2
390
0
  6
CONTINUOUS
 62
     3
100
AcDbLine
 10
45.258132
 20
77.058573
 30
0.0
 11
45.508132
 21
76.808573
 31
0.0
  0
LINE
  5
478
100
AcDbEntity
  8
1_2
390
0
  6
CONTINUOUS
 62
     3
100
AcDbLine
 10
43.258132
 20
77.808573
 30
0.0
 11
43.258132
 21
79.308573
 31
0.0
  0
LINE
  5
479
100
AcDbEntity
  8
1_2
390
0
  6
CONTINUOUS
 62
     3
100
AcDbLine
 10
45.508132
 20
76.808573
 30
0.0
 11
62.008132
 21
76.808573
 31
0.0
  0
LINE
  5
47A
100
AcDbEntity
  8
1_2
390
0
  6
CONTINUOUS
 62
     3
100
AcDbLine
 10
41.758132
 20
81.808573
 30
0.0
 11
41.758132
 21
79.308573
 31
0.0
  0
LINE
  5
47B
100
AcDbEntity
  8
1_2
390
0
  6
CONTINUOUS
 62
     3
100
AcDbLine
 10
41.758132
 20
79.308573
 30
0.0
 11
65.758132
 21
79.308573
 31
0.0
  0
LINE
  5
47C
100
AcDbEntity
  8
1_2
390
0
  6
CONTINUOUS
 62
     3
100
AcDbLine
 10
41.758132
 20
81.808573
 30
0.0
 11
65.758132
 21
81.808573
 31
0.0
  0
LINE
  5
47D
100
AcDbEntity
  8
1_2
390
0
  6
CONTINUOUS
 62
     3
100
AcDbLine
 10
21.834868
 20
118.506848
 30
0.0
 11
86.606652
 21
118.506848
 31
0.0
  0
LINE
  5
47E
100
AcDbEntity
  8
1_2
390
0
  6
CONTINUOUS
 62
     3
100
AcDbLine
 10
86.606652
 20
118.506848
 30
0.0
 11
86.606652
 21
38.759822
 31
0.0
  0
LINE
  5
47F
100
AcDbEntity
  8
1_2
390
0
  6
CONTINUOUS
 62
     3
100
AcDbLine
 10
86.606652
 20
38.759822
 30
0.0
 11
21.834868
 21
38.759822
 31
0.0
  0
LINE
  5
480
100
AcDbEntity
  8
1_2
390
0
  6
CONTINUOUS
 62
     3
100
AcDbLine
 10
21.834868
 20
118.506848
 30
0.0
 11
21.834868
 21
38.759822
 31
0.0
  0
LINE
  5
481
100
AcDbEntity
  8
1_2
390
0
  6
CONTINUOUS
 62
     3
100
AcDbLine
 10
62.258132
 20
77.808573
 30
0.0
 11
62.258132
 21
77.058573
 31
0.0
  0
LINE
  5
482
100
AcDbEntity
  8
1_2
390
0
  6
CONTINUOUS
 62
     3
100
AcDbLine
 10
65.758132
 20
81.808573
 30
0.0
 11
65.758132
 21
79.308573
 31
0.0
  0
LINE
  5
483
100
AcDbEntity
  8
1_2
390
0
  6
CONTINUOUS
 62
     3
100
AcDbLine
 10
62.258132
 20
77.058573
 30
0.0
 11
62.008132
 21
76.808573
 31
0.0
  0
LINE
  5
484
100
AcDbEntity
  8
1_2
390
0
  6
CONTINUOUS
 62
     3
100
AcDbLine
 10
64.258132
 20
77.808573
 30
0.0
 11
64.258132
 21
79.308573
 31
0.0
  0
LINE
  5
485
100
AcDbEntity
  8
1_2
390
0
  6
CONTINUOUS
 62
     3
100
AcDbLine
 10
43.258132
 20
77.808573
 30
0.0
 11
64.258132
 21
77.808573
 31
0.0
  0
LINE
  5
486
100
AcDbEntity
  8
1_2
390
0
  6
CONTINUOUS
 62
     3
100
AcDbLine
 10
59.508132
 20
81.808573
 30
0.0
 11
65.758132
 21
81.808573
 31
0.0
  0
LINE
  5
487
100
AcDbEntity
  8
1_2
390
0
  6
CONTINUOUS
 62
     3
100
AcDbLine
 10
48.519382
 20
71.726781
 30
0.0
 11
48.519382
 21
71.036987
 31
0.0
  0
LINE
  5
488
100
AcDbEntity
  8
1_2
390
0
  6
CONTINUOUS
 62
   110
100
AcDbLine
 10
49.100382
 20
72.226781
 30
0.0
 11
49.100382
 21
77.058573
 31
0.0
  0
LINE
  5
489
100
AcDbEntity
  8
1_2
390
0
  6
CONTINUOUS
 62
   110
100
AcDbLine
 10
49.100382
 20
71.006144
 30
0.0
 11
49.100382
 21
71.726781
 31
0.0
  0
LINE
  5
48A
100
AcDbEntity
  8
1_2
390
0
  6
CONTINUOUS
 62
     3
100
AcDbLine
 10
48.519382
 20
70.111991
 30
0.0
 11
48.519382
 21
69.769526
 31
0.0
  0
LINE
  5
48B
100
AcDbEntity
  8
1_2
390
0
  6
CONTINUOUS
 62
   110
100
AcDbLine
 10
49.100382
 20
69.722158
 30
0.0
 11
49.100382
 21
70.111991
 31
0.0
  0
ARC
  5
48C
100
AcDbEntity
  8
1_2
390
0
  6
CONTINUOUS
 62
     3
100
AcDbCircle
 10
48.850365
 20
94.67568
 30
0.0
 40
8.389905
100
AcDbArc
 50
55.660354
 51
141.038618
  0
ARC
  5
48D
100
AcDbEntity
  8
1_2
390
0
  6
CONTINUOUS
 62
     3
100
AcDbCircle
 10
59.060024
 20
109.620256
 30
0.0
 40
9.709197
100
AcDbArc
 50
235.660354
 51
301.055985
  0
INSERT
  5
493
100
AcDbEntity
  8
1_2
390
0
  6
ByBlock
 62
   143
100
AcDbBlockReference
 66
     1
  2
$BALOON
 10
31.942924
 20
88.643028
 30
0.0
 41
3.0
 42
3.0
 43
3.0
  0
ATTRIB
  5
494
100
AcDbEntity
  8
1_2
390
0
  6
CONTINUOUS
 62
   143
100
AcDbText
 10
31.526257
 20
87.393028
 30
0.0
 40
2.5
  1
1
 72
     1
 11
31.942924
 21
88.643028
 31
0.0
100
AcDbAttribute
  2
NO.
 70
     0
 74
     2
  0
SEQEND
  5
495
100
AcDbEntity
  8
1_2
390
0
  6
CONTINUOUS
 62
   143
  0
LEADER
  5
496
100
AcDbEntity
  8
1_2
390
0
  6
CONTINUOUS
 62
   143
100
AcDbLeader
  3
MXDIMSTYLE
 73
     3
 74
     0
 75
     0
 40
0.0
 76
     2
 10
41.758132
 20
80.652227
 30
0.0
 10
34.269415
 20
86.748975
 30
0.0
 77
   143
1001
ACAD
1000
DSTYLE
1002
{
1070
    41
1040
2.77
1002
}
  0
INSERT
  5
497
100
AcDbEntity
  8
1_2
390
0
  6
ByBlock
 62
   143
100
AcDbBlockReference
 66
     1
  2
$BALOON
 10
31.942924
 20
64.323197
 30
0.0
 41
3.0
 42
3.0
 43
3.0
  0
ATTRIB
  5
498
100
AcDbEntity
  8
1_2
390
0
  6
CONTINUOUS
 62
   143
100
AcDbText
 10
31.10959
 20
63.073197
 30
0.0
 40
2.5
  1
3
 72
     1
 11
31.942924
 21
64.323197
 31
0.0
100
AcDbAttribute
  2
NO.
 70
     0
 74
     2
  0
SEQEND
  5
499
100
AcDbEntity
  8
1_2
390
0
  6
CONTINUOUS
 62
   143
  0
LEADER
  5
49A
100
AcDbEntity
  8
1_2
390
0
  6
CONTINUOUS
 62
   143
100
AcDbLeader
  3
MXDIMSTYLE
 73
     3
 74
     0
 75
     0
 40
0.0
 76
     2
 10
42.508185
 20
68.828005
 30
0.0
 10
34.702544
 20
65.499842
 30
0.0
 77
   143
1001
ACAD
1000
DSTYLE
1002
{
1070
    41
1040
2.77
1002
}
  0
LEADER
  5
49B
100
AcDbEntity
  8
1_2
390
0
  6
CONTINUOUS
 62
   143
100
AcDbLeader
  3
MXDIMSTYLE
 73
     3
 74
     0
 75
     0
 40
0.0
 76
     2
 10
42.508185
 20
70.111991
 30
0.0
 10
34.573892
 20
65.764727
 30
0.0
 77
   143
1001
ACAD
1000
DSTYLE
1002
{
1070
    41
1040
2.77
1002
}
  0
INSERT
  5
49C
100
AcDbEntity
  8
1_2
390
0
  6
ByBlock
 62
   143
100
AcDbBlockReference
 66
     1
  2
$BALOON
 10
31.942924
 20
73.12466
 30
0.0
 41
3.0
 42
3.0
 43
3.0
  0
ATTRIB
  5
49D
100
AcDbEntity
  8
1_2
390
0
  6
CONTINUOUS
 62
   143
100
AcDbText
 10
31.10959
 20
71.87466
 30
0.0
 40
2.5
  1
2
 72
     1
 11
31.942924
 21
73.12466
 31
0.0
100
AcDbAttribute
  2
NO.
 70
     0
 74
     2
  0
SEQEND
  5
49E
100
AcDbEntity
  8
1_2
390
0
  6
CONTINUOUS
 62
   143
  0
LEADER
  5
49F
100
AcDbEntity
  8
1_2
390
0
  6
CONTINUOUS
 62
   143
100
AcDbLeader
  3
MXDIMSTYLE
 73
     3
 74
     0
 75
     0
 40
0.0
 76
     2
 10
42.508132
 20
71.726781
 30
0.0
 10
34.917005
 20
72.73116
 30
0.0
 77
   143
1001
ACAD
1000
DSTYLE
1002
{
1070
    41
1040
2.77
1002
}
  0
LINE
  5
4A0
100
AcDbEntity
  8
1_2
390
0
  6
CONTINUOUS
 62
     3
100
AcDbLine
 10
41.758132
 20
79.308573
 30
0.0
 11
26.539139
 21
79.308573
 31
0.0
  0
LINE
  5
4A1
100
AcDbEntity
  8
1_2
390
0
  6
CONTINUOUS
 62
     3
100
AcDbLine
 10
65.758132
 20
79.308573
 30
0.0
 11
84.127014
 21
79.308573
 31
0.0
  0
MTEXT
  5
4A2
100
AcDbEntity
  8
1_2
390
0
  6
CONTINUOUS
 62
   143
100
AcDbMText
 10
78.197039
 20
88.316187
 30
0.0
 40
4.0
 41
0.0
 71
     1
 72
     1
  1
\W0.833333;\A1;ＣＬ
 73
     1
 44
0.96
  0
INSERT
  5
4A9
100
AcDbEntity
  8
1_2
390
0
  6
ByBlock
 62
   143
100
AcDbBlockReference
  2
$SYSSYM-10
 10
81.249979
 20
79.30857
 30
0.0
  0
DIMENSION
  5
4B8
100
AcDbEntity
  8
1_2
390
0
  6
CONTINUOUS
 62
   143
100
AcDbDimension
  2
*D15
 10
72.973631
 20
72.226781
 30
0.0
 11
72.973631
 21
64.251506
 31
0.0
 70
   128
 71
     5
 72
     1
 41
0.96
 42
0.0
  1
\A1;対応厚さ\P6～25
  3
MX_DIMSTYLE_1_2
100
AcDbAlignedDimension
 13
73.451128
 23
79.308573
 33
0.0
 14
65.008132
 24
72.226781
 34
0.0
 50
90.0
100
AcDbRotatedDimension
1001
ACAD
1000
DSTYLE
1002
{
1070
    41
1040
2.77
1070
    75
1070
     1
1070
    78
1070
     0
1070
   144
1040
0.5
1070
   271
1070
     1
1070
   340
1005
4B2
1002
}
  0
DIMENSION
  5
4C4
100
AcDbEntity
  8
1_2
390
0
  6
CONTINUOUS
 62
   143
100
AcDbDimension
  2
*D16
 10
79.008888
 20
79.308573
 30
0.0
 11
79.008888
 21
67.203686
 31
0.0
 70
   128
 71
     5
 72
     1
 41
0.96
 42
51.0
  1
\A1;<>
  3
MX_DIMSTYLE_1_2
100
AcDbAlignedDimension
 13
57.256942
 23
53.808573
 33
0.0
 14
114.523186
 24
79.308573
 34
0.0
 50
90.0
100
AcDbRotatedDimension
1001
ACAD
1000
DSTYLE
1002
{
1070
    41
1040
2.77
1070
    76
1070
     1
1070
    78
1070
     0
1070
   271
1070
     1
1070
   340
1005
CE
1002
}
  0
MTEXT
  5
4C5
100
AcDbEntity
  8
1_2
390
0
  6
CONTINUOUS
 62
   143
100
AcDbMText
 10
26.237662
 20
115.790376
 30
0.0
 40
3.5
 41
0.0
 71
     1
 72
     1
  1
\W1.052632;\A1;取付例(1/2)
 73
     1
 44
0.96
  0
LINE
  5
4C6
100
AcDbEntity
  8
1_2
390
0
  6
CONTINUOUS
 62
     3
100
AcDbLine
 10
42.508132
 20
71.726781
 30
0.0
 11
65.008132
 21
71.726781
 31
0.0
  0
LINE
  5
4C7
100
AcDbEntity
  8
1_2
390
0
  6
CONTINUOUS
 62
     3
100
AcDbLine
 10
42.508185
 20
68.828005
 30
0.0
 11
65.008078
 21
68.828005
 31
0.0
  0
LINE
  5
4C8
100
AcDbEntity
  8
1_2
390
0
  6
CONTINUOUS
 62
     3
100
AcDbLine
 10
42.508185
 20
70.111991
 30
0.0
 11
65.008078
 21
70.111991
 31
0.0
  0
LINE
  5
4C9
100
AcDbEntity
  8
1_2
390
0
  6
CONTINUOUS
 62
     3
100
AcDbLine
 10
58.996882
 20
77.058573
 30
0.0
 11
58.996882
 21
72.226781
 31
0.0
  0
LINE
  5
4CA
100
AcDbEntity
  8
1_2
390
0
  6
CONTINUOUS
 62
     3
100
AcDbLine
 10
58.996882
 20
66.327997
 30
0.0
 11
58.996882
 21
55.908573
 31
0.0
  0
ARC
  5
4CB
100
AcDbEntity
  8
1_2
390
0
  6
CONTINUOUS
 62
     3
100
AcDbCircle
 10
53.759314
 20
72.952997
 30
0.0
 40
6.625
100
AcDbArc
 50
269.989773
 51
301.890818
  0
LINE
  5
4CC
100
AcDbEntity
  8
1_2
390
0
  6
CONTINUOUS
 62
     3
100
AcDbLine
 10
53.758132
 20
66.327997
 30
0.0
 11
59.88304
 21
66.327997
 31
0.0
  0
LINE
  5
4CD
100
AcDbEntity
  8
1_2
390
0
  6
CONTINUOUS
 62
     3
100
AcDbLine
 10
53.758132
 20
68.828005
 30
0.0
 11
60.933028
 21
68.828005
 31
0.0
  0
LINE
  5
4CE
100
AcDbEntity
  8
1_2
390
0
  6
CONTINUOUS
 62
   110
100
AcDbLine
 10
58.415882
 20
55.908573
 30
0.0
 11
58.415882
 21
66.327997
 31
0.0
  0
LINE
  5
4CF
100
AcDbEntity
  8
1_2
390
0
  6
CONTINUOUS
 62
   110
100
AcDbLine
 10
58.415882
 20
72.226781
 30
0.0
 11
58.415882
 21
77.058573
 31
0.0
  0
LINE
  5
4D0
100
AcDbEntity
  8
1_2
390
0
  6
CONTINUOUS
 62
   110
100
AcDbLine
 10
58.415882
 20
69.722158
 30
0.0
 11
58.415882
 21
70.111991
 31
0.0
  0
LINE
  5
4D1
100
AcDbEntity
  8
1_2
390
0
  6
CONTINUOUS
 62
     3
100
AcDbLine
 10
58.996882
 20
70.111991
 30
0.0
 11
58.996882
 21
69.769526
 31
0.0
  0
LINE
  5
4D2
100
AcDbEntity
  8
1_2
390
0
  6
CONTINUOUS
 62
   110
100
AcDbLine
 10
58.415882
 20
71.006144
 30
0.0
 11
58.415882
 21
71.726781
 31
0.0
  0
LINE
  5
4D3
100
AcDbEntity
  8
1_2
390
0
  6
CONTINUOUS
 62
     3
100
AcDbLine
 10
58.996882
 20
71.726781
 30
0.0
 11
58.996882
 21
71.036987
 31
0.0
  0
LINE
  5
4D4
100
AcDbEntity
  8
1_2
390
0
  6
CONTINUOUS
 62
     3
100
AcDbLine
 10
60.933028
 20
66.828005
 30
0.0
 11
60.933028
 21
68.828005
 31
0.0
  0
LINE
  5
4D5
100
AcDbEntity
  8
1_2
390
0
  6
CONTINUOUS
 62
     3
100
AcDbLine
 10
59.88304
 20
66.327997
 30
0.0
 11
58.996779
 21
66.327997
 31
0.0
  0
LINE
  5
4D6
100
AcDbEntity
  8
1_2
390
0
  6
CONTINUOUS
 62
     3
100
AcDbLine
 10
57.259322
 20
68.828005
 30
0.0
 11
57.259322
 21
67.327997
 31
0.0
  0
ARC
  5
4D7
100
AcDbEntity
  8
1_2
390
0
  6
CONTINUOUS
 62
     3
100
AcDbCircle
 10
59.585311
 20
68.305712
 30
0.0
 40
2.0
100
AcDbArc
 50
278.561337
 51
312.365788
  0
ARC
  5
4D8
100
AcDbEntity
  8
1_2
390
0
  6
CONTINUOUS
 62
     3
100
AcDbCircle
 10
59.096175
 20
68.515028
 30
0.0
 40
2.187029
100
AcDbArc
 50
212.871624
 51
327.128381
  0
LINE
  5
4D9
100
AcDbEntity
  8
1_2
390
0
  6
CONTINUOUS
 62
     3
100
AcDbLine
 10
65.008132
 20
71.726781
 30
0.0
 11
65.008132
 21
72.226781
 31
0.0
  0
LINE
  5
4DA
100
AcDbEntity
  8
1_2
390
0
  6
CONTINUOUS
 62
     3
100
AcDbLine
 10
65.008078
 20
70.71199
 30
0.0
 11
65.008078
 21
70.111991
 31
0.0
  0
LINE
  5
4DB
100
AcDbEntity
  8
1_2
390
0
  6
CONTINUOUS
 62
     3
100
AcDbLine
 10
65.008078
 20
69.428003
 30
0.0
 11
65.008078
 21
68.828005
 31
0.0
  0
ENDSEC
  0
SECTION
  2
OBJECTS
  0
DICTIONARY
  5
19
100
AcDbDictionary
280
     0
281
     1
  3
ACAD_GROUP
350
1A
  3
ACAD_MLINESTYLE
350
1B
  3
ACAD_LAYOUT
350
1E
  3
ACAD_PLOTSETTINGS
350
22
  3
ACAD_PLOTSTYLENAME
350
1F
  0
DICTIONARY
  5
1A
102
{ACAD_REACTORS
330
19
102
}
100
AcDbDictionary
280
     0
281
     1
  0
DICTIONARY
  5
1B
102
{ACAD_REACTORS
330
19
102
}
100
AcDbDictionary
280
     0
281
     1
  3
Standard
350
1C
  0
MLINESTYLE
  5
1C
102
{ACAD_REACTORS
330
1B
102
}
100
AcDbMlineStyle
  2
Standard
 70
     0
  3

 62
     0
 51
90.0
 52
90.0
 71
     2
 49
0.5
 62
   256
  6
ByLayer
 49
-0.5
 62
   256
  6
ByLayer
  0
ACDBDICTIONARYWDFLT
  5
1F
102
{ACAD_REACTORS
330
19
102
}
100
AcDbDictionary
281
     1
  3
Normal
350
1D
100
AcDbDictionaryWithDefault
340
1D
  0
ACDBPLACEHOLDER
  5
1D
102
{ACAD_REACTORS
330
1F
102
}
  0
LAYOUT
  5
20
102
{ACAD_REACTORS
330
1E
102
}
100
AcDbPlotSettings
  1

  2

  4

  6

 40
0.0
 41
0.0
 42
0.0
 43
0.0
 44
0.0
 45
0.0
 46
0.0
 47
0.0
 48
0.0
 49
0.0
140
0.0
141
0.0
142
1.0
143
1.0
 70
  1024
 72
     0
 73
     0
 74
     0
  7

 75
     0
147
1.0
148
0.0
149
0.0
100
AcDbLayout
  1
Model
 70
     0
 71
     0
 10
0.0
 20
0.0
 11
0.0
 21
0.0
 12
0.0
 22
0.0
 32
0.0
 14
0.0
 24
0.0
 34
0.0
 15
0.0
 25
0.0
 35
0.0
146
0.0
 13
0.0
 23
0.0
 33
0.0
 16
0.0
 26
0.0
 36
0.0
 17
0.0
 27
0.0
 37
0.0
 76
     0
330
A
331
0
345
0
346
0
  0
LAYOUT
  5
21
102
{ACAD_REACTORS
330
1E
102
}
100
AcDbPlotSettings
  1

  2

  4

  6

 40
0.0
 41
0.0
 42
0.0
 43
0.0
 44
0.0
 45
0.0
 46
0.0
 47
0.0
 48
0.0
 49
0.0
140
0.0
141
0.0
142
1.0
143
1.0
 70
     0
 72
     0
 73
     0
 74
     0
  7

 75
     0
147
1.0
148
0.0
149
0.0
100
AcDbLayout
  1
Layout1
 70
     0
 71
     0
 10
0.0
 20
0.0
 11
0.0
 21
0.0
 12
0.0
 22
0.0
 32
0.0
 14
0.0
 24
0.0
 34
0.0
 15
0.0
 25
0.0
 35
0.0
146
0.0
 13
0.0
 23
0.0
 33
0.0
 16
0.0
 26
0.0
 36
0.0
 17
0.0
 27
0.0
 37
0.0
 76
     0
330
B
331
0
345
0
346
0
  0
DICTIONARY
  5
1E
102
{ACAD_REACTORS
330
19
102
}
100
AcDbDictionary
280
     0
281
     1
  3
Layout1
350
21
  3
Model
350
20
  0
DICTIONARY
  5
22
102
{ACAD_REACTORS
330
19
102
}
100
AcDbDictionary
280
     0
281
     1
  0
ENDSEC
  0
EOF
