  0
SECTION
  2
HEADER
  9
$ACADVER
  1
AC1009
  9
$DWGCODEPAGE
  3
dos932
  9
$INSBASE
 10
0.0
 20
0.0
 30
0.0
  9
$EXTMIN
 10
983.690926
 20
-1633.906652
 30
0.0
  9
$EXTMAX
 10
1193.690926
 20
-1336.906652
 30
0.0
  9
$LIMMIN
 10
983.690926
 20
-1633.9067
  9
$LIMMAX
 10
1193.69093
 20
-1336.9067
  9
$ORTHOMODE
 70
     0
  9
$REGENMODE
 70
     1
  9
$FILLMODE
 70
     1
  9
$QTEXTMODE
 70
     0
  9
$MIRRTEXT
 70
     1
  9
$DRAGMODE
 70
     2
  9
$LTSCALE
 40
1.0
  9
$OSMODE
 70
     0
  9
$ATTMODE
 70
     1
  9
$TEXTSIZE
 40
2.5
  9
$TRACEWID
 40
0.05
  9
$TEXTSTYLE
  7
MX_NOTE_STANDARD
  9
$CLAYER
  8
DEFPOINTS
  9
$CELTYPE
  6
CONTINUOUS
  9
$CECOLOR
 62
   256
  9
$DIMSCALE
 40
1.0
  9
$DIMASZ
 40
2.5
  9
$DIMEXO
 40
1.5
  9
$DIMDLI
 40
3.75
  9
$DIMRND
 40
0.0
  9
$DIMDLE
 40
0.0
  9
$DIMEXE
 40
1.5
  9
$DIMTP
 40
0.0
  9
$DIMTM
 40
0.0
  9
$DIMTXT
 40
2.5
  9
$DIMCEN
 40
2.5
  9
$DIMTSZ
 40
0.0
  9
$DIMTOL
 70
     0
  9
$DIMLIM
 70
     0
  9
$DIMTIH
 70
     0
  9
$DIMTOH
 70
     0
  9
$DIMSE1
 70
     0
  9
$DIMSE2
 70
     0
  9
$DIMTAD
 70
     1
  9
$DIMZIN
 70
     8
  9
$DIMBLK
  1

  9
$DIMASO
 70
     1
  9
$DIMSHO
 70
     1
  9
$DIMPOST
  1

  9
$DIMAPOST
  1

  9
$DIMALT
 70
     0
  9
$DIMALTD
 70
     4
  9
$DIMALTF
 40
0.03937
  9
$DIMLFAC
 40
1.0
  9
$DIMTOFL
 70
     1
  9
$DIMTVP
 40
0.0
  9
$DIMTIX
 70
     0
  9
$DIMSOXD
 70
     0
  9
$DIMSAH
 70
     1
  9
$DIMBLK1
  1
_OPEN30
  9
$DIMBLK2
  1
_OPEN30
  9
$DIMSTYLE
  2
MXDIMSTYLE
  9
$DIMCLRD
 70
     0
  9
$DIMCLRE
 70
     0
  9
$DIMCLRT
 70
     0
  9
$DIMTFAC
 40
1.0
  9
$DIMGAP
 40
1.0
  9
$LUNITS
 70
     2
  9
$LUPREC
 70
     4
  9
$AXISMODE
 70
     0
  9
$AXISUNIT
 10
0.0
 20
0.0
  9
$SKETCHINC
 40
0.1
  9
$FILLETRAD
 40
0.0
  9
$AUNITS
 70
     0
  9
$AUPREC
 70
     0
  9
$MENU
  1
acad
  9
$ELEVATION
 40
0.0
  9
$PELEVATION
 40
0.0
  9
$THICKNESS
 40
0.0
  9
$LIMCHECK
 70
     0
  9
$BLIPMODE
 70
     1
  9
$CHAMFERA
 40
0.0
  9
$CHAMFERB
 40
0.0
  9
$SKPOLY
 70
     0
  9
$TDCREATE
 40
2455432.777175926
  9
$TDUPDATE
 40
2455432.777175926
  9
$TDINDWG
 40
0.0000000000
  9
$TDUSRTIMER
 40
0.0000000000
  9
$USRTIMER
 70
     1
  9
$ANGBASE
 50
0.0
  9
$ANGDIR
 70
     0
  9
$PDMODE
 70
     0
  9
$PDSIZE
 40
0.0
  9
$PLINEWID
 40
0.0
  9
$COORDS
 70
     1
  9
$SPLFRAME
 70
     0
  9
$SPLINETYPE
 70
     6
  9
$SPLINESEGS
 70
     8
  9
$ATTDIA
 70
     0
  9
$ATTREQ
 70
     1
  9
$HANDLING
 70
     1
  9
$HANDSEED
  5
112
  9
$SURFTAB1
 70
     6
  9
$SURFTAB2
 70
     6
  9
$SURFTYPE
 70
     6
  9
$SURFU
 70
     6
  9
$SURFV
 70
     6
  9
$UCSNAME
  2

  9
$UCSORG
 10
0.0
 20
0.0
 30
0.0
  9
$UCSXDIR
 10
1.0
 20
0.0
 30
0.0
  9
$UCSYDIR
 10
0.0
 20
1.0
 30
0.0
  9
$PUCSNAME
  2

  9
$PUCSORG
 10
0.0
 20
0.0
 30
0.0
  9
$PUCSXDIR
 10
1.0
 20
0.0
 30
0.0
  9
$PUCSYDIR
 10
0.0
 20
1.0
 30
0.0
  9
$USERI1
 70
     0
  9
$USERI2
 70
     0
  9
$USERI3
 70
     0
  9
$USERI4
 70
     0
  9
$USERI5
 70
     0
  9
$USERR1
 40
0.0
  9
$USERR2
 40
0.0
  9
$USERR3
 40
0.0
  9
$USERR4
 40
0.0
  9
$USERR5
 40
0.0
  9
$WORLDVIEW
 70
     1
  9
$SHADEDGE
 70
     3
  9
$SHADEDIF
 70
    70
  9
$TILEMODE
 70
     1
  9
$MAXACTVP
 70
    16
  9
$PINSBASE
 10
0.0
 20
0.0
 30
0.0
  9
$PLIMCHECK
 70
     0
  9
$PEXTMIN
 10
1.000000E+20
 20
1.000000E+20
 30
1.000000E+20
  9
$PEXTMAX
 10
-1.000000E+20
 20
-1.000000E+20
 30
-1.000000E+20
  9
$PLIMMIN
 10
0.0
 20
0.0
  9
$PLIMMAX
 10
12.0
 20
9.0
  9
$UNITMODE
 70
     0
  9
$VISRETAIN
 70
     0
  9
$PLINEGEN
 70
     1
  9
$PSLTSCALE
 70
     0
  9
$TREEDEPTH
 70
  3020
  0
ENDSEC
  0
SECTION
  2
TABLES
  0
TABLE
  2
VPORT
 70
     1
  0
VPORT
  2
*ACTIVE
 70
     0
 10
0.0
 20
0.0
 11
1.0
 21
1.0
 12
1088.690928
 22
-1485.4067
 13
0.0
 23
0.0
 14
1.0
 24
1.0
 15
0.0
 25
0.0
 16
0.0
 26
0.0
 36
1.0
 17
0.0
 27
0.0
 37
0.0
 40
299.97
 41
1.732051
 42
50.0
 43
0.0
 44
0.0
 50
0.0
 51
0.0
 71
     0
 72
   100
 73
     1
 74
     1
 75
     0
 76
     0
 77
     0
 78
     0
  0
ENDTAB
  0
TABLE
  2
LTYPE
 70
     4
  0
LTYPE
  2
CONTINUOUS
 70
    64
  3
Solid line
 72
    65
 73
     0
 40
0.0
  0
LTYPE
  2
CENTER
 70
    64
  3
Center ____ _ ____ _ ____ _ ____ _ ____ _ ____
 72
    65
 73
     4
 40
50.8
 49
31.75
 49
-6.35
 49
6.35
 49
-6.35
  0
LTYPE
  2
NON_PLOTING
 70
     0
  3
Solid line
 72
    65
 73
     0
 40
0.0
  0
LTYPE
  2
PHANTOM
 70
    64
  3
Phantom ______  __  __  ______  __  __  ______
 72
    65
 73
     6
 40
63.5
 49
31.75
 49
-6.35
 49
6.35
 49
-6.35
 49
6.35
 49
-6.35
  0
ENDTAB
  0
TABLE
  2
LAYER
 70
     4
  0
LAYER
  2
0
 70
     0
 62
     7
  6
CONTINUOUS
  0
LAYER
  2
DEFPOINTS
 70
     0
 62
     7
  6
CONTINUOUS
  0
LAYER
  2
PV
 70
     0
 62
     7
  6
CONTINUOUS
  0
LAYER
  2
0_5
 70
     0
 62
     7
  6
CONTINUOUS
  0
ENDTAB
  0
TABLE
  2
STYLE
 70
     3
  0
STYLE
  2
MX_NOTE_STANDARD
 70
     0
 40
0.0
 41
1.0
 50
0.0
 71
     0
 42
2.5
  3
txt.shx
  4
extfont.shx
  0
STYLE
  2
MX_DIMTXSTY_2
 70
     0
 40
0.0
 41
1.15
 50
0.0
 71
     0
 42
2.5
  3
txt.shx
  4
extfont.shx
  0
STYLE
  2
MX_DIMTXSTY_3
 70
     0
 40
0.0
 41
1.25
 50
0.0
 71
     0
 42
2.5
  3
txt.shx
  4
extfont.shx
  0
ENDTAB
  0
TABLE
  2
VIEW
 70
     0
  0
ENDTAB
  0
TABLE
  2
UCS
 70
     0
  0
ENDTAB
  0
TABLE
  2
APPID
 70
     2
  0
APPID
  2
ACAD
 70
     0
  0
APPID
  2
CONTENTBLOCKDESCRIPTION
 70
     0
  0
ENDTAB
  0
TABLE
  2
DIMSTYLE
 70
     1
  0
DIMSTYLE
  2
MXDIMSTYLE
 70
     0
  3

  4

  5

  6
_OPEN30
  7
_OPEN30
 40
1.0
 41
2.5
 42
1.5
 43
3.75
 44
1.5
 45
0.0
 46
0.0
 47
0.0
 48
0.0
 71
     0
 72
     0
 73
     0
 74
     0
 75
     0
 76
     0
 77
     1
 78
     8
140
2.5
141
2.5
142
0.0
143
0.03937
144
1.0
145
0.0
146
1.0
147
1.0
170
     0
171
     4
172
     1
173
     1
174
     0
175
     0
176
     0
177
     0
178
     0
  0
ENDTAB
  0
ENDSEC
  0
SECTION
  2
BLOCKS
  0
BLOCK
  8
0
  6
BYBLOCK
 62
     0
  5
21
  2
_OPEN30
 70
     2
 10
0.0
 20
0.0
 30
0.0
  3
_OPEN30
  0
LINE
  8
0
  6
BYBLOCK
 62
     0
  5
22
 10
-1.0
 20
0.267949
 30
0.0
 11
0.0
 21
0.0
 31
0.0
  0
LINE
  8
0
  6
BYBLOCK
 62
     0
  5
23
 10
0.0
 20
0.0
 30
0.0
 11
-1.0
 21
-0.267949
 31
0.0
  0
LINE
  8
0
  6
BYBLOCK
 62
     0
  5
24
 10
0.0
 20
0.0
 30
0.0
 11
-1.0
 21
0.0
 31
0.0
  0
ENDBLK
  8
0
  6
BYBLOCK
 62
     0
  5
25
  0
BLOCK
  8
0
  6
BYBLOCK
 62
     0
  5
28
  2
$KAKUDAI-3
 70
     0
 10
0.0
 20
0.0
 30
0.0
  3
$KAKUDAI-3
  0
ARC
  8
0
  6
CONTINUOUS
 62
     0
  5
29
 10
0.0
 20
0.0
 30
0.0
 40
4.14
 50
299.461315
 51
60.538685
  0
ARC
  8
0
  6
CONTINUOUS
 62
     0
  5
2A
 10
0.0
 20
0.0
 30
0.0
 40
4.14
 50
105.408581
 51
254.591422
  0
ARC
  8
0
  6
CONTINUOUS
 62
     0
  5
2B
 10
0.0
 20
0.0
 30
0.0
 40
5.0
 50
92.751257
 51
267.248746
  0
ARC
  8
0
  6
CONTINUOUS
 62
     0
  5
2C
 10
0.0
 20
0.0
 30
0.0
 40
5.0
 50
286.992764
 51
73.007236
  0
LINE
  8
0
  6
CONTINUOUS
 62
     0
  5
2D
 10
2.0362
 20
-3.604648
 30
0.0
 11
1.070337
 21
0.0
 31
0.0
  0
LINE
  8
0
  6
CONTINUOUS
 62
     0
  5
2E
 10
1.461255
 20
-4.781708
 30
0.0
 11
0.18
 21
0.0
 31
0.0
  0
LINE
  8
0
  6
CONTINUOUS
 62
     0
  5
2F
 10
1.070337
 20
0.0
 30
0.0
 11
2.0362
 21
3.604648
 31
0.0
  0
LINE
  8
0
  6
CONTINUOUS
 62
     0
  5
30
 10
0.18
 20
0.0
 30
0.0
 11
1.461255
 21
4.781708
 31
0.0
  0
LINE
  8
0
  6
CONTINUOUS
 62
     0
  5
31
 10
-1.1
 20
3.99119
 30
0.0
 11
-1.1
 21
-3.99119
 31
0.0
  0
LINE
  8
0
  6
CONTINUOUS
 62
     0
  5
32
 10
-0.24
 20
4.994236
 30
0.0
 11
-0.24
 21
-4.994236
 31
0.0
  0
ENDBLK
  8
0
  6
BYBLOCK
 62
     0
  5
33
  0
BLOCK
  8
0
  6
BYBLOCK
 62
     0
  5
36
  2
$KAKUDAI-2
 70
     0
 10
0.0
 20
0.0
 30
0.0
  3
$KAKUDAI-2
  0
ARC
  8
0
  6
CONTINUOUS
 62
     0
  5
37
 10
29.31842
 20
1.863708
 30
0.0
 40
0.591628
 50
270.000025
 51
354.40127
  0
ARC
  8
0
  6
CONTINUOUS
 62
     0
  5
38
 10
29.318405
 20
2.573524
 30
0.0
 40
0.591628
 50
5.59873
 51
89.999982
  0
ARC
  8
0
  6
CONTINUOUS
 62
     0
  5
39
 10
25.69725
 20
2.218666
 30
0.0
 40
4.230142
 50
354.401273
 51
5.598727
  0
ARC
  8
0
  6
CONTINUOUS
 62
     0
  5
3A
 10
29.621689
 20
1.479218
 30
0.0
 40
1.479071
 50
270.000025
 51
349.328068
  0
ARC
  8
0
  6
CONTINUOUS
 62
     0
  5
3B
 10
29.621689
 20
2.958115
 30
0.0
 40
1.479071
 50
10.671932
 51
89.999982
  0
ARC
  8
0
  6
CONTINUOUS
 62
     0
  5
3C
 10
25.69725
 20
2.218666
 30
0.0
 40
5.472562
 50
349.328068
 51
10.671932
  0
ARC
  8
0
  6
CONTINUOUS
 62
     0
  5
3D
 10
22.88707
 20
1.622192
 30
0.0
 40
0.591628
 50
276.999029
 51
0.0
  0
ARC
  8
0
  6
CONTINUOUS
 62
     0
  5
3E
 10
21.112137
 20
1.622177
 30
0.0
 40
0.591628
 50
179.999964
 51
263.000915
  0
ARC
  8
0
  6
CONTINUOUS
 62
     0
  5
3F
 10
21.999603
 20
8.85083
 30
0.0
 40
7.874568
 50
263.000966
 51
276.999015
  0
ARC
  8
0
  6
CONTINUOUS
 62
     0
  5
40
 10
23.271584
 20
1.28949
 30
0.0
 40
1.479071
 50
279.549258
 51
0.0
  0
ARC
  8
0
  6
CONTINUOUS
 62
     0
  5
41
 10
20.727631
 20
1.28949
 30
0.0
 40
1.479071
 50
179.999964
 51
260.450713
  0
ARC
  8
0
  6
CONTINUOUS
 62
     0
  5
42
 10
21.999603
 20
8.85083
 30
0.0
 40
9.146571
 50
260.450737
 51
279.54923
  0
LINE
  8
0
  6
CONTINUOUS
 62
     0
  5
43
 10
39.999893
 20
4.437317
 30
0.0
 11
39.999893
 21
0.000015
 31
0.0
  0
LINE
  8
0
  6
CONTINUOUS
 62
     0
  5
44
 10
38.72789
 20
4.437317
 30
0.0
 11
38.72789
 21
0.000015
 31
0.0
  0
LINE
  8
0
  6
CONTINUOUS
 62
     0
  5
45
 10
12.752607
 20
-0.000183
 30
0.0
 11
10.238149
 21
4.437112
 31
0.0
  0
LINE
  8
0
  6
CONTINUOUS
 62
     0
  5
46
 10
11.290825
 20
0.0
 30
0.0
 11
12.752815
 21
0.0
 31
0.0
  0
LINE
  8
0
  6
CONTINUOUS
 62
     0
  5
47
 10
11.290678
 20
-0.000035
 30
0.0
 11
10.871566
 21
0.739584
 31
0.0
  0
LINE
  8
0
  6
CONTINUOUS
 62
     0
  5
48
 10
10.368869
 20
1.627127
 30
0.0
 11
9.328812
 21
3.462514
 31
0.0
  0
LINE
  8
0
  6
CONTINUOUS
 62
     0
  5
49
 10
8.289557
 20
1.626387
 30
0.0
 11
9.329624
 21
3.46183
 31
0.0
  0
LINE
  8
0
  6
CONTINUOUS
 62
     0
  5
4A
 10
8.288605
 20
1.627098
 30
0.0
 11
10.368835
 21
1.627098
 31
0.0
  0
LINE
  8
0
  6
CONTINUOUS
 62
     0
  5
4B
 10
7.785843
 20
0.739464
 30
0.0
 11
10.871651
 21
0.739464
 31
0.0
  0
LINE
  8
0
  6
CONTINUOUS
 62
     0
  5
4C
 10
5.904288
 20
0.000176
 30
0.0
 11
8.41872
 21
4.437407
 31
0.0
  0
LINE
  8
0
  6
CONTINUOUS
 62
     0
  5
4D
 10
7.366972
 20
-0.000121
 30
0.0
 11
7.786036
 21
0.739421
 31
0.0
  0
LINE
  8
0
  6
CONTINUOUS
 62
     0
  5
4E
 10
5.904747
 20
0.0
 30
0.0
 11
7.366676
 21
0.0
 31
0.0
  0
LINE
  8
0
  6
CONTINUOUS
 62
     0
  5
4F
 10
8.419144
 20
4.437302
 30
0.0
 11
10.238426
 21
4.437302
 31
0.0
  0
LINE
  8
0
  6
CONTINUOUS
 62
     0
  5
50
 10
26.821381
 20
3.16539
 30
0.0
 11
26.821381
 21
1.27224
 31
0.0
  0
LINE
  8
0
  6
CONTINUOUS
 62
     0
  5
51
 10
25.549355
 20
4.437317
 30
0.0
 11
25.549355
 21
0.000015
 31
0.0
  0
LINE
  8
0
  6
CONTINUOUS
 62
     0
  5
52
 10
26.821388
 20
3.1651
 30
0.0
 11
29.318481
 21
3.1651
 31
0.0
  0
LINE
  8
0
  6
CONTINUOUS
 62
     0
  5
53
 10
26.821388
 20
1.271919
 30
0.0
 11
29.318481
 21
1.271919
 31
0.0
  0
LINE
  8
0
  6
CONTINUOUS
 62
     0
  5
54
 10
38.727936
 20
0.000015
 30
0.0
 11
39.999947
 21
0.000015
 31
0.0
  0
LINE
  8
0
  6
CONTINUOUS
 62
     0
  5
55
 10
38.727936
 20
4.437317
 30
0.0
 11
39.999947
 21
4.437317
 31
0.0
  0
LINE
  8
0
  6
CONTINUOUS
 62
     0
  5
56
 10
23.478714
 20
4.437302
 30
0.0
 11
24.750725
 21
4.437302
 31
0.0
  0
LINE
  8
0
  6
CONTINUOUS
 62
     0
  5
57
 10
25.549408
 20
4.437302
 30
0.0
 11
29.621742
 21
4.437302
 31
0.0
  0
LINE
  8
0
  6
CONTINUOUS
 62
     0
  5
58
 10
24.750397
 20
4.437317
 30
0.0
 11
24.750397
 21
1.28949
 31
0.0
  0
LINE
  8
0
  6
CONTINUOUS
 62
     0
  5
59
 10
23.478989
 20
4.437309
 30
0.0
 11
23.478989
 21
1.622185
 31
0.0
  0
LINE
  8
0
  6
CONTINUOUS
 62
     0
  5
5A
 10
19.248566
 20
4.437302
 30
0.0
 11
19.248566
 21
1.28949
 31
0.0
  0
LINE
  8
0
  6
CONTINUOUS
 62
     0
  5
5B
 10
20.5205
 20
4.437302
 30
0.0
 11
20.5205
 21
1.622192
 31
0.0
  0
LINE
  8
0
  6
CONTINUOUS
 62
     0
  5
5C
 10
3.786705
 20
4.437302
 30
0.0
 11
5.608849
 21
4.437302
 31
0.0
  0
LINE
  8
0
  6
CONTINUOUS
 62
     0
  5
5D
 10
3.228285
 20
2.219162
 30
0.0
 11
5.608237
 21
4.437769
 31
0.0
  0
LINE
  8
0
  6
CONTINUOUS
 62
     0
  5
5E
 10
3.228971
 20
2.218703
 30
0.0
 11
5.608881
 21
0.000134
 31
0.0
  0
LINE
  8
0
  6
CONTINUOUS
 62
     0
  5
5F
 10
3.786705
 20
0.000015
 30
0.0
 11
5.608849
 21
0.000015
 31
0.0
  0
LINE
  8
0
  6
CONTINUOUS
 62
     0
  5
60
 10
2.041563
 20
1.627004
 30
0.0
 11
3.786919
 21
-0.000054
 31
0.0
  0
LINE
  8
0
  6
CONTINUOUS
 62
     0
  5
61
 10
1.242905
 20
1.627098
 30
0.0
 11
2.041748
 21
1.627098
 31
0.0
  0
LINE
  8
0
  6
CONTINUOUS
 62
     0
  5
62
 10
2.041729
 20
2.809854
 30
0.0
 11
3.78704
 21
4.436829
 31
0.0
  0
LINE
  8
0
  6
CONTINUOUS
 62
     0
  5
63
 10
1.242905
 20
2.810196
 30
0.0
 11
2.041748
 21
2.810196
 31
0.0
  0
LINE
  8
0
  6
CONTINUOUS
 62
     0
  5
64
 10
1.242874
 20
4.437302
 30
0.0
 11
1.242874
 21
2.810211
 31
0.0
  0
LINE
  8
0
  6
CONTINUOUS
 62
     0
  5
65
 10
0.000366
 20
4.437302
 30
0.0
 11
1.242905
 21
4.437302
 31
0.0
  0
LINE
  8
0
  6
CONTINUOUS
 62
     0
  5
66
 10
0.0
 20
4.437302
 30
0.0
 11
0.0
 21
0.000015
 31
0.0
  0
LINE
  8
0
  6
CONTINUOUS
 62
     0
  5
67
 10
1.243866
 20
1.627106
 30
0.0
 11
1.243866
 21
0.0
 31
0.0
  0
LINE
  8
0
  6
CONTINUOUS
 62
     0
  5
68
 10
0.000366
 20
0.0
 30
0.0
 11
1.242905
 21
0.0
 31
0.0
  0
LINE
  8
0
  6
CONTINUOUS
 62
     0
  5
69
 10
25.549408
 20
0.000015
 30
0.0
 11
29.621742
 21
0.000015
 31
0.0
  0
LINE
  8
0
  6
CONTINUOUS
 62
     0
  5
6A
 10
19.248573
 20
4.437302
 30
0.0
 11
20.520576
 21
4.437302
 31
0.0
  0
LINE
  8
0
  6
CONTINUOUS
 62
     0
  5
6B
 10
36.674271
 20
0.000015
 30
0.0
 11
38.136307
 21
0.000015
 31
0.0
  0
LINE
  8
0
  6
CONTINUOUS
 62
     0
  5
6C
 10
31.288223
 20
0.0
 30
0.0
 11
32.750244
 21
0.0
 31
0.0
  0
LINE
  8
0
  6
CONTINUOUS
 62
     0
  5
6D
 10
33.802635
 20
4.437317
 30
0.0
 11
35.621895
 21
4.437317
 31
0.0
  0
LINE
  8
0
  6
CONTINUOUS
 62
     0
  5
6E
 10
16.834892
 20
4.437302
 30
0.0
 11
18.656952
 21
4.437302
 31
0.0
  0
LINE
  8
0
  6
CONTINUOUS
 62
     0
  5
6F
 10
16.834892
 20
0.000015
 30
0.0
 11
18.656952
 21
0.000015
 31
0.0
  0
LINE
  8
0
  6
CONTINUOUS
 62
     0
  5
70
 10
14.29081
 20
1.627098
 30
0.0
 11
14.29081
 21
0.0
 31
0.0
  0
LINE
  8
0
  6
CONTINUOUS
 62
     0
  5
71
 10
38.136126
 20
0.000097
 30
0.0
 11
35.62175
 21
4.437263
 31
0.0
  0
LINE
  8
0
  6
CONTINUOUS
 62
     0
  5
72
 10
36.674036
 20
0.000002
 30
0.0
 11
36.254984
 21
0.739515
 31
0.0
  0
LINE
  8
0
  6
CONTINUOUS
 62
     0
  5
73
 10
35.752436
 20
1.626965
 30
0.0
 11
34.712341
 21
3.462418
 31
0.0
  0
LINE
  8
0
  6
CONTINUOUS
 62
     0
  5
74
 10
33.672051
 20
1.627072
 30
0.0
 11
34.712108
 21
3.462442
 31
0.0
  0
LINE
  8
0
  6
CONTINUOUS
 62
     0
  5
75
 10
33.672188
 20
1.627083
 30
0.0
 11
35.752327
 21
1.627083
 31
0.0
  0
LINE
  8
0
  6
CONTINUOUS
 62
     0
  5
76
 10
33.169319
 20
0.738998
 30
0.0
 11
36.255188
 21
0.738998
 31
0.0
  0
LINE
  8
0
  6
CONTINUOUS
 62
     0
  5
77
 10
32.750442
 20
-0.000219
 30
0.0
 11
33.169532
 21
0.739348
 31
0.0
  0
LINE
  8
0
  6
CONTINUOUS
 62
     0
  5
78
 10
31.287743
 20
0.000262
 30
0.0
 11
33.80215
 21
4.437459
 31
0.0
  0
LINE
  8
0
  6
CONTINUOUS
 62
     0
  5
79
 10
16.277017
 20
2.218516
 30
0.0
 11
18.656834
 21
0.000049
 31
0.0
  0
LINE
  8
0
  6
CONTINUOUS
 62
     0
  5
7A
 10
15.089823
 20
1.626855
 30
0.0
 11
16.835171
 21
-0.000145
 31
0.0
  0
LINE
  8
0
  6
CONTINUOUS
 62
     0
  5
7B
 10
16.277186
 20
2.218402
 30
0.0
 11
18.657143
 21
4.437007
 31
0.0
  0
LINE
  8
0
  6
CONTINUOUS
 62
     0
  5
7C
 10
15.089013
 20
2.810919
 30
0.0
 11
16.834306
 21
4.437876
 31
0.0
  0
LINE
  8
0
  6
CONTINUOUS
 62
     0
  5
7D
 10
14.290756
 20
2.810212
 30
0.0
 11
15.089454
 21
2.810197
 31
0.0
  0
LINE
  8
0
  6
CONTINUOUS
 62
     0
  5
7E
 10
14.290886
 20
1.627098
 30
0.0
 11
15.089615
 21
1.627098
 31
0.0
  0
LINE
  8
0
  6
CONTINUOUS
 62
     0
  5
7F
 10
14.29081
 20
4.437302
 30
0.0
 11
14.29081
 21
2.810196
 31
0.0
  0
LINE
  8
0
  6
CONTINUOUS
 62
     0
  5
80
 10
13.0485
 20
0.000015
 30
0.0
 11
14.290878
 21
0.000015
 31
0.0
  0
LINE
  8
0
  6
CONTINUOUS
 62
     0
  5
81
 10
13.048416
 20
4.437317
 30
0.0
 11
13.048416
 21
0.000015
 31
0.0
  0
LINE
  8
0
  6
CONTINUOUS
 62
     0
  5
82
 10
13.048546
 20
4.437316
 30
0.0
 11
14.290932
 21
4.437301
 31
0.0
  0
ENDBLK
  8
0
  6
BYBLOCK
 62
     0
  5
83
  0
BLOCK
  8
0
  6
BYBLOCK
 62
     0
  5
BE
  2
*D3
 70
     1
 10
0.0
 20
0.0
 30
0.0
  3
*D3
  0
LINE
  8
0
  6
CONTINUOUS
 62
   143
  5
BF
 10
1103.940926
 20
-1536.434071
 30
0.0
 11
1073.440926
 21
-1536.434071
 31
0.0
  0
LINE
  8
0
  6
CONTINUOUS
 62
   143
  5
C0
 10
1103.940926
 20
-1524.323749
 30
0.0
 11
1103.940926
 21
-1537.934071
 31
0.0
  0
LINE
  8
0
  6
CONTINUOUS
 62
   143
  5
C1
 10
1073.440926
 20
-1524.323749
 30
0.0
 11
1073.440926
 21
-1537.934071
 31
0.0
  0
INSERT
  8
0
  6
CONTINUOUS
 62
   143
  5
C2
  2
_OPEN30
 10
1103.940926
 20
-1536.434071
 30
0.0
 41
2.77
 42
2.77
 43
2.77
  0
INSERT
  8
0
  6
CONTINUOUS
 62
   143
  5
C3
  2
_OPEN30
 10
1073.440926
 20
-1536.434071
 30
0.0
 41
2.77
 42
2.77
 50
180.0
 43
2.77
  0
TEXT
  8
0
  6
CONTINUOUS
 62
   143
  5
C5
 10
1082.861296
 20
-1535.434071
 30
0.0
 40
2.5
  1
%%c30.5
 41
1.008888
  7
MX_DIMTXSTY_2
 11
1082.861296
 21
-1534.184071
 31
0.0
 73
     2
  0
POINT
  8
DEFPOINTS
  6
CONTINUOUS
 62
     0
  5
C6
 10
1103.940926
 20
-1522.823749
 30
0.0
  0
POINT
  8
DEFPOINTS
  6
CONTINUOUS
 62
     0
  5
C7
 10
1073.440926
 20
-1522.823749
 30
0.0
  0
POINT
  8
DEFPOINTS
  6
CONTINUOUS
 62
     0
  5
C8
 10
1073.440926
 20
-1536.434071
 30
0.0
  0
ENDBLK
  8
0
  6
BYBLOCK
 62
     0
  5
C9
  0
BLOCK
  8
0
  6
BYBLOCK
 62
     0
  5
CC
  2
*D4
 70
     1
 10
0.0
 20
0.0
 30
0.0
  3
*D4
  0
LINE
  8
0
  6
CONTINUOUS
 62
   143
  5
CD
 10
1105.690926
 20
-1543.203905
 30
0.0
 11
1071.690926
 21
-1543.203905
 31
0.0
  0
LINE
  8
0
  6
CONTINUOUS
 62
   143
  5
CE
 10
1105.690926
 20
-1516.061409
 30
0.0
 11
1105.690926
 21
-1544.703905
 31
0.0
  0
LINE
  8
0
  6
CONTINUOUS
 62
   143
  5
CF
 10
1071.690926
 20
-1516.061409
 30
0.0
 11
1071.690926
 21
-1544.703905
 31
0.0
  0
INSERT
  8
0
  6
CONTINUOUS
 62
   143
  5
D0
  2
_OPEN30
 10
1105.690926
 20
-1543.203905
 30
0.0
 41
2.77
 42
2.77
 43
2.77
  0
INSERT
  8
0
  6
CONTINUOUS
 62
   143
  5
D1
  2
_OPEN30
 10
1071.690926
 20
-1543.203905
 30
0.0
 41
2.77
 42
2.77
 50
180.0
 43
2.77
  0
TEXT
  8
0
  6
CONTINUOUS
 62
   143
  5
D2
 10
1082.861296
 20
-1542.203905
 30
0.0
 40
2.5
  1
%%c34.0
 41
1.008888
  7
MX_DIMTXSTY_2
 11
1082.861296
 21
-1540.953905
 31
0.0
 73
     2
  0
POINT
  8
DEFPOINTS
  6
CONTINUOUS
 62
     0
  5
D3
 10
1105.690926
 20
-1514.561409
 30
0.0
  0
POINT
  8
DEFPOINTS
  6
CONTINUOUS
 62
     0
  5
D4
 10
1071.690926
 20
-1514.561409
 30
0.0
  0
POINT
  8
DEFPOINTS
  6
CONTINUOUS
 62
     0
  5
D5
 10
1071.690926
 20
-1543.203905
 30
0.0
  0
ENDBLK
  8
0
  6
BYBLOCK
 62
     0
  5
D6
  0
BLOCK
  8
0
  6
BYBLOCK
 62
     0
  5
D9
  2
*D5
 70
     1
 10
0.0
 20
0.0
 30
0.0
  3
*D5
  0
LINE
  8
0
  6
CONTINUOUS
 62
   143
  5
DA
 10
1130.565184
 20
-1495.823749
 30
0.0
 11
1130.565184
 21
-1522.823749
 31
0.0
  0
LINE
  8
0
  6
CONTINUOUS
 62
   143
  5
DB
 10
1090.190927
 20
-1495.823749
 30
0.0
 11
1132.065184
 21
-1495.823749
 31
0.0
  0
LINE
  8
0
  6
CONTINUOUS
 62
   143
  5
DC
 10
1105.035736
 20
-1522.823749
 30
0.0
 11
1132.065184
 21
-1522.823749
 31
0.0
  0
INSERT
  8
0
  6
CONTINUOUS
 62
   143
  5
DD
  2
_OPEN30
 10
1130.565184
 20
-1495.823749
 30
0.0
 41
2.77
 42
2.77
 50
90.0
 43
2.77
  0
INSERT
  8
0
  6
CONTINUOUS
 62
   143
  5
DE
  2
_OPEN30
 10
1130.565184
 20
-1522.823749
 30
0.0
 41
2.77
 42
2.77
 50
270.0
 43
2.77
  0
TEXT
  8
0
  6
CONTINUOUS
 62
   143
  5
E0
 10
1129.565184
 20
-1513.902697
 30
0.0
 40
2.5
  1
27.0
 50
90.0
 41
1.010526
  7
MX_DIMTXSTY_3
 11
1128.315184
 21
-1513.902697
 31
0.0
 73
     2
  0
POINT
  8
DEFPOINTS
  6
CONTINUOUS
 62
     0
  5
E1
 10
1088.690927
 20
-1495.823749
 30
0.0
  0
POINT
  8
DEFPOINTS
  6
CONTINUOUS
 62
     0
  5
E2
 10
1103.535736
 20
-1522.823749
 30
0.0
  0
POINT
  8
DEFPOINTS
  6
CONTINUOUS
 62
     0
  5
E3
 10
1130.565184
 20
-1522.823749
 30
0.0
  0
ENDBLK
  8
0
  6
BYBLOCK
 62
     0
  5
E4
  0
BLOCK
  8
0
  6
BYBLOCK
 62
     0
  5
101
  2
*D6
 70
     1
 10
0.0
 20
0.0
 30
0.0
  3
*D6
  0
LINE
  8
0
  6
CONTINUOUS
 62
   143
  5
102
 10
1061.690926
 20
-1480.865169
 30
0.0
 11
1115.690926
 21
-1480.865169
 31
0.0
  0
LINE
  8
0
  6
CONTINUOUS
 62
   143
  5
103
 10
1061.690926
 20
-1499.66834
 30
0.0
 11
1061.690926
 21
-1479.365169
 31
0.0
  0
LINE
  8
0
  6
CONTINUOUS
 62
   143
  5
104
 10
1115.690926
 20
-1499.66834
 30
0.0
 11
1115.690926
 21
-1479.365169
 31
0.0
  0
INSERT
  8
0
  6
CONTINUOUS
 62
   143
  5
105
  2
_OPEN30
 10
1061.690926
 20
-1480.865169
 30
0.0
 41
2.77
 42
2.77
 50
180.0
 43
2.77
  0
INSERT
  8
0
  6
CONTINUOUS
 62
   143
  5
106
  2
_OPEN30
 10
1115.690926
 20
-1480.865169
 30
0.0
 41
2.77
 42
2.77
 43
2.77
  0
TEXT
  8
0
  6
CONTINUOUS
 62
   143
  5
107
 10
1081.897727
 20
-1479.865169
 30
0.0
 40
2.5
  1
%%c54.0
 41
1.008888
  7
MX_DIMTXSTY_2
 11
1081.897727
 21
-1478.615169
 31
0.0
 73
     2
  0
POINT
  8
DEFPOINTS
  6
CONTINUOUS
 62
     0
  5
108
 10
1061.690926
 20
-1501.16834
 30
0.0
  0
POINT
  8
DEFPOINTS
  6
CONTINUOUS
 62
     0
  5
109
 10
1115.690926
 20
-1501.16834
 30
0.0
  0
POINT
  8
DEFPOINTS
  6
CONTINUOUS
 62
     0
  5
10A
 10
1115.690926
 20
-1480.865169
 30
0.0
  0
ENDBLK
  8
0
  6
BYBLOCK
 62
     0
  5
10B
  0
ENDSEC
  0
SECTION
  2
ENTITIES
  0
INSERT
  8
PV
  6
BYBLOCK
 62
   143
  5
34
  2
$KAKUDAI-3
 10
1004.350411
 20
-1617.656652
 30
0.0
  0
INSERT
  8
PV
  6
BYBLOCK
 62
   143
  5
84
  2
$KAKUDAI-2
 10
1013.561021
 20
-1620.03716
 30
0.0
  0
TEXT
  8
PV
  6
CONTINUOUS
 62
   143
  5
85
 10
1120.885371
 20
-1620.156652
 30
0.0
 40
5.0
  1
化粧キャップ
 41
0.833333
  7
MX_NOTE_STANDARD
 11
1120.885371
 21
-1617.656652
 31
0.0
 73
     2
  0
TEXT
  8
PV
  6
CONTINUOUS
 62
   143
  5
86
 10
1121.111979
 20
-1607.656652
 30
0.0
 40
5.0
  1
433-114
 41
1.105263
  7
MX_NOTE_STANDARD
 11
1121.111979
 21
-1605.156652
 31
0.0
 73
     2
  0
TEXT
  8
PV
  6
CONTINUOUS
 62
   143
  5
87
 10
1062.193319
 20
-1618.906652
 30
0.0
 40
3.0
  1
2008年02月04日 作成
 41
1.004785
  7
MX_NOTE_STANDARD
 11
1062.193319
 21
-1617.406652
 31
0.0
 73
     2
  0
TEXT
  8
PV
  6
CONTINUOUS
 62
   143
  5
88
 10
1100.996482
 20
-1611.281652
 30
0.0
 40
4.0
  1
中嶋
 41
0.833333
  7
MX_NOTE_STANDARD
 11
1100.996482
 21
-1609.281652
 31
0.0
 73
     2
  0
TEXT
  8
PV
  6
CONTINUOUS
 62
   143
  5
89
 10
1083.496482
 20
-1611.281652
 30
0.0
 40
4.0
  1
甲藤
 41
0.833333
  7
MX_NOTE_STANDARD
 11
1083.496482
 21
-1609.281652
 31
0.0
 73
     2
  0
TEXT
  8
PV
  6
CONTINUOUS
 62
   143
  5
8A
 10
1065.996482
 20
-1611.281652
 30
0.0
 40
4.0
  1
田中
 41
0.833333
  7
MX_NOTE_STANDARD
 11
1065.996482
 21
-1609.281652
 31
0.0
 73
     2
  0
CIRCLE
  8
PV
  6
CONTINUOUS
 62
   130
  5
8B
 10
1002.350411
 20
-1605.156652
 30
0.0
 40
1.875
  0
CIRCLE
  8
PV
  6
CONTINUOUS
 62
   130
  5
8C
 10
1002.350411
 20
-1605.156652
 30
0.0
 40
3.375
  0
LINE
  8
PV
  6
CENTER
 62
   140
  5
8E
 10
997.581963
 20
-1605.156652
 30
0.0
 11
1017.015588
 21
-1605.156652
 31
0.0
  0
TEXT
  8
PV
  6
CONTINUOUS
 62
   143
  5
8F
 10
1061.538149
 20
-1623.031652
 30
0.0
 40
2.5
  1
図番
 41
0.833333
  7
MX_NOTE_STANDARD
 11
1061.538149
 21
-1621.781652
 31
0.0
 73
     2
  0
LINE
  8
PV
  6
CONTINUOUS
 62
   130
  5
90
 10
1066.690926
 20
-1619.656652
 30
0.0
 11
1066.690926
 21
-1623.906652
 31
0.0
  0
LINE
  8
PV
  6
CONTINUOUS
 62
   130
  5
91
 10
1060.690926
 20
-1615.406652
 30
0.0
 11
1113.190926
 21
-1615.406652
 31
0.0
  0
LINE
  8
PV
  6
CONTINUOUS
 62
   130
  5
92
 10
1056.473286
 20
-1602.421349
 30
0.0
 11
1048.769962
 21
-1608.840786
 31
0.0
  0
TEXT
  8
PV
  6
CONTINUOUS
 62
   110
  5
93
 10
1048.274604
 20
-1604.489316
 30
0.0
 40
3.75
  1
1
 41
1.7145
  7
MX_NOTE_STANDARD
 11
1048.274604
 21
-1602.614316
 31
0.0
 73
     2
  0
TEXT
  8
PV
  6
CONTINUOUS
 62
   110
  5
94
 10
1055.177932
 20
-1609.726331
 30
0.0
 40
3.75
  1
1
 41
1.7145
  7
MX_NOTE_STANDARD
 11
1055.177932
 21
-1607.851331
 31
0.0
 73
     2
  0
TEXT
  8
PV
  6
CONTINUOUS
 62
   140
  5
95
 10
1114.10501
 20
-1609.251272
 30
0.0
 40
3.75
  1
番
 41
0.9525
  7
MX_NOTE_STANDARD
 11
1114.10501
 21
-1607.376272
 31
0.0
 73
     2
  0
TEXT
  8
PV
  6
CONTINUOUS
 62
   140
  5
96
 10
1114.10501
 20
-1604.251272
 30
0.0
 40
3.75
  1
品
 41
0.9525
  7
MX_NOTE_STANDARD
 11
1114.10501
 21
-1602.376272
 31
0.0
 73
     2
  0
TEXT
  8
PV
  6
CONTINUOUS
 62
   140
  5
97
 10
1114.10501
 20
-1616.751272
 30
0.0
 40
3.75
  1
品
 41
0.9525
  7
MX_NOTE_STANDARD
 11
1114.10501
 21
-1614.876272
 31
0.0
 73
     2
  0
TEXT
  8
PV
  6
CONTINUOUS
 62
   140
  5
98
 10
1114.10501
 20
-1621.751272
 30
0.0
 40
3.75
  1
名
 41
0.9525
  7
MX_NOTE_STANDARD
 11
1114.10501
 21
-1619.876272
 31
0.0
 73
     2
  0
LINE
  8
PV
  6
CONTINUOUS
 62
   130
  5
99
 10
1118.190926
 20
-1598.906652
 30
0.0
 11
1118.190926
 21
-1623.906652
 31
0.0
  0
TEXT
  8
PV
  6
CONTINUOUS
 62
   140
  5
9A
 10
1062.359024
 20
-1602.630126
 30
0.0
 40
3.2
  1
製　　図
  7
MX_NOTE_STANDARD
 11
1062.359024
 21
-1601.030126
 31
0.0
 73
     2
  0
LINE
  8
PV
  6
CONTINUOUS
 62
   130
  5
9B
 10
1060.690926
 20
-1619.656652
 30
0.0
 11
1113.190926
 21
-1619.656652
 31
0.0
  0
LINE
  8
PV
  6
CONTINUOUS
 62
   130
  5
9C
 10
1060.690926
 20
-1603.156652
 30
0.0
 11
1113.190926
 21
-1603.156652
 31
0.0
  0
LINE
  8
PV
  6
CONTINUOUS
 62
   130
  5
9D
 10
1040.690926
 20
-1598.906652
 30
0.0
 11
1040.690926
 21
-1611.406652
 31
0.0
  0
LINE
  8
PV
  6
CONTINUOUS
 62
   130
  5
9E
 10
1020.690926
 20
-1598.906652
 30
0.0
 11
1020.690926
 21
-1611.406652
 31
0.0
  0
LINE
  8
PV
  6
CONTINUOUS
 62
   130
  5
9F
 10
1045.690926
 20
-1598.906652
 30
0.0
 11
1045.690926
 21
-1611.406652
 31
0.0
  0
LINE
  8
PV
  6
CONTINUOUS
 62
   130
  5
A0
 10
1007.975399
 20
-1603.281676
 30
0.0
 11
1015.475399
 21
-1601.781676
 31
0.0
  0
LINE
  8
PV
  6
CONTINUOUS
 62
   130
  5
A1
 10
1007.975416
 20
-1607.031671
 30
0.0
 11
1015.475416
 21
-1608.531671
 31
0.0
  0
LINE
  8
PV
  6
CONTINUOUS
 62
   130
  5
A2
 10
1015.475411
 20
-1601.781652
 30
0.0
 11
1015.475411
 21
-1608.531637
 31
0.0
  0
LINE
  8
PV
  6
CONTINUOUS
 62
   130
  5
A3
 10
1007.975411
 20
-1603.281652
 30
0.0
 11
1007.975411
 21
-1607.031637
 31
0.0
  0
LINE
  8
PV
  6
CENTER
 62
   140
  5
A4
 10
1002.350411
 20
-1600.083288
 30
0.0
 11
1002.350411
 21
-1610.159978
 31
0.0
  0
TEXT
  8
PV
  6
CONTINUOUS
 62
   140
  5
A5
 10
1097.435214
 20
-1602.630126
 30
0.0
 40
3.2
  1
承 　認
 41
1.142857
  7
MX_NOTE_STANDARD
 11
1097.435214
 21
-1601.030126
 31
0.0
 73
     2
  0
TEXT
  8
PV
  6
CONTINUOUS
 62
   140
  5
A6
 10
1079.935214
 20
-1602.630126
 30
0.0
 40
3.2
  1
検　 図
 41
1.142857
  7
MX_NOTE_STANDARD
 11
1079.935214
 21
-1601.030126
 31
0.0
 73
     2
  0
TEXT
  8
PV
  6
CONTINUOUS
 62
   140
  5
A7
 10
1041.60501
 20
-1609.251272
 30
0.0
 40
3.75
  1
度
 41
0.9525
  7
MX_NOTE_STANDARD
 11
1041.60501
 21
-1607.376272
 31
0.0
 73
     2
  0
TEXT
  8
PV
  6
CONTINUOUS
 62
   140
  5
A8
 10
1022.119073
 20
-1607.107824
 30
0.0
 40
3.75
  1
単位ｍｍ
  7
MX_NOTE_STANDARD
 11
1022.119073
 21
-1605.232824
 31
0.0
 73
     2
  0
TEXT
  8
PV
  6
CONTINUOUS
 62
   140
  5
A9
 10
1041.60501
 20
-1604.251272
 30
0.0
 40
3.75
  1
尺
 41
0.9525
  7
MX_NOTE_STANDARD
 11
1041.60501
 21
-1602.376272
 31
0.0
 73
     2
  0
LINE
  8
PV
  6
CONTINUOUS
 62
   130
  5
AA
 10
1060.690926
 20
-1598.906652
 30
0.0
 11
1060.690926
 21
-1623.906652
 31
0.0
  0
LINE
  8
PV
  6
CONTINUOUS
 62
   130
  5
AB
 10
1078.190926
 20
-1598.906652
 30
0.0
 11
1078.190926
 21
-1615.406652
 31
0.0
  0
LINE
  8
PV
  6
CONTINUOUS
 62
   130
  5
AC
 10
1095.690926
 20
-1598.906652
 30
0.0
 11
1095.690926
 21
-1615.406652
 31
0.0
  0
LINE
  8
PV
  6
CONTINUOUS
 62
   130
  5
AD
 10
1113.190926
 20
-1598.906652
 30
0.0
 11
1113.190926
 21
-1623.906652
 31
0.0
  0
TEXT
  8
PV
  6
CONTINUOUS
 62
   143
  5
AE
 10
1068.226641
 20
-1623.281652
 30
0.0
 40
3.0
  1
CSK433114A
 41
1.071429
  7
MX_NOTE_STANDARD
 11
1068.226641
 21
-1621.781652
 31
0.0
 73
     2
  0
LINE
  8
PV
  6
CONTINUOUS
 62
   130
  5
AF
 10
993.690926
 20
-1623.906652
 30
0.0
 11
1183.690926
 21
-1623.906652
 31
0.0
  0
LINE
  8
PV
  6
CONTINUOUS
 62
   130
  5
B0
 10
1113.190926
 20
-1611.406652
 30
0.0
 11
1183.690926
 21
-1611.406652
 31
0.0
  0
LINE
  8
PV
  6
CONTINUOUS
 62
   130
  5
B1
 10
993.690926
 20
-1598.906652
 30
0.0
 11
1183.690926
 21
-1598.906652
 31
0.0
  0
LINE
  8
PV
  6
CONTINUOUS
 62
   130
  5
B2
 10
993.690926
 20
-1611.406652
 30
0.0
 11
1060.690926
 21
-1611.406652
 31
0.0
  0
LINE
  8
DEFPOINTS
  6
NON_PLOTING
 62
   130
  5
B4
 10
983.690926
 20
-1336.906652
 30
0.0
 11
1193.690926
 21
-1336.906652
 31
0.0
  0
LINE
  8
DEFPOINTS
  6
NON_PLOTING
 62
   130
  5
B5
 10
983.690926
 20
-1633.906652
 30
0.0
 11
1193.690926
 21
-1633.906652
 31
0.0
  0
LINE
  8
DEFPOINTS
  6
NON_PLOTING
 62
   130
  5
B6
 10
983.690926
 20
-1633.906652
 30
0.0
 11
983.690926
 21
-1336.906652
 31
0.0
  0
LINE
  8
DEFPOINTS
  6
NON_PLOTING
 62
   130
  5
B7
 10
1193.690926
 20
-1633.906652
 30
0.0
 11
1193.690926
 21
-1336.906652
 31
0.0
  0
LINE
  8
PV
  6
CONTINUOUS
 62
   120
  5
B8
 10
1183.690926
 20
-1623.906652
 30
0.0
 11
1183.690926
 21
-1346.906652
 31
0.0
  0
LINE
  8
PV
  6
CONTINUOUS
 62
   120
  5
B9
 10
993.690926
 20
-1346.906652
 30
0.0
 11
1183.690926
 21
-1346.906652
 31
0.0
  0
LINE
  8
PV
  6
CONTINUOUS
 62
   130
  5
BA
 10
993.690926
 20
-1346.906652
 30
0.0
 11
993.690926
 21
-1623.906652
 31
0.0
  0
POINT
  8
0_5
  6
CONTINUOUS
 62
    20
  5
BB
 10
1103.940926
 20
-1522.823749
 30
0.0
  0
POINT
  8
0_5
  6
CONTINUOUS
 62
    20
  5
BC
 10
1073.440926
 20
-1522.823749
 30
0.0
  0
DIMENSION
  8
0_5
  6
CONTINUOUS
 62
   143
  5
CA
  2
*D3
 10
1073.440926
 20
-1536.434071
 30
0.0
 11
1088.690926
 21
-1536.434071
 31
0.0
 70
   128
  1
%%c<>
 13
1103.940926
 23
-1522.823749
 33
0.0
 14
1073.440926
 24
-1522.823749
 34
0.0
  3
MXDIMSTYLE
1001
ACAD
1000
DSTYLE
1002
{
1070
    41
1040
2.77
1070
   271
1070
     1
1070
   284
1070
     8
1070
   340
1005
C4
1002
}
  0
DIMENSION
  8
0_5
  6
CONTINUOUS
 62
   143
  5
D7
  2
*D4
 10
1071.690926
 20
-1543.203905
 30
0.0
 11
1088.690926
 21
-1543.203905
 31
0.0
 70
   128
  1
%%c<>
 13
1105.690926
 23
-1514.561409
 33
0.0
 14
1071.690926
 24
-1514.561409
 34
0.0
  3
MXDIMSTYLE
1001
ACAD
1000
DSTYLE
1002
{
1070
    41
1040
2.77
1070
    78
1070
     0
1070
   271
1070
     1
1070
   340
1005
C4
1002
}
  0
DIMENSION
  8
0_5
  6
CONTINUOUS
 62
   143
  5
E5
  2
*D5
 10
1130.565184
 20
-1522.823749
 30
0.0
 11
1130.565184
 21
-1509.323749
 31
0.0
 70
   128
  1
<>
 13
1088.690927
 23
-1495.823749
 33
0.0
 14
1103.535736
 24
-1522.823749
 34
0.0
 50
90.0
  3
MXDIMSTYLE
1001
ACAD
1000
DSTYLE
1002
{
1070
    41
1040
2.77
1070
    78
1070
     0
1070
   271
1070
     1
1070
   340
1005
DF
1002
}
  0
ARC
  8
0_5
  6
CONTINUOUS
 62
     3
  5
E6
 10
1073.846116
 20
-1522.323749
 30
0.0
 40
0.5
 50
191.95876
 51
270.0
  0
ARC
  8
0_5
  6
CONTINUOUS
 62
     3
  5
E7
 10
1103.535736
 20
-1522.323749
 30
0.0
 40
0.5
 50
270.0
 51
348.04124
  0
ARC
  8
0_5
  6
CONTINUOUS
 62
     3
  5
E8
 10
1088.690926
 20
-1571.223749
 30
0.0
 40
75.4
 50
69.279772
 51
110.720228
  0
ARC
  8
0_5
  6
CONTINUOUS
 62
     3
  5
E9
 10
1062.190926
 20
-1501.168343
 30
0.0
 40
0.5
 50
110.720228
 51
180.0
  0
ARC
  8
0_5
  6
CONTINUOUS
 62
     3
  5
EA
 10
1115.190926
 20
-1501.168343
 30
0.0
 40
0.5
 50
0.0
 51
69.279772
  0
ARC
  8
0_5
  6
CONTINUOUS
 62
     3
  5
EB
 10
1062.190926
 20
-1501.323749
 30
0.0
 40
0.5
 50
180.0
 51
270.0
  0
ARC
  8
0_5
  6
CONTINUOUS
 62
     3
  5
EC
 10
1115.190926
 20
-1501.323749
 30
0.0
 40
0.5
 50
270.0
 51
0.0
  0
LINE
  8
0_5
  6
CONTINUOUS
 62
     3
  5
ED
 10
1103.535736
 20
-1522.823749
 30
0.0
 11
1073.846116
 21
-1522.823749
 31
0.0
  0
LINE
  8
0_5
  6
CONTINUOUS
 62
     3
  5
EE
 10
1094.190926
 20
-1513.323749
 30
0.0
 11
1105.690926
 21
-1513.323749
 31
0.0
  0
LINE
  8
0_5
  6
CONTINUOUS
 62
     3
  5
EF
 10
1094.190926
 20
-1503.823749
 30
0.0
 11
1094.190926
 21
-1513.323749
 31
0.0
  0
LINE
  8
0_5
  6
CONTINUOUS
 62
     3
  5
F0
 10
1083.190926
 20
-1503.823749
 30
0.0
 11
1083.190926
 21
-1513.323749
 31
0.0
  0
LINE
  8
0_5
  6
CONTINUOUS
 62
     3
  5
F1
 10
1083.190926
 20
-1513.323749
 30
0.0
 11
1071.690926
 21
-1513.323749
 31
0.0
  0
LINE
  8
0_5
  6
CONTINUOUS
 62
     3
  5
F2
 10
1071.690926
 20
-1501.823749
 30
0.0
 11
1071.690926
 21
-1503.823749
 31
0.0
  0
LINE
  8
0_5
  6
CONTINUOUS
 62
     3
  5
F3
 10
1071.690926
 20
-1513.323749
 30
0.0
 11
1071.690926
 21
-1514.561409
 31
0.0
  0
LINE
  8
0_5
  6
CONTINUOUS
 62
     3
  5
F4
 10
1105.690926
 20
-1514.561409
 30
0.0
 11
1105.690926
 21
-1513.323749
 31
0.0
  0
LINE
  8
0_5
  6
CONTINUOUS
 62
     3
  5
F5
 10
1105.690926
 20
-1503.823749
 30
0.0
 11
1105.690926
 21
-1501.823749
 31
0.0
  0
LINE
  8
0_5
  6
CONTINUOUS
 62
     3
  5
F6
 10
1105.690926
 20
-1503.823749
 30
0.0
 11
1094.190926
 21
-1503.823749
 31
0.0
  0
LINE
  8
0_5
  6
CONTINUOUS
 62
     3
  5
F7
 10
1071.690926
 20
-1503.823749
 30
0.0
 11
1083.190926
 21
-1503.823749
 31
0.0
  0
LINE
  8
0_5
  6
CONTINUOUS
 62
     3
  5
F8
 10
1104.024885
 20
-1522.427353
 30
0.0
 11
1105.690926
 21
-1514.561409
 31
0.0
  0
LINE
  8
0_5
  6
CONTINUOUS
 62
     3
  5
F9
 10
1071.690926
 20
-1514.561409
 30
0.0
 11
1073.356968
 21
-1522.427353
 31
0.0
  0
LINE
  8
0_5
  6
CONTINUOUS
 62
     3
  5
FA
 10
1105.690926
 20
-1514.561409
 30
0.0
 11
1071.690926
 21
-1514.561409
 31
0.0
  0
LINE
  8
0_5
  6
CONTINUOUS
 62
     3
  5
FB
 10
1062.014024
 20
-1500.700683
 30
0.0
 11
1115.367829
 21
-1500.700683
 31
0.0
  0
LINE
  8
0_5
  6
CONTINUOUS
 62
     3
  5
FC
 10
1115.190926
 20
-1501.823749
 30
0.0
 11
1062.190926
 21
-1501.823749
 31
0.0
  0
LINE
  8
0_5
  6
CONTINUOUS
 62
     3
  5
FD
 10
1061.690926
 20
-1501.168343
 30
0.0
 11
1061.690926
 21
-1501.323749
 31
0.0
  0
LINE
  8
0_5
  6
PHANTOM
 62
   110
  5
FF
 10
1088.690926
 20
-1491.653924
 30
0.0
 11
1088.690926
 21
-1528.126061
 31
0.0
  0
DIMENSION
  8
0_5
  6
CONTINUOUS
 62
   143
  5
10C
  2
*D6
 10
1115.690926
 20
-1480.865169
 30
0.0
 11
1087.727357
 21
-1480.865169
 31
0.0
 70
   128
  1
%%c<>
 13
1061.690926
 23
-1501.16834
 33
0.0
 14
1115.690926
 24
-1501.16834
 34
0.0
  3
MXDIMSTYLE
1001
ACAD
1000
DSTYLE
1002
{
1070
    41
1040
2.77
1070
    78
1070
     0
1070
   271
1070
     1
1070
   340
1005
C4
1002
}
  0
LINE
  8
0_5
  6
CENTER
 62
   110
  5
10D
 10
1088.690926
 20
-1396.672333
 30
0.0
 11
1088.690926
 21
-1460.672333
 31
0.0
  0
LINE
  8
0_5
  6
CENTER
 62
   110
  5
10E
 10
1120.690926
 20
-1428.672333
 30
0.0
 11
1056.690926
 21
-1428.672333
 31
0.0
  0
CIRCLE
  8
0_5
  6
CONTINUOUS
 62
     3
  5
10F
 10
1088.690926
 20
-1428.672333
 30
0.0
 40
27.0
  0
ENDSEC
  0
EOF
