  0
SECTION
  2
HEADER
  9
$ACADVER
  1
AC1014
  9
$ACADMAINTVER
 70
     0
  9
$DWGCODEPAGE
  3
ANSI_932
  9
$INSBASE
 10
0.0
 20
0.0
 30
0.0
  9
$EXTMIN
 10
-1195.779015
 20
-829.777606
 30
0.0
  9
$EXTMAX
 10
1324.220985
 20
952.222394
 30
0.0
  9
$LIMMIN
 10
-1195.779015
 20
-829.777606
  9
$LIMMAX
 10
1324.220985
 20
952.222394
  9
$ORTHOMODE
 70
     0
  9
$REGENMODE
 70
     1
  9
$FILLMODE
 70
     1
  9
$QTEXTMODE
 70
     0
  9
$MIRRTEXT
 70
     1
  9
$DRAGMODE
 70
     2
  9
$LTSCALE
 40
1.0
  9
$OSMODE
 70
     0
  9
$ATTMODE
 70
     1
  9
$TEXTSIZE
 40
15.0
  9
$TRACEWID
 40
0.05
  9
$TEXTSTYLE
  7
MX_NOTE_STANDARD
  9
$CLAYER
  8
LY_1
  9
$CELTYPE
  6
CONTINUOUS
  9
$CECOLOR
 62
   256
  9
$CELTSCALE
 40
1.0
  9
$DELOBJ
 70
     1
  9
$DISPSILH
 70
     0
  9
$DIMSCALE
 40
6.0
  9
$DIMASZ
 40
2.5
  9
$DIMEXO
 40
1.5
  9
$DIMDLI
 40
3.75
  9
$DIMRND
 40
0.0
  9
$DIMDLE
 40
0.0
  9
$DIMEXE
 40
1.5
  9
$DIMTP
 40
0.0
  9
$DIMTM
 40
0.0
  9
$DIMTXT
 40
2.5
  9
$DIMCEN
 40
2.5
  9
$DIMTSZ
 40
0.0
  9
$DIMTOL
 70
     0
  9
$DIMLIM
 70
     0
  9
$DIMTIH
 70
     0
  9
$DIMTOH
 70
     0
  9
$DIMSE1
 70
     0
  9
$DIMSE2
 70
     0
  9
$DIMTAD
 70
     1
  9
$DIMZIN
 70
     8
  9
$DIMBLK
  1

  9
$DIMASO
 70
     1
  9
$DIMSHO
 70
     1
  9
$DIMPOST
  1

  9
$DIMAPOST
  1

  9
$DIMALT
 70
     0
  9
$DIMALTD
 70
     4
  9
$DIMALTF
 40
0.03937
  9
$DIMLFAC
 40
1.0
  9
$DIMTOFL
 70
     1
  9
$DIMTVP
 40
0.0
  9
$DIMTIX
 70
     0
  9
$DIMSOXD
 70
     0
  9
$DIMSAH
 70
     1
  9
$DIMBLK1
  1
_OPEN30
  9
$DIMBLK2
  1
_OPEN30
  9
$DIMSTYLE
  2
MXDIMSTYLE
  9
$DIMCLRD
 70
     0
  9
$DIMCLRE
 70
     0
  9
$DIMCLRT
 70
     0
  9
$DIMTFAC
 40
1.0
  9
$DIMGAP
 40
0.5
  9
$DIMJUST
 70
     0
  9
$DIMSD1
 70
     0
  9
$DIMSD2
 70
     0
  9
$DIMTOLJ
 70
     0
  9
$DIMTZIN
 70
     0
  9
$DIMALTZ
 70
     0
  9
$DIMALTTZ
 70
     0
  9
$DIMFIT
 70
     3
  9
$DIMUPT
 70
     0
  9
$DIMUNIT
 70
     2
  9
$DIMDEC
 70
     2
  9
$DIMTDEC
 70
     2
  9
$DIMALTU
 70
     2
  9
$DIMALTTD
 70
     4
  9
$DIMTXSTY
  7
MX_NOTE_STANDARD
  9
$DIMAUNIT
 70
     0
  9
$LUNITS
 70
     2
  9
$LUPREC
 70
     4
  9
$SKETCHINC
 40
0.1
  9
$FILLETRAD
 40
0.0
  9
$AUNITS
 70
     0
  9
$AUPREC
 70
     0
  9
$MENU
  1
acad
  9
$ELEVATION
 40
0.0
  9
$PELEVATION
 40
0.0
  9
$THICKNESS
 40
0.0
  9
$LIMCHECK
 70
     0
  9
$BLIPMODE
 70
     1
  9
$CHAMFERA
 40
0.0
  9
$CHAMFERB
 40
0.0
  9
$CHAMFERC
 40
0.0
  9
$CHAMFERD
 40
0.0
  9
$SKPOLY
 70
     0
  9
$TDCREATE
 40
2457311.753310185
  9
$TDUPDATE
 40
2457311.753310185
  9
$TDINDWG
 40
0.0000000000
  9
$TDUSRTIMER
 40
0.0000000000
  9
$USRTIMER
 70
     1
  9
$ANGBASE
 50
0.0
  9
$ANGDIR
 70
     0
  9
$PDMODE
 70
     0
  9
$PDSIZE
 40
0.0
  9
$PLINEWID
 40
0.0
  9
$COORDS
 70
     1
  9
$SPLFRAME
 70
     0
  9
$SPLINETYPE
 70
     6
  9
$SPLINESEGS
 70
     8
  9
$ATTDIA
 70
     0
  9
$ATTREQ
 70
     1
  9
$HANDLING
 70
     1
  9
$HANDSEED
  5
513
  9
$SURFTAB1
 70
     6
  9
$SURFTAB2
 70
     6
  9
$SURFTYPE
 70
     6
  9
$SURFU
 70
     6
  9
$SURFV
 70
     6
  9
$UCSNAME
  2

  9
$UCSORG
 10
0.0
 20
0.0
 30
0.0
  9
$UCSXDIR
 10
1.0
 20
0.0
 30
0.0
  9
$UCSYDIR
 10
0.0
 20
1.0
 30
0.0
  9
$PUCSNAME
  2

  9
$PUCSORG
 10
0.0
 20
0.0
 30
0.0
  9
$PUCSXDIR
 10
1.0
 20
0.0
 30
0.0
  9
$PUCSYDIR
 10
0.0
 20
1.0
 30
0.0
  9
$USERI1
 70
     0
  9
$USERI2
 70
     0
  9
$USERI3
 70
     0
  9
$USERI4
 70
     0
  9
$USERI5
 70
     0
  9
$USERR1
 40
0.0
  9
$USERR2
 40
0.0
  9
$USERR3
 40
0.0
  9
$USERR4
 40
0.0
  9
$USERR5
 40
0.0
  9
$WORLDVIEW
 70
     1
  9
$SHADEDGE
 70
     3
  9
$SHADEDIF
 70
    70
  9
$TILEMODE
 70
     1
  9
$MAXACTVP
 70
    16
  9
$PINSBASE
 10
0.0
 20
0.0
 30
0.0
  9
$PLIMCHECK
 70
     0
  9
$PEXTMIN
 10
1.000000E+20
 20
1.000000E+20
 30
1.000000E+20
  9
$PEXTMAX
 10
-1.000000E+20
 20
-1.000000E+20
 30
-1.000000E+20
  9
$PLIMMIN
 10
0.0
 20
0.0
  9
$PLIMMAX
 10
12.0
 20
9.0
  9
$UNITMODE
 70
     0
  9
$VISRETAIN
 70
     0
  9
$PLINEGEN
 70
     1
  9
$PSLTSCALE
 70
     0
  9
$TREEDEPTH
 70
  3020
  9
$PICKSTYLE
 70
     1
  9
$CMLSTYLE
  2
Standard
  9
$CMLJUST
 70
     0
  9
$CMLSCALE
 40
1.0
  9
$PROXYGRAPHICS
 70
     0
  9
$MEASUREMENT
 70
     1
  0
ENDSEC
  0
SECTION
  2
CLASSES
  0
CLASS
  1
LWPOLYLINE
  2
AcDbPolyline
  3
"AutoCAD"
 90
        0
280
     0
281
     1
  0
CLASS
  1
IMAGE
  2
AcDbRasterImage
  3
ISM
 90
      127
280
     0
281
     1
  0
CLASS
  1
OLE2FRAME
  2
AcDbOle2Frame
  3
""
 90
        0
280
     0
281
     1
  0
CLASS
  1
HATCH
  2
AcDbHatch
  3
"ACAD_SEDONA"
 90
        0
280
     0
281
     1
  0
CLASS
  1
DICTIONARYVAR
  2
AcDbDictionaryVar
  3
"AutoCAD"
 90
        0
280
     0
281
     0
  0
CLASS
  1
RASTERVARIABLES
  2
AcDbRasterVariables
  3
ISM
 90
        0
280
     0
281
     0
  0
CLASS
  1
IMAGEDEF
  2
AcDbRasterImageDef
  3
ISM
 90
        0
280
     0
281
     0
  0
CLASS
  1
IMAGEDEF_REACTOR
  2
AcDbRasterImageDefReactor
  3
ISM
 90
        1
280
     0
281
     0
  0
CLASS
  1
IDBUFFER
  2
AcDbIdBuffer
  3
"Acad"
 90
        0
280
     0
281
     0
  0
CLASS
  1
SPATIAL_FILTER
  2
AcDbSpatialFilter
  3
"Acad"
 90
        0
280
     0
281
     0
  0
CLASS
  1
XRECORD
  2
AcDbXrecord
  3
"<Built In>"
 90
        0
280
     0
281
     0
  0
CLASS
  1
SORTENTSTABLE
  2
AcDbSortentsTable
  3
"AutoCAD"
 90
        0
280
     0
281
     0
  0
CLASS
  1
LAYER_INDEX
  2
AcDbLayerIndex
  3
"Acad"
 90
        0
280
     0
281
     0
  0
CLASS
  1
SPATIAL_INDEX
  2
AcDbSpatialIndex
  3
"Acad"
 90
        0
280
     0
281
     0
  0
CLASS
  1
OBJECT_PTR
  2
CAseDLPNTableRecord
  3
"ASE-LPNTableRecord"
 90
        1
280
     0
281
     0
  0
CLASS
  1
LAYOUT
  2
AcDbLayout
  3
"AutoCAD 2000"
 90
        0
280
     0
281
     0
  0
CLASS
  1
PLOTSETTINGS
  2
AcDbPlotSettings
  3
"AutoCAD 2000"
 90
        0
280
     0
281
     0
  0
CLASS
  1
ACDBDICTIONARYWDFLT
  2
AcDbDictionaryWithDefault
  3
"AutoCAD 2000"
 90
        0
280
     0
281
     0
  0
CLASS
  1
ACDBPLACEHOLDER
  2
AcDbPlaceHolder
  3
"AutoCAD 2000"
 90
        0
280
     0
281
     0
  0
ENDSEC
  0
SECTION
  2
TABLES
  0
TABLE
  2
VPORT
  5
7
100
AcDbSymbolTable
 70
     1
  0
VPORT
  5
15
100
AcDbSymbolTableRecord
100
AcDbViewportTableRecord
  2
*ACTIVE
 70
     0
 10
0.0
 20
0.0
 11
1.0
 21
1.0
 12
64.220985
 22
61.222394
 13
0.0
 23
0.0
 14
1.0
 24
1.0
 15
0.0
 25
0.0
 16
0.0
 26
0.0
 36
1.0
 17
0.0
 27
0.0
 37
0.0
 40
1799.82
 41
1.732051
 42
50.0
 43
0.0
 44
0.0
 50
0.0
 51
0.0
 71
     0
 72
   100
 73
     1
 74
     1
 75
     0
 76
     0
 77
     0
 78
     0
  0
ENDTAB
  0
TABLE
  2
LTYPE
  5
4
100
AcDbSymbolTable
 70
     6
  0
LTYPE
  5
11
100
AcDbSymbolTableRecord
100
AcDbLinetypeTableRecord
  2
BYBLOCK
 70
    64
  3

 72
    65
 73
     0
 40
0.0
  0
LTYPE
  5
12
100
AcDbSymbolTableRecord
100
AcDbLinetypeTableRecord
  2
BYLAYER
 70
    64
  3

 72
    65
 73
     0
 40
0.0
  0
LTYPE
  5
13
100
AcDbSymbolTableRecord
100
AcDbLinetypeTableRecord
  2
CONTINUOUS
 70
    64
  3
Solid line
 72
    65
 73
     0
 40
0.0
  0
LTYPE
  5
93
100
AcDbSymbolTableRecord
100
AcDbLinetypeTableRecord
  2
CENTER
 70
    64
  3
Center ____ _ ____ _ ____ _ ____ _ ____ _ ____
 72
    65
 73
     4
 40
50.8
 49
31.75
 74
     0
 49
-6.35
 74
     0
 49
6.35
 74
     0
 49
-6.35
 74
     0
  0
LTYPE
  5
B8
100
AcDbSymbolTableRecord
100
AcDbLinetypeTableRecord
  2
NON_PLOTING
 70
     0
  3
Solid line
 72
    65
 73
     0
 40
0.0
  0
LTYPE
  5
E5
100
AcDbSymbolTableRecord
100
AcDbLinetypeTableRecord
  2
DASHED
 70
    64
  3
Dashed __ __ __ __ __ __ __ __ __ __ __ __ __ _
 72
    65
 73
     2
 40
19.05
 49
12.7
 74
     0
 49
-6.35
 74
     0
  0
ENDTAB
  0
TABLE
  2
LAYER
  5
2
100
AcDbSymbolTable
 70
     3
  0
LAYER
  5
14
100
AcDbSymbolTableRecord
100
AcDbLayerTableRecord
  2
0
 70
     0
 62
     7
  6
CONTINUOUS
  0
LAYER
  5
1D
100
AcDbSymbolTableRecord
100
AcDbLayerTableRecord
  2
LY_1
 70
     0
 62
   254
  6
CONTINUOUS
  0
LAYER
  5
1E
100
AcDbSymbolTableRecord
100
AcDbLayerTableRecord
  2
DEFPOINTS
 70
     0
 62
     7
  6
CONTINUOUS
  0
ENDTAB
  0
TABLE
  2
STYLE
  5
3
100
AcDbSymbolTable
 70
     6
  0
STYLE
  5
17
100
AcDbSymbolTableRecord
100
AcDbTextStyleTableRecord
  2
MX_NOTE_STANDARD
 70
     0
 40
0.0
 41
1.0
 50
0.0
 71
     0
 42
15.0
  3
txt.shx
  4
extfont.shx
  0
STYLE
  5
100
100
AcDbSymbolTableRecord
100
AcDbTextStyleTableRecord
  2
MX_DIMTXSTY_2
 70
     0
 40
0.0
 41
1.35
 50
0.0
 71
     0
 42
15.0
  3
txt.shx
  4
extfont.shx
  0
STYLE
  5
115
100
AcDbSymbolTableRecord
100
AcDbTextStyleTableRecord
  2
MX_DIMTXSTY_3
 70
     0
 40
0.0
 41
1.2
 50
0.0
 71
     0
 42
15.0
  3
txt.shx
  4
extfont.shx
  0
STYLE
  5
124
100
AcDbSymbolTableRecord
100
AcDbTextStyleTableRecord
  2
MX_DIMTXSTY_4
 70
     0
 40
0.0
 41
1.3
 50
0.0
 71
     0
 42
15.0
  3
txt.shx
  4
extfont.shx
  0
STYLE
  5
335
100
AcDbSymbolTableRecord
100
AcDbTextStyleTableRecord
  2
MX_DIMTXSTY_5
 70
     0
 40
0.0
 41
1.4
 50
0.0
 71
     0
 42
15.0
  3
txt.shx
  4
extfont.shx
  0
STYLE
  5
46C
100
AcDbSymbolTableRecord
100
AcDbTextStyleTableRecord
  2
MX_DIMTXSTY_6
 70
     0
 40
0.0
 41
1.15
 50
0.0
 71
     0
 42
15.0
  3
txt.shx
  4
extfont.shx
  0
ENDTAB
  0
TABLE
  2
VIEW
  5
5
100
AcDbSymbolTable
 70
     0
  0
ENDTAB
  0
TABLE
  2
UCS
  5
6
100
AcDbSymbolTable
 70
     0
  0
ENDTAB
  0
TABLE
  2
APPID
  5
8
100
AcDbSymbolTable
 70
     2
  0
APPID
  5
16
100
AcDbSymbolTableRecord
100
AcDbRegAppTableRecord
  2
ACAD
 70
     0
  0
APPID
  5
27
100
AcDbSymbolTableRecord
100
AcDbRegAppTableRecord
  2
CONTENTBLOCKDESCRIPTION
 70
     0
  0
ENDTAB
  0
TABLE
  2
DIMSTYLE
  5
9
100
AcDbSymbolTable
 70
     1
  0
DIMSTYLE
105
18
100
AcDbSymbolTableRecord
100
AcDbDimStyleTableRecord
  2
MXDIMSTYLE
 70
     0
  3

  4

  5

  6
_OPEN30
  7
_OPEN30
 40
6.0
 41
2.5
 42
1.5
 43
3.75
 44
1.5
 45
0.0
 46
0.0
 47
0.0
 48
0.0
 71
     0
 72
     0
 73
     0
 74
     0
 75
     0
 76
     0
 77
     1
 78
     8
140
2.5
141
2.5
142
0.0
143
0.03937
144
1.0
145
0.0
146
1.0
147
0.5
170
     0
171
     4
172
     1
173
     1
174
     0
175
     0
176
     0
177
     0
178
     0
270
     2
271
     2
272
     2
273
     2
274
     4
275
     0
280
     0
281
     0
282
     0
283
     0
284
     0
285
     0
286
     0
287
     3
288
     0
340
17
  0
ENDTAB
  0
TABLE
  2
BLOCK_RECORD
  5
1
100
AcDbSymbolTable
 70
    27
  0
BLOCK_RECORD
  5
A
100
AcDbSymbolTableRecord
100
AcDbBlockTableRecord
  2
*MODEL_SPACE
  0
BLOCK_RECORD
  5
B
100
AcDbSymbolTableRecord
100
AcDbBlockTableRecord
  2
*PAPER_SPACE
  0
BLOCK_RECORD
  5
1F
100
AcDbSymbolTableRecord
100
AcDbBlockTableRecord
  2
_OPEN30
  0
BLOCK_RECORD
  5
26
100
AcDbSymbolTableRecord
100
AcDbBlockTableRecord
  2
$KAKUDAI-3
1001
CONTENTBLOCKDESCRIPTION
1071
        0
1000
ICAD/MX UserSymbol^M^Jtable_name:KAKUDAI^M^Jsymbol_no.:  3
  0
BLOCK_RECORD
  5
35
100
AcDbSymbolTableRecord
100
AcDbBlockTableRecord
  2
$KAKUDAI-2
1001
CONTENTBLOCKDESCRIPTION
1071
        0
1000
ICAD/MX UserSymbol^M^Jtable_name:KAKUDAI^M^Jsymbol_no.:  2
  0
BLOCK_RECORD
  5
F9
100
AcDbSymbolTableRecord
100
AcDbBlockTableRecord
  2
*D3
  0
BLOCK_RECORD
  5
110
100
AcDbSymbolTableRecord
100
AcDbBlockTableRecord
  2
*D4
  0
BLOCK_RECORD
  5
11D
100
AcDbSymbolTableRecord
100
AcDbBlockTableRecord
  2
*D5
  0
BLOCK_RECORD
  5
12B
100
AcDbSymbolTableRecord
100
AcDbBlockTableRecord
  2
*D6
  0
BLOCK_RECORD
  5
138
100
AcDbSymbolTableRecord
100
AcDbBlockTableRecord
  2
*D7
  0
BLOCK_RECORD
  5
145
100
AcDbSymbolTableRecord
100
AcDbBlockTableRecord
  2
*D8
  0
BLOCK_RECORD
  5
2AC
100
AcDbSymbolTableRecord
100
AcDbBlockTableRecord
  2
*D9
  0
BLOCK_RECORD
  5
300
100
AcDbSymbolTableRecord
100
AcDbBlockTableRecord
  2
*D10
  0
BLOCK_RECORD
  5
310
100
AcDbSymbolTableRecord
100
AcDbBlockTableRecord
  2
*D11
  0
BLOCK_RECORD
  5
31E
100
AcDbSymbolTableRecord
100
AcDbBlockTableRecord
  2
*D12
  0
BLOCK_RECORD
  5
32B
100
AcDbSymbolTableRecord
100
AcDbBlockTableRecord
  2
*D13
  0
BLOCK_RECORD
  5
331
100
AcDbSymbolTableRecord
100
AcDbBlockTableRecord
  2
_NONE
  0
BLOCK_RECORD
  5
33C
100
AcDbSymbolTableRecord
100
AcDbBlockTableRecord
  2
*D15
  0
BLOCK_RECORD
  5
348
100
AcDbSymbolTableRecord
100
AcDbBlockTableRecord
  2
*D16
  0
BLOCK_RECORD
  5
38B
100
AcDbSymbolTableRecord
100
AcDbBlockTableRecord
  2
*D17
  0
BLOCK_RECORD
  5
398
100
AcDbSymbolTableRecord
100
AcDbBlockTableRecord
  2
*D18
  0
BLOCK_RECORD
  5
3A4
100
AcDbSymbolTableRecord
100
AcDbBlockTableRecord
  2
*D19
  0
BLOCK_RECORD
  5
3B4
100
AcDbSymbolTableRecord
100
AcDbBlockTableRecord
  2
*D20
  0
BLOCK_RECORD
  5
3C1
100
AcDbSymbolTableRecord
100
AcDbBlockTableRecord
  2
*D21
  0
BLOCK_RECORD
  5
3CE
100
AcDbSymbolTableRecord
100
AcDbBlockTableRecord
  2
*D22
  0
BLOCK_RECORD
  5
3F5
100
AcDbSymbolTableRecord
100
AcDbBlockTableRecord
  2
*D23
  0
BLOCK_RECORD
  5
464
100
AcDbSymbolTableRecord
100
AcDbBlockTableRecord
  2
*D24
  0
BLOCK_RECORD
  5
4D5
100
AcDbSymbolTableRecord
100
AcDbBlockTableRecord
  2
*D25
  0
BLOCK_RECORD
  5
506
100
AcDbSymbolTableRecord
100
AcDbBlockTableRecord
  2
*D26
  0
ENDTAB
  0
ENDSEC
  0
SECTION
  2
BLOCKS
  0
BLOCK
  5
D
100
AcDbEntity
  8
0
100
AcDbBlockBegin
  2
*MODEL_SPACE
 70
     0
 10
0.0
 20
0.0
 30
0.0
  3
*MODEL_SPACE
  1

  0
ENDBLK
  5
E
100
AcDbEntity
  8
0
100
AcDbBlockEnd
  0
BLOCK
  5
F
100
AcDbEntity
 67
     1
  8
0
100
AcDbBlockBegin
  2
*PAPER_SPACE
 70
     0
 10
0.0
 20
0.0
 30
0.0
  3
*PAPER_SPACE
  1

  0
ENDBLK
  5
10
100
AcDbEntity
 67
     1
  8
0
100
AcDbBlockEnd
  0
BLOCK
  5
20
100
AcDbEntity
  8
0
  6
ByBlock
 62
     0
100
AcDbBlockBegin
  2
_OPEN30
 70
     2
 10
0.0
 20
0.0
 30
0.0
  3
_OPEN30
  1

  0
LINE
  5
21
100
AcDbEntity
  8
0
  6
ByBlock
 62
     0
100
AcDbLine
 10
-1.0
 20
0.267949
 30
0.0
 11
0.0
 21
0.0
 31
0.0
  0
LINE
  5
22
100
AcDbEntity
  8
0
  6
ByBlock
 62
     0
100
AcDbLine
 10
0.0
 20
0.0
 30
0.0
 11
-1.0
 21
-0.267949
 31
0.0
  0
LINE
  5
23
100
AcDbEntity
  8
0
  6
ByBlock
 62
     0
100
AcDbLine
 10
0.0
 20
0.0
 30
0.0
 11
-1.0
 21
0.0
 31
0.0
  0
ENDBLK
  5
24
100
AcDbEntity
  8
0
  6
ByBlock
 62
     0
100
AcDbBlockEnd
  0
BLOCK
  5
28
100
AcDbEntity
  8
0
  6
ByBlock
 62
     0
100
AcDbBlockBegin
  2
$KAKUDAI-3
 70
     0
 10
0.0
 20
0.0
 30
0.0
  3
$KAKUDAI-3
  1

  0
ARC
  5
29
100
AcDbEntity
  8
0
  6
CONTINUOUS
 62
     0
100
AcDbCircle
 10
0.0
 20
0.0
 30
0.0
 40
4.14
100
AcDbArc
 50
299.461315
 51
60.538685
  0
ARC
  5
2A
100
AcDbEntity
  8
0
  6
CONTINUOUS
 62
     0
100
AcDbCircle
 10
0.0
 20
0.0
 30
0.0
 40
4.14
100
AcDbArc
 50
105.408581
 51
254.591422
  0
ARC
  5
2B
100
AcDbEntity
  8
0
  6
CONTINUOUS
 62
     0
100
AcDbCircle
 10
0.0
 20
0.0
 30
0.0
 40
5.0
100
AcDbArc
 50
92.751257
 51
267.248746
  0
ARC
  5
2C
100
AcDbEntity
  8
0
  6
CONTINUOUS
 62
     0
100
AcDbCircle
 10
0.0
 20
0.0
 30
0.0
 40
5.0
100
AcDbArc
 50
286.992764
 51
73.007236
  0
LINE
  5
2D
100
AcDbEntity
  8
0
  6
CONTINUOUS
 62
     0
100
AcDbLine
 10
2.0362
 20
-3.604648
 30
0.0
 11
1.070337
 21
0.0
 31
0.0
  0
LINE
  5
2E
100
AcDbEntity
  8
0
  6
CONTINUOUS
 62
     0
100
AcDbLine
 10
1.461255
 20
-4.781708
 30
0.0
 11
0.18
 21
0.0
 31
0.0
  0
LINE
  5
2F
100
AcDbEntity
  8
0
  6
CONTINUOUS
 62
     0
100
AcDbLine
 10
1.070337
 20
0.0
 30
0.0
 11
2.0362
 21
3.604648
 31
0.0
  0
LINE
  5
30
100
AcDbEntity
  8
0
  6
CONTINUOUS
 62
     0
100
AcDbLine
 10
0.18
 20
0.0
 30
0.0
 11
1.461255
 21
4.781708
 31
0.0
  0
LINE
  5
31
100
AcDbEntity
  8
0
  6
CONTINUOUS
 62
     0
100
AcDbLine
 10
-1.1
 20
3.99119
 30
0.0
 11
-1.1
 21
-3.99119
 31
0.0
  0
LINE
  5
32
100
AcDbEntity
  8
0
  6
CONTINUOUS
 62
     0
100
AcDbLine
 10
-0.24
 20
4.994236
 30
0.0
 11
-0.24
 21
-4.994236
 31
0.0
  0
ENDBLK
  5
33
100
AcDbEntity
  8
0
  6
ByBlock
 62
     0
100
AcDbBlockEnd
  0
BLOCK
  5
36
100
AcDbEntity
  8
0
  6
ByBlock
 62
     0
100
AcDbBlockBegin
  2
$KAKUDAI-2
 70
     0
 10
0.0
 20
0.0
 30
0.0
  3
$KAKUDAI-2
  1

  0
ARC
  5
37
100
AcDbEntity
  8
0
  6
CONTINUOUS
 62
     0
100
AcDbCircle
 10
29.31842
 20
1.863708
 30
0.0
 40
0.591628
100
AcDbArc
 50
270.000025
 51
354.40127
  0
ARC
  5
38
100
AcDbEntity
  8
0
  6
CONTINUOUS
 62
     0
100
AcDbCircle
 10
29.318405
 20
2.573524
 30
0.0
 40
0.591628
100
AcDbArc
 50
5.59873
 51
89.999982
  0
ARC
  5
39
100
AcDbEntity
  8
0
  6
CONTINUOUS
 62
     0
100
AcDbCircle
 10
25.69725
 20
2.218666
 30
0.0
 40
4.230142
100
AcDbArc
 50
354.401273
 51
5.598727
  0
ARC
  5
3A
100
AcDbEntity
  8
0
  6
CONTINUOUS
 62
     0
100
AcDbCircle
 10
29.621689
 20
1.479218
 30
0.0
 40
1.479071
100
AcDbArc
 50
270.000025
 51
349.328068
  0
ARC
  5
3B
100
AcDbEntity
  8
0
  6
CONTINUOUS
 62
     0
100
AcDbCircle
 10
29.621689
 20
2.958115
 30
0.0
 40
1.479071
100
AcDbArc
 50
10.671932
 51
89.999982
  0
ARC
  5
3C
100
AcDbEntity
  8
0
  6
CONTINUOUS
 62
     0
100
AcDbCircle
 10
25.69725
 20
2.218666
 30
0.0
 40
5.472562
100
AcDbArc
 50
349.328068
 51
10.671932
  0
ARC
  5
3D
100
AcDbEntity
  8
0
  6
CONTINUOUS
 62
     0
100
AcDbCircle
 10
22.88707
 20
1.622192
 30
0.0
 40
0.591628
100
AcDbArc
 50
276.999029
 51
0.0
  0
ARC
  5
3E
100
AcDbEntity
  8
0
  6
CONTINUOUS
 62
     0
100
AcDbCircle
 10
21.112137
 20
1.622177
 30
0.0
 40
0.591628
100
AcDbArc
 50
179.999964
 51
263.000915
  0
ARC
  5
3F
100
AcDbEntity
  8
0
  6
CONTINUOUS
 62
     0
100
AcDbCircle
 10
21.999603
 20
8.85083
 30
0.0
 40
7.874568
100
AcDbArc
 50
263.000966
 51
276.999015
  0
ARC
  5
40
100
AcDbEntity
  8
0
  6
CONTINUOUS
 62
     0
100
AcDbCircle
 10
23.271584
 20
1.28949
 30
0.0
 40
1.479071
100
AcDbArc
 50
279.549258
 51
0.0
  0
ARC
  5
41
100
AcDbEntity
  8
0
  6
CONTINUOUS
 62
     0
100
AcDbCircle
 10
20.727631
 20
1.28949
 30
0.0
 40
1.479071
100
AcDbArc
 50
179.999964
 51
260.450713
  0
ARC
  5
42
100
AcDbEntity
  8
0
  6
CONTINUOUS
 62
     0
100
AcDbCircle
 10
21.999603
 20
8.85083
 30
0.0
 40
9.146571
100
AcDbArc
 50
260.450737
 51
279.54923
  0
LINE
  5
43
100
AcDbEntity
  8
0
  6
CONTINUOUS
 62
     0
100
AcDbLine
 10
39.999893
 20
4.437317
 30
0.0
 11
39.999893
 21
0.000015
 31
0.0
  0
LINE
  5
44
100
AcDbEntity
  8
0
  6
CONTINUOUS
 62
     0
100
AcDbLine
 10
38.72789
 20
4.437317
 30
0.0
 11
38.72789
 21
0.000015
 31
0.0
  0
LINE
  5
45
100
AcDbEntity
  8
0
  6
CONTINUOUS
 62
     0
100
AcDbLine
 10
12.752607
 20
-0.000183
 30
0.0
 11
10.238149
 21
4.437112
 31
0.0
  0
LINE
  5
46
100
AcDbEntity
  8
0
  6
CONTINUOUS
 62
     0
100
AcDbLine
 10
11.290825
 20
0.0
 30
0.0
 11
12.752815
 21
0.0
 31
0.0
  0
LINE
  5
47
100
AcDbEntity
  8
0
  6
CONTINUOUS
 62
     0
100
AcDbLine
 10
11.290678
 20
-0.000035
 30
0.0
 11
10.871566
 21
0.739584
 31
0.0
  0
LINE
  5
48
100
AcDbEntity
  8
0
  6
CONTINUOUS
 62
     0
100
AcDbLine
 10
10.368869
 20
1.627127
 30
0.0
 11
9.328812
 21
3.462514
 31
0.0
  0
LINE
  5
49
100
AcDbEntity
  8
0
  6
CONTINUOUS
 62
     0
100
AcDbLine
 10
8.289557
 20
1.626387
 30
0.0
 11
9.329624
 21
3.46183
 31
0.0
  0
LINE
  5
4A
100
AcDbEntity
  8
0
  6
CONTINUOUS
 62
     0
100
AcDbLine
 10
8.288605
 20
1.627098
 30
0.0
 11
10.368835
 21
1.627098
 31
0.0
  0
LINE
  5
4B
100
AcDbEntity
  8
0
  6
CONTINUOUS
 62
     0
100
AcDbLine
 10
7.785843
 20
0.739464
 30
0.0
 11
10.871651
 21
0.739464
 31
0.0
  0
LINE
  5
4C
100
AcDbEntity
  8
0
  6
CONTINUOUS
 62
     0
100
AcDbLine
 10
5.904288
 20
0.000176
 30
0.0
 11
8.41872
 21
4.437407
 31
0.0
  0
LINE
  5
4D
100
AcDbEntity
  8
0
  6
CONTINUOUS
 62
     0
100
AcDbLine
 10
7.366972
 20
-0.000121
 30
0.0
 11
7.786036
 21
0.739421
 31
0.0
  0
LINE
  5
4E
100
AcDbEntity
  8
0
  6
CONTINUOUS
 62
     0
100
AcDbLine
 10
5.904747
 20
0.0
 30
0.0
 11
7.366676
 21
0.0
 31
0.0
  0
LINE
  5
4F
100
AcDbEntity
  8
0
  6
CONTINUOUS
 62
     0
100
AcDbLine
 10
8.419144
 20
4.437302
 30
0.0
 11
10.238426
 21
4.437302
 31
0.0
  0
LINE
  5
50
100
AcDbEntity
  8
0
  6
CONTINUOUS
 62
     0
100
AcDbLine
 10
26.821381
 20
3.16539
 30
0.0
 11
26.821381
 21
1.27224
 31
0.0
  0
LINE
  5
51
100
AcDbEntity
  8
0
  6
CONTINUOUS
 62
     0
100
AcDbLine
 10
25.549355
 20
4.437317
 30
0.0
 11
25.549355
 21
0.000015
 31
0.0
  0
LINE
  5
52
100
AcDbEntity
  8
0
  6
CONTINUOUS
 62
     0
100
AcDbLine
 10
26.821388
 20
3.1651
 30
0.0
 11
29.318481
 21
3.1651
 31
0.0
  0
LINE
  5
53
100
AcDbEntity
  8
0
  6
CONTINUOUS
 62
     0
100
AcDbLine
 10
26.821388
 20
1.271919
 30
0.0
 11
29.318481
 21
1.271919
 31
0.0
  0
LINE
  5
54
100
AcDbEntity
  8
0
  6
CONTINUOUS
 62
     0
100
AcDbLine
 10
38.727936
 20
0.000015
 30
0.0
 11
39.999947
 21
0.000015
 31
0.0
  0
LINE
  5
55
100
AcDbEntity
  8
0
  6
CONTINUOUS
 62
     0
100
AcDbLine
 10
38.727936
 20
4.437317
 30
0.0
 11
39.999947
 21
4.437317
 31
0.0
  0
LINE
  5
56
100
AcDbEntity
  8
0
  6
CONTINUOUS
 62
     0
100
AcDbLine
 10
23.478714
 20
4.437302
 30
0.0
 11
24.750725
 21
4.437302
 31
0.0
  0
LINE
  5
57
100
AcDbEntity
  8
0
  6
CONTINUOUS
 62
     0
100
AcDbLine
 10
25.549408
 20
4.437302
 30
0.0
 11
29.621742
 21
4.437302
 31
0.0
  0
LINE
  5
58
100
AcDbEntity
  8
0
  6
CONTINUOUS
 62
     0
100
AcDbLine
 10
24.750397
 20
4.437317
 30
0.0
 11
24.750397
 21
1.28949
 31
0.0
  0
LINE
  5
59
100
AcDbEntity
  8
0
  6
CONTINUOUS
 62
     0
100
AcDbLine
 10
23.478989
 20
4.437309
 30
0.0
 11
23.478989
 21
1.622185
 31
0.0
  0
LINE
  5
5A
100
AcDbEntity
  8
0
  6
CONTINUOUS
 62
     0
100
AcDbLine
 10
19.248566
 20
4.437302
 30
0.0
 11
19.248566
 21
1.28949
 31
0.0
  0
LINE
  5
5B
100
AcDbEntity
  8
0
  6
CONTINUOUS
 62
     0
100
AcDbLine
 10
20.5205
 20
4.437302
 30
0.0
 11
20.5205
 21
1.622192
 31
0.0
  0
LINE
  5
5C
100
AcDbEntity
  8
0
  6
CONTINUOUS
 62
     0
100
AcDbLine
 10
3.786705
 20
4.437302
 30
0.0
 11
5.608849
 21
4.437302
 31
0.0
  0
LINE
  5
5D
100
AcDbEntity
  8
0
  6
CONTINUOUS
 62
     0
100
AcDbLine
 10
3.228285
 20
2.219162
 30
0.0
 11
5.608237
 21
4.437769
 31
0.0
  0
LINE
  5
5E
100
AcDbEntity
  8
0
  6
CONTINUOUS
 62
     0
100
AcDbLine
 10
3.228971
 20
2.218703
 30
0.0
 11
5.608881
 21
0.000134
 31
0.0
  0
LINE
  5
5F
100
AcDbEntity
  8
0
  6
CONTINUOUS
 62
     0
100
AcDbLine
 10
3.786705
 20
0.000015
 30
0.0
 11
5.608849
 21
0.000015
 31
0.0
  0
LINE
  5
60
100
AcDbEntity
  8
0
  6
CONTINUOUS
 62
     0
100
AcDbLine
 10
2.041563
 20
1.627004
 30
0.0
 11
3.786919
 21
-0.000054
 31
0.0
  0
LINE
  5
61
100
AcDbEntity
  8
0
  6
CONTINUOUS
 62
     0
100
AcDbLine
 10
1.242905
 20
1.627098
 30
0.0
 11
2.041748
 21
1.627098
 31
0.0
  0
LINE
  5
62
100
AcDbEntity
  8
0
  6
CONTINUOUS
 62
     0
100
AcDbLine
 10
2.041729
 20
2.809854
 30
0.0
 11
3.78704
 21
4.436829
 31
0.0
  0
LINE
  5
63
100
AcDbEntity
  8
0
  6
CONTINUOUS
 62
     0
100
AcDbLine
 10
1.242905
 20
2.810196
 30
0.0
 11
2.041748
 21
2.810196
 31
0.0
  0
LINE
  5
64
100
AcDbEntity
  8
0
  6
CONTINUOUS
 62
     0
100
AcDbLine
 10
1.242874
 20
4.437302
 30
0.0
 11
1.242874
 21
2.810211
 31
0.0
  0
LINE
  5
65
100
AcDbEntity
  8
0
  6
CONTINUOUS
 62
     0
100
AcDbLine
 10
0.000366
 20
4.437302
 30
0.0
 11
1.242905
 21
4.437302
 31
0.0
  0
LINE
  5
66
100
AcDbEntity
  8
0
  6
CONTINUOUS
 62
     0
100
AcDbLine
 10
0.0
 20
4.437302
 30
0.0
 11
0.0
 21
0.000015
 31
0.0
  0
LINE
  5
67
100
AcDbEntity
  8
0
  6
CONTINUOUS
 62
     0
100
AcDbLine
 10
1.243866
 20
1.627106
 30
0.0
 11
1.243866
 21
0.0
 31
0.0
  0
LINE
  5
68
100
AcDbEntity
  8
0
  6
CONTINUOUS
 62
     0
100
AcDbLine
 10
0.000366
 20
0.0
 30
0.0
 11
1.242905
 21
0.0
 31
0.0
  0
LINE
  5
69
100
AcDbEntity
  8
0
  6
CONTINUOUS
 62
     0
100
AcDbLine
 10
25.549408
 20
0.000015
 30
0.0
 11
29.621742
 21
0.000015
 31
0.0
  0
LINE
  5
6A
100
AcDbEntity
  8
0
  6
CONTINUOUS
 62
     0
100
AcDbLine
 10
19.248573
 20
4.437302
 30
0.0
 11
20.520576
 21
4.437302
 31
0.0
  0
LINE
  5
6B
100
AcDbEntity
  8
0
  6
CONTINUOUS
 62
     0
100
AcDbLine
 10
36.674271
 20
0.000015
 30
0.0
 11
38.136307
 21
0.000015
 31
0.0
  0
LINE
  5
6C
100
AcDbEntity
  8
0
  6
CONTINUOUS
 62
     0
100
AcDbLine
 10
31.288223
 20
0.0
 30
0.0
 11
32.750244
 21
0.0
 31
0.0
  0
LINE
  5
6D
100
AcDbEntity
  8
0
  6
CONTINUOUS
 62
     0
100
AcDbLine
 10
33.802635
 20
4.437317
 30
0.0
 11
35.621895
 21
4.437317
 31
0.0
  0
LINE
  5
6E
100
AcDbEntity
  8
0
  6
CONTINUOUS
 62
     0
100
AcDbLine
 10
16.834892
 20
4.437302
 30
0.0
 11
18.656952
 21
4.437302
 31
0.0
  0
LINE
  5
6F
100
AcDbEntity
  8
0
  6
CONTINUOUS
 62
     0
100
AcDbLine
 10
16.834892
 20
0.000015
 30
0.0
 11
18.656952
 21
0.000015
 31
0.0
  0
LINE
  5
70
100
AcDbEntity
  8
0
  6
CONTINUOUS
 62
     0
100
AcDbLine
 10
14.29081
 20
1.627098
 30
0.0
 11
14.29081
 21
0.0
 31
0.0
  0
LINE
  5
71
100
AcDbEntity
  8
0
  6
CONTINUOUS
 62
     0
100
AcDbLine
 10
38.136126
 20
0.000097
 30
0.0
 11
35.62175
 21
4.437263
 31
0.0
  0
LINE
  5
72
100
AcDbEntity
  8
0
  6
CONTINUOUS
 62
     0
100
AcDbLine
 10
36.674036
 20
0.000002
 30
0.0
 11
36.254984
 21
0.739515
 31
0.0
  0
LINE
  5
73
100
AcDbEntity
  8
0
  6
CONTINUOUS
 62
     0
100
AcDbLine
 10
35.752436
 20
1.626965
 30
0.0
 11
34.712341
 21
3.462418
 31
0.0
  0
LINE
  5
74
100
AcDbEntity
  8
0
  6
CONTINUOUS
 62
     0
100
AcDbLine
 10
33.672051
 20
1.627072
 30
0.0
 11
34.712108
 21
3.462442
 31
0.0
  0
LINE
  5
75
100
AcDbEntity
  8
0
  6
CONTINUOUS
 62
     0
100
AcDbLine
 10
33.672188
 20
1.627083
 30
0.0
 11
35.752327
 21
1.627083
 31
0.0
  0
LINE
  5
76
100
AcDbEntity
  8
0
  6
CONTINUOUS
 62
     0
100
AcDbLine
 10
33.169319
 20
0.738998
 30
0.0
 11
36.255188
 21
0.738998
 31
0.0
  0
LINE
  5
77
100
AcDbEntity
  8
0
  6
CONTINUOUS
 62
     0
100
AcDbLine
 10
32.750442
 20
-0.000219
 30
0.0
 11
33.169532
 21
0.739348
 31
0.0
  0
LINE
  5
78
100
AcDbEntity
  8
0
  6
CONTINUOUS
 62
     0
100
AcDbLine
 10
31.287743
 20
0.000262
 30
0.0
 11
33.80215
 21
4.437459
 31
0.0
  0
LINE
  5
79
100
AcDbEntity
  8
0
  6
CONTINUOUS
 62
     0
100
AcDbLine
 10
16.277017
 20
2.218516
 30
0.0
 11
18.656834
 21
0.000049
 31
0.0
  0
LINE
  5
7A
100
AcDbEntity
  8
0
  6
CONTINUOUS
 62
     0
100
AcDbLine
 10
15.089823
 20
1.626855
 30
0.0
 11
16.835171
 21
-0.000145
 31
0.0
  0
LINE
  5
7B
100
AcDbEntity
  8
0
  6
CONTINUOUS
 62
     0
100
AcDbLine
 10
16.277186
 20
2.218402
 30
0.0
 11
18.657143
 21
4.437007
 31
0.0
  0
LINE
  5
7C
100
AcDbEntity
  8
0
  6
CONTINUOUS
 62
     0
100
AcDbLine
 10
15.089013
 20
2.810919
 30
0.0
 11
16.834306
 21
4.437876
 31
0.0
  0
LINE
  5
7D
100
AcDbEntity
  8
0
  6
CONTINUOUS
 62
     0
100
AcDbLine
 10
14.290756
 20
2.810212
 30
0.0
 11
15.089454
 21
2.810197
 31
0.0
  0
LINE
  5
7E
100
AcDbEntity
  8
0
  6
CONTINUOUS
 62
     0
100
AcDbLine
 10
14.290886
 20
1.627098
 30
0.0
 11
15.089615
 21
1.627098
 31
0.0
  0
LINE
  5
7F
100
AcDbEntity
  8
0
  6
CONTINUOUS
 62
     0
100
AcDbLine
 10
14.29081
 20
4.437302
 30
0.0
 11
14.29081
 21
2.810196
 31
0.0
  0
LINE
  5
80
100
AcDbEntity
  8
0
  6
CONTINUOUS
 62
     0
100
AcDbLine
 10
13.0485
 20
0.000015
 30
0.0
 11
14.290878
 21
0.000015
 31
0.0
  0
LINE
  5
81
100
AcDbEntity
  8
0
  6
CONTINUOUS
 62
     0
100
AcDbLine
 10
13.048416
 20
4.437317
 30
0.0
 11
13.048416
 21
0.000015
 31
0.0
  0
LINE
  5
82
100
AcDbEntity
  8
0
  6
CONTINUOUS
 62
     0
100
AcDbLine
 10
13.048546
 20
4.437316
 30
0.0
 11
14.290932
 21
4.437301
 31
0.0
  0
ENDBLK
  5
83
100
AcDbEntity
  8
0
  6
ByBlock
 62
     0
100
AcDbBlockEnd
  0
BLOCK
  5
FA
100
AcDbEntity
  8
0
  6
ByBlock
 62
     0
100
AcDbBlockBegin
  2
*D3
 70
     1
 10
0.0
 20
0.0
 30
0.0
  3
*D3
  1

  0
LINE
  5
FB
100
AcDbEntity
  8
0
  6
CONTINUOUS
 62
   143
100
AcDbLine
 10
197.089982
 20
-232.265847
 30
0.0
 11
197.089982
 21
-110.367226
 31
0.0
  0
LINE
  5
FC
100
AcDbEntity
  8
0
  6
CONTINUOUS
 62
   143
100
AcDbLine
 10
512.557695
 20
-232.265847
 30
0.0
 11
188.089982
 21
-232.265847
 31
0.0
  0
LINE
  5
FD
100
AcDbEntity
  8
0
  6
CONTINUOUS
 62
   143
100
AcDbLine
 10
236.557706
 20
-110.367226
 30
0.0
 11
188.089982
 21
-110.367226
 31
0.0
  0
INSERT
  5
FE
100
AcDbEntity
  8
0
  6
CONTINUOUS
 62
   143
100
AcDbBlockReference
  2
_OPEN30
 10
197.089982
 20
-232.265847
 30
0.0
 41
16.62
 42
16.62
 43
16.62
 50
270.0
  0
INSERT
  5
FF
100
AcDbEntity
  8
0
  6
CONTINUOUS
 62
   143
100
AcDbBlockReference
  2
_OPEN30
 10
197.089982
 20
-110.367226
 30
0.0
 41
16.62
 42
16.62
 43
16.62
 50
90.0
  0
MTEXT
  5
101
100
AcDbEntity
  8
0
  6
CONTINUOUS
 62
   143
100
AcDbMText
 10
186.589982
 20
-171.316537
 30
0.0
 40
15.0
 41
0.0
 71
     5
 72
     1
  1
\A1;(122.0)
  7
MX_DIMTXSTY_2
 11
0.0
 21
1.0
 31
0.0
  0
POINT
  5
102
100
AcDbEntity
  8
DEFPOINTS
  6
CONTINUOUS
 62
     0
100
AcDbPoint
 10
521.557695
 20
-232.265847
 30
0.0
  0
POINT
  5
103
100
AcDbEntity
  8
DEFPOINTS
  6
CONTINUOUS
 62
     0
100
AcDbPoint
 10
245.557706
 20
-110.367226
 30
0.0
  0
POINT
  5
104
100
AcDbEntity
  8
DEFPOINTS
  6
CONTINUOUS
 62
     0
100
AcDbPoint
 10
197.089982
 20
-110.367226
 30
0.0
  0
ENDBLK
  5
105
100
AcDbEntity
  8
0
  6
ByBlock
 62
     0
100
AcDbBlockEnd
  0
BLOCK
  5
111
100
AcDbEntity
  8
0
  6
ByBlock
 62
     0
100
AcDbBlockBegin
  2
*D4
 70
     1
 10
0.0
 20
0.0
 30
0.0
  3
*D4
  1

  0
LINE
  5
112
100
AcDbEntity
  8
0
  6
CONTINUOUS
 62
   143
100
AcDbLine
 10
289.691381
 20
509.386745
 30
0.0
 11
282.570436
 21
516.407581
 31
0.0
  0
LINE
  5
113
100
AcDbEntity
  8
0
  6
CONTINUOUS
 62
   143
100
AcDbLine
 10
388.1132
 20
412.348587
 30
0.0
 11
289.691381
 21
509.386745
 31
0.0
  0
INSERT
  5
114
100
AcDbEntity
  8
0
  6
CONTINUOUS
 62
   143
100
AcDbBlockReference
  2
_OPEN30
 10
282.570436
 20
516.407581
 30
0.0
 41
16.62
 42
16.62
 43
16.62
 50
135.40559
  0
MTEXT
  5
116
100
AcDbEntity
  8
0
  6
CONTINUOUS
 62
   143
100
AcDbMText
 10
358.100114
 20
456.684968
 30
0.0
 40
15.0
 41
0.0
 71
     5
 72
     1
  1
\A1;4-Ｒ10.0
  7
MX_DIMTXSTY_3
 11
0.712095
 21
-0.702084
 31
0.0
  0
POINT
  5
117
100
AcDbEntity
  8
DEFPOINTS
  6
CONTINUOUS
 62
     0
100
AcDbPoint
 10
282.570436
 20
516.407581
 30
0.0
  0
POINT
  5
118
100
AcDbEntity
  8
DEFPOINTS
  6
CONTINUOUS
 62
     0
100
AcDbPoint
 10
289.691381
 20
509.386745
 30
0.0
  0
ENDBLK
  5
119
100
AcDbEntity
  8
0
  6
ByBlock
 62
     0
100
AcDbBlockEnd
  0
BLOCK
  5
11E
100
AcDbEntity
  8
0
  6
ByBlock
 62
     0
100
AcDbBlockBegin
  2
*D5
 70
     1
 10
0.0
 20
0.0
 30
0.0
  3
*D5
  1

  0
LINE
  5
11F
100
AcDbEntity
  8
0
  6
CONTINUOUS
 62
   143
100
AcDbLine
 10
1154.375062
 20
519.386745
 30
0.0
 11
1154.375062
 21
337.386745
 31
0.0
  0
LINE
  5
120
100
AcDbEntity
  8
0
  6
CONTINUOUS
 62
   143
100
AcDbLine
 10
1078.691384
 20
519.386745
 30
0.0
 11
1163.375062
 21
519.386745
 31
0.0
  0
LINE
  5
121
100
AcDbEntity
  8
0
  6
CONTINUOUS
 62
   143
100
AcDbLine
 10
1113.69138
 20
337.386745
 30
0.0
 11
1163.375062
 21
337.386745
 31
0.0
  0
INSERT
  5
122
100
AcDbEntity
  8
0
  6
CONTINUOUS
 62
   143
100
AcDbBlockReference
  2
_OPEN30
 10
1154.375062
 20
519.386745
 30
0.0
 41
16.62
 42
16.62
 43
16.62
 50
90.0
  0
INSERT
  5
123
100
AcDbEntity
  8
0
  6
CONTINUOUS
 62
   143
100
AcDbBlockReference
  2
_OPEN30
 10
1154.375062
 20
337.386745
 30
0.0
 41
16.62
 42
16.62
 43
16.62
 50
270.0
  0
MTEXT
  5
125
100
AcDbEntity
  8
0
  6
CONTINUOUS
 62
   143
100
AcDbMText
 10
1143.875062
 20
428.386745
 30
0.0
 40
15.0
 41
0.0
 71
     5
 72
     1
  1
\A1;182.0
  7
MX_DIMTXSTY_4
 11
0.0
 21
1.0
 31
0.0
  0
POINT
  5
126
100
AcDbEntity
  8
DEFPOINTS
  6
CONTINUOUS
 62
     0
100
AcDbPoint
 10
1069.691384
 20
519.386745
 30
0.0
  0
POINT
  5
127
100
AcDbEntity
  8
DEFPOINTS
  6
CONTINUOUS
 62
     0
100
AcDbPoint
 10
1104.69138
 20
337.386745
 30
0.0
  0
POINT
  5
128
100
AcDbEntity
  8
DEFPOINTS
  6
CONTINUOUS
 62
     0
100
AcDbPoint
 10
1154.375062
 20
337.386745
 30
0.0
  0
ENDBLK
  5
129
100
AcDbEntity
  8
0
  6
ByBlock
 62
     0
100
AcDbBlockEnd
  0
BLOCK
  5
12C
100
AcDbEntity
  8
0
  6
ByBlock
 62
     0
100
AcDbBlockBegin
  2
*D6
 70
     1
 10
0.0
 20
0.0
 30
0.0
  3
*D6
  1

  0
LINE
  5
12D
100
AcDbEntity
  8
0
  6
CONTINUOUS
 62
   143
100
AcDbLine
 10
1154.375062
 20
337.386745
 30
0.0
 11
1154.375062
 21
99.386745
 31
0.0
  0
LINE
  5
12E
100
AcDbEntity
  8
0
  6
CONTINUOUS
 62
   143
100
AcDbLine
 10
1078.691384
 20
99.386745
 30
0.0
 11
1163.375062
 21
99.386745
 31
0.0
  0
INSERT
  5
12F
100
AcDbEntity
  8
0
  6
CONTINUOUS
 62
   143
100
AcDbBlockReference
  2
_OPEN30
 10
1154.375062
 20
337.386745
 30
0.0
 41
16.62
 42
16.62
 43
16.62
 50
90.0
  0
INSERT
  5
130
100
AcDbEntity
  8
0
  6
CONTINUOUS
 62
   143
100
AcDbBlockReference
  2
_OPEN30
 10
1154.375062
 20
99.386745
 30
0.0
 41
16.62
 42
16.62
 43
16.62
 50
270.0
  0
MTEXT
  5
131
100
AcDbEntity
  8
0
  6
CONTINUOUS
 62
   143
100
AcDbMText
 10
1143.875062
 20
218.386745
 30
0.0
 40
15.0
 41
0.0
 71
     5
 72
     1
  1
\A1;238.0
  7
MX_DIMTXSTY_3
 11
0.0
 21
1.0
 31
0.0
  0
POINT
  5
132
100
AcDbEntity
  8
DEFPOINTS
  6
CONTINUOUS
 62
     0
100
AcDbPoint
 10
1104.69138
 20
337.386745
 30
0.0
  0
POINT
  5
133
100
AcDbEntity
  8
DEFPOINTS
  6
CONTINUOUS
 62
     0
100
AcDbPoint
 10
1069.691384
 20
99.386745
 30
0.0
  0
POINT
  5
134
100
AcDbEntity
  8
DEFPOINTS
  6
CONTINUOUS
 62
     0
100
AcDbPoint
 10
1154.375062
 20
99.386745
 30
0.0
  0
ENDBLK
  5
135
100
AcDbEntity
  8
0
  6
ByBlock
 62
     0
100
AcDbBlockEnd
  0
BLOCK
  5
139
100
AcDbEntity
  8
0
  6
ByBlock
 62
     0
100
AcDbBlockBegin
  2
*D7
 70
     1
 10
0.0
 20
0.0
 30
0.0
  3
*D7
  1

  0
LINE
  5
13A
100
AcDbEntity
  8
0
  6
CONTINUOUS
 62
   143
100
AcDbLine
 10
1079.691381
 20
1.322217
 30
0.0
 11
279.691381
 21
1.322217
 31
0.0
  0
LINE
  5
13B
100
AcDbEntity
  8
0
  6
CONTINUOUS
 62
   143
100
AcDbLine
 10
1079.691381
 20
100.386747
 30
0.0
 11
1079.691381
 21
-7.677783
 31
0.0
  0
LINE
  5
13C
100
AcDbEntity
  8
0
  6
CONTINUOUS
 62
   143
100
AcDbLine
 10
279.691381
 20
100.386747
 30
0.0
 11
279.691381
 21
-7.677783
 31
0.0
  0
INSERT
  5
13D
100
AcDbEntity
  8
0
  6
CONTINUOUS
 62
   143
100
AcDbBlockReference
  2
_OPEN30
 10
1079.691381
 20
1.322217
 30
0.0
 41
16.62
 42
16.62
 43
16.62
  0
INSERT
  5
13E
100
AcDbEntity
  8
0
  6
CONTINUOUS
 62
   143
100
AcDbBlockReference
  2
_OPEN30
 10
279.691381
 20
1.322217
 30
0.0
 41
16.62
 42
16.62
 43
16.62
 50
180.0
  0
MTEXT
  5
13F
100
AcDbEntity
  8
0
  6
CONTINUOUS
 62
   143
100
AcDbMText
 10
679.691381
 20
11.822217
 30
0.0
 40
15.0
 41
0.0
 71
     5
 72
     1
  1
\A1;800.0
  7
MX_DIMTXSTY_4
 11
1.0
 21
0.0
 31
0.0
  0
POINT
  5
140
100
AcDbEntity
  8
DEFPOINTS
  6
CONTINUOUS
 62
     0
100
AcDbPoint
 10
1079.691381
 20
109.386747
 30
0.0
  0
POINT
  5
141
100
AcDbEntity
  8
DEFPOINTS
  6
CONTINUOUS
 62
     0
100
AcDbPoint
 10
279.691381
 20
109.386747
 30
0.0
  0
POINT
  5
142
100
AcDbEntity
  8
DEFPOINTS
  6
CONTINUOUS
 62
     0
100
AcDbPoint
 10
279.691381
 20
1.322217
 30
0.0
  0
ENDBLK
  5
143
100
AcDbEntity
  8
0
  6
ByBlock
 62
     0
100
AcDbBlockEnd
  0
BLOCK
  5
146
100
AcDbEntity
  8
0
  6
ByBlock
 62
     0
100
AcDbBlockBegin
  2
*D8
 70
     1
 10
0.0
 20
0.0
 30
0.0
  3
*D8
  1

  0
LINE
  5
147
100
AcDbEntity
  8
0
  6
CONTINUOUS
 62
   143
100
AcDbLine
 10
1221.211998
 20
519.386745
 30
0.0
 11
1221.211998
 21
99.386745
 31
0.0
  0
LINE
  5
148
100
AcDbEntity
  8
0
  6
CONTINUOUS
 62
   143
100
AcDbLine
 10
1078.691384
 20
519.386745
 30
0.0
 11
1230.211998
 21
519.386745
 31
0.0
  0
LINE
  5
149
100
AcDbEntity
  8
0
  6
CONTINUOUS
 62
   143
100
AcDbLine
 10
1078.691384
 20
99.386745
 30
0.0
 11
1230.211998
 21
99.386745
 31
0.0
  0
INSERT
  5
14A
100
AcDbEntity
  8
0
  6
CONTINUOUS
 62
   143
100
AcDbBlockReference
  2
_OPEN30
 10
1221.211998
 20
519.386745
 30
0.0
 41
16.62
 42
16.62
 43
16.62
 50
90.0
  0
INSERT
  5
14B
100
AcDbEntity
  8
0
  6
CONTINUOUS
 62
   143
100
AcDbBlockReference
  2
_OPEN30
 10
1221.211998
 20
99.386745
 30
0.0
 41
16.62
 42
16.62
 43
16.62
 50
270.0
  0
MTEXT
  5
14C
100
AcDbEntity
  8
0
  6
CONTINUOUS
 62
   143
100
AcDbMText
 10
1210.711998
 20
309.386745
 30
0.0
 40
15.0
 41
0.0
 71
     5
 72
     1
  1
\A1;420.0
  7
MX_DIMTXSTY_3
 11
0.0
 21
1.0
 31
0.0
  0
POINT
  5
14D
100
AcDbEntity
  8
DEFPOINTS
  6
CONTINUOUS
 62
     0
100
AcDbPoint
 10
1069.691384
 20
519.386745
 30
0.0
  0
POINT
  5
14E
100
AcDbEntity
  8
DEFPOINTS
  6
CONTINUOUS
 62
     0
100
AcDbPoint
 10
1069.691384
 20
99.386745
 30
0.0
  0
POINT
  5
14F
100
AcDbEntity
  8
DEFPOINTS
  6
CONTINUOUS
 62
     0
100
AcDbPoint
 10
1221.211998
 20
99.386745
 30
0.0
  0
ENDBLK
  5
150
100
AcDbEntity
  8
0
  6
ByBlock
 62
     0
100
AcDbBlockEnd
  0
BLOCK
  5
2AD
100
AcDbEntity
  8
0
  6
ByBlock
 62
     0
100
AcDbBlockBegin
  2
*D9
 70
     1
 10
0.0
 20
0.0
 30
0.0
  3
*D9
  1

  0
LINE
  5
2AE
100
AcDbEntity
  8
0
  6
CONTINUOUS
 62
   143
100
AcDbLine
 10
-507.879192
 20
-495.367226
 30
0.0
 11
-507.879192
 21
-322.867226
 31
0.0
  0
LINE
  5
2AF
100
AcDbEntity
  8
0
  6
CONTINUOUS
 62
   143
100
AcDbLine
 10
-430.233462
 20
-495.367226
 30
0.0
 11
-516.879192
 21
-495.367226
 31
0.0
  0
LINE
  5
2B0
100
AcDbEntity
  8
0
  6
CONTINUOUS
 62
   143
100
AcDbLine
 10
-414.358462
 20
-322.867226
 30
0.0
 11
-516.879192
 21
-322.867226
 31
0.0
  0
INSERT
  5
2B1
100
AcDbEntity
  8
0
  6
CONTINUOUS
 62
   143
100
AcDbBlockReference
  2
_OPEN30
 10
-507.879192
 20
-495.367226
 30
0.0
 41
16.62
 42
16.62
 43
16.62
 50
270.0
  0
INSERT
  5
2B2
100
AcDbEntity
  8
0
  6
CONTINUOUS
 62
   143
100
AcDbBlockReference
  2
_OPEN30
 10
-507.879192
 20
-322.867226
 30
0.0
 41
16.62
 42
16.62
 43
16.62
 50
90.0
  0
MTEXT
  5
2B3
100
AcDbEntity
  8
0
  6
CONTINUOUS
 62
   143
100
AcDbMText
 10
-518.379192
 20
-409.117226
 30
0.0
 40
15.0
 41
0.0
 71
     5
 72
     1
  1
\A1;(172.5)
  7
MX_DIMTXSTY_4
 11
0.0
 21
1.0
 31
0.0
  0
POINT
  5
2B4
100
AcDbEntity
  8
DEFPOINTS
  6
CONTINUOUS
 62
     0
100
AcDbPoint
 10
-421.233462
 20
-495.367226
 30
0.0
  0
POINT
  5
2B5
100
AcDbEntity
  8
DEFPOINTS
  6
CONTINUOUS
 62
     0
100
AcDbPoint
 10
-405.358462
 20
-322.867226
 30
0.0
  0
POINT
  5
2B6
100
AcDbEntity
  8
DEFPOINTS
  6
CONTINUOUS
 62
     0
100
AcDbPoint
 10
-507.879192
 20
-322.867226
 30
0.0
  0
ENDBLK
  5
2B7
100
AcDbEntity
  8
0
  6
ByBlock
 62
     0
100
AcDbBlockEnd
  0
BLOCK
  5
301
100
AcDbEntity
  8
0
  6
ByBlock
 62
     0
100
AcDbBlockBegin
  2
*D10
 70
     1
 10
0.0
 20
0.0
 30
0.0
  3
*D10
  1

  0
LINE
  5
302
100
AcDbEntity
  8
0
  6
CONTINUOUS
 62
   143
100
AcDbLine
 10
-624.669933
 20
534.632774
 30
0.0
 11
-624.669933
 21
459.632774
 31
0.0
  0
LINE
  5
303
100
AcDbEntity
  8
0
  6
CONTINUOUS
 62
   143
100
AcDbLine
 10
-451.85846
 20
459.632774
 30
0.0
 11
-633.669933
 21
459.632774
 31
0.0
  0
INSERT
  5
304
100
AcDbEntity
  8
0
  6
CONTINUOUS
 62
   143
100
AcDbBlockReference
  2
_OPEN30
 10
-624.669933
 20
534.632774
 30
0.0
 41
16.62
 42
16.62
 43
16.62
 50
90.0
  0
INSERT
  5
305
100
AcDbEntity
  8
0
  6
CONTINUOUS
 62
   143
100
AcDbBlockReference
  2
_OPEN30
 10
-624.669933
 20
459.632774
 30
0.0
 41
16.62
 42
16.62
 43
16.62
 50
270.0
  0
MTEXT
  5
306
100
AcDbEntity
  8
0
  6
CONTINUOUS
 62
   143
100
AcDbMText
 10
-635.169933
 20
497.132774
 30
0.0
 40
15.0
 41
0.0
 71
     5
 72
     1
  1
\A1;(75.0)
  7
MX_DIMTXSTY_2
 11
0.0
 21
1.0
 31
0.0
  0
POINT
  5
307
100
AcDbEntity
  8
DEFPOINTS
  6
CONTINUOUS
 62
     0
100
AcDbPoint
 10
-905.35847
 20
534.632774
 30
0.0
  0
POINT
  5
308
100
AcDbEntity
  8
DEFPOINTS
  6
CONTINUOUS
 62
     0
100
AcDbPoint
 10
-442.85846
 20
459.632774
 30
0.0
  0
POINT
  5
309
100
AcDbEntity
  8
DEFPOINTS
  6
CONTINUOUS
 62
     0
100
AcDbPoint
 10
-624.669933
 20
459.632774
 30
0.0
  0
ENDBLK
  5
30A
100
AcDbEntity
  8
0
  6
ByBlock
 62
     0
100
AcDbBlockEnd
  0
BLOCK
  5
311
100
AcDbEntity
  8
0
  6
ByBlock
 62
     0
100
AcDbBlockBegin
  2
*D11
 70
     1
 10
0.0
 20
0.0
 30
0.0
  3
*D11
  1

  0
LINE
  5
312
100
AcDbEntity
  8
0
  6
CONTINUOUS
 62
   143
100
AcDbLine
 10
-405.35846
 20
580.3982
 30
0.0
 11
-205.35846
 21
580.3982
 31
0.0
  0
LINE
  5
313
100
AcDbEntity
  8
0
  6
CONTINUOUS
 62
   143
100
AcDbLine
 10
-405.35846
 20
562.568788
 30
0.0
 11
-405.35846
 21
589.3982
 31
0.0
  0
LINE
  5
314
100
AcDbEntity
  8
0
  6
CONTINUOUS
 62
   143
100
AcDbLine
 10
-205.35846
 20
501.842368
 30
0.0
 11
-205.35846
 21
589.3982
 31
0.0
  0
INSERT
  5
315
100
AcDbEntity
  8
0
  6
CONTINUOUS
 62
   143
100
AcDbBlockReference
  2
_OPEN30
 10
-405.35846
 20
580.3982
 30
0.0
 41
16.62
 42
16.62
 43
16.62
 50
180.0
  0
INSERT
  5
316
100
AcDbEntity
  8
0
  6
CONTINUOUS
 62
   143
100
AcDbBlockReference
  2
_OPEN30
 10
-205.35846
 20
580.3982
 30
0.0
 41
16.62
 42
16.62
 43
16.62
  0
MTEXT
  5
317
100
AcDbEntity
  8
0
  6
CONTINUOUS
 62
   143
100
AcDbMText
 10
-305.565033
 20
590.8982
 30
0.0
 40
15.0
 41
0.0
 71
     5
 72
     1
  1
\A1;(200.0)
  7
MX_DIMTXSTY_2
  0
POINT
  5
318
100
AcDbEntity
  8
DEFPOINTS
  6
CONTINUOUS
 62
     0
100
AcDbPoint
 10
-405.35846
 20
553.568788
 30
0.0
  0
POINT
  5
319
100
AcDbEntity
  8
DEFPOINTS
  6
CONTINUOUS
 62
     0
100
AcDbPoint
 10
-205.35846
 20
492.842368
 30
0.0
  0
POINT
  5
31A
100
AcDbEntity
  8
DEFPOINTS
  6
CONTINUOUS
 62
     0
100
AcDbPoint
 10
-205.35846
 20
580.3982
 30
0.0
  0
ENDBLK
  5
31B
100
AcDbEntity
  8
0
  6
ByBlock
 62
     0
100
AcDbBlockEnd
  0
BLOCK
  5
31F
100
AcDbEntity
  8
0
  6
ByBlock
 62
     0
100
AcDbBlockBegin
  2
*D12
 70
     1
 10
0.0
 20
0.0
 30
0.0
  3
*D12
  1

  0
LINE
  5
320
100
AcDbEntity
  8
0
  6
CONTINUOUS
 62
   143
100
AcDbLine
 10
-1003.62939
 20
34.632774
 30
0.0
 11
-1003.62939
 21
534.632774
 31
0.0
  0
LINE
  5
321
100
AcDbEntity
  8
0
  6
CONTINUOUS
 62
   143
100
AcDbLine
 10
-912.358463
 20
34.632774
 30
0.0
 11
-1012.62939
 21
34.632774
 31
0.0
  0
LINE
  5
322
100
AcDbEntity
  8
0
  6
CONTINUOUS
 62
   143
100
AcDbLine
 10
-914.358463
 20
534.632774
 30
0.0
 11
-1012.62939
 21
534.632774
 31
0.0
  0
INSERT
  5
323
100
AcDbEntity
  8
0
  6
CONTINUOUS
 62
   143
100
AcDbBlockReference
  2
_OPEN30
 10
-1003.62939
 20
34.632774
 30
0.0
 41
16.62
 42
16.62
 43
16.62
 50
270.0
  0
INSERT
  5
324
100
AcDbEntity
  8
0
  6
CONTINUOUS
 62
   143
100
AcDbBlockReference
  2
_OPEN30
 10
-1003.62939
 20
534.632774
 30
0.0
 41
16.62
 42
16.62
 43
16.62
 50
90.0
  0
MTEXT
  5
325
100
AcDbEntity
  8
0
  6
CONTINUOUS
 62
   143
100
AcDbMText
 10
-1014.12939
 20
284.632774
 30
0.0
 40
15.0
 41
0.0
 71
     5
 72
     1
  1
\A1;(500.0)
  7
MX_DIMTXSTY_2
 11
0.0
 21
1.0
 31
0.0
  0
POINT
  5
326
100
AcDbEntity
  8
DEFPOINTS
  6
CONTINUOUS
 62
     0
100
AcDbPoint
 10
-903.358463
 20
34.632774
 30
0.0
  0
POINT
  5
327
100
AcDbEntity
  8
DEFPOINTS
  6
CONTINUOUS
 62
     0
100
AcDbPoint
 10
-905.358463
 20
534.632774
 30
0.0
  0
POINT
  5
328
100
AcDbEntity
  8
DEFPOINTS
  6
CONTINUOUS
 62
     0
100
AcDbPoint
 10
-1003.62939
 20
534.632774
 30
0.0
  0
ENDBLK
  5
329
100
AcDbEntity
  8
0
  6
ByBlock
 62
     0
100
AcDbBlockEnd
  0
BLOCK
  5
32C
100
AcDbEntity
  8
0
  6
ByBlock
 62
     0
100
AcDbBlockBegin
  2
*D13
 70
     1
 10
0.0
 20
0.0
 30
0.0
  3
*D13
  1

  0
LINE
  5
32D
100
AcDbEntity
  8
0
  6
CONTINUOUS
 62
   143
100
AcDbLine
 10
-952.498465
 20
34.632774
 30
0.0
 11
-952.498465
 21
74.632774
 31
0.0
  0
LINE
  5
32E
100
AcDbEntity
  8
0
  6
CONTINUOUS
 62
   143
100
AcDbLine
 10
-952.498465
 20
-64.804822
 30
0.0
 11
-952.498465
 21
34.632774
 31
0.0
  0
LINE
  5
32F
100
AcDbEntity
  8
0
  6
CONTINUOUS
 62
   143
100
AcDbLine
 10
-952.498465
 20
34.632774
 30
0.0
 11
-952.498465
 21
-3.467226
 31
0.0
  0
INSERT
  5
330
100
AcDbEntity
  8
0
  6
CONTINUOUS
 62
   143
100
AcDbBlockReference
  2
_OPEN30
 10
-952.498465
 20
34.632774
 30
0.0
 41
16.62
 42
16.62
 43
16.62
 50
90.0
  0
MTEXT
  5
336
100
AcDbEntity
  8
0
  6
CONTINUOUS
 62
   143
100
AcDbMText
 10
-962.998465
 20
-19.804822
 30
0.0
 40
15.0
 41
0.0
 71
     5
 72
     1
  1
\A1;(40.0)
  7
MX_DIMTXSTY_5
 11
0.0
 21
1.0
 31
0.0
  0
POINT
  5
337
100
AcDbEntity
  8
DEFPOINTS
  6
CONTINUOUS
 62
     0
100
AcDbPoint
 10
-903.358458
 20
34.632774
 30
0.0
  0
POINT
  5
338
100
AcDbEntity
  8
DEFPOINTS
  6
CONTINUOUS
 62
     0
100
AcDbPoint
 10
-847.858458
 20
74.632774
 30
0.0
  0
POINT
  5
339
100
AcDbEntity
  8
DEFPOINTS
  6
CONTINUOUS
 62
     0
100
AcDbPoint
 10
-952.498465
 20
74.632774
 30
0.0
  0
ENDBLK
  5
33A
100
AcDbEntity
  8
0
  6
ByBlock
 62
     0
100
AcDbBlockEnd
  0
BLOCK
  5
332
100
AcDbEntity
  8
0
  6
ByBlock
 62
     0
100
AcDbBlockBegin
  2
_NONE
 70
     2
 10
0.0
 20
0.0
 30
0.0
  3
_NONE
  1

  0
CIRCLE
  5
333
100
AcDbEntity
  8
0
  6
ByBlock
 62
     0
100
AcDbCircle
 10
0.0
 20
0.0
 30
0.0
 40
0.25
  0
ENDBLK
  5
334
100
AcDbEntity
  8
0
  6
ByBlock
 62
     0
100
AcDbBlockEnd
  0
BLOCK
  5
33D
100
AcDbEntity
  8
0
  6
ByBlock
 62
     0
100
AcDbBlockBegin
  2
*D15
 70
     1
 10
0.0
 20
0.0
 30
0.0
  3
*D15
  1

  0
LINE
  5
33E
100
AcDbEntity
  8
0
  6
CONTINUOUS
 62
   143
100
AcDbLine
 10
-952.498465
 20
74.632774
 30
0.0
 11
-952.498465
 21
394.632774
 31
0.0
  0
LINE
  5
33F
100
AcDbEntity
  8
0
  6
CONTINUOUS
 62
   143
100
AcDbLine
 10
-851.858458
 20
74.632774
 30
0.0
 11
-961.498465
 21
74.632774
 31
0.0
  0
INSERT
  5
340
100
AcDbEntity
  8
0
  6
CONTINUOUS
 62
   143
100
AcDbBlockReference
  2
_OPEN30
 10
-952.498465
 20
74.632774
 30
0.0
 41
16.62
 42
16.62
 43
16.62
 50
270.0
  0
INSERT
  5
341
100
AcDbEntity
  8
0
  6
CONTINUOUS
 62
   143
100
AcDbBlockReference
  2
_OPEN30
 10
-952.498465
 20
394.632774
 30
0.0
 41
16.62
 42
16.62
 43
16.62
 50
90.0
  0
MTEXT
  5
342
100
AcDbEntity
  8
0
  6
CONTINUOUS
 62
   143
100
AcDbMText
 10
-962.998465
 20
234.632774
 30
0.0
 40
15.0
 41
0.0
 71
     5
 72
     1
  1
\A1;(320.0)
  7
MX_DIMTXSTY_4
 11
0.0
 21
1.0
 31
0.0
  0
POINT
  5
343
100
AcDbEntity
  8
DEFPOINTS
  6
CONTINUOUS
 62
     0
100
AcDbPoint
 10
-842.858458
 20
74.632774
 30
0.0
  0
POINT
  5
344
100
AcDbEntity
  8
DEFPOINTS
  6
CONTINUOUS
 62
     0
100
AcDbPoint
 10
-847.858458
 20
394.632774
 30
0.0
  0
POINT
  5
345
100
AcDbEntity
  8
DEFPOINTS
  6
CONTINUOUS
 62
     0
100
AcDbPoint
 10
-952.498465
 20
394.632774
 30
0.0
  0
ENDBLK
  5
346
100
AcDbEntity
  8
0
  6
ByBlock
 62
     0
100
AcDbBlockEnd
  0
BLOCK
  5
349
100
AcDbEntity
  8
0
  6
ByBlock
 62
     0
100
AcDbBlockBegin
  2
*D16
 70
     1
 10
0.0
 20
0.0
 30
0.0
  3
*D16
  1

  0
LINE
  5
34A
100
AcDbEntity
  8
0
  6
CONTINUOUS
 62
   143
100
AcDbLine
 10
-952.498465
 20
394.632774
 30
0.0
 11
-952.498465
 21
534.632774
 31
0.0
  0
LINE
  5
34B
100
AcDbEntity
  8
0
  6
CONTINUOUS
 62
   143
100
AcDbLine
 10
-851.858458
 20
394.632774
 30
0.0
 11
-961.498465
 21
394.632774
 31
0.0
  0
INSERT
  5
34C
100
AcDbEntity
  8
0
  6
CONTINUOUS
 62
   143
100
AcDbBlockReference
  2
_OPEN30
 10
-952.498465
 20
394.632774
 30
0.0
 41
16.62
 42
16.62
 43
16.62
 50
270.0
  0
INSERT
  5
34D
100
AcDbEntity
  8
0
  6
CONTINUOUS
 62
   143
100
AcDbBlockReference
  2
_OPEN30
 10
-952.498465
 20
534.632774
 30
0.0
 41
16.62
 42
16.62
 43
16.62
 50
90.0
  0
MTEXT
  5
34E
100
AcDbEntity
  8
0
  6
CONTINUOUS
 62
   143
100
AcDbMText
 10
-962.998465
 20
464.632774
 30
0.0
 40
15.0
 41
0.0
 71
     5
 72
     1
  1
\A1;(140.0)
  7
MX_DIMTXSTY_5
 11
0.0
 21
1.0
 31
0.0
  0
POINT
  5
34F
100
AcDbEntity
  8
DEFPOINTS
  6
CONTINUOUS
 62
     0
100
AcDbPoint
 10
-842.858458
 20
394.632774
 30
0.0
  0
POINT
  5
350
100
AcDbEntity
  8
DEFPOINTS
  6
CONTINUOUS
 62
     0
100
AcDbPoint
 10
-905.358458
 20
534.632774
 30
0.0
  0
POINT
  5
351
100
AcDbEntity
  8
DEFPOINTS
  6
CONTINUOUS
 62
     0
100
AcDbPoint
 10
-952.498465
 20
534.632774
 30
0.0
  0
ENDBLK
  5
352
100
AcDbEntity
  8
0
  6
ByBlock
 62
     0
100
AcDbBlockEnd
  0
BLOCK
  5
38C
100
AcDbEntity
  8
0
  6
ByBlock
 62
     0
100
AcDbBlockBegin
  2
*D17
 70
     1
 10
0.0
 20
0.0
 30
0.0
  3
*D17
  1

  0
LINE
  5
38D
100
AcDbEntity
  8
0
  6
CONTINUOUS
 62
   143
100
AcDbLine
 10
-1003.62939
 20
-203.367226
 30
0.0
 11
-1003.62939
 21
-110.367226
 31
0.0
  0
LINE
  5
38E
100
AcDbEntity
  8
0
  6
CONTINUOUS
 62
   143
100
AcDbLine
 10
-914.358463
 20
-203.367226
 30
0.0
 11
-1012.62939
 21
-203.367226
 31
0.0
  0
LINE
  5
38F
100
AcDbEntity
  8
0
  6
CONTINUOUS
 62
   143
100
AcDbLine
 10
-914.358463
 20
-110.367226
 30
0.0
 11
-1012.62939
 21
-110.367226
 31
0.0
  0
INSERT
  5
390
100
AcDbEntity
  8
0
  6
CONTINUOUS
 62
   143
100
AcDbBlockReference
  2
_OPEN30
 10
-1003.62939
 20
-203.367226
 30
0.0
 41
16.62
 42
16.62
 43
16.62
 50
270.0
  0
INSERT
  5
391
100
AcDbEntity
  8
0
  6
CONTINUOUS
 62
   143
100
AcDbBlockReference
  2
_OPEN30
 10
-1003.62939
 20
-110.367226
 30
0.0
 41
16.62
 42
16.62
 43
16.62
 50
90.0
  0
MTEXT
  5
392
100
AcDbEntity
  8
0
  6
CONTINUOUS
 62
   143
100
AcDbMText
 10
-1014.12939
 20
-156.867226
 30
0.0
 40
15.0
 41
0.0
 71
     5
 72
     1
  1
\A1;(93.0)
  7
MX_DIMTXSTY_2
 11
0.0
 21
1.0
 31
0.0
  0
POINT
  5
393
100
AcDbEntity
  8
DEFPOINTS
  6
CONTINUOUS
 62
     0
100
AcDbPoint
 10
-905.358463
 20
-203.367226
 30
0.0
  0
POINT
  5
394
100
AcDbEntity
  8
DEFPOINTS
  6
CONTINUOUS
 62
     0
100
AcDbPoint
 10
-905.358463
 20
-110.367226
 30
0.0
  0
POINT
  5
395
100
AcDbEntity
  8
DEFPOINTS
  6
CONTINUOUS
 62
     0
100
AcDbPoint
 10
-1003.62939
 20
-110.367226
 30
0.0
  0
ENDBLK
  5
396
100
AcDbEntity
  8
0
  6
ByBlock
 62
     0
100
AcDbBlockEnd
  0
BLOCK
  5
399
100
AcDbEntity
  8
0
  6
ByBlock
 62
     0
100
AcDbBlockBegin
  2
*D18
 70
     1
 10
0.0
 20
0.0
 30
0.0
  3
*D18
  1

  0
LINE
  5
39A
100
AcDbEntity
  8
0
  6
CONTINUOUS
 62
   143
100
AcDbLine
 10
140.161227
 20
459.632774
 30
0.0
 11
140.161227
 21
312.632774
 31
0.0
  0
LINE
  5
39B
100
AcDbEntity
  8
0
  6
CONTINUOUS
 62
   143
100
AcDbLine
 10
-200.727415
 20
312.632774
 30
0.0
 11
149.161227
 21
312.632774
 31
0.0
  0
INSERT
  5
39C
100
AcDbEntity
  8
0
  6
CONTINUOUS
 62
   143
100
AcDbBlockReference
  2
_OPEN30
 10
140.161227
 20
459.632774
 30
0.0
 41
16.62
 42
16.62
 43
16.62
 50
90.0
  0
INSERT
  5
39D
100
AcDbEntity
  8
0
  6
CONTINUOUS
 62
   143
100
AcDbBlockReference
  2
_OPEN30
 10
140.161227
 20
312.632774
 30
0.0
 41
16.62
 42
16.62
 43
16.62
 50
270.0
  0
MTEXT
  5
39E
100
AcDbEntity
  8
0
  6
CONTINUOUS
 62
   143
100
AcDbMText
 10
129.661227
 20
386.132774
 30
0.0
 40
15.0
 41
0.0
 71
     5
 72
     1
  1
\A1;(147.0)
  7
MX_DIMTXSTY_2
 11
0.0
 21
1.0
 31
0.0
  0
POINT
  5
39F
100
AcDbEntity
  8
DEFPOINTS
  6
CONTINUOUS
 62
     0
100
AcDbPoint
 10
-142.858457
 20
459.632774
 30
0.0
  0
POINT
  5
3A0
100
AcDbEntity
  8
DEFPOINTS
  6
CONTINUOUS
 62
     0
100
AcDbPoint
 10
-209.727415
 20
312.632774
 30
0.0
  0
POINT
  5
3A1
100
AcDbEntity
  8
DEFPOINTS
  6
CONTINUOUS
 62
     0
100
AcDbPoint
 10
140.161227
 20
312.632774
 30
0.0
  0
ENDBLK
  5
3A2
100
AcDbEntity
  8
0
  6
ByBlock
 62
     0
100
AcDbBlockEnd
  0
BLOCK
  5
3A5
100
AcDbEntity
  8
0
  6
ByBlock
 62
     0
100
AcDbBlockBegin
  2
*D19
 70
     1
 10
0.0
 20
0.0
 30
0.0
  3
*D19
  1

  0
LINE
  5
3A6
100
AcDbEntity
  8
0
  6
CONTINUOUS
 62
   143
100
AcDbLine
 10
140.161227
 20
534.632774
 30
0.0
 11
140.161227
 21
459.632774
 31
0.0
  0
LINE
  5
3A7
100
AcDbEntity
  8
0
  6
CONTINUOUS
 62
   143
100
AcDbLine
 10
140.161227
 20
639.61531
 30
0.0
 11
140.161227
 21
534.632774
 31
0.0
  0
LINE
  5
3A8
100
AcDbEntity
  8
0
  6
CONTINUOUS
 62
   143
100
AcDbLine
 10
103.641539
 20
534.632774
 30
0.0
 11
149.161227
 21
534.632774
 31
0.0
  0
LINE
  5
3A9
100
AcDbEntity
  8
0
  6
CONTINUOUS
 62
   143
100
AcDbLine
 10
-157.537687
 20
459.632774
 30
0.0
 11
149.161227
 21
459.632774
 31
0.0
  0
LINE
  5
3AA
100
AcDbEntity
  8
0
  6
CONTINUOUS
 62
   143
100
AcDbLine
 10
140.161227
 20
534.632774
 30
0.0
 11
140.161227
 21
572.732773
 31
0.0
  0
LINE
  5
3AB
100
AcDbEntity
  8
0
  6
CONTINUOUS
 62
   143
100
AcDbLine
 10
140.161227
 20
459.632774
 30
0.0
 11
140.161227
 21
421.532774
 31
0.0
  0
INSERT
  5
3AC
100
AcDbEntity
  8
0
  6
CONTINUOUS
 62
   143
100
AcDbBlockReference
  2
_OPEN30
 10
140.161227
 20
534.632774
 30
0.0
 41
16.62
 42
16.62
 43
16.62
 50
270.0
  0
INSERT
  5
3AD
100
AcDbEntity
  8
0
  6
CONTINUOUS
 62
   143
100
AcDbBlockReference
  2
_OPEN30
 10
140.161227
 20
459.632774
 30
0.0
 41
16.62
 42
16.62
 43
16.62
 50
90.0
  0
MTEXT
  5
3AE
100
AcDbEntity
  8
0
  6
CONTINUOUS
 62
   143
100
AcDbMText
 10
129.661227
 20
594.61531
 30
0.0
 40
15.0
 41
0.0
 71
     5
 72
     1
  1
\A1;(75.0)
  7
MX_DIMTXSTY_2
 11
0.0
 21
1.0
 31
0.0
  0
POINT
  5
3AF
100
AcDbEntity
  8
DEFPOINTS
  6
CONTINUOUS
 62
     0
100
AcDbPoint
 10
94.641539
 20
534.632774
 30
0.0
  0
POINT
  5
3B0
100
AcDbEntity
  8
DEFPOINTS
  6
CONTINUOUS
 62
     0
100
AcDbPoint
 10
-166.537687
 20
459.632774
 30
0.0
  0
POINT
  5
3B1
100
AcDbEntity
  8
DEFPOINTS
  6
CONTINUOUS
 62
     0
100
AcDbPoint
 10
140.161227
 20
459.632774
 30
0.0
  0
ENDBLK
  5
3B2
100
AcDbEntity
  8
0
  6
ByBlock
 62
     0
100
AcDbBlockEnd
  0
BLOCK
  5
3B5
100
AcDbEntity
  8
0
  6
ByBlock
 62
     0
100
AcDbBlockBegin
  2
*D20
 70
     1
 10
0.0
 20
0.0
 30
0.0
  3
*D20
  1

  0
LINE
  5
3B6
100
AcDbEntity
  8
0
  6
CONTINUOUS
 62
   143
100
AcDbLine
 10
187.202838
 20
534.632774
 30
0.0
 11
187.202838
 21
312.632774
 31
0.0
  0
LINE
  5
3B7
100
AcDbEntity
  8
0
  6
CONTINUOUS
 62
   143
100
AcDbLine
 10
103.641536
 20
534.632774
 30
0.0
 11
196.202838
 21
534.632774
 31
0.0
  0
LINE
  5
3B8
100
AcDbEntity
  8
0
  6
CONTINUOUS
 62
   143
100
AcDbLine
 10
-334.247174
 20
312.632774
 30
0.0
 11
196.202838
 21
312.632774
 31
0.0
  0
INSERT
  5
3B9
100
AcDbEntity
  8
0
  6
CONTINUOUS
 62
   143
100
AcDbBlockReference
  2
_OPEN30
 10
187.202838
 20
534.632774
 30
0.0
 41
16.62
 42
16.62
 43
16.62
 50
90.0
  0
INSERT
  5
3BA
100
AcDbEntity
  8
0
  6
CONTINUOUS
 62
   143
100
AcDbBlockReference
  2
_OPEN30
 10
187.202838
 20
312.632774
 30
0.0
 41
16.62
 42
16.62
 43
16.62
 50
270.0
  0
MTEXT
  5
3BB
100
AcDbEntity
  8
0
  6
CONTINUOUS
 62
   143
100
AcDbMText
 10
176.702838
 20
423.632774
 30
0.0
 40
15.0
 41
0.0
 71
     5
 72
     1
  1
\A1;(222.0)
  7
MX_DIMTXSTY_3
 11
0.0
 21
1.0
 31
0.0
  0
POINT
  5
3BC
100
AcDbEntity
  8
DEFPOINTS
  6
CONTINUOUS
 62
     0
100
AcDbPoint
 10
94.641536
 20
534.632774
 30
0.0
  0
POINT
  5
3BD
100
AcDbEntity
  8
DEFPOINTS
  6
CONTINUOUS
 62
     0
100
AcDbPoint
 10
-343.247174
 20
312.632774
 30
0.0
  0
POINT
  5
3BE
100
AcDbEntity
  8
DEFPOINTS
  6
CONTINUOUS
 62
     0
100
AcDbPoint
 10
187.202838
 20
312.632774
 30
0.0
  0
ENDBLK
  5
3BF
100
AcDbEntity
  8
0
  6
ByBlock
 62
     0
100
AcDbBlockEnd
  0
BLOCK
  5
3C2
100
AcDbEntity
  8
0
  6
ByBlock
 62
     0
100
AcDbBlockBegin
  2
*D21
 70
     1
 10
0.0
 20
0.0
 30
0.0
  3
*D21
  1

  0
LINE
  5
3C3
100
AcDbEntity
  8
0
  6
CONTINUOUS
 62
   143
100
AcDbLine
 10
-842.85846
 20
623.02363
 30
0.0
 11
32.14154
 21
623.02363
 31
0.0
  0
LINE
  5
3C4
100
AcDbEntity
  8
0
  6
CONTINUOUS
 62
   143
100
AcDbLine
 10
-842.85846
 20
398.632792
 30
0.0
 11
-842.85846
 21
632.02363
 31
0.0
  0
LINE
  5
3C5
100
AcDbEntity
  8
0
  6
CONTINUOUS
 62
   143
100
AcDbLine
 10
32.14154
 20
403.632792
 30
0.0
 11
32.14154
 21
632.02363
 31
0.0
  0
INSERT
  5
3C6
100
AcDbEntity
  8
0
  6
CONTINUOUS
 62
   143
100
AcDbBlockReference
  2
_OPEN30
 10
-842.85846
 20
623.02363
 30
0.0
 41
16.62
 42
16.62
 43
16.62
 50
180.0
  0
INSERT
  5
3C7
100
AcDbEntity
  8
0
  6
CONTINUOUS
 62
   143
100
AcDbBlockReference
  2
_OPEN30
 10
32.14154
 20
623.02363
 30
0.0
 41
16.62
 42
16.62
 43
16.62
  0
MTEXT
  5
3C8
100
AcDbEntity
  8
0
  6
CONTINUOUS
 62
   143
100
AcDbMText
 10
-405.35846
 20
633.52363
 30
0.0
 40
15.0
 41
0.0
 71
     5
 72
     1
  1
\A1;(875.0)
  7
MX_DIMTXSTY_3
  0
POINT
  5
3C9
100
AcDbEntity
  8
DEFPOINTS
  6
CONTINUOUS
 62
     0
100
AcDbPoint
 10
-842.85846
 20
389.632792
 30
0.0
  0
POINT
  5
3CA
100
AcDbEntity
  8
DEFPOINTS
  6
CONTINUOUS
 62
     0
100
AcDbPoint
 10
32.14154
 20
394.632792
 30
0.0
  0
POINT
  5
3CB
100
AcDbEntity
  8
DEFPOINTS
  6
CONTINUOUS
 62
     0
100
AcDbPoint
 10
32.14154
 20
623.02363
 30
0.0
  0
ENDBLK
  5
3CC
100
AcDbEntity
  8
0
  6
ByBlock
 62
     0
100
AcDbBlockEnd
  0
BLOCK
  5
3CF
100
AcDbEntity
  8
0
  6
ByBlock
 62
     0
100
AcDbBlockBegin
  2
*D22
 70
     1
 10
0.0
 20
0.0
 30
0.0
  3
*D22
  1

  0
LINE
  5
3D0
100
AcDbEntity
  8
0
  6
CONTINUOUS
 62
   143
100
AcDbLine
 10
-905.35846
 20
670.628772
 30
0.0
 11
94.64154
 21
670.628772
 31
0.0
  0
LINE
  5
3D1
100
AcDbEntity
  8
0
  6
CONTINUOUS
 62
   143
100
AcDbLine
 10
-905.35846
 20
543.63277
 30
0.0
 11
-905.35846
 21
679.628772
 31
0.0
  0
LINE
  5
3D2
100
AcDbEntity
  8
0
  6
CONTINUOUS
 62
   143
100
AcDbLine
 10
94.64154
 20
543.63277
 30
0.0
 11
94.64154
 21
679.628772
 31
0.0
  0
INSERT
  5
3D3
100
AcDbEntity
  8
0
  6
CONTINUOUS
 62
   143
100
AcDbBlockReference
  2
_OPEN30
 10
-905.35846
 20
670.628772
 30
0.0
 41
16.62
 42
16.62
 43
16.62
 50
180.0
  0
INSERT
  5
3D4
100
AcDbEntity
  8
0
  6
CONTINUOUS
 62
   143
100
AcDbBlockReference
  2
_OPEN30
 10
94.64154
 20
670.628772
 30
0.0
 41
16.62
 42
16.62
 43
16.62
  0
MTEXT
  5
3D5
100
AcDbEntity
  8
0
  6
CONTINUOUS
 62
   143
100
AcDbMText
 10
-405.35846
 20
681.128772
 30
0.0
 40
15.0
 41
0.0
 71
     5
 72
     1
  1
\A1;(1000.0)
  7
MX_DIMTXSTY_5
  0
POINT
  5
3D6
100
AcDbEntity
  8
DEFPOINTS
  6
CONTINUOUS
 62
     0
100
AcDbPoint
 10
-905.35846
 20
534.63277
 30
0.0
  0
POINT
  5
3D7
100
AcDbEntity
  8
DEFPOINTS
  6
CONTINUOUS
 62
     0
100
AcDbPoint
 10
94.64154
 20
534.63277
 30
0.0
  0
POINT
  5
3D8
100
AcDbEntity
  8
DEFPOINTS
  6
CONTINUOUS
 62
     0
100
AcDbPoint
 10
94.64154
 20
670.628772
 30
0.0
  0
ENDBLK
  5
3D9
100
AcDbEntity
  8
0
  6
ByBlock
 62
     0
100
AcDbBlockEnd
  0
BLOCK
  5
3F6
100
AcDbEntity
  8
0
  6
ByBlock
 62
     0
100
AcDbBlockBegin
  2
*D23
 70
     1
 10
0.0
 20
0.0
 30
0.0
  3
*D23
  1

  0
LINE
  5
3F7
100
AcDbEntity
  8
0
  6
CONTINUOUS
 62
   143
100
AcDbLine
 10
-422.85846
 20
548.901513
 30
0.0
 11
-387.85846
 21
548.901513
 31
0.0
  0
LINE
  5
3F8
100
AcDbEntity
  8
0
  6
CONTINUOUS
 62
   143
100
AcDbLine
 10
-544.325066
 20
548.901513
 30
0.0
 11
-422.85846
 21
548.901513
 31
0.0
  0
LINE
  5
3F9
100
AcDbEntity
  8
0
  6
CONTINUOUS
 62
   143
100
AcDbLine
 10
-422.85846
 20
468.632768
 30
0.0
 11
-422.85846
 21
557.901513
 31
0.0
  0
LINE
  5
3FA
100
AcDbEntity
  8
0
  6
CONTINUOUS
 62
   143
100
AcDbLine
 10
-387.85846
 20
468.632768
 30
0.0
 11
-387.85846
 21
557.901513
 31
0.0
  0
LINE
  5
3FB
100
AcDbEntity
  8
0
  6
CONTINUOUS
 62
   143
100
AcDbLine
 10
-422.85846
 20
548.901513
 30
0.0
 11
-460.958459
 21
548.901513
 31
0.0
  0
LINE
  5
3FC
100
AcDbEntity
  8
0
  6
CONTINUOUS
 62
   143
100
AcDbLine
 10
-387.85846
 20
548.901513
 30
0.0
 11
-349.75846
 21
548.901513
 31
0.0
  0
INSERT
  5
3FD
100
AcDbEntity
  8
0
  6
CONTINUOUS
 62
   143
100
AcDbBlockReference
  2
_OPEN30
 10
-422.85846
 20
548.901513
 30
0.0
 41
16.62
 42
16.62
 43
16.62
  0
INSERT
  5
3FE
100
AcDbEntity
  8
0
  6
CONTINUOUS
 62
   143
100
AcDbBlockReference
  2
_OPEN30
 10
-387.85846
 20
548.901513
 30
0.0
 41
16.62
 42
16.62
 43
16.62
 50
180.0
  0
MTEXT
  5
3FF
100
AcDbEntity
  8
0
  6
CONTINUOUS
 62
   143
100
AcDbMText
 10
-491.825066
 20
559.401513
 30
0.0
 40
15.0
 41
0.0
 71
     5
 72
     1
  1
\A1;(\U+220535.0)
  7
MX_DIMTXSTY_3
  0
POINT
  5
400
100
AcDbEntity
  8
DEFPOINTS
  6
CONTINUOUS
 62
     0
100
AcDbPoint
 10
-422.85846
 20
459.632768
 30
0.0
  0
POINT
  5
401
100
AcDbEntity
  8
DEFPOINTS
  6
CONTINUOUS
 62
     0
100
AcDbPoint
 10
-387.85846
 20
459.632768
 30
0.0
  0
POINT
  5
402
100
AcDbEntity
  8
DEFPOINTS
  6
CONTINUOUS
 62
     0
100
AcDbPoint
 10
-387.85846
 20
548.901513
 30
0.0
  0
ENDBLK
  5
403
100
AcDbEntity
  8
0
  6
ByBlock
 62
     0
100
AcDbBlockEnd
  0
BLOCK
  5
465
100
AcDbEntity
  8
0
  6
ByBlock
 62
     0
100
AcDbBlockBegin
  2
*D24
 70
     1
 10
0.0
 20
0.0
 30
0.0
  3
*D24
  1

  0
LINE
  5
466
100
AcDbEntity
  8
0
  6
CONTINUOUS
 62
   143
100
AcDbLine
 10
-421.23346
 20
-440.225491
 30
0.0
 11
-389.48346
 21
-440.225491
 31
0.0
  0
LINE
  5
467
100
AcDbEntity
  8
0
  6
CONTINUOUS
 62
   143
100
AcDbLine
 10
-389.48346
 20
-440.225491
 30
0.0
 11
-276.695671
 21
-440.225491
 31
0.0
  0
LINE
  5
468
100
AcDbEntity
  8
0
  6
CONTINUOUS
 62
   143
100
AcDbLine
 10
-421.23346
 20
-440.225491
 30
0.0
 11
-459.333459
 21
-440.225491
 31
0.0
  0
LINE
  5
469
100
AcDbEntity
  8
0
  6
CONTINUOUS
 62
   143
100
AcDbLine
 10
-389.48346
 20
-440.225491
 30
0.0
 11
-351.38346
 21
-440.225491
 31
0.0
  0
INSERT
  5
46A
100
AcDbEntity
  8
0
  6
CONTINUOUS
 62
   143
100
AcDbBlockReference
  2
_OPEN30
 10
-421.23346
 20
-440.225491
 30
0.0
 41
16.62
 42
16.62
 43
16.62
  0
INSERT
  5
46B
100
AcDbEntity
  8
0
  6
CONTINUOUS
 62
   143
100
AcDbBlockReference
  2
_OPEN30
 10
-389.48346
 20
-440.225491
 30
0.0
 41
16.62
 42
16.62
 43
16.62
 50
180.0
  0
MTEXT
  5
46D
100
AcDbEntity
  8
0
  6
CONTINUOUS
 62
   143
100
AcDbMText
 10
-321.695671
 20
-429.725491
 30
0.0
 40
15.0
 41
0.0
 71
     5
 72
     1
  1
\A1;\U+220531.75
  7
MX_DIMTXSTY_6
  0
POINT
  5
46E
100
AcDbEntity
  8
DEFPOINTS
  6
CONTINUOUS
 62
     0
100
AcDbPoint
 10
-421.23346
 20
-495.467229
 30
0.0
  0
POINT
  5
46F
100
AcDbEntity
  8
DEFPOINTS
  6
CONTINUOUS
 62
     0
100
AcDbPoint
 10
-389.48346
 20
-495.467229
 30
0.0
  0
POINT
  5
470
100
AcDbEntity
  8
DEFPOINTS
  6
CONTINUOUS
 62
     0
100
AcDbPoint
 10
-389.48346
 20
-440.225491
 30
0.0
  0
ENDBLK
  5
471
100
AcDbEntity
  8
0
  6
ByBlock
 62
     0
100
AcDbBlockEnd
  0
BLOCK
  5
4D6
100
AcDbEntity
  8
0
  6
ByBlock
 62
     0
100
AcDbBlockBegin
  2
*D25
 70
     1
 10
0.0
 20
0.0
 30
0.0
  3
*D25
  1

  0
LINE
  5
4D7
100
AcDbEntity
  8
0
  6
CONTINUOUS
 62
   143
100
AcDbLine
 10
-383.35846
 20
-380.266325
 30
0.0
 11
-427.35846
 21
-380.266325
 31
0.0
  0
LINE
  5
4D8
100
AcDbEntity
  8
0
  6
CONTINUOUS
 62
   143
100
AcDbLine
 10
-233.111573
 20
-380.266325
 30
0.0
 11
-383.35846
 21
-380.266325
 31
0.0
  0
LINE
  5
4D9
100
AcDbEntity
  8
0
  6
CONTINUOUS
 62
   143
100
AcDbLine
 10
-383.35846
 20
-355.043482
 30
0.0
 11
-383.35846
 21
-389.266325
 31
0.0
  0
LINE
  5
4DA
100
AcDbEntity
  8
0
  6
CONTINUOUS
 62
   143
100
AcDbLine
 10
-427.35846
 20
-355.043482
 30
0.0
 11
-427.35846
 21
-389.266325
 31
0.0
  0
LINE
  5
4DB
100
AcDbEntity
  8
0
  6
CONTINUOUS
 62
   143
100
AcDbLine
 10
-383.35846
 20
-380.266325
 30
0.0
 11
-345.25846
 21
-380.266325
 31
0.0
  0
LINE
  5
4DC
100
AcDbEntity
  8
0
  6
CONTINUOUS
 62
   143
100
AcDbLine
 10
-427.35846
 20
-380.266325
 30
0.0
 11
-465.458459
 21
-380.266325
 31
0.0
  0
INSERT
  5
4DD
100
AcDbEntity
  8
0
  6
CONTINUOUS
 62
   143
100
AcDbBlockReference
  2
_OPEN30
 10
-383.35846
 20
-380.266325
 30
0.0
 41
16.62
 42
16.62
 43
16.62
 50
180.0
  0
INSERT
  5
4DE
100
AcDbEntity
  8
0
  6
CONTINUOUS
 62
   143
100
AcDbBlockReference
  2
_OPEN30
 10
-427.35846
 20
-380.266325
 30
0.0
 41
16.62
 42
16.62
 43
16.62
  0
MTEXT
  5
4DF
100
AcDbEntity
  8
0
  6
CONTINUOUS
 62
   143
100
AcDbMText
 10
-293.111573
 20
-369.766325
 30
0.0
 40
15.0
 41
0.0
 71
     5
 72
     1
  1
\A1;六角対辺44.0
 11
1.0
 21
0.0
 31
0.0
  0
POINT
  5
4E0
100
AcDbEntity
  8
DEFPOINTS
  6
CONTINUOUS
 62
     0
100
AcDbPoint
 10
-383.35846
 20
-346.043482
 30
0.0
  0
POINT
  5
4E1
100
AcDbEntity
  8
DEFPOINTS
  6
CONTINUOUS
 62
     0
100
AcDbPoint
 10
-427.35846
 20
-346.043482
 30
0.0
  0
POINT
  5
4E2
100
AcDbEntity
  8
DEFPOINTS
  6
CONTINUOUS
 62
     0
100
AcDbPoint
 10
-427.35846
 20
-380.266325
 30
0.0
  0
ENDBLK
  5
4E3
100
AcDbEntity
  8
0
  6
ByBlock
 62
     0
100
AcDbBlockEnd
  0
BLOCK
  5
507
100
AcDbEntity
  8
0
  6
ByBlock
 62
     0
100
AcDbBlockBegin
  2
*D26
 70
     1
 10
0.0
 20
0.0
 30
0.0
  3
*D26
  1

  0
LINE
  5
508
100
AcDbEntity
  8
0
  6
CONTINUOUS
 62
   143
100
AcDbLine
 10
-1003.62939
 20
-495.367226
 30
0.0
 11
-1003.62939
 21
-203.367226
 31
0.0
  0
LINE
  5
509
100
AcDbEntity
  8
0
  6
CONTINUOUS
 62
   143
100
AcDbLine
 10
-430.233455
 20
-495.367226
 30
0.0
 11
-1012.62939
 21
-495.367226
 31
0.0
  0
LINE
  5
50A
100
AcDbEntity
  8
0
  6
CONTINUOUS
 62
   143
100
AcDbLine
 10
-912.358463
 20
-203.367226
 30
0.0
 11
-1012.62939
 21
-203.367226
 31
0.0
  0
INSERT
  5
50B
100
AcDbEntity
  8
0
  6
CONTINUOUS
 62
   143
100
AcDbBlockReference
  2
_OPEN30
 10
-1003.62939
 20
-495.367226
 30
0.0
 41
16.62
 42
16.62
 43
16.62
 50
270.0
  0
INSERT
  5
50C
100
AcDbEntity
  8
0
  6
CONTINUOUS
 62
   143
100
AcDbBlockReference
  2
_OPEN30
 10
-1003.62939
 20
-203.367226
 30
0.0
 41
16.62
 42
16.62
 43
16.62
 50
90.0
  0
MTEXT
  5
50D
100
AcDbEntity
  8
0
  6
CONTINUOUS
 62
   143
100
AcDbMText
 10
-1014.12939
 20
-349.367226
 30
0.0
 40
15.0
 41
0.0
 71
     5
 72
     1
  1
\A1;(292.0)
  7
MX_DIMTXSTY_3
 11
0.0
 21
1.0
 31
0.0
  0
POINT
  5
50E
100
AcDbEntity
  8
DEFPOINTS
  6
CONTINUOUS
 62
     0
100
AcDbPoint
 10
-421.233455
 20
-495.367226
 30
0.0
  0
POINT
  5
50F
100
AcDbEntity
  8
DEFPOINTS
  6
CONTINUOUS
 62
     0
100
AcDbPoint
 10
-903.358463
 20
-203.367226
 30
0.0
  0
POINT
  5
510
100
AcDbEntity
  8
DEFPOINTS
  6
CONTINUOUS
 62
     0
100
AcDbPoint
 10
-1003.62939
 20
-203.367226
 30
0.0
  0
ENDBLK
  5
511
100
AcDbEntity
  8
0
  6
ByBlock
 62
     0
100
AcDbBlockEnd
  0
ENDSEC
  0
SECTION
  2
ENTITIES
  0
MTEXT
  5
25
100
AcDbEntity
  8
LY_1
  6
CONTINUOUS
 62
   143
100
AcDbMText
 10
1236.720985
 20
-774.277606
 30
0.0
 40
15.0
 41
0.0
 71
     1
 72
     1
  1
\A1;A3
  0
INSERT
  5
34
100
AcDbEntity
  8
LY_1
  6
ByBlock
 62
   143
100
AcDbBlockReference
  2
$KAKUDAI-3
 10
159.977912
 20
-732.277606
 30
0.0
 41
6.0
 42
6.0
 43
6.0
  0
INSERT
  5
84
100
AcDbEntity
  8
LY_1
  6
ByBlock
 62
   143
100
AcDbBlockReference
  2
$KAKUDAI-2
 10
215.241569
 20
-746.560656
 30
0.0
 41
6.0
 42
6.0
 43
6.0
  0
MTEXT
  5
85
100
AcDbEntity
  8
LY_1
  6
CONTINUOUS
 62
   143
100
AcDbMText
 10
507.035357
 20
-721.777606
 30
0.0
 40
18.0
 41
0.0
 71
     1
 72
     1
  1
\W1.005;\A1;2015年06月26日 作成
  0
MTEXT
  5
86
100
AcDbEntity
  8
LY_1
  6
CONTINUOUS
 62
   143
100
AcDbMText
 10
804.771199
 20
-582.097606
 30
0.0
 40
23.040001
 41
0.0
 71
     7
 72
     1
  1
\T0.887;\W1.003;\A1;※1　（　）内寸法は参考寸法である。\P※２　容量15.0L
  0
MTEXT
  5
87
100
AcDbEntity
  8
LY_1
  6
CONTINUOUS
 62
   143
100
AcDbMText
 10
634.854336
 20
-682.027606
 30
0.0
 40
24.0
 41
0.0
 71
     4
 72
     1
  1
\W0.833;\A1;甲藤
  0
MTEXT
  5
88
100
AcDbEntity
  8
LY_1
  6
CONTINUOUS
 62
   143
100
AcDbMText
 10
529.854336
 20
-682.027606
 30
0.0
 40
24.0
 41
0.0
 71
     4
 72
     1
  1
\W0.833;\A1;梶川
  0
MTEXT
  5
89
100
AcDbEntity
  8
LY_1
  6
CONTINUOUS
 62
   143
100
AcDbMText
 10
542.919951
 20
-747.277606
 30
0.0
 40
18.0
 41
0.0
 71
     1
 72
     1
  1
\W0.966;\A1;CSK4930701000HC_B
  0
LINE
  5
8A
100
AcDbEntity
  8
LY_1
  6
CONTINUOUS
 62
   130
100
AcDbLine
 10
708.021003
 20
-619.777606
 30
0.0
 11
708.021003
 21
-718.777606
 31
0.0
  0
LINE
  5
8B
100
AcDbEntity
  8
LY_1
  6
CONTINUOUS
 62
   130
100
AcDbLine
 10
603.021003
 20
-619.777606
 30
0.0
 11
603.021003
 21
-718.777606
 31
0.0
  0
MTEXT
  5
8C
100
AcDbEntity
  8
LY_1
  6
CONTINUOUS
 62
   140
100
AcDbMText
 10
383.358045
 20
-629.345324
 30
0.0
 40
22.5
 41
0.0
 71
     1
 72
     1
  1
\T0.958;\W1.043;\A1;尺
  0
MTEXT
  5
8D
100
AcDbEntity
  8
LY_1
  6
CONTINUOUS
 62
   140
100
AcDbMText
 10
266.264295
 20
-646.484637
 30
0.0
 40
22.5
 41
0.0
 71
     1
 72
     1
  1
\T0.958;\W1.043;\A1;単位ｍｍ
  0
MTEXT
  5
8E
100
AcDbEntity
  8
LY_1
  6
CONTINUOUS
 62
   140
100
AcDbMText
 10
383.358045
 20
-659.345324
 30
0.0
 40
22.5
 41
0.0
 71
     1
 72
     1
  1
\T0.958;\W1.043;\A1;度
  0
MTEXT
  5
8F
100
AcDbEntity
  8
LY_1
  6
CONTINUOUS
 62
   140
100
AcDbMText
 10
613.66211
 20
-622.91845
 30
0.0
 40
19.2
 41
0.0
 71
     1
 72
     1
  1
\T1.025;\W1.115;\A1;検　 図
  0
MTEXT
  5
90
100
AcDbEntity
  8
LY_1
  6
CONTINUOUS
 62
   140
100
AcDbMText
 10
718.66211
 20
-622.91845
 30
0.0
 40
19.2
 41
0.0
 71
     1
 72
     1
  1
\T1.025;\W1.115;\A1;承 　認
  0
CIRCLE
  5
91
100
AcDbEntity
  8
LY_1
  6
CONTINUOUS
 62
   130
100
AcDbCircle
 10
147.977912
 20
-657.277606
 30
0.0
 40
11.25
  0
CIRCLE
  5
92
100
AcDbEntity
  8
LY_1
  6
CONTINUOUS
 62
   130
100
AcDbCircle
 10
147.977912
 20
-657.277606
 30
0.0
 40
20.25
  0
LINE
  5
94
100
AcDbEntity
  8
LY_1
  6
CENTER
 62
   140
100
AcDbLine
 10
147.977912
 20
-626.83742
 30
0.0
 11
147.977912
 21
-687.297564
 31
0.0
  0
LINE
  5
95
100
AcDbEntity
  8
LY_1
  6
CENTER
 62
   140
100
AcDbLine
 10
119.367225
 20
-657.277606
 30
0.0
 11
235.968971
 21
-657.277606
 31
0.0
  0
LINE
  5
96
100
AcDbEntity
  8
LY_1
  6
CONTINUOUS
 62
   130
100
AcDbLine
 10
181.727912
 20
-646.027606
 30
0.0
 11
181.727912
 21
-668.527514
 31
0.0
  0
LINE
  5
97
100
AcDbEntity
  8
LY_1
  6
CONTINUOUS
 62
   130
100
AcDbLine
 10
226.727912
 20
-637.027606
 30
0.0
 11
226.727912
 21
-677.527514
 31
0.0
  0
LINE
  5
98
100
AcDbEntity
  8
LY_1
  6
CONTINUOUS
 62
   130
100
AcDbLine
 10
181.727943
 20
-668.527722
 30
0.0
 11
226.727942
 21
-677.527721
 31
0.0
  0
LINE
  5
99
100
AcDbEntity
  8
LY_1
  6
CONTINUOUS
 62
   130
100
AcDbLine
 10
181.72784
 20
-646.02775
 30
0.0
 11
226.727839
 21
-637.02775
 31
0.0
  0
LINE
  5
9A
100
AcDbEntity
  8
LY_1
  6
CONTINUOUS
 62
   130
100
AcDbLine
 10
408.021003
 20
-619.777606
 30
0.0
 11
408.021003
 21
-694.777606
 31
0.0
  0
LINE
  5
9B
100
AcDbEntity
  8
LY_1
  6
CONTINUOUS
 62
   130
100
AcDbLine
 10
258.021003
 20
-619.777606
 30
0.0
 11
258.021003
 21
-694.777606
 31
0.0
  0
LINE
  5
9C
100
AcDbEntity
  8
LY_1
  6
CONTINUOUS
 62
   130
100
AcDbLine
 10
378.021003
 20
-619.777606
 30
0.0
 11
378.021003
 21
-694.777606
 31
0.0
  0
LINE
  5
9D
100
AcDbEntity
  8
LY_1
  6
CONTINUOUS
 62
   130
100
AcDbLine
 10
96.021003
 20
-694.777606
 30
0.0
 11
498.021003
 21
-694.777606
 31
0.0
  0
LINE
  5
9E
100
AcDbEntity
  8
LY_1
  6
CONTINUOUS
 62
   130
100
AcDbLine
 10
498.021003
 20
-645.277606
 30
0.0
 11
813.021003
 21
-645.277606
 31
0.0
  0
LINE
  5
9F
100
AcDbEntity
  8
LY_1
  6
CONTINUOUS
 62
   130
100
AcDbLine
 10
498.021003
 20
-744.277606
 30
0.0
 11
813.021003
 21
-744.277606
 31
0.0
  0
MTEXT
  5
A0
100
AcDbEntity
  8
LY_1
  6
CONTINUOUS
 62
   140
100
AcDbMText
 10
507.751752
 20
-622.91845
 30
0.0
 40
19.2
 41
0.0
 71
     1
 72
     1
  1
\T0.958;\W1.043;\A1;製　　図
  0
MTEXT
  5
A1
100
AcDbEntity
  8
LY_1
  6
CONTINUOUS
 62
   140
100
AcDbMText
 10
818.358045
 20
-704.345324
 30
0.0
 40
22.5
 41
0.0
 71
     1
 72
     1
  1
\T0.958;\W1.043;\A1;品
  0
MTEXT
  5
A2
100
AcDbEntity
  8
LY_1
  6
CONTINUOUS
 62
   140
100
AcDbMText
 10
818.358045
 20
-629.345324
 30
0.0
 40
22.5
 41
0.0
 71
     1
 72
     1
  1
\T0.958;\W1.043;\A1;品
  0
MTEXT
  5
A3
100
AcDbEntity
  8
LY_1
  6
CONTINUOUS
 62
   140
100
AcDbMText
 10
818.358045
 20
-659.345324
 30
0.0
 40
22.5
 41
0.0
 71
     1
 72
     1
  1
\T0.958;\W1.043;\A1;番
  0
MTEXT
  5
A4
100
AcDbEntity
  8
LY_1
  6
CONTINUOUS
 62
   110
100
AcDbMText
 10
463.441164
 20
-662.195681
 30
0.0
 40
22.5
 41
0.0
 71
     1
 72
     1
  1
\T1.050;\W1.143;\A1;6
  0
MTEXT
  5
A5
100
AcDbEntity
  8
LY_1
  6
CONTINUOUS
 62
   110
100
AcDbMText
 10
426.84457
 20
-630.773593
 30
0.0
 40
22.5
 41
0.0
 71
     1
 72
     1
  1
\T1.286;\W1.400;\A1;1
  0
LINE
  5
A6
100
AcDbEntity
  8
LY_1
  6
CONTINUOUS
 62
   130
100
AcDbLine
 10
472.715163
 20
-640.865791
 30
0.0
 11
426.495219
 21
-679.382413
 31
0.0
  0
MTEXT
  5
A7
100
AcDbEntity
  8
LY_1
  6
CONTINUOUS
 62
   143
100
AcDbMText
 10
859.635087
 20
-657.277606
 30
0.0
 40
25.199999
 41
0.0
 71
     4
 72
     1
  1
\W1.099;\A1;493-070-1000H
  0
LINE
  5
A8
100
AcDbEntity
  8
LY_1
  6
CONTINUOUS
 62
   130
100
AcDbLine
 10
498.021003
 20
-718.777606
 30
0.0
 11
813.021003
 21
-718.777606
 31
0.0
  0
MTEXT
  5
A9
100
AcDbEntity
  8
LY_1
  6
CONTINUOUS
 62
   143
100
AcDbMText
 10
739.854336
 20
-682.027606
 30
0.0
 40
24.0
 41
0.0
 71
     4
 72
     1
  1
\W0.833;\A1;中嶋
  0
MTEXT
  5
AA
100
AcDbEntity
  8
LY_1
  6
CONTINUOUS
 62
   143
100
AcDbMText
 10
503.104336
 20
-757.027606
 30
0.0
 40
15.0
 41
0.0
 71
     4
 72
     1
  1
\W0.833;\A1;図番
  0
LINE
  5
AB
100
AcDbEntity
  8
LY_1
  6
CONTINUOUS
 62
   130
100
AcDbLine
 10
534.021003
 20
-744.277606
 30
0.0
 11
534.021003
 21
-769.777606
 31
0.0
  0
MTEXT
  5
AC
100
AcDbEntity
  8
LY_1
  6
CONTINUOUS
 62
   143
100
AcDbMText
 10
859.18767
 20
-732.277606
 30
0.0
 40
30.0
 41
0.0
 71
     4
 72
     1
  1
\W0.833;\A1;角型洗面器
  0
MTEXT
  5
AD
100
AcDbEntity
  8
LY_1
  6
CONTINUOUS
 62
   140
100
AcDbMText
 10
818.358045
 20
-734.345324
 30
0.0
 40
22.5
 41
0.0
 71
     1
 72
     1
  1
\T0.958;\W1.043;\A1;名
  0
LINE
  5
AE
100
AcDbEntity
  8
LY_1
  6
CONTINUOUS
 62
   130
100
AcDbLine
 10
843.021003
 20
-619.777606
 30
0.0
 11
843.021003
 21
-769.777606
 31
0.0
  0
LINE
  5
AF
100
AcDbEntity
  8
LY_1
  6
CONTINUOUS
 62
   130
100
AcDbLine
 10
96.021003
 20
-619.777606
 30
0.0
 11
1264.220985
 21
-619.777606
 31
0.0
  0
LINE
  5
B0
100
AcDbEntity
  8
LY_1
  6
CONTINUOUS
 62
   130
100
AcDbLine
 10
813.021003
 20
-694.777606
 30
0.0
 11
1264.220985
 21
-694.777606
 31
0.0
  0
LINE
  5
B1
100
AcDbEntity
  8
LY_1
  6
CONTINUOUS
 62
   130
100
AcDbLine
 10
96.021003
 20
-619.777606
 30
0.0
 11
96.021003
 21
-769.777606
 31
0.0
  0
LINE
  5
B2
100
AcDbEntity
  8
LY_1
  6
CONTINUOUS
 62
   130
100
AcDbLine
 10
498.021003
 20
-619.777606
 30
0.0
 11
498.021003
 21
-769.777606
 31
0.0
  0
LINE
  5
B3
100
AcDbEntity
  8
LY_1
  6
CONTINUOUS
 62
   130
100
AcDbLine
 10
813.021003
 20
-619.777606
 30
0.0
 11
813.021003
 21
-769.777606
 31
0.0
  0
LINE
  5
B4
100
AcDbEntity
  8
LY_1
  6
CONTINUOUS
 62
   120
100
AcDbLine
 10
-1105.779015
 20
-769.777606
 30
0.0
 11
-1105.779015
 21
784.222394
 31
0.0
  0
LINE
  5
B5
100
AcDbEntity
  8
LY_1
  6
CONTINUOUS
 62
   120
100
AcDbLine
 10
-1105.779015
 20
784.222394
 30
0.0
 11
1264.220985
 21
784.222394
 31
0.0
  0
LINE
  5
B6
100
AcDbEntity
  8
LY_1
  6
CONTINUOUS
 62
   120
100
AcDbLine
 10
-1105.779015
 20
-769.777606
 30
0.0
 11
1264.220985
 21
-769.777606
 31
0.0
  0
LINE
  5
B7
100
AcDbEntity
  8
LY_1
  6
CONTINUOUS
 62
   120
100
AcDbLine
 10
1264.220985
 20
-769.777606
 30
0.0
 11
1264.220985
 21
784.222394
 31
0.0
  0
LINE
  5
B9
100
AcDbEntity
  8
DEFPOINTS
  6
NON_PLOTING
 62
   130
100
AcDbLine
 10
-1195.779015
 20
-829.777606
 30
0.0
 11
1324.220985
 21
-829.777606
 31
0.0
  0
LINE
  5
BA
100
AcDbEntity
  8
DEFPOINTS
  6
NON_PLOTING
 62
   130
100
AcDbLine
 10
-1195.779015
 20
952.222394
 30
0.0
 11
1324.220985
 21
952.222394
 31
0.0
  0
LINE
  5
BB
100
AcDbEntity
  8
DEFPOINTS
  6
NON_PLOTING
 62
   130
100
AcDbLine
 10
1324.220985
 20
-829.777606
 30
0.0
 11
1324.220985
 21
952.222394
 31
0.0
  0
LINE
  5
BC
100
AcDbEntity
  8
DEFPOINTS
  6
NON_PLOTING
 62
   130
100
AcDbLine
 10
-1195.779015
 20
-829.777606
 30
0.0
 11
-1195.779015
 21
952.222394
 31
0.0
  0
ARC
  5
BD
100
AcDbEntity
  8
LY_1
  6
CONTINUOUS
 62
     3
100
AcDbCircle
 10
-592.181173
 20
-235.793281
 30
0.0
 40
3.322713
100
AcDbArc
 50
309.597735
 51
332.791127
  0
ARC
  5
BE
100
AcDbEntity
  8
LY_1
  6
CONTINUOUS
 62
   254
100
AcDbCircle
 10
-138.737332
 20
-11.149567
 30
0.0
 40
212.0
100
AcDbArc
 50
282.414707
 51
294.948529
  0
ARC
  5
BF
100
AcDbEntity
  8
LY_1
  6
CONTINUOUS
 62
   254
100
AcDbCircle
 10
-296.21325
 20
704.407224
 30
0.0
 40
944.679612
100
AcDbArc
 50
272.509473
 51
282.444073
  0
ARC
  5
C0
100
AcDbEntity
  8
LY_1
  6
CONTINUOUS
 62
   254
100
AcDbCircle
 10
-353.17946
 20
-254.757311
 30
0.0
 40
10.0
100
AcDbArc
 50
91.517813
 51
180.0
  0
LINE
  5
C1
100
AcDbEntity
  8
LY_1
  6
CONTINUOUS
 62
   254
100
AcDbLine
 10
-363.17946
 20
-254.757311
 30
0.0
 11
-363.17946
 21
-255.367226
 31
0.0
  0
LINE
  5
C2
100
AcDbEntity
  8
LY_1
  6
CONTINUOUS
 62
   254
100
AcDbLine
 10
-363.17946
 20
-255.367226
 30
0.0
 11
-405.17946
 21
-255.367226
 31
0.0
  0
ARC
  5
C3
100
AcDbEntity
  8
LY_1
  6
CONTINUOUS
 62
   254
100
AcDbCircle
 10
-399.875822
 20
1507.566836
 30
0.0
 40
1752.942696
100
AcDbArc
 50
269.820797
 51
274.745635
  0
LINE
  5
C4
100
AcDbEntity
  8
LY_1
  6
CONTINUOUS
 62
   254
100
AcDbLine
 10
-427.766754
 20
-255.367226
 30
0.0
 11
-363.932765
 21
-255.367226
 31
0.0
  0
LINE
  5
C5
100
AcDbEntity
  8
LY_1
  6
CONTINUOUS
 62
   254
100
AcDbLine
 10
-447.17946
 20
-255.367226
 30
0.0
 11
-447.17946
 21
-254.76676
 31
0.0
  0
LINE
  5
C6
100
AcDbEntity
  8
LY_1
  6
CONTINUOUS
 62
   254
100
AcDbLine
 10
-427.766754
 20
-255.367226
 30
0.0
 11
-446.784154
 21
-255.367226
 31
0.0
  0
LINE
  5
C7
100
AcDbEntity
  8
LY_1
  6
CONTINUOUS
 62
   254
100
AcDbLine
 10
-447.17946
 20
-255.367226
 30
0.0
 11
-405.17946
 21
-255.367226
 31
0.0
  0
ARC
  5
C8
100
AcDbEntity
  8
LY_1
  6
CONTINUOUS
 62
   254
100
AcDbCircle
 10
-457.17946
 20
-254.76676
 30
0.0
 40
10.0
100
AcDbArc
 50
360.0
 51
88.493826
  0
ARC
  5
C9
100
AcDbEntity
  8
LY_1
  6
CONTINUOUS
 62
   254
100
AcDbCircle
 10
-671.979587
 20
-11.149567
 30
0.0
 40
212.0
100
AcDbArc
 50
245.051471
 51
257.585293
  0
LINE
  5
CA
100
AcDbEntity
  8
LY_1
  6
CENTER
 62
   110
100
AcDbLine
 10
-590.85846
 20
-237.1816
 30
0.0
 11
-590.85846
 21
-248.467226
 31
0.0
  0
ARC
  5
CB
100
AcDbEntity
  8
LY_1
  6
CONTINUOUS
 62
     3
100
AcDbCircle
 10
-588.665552
 20
-248.543284
 30
0.0
 40
2.192908
100
AcDbArc
 50
129.597735
 51
180.0
  0
ARC
  5
CC
100
AcDbEntity
  8
LY_1
  6
CONTINUOUS
 62
     3
100
AcDbCircle
 10
-592.181173
 20
-244.293285
 30
0.0
 40
3.322713
100
AcDbArc
 50
309.597735
 51
50.402265
  0
LINE
  5
CD
100
AcDbEntity
  8
LY_1
  6
CONTINUOUS
 62
     3
100
AcDbLine
 10
-561.094765
 20
-240.147496
 30
0.0
 11
-589.223113
 21
-242.608407
 31
0.0
  0
LINE
  5
CE
100
AcDbEntity
  8
LY_1
  6
CONTINUOUS
 62
     3
100
AcDbLine
 10
-560.901914
 20
-244.145903
 30
0.0
 11
-575.35846
 21
-245.410687
 31
0.0
  0
ARC
  5
CF
100
AcDbEntity
  8
LY_1
  6
CONTINUOUS
 62
     3
100
AcDbCircle
 10
-562.051368
 20
-242.278098
 30
0.0
 40
2.192908
100
AcDbArc
 50
300.903974
 51
50.402225
  0
LINE
  5
D0
100
AcDbEntity
  8
LY_1
  6
CONTINUOUS
 62
     3
100
AcDbLine
 10
-589.869735
 20
-238.180262
 30
0.0
 11
-584.284422
 21
-237.691611
 31
0.0
  0
LINE
  5
D1
100
AcDbEntity
  8
LY_1
  6
CONTINUOUS
 62
     3
100
AcDbLine
 10
-589.869735
 20
-246.680267
 30
0.0
 11
-575.35846
 21
-245.410694
 31
0.0
  0
ARC
  5
D2
100
AcDbEntity
  8
LY_1
  6
CONTINUOUS
 62
     3
100
AcDbCircle
 10
-588.665552
 20
-240.043279
 30
0.0
 40
2.192908
100
AcDbArc
 50
129.597735
 51
234.495152
  0
ARC
  5
D3
100
AcDbEntity
  8
LY_1
  6
CONTINUOUS
 62
     3
100
AcDbCircle
 10
-558.535738
 20
-238.028096
 30
0.0
 40
3.322721
100
AcDbArc
 50
198.702355
 51
230.402225
  0
LINE
  5
D4
100
AcDbEntity
  8
LY_1
  6
CENTER
 62
   110
100
AcDbLine
 10
-575.35846
 20
-224.284706
 30
0.0
 11
-575.35846
 21
-248.467226
 31
0.0
  0
LINE
  5
D5
100
AcDbEntity
  8
LY_1
  6
CENTER
 62
   110
100
AcDbLine
 10
-590.85846
 20
-248.543284
 30
0.0
 11
-590.85846
 21
-248.467226
 31
0.0
  0
ARC
  5
D6
100
AcDbEntity
  8
LY_1
  6
CENTER
 62
   110
100
AcDbCircle
 10
-549.85846
 20
-248.467226
 30
0.0
 40
10.0
100
AcDbArc
 50
180.0
 51
270.0
  0
ARC
  5
D7
100
AcDbEntity
  8
LY_1
  6
CENTER
 62
   110
100
AcDbCircle
 10
-549.85846
 20
-248.467226
 30
0.0
 40
41.0
100
AcDbArc
 50
180.0
 51
270.0
  0
ARC
  5
D8
100
AcDbEntity
  8
LY_1
  6
CENTER
 62
   110
100
AcDbCircle
 10
-549.85846
 20
-248.467226
 30
0.0
 40
25.5
100
AcDbArc
 50
180.0
 51
270.0
  0
ARC
  5
D9
100
AcDbEntity
  8
LY_1
  6
CONTINUOUS
 62
   254
100
AcDbCircle
 10
-514.503669
 20
704.407224
 30
0.0
 40
944.679612
100
AcDbArc
 50
257.555927
 51
267.490527
  0
ARC
  5
DA
100
AcDbEntity
  8
LY_1
  6
CONTINUOUS
 62
   254
100
AcDbCircle
 10
-410.841097
 20
1507.566836
 30
0.0
 40
1752.942696
100
AcDbArc
 50
265.254365
 51
270.179203
  0
LINE
  5
DB
100
AcDbEntity
  8
LY_1
  6
CONTINUOUS
 62
   254
100
AcDbLine
 10
295.162033
 20
-203.367226
 30
0.0
 11
300.744675
 21
-224.58127
 31
0.0
  0
ARC
  5
DC
100
AcDbEntity
  8
LY_1
  6
CONTINUOUS
 62
   254
100
AcDbCircle
 10
317.184943
 20
-220.254884
 30
0.0
 40
17.0
100
AcDbArc
 50
194.743563
 51
267.869124
  0
LINE
  5
DD
100
AcDbEntity
  8
LY_1
  6
CONTINUOUS
 62
   254
100
AcDbLine
 10
316.552845
 20
-237.243128
 30
0.0
 11
469.92953
 21
-243.454263
 31
0.0
  0
LINE
  5
DE
100
AcDbEntity
  8
LY_1
  6
CONTINUOUS
 62
   254
100
AcDbLine
 10
479.557707
 20
-255.367226
 30
0.0
 11
479.557707
 21
-253.447348
 31
0.0
  0
ARC
  5
DF
100
AcDbEntity
  8
LY_1
  6
CONTINUOUS
 62
   254
100
AcDbCircle
 10
469.557707
 20
-253.447348
 30
0.0
 40
10.0
100
AcDbArc
 50
360.0
 51
87.869124
  0
LINE
  5
E0
100
AcDbEntity
  8
LY_1
  6
CONTINUOUS
 62
   254
100
AcDbLine
 10
479.557707
 20
-255.367226
 30
0.0
 11
570.283032
 21
-255.367226
 31
0.0
  0
LINE
  5
E1
100
AcDbEntity
  8
LY_1
  6
CONTINUOUS
 62
     7
100
AcDbLine
 10
570.283032
 20
-251.829297
 30
0.0
 11
570.283032
 21
-255.367226
 31
0.0
  0
ARC
  5
E2
100
AcDbEntity
  8
LY_1
  6
CONTINUOUS
 62
   254
100
AcDbCircle
 10
580.283032
 20
-252.829297
 30
0.0
 40
10.0
100
AcDbArc
 50
103.055172
 51
180.0
  0
ARC
  5
E3
100
AcDbEntity
  8
LY_1
  6
CONTINUOUS
 62
   254
100
AcDbCircle
 10
574.184023
 20
-226.527166
 30
0.0
 40
17.0
100
AcDbArc
 50
283.055172
 51
348.231711
  0
LINE
  5
E4
100
AcDbEntity
  8
LY_1
  6
CONTINUOUS
 62
   254
100
AcDbLine
 10
590.826691
 20
-229.994388
 30
0.0
 11
596.374016
 21
-203.367226
 31
0.0
  0
LINE
  5
E6
100
AcDbEntity
  8
LY_1
  6
DASHED
 62
    20
100
AcDbLine
 10
500.217759
 20
-242.367226
 30
0.0
 11
545.421868
 21
-242.367226
 31
0.0
  0
ARC
  5
E7
100
AcDbEntity
  8
LY_1
  6
DASHED
 62
    20
100
AcDbCircle
 10
549.557707
 20
-244.174178
 30
0.0
 40
2.0
100
AcDbArc
 50
136.040055
 51
180.0
  0
LINE
  5
E8
100
AcDbEntity
  8
LY_1
  6
DASHED
 62
    20
100
AcDbLine
 10
486.055838
 20
-231.15761
 30
0.0
 11
518.557707
 21
-232.366939
 31
0.0
  0
LINE
  5
E9
100
AcDbEntity
  8
LY_1
  6
DASHED
 62
    20
100
AcDbLine
 10
494.997299
 20
-242.785856
 30
0.0
 11
484.257797
 21
-231.650157
 31
0.0
  0
ARC
  5
EA
100
AcDbEntity
  8
LY_1
  6
DASHED
 62
    20
100
AcDbCircle
 10
493.557707
 20
-244.174228
 30
0.0
 40
2.0
100
AcDbArc
 50
0.0
 51
43.962387
  0
ARC
  5
EB
100
AcDbEntity
  8
LY_1
  6
DASHED
 62
    20
100
AcDbCircle
 10
482.818206
 20
-233.038529
 30
0.0
 40
2.0
100
AcDbArc
 50
43.962387
 51
87.869124
  0
LINE
  5
EC
100
AcDbEntity
  8
LY_1
  6
DASHED
 62
    20
100
AcDbLine
 10
495.557707
 20
-244.174228
 30
0.0
 11
495.557707
 21
-255.367226
 31
0.0
  0
LINE
  5
ED
100
AcDbEntity
  8
LY_1
  6
DASHED
 62
    20
100
AcDbLine
 10
547.557707
 20
-244.174178
 30
0.0
 11
547.557707
 21
-255.367226
 31
0.0
  0
ARC
  5
EE
100
AcDbEntity
  8
LY_1
  6
DASHED
 62
    20
100
AcDbCircle
 10
314.449345
 20
-219.508567
 30
0.0
 40
5.0
100
AcDbArc
 50
194.743563
 51
267.869124
  0
LINE
  5
EF
100
AcDbEntity
  8
LY_1
  6
DASHED
 62
    20
100
AcDbLine
 10
314.263434
 20
-224.505109
 30
0.0
 11
482.892571
 21
-231.039912
 31
0.0
  0
LINE
  5
F0
100
AcDbEntity
  8
LY_1
  6
DASHED
 62
    20
100
AcDbLine
 10
560.315947
 20
-230.936815
 30
0.0
 11
571.65851
 21
-230.523172
 31
0.0
  0
ARC
  5
F1
100
AcDbEntity
  8
LY_1
  6
DASHED
 62
    20
100
AcDbCircle
 10
571.458699
 20
-225.527166
 30
0.0
 40
5.0
100
AcDbArc
 50
272.290281
 51
348.231711
  0
ARC
  5
F2
100
AcDbEntity
  8
LY_1
  6
DASHED
 62
    20
100
AcDbCircle
 10
560.395872
 20
-232.935217
 30
0.0
 40
2.0
100
AcDbArc
 50
92.290281
 51
136.040055
  0
LINE
  5
F3
100
AcDbEntity
  8
LY_1
  6
DASHED
 62
    20
100
AcDbLine
 10
548.118057
 20
-242.785868
 30
0.0
 11
558.956221
 21
-231.546907
 31
0.0
  0
LINE
  5
F4
100
AcDbEntity
  8
LY_1
  6
DASHED
 62
    20
100
AcDbLine
 10
518.557707
 20
-232.366939
 30
0.0
 11
556.666071
 21
-231.082789
 31
0.0
  0
ARC
  5
F5
100
AcDbEntity
  8
LY_1
  6
DASHED
 62
    20
100
AcDbCircle
 10
602.99712
 20
-113.367226
 30
0.0
 40
3.0
100
AcDbArc
 50
90.0
 51
168.231711
  0
LINE
  5
F6
100
AcDbEntity
  8
LY_1
  6
DASHED
 62
    20
100
AcDbLine
 10
576.353601
 20
-226.546937
 30
0.0
 11
600.060179
 21
-112.755364
 31
0.0
  0
ARC
  5
F7
100
AcDbEntity
  8
LY_1
  6
DASHED
 62
    20
100
AcDbCircle
 10
278.245042
 20
-113.367226
 30
0.0
 40
3.0
100
AcDbArc
 50
14.743563
 51
90.0
  0
LINE
  5
F8
100
AcDbEntity
  8
LY_1
  6
DASHED
 62
    20
100
AcDbLine
 10
281.146265
 20
-112.603747
 30
0.0
 11
309.613972
 21
-220.781033
 31
0.0
  0
DIMENSION
  5
106
100
AcDbEntity
  8
LY_1
  6
CONTINUOUS
 62
   143
100
AcDbDimension
  2
*D3
 10
197.089982
 20
-110.367226
 30
0.0
 11
197.089982
 21
-171.316537
 31
0.0
 70
   128
  1
\A1;(122.0)
  3
MXDIMSTYLE
100
AcDbAlignedDimension
 13
521.557695
 23
-232.265847
 33
0.0
 14
245.557706
 24
-110.367226
 34
0.0
 50
90.0
100
AcDbRotatedDimension
1001
ACAD
1000
DSTYLE
1002
{
1070
    41
1040
2.77
1070
    78
1070
     0
1070
   144
1040
0.166667
1070
   271
1070
     1
1070
   340
1005
100
1002
}
  0
LINE
  5
107
100
AcDbEntity
  8
LY_1
  6
CONTINUOUS
 62
     3
100
AcDbLine
 10
1079.691381
 20
109.386745
 30
0.0
 11
1079.691381
 21
509.386745
 31
0.0
  0
LINE
  5
108
100
AcDbEntity
  8
LY_1
  6
CONTINUOUS
 62
     3
100
AcDbLine
 10
289.691381
 20
99.386745
 30
0.0
 11
1069.691381
 21
99.386745
 31
0.0
  0
LINE
  5
109
100
AcDbEntity
  8
LY_1
  6
CONTINUOUS
 62
     3
100
AcDbLine
 10
279.691381
 20
109.386745
 30
0.0
 11
279.691381
 21
509.386745
 31
0.0
  0
LINE
  5
10A
100
AcDbEntity
  8
LY_1
  6
CONTINUOUS
 62
     3
100
AcDbLine
 10
289.691381
 20
519.386745
 30
0.0
 11
1069.691381
 21
519.386745
 31
0.0
  0
ARC
  5
10B
100
AcDbEntity
  8
LY_1
  6
CONTINUOUS
 62
     3
100
AcDbCircle
 10
289.691381
 20
509.386745
 30
0.0
 40
10.0
100
AcDbArc
 50
90.0
 51
180.0
  0
ARC
  5
10C
100
AcDbEntity
  8
LY_1
  6
CONTINUOUS
 62
     3
100
AcDbCircle
 10
289.691381
 20
109.386745
 30
0.0
 40
10.0
100
AcDbArc
 50
180.0
 51
270.0
  0
ARC
  5
10D
100
AcDbEntity
  8
LY_1
  6
CONTINUOUS
 62
     3
100
AcDbCircle
 10
1069.691381
 20
509.386745
 30
0.0
 40
10.0
100
AcDbArc
 50
0.0
 51
90.0
  0
ARC
  5
10E
100
AcDbEntity
  8
LY_1
  6
CONTINUOUS
 62
     3
100
AcDbCircle
 10
1069.691381
 20
109.386745
 30
0.0
 40
10.0
100
AcDbArc
 50
270.0
 51
0.0
  0
LINE
  5
10F
100
AcDbEntity
  8
LY_1
  6
CENTER
 62
   110
100
AcDbLine
 10
679.691381
 20
544.386745
 30
0.0
 11
679.691381
 21
74.386745
 31
0.0
  0
DIMENSION
  5
11A
100
AcDbEntity
  8
LY_1
  6
CONTINUOUS
 62
   143
100
AcDbDimension
  2
*D4
 10
289.691381
 20
509.386745
 30
0.0
 11
350.728237
 21
449.207975
 31
0.0
 70
   132
  1
\A1;4-<>
  3
MXDIMSTYLE
100
AcDbRadialDimension
 15
282.570436
 25
516.407581
 35
0.0
 40
0.0
1001
ACAD
1000
DSTYLE
1002
{
1070
     6
1000

1070
    41
1040
2.77
1070
    78
1070
     0
1070
   141
1040
0.0
1070
   271
1070
     1
1070
   287
1070
     2
1070
   340
1005
115
1002
}
  0
LEADER
  5
11B
100
AcDbEntity
  8
LY_1
  6
CONTINUOUS
 62
   143
100
AcDbLeader
  3
MXDIMSTYLE
 73
     3
 74
     0
 75
     0
 40
0.0
 76
     3
 10
679.691381
 20
337.386745
 30
0.0
 10
723.901244
 20
286.401679
 30
0.0
 10
806.200442
 20
286.401679
 30
0.0
 77
   143
1001
ACAD
1000
DSTYLE
1002
{
1070
    41
1040
2.77
1002
}
  0
MTEXT
  5
11C
100
AcDbEntity
  8
LY_1
  6
CONTINUOUS
 62
   143
100
AcDbMText
 10
746.200442
 20
301.401679
 30
0.0
 40
15.0
 41
0.0
 71
     4
 72
     1
  1
\W0.833;\A1;排水中心
  0
DIMENSION
  5
12A
100
AcDbEntity
  8
LY_1
  6
CONTINUOUS
 62
   143
100
AcDbDimension
  2
*D5
 10
1154.375062
 20
337.386745
 30
0.0
 11
1154.375062
 21
428.386745
 31
0.0
 70
   128
  1
\A1;<>
  3
MXDIMSTYLE
100
AcDbAlignedDimension
 13
1069.691384
 23
519.386745
 33
0.0
 14
1104.69138
 24
337.386745
 34
0.0
 50
90.0
100
AcDbRotatedDimension
1001
ACAD
1000
DSTYLE
1002
{
1070
    41
1040
2.77
1070
    78
1070
     0
1070
   271
1070
     1
1070
   340
1005
124
1002
}
  0
DIMENSION
  5
136
100
AcDbEntity
  8
LY_1
  6
CONTINUOUS
 62
   143
100
AcDbDimension
  2
*D6
 10
1154.375062
 20
99.386745
 30
0.0
 11
1154.375062
 21
218.386745
 31
0.0
 70
   128
  1
\A1;<>
  3
MXDIMSTYLE
100
AcDbAlignedDimension
 13
1104.69138
 23
337.386745
 33
0.0
 14
1069.691384
 24
99.386745
 34
0.0
 50
90.0
100
AcDbRotatedDimension
1001
ACAD
1000
DSTYLE
1002
{
1070
    41
1040
2.77
1070
    75
1070
     1
1070
    78
1070
     0
1070
   271
1070
     1
1070
   340
1005
115
1002
}
  0
MTEXT
  5
137
100
AcDbEntity
  8
LY_1
  6
CONTINUOUS
 62
   143
100
AcDbMText
 10
511.981979
 20
632.920626
 30
0.0
 40
36.0
 41
0.0
 71
     1
 72
     1
  1
\W0.833;\A1;カウンター切込寸法
  0
DIMENSION
  5
144
100
AcDbEntity
  8
LY_1
  6
CONTINUOUS
 62
   143
100
AcDbDimension
  2
*D7
 10
279.691381
 20
1.322217
 30
0.0
 11
679.691381
 21
1.322217
 31
0.0
 70
   128
  1
\A1;<>
  3
MXDIMSTYLE
100
AcDbAlignedDimension
 13
1079.691381
 23
109.386747
 33
0.0
 14
279.691381
 24
109.386747
 34
0.0
100
AcDbRotatedDimension
1001
ACAD
1000
DSTYLE
1002
{
1070
    41
1040
2.77
1070
    78
1070
     0
1070
   271
1070
     1
1070
   340
1005
124
1002
}
  0
DIMENSION
  5
151
100
AcDbEntity
  8
LY_1
  6
CONTINUOUS
 62
   143
100
AcDbDimension
  2
*D8
 10
1221.211998
 20
99.386745
 30
0.0
 11
1221.211998
 21
309.386745
 31
0.0
 70
   128
  1
\A1;<>
  3
MXDIMSTYLE
100
AcDbAlignedDimension
 13
1069.691384
 23
519.386745
 33
0.0
 14
1069.691384
 24
99.386745
 34
0.0
 50
90.0
100
AcDbRotatedDimension
1001
ACAD
1000
DSTYLE
1002
{
1070
    41
1040
2.77
1070
    78
1070
     0
1070
   271
1070
     1
1070
   340
1005
115
1002
}
  0
LINE
  5
152
100
AcDbEntity
  8
LY_1
  6
CENTER
 62
   110
100
AcDbLine
 10
254.691381
 20
337.386745
 30
0.0
 11
1104.691381
 21
337.386745
 31
0.0
  0
LINE
  5
153
100
AcDbEntity
  8
LY_1
  6
CONTINUOUS
 62
     3
100
AcDbLine
 10
658.557707
 20
-95.767226
 30
0.0
 11
646.138268
 21
-102.074659
 31
0.0
  0
LINE
  5
154
100
AcDbEntity
  8
LY_1
  6
CONTINUOUS
 62
     3
100
AcDbLine
 10
646.257707
 20
-102.0675
 30
0.0
 11
668.557707
 21
-102.0675
 31
0.0
  0
LINE
  5
155
100
AcDbEntity
  8
LY_1
  6
CONTINUOUS
 62
     3
100
AcDbLine
 10
691.857707
 20
-103.0675
 30
0.0
 11
691.857707
 21
-110.367226
 31
0.0
  0
LINE
  5
156
100
AcDbEntity
  8
LY_1
  6
CONTINUOUS
 62
     3
100
AcDbLine
 10
676.758184
 20
-76.054843
 30
0.0
 11
668.557707
 21
-76.054843
 31
0.0
  0
LINE
  5
157
100
AcDbEntity
  8
LY_1
  6
CONTINUOUS
 62
     3
100
AcDbLine
 10
660.35723
 20
-76.054843
 30
0.0
 11
668.557707
 21
-76.054843
 31
0.0
  0
ARC
  5
158
100
AcDbEntity
  8
LY_1
  6
CONTINUOUS
 62
     3
100
AcDbCircle
 10
676.500451
 20
-76.120049
 30
0.0
 40
0.5
100
AcDbArc
 50
351.635005
 51
73.483334
  0
ARC
  5
159
100
AcDbEntity
  8
LY_1
  6
CONTINUOUS
 62
     3
100
AcDbCircle
 10
660.614964
 20
-76.120049
 30
0.0
 40
0.5
100
AcDbArc
 50
106.516666
 51
188.364995
  0
ARC
  5
15A
100
AcDbEntity
  8
LY_1
  6
CONTINUOUS
 62
     3
100
AcDbCircle
 10
668.557707
 20
-102.905688
 30
0.0
 40
28.438462
100
AcDbArc
 50
73.483334
 51
106.516666
  0
LINE
  5
15B
100
AcDbEntity
  8
LY_1
  6
CONTINUOUS
 62
     3
100
AcDbLine
 10
660.120283
 20
-76.192788
 30
0.0
 11
662.998566
 21
-95.767226
 31
0.0
  0
LINE
  5
15C
100
AcDbEntity
  8
LY_1
  6
CONTINUOUS
 62
     3
100
AcDbLine
 10
676.995131
 20
-76.192788
 30
0.0
 11
674.116849
 21
-95.767226
 31
0.0
  0
LINE
  5
15D
100
AcDbEntity
  8
LY_1
  6
CONTINUOUS
 62
     3
100
AcDbLine
 10
678.557707
 20
-95.767226
 30
0.0
 11
690.977147
 21
-102.074659
 31
0.0
  0
ARC
  5
15E
100
AcDbEntity
  8
LY_1
  6
CONTINUOUS
 62
     3
100
AcDbCircle
 10
690.857707
 20
-103.0675
 30
0.0
 40
1.0
100
AcDbArc
 50
0.0
 51
83.14024
  0
LINE
  5
15F
100
AcDbEntity
  8
LY_1
  6
CONTINUOUS
 62
     3
100
AcDbLine
 10
690.857707
 20
-102.0675
 30
0.0
 11
668.557707
 21
-102.0675
 31
0.0
  0
LINE
  5
160
100
AcDbEntity
  8
LY_1
  6
CONTINUOUS
 62
     3
100
AcDbLine
 10
678.557707
 20
-95.767226
 30
0.0
 11
668.557707
 21
-95.767226
 31
0.0
  0
LINE
  5
161
100
AcDbEntity
  8
LY_1
  6
CONTINUOUS
 62
     3
100
AcDbLine
 10
658.557707
 20
-95.767226
 30
0.0
 11
668.557707
 21
-95.767226
 31
0.0
  0
LINE
  5
162
100
AcDbEntity
  8
LY_1
  6
CONTINUOUS
 62
     3
100
AcDbLine
 10
645.257707
 20
-103.0675
 30
0.0
 11
645.257707
 21
-110.367226
 31
0.0
  0
ARC
  5
163
100
AcDbEntity
  8
LY_1
  6
CONTINUOUS
 62
     3
100
AcDbCircle
 10
646.257707
 20
-103.0675
 30
0.0
 40
1.0
100
AcDbArc
 50
96.85976
 51
180.0
  0
LINE
  5
164
100
AcDbEntity
  8
LY_1
  6
CONTINUOUS
 62
     3
100
AcDbLine
 10
543.788709
 20
-338.393482
 30
0.0
 11
499.326705
 21
-338.393482
 31
0.0
  0
LINE
  5
165
100
AcDbEntity
  8
LY_1
  6
CONTINUOUS
 62
     3
100
AcDbLine
 10
505.682707
 20
-495.467226
 30
0.0
 11
537.432707
 21
-495.467226
 31
0.0
  0
LINE
  5
166
100
AcDbEntity
  8
LY_1
  6
CONTINUOUS
 62
     3
100
AcDbLine
 10
505.682707
 20
-348.643482
 30
0.0
 11
505.682707
 21
-495.467226
 31
0.0
  0
LINE
  5
167
100
AcDbEntity
  8
LY_1
  6
CONTINUOUS
 62
     3
100
AcDbLine
 10
537.432707
 20
-348.643482
 30
0.0
 11
537.432707
 21
-495.467226
 31
0.0
  0
LINE
  5
168
100
AcDbEntity
  8
LY_1
  6
CONTINUOUS
 62
   110
100
AcDbLine
 10
501.957707
 20
-333.467226
 30
0.0
 11
501.957707
 21
-338.393482
 31
0.0
  0
LINE
  5
169
100
AcDbEntity
  8
LY_1
  6
CONTINUOUS
 62
   110
100
AcDbLine
 10
541.157707
 20
-335.017188
 30
0.0
 11
541.157707
 21
-338.393482
 31
0.0
  0
LINE
  5
16A
100
AcDbEntity
  8
LY_1
  6
CONTINUOUS
 62
     3
100
AcDbLine
 10
536.592428
 20
-333.467226
 30
0.0
 11
499.557707
 21
-333.467226
 31
0.0
  0
LINE
  5
16B
100
AcDbEntity
  8
LY_1
  6
CONTINUOUS
 62
     3
100
AcDbLine
 10
542.157707
 20
-335.262464
 30
0.0
 11
542.157707
 21
-338.393482
 31
0.0
  0
LINE
  5
16C
100
AcDbEntity
  8
LY_1
  6
CONTINUOUS
 62
     3
100
AcDbLine
 10
500.957707
 20
-333.467226
 30
0.0
 11
500.957707
 21
-338.393482
 31
0.0
  0
LINE
  5
16D
100
AcDbEntity
  8
LY_1
  6
CENTER
 62
   110
100
AcDbLine
 10
698.411017
 20
-322.967226
 30
0.0
 11
494.557707
 21
-322.967226
 31
0.0
  0
ARC
  5
16E
100
AcDbEntity
  8
LY_1
  6
CONTINUOUS
 62
     3
100
AcDbCircle
 10
536.049179
 20
-322.004385
 30
0.0
 40
11.73528
100
AcDbArc
 50
218.30652
 51
219.314702
  0
ARC
  5
16F
100
AcDbEntity
  8
LY_1
  6
CONTINUOUS
 62
     3
100
AcDbCircle
 10
536.048748
 20
-323.928443
 30
0.0
 40
11.733934
100
AcDbArc
 50
140.521978
 51
141.530034
  0
LINE
  5
170
100
AcDbEntity
  8
LY_1
  6
CONTINUOUS
 62
     3
100
AcDbLine
 10
656.208465
 20
-320.467226
 30
0.0
 11
547.912236
 21
-320.467226
 31
0.0
  0
LINE
  5
171
100
AcDbEntity
  8
LY_1
  6
CONTINUOUS
 62
     3
100
AcDbLine
 10
547.912236
 20
-325.467226
 30
0.0
 11
656.208465
 21
-325.467226
 31
0.0
  0
ELLIPSE
  5
172
100
AcDbEntity
  8
LY_1
  6
CONTINUOUS
 62
     3
100
AcDbEllipse
 10
547.912236
 20
-322.967226
 30
0.0
 11
0.0000000000000003
 21
4.5
 31
0.0
210
0.0
220
0.0
230
1.0
 40
0.805764
 41
5.3014199506009598
 42
0.0
  0
ELLIPSE
  5
173
100
AcDbEntity
  8
LY_1
  6
CONTINUOUS
 62
     3
100
AcDbEllipse
 10
547.912236
 20
-322.967226
 30
0.0
 11
0.0000000000000003
 21
4.5
 31
0.0
210
0.0
220
0.0
230
1.0
 40
0.805764
 41
3.14159265358979
 42
4.1233580101684204
  0
ELLIPSE
  5
174
100
AcDbEntity
  8
LY_1
  6
CONTINUOUS
 62
     3
100
AcDbEllipse
 10
547.912236
 20
-322.967226
 30
0.0
 11
0.0000000000000003
 21
4.5
 31
0.0
210
0.0
220
0.0
230
1.0
 40
0.805764
 41
0.0
 42
3.14159265358979
  0
ELLIPSE
  5
175
100
AcDbEntity
  8
LY_1
  6
CONTINUOUS
 62
     3
100
AcDbEllipse
 10
547.616118
 20
-322.967226
 30
0.0
 11
0.0000000000000003
 21
4.5
 31
0.0
210
0.0
220
0.0
230
1.0
 40
0.805764
 41
0.0
 42
3.14159265358979
  0
ELLIPSE
  5
176
100
AcDbEntity
  8
LY_1
  6
CONTINUOUS
 62
     3
100
AcDbEllipse
 10
547.912236
 20
-322.967226
 30
0.0
 11
-0.0000000000000005
 21
-2.5
 31
0.0
210
0.0
220
0.0
230
1.0
 40
0.805764
 41
3.14159265358979
 42
0.0
  0
ARC
  5
177
100
AcDbEntity
  8
LY_1
  6
CONTINUOUS
 62
     3
100
AcDbCircle
 10
534.649685
 20
-320.162924
 30
0.0
 40
7.698687
100
AcDbArc
 50
97.072116
 51
98.073607
  0
ARC
  5
178
100
AcDbEntity
  8
LY_1
  6
CONTINUOUS
 62
     3
100
AcDbCircle
 10
534.676393
 20
-320.351134
 30
0.0
 40
7.888781
100
AcDbArc
 50
98.073682
 51
99.07677
  0
ARC
  5
179
100
AcDbEntity
  8
LY_1
  6
CONTINUOUS
 62
     3
100
AcDbCircle
 10
536.173698
 20
-321.900623
 30
0.0
 40
11.897372
100
AcDbArc
 50
220.315843
 51
221.330739
  0
ARC
  5
17A
100
AcDbEntity
  8
LY_1
  6
CONTINUOUS
 62
     3
100
AcDbCircle
 10
536.204719
 20
-321.87345
 30
0.0
 40
11.938611
100
AcDbArc
 50
221.330347
 51
222.336613
  0
ARC
  5
17B
100
AcDbEntity
  8
LY_1
  6
CONTINUOUS
 62
     3
100
AcDbCircle
 10
536.216808
 20
-321.862441
 30
0.0
 40
11.954961
100
AcDbArc
 50
222.336595
 51
223.341468
  0
ARC
  5
17C
100
AcDbEntity
  8
LY_1
  6
CONTINUOUS
 62
     3
100
AcDbCircle
 10
536.226242
 20
-321.853543
 30
0.0
 40
11.96793
100
AcDbArc
 50
223.34145
 51
224.345224
  0
ARC
  5
17D
100
AcDbEntity
  8
LY_1
  6
CONTINUOUS
 62
     3
100
AcDbCircle
 10
536.233058
 20
-321.846886
 30
0.0
 40
11.977458
100
AcDbArc
 50
224.345206
 51
225.348174
  0
ARC
  5
17E
100
AcDbEntity
  8
LY_1
  6
CONTINUOUS
 62
     3
100
AcDbCircle
 10
536.240773
 20
-321.83906
 30
0.0
 40
11.988447
100
AcDbArc
 50
225.348231
 51
226.359826
  0
ARC
  5
17F
100
AcDbEntity
  8
LY_1
  6
CONTINUOUS
 62
     3
100
AcDbCircle
 10
536.249936
 20
-321.829457
 30
0.0
 40
12.001719
100
AcDbArc
 50
226.359806
 51
227.368942
  0
ARC
  5
180
100
AcDbEntity
  8
LY_1
  6
CONTINUOUS
 62
     3
100
AcDbCircle
 10
536.256486
 20
-321.822348
 30
0.0
 40
12.011386
100
AcDbArc
 50
227.368923
 51
228.377249
  0
ARC
  5
181
100
AcDbEntity
  8
LY_1
  6
CONTINUOUS
 62
     3
100
AcDbCircle
 10
536.260492
 20
-321.817846
 30
0.0
 40
12.017413
100
AcDbArc
 50
228.37723
 51
229.385054
  0
ARC
  5
182
100
AcDbEntity
  8
LY_1
  6
CONTINUOUS
 62
     3
100
AcDbCircle
 10
536.242118
 20
-321.839426
 30
0.0
 40
11.98907
100
AcDbArc
 50
229.384575
 51
230.385472
  0
ARC
  5
183
100
AcDbEntity
  8
LY_1
  6
CONTINUOUS
 62
     3
100
AcDbCircle
 10
536.198898
 20
-321.891649
 30
0.0
 40
11.921283
100
AcDbArc
 50
230.385452
 51
231.391646
  0
ARC
  5
184
100
AcDbEntity
  8
LY_1
  6
CONTINUOUS
 62
     3
100
AcDbCircle
 10
536.154708
 20
-321.946995
 30
0.0
 40
11.850459
100
AcDbArc
 50
231.391627
 51
232.403828
  0
ARC
  5
185
100
AcDbEntity
  8
LY_1
  6
CONTINUOUS
 62
     3
100
AcDbCircle
 10
536.109836
 20
-322.005277
 30
0.0
 40
11.776905
100
AcDbArc
 50
232.403809
 51
233.422328
  0
ARC
  5
186
100
AcDbEntity
  8
LY_1
  6
CONTINUOUS
 62
     3
100
AcDbCircle
 10
536.066862
 20
-322.06317
 30
0.0
 40
11.704804
100
AcDbArc
 50
233.42238
 51
234.426588
  0
ARC
  5
187
100
AcDbEntity
  8
LY_1
  6
CONTINUOUS
 62
     3
100
AcDbCircle
 10
536.025935
 20
-322.120399
 30
0.0
 40
11.634447
100
AcDbArc
 50
234.426569
 51
235.435162
  0
ARC
  5
188
100
AcDbEntity
  8
LY_1
  6
CONTINUOUS
 62
     3
100
AcDbCircle
 10
535.98453
 20
-322.180505
 30
0.0
 40
11.56146
100
AcDbArc
 50
235.435143
 51
236.450102
  0
ARC
  5
189
100
AcDbEntity
  8
LY_1
  6
CONTINUOUS
 62
     3
100
AcDbCircle
 10
535.943304
 20
-322.242671
 30
0.0
 40
11.486867
100
AcDbArc
 50
236.450107
 51
237.451346
  0
ARC
  5
18A
100
AcDbEntity
  8
LY_1
  6
CONTINUOUS
 62
     3
100
AcDbCircle
 10
535.881467
 20
-322.339769
 30
0.0
 40
11.37175
100
AcDbArc
 50
237.450765
 51
238.467897
  0
ARC
  5
18B
100
AcDbEntity
  8
LY_1
  6
CONTINUOUS
 62
     3
100
AcDbCircle
 10
535.80272
 20
-322.468102
 30
0.0
 40
11.221183
100
AcDbArc
 50
238.467919
 51
239.478486
  0
ARC
  5
18C
100
AcDbEntity
  8
LY_1
  6
CONTINUOUS
 62
     3
100
AcDbCircle
 10
535.727848
 20
-322.595091
 30
0.0
 40
11.073764
100
AcDbArc
 50
239.478511
 51
240.482044
  0
ARC
  5
18D
100
AcDbEntity
  8
LY_1
  6
CONTINUOUS
 62
     3
100
AcDbCircle
 10
535.656287
 20
-322.721488
 30
0.0
 40
10.928516
100
AcDbArc
 50
240.482027
 51
241.498895
  0
ARC
  5
18E
100
AcDbEntity
  8
LY_1
  6
CONTINUOUS
 62
     3
100
AcDbCircle
 10
534.599348
 20
-319.863686
 30
0.0
 40
7.396471
100
AcDbArc
 50
90.096298
 51
90.975745
  0
ARC
  5
18F
100
AcDbEntity
  8
LY_1
  6
CONTINUOUS
 62
     3
100
AcDbCircle
 10
534.597735
 20
-319.770927
 30
0.0
 40
7.303697
100
AcDbArc
 50
90.975486
 51
91.977532
  0
ARC
  5
190
100
AcDbEntity
  8
LY_1
  6
CONTINUOUS
 62
     3
100
AcDbCircle
 10
534.594312
 20
-319.671915
 30
0.0
 40
7.204626
100
AcDbArc
 50
91.977503
 51
92.993393
  0
ARC
  5
191
100
AcDbEntity
  8
LY_1
  6
CONTINUOUS
 62
     3
100
AcDbCircle
 10
534.589212
 20
-319.574269
 30
0.0
 40
7.106847
100
AcDbArc
 50
92.99344
 51
94.003884
  0
ARC
  5
192
100
AcDbEntity
  8
LY_1
  6
CONTINUOUS
 62
     3
100
AcDbCircle
 10
534.594536
 20
-319.645635
 30
0.0
 40
7.17841
100
AcDbArc
 50
94.006497
 51
95.023892
  0
ARC
  5
193
100
AcDbEntity
  8
LY_1
  6
CONTINUOUS
 62
     3
100
AcDbCircle
 10
534.608902
 20
-319.808931
 30
0.0
 40
7.342338
100
AcDbArc
 50
95.023982
 51
96.04634
  0
ARC
  5
194
100
AcDbEntity
  8
LY_1
  6
CONTINUOUS
 62
     3
100
AcDbCircle
 10
534.62726
 20
-319.982134
 30
0.0
 40
7.516511
100
AcDbArc
 50
96.046425
 51
97.072143
  0
ARC
  5
195
100
AcDbEntity
  8
LY_1
  6
CONTINUOUS
 62
     3
100
AcDbCircle
 10
534.702589
 20
-320.515827
 30
0.0
 40
8.055545
100
AcDbArc
 50
99.075959
 51
100.081917
  0
ARC
  5
196
100
AcDbEntity
  8
LY_1
  6
CONTINUOUS
 62
     3
100
AcDbCircle
 10
534.722141
 20
-320.625756
 30
0.0
 40
8.167199
100
AcDbArc
 50
100.081964
 51
101.103922
  0
ARC
  5
197
100
AcDbEntity
  8
LY_1
  6
CONTINUOUS
 62
     3
100
AcDbCircle
 10
534.744113
 20
-320.737717
 30
0.0
 40
8.281296
100
AcDbArc
 50
101.103904
 51
102.111754
  0
ARC
  5
198
100
AcDbEntity
  8
LY_1
  6
CONTINUOUS
 62
     3
100
AcDbCircle
 10
534.768491
 20
-320.851292
 30
0.0
 40
8.397457
100
AcDbArc
 50
102.11179
 51
103.130517
  0
ARC
  5
199
100
AcDbEntity
  8
LY_1
  6
CONTINUOUS
 62
     3
100
AcDbCircle
 10
534.795252
 20
-320.966029
 30
0.0
 40
8.515274
100
AcDbArc
 50
103.130492
 51
104.135082
  0
ARC
  5
19A
100
AcDbEntity
  8
LY_1
  6
CONTINUOUS
 62
     3
100
AcDbCircle
 10
534.829658
 20
-321.102323
 30
0.0
 40
8.655844
100
AcDbArc
 50
104.135612
 51
105.141418
  0
ARC
  5
19B
100
AcDbEntity
  8
LY_1
  6
CONTINUOUS
 62
     3
100
AcDbCircle
 10
534.877616
 20
-321.279506
 30
0.0
 40
8.839402
100
AcDbArc
 50
105.141503
 51
106.152859
  0
ARC
  5
19C
100
AcDbEntity
  8
LY_1
  6
CONTINUOUS
 62
     3
100
AcDbCircle
 10
534.931609
 20
-321.465894
 30
0.0
 40
9.033453
100
AcDbArc
 50
106.152908
 51
107.160199
  0
ARC
  5
19D
100
AcDbEntity
  8
LY_1
  6
CONTINUOUS
 62
     3
100
AcDbCircle
 10
534.991497
 20
-321.65982
 30
0.0
 40
9.236416
100
AcDbArc
 50
107.160229
 51
108.169091
  0
ARC
  5
19E
100
AcDbEntity
  8
LY_1
  6
CONTINUOUS
 62
     3
100
AcDbCircle
 10
535.04276
 20
-321.816171
 30
0.0
 40
9.400956
100
AcDbArc
 50
108.168809
 51
109.172973
  0
ARC
  5
19F
100
AcDbEntity
  8
LY_1
  6
CONTINUOUS
 62
     3
100
AcDbCircle
 10
535.094681
 20
-321.965481
 30
0.0
 40
9.559037
100
AcDbArc
 50
109.173003
 51
110.177595
  0
ARC
  5
1A0
100
AcDbEntity
  8
LY_1
  6
CONTINUOUS
 62
     3
100
AcDbCircle
 10
535.150952
 20
-322.118591
 30
0.0
 40
9.722159
100
AcDbArc
 50
110.177621
 51
111.182103
  0
ARC
  5
1A1
100
AcDbEntity
  8
LY_1
  6
CONTINUOUS
 62
     3
100
AcDbCircle
 10
535.204657
 20
-322.257342
 30
0.0
 40
9.870941
100
AcDbArc
 50
111.181762
 51
112.185776
  0
ARC
  5
1A2
100
AcDbEntity
  8
LY_1
  6
CONTINUOUS
 62
     3
100
AcDbCircle
 10
535.252797
 20
-322.37538
 30
0.0
 40
9.998418
100
AcDbArc
 50
112.185796
 51
113.194578
  0
ARC
  5
1A3
100
AcDbEntity
  8
LY_1
  6
CONTINUOUS
 62
     3
100
AcDbCircle
 10
535.303974
 20
-322.49481
 30
0.0
 40
10.128351
100
AcDbArc
 50
113.194592
 51
114.206754
  0
ARC
  5
1A4
100
AcDbEntity
  8
LY_1
  6
CONTINUOUS
 62
     3
100
AcDbCircle
 10
535.361168
 20
-322.621953
 30
0.0
 40
10.267766
100
AcDbArc
 50
114.206936
 51
115.209016
  0
ARC
  5
1A5
100
AcDbEntity
  8
LY_1
  6
CONTINUOUS
 62
     3
100
AcDbCircle
 10
535.437314
 20
-322.783669
 30
0.0
 40
10.446513
100
AcDbArc
 50
115.209101
 51
116.218993
  0
ARC
  5
1A6
100
AcDbEntity
  8
LY_1
  6
CONTINUOUS
 62
     3
100
AcDbCircle
 10
535.520017
 20
-322.951592
 30
0.0
 40
10.633697
100
AcDbArc
 50
116.21902
 51
117.226402
  0
ARC
  5
1A7
100
AcDbEntity
  8
LY_1
  6
CONTINUOUS
 62
     3
100
AcDbCircle
 10
535.604438
 20
-323.115743
 30
0.0
 40
10.818284
100
AcDbArc
 50
117.226229
 51
118.239831
  0
ARC
  5
1A8
100
AcDbEntity
  8
LY_1
  6
CONTINUOUS
 62
     3
100
AcDbCircle
 10
535.66793
 20
-323.233986
 30
0.0
 40
10.952495
100
AcDbArc
 50
118.239757
 51
119.246539
  0
ARC
  5
1A9
100
AcDbEntity
  8
LY_1
  6
CONTINUOUS
 62
     3
100
AcDbCircle
 10
535.732668
 20
-323.349597
 30
0.0
 40
11.084998
100
AcDbArc
 50
119.246548
 51
120.256138
  0
ARC
  5
1AA
100
AcDbEntity
  8
LY_1
  6
CONTINUOUS
 62
     3
100
AcDbCircle
 10
535.796181
 20
-323.458544
 30
0.0
 40
11.211106
100
AcDbArc
 50
120.255972
 51
121.260945
  0
ARC
  5
1AB
100
AcDbEntity
  8
LY_1
  6
CONTINUOUS
 62
     3
100
AcDbCircle
 10
535.843799
 20
-323.536995
 30
0.0
 40
11.302878
100
AcDbArc
 50
121.260907
 51
122.261613
  0
ARC
  5
1AC
100
AcDbEntity
  8
LY_1
  6
CONTINUOUS
 62
     3
100
AcDbCircle
 10
535.892039
 20
-323.613414
 30
0.0
 40
11.393249
100
AcDbArc
 50
122.261619
 51
123.269012
  0
ARC
  5
1AD
100
AcDbEntity
  8
LY_1
  6
CONTINUOUS
 62
     3
100
AcDbCircle
 10
535.943649
 20
-323.692048
 30
0.0
 40
11.487307
100
AcDbArc
 50
123.269088
 51
124.278502
  0
ARC
  5
1AE
100
AcDbEntity
  8
LY_1
  6
CONTINUOUS
 62
     3
100
AcDbCircle
 10
536.003464
 20
-323.779801
 30
0.0
 40
11.593507
100
AcDbArc
 50
124.278511
 51
125.29433
  0
ARC
  5
1AF
100
AcDbEntity
  8
LY_1
  6
CONTINUOUS
 62
     3
100
AcDbCircle
 10
536.064194
 20
-323.8656
 30
0.0
 40
11.698625
100
AcDbArc
 50
125.294307
 51
126.301037
  0
ARC
  5
1B0
100
AcDbEntity
  8
LY_1
  6
CONTINUOUS
 62
     3
100
AcDbCircle
 10
536.125499
 20
-323.949051
 30
0.0
 40
11.802173
100
AcDbArc
 50
126.301042
 51
127.320191
  0
ARC
  5
1B1
100
AcDbEntity
  8
LY_1
  6
CONTINUOUS
 62
     3
100
AcDbCircle
 10
536.183708
 20
-324.025453
 30
0.0
 40
11.898223
100
AcDbArc
 50
127.32005
 51
128.336766
  0
ARC
  5
1B2
100
AcDbEntity
  8
LY_1
  6
CONTINUOUS
 62
     3
100
AcDbCircle
 10
536.202064
 20
-324.048722
 30
0.0
 40
11.927861
100
AcDbArc
 50
128.336599
 51
129.357058
  0
ARC
  5
1B3
100
AcDbEntity
  8
LY_1
  6
CONTINUOUS
 62
     3
100
AcDbCircle
 10
536.214288
 20
-324.063633
 30
0.0
 40
11.947142
100
AcDbArc
 50
129.35704
 51
130.375838
  0
ARC
  5
1B4
100
AcDbEntity
  8
LY_1
  6
CONTINUOUS
 62
     3
100
AcDbCircle
 10
536.224533
 20
-324.075686
 30
0.0
 40
11.96296
100
AcDbArc
 50
130.375819
 51
131.393261
  0
ARC
  5
1B5
100
AcDbEntity
  8
LY_1
  6
CONTINUOUS
 62
     3
100
AcDbCircle
 10
536.232743
 20
-324.085006
 30
0.0
 40
11.975381
100
AcDbArc
 50
131.393245
 51
132.404178
  0
ARC
  5
1B6
100
AcDbEntity
  8
LY_1
  6
CONTINUOUS
 62
     3
100
AcDbCircle
 10
536.243166
 20
-324.096414
 30
0.0
 40
11.990834
100
AcDbArc
 50
132.404198
 51
133.422639
  0
ARC
  5
1B7
100
AcDbEntity
  8
LY_1
  6
CONTINUOUS
 62
     3
100
AcDbCircle
 10
536.252619
 20
-324.106407
 30
0.0
 40
12.004589
100
AcDbArc
 50
133.42262
 51
134.439897
  0
ARC
  5
1B8
100
AcDbEntity
  8
LY_1
  6
CONTINUOUS
 62
     3
100
AcDbCircle
 10
536.259708
 20
-324.113643
 30
0.0
 40
12.014719
100
AcDbArc
 50
134.439878
 51
135.456304
  0
ARC
  5
1B9
100
AcDbEntity
  8
LY_1
  6
CONTINUOUS
 62
     3
100
AcDbCircle
 10
536.263981
 20
-324.117857
 30
0.0
 40
12.02072
100
AcDbArc
 50
135.456274
 51
136.47378
  0
ARC
  5
1BA
100
AcDbEntity
  8
LY_1
  6
CONTINUOUS
 62
     3
100
AcDbCircle
 10
536.235028
 20
-324.090451
 30
0.0
 40
11.980853
100
AcDbArc
 50
136.473447
 51
137.478868
  0
ARC
  5
1BB
100
AcDbEntity
  8
LY_1
  6
CONTINUOUS
 62
     3
100
AcDbCircle
 10
536.190848
 20
-324.049944
 30
0.0
 40
11.920915
100
AcDbArc
 50
137.478847
 51
138.489319
  0
ARC
  5
1BC
100
AcDbEntity
  8
LY_1
  6
CONTINUOUS
 62
     3
100
AcDbCircle
 10
536.143459
 20
-324.008008
 30
0.0
 40
11.857634
100
AcDbArc
 50
138.489299
 51
139.505154
  0
ARC
  5
1BD
100
AcDbEntity
  8
LY_1
  6
CONTINUOUS
 62
     3
100
AcDbCircle
 10
536.093134
 20
-323.965038
 30
0.0
 40
11.791461
100
AcDbArc
 50
139.505139
 51
140.521847
  0
ARC
  5
1BE
100
AcDbEntity
  8
LY_1
  6
CONTINUOUS
 62
     3
100
AcDbCircle
 10
536.112977
 20
-321.952146
 30
0.0
 40
11.817737
100
AcDbArc
 50
219.314678
 51
220.315847
  0
ARC
  5
1BF
100
AcDbEntity
  8
LY_1
  6
CONTINUOUS
 62
     3
100
AcDbCircle
 10
535.590794
 20
-322.842061
 30
0.0
 40
10.791304
100
AcDbArc
 50
241.499012
 51
242.505789
  0
ARC
  5
1C0
100
AcDbEntity
  8
LY_1
  6
CONTINUOUS
 62
     3
100
AcDbCircle
 10
535.530559
 20
-322.957808
 30
0.0
 40
10.660821
100
AcDbArc
 50
242.505767
 51
243.524867
  0
ARC
  5
1C1
100
AcDbEntity
  8
LY_1
  6
CONTINUOUS
 62
     3
100
AcDbCircle
 10
535.472829
 20
-323.073713
 30
0.0
 40
10.531336
100
AcDbArc
 50
243.52489
 51
244.535885
  0
ARC
  5
1C2
100
AcDbEntity
  8
LY_1
  6
CONTINUOUS
 62
     3
100
AcDbCircle
 10
535.418352
 20
-323.188099
 30
0.0
 40
10.40464
100
AcDbArc
 50
244.535911
 51
245.538339
  0
ARC
  5
1C3
100
AcDbEntity
  8
LY_1
  6
CONTINUOUS
 62
     3
100
AcDbCircle
 10
535.353602
 20
-323.330695
 30
0.0
 40
10.248031
100
AcDbArc
 50
245.537735
 51
246.557715
  0
ARC
  5
1C4
100
AcDbEntity
  8
LY_1
  6
CONTINUOUS
 62
     3
100
AcDbCircle
 10
535.276972
 20
-323.507397
 30
0.0
 40
10.055429
100
AcDbArc
 50
246.55776
 51
247.574829
  0
ARC
  5
1C5
100
AcDbEntity
  8
LY_1
  6
CONTINUOUS
 62
     3
100
AcDbCircle
 10
535.206404
 20
-323.678373
 30
0.0
 40
9.870462
100
AcDbArc
 50
247.574875
 51
248.589411
  0
ARC
  5
1C6
100
AcDbEntity
  8
LY_1
  6
CONTINUOUS
 62
     3
100
AcDbCircle
 10
535.14171
 20
-323.84334
 30
0.0
 40
9.693263
100
AcDbArc
 50
248.589461
 51
249.600566
  0
ARC
  5
1C7
100
AcDbEntity
  8
LY_1
  6
CONTINUOUS
 62
     3
100
AcDbCircle
 10
535.083433
 20
-323.999998
 30
0.0
 40
9.526117
100
AcDbArc
 50
249.600668
 51
250.613039
  0
ARC
  5
1C8
100
AcDbEntity
  8
LY_1
  6
CONTINUOUS
 62
     3
100
AcDbCircle
 10
535.032579
 20
-324.144496
 30
0.0
 40
9.372931
100
AcDbArc
 50
250.613074
 51
251.621511
  0
ARC
  5
1C9
100
AcDbEntity
  8
LY_1
  6
CONTINUOUS
 62
     3
100
AcDbCircle
 10
534.985779
 20
-324.285336
 30
0.0
 40
9.224519
100
AcDbArc
 50
251.621551
 51
252.622927
  0
ARC
  5
1CA
100
AcDbEntity
  8
LY_1
  6
CONTINUOUS
 62
     3
100
AcDbCircle
 10
534.942491
 20
-324.423673
 30
0.0
 40
9.079567
100
AcDbArc
 50
252.622909
 51
253.640271
  0
ARC
  5
1CB
100
AcDbEntity
  8
LY_1
  6
CONTINUOUS
 62
     3
100
AcDbCircle
 10
534.90278
 20
-324.558919
 30
0.0
 40
8.938612
100
AcDbArc
 50
253.640325
 51
254.64727
  0
ARC
  5
1CC
100
AcDbEntity
  8
LY_1
  6
CONTINUOUS
 62
     3
100
AcDbCircle
 10
534.862106
 20
-324.707202
 30
0.0
 40
8.784852
100
AcDbArc
 50
254.647032
 51
255.648036
  0
ARC
  5
1CD
100
AcDbEntity
  8
LY_1
  6
CONTINUOUS
 62
     3
100
AcDbCircle
 10
534.821858
 20
-324.864518
 30
0.0
 40
8.622468
100
AcDbArc
 50
255.648011
 51
256.667869
  0
ARC
  5
1CE
100
AcDbEntity
  8
LY_1
  6
CONTINUOUS
 62
     3
100
AcDbCircle
 10
534.785489
 20
-325.017951
 30
0.0
 40
8.464784
100
AcDbArc
 50
256.667923
 51
257.682033
  0
ARC
  5
1CF
100
AcDbEntity
  8
LY_1
  6
CONTINUOUS
 62
     3
100
AcDbCircle
 10
534.753308
 20
-325.165284
 30
0.0
 40
8.313978
100
AcDbArc
 50
257.682092
 51
258.689408
  0
ARC
  5
1D0
100
AcDbEntity
  8
LY_1
  6
CONTINUOUS
 62
     3
100
AcDbCircle
 10
534.724852
 20
-325.307548
 30
0.0
 40
8.168896
100
AcDbArc
 50
258.689421
 51
259.701701
  0
ARC
  5
1D1
100
AcDbEntity
  8
LY_1
  6
CONTINUOUS
 62
     3
100
AcDbCircle
 10
534.692797
 20
-325.484296
 30
0.0
 40
7.989264
100
AcDbArc
 50
259.701278
 51
260.715506
  0
ARC
  5
1D2
100
AcDbEntity
  8
LY_1
  6
CONTINUOUS
 62
     3
100
AcDbCircle
 10
534.662635
 20
-325.668733
 30
0.0
 40
7.802377
100
AcDbArc
 50
260.71558
 51
261.728771
  0
ARC
  5
1D3
100
AcDbEntity
  8
LY_1
  6
CONTINUOUS
 62
     3
100
AcDbCircle
 10
534.63722
 20
-325.843491
 30
0.0
 40
7.625781
100
AcDbArc
 50
261.72885
 51
262.739579
  0
ARC
  5
1D4
100
AcDbEntity
  8
LY_1
  6
CONTINUOUS
 62
     3
100
AcDbCircle
 10
534.616168
 20
-326.008647
 30
0.0
 40
7.459289
100
AcDbArc
 50
262.739662
 51
263.746459
  0
ARC
  5
1D5
100
AcDbEntity
  8
LY_1
  6
CONTINUOUS
 62
     3
100
AcDbCircle
 10
534.598951
 20
-326.165746
 30
0.0
 40
7.301249
100
AcDbArc
 50
263.746474
 51
264.771403
  0
ARC
  5
1D6
100
AcDbEntity
  8
LY_1
  6
CONTINUOUS
 62
     3
100
AcDbCircle
 10
534.597401
 20
-326.179356
 30
0.0
 40
7.287554
100
AcDbArc
 50
264.773783
 51
265.776252
  0
ARC
  5
1D7
100
AcDbEntity
  8
LY_1
  6
CONTINUOUS
 62
     3
100
AcDbCircle
 10
534.602447
 20
-326.111026
 30
0.0
 40
7.356071
100
AcDbArc
 50
265.77626
 51
266.795548
  0
ARC
  5
1D8
100
AcDbEntity
  8
LY_1
  6
CONTINUOUS
 62
     3
100
AcDbCircle
 10
534.606176
 20
-326.044508
 30
0.0
 40
7.422693
100
AcDbArc
 50
266.795512
 51
267.805614
  0
ARC
  5
1D9
100
AcDbEntity
  8
LY_1
  6
CONTINUOUS
 62
     3
100
AcDbCircle
 10
534.608611
 20
-325.981088
 30
0.0
 40
7.486159
100
AcDbArc
 50
267.805577
 51
268.80701
  0
ARC
  5
1DA
100
AcDbEntity
  8
LY_1
  6
CONTINUOUS
 62
     3
100
AcDbCircle
 10
534.609875
 20
-325.920383
 30
0.0
 40
7.546878
100
AcDbArc
 50
268.807005
 51
269.825666
  0
LINE
  5
1DB
100
AcDbEntity
  8
LY_1
  6
CONTINUOUS
 62
     3
100
AcDbLine
 10
547.616118
 20
-327.467226
 30
0.0
 11
547.912236
 21
-327.467226
 31
0.0
  0
LINE
  5
1DC
100
AcDbEntity
  8
LY_1
  6
CONTINUOUS
 62
     3
100
AcDbLine
 10
547.912236
 20
-318.467226
 30
0.0
 11
547.616118
 21
-318.467226
 31
0.0
  0
LINE
  5
1DD
100
AcDbEntity
  8
LY_1
  6
CONTINUOUS
 62
     3
100
AcDbLine
 10
536.592428
 20
-312.467226
 30
0.0
 11
534.586852
 21
-312.467226
 31
0.0
  0
ELLIPSE
  5
1DE
100
AcDbEntity
  8
LY_1
  6
CONTINUOUS
 62
     3
100
AcDbEllipse
 10
693.306326
 20
-322.967226
 30
0.0
 11
-0.0000000000000005
 21
-2.5
 31
0.0
210
0.0
220
0.0
230
1.0
 40
0.805764
 41
0.0
 42
3.14159265358979
  0
ELLIPSE
  5
1DF
100
AcDbEntity
  8
LY_1
  6
CONTINUOUS
 62
     3
100
AcDbEllipse
 10
693.306326
 20
-322.967226
 30
0.0
 11
-0.0000000000000005
 21
-2.5
 31
0.0
210
0.0
220
0.0
230
1.0
 40
0.805764
 41
3.14159265358979
 42
0.0
  0
LINE
  5
1E0
100
AcDbEntity
  8
LY_1
  6
CONTINUOUS
 62
     3
100
AcDbLine
 10
693.306326
 20
-320.467226
 30
0.0
 11
679.259196
 21
-320.467226
 31
0.0
  0
LINE
  5
1E1
100
AcDbEntity
  8
LY_1
  6
CONTINUOUS
 62
     3
100
AcDbLine
 10
679.329383
 20
-325.467226
 30
0.0
 11
693.306326
 21
-325.467226
 31
0.0
  0
ARC
  5
1E2
100
AcDbEntity
  8
LY_1
  6
CONTINUOUS
 62
     3
100
AcDbCircle
 10
535.361168
 20
-322.621953
 30
0.0
 40
10.267766
100
AcDbArc
 50
114.206936
 51
115.209016
  0
ARC
  5
1E3
100
AcDbEntity
  8
LY_1
  6
CONTINUOUS
 62
     3
100
AcDbCircle
 10
536.242118
 20
-321.839426
 30
0.0
 40
11.98907
100
AcDbArc
 50
229.384575
 51
230.385472
  0
ARC
  5
1E4
100
AcDbEntity
  8
LY_1
  6
CONTINUOUS
 62
     3
100
AcDbCircle
 10
536.173698
 20
-321.900623
 30
0.0
 40
11.897372
100
AcDbArc
 50
220.315843
 51
221.330739
  0
ARC
  5
1E5
100
AcDbEntity
  8
LY_1
  6
CONTINUOUS
 62
     3
100
AcDbCircle
 10
536.204719
 20
-321.87345
 30
0.0
 40
11.938611
100
AcDbArc
 50
221.330347
 51
222.336613
  0
ARC
  5
1E6
100
AcDbEntity
  8
LY_1
  6
CONTINUOUS
 62
     3
100
AcDbCircle
 10
536.216808
 20
-321.862441
 30
0.0
 40
11.954961
100
AcDbArc
 50
222.336595
 51
223.341468
  0
ARC
  5
1E7
100
AcDbEntity
  8
LY_1
  6
CONTINUOUS
 62
     3
100
AcDbCircle
 10
536.226242
 20
-321.853543
 30
0.0
 40
11.96793
100
AcDbArc
 50
223.34145
 51
224.345224
  0
ARC
  5
1E8
100
AcDbEntity
  8
LY_1
  6
CONTINUOUS
 62
     3
100
AcDbCircle
 10
536.233058
 20
-321.846886
 30
0.0
 40
11.977458
100
AcDbArc
 50
224.345206
 51
225.348174
  0
ARC
  5
1E9
100
AcDbEntity
  8
LY_1
  6
CONTINUOUS
 62
     3
100
AcDbCircle
 10
536.240773
 20
-321.83906
 30
0.0
 40
11.988447
100
AcDbArc
 50
225.348231
 51
226.359826
  0
ARC
  5
1EA
100
AcDbEntity
  8
LY_1
  6
CONTINUOUS
 62
     3
100
AcDbCircle
 10
536.249936
 20
-321.829457
 30
0.0
 40
12.001719
100
AcDbArc
 50
226.359806
 51
227.368942
  0
ARC
  5
1EB
100
AcDbEntity
  8
LY_1
  6
CONTINUOUS
 62
     3
100
AcDbCircle
 10
536.256486
 20
-321.822348
 30
0.0
 40
12.011386
100
AcDbArc
 50
227.368923
 51
228.377249
  0
ARC
  5
1EC
100
AcDbEntity
  8
LY_1
  6
CONTINUOUS
 62
     3
100
AcDbCircle
 10
536.260492
 20
-321.817846
 30
0.0
 40
12.017413
100
AcDbArc
 50
228.37723
 51
229.385054
  0
ARC
  5
1ED
100
AcDbEntity
  8
LY_1
  6
CONTINUOUS
 62
     3
100
AcDbCircle
 10
535.437314
 20
-322.783669
 30
0.0
 40
10.446513
100
AcDbArc
 50
115.209101
 51
116.218993
  0
ARC
  5
1EE
100
AcDbEntity
  8
LY_1
  6
CONTINUOUS
 62
     3
100
AcDbCircle
 10
535.520017
 20
-322.951592
 30
0.0
 40
10.633697
100
AcDbArc
 50
116.21902
 51
117.226402
  0
ARC
  5
1EF
100
AcDbEntity
  8
LY_1
  6
CONTINUOUS
 62
     3
100
AcDbCircle
 10
535.604438
 20
-323.115743
 30
0.0
 40
10.818284
100
AcDbArc
 50
117.226229
 51
118.239831
  0
ARC
  5
1F0
100
AcDbEntity
  8
LY_1
  6
CONTINUOUS
 62
     3
100
AcDbCircle
 10
535.66793
 20
-323.233986
 30
0.0
 40
10.952495
100
AcDbArc
 50
118.239757
 51
119.246539
  0
ARC
  5
1F1
100
AcDbEntity
  8
LY_1
  6
CONTINUOUS
 62
     3
100
AcDbCircle
 10
535.732668
 20
-323.349597
 30
0.0
 40
11.084998
100
AcDbArc
 50
119.246548
 51
120.256138
  0
ARC
  5
1F2
100
AcDbEntity
  8
LY_1
  6
CONTINUOUS
 62
     3
100
AcDbCircle
 10
535.796181
 20
-323.458544
 30
0.0
 40
11.211106
100
AcDbArc
 50
120.255972
 51
121.260945
  0
ARC
  5
1F3
100
AcDbEntity
  8
LY_1
  6
CONTINUOUS
 62
     3
100
AcDbCircle
 10
535.843799
 20
-323.536995
 30
0.0
 40
11.302878
100
AcDbArc
 50
121.260907
 51
122.261613
  0
ARC
  5
1F4
100
AcDbEntity
  8
LY_1
  6
CONTINUOUS
 62
     3
100
AcDbCircle
 10
535.892039
 20
-323.613414
 30
0.0
 40
11.393249
100
AcDbArc
 50
122.261619
 51
123.269012
  0
ARC
  5
1F5
100
AcDbEntity
  8
LY_1
  6
CONTINUOUS
 62
     3
100
AcDbCircle
 10
535.943649
 20
-323.692048
 30
0.0
 40
11.487307
100
AcDbArc
 50
123.269088
 51
124.278502
  0
ARC
  5
1F6
100
AcDbEntity
  8
LY_1
  6
CONTINUOUS
 62
     3
100
AcDbCircle
 10
536.003464
 20
-323.779801
 30
0.0
 40
11.593507
100
AcDbArc
 50
124.278511
 51
125.29433
  0
ARC
  5
1F7
100
AcDbEntity
  8
LY_1
  6
CONTINUOUS
 62
     3
100
AcDbCircle
 10
536.064194
 20
-323.8656
 30
0.0
 40
11.698625
100
AcDbArc
 50
125.294307
 51
126.301037
  0
ARC
  5
1F8
100
AcDbEntity
  8
LY_1
  6
CONTINUOUS
 62
     3
100
AcDbCircle
 10
536.125499
 20
-323.949051
 30
0.0
 40
11.802173
100
AcDbArc
 50
126.301042
 51
127.320191
  0
ARC
  5
1F9
100
AcDbEntity
  8
LY_1
  6
CONTINUOUS
 62
     3
100
AcDbCircle
 10
536.183708
 20
-324.025453
 30
0.0
 40
11.898223
100
AcDbArc
 50
127.32005
 51
128.336766
  0
ARC
  5
1FA
100
AcDbEntity
  8
LY_1
  6
CONTINUOUS
 62
     3
100
AcDbCircle
 10
536.202064
 20
-324.048722
 30
0.0
 40
11.927861
100
AcDbArc
 50
128.336599
 51
129.357058
  0
ARC
  5
1FB
100
AcDbEntity
  8
LY_1
  6
CONTINUOUS
 62
     3
100
AcDbCircle
 10
536.214288
 20
-324.063633
 30
0.0
 40
11.947142
100
AcDbArc
 50
129.35704
 51
130.375838
  0
ARC
  5
1FC
100
AcDbEntity
  8
LY_1
  6
CONTINUOUS
 62
     3
100
AcDbCircle
 10
536.224533
 20
-324.075686
 30
0.0
 40
11.96296
100
AcDbArc
 50
130.375819
 51
131.393261
  0
ARC
  5
1FD
100
AcDbEntity
  8
LY_1
  6
CONTINUOUS
 62
     3
100
AcDbCircle
 10
536.232743
 20
-324.085006
 30
0.0
 40
11.975381
100
AcDbArc
 50
131.393245
 51
132.404178
  0
ARC
  5
1FE
100
AcDbEntity
  8
LY_1
  6
CONTINUOUS
 62
     3
100
AcDbCircle
 10
536.243166
 20
-324.096414
 30
0.0
 40
11.990834
100
AcDbArc
 50
132.404198
 51
133.422639
  0
ARC
  5
1FF
100
AcDbEntity
  8
LY_1
  6
CONTINUOUS
 62
     3
100
AcDbCircle
 10
536.252619
 20
-324.106407
 30
0.0
 40
12.004589
100
AcDbArc
 50
133.42262
 51
134.439897
  0
ARC
  5
200
100
AcDbEntity
  8
LY_1
  6
CONTINUOUS
 62
     3
100
AcDbCircle
 10
536.259708
 20
-324.113643
 30
0.0
 40
12.014719
100
AcDbArc
 50
134.439878
 51
135.456304
  0
ARC
  5
201
100
AcDbEntity
  8
LY_1
  6
CONTINUOUS
 62
     3
100
AcDbCircle
 10
536.263981
 20
-324.117857
 30
0.0
 40
12.02072
100
AcDbArc
 50
135.456274
 51
136.47378
  0
ARC
  5
202
100
AcDbEntity
  8
LY_1
  6
CONTINUOUS
 62
     3
100
AcDbCircle
 10
536.235028
 20
-324.090451
 30
0.0
 40
11.980853
100
AcDbArc
 50
136.473447
 51
137.478868
  0
ARC
  5
203
100
AcDbEntity
  8
LY_1
  6
CONTINUOUS
 62
     3
100
AcDbCircle
 10
536.190848
 20
-324.049944
 30
0.0
 40
11.920915
100
AcDbArc
 50
137.478847
 51
138.489319
  0
ARC
  5
204
100
AcDbEntity
  8
LY_1
  6
CONTINUOUS
 62
     3
100
AcDbCircle
 10
536.143459
 20
-324.008008
 30
0.0
 40
11.857634
100
AcDbArc
 50
138.489299
 51
139.505154
  0
ARC
  5
205
100
AcDbEntity
  8
LY_1
  6
CONTINUOUS
 62
     3
100
AcDbCircle
 10
536.093134
 20
-323.965038
 30
0.0
 40
11.791461
100
AcDbArc
 50
139.505139
 51
140.521847
  0
ARC
  5
206
100
AcDbEntity
  8
LY_1
  6
CONTINUOUS
 62
     3
100
AcDbCircle
 10
536.048748
 20
-323.928443
 30
0.0
 40
11.733934
100
AcDbArc
 50
140.521978
 51
141.530034
  0
ARC
  5
207
100
AcDbEntity
  8
LY_1
  6
CONTINUOUS
 62
     3
100
AcDbCircle
 10
536.008355
 20
-323.896352
 30
0.0
 40
11.682345
100
AcDbArc
 50
141.530015
 51
142.542517
  0
ARC
  5
208
100
AcDbEntity
  8
LY_1
  6
CONTINUOUS
 62
     3
100
AcDbCircle
 10
535.965046
 20
-323.863176
 30
0.0
 40
11.62779
100
AcDbArc
 50
142.542499
 51
143.55975
  0
ARC
  5
209
100
AcDbEntity
  8
LY_1
  6
CONTINUOUS
 62
     3
100
AcDbCircle
 10
535.919379
 20
-323.829458
 30
0.0
 40
11.571023
100
AcDbArc
 50
143.559748
 51
144.562374
  0
ARC
  5
20A
100
AcDbEntity
  8
LY_1
  6
CONTINUOUS
 62
     3
100
AcDbCircle
 10
535.848118
 20
-323.778828
 30
0.0
 40
11.483608
100
AcDbArc
 50
144.562039
 51
145.575426
  0
ARC
  5
20B
100
AcDbEntity
  8
LY_1
  6
CONTINUOUS
 62
     3
100
AcDbCircle
 10
535.760409
 20
-323.718715
 30
0.0
 40
11.377275
100
AcDbArc
 50
145.575436
 51
146.577838
  0
ARC
  5
20C
100
AcDbEntity
  8
LY_1
  6
CONTINUOUS
 62
     3
100
AcDbCircle
 10
535.671069
 20
-323.659761
 30
0.0
 40
11.270237
100
AcDbArc
 50
146.577819
 51
147.589737
  0
ARC
  5
20D
100
AcDbEntity
  8
LY_1
  6
CONTINUOUS
 62
     3
100
AcDbCircle
 10
535.579643
 20
-323.601721
 30
0.0
 40
11.161945
100
AcDbArc
 50
147.589721
 51
148.61018
  0
ARC
  5
20E
100
AcDbEntity
  8
LY_1
  6
CONTINUOUS
 62
     3
100
AcDbCircle
 10
535.505676
 20
-323.556522
 30
0.0
 40
11.075261
100
AcDbArc
 50
148.610479
 51
149.619234
  0
ARC
  5
20F
100
AcDbEntity
  8
LY_1
  6
CONTINUOUS
 62
     3
100
AcDbCircle
 10
535.444248
 20
-323.520514
 30
0.0
 40
11.004057
100
AcDbArc
 50
149.619213
 51
150.634498
  0
ARC
  5
210
100
AcDbEntity
  8
LY_1
  6
CONTINUOUS
 62
     3
100
AcDbCircle
 10
535.380661
 20
-323.484734
 30
0.0
 40
10.931094
100
AcDbArc
 50
150.634502
 51
151.635706
  0
ARC
  5
211
100
AcDbEntity
  8
LY_1
  6
CONTINUOUS
 62
     3
100
AcDbCircle
 10
535.315245
 20
-323.449421
 30
0.0
 40
10.856756
100
AcDbArc
 50
151.635688
 51
152.643754
  0
ARC
  5
212
100
AcDbEntity
  8
LY_1
  6
CONTINUOUS
 62
     3
100
AcDbCircle
 10
535.232538
 20
-323.406696
 30
0.0
 40
10.763665
100
AcDbArc
 50
152.643439
 51
153.661888
  0
ARC
  5
213
100
AcDbEntity
  8
LY_1
  6
CONTINUOUS
 62
     3
100
AcDbCircle
 10
535.129332
 20
-323.3556
 30
0.0
 40
10.648503
100
AcDbArc
 50
153.661903
 51
154.670031
  0
ARC
  5
214
100
AcDbEntity
  8
LY_1
  6
CONTINUOUS
 62
     3
100
AcDbCircle
 10
535.02526
 20
-323.306343
 30
0.0
 40
10.533363
100
AcDbArc
 50
154.67001
 51
155.689153
  0
ARC
  5
215
100
AcDbEntity
  8
LY_1
  6
CONTINUOUS
 62
     3
100
AcDbCircle
 10
534.920818
 20
-323.259158
 30
0.0
 40
10.418757
100
AcDbArc
 50
155.689174
 51
156.697602
  0
ARC
  5
216
100
AcDbEntity
  8
LY_1
  6
CONTINUOUS
 62
     3
100
AcDbCircle
 10
534.827624
 20
-323.218964
 30
0.0
 40
10.317265
100
AcDbArc
 50
156.697875
 51
157.718581
  0
ARC
  5
217
100
AcDbEntity
  8
LY_1
  6
CONTINUOUS
 62
     3
100
AcDbCircle
 10
534.77729
 20
-323.198333
 30
0.0
 40
10.262867
100
AcDbArc
 50
157.718613
 51
158.72355
  0
ARC
  5
218
100
AcDbEntity
  8
LY_1
  6
CONTINUOUS
 62
     3
100
AcDbCircle
 10
534.725863
 20
-323.178311
 30
0.0
 40
10.207679
100
AcDbArc
 50
158.72353
 51
159.733906
  0
ARC
  5
219
100
AcDbEntity
  8
LY_1
  6
CONTINUOUS
 62
     3
100
AcDbCircle
 10
534.671736
 20
-323.158328
 30
0.0
 40
10.149981
100
AcDbArc
 50
159.733887
 51
160.750012
  0
ARC
  5
21A
100
AcDbEntity
  8
LY_1
  6
CONTINUOUS
 62
     3
100
AcDbCircle
 10
534.614836
 20
-323.138463
 30
0.0
 40
10.089714
100
AcDbArc
 50
160.749987
 51
161.772383
  0
ARC
  5
21B
100
AcDbEntity
  8
LY_1
  6
CONTINUOUS
 62
     3
100
AcDbCircle
 10
534.53466
 20
-323.112094
 30
0.0
 40
10.005312
100
AcDbArc
 50
161.772197
 51
162.780893
  0
ARC
  5
21C
100
AcDbEntity
  8
LY_1
  6
CONTINUOUS
 62
     3
100
AcDbCircle
 10
534.445022
 20
-323.084317
 30
0.0
 40
9.911469
100
AcDbArc
 50
162.78087
 51
163.799114
  0
ARC
  5
21D
100
AcDbEntity
  8
LY_1
  6
CONTINUOUS
 62
     3
100
AcDbCircle
 10
534.354352
 20
-323.057971
 30
0.0
 40
9.817049
100
AcDbArc
 50
163.79913
 51
164.803792
  0
ARC
  5
21E
100
AcDbEntity
  8
LY_1
  6
CONTINUOUS
 62
     3
100
AcDbCircle
 10
534.263099
 20
-323.033188
 30
0.0
 40
9.722491
100
AcDbArc
 50
164.803773
 51
165.818194
  0
ARC
  5
21F
100
AcDbEntity
  8
LY_1
  6
CONTINUOUS
 62
     3
100
AcDbCircle
 10
534.185181
 20
-323.013433
 30
0.0
 40
9.642107
100
AcDbArc
 50
165.818568
 51
166.823721
  0
ARC
  5
220
100
AcDbEntity
  8
LY_1
  6
CONTINUOUS
 62
     3
100
AcDbCircle
 10
534.168579
 20
-323.009539
 30
0.0
 40
9.625055
100
AcDbArc
 50
166.823761
 51
167.844382
  0
ARC
  5
221
100
AcDbEntity
  8
LY_1
  6
CONTINUOUS
 62
     3
100
AcDbCircle
 10
534.15136
 20
-323.005834
 30
0.0
 40
9.607442
100
AcDbArc
 50
167.844363
 51
168.866862
  0
ARC
  5
222
100
AcDbEntity
  8
LY_1
  6
CONTINUOUS
 62
     3
100
AcDbCircle
 10
534.131561
 20
-323.001939
 30
0.0
 40
9.587264
100
AcDbArc
 50
168.866851
 51
169.868226
  0
ARC
  5
223
100
AcDbEntity
  8
LY_1
  6
CONTINUOUS
 62
     3
100
AcDbCircle
 10
534.109347
 20
-322.997973
 30
0.0
 40
9.564699
100
AcDbArc
 50
169.868208
 51
170.871974
  0
ARC
  5
224
100
AcDbEntity
  8
LY_1
  6
CONTINUOUS
 62
     3
100
AcDbCircle
 10
534.066891
 20
-322.991202
 30
0.0
 40
9.521706
100
AcDbArc
 50
170.87167
 51
171.880225
  0
ARC
  5
225
100
AcDbEntity
  8
LY_1
  6
CONTINUOUS
 62
     3
100
AcDbCircle
 10
534.006699
 20
-322.982619
 30
0.0
 40
9.460905
100
AcDbArc
 50
171.880199
 51
172.895234
  0
ARC
  5
226
100
AcDbEntity
  8
LY_1
  6
CONTINUOUS
 62
     3
100
AcDbCircle
 10
533.943498
 20
-322.974745
 30
0.0
 40
9.397215
100
AcDbArc
 50
172.89521
 51
173.917102
  0
ARC
  5
227
100
AcDbEntity
  8
LY_1
  6
CONTINUOUS
 62
     3
100
AcDbCircle
 10
533.878375
 20
-322.967804
 30
0.0
 40
9.331723
100
AcDbArc
 50
173.917108
 51
174.922206
  0
ARC
  5
228
100
AcDbEntity
  8
LY_1
  6
CONTINUOUS
 62
     3
100
AcDbCircle
 10
533.814637
 20
-322.962131
 30
0.0
 40
9.267733
100
AcDbArc
 50
174.922264
 51
175.944162
  0
ARC
  5
229
100
AcDbEntity
  8
LY_1
  6
CONTINUOUS
 62
     3
100
AcDbCircle
 10
533.829266
 20
-322.963098
 30
0.0
 40
9.282394
100
AcDbArc
 50
175.9446
 51
176.945568
  0
ARC
  5
22A
100
AcDbEntity
  8
LY_1
  6
CONTINUOUS
 62
     3
100
AcDbCircle
 10
533.858909
 20
-322.96468
 30
0.0
 40
9.312079
100
AcDbArc
 50
176.945561
 51
177.961796
  0
ARC
  5
22B
100
AcDbEntity
  8
LY_1
  6
CONTINUOUS
 62
     3
100
AcDbCircle
 10
533.88658
 20
-322.965668
 30
0.0
 40
9.339768
100
AcDbArc
 50
177.961779
 51
178.974995
  0
ARC
  5
22C
100
AcDbEntity
  8
LY_1
  6
CONTINUOUS
 62
     3
100
AcDbCircle
 10
533.908853
 20
-322.966082
 30
0.0
 40
9.362045
100
AcDbArc
 50
178.974901
 51
179.986481
  0
ARC
  5
22D
100
AcDbEntity
  8
LY_1
  6
CONTINUOUS
 62
     3
100
AcDbCircle
 10
533.918296
 20
-322.966088
 30
0.0
 40
9.371488
100
AcDbArc
 50
179.986456
 51
180.997339
  0
ARC
  5
22E
100
AcDbEntity
  8
LY_1
  6
CONTINUOUS
 62
     3
100
AcDbCircle
 10
533.924596
 20
-322.965982
 30
0.0
 40
9.377789
100
AcDbArc
 50
180.99732
 51
182.007529
  0
ARC
  5
22F
100
AcDbEntity
  8
LY_1
  6
CONTINUOUS
 62
     3
100
AcDbCircle
 10
533.927934
 20
-322.965868
 30
0.0
 40
9.381129
100
AcDbArc
 50
182.007509
 51
183.017281
  0
ARC
  5
230
100
AcDbEntity
  8
LY_1
  6
CONTINUOUS
 62
     3
100
AcDbCircle
 10
533.916996
 20
-322.966476
 30
0.0
 40
9.370174
100
AcDbArc
 50
183.017089
 51
184.026996
  0
ARC
  5
231
100
AcDbEntity
  8
LY_1
  6
CONTINUOUS
 62
     3
100
AcDbCircle
 10
533.894621
 20
-322.968055
 30
0.0
 40
9.347743
100
AcDbArc
 50
184.026975
 51
185.039302
  0
ARC
  5
232
100
AcDbEntity
  8
LY_1
  6
CONTINUOUS
 62
     3
100
AcDbCircle
 10
533.869347
 20
-322.970287
 30
0.0
 40
9.322371
100
AcDbArc
 50
185.039281
 51
186.054356
  0
ARC
  5
233
100
AcDbEntity
  8
LY_1
  6
CONTINUOUS
 62
     3
100
AcDbCircle
 10
533.847349
 20
-322.972596
 30
0.0
 40
9.300252
100
AcDbArc
 50
186.054502
 51
187.056293
  0
ARC
  5
234
100
AcDbEntity
  8
LY_1
  6
CONTINUOUS
 62
     3
100
AcDbCircle
 10
533.915892
 20
-322.964049
 30
0.0
 40
9.369326
100
AcDbArc
 50
187.056674
 51
188.066389
  0
ARC
  5
235
100
AcDbEntity
  8
LY_1
  6
CONTINUOUS
 62
     3
100
AcDbCircle
 10
533.997554
 20
-322.952479
 30
0.0
 40
9.451804
100
AcDbArc
 50
188.066371
 51
189.067278
  0
ARC
  5
236
100
AcDbEntity
  8
LY_1
  6
CONTINUOUS
 62
     3
100
AcDbCircle
 10
534.078188
 20
-322.93961
 30
0.0
 40
9.533458
100
AcDbArc
 50
189.067282
 51
190.077027
  0
ARC
  5
237
100
AcDbEntity
  8
LY_1
  6
CONTINUOUS
 62
     3
100
AcDbCircle
 10
534.145212
 20
-322.927744
 30
0.0
 40
9.601524
100
AcDbArc
 50
190.076762
 51
191.080019
  0
ARC
  5
238
100
AcDbEntity
  8
LY_1
  6
CONTINUOUS
 62
     3
100
AcDbCircle
 10
534.194241
 20
-322.918143
 30
0.0
 40
9.651484
100
AcDbArc
 50
191.080016
 51
192.095335
  0
ARC
  5
239
100
AcDbEntity
  8
LY_1
  6
CONTINUOUS
 62
     3
100
AcDbCircle
 10
534.241128
 20
-322.908099
 30
0.0
 40
9.699435
100
AcDbArc
 50
192.095315
 51
193.105615
  0
ARC
  5
23A
100
AcDbEntity
  8
LY_1
  6
CONTINUOUS
 62
     3
100
AcDbCircle
 10
534.283589
 20
-322.898225
 30
0.0
 40
9.743029
100
AcDbArc
 50
193.10555
 51
194.110662
  0
ARC
  5
23B
100
AcDbEntity
  8
LY_1
  6
CONTINUOUS
 62
     3
100
AcDbCircle
 10
534.309089
 20
-322.891823
 30
0.0
 40
9.76932
100
AcDbArc
 50
194.110611
 51
195.112418
  0
ARC
  5
23C
100
AcDbEntity
  8
LY_1
  6
CONTINUOUS
 62
     3
100
AcDbCircle
 10
534.330818
 20
-322.885958
 30
0.0
 40
9.791827
100
AcDbArc
 50
195.112405
 51
196.128852
  0
ARC
  5
23D
100
AcDbEntity
  8
LY_1
  6
CONTINUOUS
 62
     3
100
AcDbCircle
 10
534.350113
 20
-322.88038
 30
0.0
 40
9.811912
100
AcDbArc
 50
196.128839
 51
197.141113
  0
ARC
  5
23E
100
AcDbEntity
  8
LY_1
  6
CONTINUOUS
 62
     3
100
AcDbCircle
 10
534.428059
 20
-322.856211
 30
0.0
 40
9.893519
100
AcDbArc
 50
197.141824
 51
198.153757
  0
ARC
  5
23F
100
AcDbEntity
  8
LY_1
  6
CONTINUOUS
 62
     3
100
AcDbCircle
 10
534.536541
 20
-322.820645
 30
0.0
 40
10.007683
100
AcDbArc
 50
198.153738
 51
199.154139
  0
ARC
  5
240
100
AcDbEntity
  8
LY_1
  6
CONTINUOUS
 62
     3
100
AcDbCircle
 10
534.644715
 20
-322.783069
 30
0.0
 40
10.122197
100
AcDbArc
 50
199.154151
 51
200.161225
  0
ARC
  5
241
100
AcDbEntity
  8
LY_1
  6
CONTINUOUS
 62
     3
100
AcDbCircle
 10
534.749664
 20
-322.744552
 30
0.0
 40
10.233991
100
AcDbArc
 50
200.161144
 51
201.175143
  0
ARC
  5
242
100
AcDbEntity
  8
LY_1
  6
CONTINUOUS
 62
     3
100
AcDbCircle
 10
534.829786
 20
-322.713526
 30
0.0
 40
10.319911
100
AcDbArc
 50
201.175083
 51
202.180743
  0
ARC
  5
243
100
AcDbEntity
  8
LY_1
  6
CONTINUOUS
 62
     3
100
AcDbCircle
 10
534.907065
 20
-322.682018
 30
0.0
 40
10.403365
100
AcDbArc
 50
202.180748
 51
203.19584
  0
ARC
  5
244
100
AcDbEntity
  8
LY_1
  6
CONTINUOUS
 62
     3
100
AcDbCircle
 10
534.982744
 20
-322.649592
 30
0.0
 40
10.485698
100
AcDbArc
 50
203.195819
 51
204.202766
  0
ARC
  5
245
100
AcDbEntity
  8
LY_1
  6
CONTINUOUS
 62
     3
100
AcDbCircle
 10
535.046342
 20
-322.621036
 30
0.0
 40
10.555413
100
AcDbArc
 50
204.202619
 51
205.218282
  0
ARC
  5
246
100
AcDbEntity
  8
LY_1
  6
CONTINUOUS
 62
     3
100
AcDbCircle
 10
535.100584
 20
-322.595495
 30
0.0
 40
10.615368
100
AcDbArc
 50
205.218262
 51
206.228187
  0
ARC
  5
247
100
AcDbEntity
  8
LY_1
  6
CONTINUOUS
 62
     3
100
AcDbCircle
 10
535.151874
 20
-322.57023
 30
0.0
 40
10.672543
100
AcDbArc
 50
206.228167
 51
207.232677
  0
ARC
  5
248
100
AcDbEntity
  8
LY_1
  6
CONTINUOUS
 62
     3
100
AcDbCircle
 10
535.21427
 20
-322.538046
 30
0.0
 40
10.74275
100
AcDbArc
 50
207.233017
 51
208.240847
  0
ARC
  5
249
100
AcDbEntity
  8
LY_1
  6
CONTINUOUS
 62
     3
100
AcDbCircle
 10
535.324917
 20
-322.47861
 30
0.0
 40
10.868351
100
AcDbArc
 50
208.240875
 51
209.243319
  0
ARC
  5
24A
100
AcDbEntity
  8
LY_1
  6
CONTINUOUS
 62
     3
100
AcDbCircle
 10
535.436901
 20
-322.415911
 30
0.0
 40
10.996692
100
AcDbArc
 50
209.243332
 51
210.250058
  0
ARC
  5
24B
100
AcDbEntity
  8
LY_1
  6
CONTINUOUS
 62
     3
100
AcDbCircle
 10
535.546097
 20
-322.352245
 30
0.0
 40
11.123093
100
AcDbArc
 50
210.249989
 51
211.260581
  0
ARC
  5
24C
100
AcDbEntity
  8
LY_1
  6
CONTINUOUS
 62
     3
100
AcDbCircle
 10
535.624253
 20
-322.304821
 30
0.0
 40
11.214512
100
AcDbArc
 50
211.260483
 51
212.262346
  0
ARC
  5
24D
100
AcDbEntity
  8
LY_1
  6
CONTINUOUS
 62
     3
100
AcDbCircle
 10
535.697385
 20
-322.258657
 30
0.0
 40
11.300995
100
AcDbArc
 50
212.262345
 51
213.272071
  0
ARC
  5
24E
100
AcDbEntity
  8
LY_1
  6
CONTINUOUS
 62
     3
100
AcDbCircle
 10
535.767341
 20
-322.212763
 30
0.0
 40
11.384662
100
AcDbArc
 50
213.272027
 51
214.27307
  0
ARC
  5
24F
100
AcDbEntity
  8
LY_1
  6
CONTINUOUS
 62
     3
100
AcDbCircle
 10
535.820327
 20
-322.176672
 30
0.0
 40
11.448772
100
AcDbArc
 50
214.273002
 51
215.281853
  0
ARC
  5
250
100
AcDbEntity
  8
LY_1
  6
CONTINUOUS
 62
     3
100
AcDbCircle
 10
535.868994
 20
-322.142241
 30
0.0
 40
11.508387
100
AcDbArc
 50
215.281839
 51
216.285481
  0
ARC
  5
251
100
AcDbEntity
  8
LY_1
  6
CONTINUOUS
 62
     3
100
AcDbCircle
 10
535.916409
 20
-322.107426
 30
0.0
 40
11.567211
100
AcDbArc
 50
216.285494
 51
217.290879
  0
ARC
  5
252
100
AcDbEntity
  8
LY_1
  6
CONTINUOUS
 62
     3
100
AcDbCircle
 10
535.981993
 20
-322.057452
 30
0.0
 40
11.649665
100
AcDbArc
 50
217.29099
 51
218.306543
  0
ARC
  5
253
100
AcDbEntity
  8
LY_1
  6
CONTINUOUS
 62
     3
100
AcDbCircle
 10
536.049179
 20
-322.004385
 30
0.0
 40
11.73528
100
AcDbArc
 50
218.30652
 51
219.314702
  0
ARC
  5
254
100
AcDbEntity
  8
LY_1
  6
CONTINUOUS
 62
     3
100
AcDbCircle
 10
536.112977
 20
-321.952146
 30
0.0
 40
11.817737
100
AcDbArc
 50
219.314678
 51
220.315847
  0
LINE
  5
255
100
AcDbEntity
  8
LY_1
  6
CONTINUOUS
 62
     3
100
AcDbLine
 10
671.057707
 20
-327.467226
 30
0.0
 11
671.057707
 21
-447.367226
 31
0.0
  0
LINE
  5
256
100
AcDbEntity
  8
LY_1
  6
CONTINUOUS
 62
     3
100
AcDbLine
 10
666.057707
 20
-327.467226
 30
0.0
 11
666.057707
 21
-447.367226
 31
0.0
  0
LINE
  5
257
100
AcDbEntity
  8
LY_1
  6
CONTINUOUS
 62
     3
100
AcDbLine
 10
671.057707
 20
-447.367226
 30
0.0
 11
666.057707
 21
-447.367226
 31
0.0
  0
SPLINE
  5
258
100
AcDbEntity
  8
LY_1
  6
CONTINUOUS
 62
     3
100
AcDbSpline
210
0.0
220
0.0
230
1.0
 70
     0
 71
     3
 72
     0
 73
     0
 74
     4
 44
0.000001
 12
-0.9999832969945024
 22
0.0057797691999605
 32
0.0
 13
-0.9864409587851298
 23
0.1641165282080812
 33
0.0
 11
543.2102150681676
 21
-335.37600832696097
 31
0.0
 11
542.94337601636835
 21
-335.36697735604497
 31
0.0
 11
542.6528390739777
 21
-335.33998549553911
 31
0.0
 11
542.36511258830024
 21
-335.29919242092865
 31
0.0
  0
SPLINE
  5
259
100
AcDbEntity
  8
LY_1
  6
CONTINUOUS
 62
     3
100
AcDbSpline
210
0.0
220
0.0
230
1.0
 70
     1
 71
     3
 72
     0
 73
     0
 74
    57
 44
0.000001
 12
-0.9999999046600592
 22
0.0004366690652354
 32
0.0
 13
-0.9999999046600592
 23
0.0004366690652359
 33
0.0
 11
535.05081632369047
 21
-327.86620560834956
 31
0.0
 11
534.70794668068538
 21
-327.83293531005421
 31
0.0
 11
534.36823320534222
 21
-327.73414288166543
 31
0.0
 11
534.03795780825203
 21
-327.57135602292931
 31
0.0
 11
533.7201498514296
 21
-327.34457536673938
 31
0.0
 11
533.41815713084543
 21
-327.05627721421951
 31
0.0
 11
533.13809088474591
 21
-326.71131337782634
 31
0.0
 11
532.88699115089503
 21
-326.31779812937231
 31
0.0
 11
532.6631868878344
 21
-325.87499003811183
 31
0.0
 11
532.47181696145844
 21
-325.39128909547622
 31
0.0
 11
532.32226856138368
 21
-324.89485468127714
 31
0.0
 11
532.20667387584172
 21
-324.36987176271833
 31
0.0
 11
532.1278640176115
 21
-323.82692419121616
 31
0.0
 11
532.08864206760654
 21
-323.29733538009987
 31
0.0
 11
532.08449126793494
 21
-322.76167872823061
 31
0.0
 11
532.11551067065329
 21
-322.23046433329438
 31
0.0
 11
532.18001857691161
 21
-321.72016215649074
 31
0.0
 11
532.27694080241054
 21
-321.22374103534145
 31
0.0
 11
532.40418010766098
 21
-320.75003414333577
 31
0.0
 11
532.56324274755843
 21
-320.29669124226217
 31
0.0
 11
532.7501589823496
 21
-319.87442094160377
 31
0.0
 11
532.96129770702191
 21
-319.48998686837257
 31
0.0
 11
533.20497973999181
 21
-319.13316030296181
 31
0.0
 11
533.47014334197138
 21
-318.82274587229364
 31
0.0
 11
533.75198768073824
 21
-318.56340551849053
 31
0.0
 11
534.06218895928578
 21
-318.34909983817562
 31
0.0
 11
534.3849469442498
 21
-318.19382429599835
 31
0.0
 11
534.71450978492157
 21
-318.09988943820855
 31
0.0
 11
535.05908625690881
 21
-318.06864438698278
 31
0.0
 11
535.40462030862818
 21
-318.10365991196574
 31
0.0
 11
535.74472473725154
 21
-318.2043943308376
 31
0.0
 11
536.07921653442054
 21
-318.3729574405674
 31
0.0
 11
536.40159600092647
 21
-318.60672315353321
 31
0.0
 11
536.70540489956829
 21
-318.90178818124633
 31
0.0
 11
536.9823798782063
 21
-319.25017493568532
 31
0.0
 11
537.23511503423606
 21
-319.65299161258037
 31
0.0
 11
537.45798210444627
 21
-320.10281345879548
 31
0.0
 11
537.64057648451171
 21
-320.57550066493644
 31
0.0
 11
537.79064674820302
 21
-321.08354975925408
 31
0.0
 11
537.90455871982249
 21
-321.61682581514515
 31
0.0
 11
537.9772465753108
 21
-322.14286892098932
 31
0.0
 11
538.01468809222752
 21
-322.68170301027288
 31
0.0
 11
538.015973665199
 21
-323.2225626246763
 31
0.0
 11
537.98216850298104
 21
-323.74311221244238
 31
0.0
 11
537.91488029494212
 21
-324.25553760394695
 31
0.0
 11
537.81561534151297
 21
-324.75040791455291
 31
0.0
 11
537.68455990766097
 21
-325.22502157776393
 31
0.0
 11
537.52409088778177
 21
-325.67360352887425
 31
0.0
 11
537.3374223987912
 21
-326.08875444207575
 31
0.0
 11
537.11824385389491
 21
-326.47979841029456
 31
0.0
 11
536.87539690280119
 21
-326.82891773307733
 31
0.0
 11
536.6133493478219
 21
-327.13079574975228
 31
0.0
 11
536.32077432801088
 21
-327.39360010261356
 31
0.0
 11
536.01261134833112
 21
-327.60080636623701
 31
0.0
 11
535.6943464558999
 21
-327.74933989297858
 31
0.0
 11
535.37434311651896
 21
-327.83685582578693
 31
0.0
 11
535.05081632369047
 21
-327.86620560834956
 31
0.0
  0
SPLINE
  5
25A
100
AcDbEntity
  8
LY_1
  6
CONTINUOUS
 62
     3
100
AcDbSpline
210
0.0
220
0.0
230
1.0
 70
     0
 71
     3
 72
     0
 73
     0
 74
    18
 44
0.000001
 12
-0.999960954227805
 22
-0.0088368557653621
 32
0.0
 13
0.7689918306890087
 23
0.639258605208852
 33
0.0
 11
536.2816370431492
 21
-315.45742376999561
 31
0.0
 11
536.04034281818167
 21
-315.44839279907961
 31
0.0
 11
535.82615452190021
 21
-315.42140093857375
 31
0.0
 11
535.63584039102034
 21
-315.37499713784501
 31
0.0
 11
535.47727996324375
 21
-315.30999897728549
 31
0.0
 11
535.35490315358174
 21
-315.22922917910699
 31
0.0
 11
535.26491539151857
 21
-315.13164554001906
 31
0.0
 11
535.20718067223243
 21
-315.01407978745789
 31
0.0
 11
535.18558797024798
 21
-314.87997765473403
 31
0.0
 11
535.19940003158445
 21
-314.73709278613234
 31
0.0
 11
535.24707208414293
 21
-314.58075996682692
 31
0.0
 11
535.3319679919291
 21
-314.40635644445996
 31
0.0
 11
535.45276273204763
 21
-314.21996551355898
 31
0.0
 11
535.59615045659029
 21
-314.03802574897736
 31
0.0
 11
535.76908552248642
 21
-313.84827513272211
 31
0.0
 11
535.97758899770497
 21
-313.64566888670089
 31
0.0
 11
536.21504274345898
 21
-313.437783061429
 31
0.0
 11
536.22736405809428
 21
-313.4275158250241
 31
0.0
  0
SPLINE
  5
25B
100
AcDbEntity
  8
LY_1
  6
CONTINUOUS
 62
     3
100
AcDbSpline
210
0.0
220
0.0
230
1.0
 70
     0
 71
     3
 72
     0
 73
     0
 74
    20
 44
0.000001
 12
-0.7699756909732991
 22
0.638073220963073
 32
0.0
 13
-0.9867096298414594
 23
0.1624934041065368
 33
0.0
 11
552.65295189446806
 21
-313.42605658547149
 31
0.0
 11
552.48708411741882
 21
-313.29207203183631
 31
0.0
 11
552.21488127579505
 21
-313.08647716484307
 31
0.0
 11
551.92074316712205
 21
-312.88026614208979
 31
0.0
 11
551.62615368919978
 21
-312.68725931042474
 31
0.0
 11
551.31629094380378
 21
-312.49646900549141
 31
0.0
 11
550.98381702711686
 21
-312.30387107888055
 31
0.0
 11
550.63997655404273
 21
-312.11634349715149
 31
0.0
 11
550.29547213127125
 21
-311.93928386579273
 31
0.0
 11
549.94487614158788
 21
-311.76939153811804
 31
0.0
 11
549.58087771716509
 21
-311.60345983915505
 31
0.0
 11
549.21537844059003
 21
-311.44717023339007
 31
0.0
 11
548.84756440100455
 21
-311.30022233182331
 31
0.0
 11
548.48302701113289
 21
-311.16483243957367
 31
0.0
 11
548.11464105520281
 21
-311.03867907800378
 31
0.0
 11
547.75443099915492
 21
-310.9261495795518
 31
0.0
 11
547.39772505057499
 21
-310.82604173159115
 31
0.0
 11
547.05406394537022
 21
-310.7412395596196
 31
0.0
 11
546.71698471936134
 21
-310.6705809480207
 31
0.0
 11
546.51893632498513
 21
-310.63558325851187
 31
0.0
  0
SPLINE
  5
25C
100
AcDbEntity
  8
LY_1
  6
CONTINUOUS
 62
     3
100
AcDbSpline
210
0.0
220
0.0
230
1.0
 70
     0
 71
     3
 72
     0
 73
     0
 74
    19
 44
0.000001
 12
0.9866250841607641
 22
0.1630059609485654
 32
0.0
 13
0.7697654456104106
 23
0.6383268431957143
 33
0.0
 11
546.51771241246297
 21
-335.29906952595377
 31
0.0
 11
546.79411627017953
 21
-335.24888315134905
 31
0.0
 11
547.14481372844284
 21
-335.17200599814947
 31
0.0
 11
547.52310063430014
 21
-335.07456091028854
 31
0.0
 11
547.91587937268559
 21
-334.95923792077014
 31
0.0
 11
548.30115172681144
 21
-334.83326054433502
 31
0.0
 11
548.69424719839117
 21
-334.69243303075154
 31
0.0
 11
549.10498364641671
 21
-334.53246207900264
 31
0.0
 11
549.51775570112886
 21
-334.35872528199559
 31
0.0
 11
549.90033889454389
 21
-334.18591604546015
 31
0.0
 11
550.27888263140903
 21
-334.00344586670252
 31
0.0
 11
550.66224666526568
 21
-333.80628618939369
 31
0.0
 11
551.03495871492487
 21
-333.60171910382076
 31
0.0
 11
551.36631320178685
 21
-333.40794868100789
 31
0.0
 11
551.68337745957388
 21
-333.21065658880167
 31
0.0
 11
551.99271621781736
 21
-333.00506172180843
 31
0.0
 11
552.28186255508444
 21
-332.79885069905521
 31
0.0
 11
552.53320840771494
 21
-332.60584386739009
 31
0.0
 11
552.65278680542087
 21
-332.5085335633126
 31
0.0
  0
SPLINE
  5
25D
100
AcDbEntity
  8
LY_1
  6
CONTINUOUS
 62
     3
100
AcDbSpline
210
0.0
220
0.0
230
1.0
 70
     0
 71
     3
 72
     0
 73
     0
 74
    20
 44
0.000001
 12
-0.986874880182063
 22
0.161486751362577
 32
0.0
 13
-0.7693346164877087
 23
0.6388460282992375
 33
0.0
 11
542.36511258830024
 21
-335.29919242092865
 31
0.0
 11
542.33126806441032
 21
-335.29358169481037
 31
0.0
 11
541.98885511719573
 21
-335.22858353425084
 31
0.0
 11
541.63801444391356
 21
-335.14781373607235
 31
0.0
 11
541.27200351830561
 21
-335.05023009698442
 31
0.0
 11
540.88172462204693
 21
-334.93266434442324
 31
0.0
 11
540.4808132631797
 21
-334.79856221169945
 31
0.0
 11
540.09046399355157
 21
-334.65567734309781
 31
0.0
 11
539.69593610610082
 21
-334.49934452379222
 31
0.0
 11
539.28751763837226
 21
-334.32494100142532
 31
0.0
 11
538.88109065480558
 21
-334.13855007052433
 31
0.0
 11
538.50984713722846
 21
-333.95661030594272
 31
0.0
 11
538.14605733948019
 21
-333.76685968968752
 31
0.0
 11
537.78147276937216
 21
-333.56425344366625
 31
0.0
 11
537.43090475570034
 21
-333.35636761839436
 31
0.0
 11
537.12187422643865
 21
-333.1608846758366
 31
0.0
 11
536.82967127680877
 21
-332.96371814282867
 31
0.0
 11
536.54852005777138
 21
-332.76029348068778
 31
0.0
 11
536.2896226647058
 21
-332.55813768943341
 31
0.0
 11
536.22872157618895
 21
-332.50806557546224
 31
0.0
  0
SPLINE
  5
25E
100
AcDbEntity
  8
LY_1
  6
CONTINUOUS
 62
     3
100
AcDbSpline
210
0.0
220
0.0
230
1.0
 70
     0
 71
     3
 72
     0
 73
     0
 74
    55
 44
0.000001
 12
-0.7702256016836586
 22
0.6377715284575238
 32
0.0
 13
-0.9998783474973154
 23
0.0155977628536197
 33
0.0
 11
536.22872157618895
 21
-332.50806557546224
 31
0.0
 11
536.0659919889863
 21
-332.36857360492917
 31
0.0
 11
535.86558873512286
 21
-332.18281523862669
 31
0.0
 11
535.68508699549238
 21
-331.99708966334111
 31
0.0
 11
535.53141316724441
 21
-331.81792259445405
 31
0.0
 11
535.40675854904384
 21
-331.64846272044804
 31
0.0
 11
535.30958876950626
 21
-331.48756493003538
 31
0.0
 11
535.23883211975271
 21
-331.33227713090332
 31
0.0
 11
535.19749452758469
 21
-331.18789895697256
 31
0.0
 11
535.18563667505623
 21
-331.05340451633987
 31
0.0
 11
535.20373134613328
 21
-330.93170233611608
 31
0.0
 11
535.25310278140205
 21
-330.82078759305068
 31
0.0
 11
535.33295705265618
 21
-330.72460828203145
 31
0.0
 11
535.44499958883716
 21
-330.64230027240632
 31
0.0
 11
535.58693621338489
 21
-330.57623049077637
 31
0.0
 11
535.76279581995323
 21
-330.52566885815514
 31
0.0
 11
535.96770603823734
 21
-330.49285024189049
 31
0.0
 11
536.20156288518592
 21
-330.47796744697098
 31
0.0
 11
536.46167139459203
 21
-330.48125707224875
 31
0.0
 11
536.75481540500641
 21
-330.5036388214798
 31
0.0
 11
537.07182111188695
 21
-330.54510268820508
 31
0.0
 11
537.40389680624367
 21
-330.60415438283059
 31
0.0
 11
537.75459426450652
 21
-330.68103153603005
 31
0.0
 11
538.13288117036382
 21
-330.77847662389098
 31
0.0
 11
538.52565990874973
 21
-330.89379961340944
 31
0.0
 11
538.91093226287558
 21
-331.01977698984456
 31
0.0
 11
539.3040277344553
 21
-331.16060450342803
 31
0.0
 11
539.71476418248085
 21
-331.32057545517699
 31
0.0
 11
540.12753623719254
 21
-331.49431225218393
 31
0.0
 11
540.51011943060803
 21
-331.66712148871949
 31
0.0
 11
540.88866316747317
 21
-331.84959166747711
 31
0.0
 11
541.27202720132982
 21
-332.04675134478595
 31
0.0
 11
541.64473925098901
 21
-332.25131843035876
 31
0.0
 11
541.97609373785099
 21
-332.44508885317168
 31
0.0
 11
542.29315799563801
 21
-332.64238094537791
 31
0.0
 11
542.6024967538815
 21
-332.84797581237115
 31
0.0
 11
542.89164309114813
 21
-333.05418683512443
 31
0.0
 11
543.14298894377907
 21
-333.24719366678954
 31
0.0
 11
543.37279190498657
 21
-333.43798397172276
 31
0.0
 11
543.58509669805335
 21
-333.63058189833362
 31
0.0
 11
543.77169305685538
 21
-333.81810948006273
 31
0.0
 11
543.92801602728787
 21
-333.99516911142143
 31
0.0
 11
544.05797413647861
 21
-334.16506143909612
 31
0.0
 11
544.16332685440102
 21
-334.33099313805911
 31
0.0
 11
544.23990528486456
 21
-334.4872827438241
 31
0.0
 11
544.28774519143099
 21
-334.63423064539091
 31
0.0
 11
544.30616898972585
 21
-334.76962053764049
 31
0.0
 11
544.2946179528235
 21
-334.89577389921038
 31
0.0
 11
544.25270662436105
 21
-335.00830339766236
 31
0.0
 11
544.1791637669312
 21
-335.10841124562313
 31
0.0
 11
544.075372418602
 21
-335.19321341759462
 31
0.0
 11
543.93815675258611
 21
-335.26387202919352
 31
0.0
 11
543.77110418399297
 21
-335.31757546927548
 31
0.0
 11
543.51458214698096
 21
-335.36120921779951
 31
0.0
 11
543.2102150681676
 21
-335.37600832696097
 31
0.0
  0
SPLINE
  5
25F
100
AcDbEntity
  8
LY_1
  6
CONTINUOUS
 62
     3
100
AcDbSpline
210
0.0
220
0.0
230
1.0
 70
     0
 71
     3
 72
     0
 73
     0
 74
    20
 44
0.000001
 12
0.7702723655381193
 22
0.6377150483470733
 32
0.0
 13
0.9868063373718894
 23
0.161905072566232
 33
0.0
 11
536.22736405809428
 21
-313.4275158250241
 31
0.0
 11
536.45895142335394
 21
-313.24230011887113
 31
0.0
 11
536.72444985373704
 21
-313.04513358586325
 31
0.0
 11
537.01870163577678
 21
-312.84170892372236
 31
0.0
 11
537.3316181405371
 21
-312.63955313246811
 31
0.0
 11
537.64418470841747
 21
-312.4499890479637
 31
0.0
 11
537.96921391844853
 21
-312.26423068166133
 31
0.0
 11
538.31405189068664
 21
-312.0785051063757
 31
0.0
 11
538.66716651201341
 21
-311.89933803748875
 31
0.0
 11
539.02184276274011
 21
-311.72987816348262
 31
0.0
 11
539.37978531076305
 21
-311.56898037306996
 31
0.0
 11
539.74827267749561
 21
-311.41369257393802
 31
0.0
 11
540.11532035039545
 21
-311.26931440000709
 31
0.0
 11
540.48389082918993
 21
-311.13481995937451
 31
0.0
 11
540.84622989522586
 21
-311.01311777915072
 31
0.0
 11
541.20933259273079
 21
-310.90220303608527
 31
0.0
 11
541.56123777275661
 21
-310.80602372506615
 31
0.0
 11
541.90609512722176
 21
-310.72371571544096
 31
0.0
 11
542.23491543750561
 21
-310.65764593381107
 31
0.0
 11
542.3630325081549
 21
-310.63560004096195
 31
0.0
  0
SPLINE
  5
260
100
AcDbEntity
  8
LY_1
  6
CONTINUOUS
 62
     3
100
AcDbSpline
210
0.0
220
0.0
230
1.0
 70
     0
 71
     3
 72
     0
 73
     0
 74
    41
 44
0.000001
 12
0.9866640293421809
 22
0.1627700623648343
 32
0.0
 13
-0.9999616928106976
 23
-0.0087528801639224
 33
0.0
 11
542.3630325081549
 21
-310.63560004096195
 31
0.0
 11
542.55379268433126
 21
-310.60708430118967
 31
0.0
 11
542.85153299554122
 21
-310.57426568492514
 31
0.0
 11
543.12748702368208
 21
-310.55938289000562
 31
0.0
 11
543.37829056368355
 21
-310.5626725152834
 31
0.0
 11
543.60812599813016
 21
-310.58505426451438
 31
0.0
 11
543.80784782655246
 21
-310.62651813123961
 31
0.0
 11
543.9728910581357
 21
-310.68556982586517
 31
0.0
 11
544.10613531185754
 21
-310.76244697906475
 31
0.0
 11
544.20879095744749
 21
-310.85989206692562
 31
0.0
 11
544.27536935432272
 21
-310.97521505644403
 31
0.0
 11
544.30430457751436
 21
-311.10119243287915
 31
0.0
 11
544.2990581120971
 21
-311.24201994646268
 31
0.0
 11
544.25730387018984
 21
-311.40199089821164
 31
0.0
 11
544.17864743563632
 21
-311.57572769521863
 31
0.0
 11
544.07242581910441
 21
-311.74853693175402
 31
0.0
 11
543.93483799473643
 21
-311.9310071105117
 31
0.0
 11
543.76052004047551
 21
-312.12816678782053
 31
0.0
 11
543.55459765259184
 21
-312.33273387339347
 31
0.0
 11
543.33785692998936
 21
-312.52650429620633
 31
0.0
 11
543.09686465348295
 21
-312.7237963884125
 31
0.0
 11
542.82466181185873
 21
-312.92939125540573
 31
0.0
 11
542.53052370318574
 21
-313.13560227815896
 31
0.0
 11
542.23593422526392
 21
-313.32860910982413
 31
0.0
 11
541.92607147986746
 21
-313.5193994147574
 31
0.0
 11
541.59359756318099
 21
-313.71199734136826
 31
0.0
 11
541.24975709010641
 21
-313.89952492309732
 31
0.0
 11
540.90525266733539
 21
-314.07658455445613
 31
0.0
 11
540.55465667765202
 21
-314.24647688213076
 31
0.0
 11
540.19065825322878
 21
-314.4124085810937
 31
0.0
 11
539.82515897665371
 21
-314.56869818685874
 31
0.0
 11
539.45734493706868
 21
-314.71564608842544
 31
0.0
 11
539.09280754719657
 21
-314.85103598067514
 31
0.0
 11
538.72442159126649
 21
-314.97718934224503
 31
0.0
 11
538.3642115352186
 21
-315.089718840697
 31
0.0
 11
538.00750558663913
 21
-315.18982668865772
 31
0.0
 11
537.66384448143435
 21
-315.27462886062926
 31
0.0
 11
537.32676525542547
 21
-315.34528747222811
 31
0.0
 11
537.00780819174224
 21
-315.39899091231013
 31
0.0
 11
536.62786459126437
 21
-315.44262466083416
 31
0.0
 11
536.2816370431492
 21
-315.45742376999561
 31
0.0
  0
ELLIPSE
  5
261
100
AcDbEntity
  8
LY_1
  6
CONTINUOUS
 62
     3
100
AcDbEllipse
 10
540.111378
 20
-322.967226
 30
0.0
 11
0.0000000000000007
 21
11.350000000000023
 31
0.0
210
0.0
220
0.0
230
1.0
 40
0.816541
 41
0.1095453516266579
 42
3.0329234234782092
  0
ELLIPSE
  5
262
100
AcDbEntity
  8
LY_1
  6
CONTINUOUS
 62
     3
100
AcDbEllipse
 10
547.616118
 20
-322.967226
 30
0.0
 11
0.0000000000000007
 21
11.349999999999982
 31
0.0
210
0.0
220
0.0
230
1.0
 40
0.816541
 41
5.616156414145018
 42
0.0
  0
ELLIPSE
  5
263
100
AcDbEntity
  8
LY_1
  6
CONTINUOUS
 62
     3
100
AcDbEllipse
 10
547.616118
 20
-322.967226
 30
0.0
 11
0.0000000000000007
 21
11.349999999999982
 31
0.0
210
0.0
220
0.0
230
1.0
 40
0.816541
 41
3.8090810097294243
 42
4.4903033020808358
  0
ELLIPSE
  5
264
100
AcDbEntity
  8
LY_1
  6
CONTINUOUS
 62
     3
100
AcDbEllipse
 10
547.616118
 20
-322.967226
 30
0.0
 11
0.0000000000000007
 21
11.349999999999982
 31
0.0
210
0.0
220
0.0
230
1.0
 40
0.816541
 41
0.0
 42
3.8090810097294243
  0
ELLIPSE
  5
265
100
AcDbEntity
  8
LY_1
  6
CONTINUOUS
 62
     3
100
AcDbEllipse
 10
541.265953
 20
-322.967226
 30
0.0
 11
0.0000000000000007
 21
11.349999999999973
 31
0.0
210
0.0
220
0.0
230
1.0
 40
0.816541
 41
0.6671149549816104
 42
2.4741191315660256
  0
ARC
  5
266
100
AcDbEntity
  8
LY_1
  6
CONTINUOUS
 62
     3
100
AcDbCircle
 10
544.440899
 20
-323.372723
 30
0.0
 40
12.905497
100
AcDbArc
 50
89.999395
 51
99.278425
  0
ARC
  5
267
100
AcDbEntity
  8
LY_1
  6
CONTINUOUS
 62
     3
100
AcDbCircle
 10
544.337737
 20
-323.181796
 30
0.0
 40
12.685587
100
AcDbArc
 50
129.743725
 51
133.96764
  0
ARC
  5
268
100
AcDbEntity
  8
LY_1
  6
CONTINUOUS
 62
     3
100
AcDbCircle
 10
544.338175
 20
-322.752171
 30
0.0
 40
12.686241
100
AcDbArc
 50
226.012415
 51
230.270661
  0
ARC
  5
269
100
AcDbEntity
  8
LY_1
  6
CONTINUOUS
 62
     3
100
AcDbCircle
 10
544.441036
 20
-322.560267
 30
0.0
 40
12.906962
100
AcDbArc
 50
260.738786
 51
279.267414
  0
ARC
  5
26A
100
AcDbEntity
  8
LY_1
  6
CONTINUOUS
 62
     3
100
AcDbCircle
 10
544.544219
 20
-322.752532
 30
0.0
 40
12.685757
100
AcDbArc
 50
309.723428
 51
313.98913
  0
ARC
  5
26B
100
AcDbEntity
  8
LY_1
  6
CONTINUOUS
 62
     3
100
AcDbCircle
 10
544.543792
 20
-323.1824
 30
0.0
 40
12.686399
100
AcDbArc
 50
46.039721
 51
50.275512
  0
ARC
  5
26C
100
AcDbEntity
  8
LY_1
  6
CONTINUOUS
 62
     3
100
AcDbCircle
 10
544.441152
 20
-323.372978
 30
0.0
 40
12.905751
100
AcDbArc
 50
80.723013
 51
90.000514
  0
ELLIPSE
  5
26D
100
AcDbEntity
  8
LY_1
  6
CONTINUOUS
 62
     3
100
AcDbEllipse
 10
547.616118
 20
-322.967226
 30
0.0
 11
0.0000000000000007
 21
11.349999999999982
 31
0.0
210
0.0
220
0.0
230
1.0
 40
0.816541
 41
4.9344746297480668
 42
5.616156414145018
  0
LINE
  5
26E
100
AcDbEntity
  8
LY_1
  6
CONTINUOUS
 62
     3
100
AcDbLine
 10
675.224508
 20
-322.342226
 30
0.0
 11
675.509859
 21
-322.342226
 31
0.0
  0
LINE
  5
26F
100
AcDbEntity
  8
LY_1
  6
CONTINUOUS
 62
     3
100
AcDbLine
 10
680.040584
 20
-322.342226
 30
0.0
 11
680.043092
 21
-322.342226
 31
0.0
  0
LINE
  5
270
100
AcDbEntity
  8
LY_1
  6
CONTINUOUS
 62
     3
100
AcDbLine
 10
675.509859
 20
-323.592226
 30
0.0
 11
675.224508
 21
-323.592226
 31
0.0
  0
LINE
  5
271
100
AcDbEntity
  8
LY_1
  6
CONTINUOUS
 62
     3
100
AcDbLine
 10
680.043092
 20
-323.592226
 30
0.0
 11
680.040584
 21
-323.592226
 31
0.0
  0
LINE
  5
272
100
AcDbEntity
  8
LY_1
  6
CONTINUOUS
 62
     3
100
AcDbLine
 10
676.007455
 20
-326.431328
 30
0.0
 11
677.6338
 21
-326.431328
 31
0.0
  0
LINE
  5
273
100
AcDbEntity
  8
LY_1
  6
CONTINUOUS
 62
     3
100
AcDbLine
 10
677.6338
 20
-319.503125
 30
0.0
 11
676.007455
 21
-319.503125
 31
0.0
  0
LINE
  5
274
100
AcDbEntity
  8
LY_1
  6
CONTINUOUS
 62
     3
100
AcDbLine
 10
674.30527
 20
-323.592226
 30
0.0
 11
675.224508
 21
-323.592226
 31
0.0
  0
LINE
  5
275
100
AcDbEntity
  8
LY_1
  6
CONTINUOUS
 62
     3
100
AcDbLine
 10
674.30527
 20
-322.342226
 30
0.0
 11
675.224508
 21
-322.342226
 31
0.0
  0
LINE
  5
276
100
AcDbEntity
  8
LY_1
  6
CONTINUOUS
 62
     3
100
AcDbLine
 10
675.509859
 20
-323.592226
 30
0.0
 11
680.040584
 21
-323.592226
 31
0.0
  0
LINE
  5
277
100
AcDbEntity
  8
LY_1
  6
CONTINUOUS
 62
     3
100
AcDbLine
 10
680.040584
 20
-322.342226
 30
0.0
 11
675.509859
 21
-322.342226
 31
0.0
  0
LINE
  5
278
100
AcDbEntity
  8
LY_1
  6
CONTINUOUS
 62
     3
100
AcDbLine
 10
677.421668
 20
-318.467226
 30
0.0
 11
677.421668
 21
-319.503125
 31
0.0
  0
LINE
  5
279
100
AcDbEntity
  8
LY_1
  6
CONTINUOUS
 62
     3
100
AcDbLine
 10
677.421668
 20
-326.431328
 30
0.0
 11
677.421668
 21
-327.467226
 31
0.0
  0
LINE
  5
27A
100
AcDbEntity
  8
LY_1
  6
CONTINUOUS
 62
     3
100
AcDbLine
 10
677.421668
 20
-327.467226
 30
0.0
 11
671.057707
 21
-327.467226
 31
0.0
  0
LINE
  5
27B
100
AcDbEntity
  8
LY_1
  6
CONTINUOUS
 62
     3
100
AcDbLine
 10
671.057707
 20
-327.467226
 30
0.0
 11
671.057707
 21
-318.467226
 31
0.0
  0
LINE
  5
27C
100
AcDbEntity
  8
LY_1
  6
CONTINUOUS
 62
     3
100
AcDbLine
 10
671.057707
 20
-318.467226
 30
0.0
 11
677.421668
 21
-318.467226
 31
0.0
  0
LINE
  5
27D
100
AcDbEntity
  8
LY_1
  6
CONTINUOUS
 62
     3
100
AcDbLine
 10
656.208465
 20
-327.467226
 30
0.0
 11
656.208465
 21
-318.467226
 31
0.0
  0
LINE
  5
27E
100
AcDbEntity
  8
LY_1
  6
CONTINUOUS
 62
     3
100
AcDbLine
 10
656.208465
 20
-327.467226
 30
0.0
 11
671.057707
 21
-327.467226
 31
0.0
  0
LINE
  5
27F
100
AcDbEntity
  8
LY_1
  6
CONTINUOUS
 62
     3
100
AcDbLine
 10
656.208465
 20
-318.467226
 30
0.0
 11
671.057707
 21
-318.467226
 31
0.0
  0
ELLIPSE
  5
280
100
AcDbEntity
  8
LY_1
  6
CONTINUOUS
 62
     3
100
AcDbEllipse
 10
677.775222
 20
-322.967226
 30
0.0
 11
-0.0000000000000005
 21
3.2641016151374056
 31
0.0
210
0.0
220
0.0
230
1.0
 40
0.707107
 41
4.9050556304712609
 42
1.3781296767083244
  0
ELLIPSE
  5
281
100
AcDbEntity
  8
LY_1
  6
CONTINUOUS
 62
     3
100
AcDbEllipse
 10
677.6338
 20
-322.967226
 30
0.0
 11
-0.0000000000000006
 21
3.4641016151376784
 31
0.0
210
0.0
220
0.0
230
1.0
 40
0.707107
 41
0.0
 42
1.3893808931139882
  0
ELLIPSE
  5
282
100
AcDbEntity
  8
LY_1
  6
CONTINUOUS
 62
     3
100
AcDbEllipse
 10
677.775222
 20
-322.967226
 30
0.0
 11
-0.0000000000000005
 21
3.2641016151374056
 31
0.0
210
0.0
220
0.0
230
1.0
 40
0.707107
 41
1.763462976881468
 42
4.5197223302981175
  0
ELLIPSE
  5
283
100
AcDbEntity
  8
LY_1
  6
CONTINUOUS
 62
     3
100
AcDbEllipse
 10
677.6338
 20
-322.967226
 30
0.0
 11
-0.0000000000000006
 21
3.4641016151376784
 31
0.0
210
0.0
220
0.0
230
1.0
 40
0.707107
 41
3.1415926535897931
 42
4.5309735467037813
  0
ELLIPSE
  5
284
100
AcDbEntity
  8
LY_1
  6
CONTINUOUS
 62
     3
100
AcDbEllipse
 10
676.007455
 20
-322.967226
 30
0.0
 11
-0.0000000000000006
 21
3.4641016151376784
 31
0.0
210
0.0
220
0.0
230
1.0
 40
0.707107
 41
0.0
 42
3.1415926535897931
  0
ELLIPSE
  5
285
100
AcDbEntity
  8
LY_1
  6
CONTINUOUS
 62
     3
100
AcDbEllipse
 10
677.6338
 20
-322.967226
 30
0.0
 11
-0.0000000000000006
 21
3.4641016151376784
 31
0.0
210
0.0
220
0.0
230
1.0
 40
0.707107
 41
1.7522117604758034
 42
3.1415926535897931
  0
ELLIPSE
  5
286
100
AcDbEntity
  8
LY_1
  6
CONTINUOUS
 62
     3
100
AcDbEllipse
 10
677.6338
 20
-322.967226
 30
0.0
 11
-0.0000000000000006
 21
3.4641016151376784
 31
0.0
210
0.0
220
0.0
230
1.0
 40
0.707107
 41
4.8938044140655972
 42
0.0
  0
ELLIPSE
  5
287
100
AcDbEntity
  8
LY_1
  6
CONTINUOUS
 62
     3
100
AcDbEllipse
 10
676.714561
 20
-322.967226
 30
0.0
 11
-0.0000000000000006
 21
-3.4641016151376784
 31
0.0
210
0.0
220
0.0
230
1.0
 40
0.707107
 41
1.3893808931139884
 42
1.7522117604758047
  0
ELLIPSE
  5
288
100
AcDbEntity
  8
LY_1
  6
CONTINUOUS
 62
     3
100
AcDbEllipse
 10
676.714561
 20
-322.967226
 30
0.0
 11
-0.0000000000000006
 21
-3.4641016151376784
 31
0.0
210
0.0
220
0.0
230
1.0
 40
0.707107
 41
4.5309735467037813
 42
4.8938044140655963
  0
ELLIPSE
  5
289
100
AcDbEntity
  8
LY_1
  6
CONTINUOUS
 62
     3
100
AcDbEllipse
 10
674.239688
 20
-322.967226
 30
0.0
 11
-0.0000000000000004
 21
-2.0
 31
0.0
210
0.0
220
0.0
230
1.0
 40
0.707107
 41
3.3174984217534451
 42
6.1072795390159289
  0
LINE
  5
28A
100
AcDbEntity
  8
LY_1
  6
CONTINUOUS
 62
     3
100
AcDbLine
 10
544.457707
 20
-345.468482
 30
0.0
 11
544.457707
 21
-338.968482
 31
0.0
  0
LINE
  5
28B
100
AcDbEntity
  8
LY_1
  6
CONTINUOUS
 62
     3
100
AcDbLine
 10
505.683591
 20
-345.468482
 30
0.0
 11
505.683591
 21
-338.968482
 31
0.0
  0
LINE
  5
28C
100
AcDbEntity
  8
LY_1
  6
CONTINUOUS
 62
     3
100
AcDbLine
 10
543.057707
 20
-347.393482
 30
0.0
 11
500.057707
 21
-347.393482
 31
0.0
  0
LINE
  5
28D
100
AcDbEntity
  8
LY_1
  6
CONTINUOUS
 62
     3
100
AcDbLine
 10
500.057707
 20
-347.393482
 30
0.0
 11
500.057707
 21
-346.043482
 31
0.0
  0
LINE
  5
28E
100
AcDbEntity
  8
LY_1
  6
CONTINUOUS
 62
     3
100
AcDbLine
 10
500.057707
 20
-347.393482
 30
0.0
 11
500.474374
 21
-348.643482
 31
0.0
  0
LINE
  5
28F
100
AcDbEntity
  8
LY_1
  6
CONTINUOUS
 62
     3
100
AcDbLine
 10
498.657707
 20
-345.468482
 30
0.0
 11
498.657707
 21
-338.968482
 31
0.0
  0
LINE
  5
290
100
AcDbEntity
  8
LY_1
  6
CONTINUOUS
 62
     3
100
AcDbLine
 10
498.657707
 20
-345.468482
 30
0.0
 11
499.326705
 21
-346.043482
 31
0.0
  0
ARC
  5
291
100
AcDbEntity
  8
LY_1
  6
CONTINUOUS
 62
     3
100
AcDbCircle
 10
502.170649
 20
-335.024885
 30
0.0
 40
11.018597
100
AcDbArc
 50
251.408461
 51
288.591539
  0
LINE
  5
292
100
AcDbEntity
  8
LY_1
  6
CONTINUOUS
 62
     3
100
AcDbLine
 10
505.683591
 20
-345.468482
 30
0.0
 11
515.200821
 21
-345.468482
 31
0.0
  0
LINE
  5
293
100
AcDbEntity
  8
LY_1
  6
CONTINUOUS
 62
     3
100
AcDbLine
 10
543.788709
 20
-345.670141
 30
0.0
 11
543.788709
 21
-338.766824
 31
0.0
  0
LINE
  5
294
100
AcDbEntity
  8
LY_1
  6
CONTINUOUS
 62
     3
100
AcDbLine
 10
527.914593
 20
-345.468482
 30
0.0
 11
527.914593
 21
-338.968482
 31
0.0
  0
LINE
  5
295
100
AcDbEntity
  8
LY_1
  6
CONTINUOUS
 62
     3
100
AcDbLine
 10
537.431823
 20
-345.468482
 30
0.0
 11
527.914593
 21
-345.468482
 31
0.0
  0
LINE
  5
296
100
AcDbEntity
  8
LY_1
  6
CONTINUOUS
 62
     3
100
AcDbLine
 10
543.788709
 20
-346.043482
 30
0.0
 11
499.326705
 21
-346.043482
 31
0.0
  0
LINE
  5
297
100
AcDbEntity
  8
LY_1
  6
CONTINUOUS
 62
     3
100
AcDbLine
 10
543.057707
 20
-347.393482
 30
0.0
 11
542.641041
 21
-348.643482
 31
0.0
  0
LINE
  5
298
100
AcDbEntity
  8
LY_1
  6
CONTINUOUS
 62
     3
100
AcDbLine
 10
543.057707
 20
-347.393482
 30
0.0
 11
543.057707
 21
-346.043482
 31
0.0
  0
ARC
  5
299
100
AcDbEntity
  8
LY_1
  6
CONTINUOUS
 62
     3
100
AcDbCircle
 10
521.557707
 20
-310.616852
 30
0.0
 40
35.42663
100
AcDbArc
 50
259.66297
 51
280.33703
  0
LINE
  5
29A
100
AcDbEntity
  8
LY_1
  6
CONTINUOUS
 62
     3
100
AcDbLine
 10
499.326705
 20
-345.670141
 30
0.0
 11
499.326705
 21
-338.766824
 31
0.0
  0
LINE
  5
29B
100
AcDbEntity
  8
LY_1
  6
CONTINUOUS
 62
     3
100
AcDbLine
 10
515.200821
 20
-345.468482
 30
0.0
 11
515.200821
 21
-338.968482
 31
0.0
  0
LINE
  5
29C
100
AcDbEntity
  8
LY_1
  6
CONTINUOUS
 62
     3
100
AcDbLine
 10
498.657707
 20
-338.968482
 30
0.0
 11
499.326705
 21
-338.393482
 31
0.0
  0
ARC
  5
29D
100
AcDbEntity
  8
LY_1
  6
CONTINUOUS
 62
     3
100
AcDbCircle
 10
502.170649
 20
-349.41208
 30
0.0
 40
11.018597
100
AcDbArc
 50
71.408461
 51
108.591539
  0
ARC
  5
29E
100
AcDbEntity
  8
LY_1
  6
CONTINUOUS
 62
     3
100
AcDbCircle
 10
521.557707
 20
-373.820113
 30
0.0
 40
35.42663
100
AcDbArc
 50
79.66297
 51
100.33703
  0
LINE
  5
29F
100
AcDbEntity
  8
LY_1
  6
CONTINUOUS
 62
     3
100
AcDbLine
 10
505.683591
 20
-338.968482
 30
0.0
 11
515.200821
 21
-338.968482
 31
0.0
  0
LINE
  5
2A0
100
AcDbEntity
  8
LY_1
  6
CONTINUOUS
 62
     3
100
AcDbLine
 10
537.431823
 20
-345.468482
 30
0.0
 11
537.431823
 21
-338.968482
 31
0.0
  0
LINE
  5
2A1
100
AcDbEntity
  8
LY_1
  6
CONTINUOUS
 62
     3
100
AcDbLine
 10
537.431823
 20
-338.968482
 30
0.0
 11
527.914593
 21
-338.968482
 31
0.0
  0
LINE
  5
2A2
100
AcDbEntity
  8
LY_1
  6
CONTINUOUS
 62
     3
100
AcDbLine
 10
542.641041
 20
-348.643482
 30
0.0
 11
500.474374
 21
-348.643482
 31
0.0
  0
LINE
  5
2A3
100
AcDbEntity
  8
LY_1
  6
CONTINUOUS
 62
     3
100
AcDbLine
 10
544.457707
 20
-338.968482
 30
0.0
 11
543.788709
 21
-338.393482
 31
0.0
  0
ARC
  5
2A4
100
AcDbEntity
  8
LY_1
  6
CONTINUOUS
 62
     3
100
AcDbCircle
 10
540.944765
 20
-349.41208
 30
0.0
 40
11.018597
100
AcDbArc
 50
71.408461
 51
108.591539
  0
ARC
  5
2A5
100
AcDbEntity
  8
LY_1
  6
CONTINUOUS
 62
     3
100
AcDbCircle
 10
540.944765
 20
-335.024885
 30
0.0
 40
11.018597
100
AcDbArc
 50
251.408461
 51
288.591539
  0
LINE
  5
2A6
100
AcDbEntity
  8
LY_1
  6
CONTINUOUS
 62
     3
100
AcDbLine
 10
544.457707
 20
-345.468482
 30
0.0
 11
543.788709
 21
-346.043482
 31
0.0
  0
LINE
  5
2A7
100
AcDbEntity
  8
LY_1
  6
CONTINUOUS
 62
     3
100
AcDbLine
 10
671.057707
 20
-203.367226
 30
0.0
 11
671.057707
 21
-318.467226
 31
0.0
  0
LINE
  5
2A8
100
AcDbEntity
  8
LY_1
  6
CONTINUOUS
 62
     3
100
AcDbLine
 10
666.057707
 20
-203.367226
 30
0.0
 11
666.057707
 21
-318.467226
 31
0.0
  0
LINE
  5
2A9
100
AcDbEntity
  8
LY_1
  6
CONTINUOUS
 62
     3
100
AcDbLine
 10
543.557707
 20
-310.497483
 30
0.0
 11
543.557707
 21
-296.467226
 31
0.0
  0
LINE
  5
2AA
100
AcDbEntity
  8
LY_1
  6
CONTINUOUS
 62
     3
100
AcDbLine
 10
499.557707
 20
-296.467226
 30
0.0
 11
499.557707
 21
-333.467226
 31
0.0
  0
LINE
  5
2AB
100
AcDbEntity
  8
LY_1
  6
CENTER
 62
   110
100
AcDbLine
 10
668.557707
 20
-59.467226
 30
0.0
 11
668.557707
 21
-458.38995
 31
0.0
  0
DIMENSION
  5
2B8
100
AcDbEntity
  8
LY_1
  6
CONTINUOUS
 62
   143
100
AcDbDimension
  2
*D9
 10
-507.879192
 20
-322.867226
 30
0.0
 11
-507.879192
 21
-409.117226
 31
0.0
 70
   128
  1
\A1;(<>)
  3
MXDIMSTYLE
100
AcDbAlignedDimension
 13
-421.233462
 23
-495.367226
 33
0.0
 14
-405.358462
 24
-322.867226
 34
0.0
 50
90.0
100
AcDbRotatedDimension
1001
ACAD
1000
DSTYLE
1002
{
1070
    41
1040
2.77
1070
   271
1070
     1
1070
   284
1070
     8
1070
   340
1005
124
1002
}
  0
LINE
  5
2B9
100
AcDbEntity
  8
LY_1
  6
CONTINUOUS
 62
     3
100
AcDbLine
 10
-202.85846
 20
-447.267226
 30
0.0
 11
-207.85846
 21
-447.267226
 31
0.0
  0
LINE
  5
2BA
100
AcDbEntity
  8
LY_1
  6
CONTINUOUS
 62
     3
100
AcDbLine
 10
-215.35846
 20
-95.767226
 30
0.0
 11
-227.777899
 21
-102.074659
 31
0.0
  0
LINE
  5
2BB
100
AcDbEntity
  8
LY_1
  6
CONTINUOUS
 62
     3
100
AcDbLine
 10
-227.65846
 20
-102.0675
 30
0.0
 11
-205.35846
 21
-102.0675
 31
0.0
  0
LINE
  5
2BC
100
AcDbEntity
  8
LY_1
  6
CONTINUOUS
 62
     3
100
AcDbLine
 10
-182.05846
 20
-103.0675
 30
0.0
 11
-182.05846
 21
-110.367226
 31
0.0
  0
LINE
  5
2BD
100
AcDbEntity
  8
LY_1
  6
CONTINUOUS
 62
     3
100
AcDbLine
 10
-197.157983
 20
-76.054843
 30
0.0
 11
-205.35846
 21
-76.054843
 31
0.0
  0
LINE
  5
2BE
100
AcDbEntity
  8
LY_1
  6
CONTINUOUS
 62
     3
100
AcDbLine
 10
-213.558937
 20
-76.054843
 30
0.0
 11
-205.35846
 21
-76.054843
 31
0.0
  0
ARC
  5
2BF
100
AcDbEntity
  8
LY_1
  6
CONTINUOUS
 62
     3
100
AcDbCircle
 10
-197.415716
 20
-76.120049
 30
0.0
 40
0.5
100
AcDbArc
 50
351.635005
 51
73.483334
  0
ARC
  5
2C0
100
AcDbEntity
  8
LY_1
  6
CONTINUOUS
 62
     3
100
AcDbCircle
 10
-213.301203
 20
-76.120049
 30
0.0
 40
0.5
100
AcDbArc
 50
106.516666
 51
188.364995
  0
ARC
  5
2C1
100
AcDbEntity
  8
LY_1
  6
CONTINUOUS
 62
     3
100
AcDbCircle
 10
-205.35846
 20
-102.905688
 30
0.0
 40
28.438462
100
AcDbArc
 50
73.483334
 51
106.516666
  0
LINE
  5
2C2
100
AcDbEntity
  8
LY_1
  6
CONTINUOUS
 62
     3
100
AcDbLine
 10
-213.795884
 20
-76.192788
 30
0.0
 11
-210.917601
 21
-95.767226
 31
0.0
  0
LINE
  5
2C3
100
AcDbEntity
  8
LY_1
  6
CONTINUOUS
 62
     3
100
AcDbLine
 10
-196.921036
 20
-76.192788
 30
0.0
 11
-199.799318
 21
-95.767226
 31
0.0
  0
LINE
  5
2C4
100
AcDbEntity
  8
LY_1
  6
CONTINUOUS
 62
     3
100
AcDbLine
 10
-195.35846
 20
-95.767226
 30
0.0
 11
-182.93902
 21
-102.074659
 31
0.0
  0
ARC
  5
2C5
100
AcDbEntity
  8
LY_1
  6
CONTINUOUS
 62
     3
100
AcDbCircle
 10
-183.05846
 20
-103.0675
 30
0.0
 40
1.0
100
AcDbArc
 50
0.0
 51
83.14024
  0
LINE
  5
2C6
100
AcDbEntity
  8
LY_1
  6
CONTINUOUS
 62
     3
100
AcDbLine
 10
-183.05846
 20
-102.0675
 30
0.0
 11
-205.35846
 21
-102.0675
 31
0.0
  0
LINE
  5
2C7
100
AcDbEntity
  8
LY_1
  6
CONTINUOUS
 62
     3
100
AcDbLine
 10
-195.35846
 20
-95.767226
 30
0.0
 11
-205.35846
 21
-95.767226
 31
0.0
  0
LINE
  5
2C8
100
AcDbEntity
  8
LY_1
  6
CONTINUOUS
 62
     3
100
AcDbLine
 10
-215.35846
 20
-95.767226
 30
0.0
 11
-205.35846
 21
-95.767226
 31
0.0
  0
LINE
  5
2C9
100
AcDbEntity
  8
LY_1
  6
CONTINUOUS
 62
     3
100
AcDbLine
 10
-228.65846
 20
-103.0675
 30
0.0
 11
-228.65846
 21
-110.367226
 31
0.0
  0
ARC
  5
2CA
100
AcDbEntity
  8
LY_1
  6
CONTINUOUS
 62
     3
100
AcDbCircle
 10
-227.65846
 20
-103.0675
 30
0.0
 40
1.0
100
AcDbArc
 50
96.85976
 51
180.0
  0
ELLIPSE
  5
2CB
100
AcDbEntity
  8
LY_1
  6
CONTINUOUS
 62
     3
100
AcDbEllipse
 10
-171.68687
 20
-322.867226
 30
0.0
 11
0.0000000000000002
 21
2.5
 31
0.0
210
0.0
220
0.0
230
1.0
 40
0.592237
 41
3.1415926535897931
 42
0.0
  0
LINE
  5
2CC
100
AcDbEntity
  8
LY_1
  6
CONTINUOUS
 62
     3
100
AcDbLine
 10
-171.68687
 20
-320.367226
 30
0.0
 11
-198.461345
 21
-320.367226
 31
0.0
  0
LINE
  5
2CD
100
AcDbEntity
  8
LY_1
  6
CONTINUOUS
 62
     3
100
AcDbLine
 10
-171.68687
 20
-325.367226
 30
0.0
 11
-198.461345
 21
-325.367226
 31
0.0
  0
ELLIPSE
  5
2CE
100
AcDbEntity
  8
LY_1
  6
CONTINUOUS
 62
     3
100
AcDbEllipse
 10
-221.65602
 20
-322.867226
 30
0.0
 11
0.0000000000000003
 21
4.5
 31
0.0
210
0.0
220
0.0
230
1.0
 40
0.5
 41
2.1598272970111707
 42
3.1415926535897931
  0
LINE
  5
2CF
100
AcDbEntity
  8
LY_1
  6
CONTINUOUS
 62
     3
100
AcDbLine
 10
-221.65602
 20
-318.367226
 30
0.0
 11
-198.461345
 21
-318.367226
 31
0.0
  0
LINE
  5
2D0
100
AcDbEntity
  8
LY_1
  6
CONTINUOUS
 62
     3
100
AcDbLine
 10
-221.65602
 20
-327.367226
 30
0.0
 11
-198.461345
 21
-327.367226
 31
0.0
  0
ELLIPSE
  5
2D1
100
AcDbEntity
  8
LY_1
  6
CONTINUOUS
 62
     3
100
AcDbEllipse
 10
-221.65602
 20
-322.867226
 30
0.0
 11
0.0000000000000003
 21
4.5
 31
0.0
210
0.0
220
0.0
230
1.0
 40
0.5
 41
0.0
 42
0.9817653565786227
  0
LINE
  5
2D2
100
AcDbEntity
  8
LY_1
  6
CONTINUOUS
 62
     3
100
AcDbLine
 10
-215.755574
 20
-327.367226
 30
0.0
 11
-215.755574
 21
-318.367226
 31
0.0
  0
LINE
  5
2D3
100
AcDbEntity
  8
LY_1
  6
CONTINUOUS
 62
     3
100
AcDbLine
 10
-207.961345
 20
-327.367226
 30
0.0
 11
-207.961345
 21
-318.367226
 31
0.0
  0
LINE
  5
2D4
100
AcDbEntity
  8
LY_1
  6
CONTINUOUS
 62
     3
100
AcDbLine
 10
-198.461345
 20
-318.367226
 30
0.0
 11
-198.461345
 21
-327.367226
 31
0.0
  0
LINE
  5
2D5
100
AcDbEntity
  8
LY_1
  6
CONTINUOUS
 62
     3
100
AcDbLine
 10
-205.461345
 20
-318.867226
 30
0.0
 11
-203.729295
 21
-318.867226
 31
0.0
  0
LINE
  5
2D6
100
AcDbEntity
  8
LY_1
  6
CONTINUOUS
 62
     3
100
AcDbLine
 10
-205.461345
 20
-326.867226
 30
0.0
 11
-203.729295
 21
-326.867226
 31
0.0
  0
ELLIPSE
  5
2D7
100
AcDbEntity
  8
LY_1
  6
CONTINUOUS
 62
     3
100
AcDbEllipse
 10
-203.729295
 20
-322.867226
 30
0.0
 11
0.0000000000000002
 21
4.0
 31
0.0
210
0.0
220
0.0
230
1.0
 40
0.5
 41
1.696124157962962
 42
4.5870611492166242
  0
ELLIPSE
  5
2D8
100
AcDbEntity
  8
LY_1
  6
CONTINUOUS
 62
     3
100
AcDbEllipse
 10
-205.461345
 20
-322.867226
 30
0.0
 11
0.0000000000000002
 21
4.0
 31
0.0
210
0.0
220
0.0
230
1.0
 40
0.5
 41
0.0
 42
3.1415926535897931
  0
LINE
  5
2D9
100
AcDbEntity
  8
LY_1
  6
CONTINUOUS
 62
     3
100
AcDbLine
 10
-206.229295
 20
-322.367226
 30
0.0
 11
-201.744981
 21
-322.367226
 31
0.0
  0
LINE
  5
2DA
100
AcDbEntity
  8
LY_1
  6
CONTINUOUS
 62
     3
100
AcDbLine
 10
-206.229295
 20
-323.367226
 30
0.0
 11
-201.744981
 21
-323.367226
 31
0.0
  0
LINE
  5
2DB
100
AcDbEntity
  8
LY_1
  6
CONTINUOUS
 62
     3
100
AcDbLine
 10
-206.229295
 20
-323.367226
 30
0.0
 11
-206.229295
 21
-322.367226
 31
0.0
  0
LINE
  5
2DC
100
AcDbEntity
  8
LY_1
  6
CONTINUOUS
 62
     3
100
AcDbLine
 10
-202.229295
 20
-323.367226
 30
0.0
 11
-202.229295
 21
-322.367226
 31
0.0
  0
ELLIPSE
  5
2DD
100
AcDbEntity
  8
LY_1
  6
CONTINUOUS
 62
     3
100
AcDbEllipse
 10
-203.729295
 20
-322.867226
 30
0.0
 11
0.0000000000000002
 21
4.0
 31
0.0
210
0.0
220
0.0
230
1.0
 40
0.5
 41
4.8377168115527551
 42
1.4454684956268311
  0
ELLIPSE
  5
2DE
100
AcDbEntity
  8
LY_1
  6
CONTINUOUS
 62
     3
100
AcDbEllipse
 10
-219.705797
 20
-322.867226
 30
0.0
 11
0.0000000000000002
 21
2.9999999999999996
 31
0.0
210
0.0
220
0.0
230
1.0
 40
0.866025
 41
2.5559071101326443
 42
0.5856855434571493
  0
ELLIPSE
  5
2DF
100
AcDbEntity
  8
LY_1
  6
CONTINUOUS
 62
     3
100
AcDbEllipse
 10
-211.85846
 20
-322.867226
 30
0.0
 11
0.0000000000000002
 21
4.0
 31
0.0
210
0.0
220
0.0
230
1.0
 40
0.866025
 41
0.0
 42
6.2831853071795862
  0
LINE
  5
2E0
100
AcDbEntity
  8
LY_1
  6
CENTER
 62
   110
100
AcDbLine
 10
-205.35846
 20
-458.28995
 30
0.0
 11
-205.35846
 21
-65.602198
 31
0.0
  0
LINE
  5
2E1
100
AcDbEntity
  8
LY_1
  6
CONTINUOUS
 62
     3
100
AcDbLine
 10
-207.85846
 20
-236.131451
 30
0.0
 11
-207.85846
 21
-318.367226
 31
0.0
  0
LINE
  5
2E2
100
AcDbEntity
  8
LY_1
  6
CONTINUOUS
 62
     3
100
AcDbLine
 10
-202.85846
 20
-235.648333
 30
0.0
 11
-202.85846
 21
-318.367226
 31
0.0
  0
LINE
  5
2E3
100
AcDbEntity
  8
LY_1
  6
CONTINUOUS
 62
     3
100
AcDbLine
 10
-202.85846
 20
-327.367226
 30
0.0
 11
-202.85846
 21
-447.267226
 31
0.0
  0
LINE
  5
2E4
100
AcDbEntity
  8
LY_1
  6
CONTINUOUS
 62
     3
100
AcDbLine
 10
-207.85846
 20
-327.367226
 30
0.0
 11
-207.85846
 21
-447.267226
 31
0.0
  0
LINE
  5
2E5
100
AcDbEntity
  8
LY_1
  6
CENTER
 62
   110
100
AcDbLine
 10
-165.055594
 20
-322.867226
 30
0.0
 11
-405.35846
 21
-322.867226
 31
0.0
  0
ELLIPSE
  5
2E6
100
AcDbEntity
  8
LY_1
  6
CONTINUOUS
 62
     3
100
AcDbEllipse
 10
-378.365362
 20
-322.867226
 30
0.0
 11
0.0000000000000006
 21
10.499999999999998
 31
0.0
210
0.0
220
0.0
230
1.0
 40
0.592237
 41
3.1415926535897931
 42
0.0
  0
SPLINE
  5
2E7
100
AcDbEntity
  8
LY_1
  6
CONTINUOUS
 62
     3
100
AcDbSpline
210
0.0
220
0.0
230
1.0
 70
     0
 71
     3
 72
     0
 73
     0
 74
     6
 44
0.000001
 12
0.9999942206483274
 22
-0.003399804397946
 32
0.0
 13
0.9772994997139252
 23
-0.2118624267276091
 33
0.0
 11
-372.85549008330185
 21
-310.45844460230279
 31
0.0
 11
-372.53436366443111
 21
-310.46740113931531
 31
0.0
 11
-372.19105740744317
 21
-310.49446743660729
 31
0.0
 11
-371.82210662469561
 21
-310.54065473132056
 31
0.0
 11
-371.43430451937547
 21
-310.60586940682214
 31
0.0
 11
-371.15694714410978
 21
-310.6619932974902
 31
0.0
  0
SPLINE
  5
2E8
100
AcDbEntity
  8
LY_1
  6
CONTINUOUS
 62
     3
100
AcDbSpline
210
0.0
220
0.0
230
1.0
 70
     1
 71
     3
 72
     0
 73
     0
 74
    73
 44
0.000001
 12
0.9999999990674831
 22
0.0000431860391461
 32
0.0
 13
0.9999999990674831
 23
0.000043186039146
 33
0.0
 11
-365.78962609357222
 21
-317.96824700304063
 31
0.0
 11
-365.47946914537988
 21
-317.98616007706568
 31
0.0
 11
-365.16931219718799
 21
-318.04029267164964
 31
0.0
 11
-364.85692906676422
 21
-318.13266726107616
 31
0.0
 11
-364.5489983008037
 21
-318.26309661207932
 31
0.0
 11
-364.26017189060849
 21
-318.42398322303205
 31
0.0
 11
-363.97786077560562
 21
-318.6213922288037
 31
0.0
 11
-363.70654735592552
 21
-318.85393106934811
 31
0.0
 11
-363.44677138820362
 21
-319.12313932577825
 31
0.0
 11
-363.21528022464867
 21
-319.41010545476973
 31
0.0
 11
-363.0021197325118
 21
-319.72417446953773
 31
0.0
 11
-362.80635181742213
 21
-320.06885640242649
 31
0.0
 11
-362.63066733144842
 21
-320.44316370920507
 31
0.0
 11
-362.49106812395348
 21
-320.80711312803612
 31
0.0
 11
-362.37279034180301
 21
-321.19196436053699
 31
0.0
 11
-362.27895439898015
 21
-321.59004804072322
 31
0.0
 11
-362.20936704914897
 21
-322.00752873193727
 31
0.0
 11
-362.16945566842242
 21
-322.39855747375037
 31
0.0
 11
-362.15308890635924
 21
-322.79884689456856
 31
0.0
 11
-362.16112381460238
 21
-323.19964348229666
 31
0.0
 11
-362.19423571257443
 21
-323.60398870835252
 31
0.0
 11
-362.24869039202349
 21
-323.98316508878673
 31
0.0
 11
-362.32628415330458
 21
-324.3598154822019
 31
0.0
 11
-362.4256559295286
 21
-324.72609868045834
 31
0.0
 11
-362.54782046497712
 21
-325.08441900637473
 31
0.0
 11
-362.68869144850669
 21
-325.42338026460192
 31
0.0
 11
-362.85068733149092
 21
-325.74931946378138
 31
0.0
 11
-363.03073790481903
 21
-326.05573981799887
 31
0.0
 11
-363.23022137950511
 21
-326.3444663733834
 31
0.0
 11
-363.44869446445995
 21
-326.61349713564425
 31
0.0
 11
-363.80970840573531
 21
-326.9741653201184
 31
0.0
 11
-364.19871988256358
 21
-327.27104779094401
 31
0.0
 11
-364.47951765187463
 21
-327.43617210987787
 31
0.0
 11
-364.76885358591289
 21
-327.56859490098049
 31
0.0
 11
-365.06880935683142
 21
-327.66867132703476
 31
0.0
 11
-365.37769172691873
 21
-327.73456390348775
 31
0.0
 11
-365.68885742150451
 21
-327.7643181703416
 31
0.0
 11
-366.00282209146275
 21
-327.75775024293608
 31
0.0
 11
-366.32196842879148
 21
-327.71324854900598
 31
0.0
 11
-366.63957902886835
 21
-327.63005899978322
 31
0.0
 11
-366.94297722626015
 21
-327.51246534637897
 31
0.0
 11
-367.24041866801821
 21
-327.35820128224617
 31
0.0
 11
-367.53386168658199
 21
-327.1641679383909
 31
0.0
 11
-367.81629471727177
 21
-326.93266509422796
 31
0.0
 11
-368.06908220423975
 21
-326.68171693974114
 31
0.0
 11
-368.30931425690824
 21
-326.39671318916015
 31
0.0
 11
-368.53261920376735
 21
-326.08051425854728
 31
0.0
 11
-368.73810973741638
 21
-325.73163972442359
 31
0.0
 11
-368.90800231678259
 21
-325.38458925251041
 31
0.0
 11
-369.05603075649697
 21
-325.01807139933277
 31
0.0
 11
-369.18251069736419
 21
-324.62845492151172
 31
0.0
 11
-369.28511146470782
 21
-324.21762725294292
 31
0.0
 11
-369.35534009426095
 21
-323.83001939451981
 31
0.0
 11
-369.40240307181784
 21
-323.4293247022743
 31
0.0
 11
-369.4246653167861
 21
-323.0243654934547
 31
0.0
 11
-369.42158114222775
 21
-322.61189032340366
 31
0.0
 11
-369.39511392101122
 21
-322.22582448961225
 31
0.0
 11
-369.34516989864369
 21
-321.83882801019348
 31
0.0
 11
-369.27249258635129
 21
-321.45909726512889
 31
0.0
 11
-369.17616670124102
 21
-321.08404492164317
 31
0.0
 11
-369.06092319956491
 21
-320.72988310384181
 31
0.0
 11
-368.92380309269532
 21
-320.38564254470811
 31
0.0
 11
-368.76739459706596
 21
-320.05824989941271
 31
0.0
 11
-368.59043883704135
 21
-319.7456982965287
 31
0.0
 11
-368.39446987709607
 21
-319.45176106341711
 31
0.0
 11
-368.06490725493541
 21
-319.04837277996393
 31
0.0
 11
-367.70353791591378
 21
-318.70365691260912
 31
0.0
 11
-367.43912410097118
 21
-318.50281403620903
 31
0.0
 11
-367.16410886706308
 21
-318.33279329667181
 31
0.0
 11
-366.87651092921305
 21
-318.19290914532479
 31
0.0
 11
-366.57787178315039
 21
-318.08511272523043
 31
0.0
 11
-366.18807550920883
 21
-317.99784522308482
 31
0.0
 11
-365.78962609357222
 21
-317.96824700304063
 31
0.0
  0
SPLINE
  5
2E9
100
AcDbEntity
  8
LY_1
  6
CONTINUOUS
 62
     3
100
AcDbSpline
210
0.0
220
0.0
230
1.0
 70
     0
 71
     3
 72
     0
 73
     0
 74
    24
 44
0.000001
 12
0.999987730783052
 22
0.0049536131623633
 32
0.0
 13
-0.8646368454921959
 23
-0.5023973779960486
 33
0.0
 11
-366.85549007135927
 21
-330.3770288893449
 31
0.0
 11
-366.5563026099739
 21
-330.38598542635742
 31
0.0
 11
-366.27929497057806
 21
-330.41305172364935
 31
0.0
 11
-366.02347949247763
 21
-330.45923901836267
 31
0.0
 11
-365.79542006587735
 21
-330.52445369386425
 31
0.0
 11
-365.60511618150207
 21
-330.6048969993405
 31
0.0
 11
-365.44369290019222
 21
-330.70360150222638
 31
0.0
 11
-365.31477985668971
 21
-330.81987092249852
 31
0.0
 11
-365.21985960466736
 21
-330.9544750507136
 31
0.0
 11
-365.1642107523885
 21
-331.09738438379281
 31
0.0
 11
-365.14326530389826
 21
-331.25499262259331
 31
0.0
 11
-365.15857110359178
 21
-331.42733358903774
 31
0.0
 11
-365.21210209476931
 21
-331.614487242427
 31
0.0
 11
-365.29537547935388
 21
-331.79646195184256
 31
0.0
 11
-365.41221241878293
 21
-331.98811334441575
 31
0.0
 11
-365.56270951385386
 21
-332.18792940818599
 31
0.0
 11
-365.74877583175748
 21
-332.39666975379311
 31
0.0
 11
-365.94872096763629
 21
-332.59255514470459
 31
0.0
 11
-366.17615363692812
 21
-332.79158097388188
 31
0.0
 11
-366.43105527988604
 21
-332.99310750284104
 31
0.0
 11
-366.71127257943135
 21
-333.19489974200076
 31
0.0
 11
-366.99844394280802
 21
-333.38481810495773
 31
0.0
 11
-367.3050626047397
 21
-333.57217623103071
 31
0.0
 11
-367.35289874851236
 21
-333.60013857644748
 31
0.0
  0
SPLINE
  5
2EA
100
AcDbEntity
  8
LY_1
  6
CONTINUOUS
 62
     3
100
AcDbSpline
210
0.0
220
0.0
230
1.0
 70
     0
 71
     3
 72
     0
 73
     0
 74
    12
 44
0.000001
 12
0.9774425365585334
 22
-0.2112015334367154
 32
0.0
 13
0.8648803310270846
 23
-0.5019781001223864
 33
0.0
 11
-371.15694714410978
 21
-310.6619932974902
 31
0.0
 11
-371.04695558336016
 21
-310.6863127122985
 31
0.0
 11
-370.6437566346649
 21
-310.78501721518433
 31
0.0
 11
-370.23004283880658
 21
-310.90128663545653
 31
0.0
 11
-369.80541115538517
 21
-311.0358907636716
 31
0.0
 11
-369.39970735758061
 21
-311.17880009675076
 31
0.0
 11
-368.99270214477013
 21
-311.33640833555131
 31
0.0
 11
-368.58586051489738
 21
-311.50874930199569
 31
0.0
 11
-368.18096055177284
 21
-311.69590295538507
 31
0.0
 11
-367.81848875219833
 21
-311.87787766480056
 31
0.0
 11
-367.4658775713292
 21
-312.06952905737381
 31
0.0
 11
-367.35637294986691
 21
-312.13229610816262
 31
0.0
  0
SPLINE
  5
2EB
100
AcDbEntity
  8
LY_1
  6
CONTINUOUS
 62
     3
100
AcDbSpline
210
0.0
220
0.0
230
1.0
 70
     0
 71
     3
 72
     0
 73
     0
 74
    59
 44
0.000001
 12
0.8651758912834046
 22
-0.5014685205892455
 32
0.0
 13
0.9999633993231757
 23
-0.0085557006749289
 33
0.0
 11
-367.35637294986691
 21
-312.13229610816262
 31
0.0
 11
-367.12692726775185
 21
-312.26934512114406
 31
0.0
 11
-366.80168625018541
 21
-312.47808546675111
 31
0.0
 11
-366.52181213026591
 21
-312.67397085766265
 31
0.0
 11
-366.2617330724388
 21
-312.87299668683994
 31
0.0
 11
-366.02299754981277
 21
-313.07452321579905
 31
0.0
 11
-365.80892682936292
 21
-313.27631545495871
 31
0.0
 11
-365.63089511071024
 21
-313.46623381791568
 31
0.0
 11
-365.47858196459902
 21
-313.65359194398872
 31
0.0
 11
-365.35300218279508
 21
-313.83768917280867
 31
0.0
 11
-365.25593687428818
 21
-314.01653060396984
 31
0.0
 11
-365.18915041324357
 21
-314.18628765294
 31
0.0
 11
-365.1516865075759
 21
-314.34847103078249
 31
0.0
 11
-365.14405667410978
 21
-314.50244005392716
 31
0.0
 11
-365.1667195135887
 21
-314.6465542874742
 31
0.0
 11
-365.23872529018854
 21
-314.81287214054879
 31
0.0
 11
-365.35921152018818
 21
-314.96025531618096
 31
0.0
 11
-365.56780509710501
 21
-315.10984499625448
 31
0.0
 11
-365.74682226708677
 21
-315.1921736446543
 31
0.0
 11
-365.95572915194725
 21
-315.25861855127272
 31
0.0
 11
-366.19440087808738
 21
-315.30865676429988
 31
0.0
 11
-366.46293245063725
 21
-315.34160305252635
 31
0.0
 11
-366.75587745235771
 21
-315.35648018595327
 31
0.0
 11
-367.07386414001894
 21
-315.35319622225052
 31
0.0
 11
-367.42026208805186
 21
-315.33094537528552
 31
0.0
 11
-367.78881567501094
 21
-315.28935060067408
 31
0.0
 11
-368.16422498435981
 21
-315.23055377397196
 31
0.0
 11
-368.55613348681163
 21
-315.15342174190556
 31
0.0
 11
-368.96839717675851
 21
-315.05640506997798
 31
0.0
 11
-369.39259616799882
 21
-314.94065364789645
 31
0.0
 11
-369.79905738756315
 21
-314.81517957065302
 31
0.0
 11
-370.21381788115741
 21
-314.67267769536261
 31
0.0
 11
-370.63075433731996
 21
-314.51457823005609
 31
0.0
 11
-371.04988601918285
 21
-314.34014096299433
 31
0.0
 11
-371.43088732933256
 21
-314.16729834731967
 31
0.0
 11
-371.80477661153463
 21
-313.98335680044892
 31
0.0
 11
-372.16984694391249
 21
-313.78854856153839
 31
0.0
 11
-372.52402725130878
 21
-313.58313472725393
 31
0.0
 11
-372.83219015586701
 21
-313.38895405828367
 31
0.0
 11
-373.12300407492557
 21
-313.18975360905705
 31
0.0
 11
-373.39430171346748
 21
-312.98650384750988
 31
0.0
 11
-373.643805963457
 21
-312.7802662624843
 31
0.0
 11
-373.85410932747709
 21
-312.58688841984502
 31
0.0
 11
-374.0402097033334
 21
-312.39440928976001
 31
0.0
 11
-374.20091980737919
 21
-312.20353056153232
 31
0.0
 11
-374.33400193251322
 21
-312.01634356160406
 31
0.0
 11
-374.43578495753763
 21
-311.83896906230149
 31
0.0
 11
-374.50915058455075
 21
-311.66769176092572
 31
0.0
 11
-374.55344811469149
 21
-311.50317524906717
 31
0.0
 11
-374.56784065094007
 21
-311.34717024904677
 31
0.0
 11
-374.54308870626841
 21
-311.16507312919254
 31
0.0
 11
-374.47029785694804
 21
-310.9998216753454
 31
0.0
 11
-374.31905715017911
 21
-310.82614955708704
 31
0.0
 11
-374.1781687958532
 21
-310.72602062927763
 31
0.0
 11
-374.0067347571312
 21
-310.64071774911838
 31
0.0
 11
-373.80479801775618
 21
-310.57077567344487
 31
0.0
 11
-373.57217042802625
 21
-310.51687746339763
 31
0.0
 11
-373.2358143661495
 21
-310.47324371226085
 31
0.0
 11
-372.85549008330185
 21
-310.45844460230279
 31
0.0
  0
SPLINE
  5
2EC
100
AcDbEntity
  8
LY_1
  6
CONTINUOUS
 62
     3
100
AcDbSpline
210
0.0
220
0.0
230
1.0
 70
     0
 71
     3
 72
     0
 73
     0
 74
    11
 44
0.000001
 12
-0.8649333346322835
 22
-0.5018867667530977
 32
0.0
 13
-0.977358315928993
 23
-0.2115909314796897
 33
0.0
 11
-367.35289874851236
 21
-333.60013857644748
 31
0.0
 11
-367.63042709660471
 21
-333.75627345985072
 31
0.0
 11
-367.97143203931182
 21
-333.93511489101178
 31
0.0
 11
-368.32046372848475
 21
-334.10487193998193
 31
0.0
 11
-368.6802663432922
 21
-334.26705531782454
 31
0.0
 11
-369.04978205272522
 21
-334.42102434096915
 31
0.0
 11
-369.42545122906677
 21
-334.5651385745162
 31
0.0
 11
-369.90485088081459
 21
-334.73145642759084
 31
0.0
 11
-370.38635068778422
 21
-334.87883960322301
 31
0.0
 11
-370.96136265166746
 21
-335.02842928329653
 31
0.0
 11
-371.15564994804708
 21
-335.07217956523647
 31
0.0
  0
SPLINE
  5
2ED
100
AcDbEntity
  8
LY_1
  6
CONTINUOUS
 62
     3
100
AcDbSpline
210
0.0
220
0.0
230
1.0
 70
     0
 71
     3
 72
     0
 73
     0
 74
    42
 44
0.000001
 12
-0.9773588407582293
 22
-0.2115885072297882
 32
0.0
 13
0.9999859735265015
 23
0.0052964847073372
 33
0.0
 11
-371.15564994804708
 21
-335.07217956523647
 31
0.0
 11
-371.3420430014412
 21
-335.11075793169636
 31
0.0
 11
-371.71370600352378
 21
-335.17720283831477
 31
0.0
 11
-372.07494581922128
 21
-335.22724105134188
 31
0.0
 11
-372.42417898684471
 21
-335.2601873395684
 31
0.0
 11
-372.75356537429616
 21
-335.27506447299533
 31
0.0
 11
-373.06350802655197
 21
-335.27178050929263
 31
0.0
 11
-373.35540275317584
 21
-335.24952966232757
 31
0.0
 11
-373.62207036637119
 21
-335.20793488771619
 31
0.0
 11
-373.85345745180484
 21
-335.14913806101407
 31
0.0
 11
-374.0564318328702
 21
-335.07200602894773
 31
0.0
 11
-374.23105418005116
 21
-334.97498935702004
 31
0.0
 11
-374.37172125019015
 21
-334.85923793493856
 31
0.0
 11
-374.47083500456159
 21
-334.73376385769512
 31
0.0
 11
-374.53653861630431
 21
-334.59126198240477
 31
0.0
 11
-374.56621205386
 21
-334.43316251709831
 31
0.0
 11
-374.55806143929516
 21
-334.25872525003643
 31
0.0
 11
-374.51568653523464
 21
-334.08588263436184
 31
0.0
 11
-374.4390128851046
 21
-333.90194108749102
 31
0.0
 11
-374.32690243446172
 21
-333.7071328485805
 31
0.0
 11
-374.17792366175217
 21
-333.50171901429604
 31
0.0
 11
-374.01044300942158
 21
-333.3075383453259
 31
0.0
 11
-373.81331747134158
 21
-333.10833789609927
 31
0.0
 11
-373.58675690375043
 21
-332.90508813455199
 31
0.0
 11
-373.33108430464375
 21
-332.69885054952653
 31
0.0
 11
-373.06771062663711
 21
-332.50547270688725
 31
0.0
 11
-372.78233534765053
 21
-332.31299357680211
 31
0.0
 11
-372.4754899647869
 21
-332.12211484857448
 31
0.0
 11
-372.15005945361412
 21
-331.93492784864617
 31
0.0
 11
-371.81736546196589
 21
-331.75755334934365
 31
0.0
 11
-371.47118909608753
 21
-331.58627604796789
 31
0.0
 11
-371.11250511791241
 21
-331.42175953610933
 31
0.0
 11
-370.74476500678793
 21
-331.26575453608899
 31
0.0
 11
-370.27396803484316
 21
-331.0836574162347
 31
0.0
 11
-369.79639544434389
 21
-330.91840596238757
 31
0.0
 11
-369.21974666529371
 21
-330.7447338441292
 31
0.0
 11
-368.83359352934303
 21
-330.64460491631968
 31
0.0
 11
-368.45321096064066
 21
-330.55930203616049
 31
0.0
 11
-368.07995182431472
 21
-330.48935996048692
 31
0.0
 11
-367.71530112192016
 21
-330.43546175043986
 31
0.0
 11
-367.27206462884033
 21
-330.3918279989374
 31
0.0
 11
-366.85549007135927
 21
-330.3770288893449
 31
0.0
  0
SPLINE
  5
2EE
100
AcDbEntity
  8
LY_1
  6
CONTINUOUS
 62
     3
100
AcDbSpline
210
0.0
220
0.0
230
1.0
 70
     0
 71
     3
 72
     0
 73
     0
 74
     8
 44
0.000001
 12
0.9136529300728342
 22
-0.4064951701672784
 32
0.0
 13
0.9773726007929733
 23
-0.2115249375822606
 33
0.0
 11
-379.28266642633429
 21
-334.2142478748749
 31
0.0
 11
-379.2442331015572
 21
-334.23127772814689
 31
0.0
 11
-378.87649299043323
 21
-334.38728272816724
 31
0.0
 11
-378.40569601848847
 21
-334.56937984802153
 31
0.0
 11
-377.92812342798879
 21
-334.7346313018686
 31
0.0
 11
-377.35147464893902
 21
-334.90830342012703
 31
0.0
 11
-376.96532151298834
 21
-335.00843234793638
 31
0.0
 11
-376.68499456454174
 21
-335.07262510915865
 31
0.0
  0
SPLINE
  5
2EF
100
AcDbEntity
  8
LY_1
  6
CONTINUOUS
 62
     3
100
AcDbSpline
210
0.0
220
0.0
230
1.0
 70
     0
 71
     3
 72
     0
 73
     0
 74
     9
 44
0.000001
 12
-0.9776105348538597
 22
-0.2104225324026642
 32
0.0
 13
-0.9133051066144096
 23
-0.4072760516308834
 33
0.0
 11
-376.67898807558186
 21
-310.66053337646485
 31
0.0
 11
-376.68786147045694
 21
-310.66244694826639
 31
0.0
 11
-377.10012516040382
 21
-310.75946362019403
 31
0.0
 11
-377.52432415164412
 21
-310.8752150422755
 31
0.0
 11
-377.93078537120846
 21
-311.00068911951894
 31
0.0
 11
-378.34554586480272
 21
-311.14319099480934
 31
0.0
 11
-378.76248232096526
 21
-311.30129046011587
 31
0.0
 11
-379.18161400282816
 21
-311.47572772717768
 31
0.0
 11
-379.29385475973595
 21
-311.5251890886617
 31
0.0
  0
ELLIPSE
  5
2F0
100
AcDbEntity
  8
LY_1
  6
CONTINUOUS
 62
     3
100
AcDbEllipse
 10
-370.032267
 20
-322.867226
 30
0.0
 11
0.0000000000000007
 21
11.350000000000009
 31
0.0
210
0.0
220
0.0
230
1.0
 40
0.707107
 41
3.5944263267856789
 42
5.8302046628893116
  0
ELLIPSE
  5
2F1
100
AcDbEntity
  8
LY_1
  6
CONTINUOUS
 62
     3
100
AcDbEllipse
 10
-379.224655
 20
-322.867226
 30
0.0
 11
-0.0000000000000021
 21
-11.35
 31
0.0
210
0.0
220
0.0
230
1.0
 40
0.707107
 41
0.0
 42
3.1415926535897931
  0
ELLIPSE
  5
2F2
100
AcDbEntity
  8
LY_1
  6
CONTINUOUS
 62
     3
100
AcDbEllipse
 10
-377.810441
 20
-322.867226
 30
0.0
 11
0.0000000000000007
 21
11.350000000000003
 31
0.0
210
0.0
220
0.0
230
1.0
 40
0.707107
 41
3.1415926535897931
 42
0.0
  0
ARC
  5
2F3
100
AcDbEntity
  8
LY_1
  6
CONTINUOUS
 62
     3
100
AcDbCircle
 10
-373.921654
 20
-323.474523
 30
0.0
 40
13.107297
100
AcDbArc
 50
89.99869
 51
102.145975
  0
ARC
  5
2F4
100
AcDbEntity
  8
LY_1
  6
CONTINUOUS
 62
     3
100
AcDbCircle
 10
-373.921354
 20
-322.257581
 30
0.0
 40
13.109656
100
AcDbArc
 50
257.822427
 51
282.187284
  0
ARC
  5
2F5
100
AcDbEntity
  8
LY_1
  6
CONTINUOUS
 62
     3
100
AcDbCircle
 10
-373.861977
 20
-322.401261
 30
0.0
 40
12.953107
100
AcDbArc
 50
300.16804
 51
304.534939
  0
ARC
  5
2F6
100
AcDbEntity
  8
LY_1
  6
CONTINUOUS
 62
     3
100
AcDbCircle
 10
-373.862394
 20
-323.333846
 30
0.0
 40
12.953882
100
AcDbArc
 50
55.453771
 51
59.851856
  0
ARC
  5
2F7
100
AcDbEntity
  8
LY_1
  6
CONTINUOUS
 62
     3
100
AcDbCircle
 10
-373.921059
 20
-323.474556
 30
0.0
 40
13.107329
100
AcDbArc
 50
77.819088
 51
90.001289
  0
LINE
  5
2F8
100
AcDbEntity
  8
LY_1
  6
CONTINUOUS
 62
     3
100
AcDbLine
 10
-379.224655
 20
-334.217226
 30
0.0
 11
-377.810441
 21
-334.217226
 31
0.0
  0
LINE
  5
2F9
100
AcDbEntity
  8
LY_1
  6
CONTINUOUS
 62
     3
100
AcDbLine
 10
-377.810441
 20
-311.517226
 30
0.0
 11
-379.224655
 21
-311.517226
 31
0.0
  0
ELLIPSE
  5
2FA
100
AcDbEntity
  8
LY_1
  6
CONTINUOUS
 62
     3
100
AcDbEllipse
 10
-379.224655
 20
-322.867226
 30
0.0
 11
-0.0000000000000021
 21
-11.35
 31
0.0
210
0.0
220
0.0
230
1.0
 40
0.707107
 41
5.8937144760647424
 42
0.0
  0
ELLIPSE
  5
2FB
100
AcDbEntity
  8
LY_1
  6
CONTINUOUS
 62
     3
100
AcDbEllipse
 10
-379.224655
 20
-322.867226
 30
0.0
 11
-0.0000000000000021
 21
-11.35
 31
0.0
210
0.0
220
0.0
230
1.0
 40
0.707107
 41
3.1415926535897931
 42
3.5310634847046369
  0
LINE
  5
2FC
100
AcDbEntity
  8
LY_1
  6
CONTINUOUS
 62
     3
100
AcDbLine
 10
-383.35846
 20
-312.367226
 30
0.0
 11
-378.365362
 21
-312.367226
 31
0.0
  0
LINE
  5
2FD
100
AcDbEntity
  8
LY_1
  6
CONTINUOUS
 62
     3
100
AcDbLine
 10
-383.35846
 20
-333.367226
 30
0.0
 11
-378.365362
 21
-333.367226
 31
0.0
  0
LINE
  5
2FE
100
AcDbEntity
  8
LY_1
  6
CONTINUOUS
 62
     3
100
AcDbLine
 10
-218.269657
 20
-325.367226
 30
0.0
 11
-362.203713
 21
-325.367226
 31
0.0
  0
LINE
  5
2FF
100
AcDbEntity
  8
LY_1
  6
CONTINUOUS
 62
     3
100
AcDbLine
 10
-218.269657
 20
-320.367226
 30
0.0
 11
-362.203713
 21
-320.367226
 31
0.0
  0
DIMENSION
  5
30B
100
AcDbEntity
  8
LY_1
  6
CONTINUOUS
 62
   143
100
AcDbDimension
  2
*D10
 10
-624.669933
 20
459.632774
 30
0.0
 11
-624.669933
 21
497.132774
 31
0.0
 70
   128
  1
\A1;(<>)
  3
MXDIMSTYLE
100
AcDbAlignedDimension
 13
-905.35847
 23
534.632774
 33
0.0
 14
-442.85846
 24
459.632774
 34
0.0
 50
90.0
100
AcDbRotatedDimension
1001
ACAD
1000
DSTYLE
1002
{
1070
    41
1040
2.77
1070
    75
1070
     1
1070
    78
1070
     0
1070
   271
1070
     1
1070
   340
1005
100
1002
}
  0
CIRCLE
  5
30C
100
AcDbEntity
  8
LY_1
  6
CONTINUOUS
 62
     3
100
AcDbCircle
 10
-205.35846
 20
459.632774
 30
0.0
 40
10.0
  0
LINE
  5
30D
100
AcDbEntity
  8
LY_1
  6
CENTER
 62
   110
100
AcDbLine
 10
-205.35846
 20
423.073508
 30
0.0
 11
-205.35846
 21
492.842372
 31
0.0
  0
LINE
  5
30E
100
AcDbEntity
  8
LY_1
  6
CENTER
 62
   110
100
AcDbLine
 10
-166.537698
 20
459.632774
 30
0.0
 11
-241.696597
 21
459.632774
 31
0.0
  0
CIRCLE
  5
30F
100
AcDbEntity
  8
LY_1
  6
CONTINUOUS
 62
     3
100
AcDbCircle
 10
-205.35846
 20
459.632774
 30
0.0
 40
23.3
  0
DIMENSION
  5
31C
100
AcDbEntity
  8
LY_1
  6
CONTINUOUS
 62
   143
100
AcDbDimension
  2
*D11
 10
-205.35846
 20
580.3982
 30
0.0
 11
-305.565033
 21
580.3982
 31
0.0
 70
   128
  1
\A1;(<>)
  3
MXDIMSTYLE
100
AcDbAlignedDimension
 13
-405.35846
 23
553.568788
 33
0.0
 14
-205.35846
 24
492.842368
 34
0.0
100
AcDbRotatedDimension
1001
ACAD
1000
DSTYLE
1002
{
1070
    41
1040
2.77
1070
    78
1070
     0
1070
   271
1070
     1
1070
   340
1005
100
1002
}
  0
ARC
  5
31D
100
AcDbEntity
  8
LY_1
  6
CONTINUOUS
 62
     3
100
AcDbCircle
 10
27.14154
 20
389.632774
 30
0.0
 40
5.0
100
AcDbArc
 50
0.0
 51
90.0
  0
DIMENSION
  5
32A
100
AcDbEntity
  8
LY_1
  6
CONTINUOUS
 62
   143
100
AcDbDimension
  2
*D12
 10
-1003.62939
 20
534.632774
 30
0.0
 11
-1003.62939
 21
284.632774
 31
0.0
 70
   128
  1
\A1;(<>)
  3
MXDIMSTYLE
100
AcDbAlignedDimension
 13
-903.358463
 23
34.632774
 33
0.0
 14
-905.358463
 24
534.632774
 34
0.0
 50
90.0
100
AcDbRotatedDimension
1001
ACAD
1000
DSTYLE
1002
{
1070
    41
1040
2.77
1070
    78
1070
     0
1070
   271
1070
     1
1070
   340
1005
100
1002
}
  0
DIMENSION
  5
33B
100
AcDbEntity
  8
LY_1
  6
CONTINUOUS
 62
   143
100
AcDbDimension
  2
*D13
 10
-952.498465
 20
74.632774
 30
0.0
 11
-952.498465
 21
-19.804822
 31
0.0
 70
   128
  1
\A1;(<>)
  3
MXDIMSTYLE
100
AcDbAlignedDimension
 13
-903.358458
 23
34.632774
 33
0.0
 14
-847.858458
 24
74.632774
 34
0.0
 50
90.0
100
AcDbRotatedDimension
1001
ACAD
1000
DSTYLE
1002
{
1070
     7
1000
_NONE
1070
    41
1040
2.77
1070
    75
1070
     1
1070
    76
1070
     1
1070
    78
1070
     0
1070
   271
1070
     1
1070
   340
1005
335
1070
   344
1005
331
1002
}
  0
DIMENSION
  5
347
100
AcDbEntity
  8
LY_1
  6
CONTINUOUS
 62
   143
100
AcDbDimension
  2
*D15
 10
-952.498465
 20
394.632774
 30
0.0
 11
-952.498465
 21
234.632774
 31
0.0
 70
   128
  1
\A1;(<>)
  3
MXDIMSTYLE
100
AcDbAlignedDimension
 13
-842.858458
 23
74.632774
 33
0.0
 14
-847.858458
 24
394.632774
 34
0.0
 50
90.0
100
AcDbRotatedDimension
1001
ACAD
1000
DSTYLE
1002
{
1070
    41
1040
2.77
1070
    76
1070
     1
1070
    78
1070
     0
1070
   271
1070
     1
1070
   340
1005
124
1002
}
  0
DIMENSION
  5
353
100
AcDbEntity
  8
LY_1
  6
CONTINUOUS
 62
   143
100
AcDbDimension
  2
*D16
 10
-952.498465
 20
534.632774
 30
0.0
 11
-952.498465
 21
464.632774
 31
0.0
 70
   128
  1
\A1;(<>)
  3
MXDIMSTYLE
100
AcDbAlignedDimension
 13
-842.858458
 23
394.632774
 33
0.0
 14
-905.358458
 24
534.632774
 34
0.0
 50
90.0
100
AcDbRotatedDimension
1001
ACAD
1000
DSTYLE
1002
{
1070
    41
1040
2.77
1070
    76
1070
     1
1070
    78
1070
     0
1070
   271
1070
     1
1070
   340
1005
335
1002
}
  0
LINE
  5
354
100
AcDbEntity
  8
LY_1
  6
CONTINUOUS
 62
     3
100
AcDbLine
 10
-594.699825
 20
383.995089
 30
0.0
 11
-594.216291
 21
383.541925
 31
0.0
  0
LINE
  5
355
100
AcDbEntity
  8
LY_1
  6
CONTINUOUS
 62
     3
100
AcDbLine
 10
-556.500628
 20
383.541925
 30
0.0
 11
-556.017094
 21
383.995089
 31
0.0
  0
LINE
  5
356
100
AcDbEntity
  8
LY_1
  6
CONTINUOUS
 62
     3
100
AcDbLine
 10
-595.35846
 20
386.704295
 30
0.0
 11
-595.35846
 21
385.250639
 31
0.0
  0
LINE
  5
357
100
AcDbEntity
  8
LY_1
  6
CONTINUOUS
 62
     3
100
AcDbLine
 10
-555.35846
 20
385.250639
 30
0.0
 11
-555.35846
 21
386.704295
 31
0.0
  0
LINE
  5
358
100
AcDbEntity
  8
LY_1
  6
CONTINUOUS
 62
     3
100
AcDbLine
 10
-559.605365
 20
385.456717
 30
0.0
 11
-563.689698
 21
385.456717
 31
0.0
  0
LINE
  5
359
100
AcDbEntity
  8
LY_1
  6
CONTINUOUS
 62
     3
100
AcDbLine
 10
-591.111555
 20
385.456717
 30
0.0
 11
-587.027221
 21
385.456717
 31
0.0
  0
LINE
  5
35A
100
AcDbEntity
  8
LY_1
  6
CONTINUOUS
 62
     3
100
AcDbLine
 10
-592.85846
 20
378.466913
 30
0.0
 11
-592.85846
 21
377.497809
 31
0.0
  0
LINE
  5
35B
100
AcDbEntity
  8
LY_1
  6
CONTINUOUS
 62
     3
100
AcDbLine
 10
-557.85846
 20
377.497809
 30
0.0
 11
-557.85846
 21
378.466913
 31
0.0
  0
LINE
  5
35C
100
AcDbEntity
  8
LY_1
  6
CONTINUOUS
 62
     3
100
AcDbLine
 10
-592.282154
 20
376.399202
 30
0.0
 11
-591.79862
 21
375.946039
 31
0.0
  0
LINE
  5
35D
100
AcDbEntity
  8
LY_1
  6
CONTINUOUS
 62
     3
100
AcDbLine
 10
-558.918299
 20
375.946039
 30
0.0
 11
-558.434765
 21
376.399202
 31
0.0
  0
LINE
  5
35E
100
AcDbEntity
  8
LY_1
  6
CONTINUOUS
 62
     3
100
AcDbLine
 10
-558.434765
 20
379.56552
 30
0.0
 11
-558.918299
 21
380.018683
 31
0.0
  0
LINE
  5
35F
100
AcDbEntity
  8
LY_1
  6
CONTINUOUS
 62
     3
100
AcDbLine
 10
-591.79862
 20
380.018683
 30
0.0
 11
-592.282154
 21
379.56552
 31
0.0
  0
LINE
  5
360
100
AcDbEntity
  8
LY_1
  6
CONTINUOUS
 62
     3
100
AcDbLine
 10
-587.027221
 20
382.000804
 30
0.0
 11
-587.027221
 21
385.456717
 31
0.0
  0
LINE
  5
361
100
AcDbEntity
  8
LY_1
  6
CONTINUOUS
 62
     3
100
AcDbLine
 10
-563.689698
 20
385.456717
 30
0.0
 11
-563.689698
 21
382.000804
 31
0.0
  0
LINE
  5
362
100
AcDbEntity
  8
LY_1
  6
CONTINUOUS
 62
     3
100
AcDbLine
 10
-559.35846
 20
380.368381
 30
0.0
 11
-559.35846
 21
384.766087
 31
0.0
  0
LINE
  5
363
100
AcDbEntity
  8
LY_1
  6
CONTINUOUS
 62
     3
100
AcDbLine
 10
-559.605365
 20
380.527733
 30
0.0
 11
-559.605365
 21
385.456717
 31
0.0
  0
LINE
  5
364
100
AcDbEntity
  8
LY_1
  6
CONTINUOUS
 62
     3
100
AcDbLine
 10
-591.35846
 20
384.766087
 30
0.0
 11
-591.35846
 21
380.368381
 31
0.0
  0
LINE
  5
365
100
AcDbEntity
  8
LY_1
  6
CONTINUOUS
 62
     3
100
AcDbLine
 10
-591.111555
 20
385.456717
 30
0.0
 11
-591.111555
 21
380.527733
 31
0.0
  0
ELLIPSE
  5
366
100
AcDbEntity
  8
LY_1
  6
CONTINUOUS
 62
     3
100
AcDbEllipse
 10
-575.35846
 20
385.250639
 30
0.0
 11
20.000000000000007
 21
-0.0000000000000049
 31
0.0
210
0.0
220
0.0
230
1.0
 40
0.246653
 41
3.1415926535897931
 42
3.3989409877330945
  0
ELLIPSE
  5
367
100
AcDbEntity
  8
LY_1
  6
CONTINUOUS
 62
     3
100
AcDbEllipse
 10
-575.35846
 20
384.766087
 30
0.0
 11
-19.500000000000007
 21
0.0000000000000024
 31
0.0
210
0.0
220
0.0
230
1.0
 40
0.246653
 41
0.2573483341433034
 42
0.6084887621843576
  0
ELLIPSE
  5
368
100
AcDbEntity
  8
LY_1
  6
CONTINUOUS
 62
     3
100
AcDbEllipse
 10
-575.35846
 20
384.766087
 30
0.0
 11
-19.500000000000007
 21
0.0000000000000024
 31
0.0
210
0.0
220
0.0
230
1.0
 40
0.246653
 41
2.88424431944649
 42
0.2573483341433036
  0
ELLIPSE
  5
369
100
AcDbEntity
  8
LY_1
  6
CONTINUOUS
 62
     3
100
AcDbEllipse
 10
-575.35846
 20
384.766087
 30
0.0
 11
-19.500000000000007
 21
0.0000000000000024
 31
0.0
210
0.0
220
0.0
230
1.0
 40
0.246653
 41
2.5331038914054358
 42
2.88424431944649
  0
ELLIPSE
  5
36A
100
AcDbEntity
  8
LY_1
  6
CONTINUOUS
 62
     3
100
AcDbEllipse
 10
-575.35846
 20
386.704295
 30
0.0
 11
19.999999999999915
 21
-0.0000000000000049
 31
0.0
210
0.0
220
0.0
230
1.0
 40
0.246653
 41
0.0
 42
3.1415926535897931
  0
ELLIPSE
  5
36B
100
AcDbEntity
  8
LY_1
  6
CONTINUOUS
 62
     3
100
AcDbEllipse
 10
-575.35846
 20
385.250639
 30
0.0
 11
20.000000000000007
 21
-0.0000000000000049
 31
0.0
210
0.0
220
0.0
230
1.0
 40
0.246653
 41
6.0258369730362844
 42
0.0
  0
ELLIPSE
  5
36C
100
AcDbEntity
  8
LY_1
  6
CONTINUOUS
 62
     3
100
AcDbEllipse
 10
-575.35846
 20
385.250639
 30
0.0
 11
20.000000000000007
 21
-0.0000000000000049
 31
0.0
210
0.0
220
0.0
230
1.0
 40
0.246653
 41
0.0
 42
3.1415926535897931
  0
ELLIPSE
  5
36D
100
AcDbEntity
  8
LY_1
  6
CONTINUOUS
 62
     3
100
AcDbEllipse
 10
-575.35846
 20
384.766087
 30
0.0
 11
12.000000000000037
 21
-0.0000000000000029
 31
0.0
210
0.0
220
0.0
230
1.0
 40
0.246653
 41
0.2355042367167223
 42
2.9060884168730712
  0
ELLIPSE
  5
36E
100
AcDbEntity
  8
LY_1
  6
CONTINUOUS
 62
     3
100
AcDbEllipse
 10
-575.35846
 20
384.766087
 30
0.0
 11
12.000000000000037
 21
-0.0000000000000029
 31
0.0
210
0.0
220
0.0
230
1.0
 40
0.246653
 41
5.470744925910541
 42
6.0476810704587871
  0
ELLIPSE
  5
36F
100
AcDbEntity
  8
LY_1
  6
CONTINUOUS
 62
     3
100
AcDbEllipse
 10
-575.35846
 20
384.766087
 30
0.0
 11
12.000000000000037
 21
-0.0000000000000029
 31
0.0
210
0.0
220
0.0
230
1.0
 40
0.246653
 41
3.3770968903105922
 42
3.9540330348588379
  0
ELLIPSE
  5
370
100
AcDbEntity
  8
LY_1
  6
CONTINUOUS
 62
     3
100
AcDbEllipse
 10
-575.35846
 20
384.766087
 30
0.0
 11
16.000000000000028
 21
-0.0000000000000039
 31
0.0
210
0.0
220
0.0
230
1.0
 40
0.246653
 41
0.0
 42
0.1759057681635098
  0
ELLIPSE
  5
371
100
AcDbEntity
  8
LY_1
  6
CONTINUOUS
 62
     3
100
AcDbEllipse
 10
-575.35846
 20
377.497809
 30
0.0
 11
17.499999999999979
 21
-0.0000000000000043
 31
0.0
210
0.0
220
0.0
230
1.0
 40
0.246653
 41
6.0258369730362835
 42
0.0
  0
ELLIPSE
  5
372
100
AcDbEntity
  8
LY_1
  6
CONTINUOUS
 62
     3
100
AcDbEllipse
 10
-575.35846
 20
377.497809
 30
0.0
 11
17.499999999999979
 21
-0.0000000000000043
 31
0.0
210
0.0
220
0.0
230
1.0
 40
0.246653
 41
0.0
 42
3.1415926535897931
  0
ELLIPSE
  5
373
100
AcDbEntity
  8
LY_1
  6
CONTINUOUS
 62
     3
100
AcDbEllipse
 10
-575.35846
 20
378.466913
 30
0.0
 11
-17.499999999999979
 21
0.0000000000000021
 31
0.0
210
0.0
220
0.0
230
1.0
 40
0.246653
 41
3.1415926535897931
 42
3.3989409877330936
  0
ELLIPSE
  5
374
100
AcDbEntity
  8
LY_1
  6
CONTINUOUS
 62
     3
100
AcDbEllipse
 10
-575.35846
 20
378.466913
 30
0.0
 11
-17.499999999999979
 21
0.0000000000000021
 31
0.0
210
0.0
220
0.0
230
1.0
 40
0.246653
 41
4.7123889803846897
 42
6.0258369730362853
  0
ELLIPSE
  5
375
100
AcDbEntity
  8
LY_1
  6
CONTINUOUS
 62
     3
100
AcDbEllipse
 10
-575.35846
 20
377.497809
 30
0.0
 11
17.499999999999979
 21
-0.0000000000000043
 31
0.0
210
0.0
220
0.0
230
1.0
 40
0.246653
 41
3.1415926535897931
 42
3.3989409877330954
  0
ELLIPSE
  5
376
100
AcDbEntity
  8
LY_1
  6
CONTINUOUS
 62
     3
100
AcDbEllipse
 10
-575.35846
 20
377.013257
 30
0.0
 11
-16.999999999999993
 21
0.0000000000000021
 31
0.0
210
0.0
220
0.0
230
1.0
 40
0.246653
 41
0.2573483341433039
 42
1.5707963267948966
  0
ELLIPSE
  5
377
100
AcDbEntity
  8
LY_1
  6
CONTINUOUS
 62
     3
100
AcDbEllipse
 10
-575.35846
 20
377.013257
 30
0.0
 11
-16.999999999999993
 21
0.0000000000000021
 31
0.0
210
0.0
220
0.0
230
1.0
 40
0.246653
 41
2.8842443194464891
 42
0.2573483341433036
  0
ELLIPSE
  5
378
100
AcDbEntity
  8
LY_1
  6
CONTINUOUS
 62
     3
100
AcDbEllipse
 10
-575.35846
 20
377.013257
 30
0.0
 11
-16.999999999999993
 21
0.0000000000000021
 31
0.0
210
0.0
220
0.0
230
1.0
 40
0.246653
 41
1.5707963267948968
 42
2.8842443194464895
  0
ELLIPSE
  5
379
100
AcDbEntity
  8
LY_1
  6
CONTINUOUS
 62
     3
100
AcDbEllipse
 10
-575.35846
 20
378.951465
 30
0.0
 11
16.999999999999979
 21
-0.0000000000000042
 31
0.0
210
0.0
220
0.0
230
1.0
 40
0.246653
 41
1.5707963267948966
 42
2.8842443194464935
  0
ELLIPSE
  5
37A
100
AcDbEntity
  8
LY_1
  6
CONTINUOUS
 62
     3
100
AcDbEllipse
 10
-575.35846
 20
378.466913
 30
0.0
 11
-17.499999999999979
 21
0.0000000000000021
 31
0.0
210
0.0
220
0.0
230
1.0
 40
0.246653
 41
3.3989409877330936
 42
4.7123889803846897
  0
ELLIPSE
  5
37B
100
AcDbEntity
  8
LY_1
  6
CONTINUOUS
 62
     3
100
AcDbEllipse
 10
-575.35846
 20
378.466913
 30
0.0
 11
-17.499999999999979
 21
0.0000000000000021
 31
0.0
210
0.0
220
0.0
230
1.0
 40
0.246653
 41
6.0258369730362853
 42
0.0
  0
ELLIPSE
  5
37C
100
AcDbEntity
  8
LY_1
  6
CONTINUOUS
 62
     3
100
AcDbEllipse
 10
-575.35846
 20
378.951465
 30
0.0
 11
16.999999999999979
 21
-0.0000000000000042
 31
0.0
210
0.0
220
0.0
230
1.0
 40
0.246653
 41
0.2573483341432998
 42
1.5707963267948966
  0
ELLIPSE
  5
37D
100
AcDbEntity
  8
LY_1
  6
CONTINUOUS
 62
     3
100
AcDbEllipse
 10
-575.35846
 20
387.673398
 30
0.0
 11
18.499999999999975
 21
-0.0000000000000045
 31
0.0
210
0.0
220
0.0
230
1.0
 40
0.246653
 41
0.2953384065935464
 42
2.8462542469962471
  0
ELLIPSE
  5
37E
100
AcDbEntity
  8
LY_1
  6
CONTINUOUS
 62
     3
100
AcDbEllipse
 10
-575.35846
 20
387.673398
 30
0.0
 11
14.499999999999984
 21
-0.0000000000000036
 31
0.0
210
0.0
220
0.0
230
1.0
 40
0.246653
 41
4.7123889803846897
 42
5.483806716009493
  0
ELLIPSE
  5
37F
100
AcDbEntity
  8
LY_1
  6
CONTINUOUS
 62
     3
100
AcDbEllipse
 10
-575.35846
 20
387.673398
 30
0.0
 11
14.499999999999984
 21
-0.0000000000000036
 31
0.0
210
0.0
220
0.0
230
1.0
 40
0.246653
 41
3.9409712447598864
 42
4.7123889803846897
  0
ELLIPSE
  5
380
100
AcDbEntity
  8
LY_1
  6
CONTINUOUS
 62
     3
100
AcDbEllipse
 10
-575.35846
 20
386.704295
 30
0.0
 11
12.000000000000043
 21
-0.0000000000000029
 31
0.0
210
0.0
220
0.0
230
1.0
 40
0.246653
 41
3.4751616874516564
 42
5.9496162733177229
  0
ELLIPSE
  5
381
100
AcDbEntity
  8
LY_1
  6
CONTINUOUS
 62
     3
100
AcDbEllipse
 10
-575.35846
 20
384.766087
 30
0.0
 11
16.000000000000028
 21
-0.0000000000000039
 31
0.0
210
0.0
220
0.0
230
1.0
 40
0.246653
 41
2.9656868854262832
 42
3.1415926535897931
  0
LEADER
  5
382
100
AcDbEntity
  8
LY_1
  6
CONTINUOUS
 62
   143
100
AcDbLeader
  3
MXDIMSTYLE
 73
     3
 74
     0
 75
     0
 40
0.0
 76
     3
 10
-589.513014
 20
383.968346
 30
0.0
 10
-635.576939
 20
326.878873
 30
0.0
 10
-490.194988
 20
326.878873
 30
0.0
 77
   143
1001
ACAD
1000
DSTYLE
1002
{
1070
    41
1040
2.77
1002
}
  0
MTEXT
  5
383
100
AcDbEntity
  8
LY_1
  6
CONTINUOUS
 62
   143
100
AcDbMText
 10
-610.194988
 20
341.878873
 30
0.0
 40
15.0
 41
0.0
 71
     4
 72
     1
  1
\W0.833;\A1;オーバーフロー穴
  0
ARC
  5
384
100
AcDbEntity
  8
LY_1
  6
CONTINUOUS
 62
     3
100
AcDbCircle
 10
92.64154
 20
36.632774
 30
0.0
 40
2.0
100
AcDbArc
 50
270.0
 51
0.0
  0
ARC
  5
385
100
AcDbEntity
  8
LY_1
  6
CONTINUOUS
 62
     3
100
AcDbCircle
 10
-903.35846
 20
36.632774
 30
0.0
 40
2.0
100
AcDbArc
 50
180.0
 51
270.0
  0
ARC
  5
386
100
AcDbEntity
  8
LY_1
  6
CONTINUOUS
 62
     3
100
AcDbCircle
 10
92.64154
 20
532.632774
 30
0.0
 40
2.0
100
AcDbArc
 50
0.0
 51
90.0
  0
ARC
  5
387
100
AcDbEntity
  8
LY_1
  6
CONTINUOUS
 62
     3
100
AcDbCircle
 10
92.64154
 20
-201.367226
 30
0.0
 40
2.0
100
AcDbArc
 50
270.0
 51
0.0
  0
ARC
  5
388
100
AcDbEntity
  8
LY_1
  6
CONTINUOUS
 62
     3
100
AcDbCircle
 10
92.64154
 20
-112.367226
 30
0.0
 40
2.0
100
AcDbArc
 50
0.0
 51
90.0
  0
ARC
  5
389
100
AcDbEntity
  8
LY_1
  6
CONTINUOUS
 62
     3
100
AcDbCircle
 10
-903.35846
 20
-201.367226
 30
0.0
 40
2.0
100
AcDbArc
 50
180.0
 51
270.0
  0
ARC
  5
38A
100
AcDbEntity
  8
LY_1
  6
CONTINUOUS
 62
     3
100
AcDbCircle
 10
-903.35846
 20
-112.367226
 30
0.0
 40
2.0
100
AcDbArc
 50
90.0
 51
180.0
  0
DIMENSION
  5
397
100
AcDbEntity
  8
LY_1
  6
CONTINUOUS
 62
   143
100
AcDbDimension
  2
*D17
 10
-1003.62939
 20
-110.367226
 30
0.0
 11
-1003.62939
 21
-156.867226
 31
0.0
 70
   128
  1
\A1;(<>)
  3
MXDIMSTYLE
100
AcDbAlignedDimension
 13
-905.358463
 23
-203.367226
 33
0.0
 14
-905.358463
 24
-110.367226
 34
0.0
 50
90.0
100
AcDbRotatedDimension
1001
ACAD
1000
DSTYLE
1002
{
1070
    41
1040
2.77
1070
    78
1070
     0
1070
   271
1070
     1
1070
   340
1005
100
1002
}
  0
DIMENSION
  5
3A3
100
AcDbEntity
  8
LY_1
  6
CONTINUOUS
 62
   143
100
AcDbDimension
  2
*D18
 10
140.161227
 20
312.632774
 30
0.0
 11
140.161227
 21
386.132774
 31
0.0
 70
   128
  1
\A1;(<>)
  3
MXDIMSTYLE
100
AcDbAlignedDimension
 13
-142.858457
 23
459.632774
 33
0.0
 14
-209.727415
 24
312.632774
 34
0.0
 50
90.0
100
AcDbRotatedDimension
1001
ACAD
1000
DSTYLE
1002
{
1070
    41
1040
2.77
1070
    75
1070
     1
1070
    78
1070
     0
1070
   271
1070
     1
1070
   340
1005
100
1002
}
  0
DIMENSION
  5
3B3
100
AcDbEntity
  8
LY_1
  6
CONTINUOUS
 62
   143
100
AcDbDimension
  2
*D19
 10
140.161227
 20
459.632774
 30
0.0
 11
140.161227
 21
594.61531
 31
0.0
 70
   128
  1
\A1;(<>)
  3
MXDIMSTYLE
100
AcDbAlignedDimension
 13
94.641539
 23
534.632774
 33
0.0
 14
-166.537687
 24
459.632774
 34
0.0
 50
90.0
100
AcDbRotatedDimension
1001
ACAD
1000
DSTYLE
1002
{
1070
    41
1040
2.77
1070
    78
1070
     0
1070
   271
1070
     1
1070
   340
1005
100
1002
}
  0
DIMENSION
  5
3C0
100
AcDbEntity
  8
LY_1
  6
CONTINUOUS
 62
   143
100
AcDbDimension
  2
*D20
 10
187.202838
 20
312.632774
 30
0.0
 11
187.202838
 21
423.632774
 31
0.0
 70
   128
  1
\A1;(<>)
  3
MXDIMSTYLE
100
AcDbAlignedDimension
 13
94.641536
 23
534.632774
 33
0.0
 14
-343.247174
 24
312.632774
 34
0.0
 50
90.0
100
AcDbRotatedDimension
1001
ACAD
1000
DSTYLE
1002
{
1070
    41
1040
2.77
1070
    78
1070
     0
1070
   271
1070
     1
1070
   340
1005
115
1002
}
  0
DIMENSION
  5
3CD
100
AcDbEntity
  8
LY_1
  6
CONTINUOUS
 62
   143
100
AcDbDimension
  2
*D21
 10
32.14154
 20
623.02363
 30
0.0
 11
-405.35846
 21
623.02363
 31
0.0
 70
   128
  1
\A1;(<>)
  3
MXDIMSTYLE
100
AcDbAlignedDimension
 13
-842.85846
 23
389.632792
 33
0.0
 14
32.14154
 24
394.632792
 34
0.0
100
AcDbRotatedDimension
1001
ACAD
1000
DSTYLE
1002
{
1070
    41
1040
2.77
1070
    78
1070
     0
1070
   271
1070
     1
1070
   340
1005
115
1002
}
  0
DIMENSION
  5
3DA
100
AcDbEntity
  8
LY_1
  6
CONTINUOUS
 62
   143
100
AcDbDimension
  2
*D22
 10
94.64154
 20
670.628772
 30
0.0
 11
-405.35846
 21
670.628772
 31
0.0
 70
   128
  1
\A1;(<>)
  3
MXDIMSTYLE
100
AcDbAlignedDimension
 13
-905.35846
 23
534.63277
 33
0.0
 14
94.64154
 24
534.63277
 34
0.0
100
AcDbRotatedDimension
1001
ACAD
1000
DSTYLE
1002
{
1070
    41
1040
2.77
1070
    78
1070
     0
1070
   271
1070
     1
1070
   340
1005
335
1002
}
  0
LINE
  5
3DB
100
AcDbEntity
  8
LY_1
  6
CONTINUOUS
 62
     3
100
AcDbLine
 10
-405.35846
 20
-203.367226
 30
0.0
 11
92.64154
 21
-203.367226
 31
0.0
  0
LINE
  5
3DC
100
AcDbEntity
  8
LY_1
  6
CONTINUOUS
 62
     3
100
AcDbLine
 10
-905.35846
 20
-112.367226
 30
0.0
 11
-905.35846
 21
-201.367226
 31
0.0
  0
LINE
  5
3DD
100
AcDbEntity
  8
LY_1
  6
CONTINUOUS
 62
     3
100
AcDbLine
 10
94.64154
 20
-112.367226
 30
0.0
 11
94.64154
 21
-201.367226
 31
0.0
  0
LINE
  5
3DE
100
AcDbEntity
  8
LY_1
  6
CONTINUOUS
 62
     3
100
AcDbLine
 10
-903.35846
 20
-110.367226
 30
0.0
 11
92.64154
 21
-110.367226
 31
0.0
  0
LINE
  5
3DF
100
AcDbEntity
  8
LY_1
  6
CONTINUOUS
 62
     3
100
AcDbLine
 10
-903.35846
 20
-203.367226
 30
0.0
 11
-405.35846
 21
-203.367226
 31
0.0
  0
LINE
  5
3E0
100
AcDbEntity
  8
LY_1
  6
CENTER
 62
   110
100
AcDbLine
 10
-475.989524
 20
312.632774
 30
0.0
 11
-343.247146
 21
312.632774
 31
0.0
  0
LINE
  5
3E1
100
AcDbEntity
  8
LY_1
  6
CENTER
 62
   110
100
AcDbLine
 10
-405.35846
 20
13.914119
 30
0.0
 11
-405.35846
 21
553.568788
 31
0.0
  0
LINE
  5
3E2
100
AcDbEntity
  8
LY_1
  6
CONTINUOUS
 62
     3
100
AcDbLine
 10
-905.35846
 20
534.632774
 30
0.0
 11
92.64154
 21
534.632774
 31
0.0
  0
LINE
  5
3E3
100
AcDbEntity
  8
LY_1
  6
CONTINUOUS
 62
     3
100
AcDbLine
 10
-903.35846
 20
34.632774
 30
0.0
 11
92.64154
 21
34.632774
 31
0.0
  0
LINE
  5
3E4
100
AcDbEntity
  8
LY_1
  6
CONTINUOUS
 62
     3
100
AcDbLine
 10
-905.35846
 20
534.632774
 30
0.0
 11
-905.35846
 21
36.632774
 31
0.0
  0
LINE
  5
3E5
100
AcDbEntity
  8
LY_1
  6
CONTINUOUS
 62
     3
100
AcDbLine
 10
94.64154
 20
532.632774
 30
0.0
 11
94.64154
 21
36.632774
 31
0.0
  0
CIRCLE
  5
3E6
100
AcDbEntity
  8
LY_1
  6
CONTINUOUS
 62
     3
100
AcDbCircle
 10
-405.35846
 20
459.632774
 30
0.0
 40
17.5
  0
LINE
  5
3E7
100
AcDbEntity
  8
LY_1
  6
CONTINUOUS
 62
     3
100
AcDbLine
 10
-837.85846
 20
74.632774
 30
0.0
 11
27.14154
 21
74.632774
 31
0.0
  0
LINE
  5
3E8
100
AcDbEntity
  8
LY_1
  6
CONTINUOUS
 62
     3
100
AcDbLine
 10
-842.85846
 20
389.632774
 30
0.0
 11
-842.85846
 21
79.632774
 31
0.0
  0
LINE
  5
3E9
100
AcDbEntity
  8
LY_1
  6
CONTINUOUS
 62
     3
100
AcDbLine
 10
32.14154
 20
389.632774
 30
0.0
 11
32.14154
 21
79.632774
 31
0.0
  0
LINE
  5
3EA
100
AcDbEntity
  8
LY_1
  6
CONTINUOUS
 62
     3
100
AcDbLine
 10
-837.85846
 20
394.632774
 30
0.0
 11
27.14154
 21
394.632774
 31
0.0
  0
LINE
  5
3EB
100
AcDbEntity
  8
LY_1
  6
CONTINUOUS
 62
     3
100
AcDbLine
 10
-165.35846
 20
361.905501
 30
0.0
 11
-645.35846
 21
361.905501
 31
0.0
  0
LINE
  5
3EC
100
AcDbEntity
  8
LY_1
  6
CONTINUOUS
 62
     3
100
AcDbLine
 10
-165.35846
 20
104.632774
 30
0.0
 11
-645.35846
 21
104.632774
 31
0.0
  0
ARC
  5
3ED
100
AcDbEntity
  8
LY_1
  6
CONTINUOUS
 62
     3
100
AcDbCircle
 10
-645.35846
 20
989.380248
 30
0.0
 40
627.474747
100
AcDbArc
 50
252.006391
 51
270.0
  0
ARC
  5
3EE
100
AcDbEntity
  8
LY_1
  6
CONTINUOUS
 62
     3
100
AcDbCircle
 10
-165.35846
 20
989.380248
 30
0.0
 40
627.474747
100
AcDbArc
 50
270.0
 51
287.822092
  0
ARC
  5
3EF
100
AcDbEntity
  8
LY_1
  6
CONTINUOUS
 62
     3
100
AcDbCircle
 10
-645.35846
 20
-577.033893
 30
0.0
 40
681.666667
100
AcDbArc
 50
90.0
 51
106.084848
  0
ARC
  5
3F0
100
AcDbEntity
  8
LY_1
  6
CONTINUOUS
 62
     3
100
AcDbCircle
 10
-165.35846
 20
-577.033893
 30
0.0
 40
681.666667
100
AcDbArc
 50
73.818974
 51
90.0
  0
ARC
  5
3F1
100
AcDbEntity
  8
LY_1
  6
CONTINUOUS
 62
     3
100
AcDbCircle
 10
-837.85846
 20
389.632774
 30
0.0
 40
5.0
100
AcDbArc
 50
90.0
 51
180.0
  0
ARC
  5
3F2
100
AcDbEntity
  8
LY_1
  6
CONTINUOUS
 62
     3
100
AcDbCircle
 10
-837.85846
 20
79.632774
 30
0.0
 40
5.0
100
AcDbArc
 50
180.0
 51
270.0
  0
ARC
  5
3F3
100
AcDbEntity
  8
LY_1
  6
CONTINUOUS
 62
     3
100
AcDbCircle
 10
27.14154
 20
79.632774
 30
0.0
 40
5.0
100
AcDbArc
 50
270.0
 51
0.0
  0
LINE
  5
3F4
100
AcDbEntity
  8
LY_1
  6
CENTER
 62
   110
100
AcDbLine
 10
-367.85846
 20
459.632774
 30
0.0
 11
-442.85846
 21
459.632774
 31
0.0
  0
DIMENSION
  5
404
100
AcDbEntity
  8
LY_1
  6
CONTINUOUS
 62
   143
100
AcDbDimension
  2
*D23
 10
-387.85846
 20
548.901513
 30
0.0
 11
-491.825066
 21
548.901513
 31
0.0
 70
   128
  1
\A1;(\U+2205<>)
  3
MXDIMSTYLE
100
AcDbAlignedDimension
 13
-422.85846
 23
459.632768
 33
0.0
 14
-387.85846
 24
459.632768
 34
0.0
100
AcDbRotatedDimension
1001
ACAD
1000
DSTYLE
1002
{
1070
    41
1040
2.77
1070
    78
1070
     0
1070
   271
1070
     1
1070
   340
1005
115
1002
}
  0
CIRCLE
  5
405
100
AcDbEntity
  8
LY_1
  6
CONTINUOUS
 62
     3
100
AcDbCircle
 10
-405.35846
 20
312.632774
 30
0.0
 40
37.5
  0
CIRCLE
  5
406
100
AcDbEntity
  8
LY_1
  6
CONTINUOUS
 62
     3
100
AcDbCircle
 10
-405.35846
 20
312.632774
 30
0.0
 40
31.5
  0
CIRCLE
  5
407
100
AcDbEntity
  8
LY_1
  6
CONTINUOUS
 62
     3
100
AcDbCircle
 10
-405.35846
 20
312.632774
 30
0.0
 40
20.0
  0
CIRCLE
  5
408
100
AcDbEntity
  8
LY_1
  6
CONTINUOUS
 62
     3
100
AcDbCircle
 10
-405.35846
 20
312.632774
 30
0.0
 40
19.75
  0
LINE
  5
409
100
AcDbEntity
  8
LY_1
  6
CENTER
 62
   110
100
AcDbLine
 10
-559.85846
 20
-239.183
 30
0.0
 11
-559.85846
 21
-248.467226
 31
0.0
  0
LINE
  5
40A
100
AcDbEntity
  8
LY_1
  6
CONTINUOUS
 62
     3
100
AcDbLine
 10
-383.35846
 20
-333.467226
 30
0.0
 11
-427.35846
 21
-333.467226
 31
0.0
  0
LINE
  5
40B
100
AcDbEntity
  8
LY_1
  6
CONTINUOUS
 62
     3
100
AcDbLine
 10
-405.35846
 20
-290.567226
 30
0.0
 11
-370.50846
 21
-290.567226
 31
0.0
  0
LINE
  5
40C
100
AcDbEntity
  8
LY_1
  6
CONTINUOUS
 62
     3
100
AcDbLine
 10
-370.50846
 20
-290.567226
 30
0.0
 11
-370.50846
 21
-291.067226
 31
0.0
  0
LINE
  5
40D
100
AcDbEntity
  8
LY_1
  6
CONTINUOUS
 62
     3
100
AcDbLine
 10
-405.35846
 20
-290.567226
 30
0.0
 11
-440.20846
 21
-290.567226
 31
0.0
  0
LINE
  5
40E
100
AcDbEntity
  8
LY_1
  6
CONTINUOUS
 62
     3
100
AcDbLine
 10
-440.20846
 20
-290.567226
 30
0.0
 11
-440.20846
 21
-291.067226
 31
0.0
  0
LINE
  5
40F
100
AcDbEntity
  8
LY_1
  6
CONTINUOUS
 62
     3
100
AcDbLine
 10
-427.35846
 20
-296.467226
 30
0.0
 11
-427.35846
 21
-333.467226
 31
0.0
  0
LINE
  5
410
100
AcDbEntity
  8
LY_1
  6
CONTINUOUS
 62
     3
100
AcDbLine
 10
-383.35846
 20
-296.467226
 30
0.0
 11
-383.35846
 21
-333.467226
 31
0.0
  0
LINE
  5
411
100
AcDbEntity
  8
LY_1
  6
CONTINUOUS
 62
     3
100
AcDbLine
 10
-375.35846
 20
-295.467226
 30
0.0
 11
-382.35846
 21
-295.467226
 31
0.0
  0
LINE
  5
412
100
AcDbEntity
  8
LY_1
  6
CONTINUOUS
 62
     3
100
AcDbLine
 10
-375.35846
 20
-293.067226
 30
0.0
 11
-375.35846
 21
-295.467226
 31
0.0
  0
LINE
  5
413
100
AcDbEntity
  8
LY_1
  6
CONTINUOUS
 62
     3
100
AcDbLine
 10
-428.35846
 20
-295.467226
 30
0.0
 11
-435.35846
 21
-295.467226
 31
0.0
  0
ARC
  5
414
100
AcDbEntity
  8
LY_1
  6
CONTINUOUS
 62
     3
100
AcDbCircle
 10
-428.35846
 20
-296.467226
 30
0.0
 40
1.0
100
AcDbArc
 50
0.0
 51
90.0
  0
ARC
  5
415
100
AcDbEntity
  8
LY_1
  6
CONTINUOUS
 62
     3
100
AcDbCircle
 10
-382.35846
 20
-296.467226
 30
0.0
 40
1.0
100
AcDbArc
 50
90.0
 51
180.0
  0
LINE
  5
416
100
AcDbEntity
  8
LY_1
  6
CONTINUOUS
 62
     3
100
AcDbLine
 10
-428.35846
 20
-295.467226
 30
0.0
 11
-382.35846
 21
-295.467226
 31
0.0
  0
LINE
  5
417
100
AcDbEntity
  8
LY_1
  6
CONTINUOUS
 62
     3
100
AcDbLine
 10
-435.35846
 20
-293.067226
 30
0.0
 11
-405.35846
 21
-293.067226
 31
0.0
  0
LINE
  5
418
100
AcDbEntity
  8
LY_1
  6
CONTINUOUS
 62
     3
100
AcDbLine
 10
-435.35846
 20
-295.467226
 30
0.0
 11
-435.35846
 21
-293.067226
 31
0.0
  0
LINE
  5
419
100
AcDbEntity
  8
LY_1
  6
CONTINUOUS
 62
     3
100
AcDbLine
 10
-375.35846
 20
-293.067226
 30
0.0
 11
-405.35846
 21
-293.067226
 31
0.0
  0
LINE
  5
41A
100
AcDbEntity
  8
LY_1
  6
CONTINUOUS
 62
     3
100
AcDbLine
 10
-435.35846
 20
-291.367226
 30
0.0
 11
-375.35846
 21
-291.367226
 31
0.0
  0
LINE
  5
41B
100
AcDbEntity
  8
LY_1
  6
CONTINUOUS
 62
     3
100
AcDbLine
 10
-435.35846
 20
-292.767226
 30
0.0
 11
-375.35846
 21
-292.767226
 31
0.0
  0
LINE
  5
41C
100
AcDbEntity
  8
LY_1
  6
CONTINUOUS
 62
     3
100
AcDbLine
 10
-375.35846
 20
-292.767226
 30
0.0
 11
-375.65846
 21
-293.067226
 31
0.0
  0
LINE
  5
41D
100
AcDbEntity
  8
LY_1
  6
CONTINUOUS
 62
     3
100
AcDbLine
 10
-435.35846
 20
-292.767226
 30
0.0
 11
-435.05846
 21
-293.067226
 31
0.0
  0
LINE
  5
41E
100
AcDbEntity
  8
LY_1
  6
CONTINUOUS
 62
     3
100
AcDbLine
 10
-375.65846
 20
-291.067226
 30
0.0
 11
-375.35846
 21
-291.367226
 31
0.0
  0
LINE
  5
41F
100
AcDbEntity
  8
LY_1
  6
CONTINUOUS
 62
     3
100
AcDbLine
 10
-435.05846
 20
-291.067226
 30
0.0
 11
-435.35846
 21
-291.367226
 31
0.0
  0
LINE
  5
420
100
AcDbEntity
  8
LY_1
  6
CONTINUOUS
 62
     3
100
AcDbLine
 10
-375.35846
 20
-292.767226
 30
0.0
 11
-375.35846
 21
-291.367226
 31
0.0
  0
LINE
  5
421
100
AcDbEntity
  8
LY_1
  6
CONTINUOUS
 62
     3
100
AcDbLine
 10
-435.35846
 20
-292.767226
 30
0.0
 11
-435.35846
 21
-291.367226
 31
0.0
  0
LINE
  5
422
100
AcDbEntity
  8
LY_1
  6
CONTINUOUS
 62
     3
100
AcDbLine
 10
-440.20846
 20
-290.567226
 30
0.0
 11
-438.817018
 21
-289.067226
 31
0.0
  0
LINE
  5
423
100
AcDbEntity
  8
LY_1
  6
CONTINUOUS
 62
     3
100
AcDbLine
 10
-370.50846
 20
-290.567226
 30
0.0
 11
-371.899901
 21
-289.067226
 31
0.0
  0
LINE
  5
424
100
AcDbEntity
  8
LY_1
  6
CONTINUOUS
 62
     3
100
AcDbLine
 10
-489.3137
 20
-259.45595
 30
0.0
 11
-488.044128
 21
-273.967226
 31
0.0
  0
LINE
  5
425
100
AcDbEntity
  8
LY_1
  6
CONTINUOUS
 62
     3
100
AcDbLine
 10
-493.415482
 20
-258.467226
 30
0.0
 11
-490.844901
 21
-287.849099
 31
0.0
  0
LINE
  5
426
100
AcDbEntity
  8
LY_1
  6
CONTINUOUS
 62
     3
100
AcDbLine
 10
-480.808908
 20
-259.510681
 30
0.0
 11
-479.544124
 21
-273.967226
 31
0.0
  0
LINE
  5
427
100
AcDbEntity
  8
LY_1
  6
CONTINUOUS
 62
     3
100
AcDbLine
 10
-484.807315
 20
-259.703532
 30
0.0
 11
-482.338563
 21
-287.921493
 31
0.0
  0
LINE
  5
428
100
AcDbEntity
  8
LY_1
  6
CONTINUOUS
 62
     3
100
AcDbLine
 10
-472.313691
 20
-259.455951
 30
0.0
 11
-469.779336
 21
-288.423772
 31
0.0
  0
LINE
  5
429
100
AcDbEntity
  8
LY_1
  6
CONTINUOUS
 62
     3
100
AcDbLine
 10
-476.30731
 20
-259.703532
 30
0.0
 11
-473.882798
 21
-287.415837
 31
0.0
  0
LINE
  5
42A
100
AcDbEntity
  8
LY_1
  6
CONTINUOUS
 62
     3
100
AcDbLine
 10
-463.80679
 20
-259.534875
 30
0.0
 11
-462.544123
 21
-273.967226
 31
0.0
  0
LINE
  5
42B
100
AcDbEntity
  8
LY_1
  6
CONTINUOUS
 62
     3
100
AcDbLine
 10
-467.807314
 20
-259.703533
 30
0.0
 11
-465.383219
 21
-287.411058
 31
0.0
  0
LINE
  5
42C
100
AcDbEntity
  8
LY_1
  6
CONTINUOUS
 62
     3
100
AcDbLine
 10
-455.308854
 20
-259.511236
 30
0.0
 11
-452.774547
 21
-288.478494
 31
0.0
  0
LINE
  5
42D
100
AcDbEntity
  8
LY_1
  6
CONTINUOUS
 62
     3
100
AcDbLine
 10
-459.285234
 20
-259.955853
 30
0.0
 11
-456.838558
 21
-287.921493
 31
0.0
  0
LINE
  5
42E
100
AcDbEntity
  8
LY_1
  6
CONTINUOUS
 62
     3
100
AcDbLine
 10
-446.808906
 20
-259.510681
 30
0.0
 11
-445.544122
 21
-273.967226
 31
0.0
  0
LINE
  5
42F
100
AcDbEntity
  8
LY_1
  6
CONTINUOUS
 62
     3
100
AcDbLine
 10
-450.807313
 20
-259.703533
 30
0.0
 11
-448.32521
 21
-288.074099
 31
0.0
  0
LINE
  5
430
100
AcDbEntity
  8
LY_1
  6
CENTER
 62
   110
100
AcDbLine
 10
-491.176717
 20
-258.467226
 30
0.0
 11
-549.85846
 21
-258.467226
 31
0.0
  0
ARC
  5
431
100
AcDbEntity
  8
LY_1
  6
CONTINUOUS
 62
     3
100
AcDbCircle
 10
-491.176717
 20
-260.660135
 30
0.0
 40
2.192908
100
AcDbArc
 50
39.597775
 51
90.0
  0
ARC
  5
432
100
AcDbEntity
  8
LY_1
  6
CONTINUOUS
 62
     3
100
AcDbCircle
 10
-482.676713
 20
-260.660135
 30
0.0
 40
2.192908
100
AcDbArc
 50
30.903974
 51
140.402225
  0
ARC
  5
433
100
AcDbEntity
  8
LY_1
  6
CONTINUOUS
 62
     3
100
AcDbCircle
 10
-474.176708
 20
-260.660135
 30
0.0
 40
2.192908
100
AcDbArc
 50
39.597735
 51
140.402225
  0
ARC
  5
434
100
AcDbEntity
  8
LY_1
  6
CONTINUOUS
 62
     3
100
AcDbCircle
 10
-465.676712
 20
-260.660135
 30
0.0
 40
2.192908
100
AcDbArc
 50
30.903974
 51
140.402265
  0
ARC
  5
435
100
AcDbEntity
  8
LY_1
  6
CONTINUOUS
 62
     3
100
AcDbCircle
 10
-457.176708
 20
-260.660135
 30
0.0
 40
2.192908
100
AcDbArc
 50
30.903974
 51
154.172537
  0
ARC
  5
436
100
AcDbEntity
  8
LY_1
  6
CONTINUOUS
 62
     3
100
AcDbCircle
 10
-448.676711
 20
-260.660135
 30
0.0
 40
2.192908
100
AcDbArc
 50
30.903974
 51
140.402265
  0
LINE
  5
437
100
AcDbEntity
  8
LY_1
  6
CONTINUOUS
 62
     3
100
AcDbLine
 10
-444.465756
 20
-286.292915
 30
0.0
 11
-445.544114
 21
-273.967226
 31
0.0
  0
LINE
  5
438
100
AcDbEntity
  8
LY_1
  6
CONTINUOUS
 62
     3
100
AcDbLine
 10
-461.279331
 20
-288.423772
 30
0.0
 11
-462.544115
 21
-273.967226
 31
0.0
  0
LINE
  5
439
100
AcDbEntity
  8
LY_1
  6
CONTINUOUS
 62
     3
100
AcDbLine
 10
-478.274544
 20
-288.478503
 30
0.0
 11
-479.544116
 21
-273.967226
 31
0.0
  0
LINE
  5
43A
100
AcDbEntity
  8
LY_1
  6
CONTINUOUS
 62
     3
100
AcDbLine
 10
-486.773652
 20
-288.488748
 30
0.0
 11
-488.04412
 21
-273.967226
 31
0.0
  0
ARC
  5
43B
100
AcDbEntity
  8
LY_1
  6
CONTINUOUS
 62
     3
100
AcDbCircle
 10
-438.411625
 20
-283.63735
 30
0.0
 40
6.61094
100
AcDbArc
 50
203.684029
 51
229.461552
  0
LINE
  5
43C
100
AcDbEntity
  8
LY_1
  6
CENTER
 62
   110
100
AcDbLine
 10
-493.411528
 20
-289.467226
 30
0.0
 11
-549.85846
 21
-289.467226
 31
0.0
  0
ARC
  5
43D
100
AcDbEntity
  8
LY_1
  6
CONTINUOUS
 62
     3
100
AcDbCircle
 10
-450.911522
 20
-287.274318
 30
0.0
 40
2.192908
100
AcDbArc
 50
219.597775
 51
313.854831
  0
ARC
  5
43E
100
AcDbEntity
  8
LY_1
  6
CONTINUOUS
 62
     3
100
AcDbCircle
 10
-459.411526
 20
-287.274318
 30
0.0
 40
2.192908
100
AcDbArc
 50
210.903974
 51
320.402225
  0
ARC
  5
43F
100
AcDbEntity
  8
LY_1
  6
CONTINUOUS
 62
     3
100
AcDbCircle
 10
-467.91153
 20
-287.274318
 30
0.0
 40
2.192908
100
AcDbArc
 50
210.903974
 51
320.402225
  0
ARC
  5
440
100
AcDbEntity
  8
LY_1
  6
CONTINUOUS
 62
     3
100
AcDbCircle
 10
-476.411527
 20
-287.274318
 30
0.0
 40
2.192908
100
AcDbArc
 50
219.597775
 51
320.402265
  0
ARC
  5
441
100
AcDbEntity
  8
LY_1
  6
CONTINUOUS
 62
     3
100
AcDbCircle
 10
-484.911531
 20
-287.274318
 30
0.0
 40
2.192908
100
AcDbArc
 50
220.515325
 51
320.402225
  0
ARC
  5
442
100
AcDbEntity
  8
LY_1
  6
CONTINUOUS
 62
     3
100
AcDbCircle
 10
-493.411528
 20
-287.274318
 30
0.0
 40
2.192908
100
AcDbArc
 50
270.0
 51
334.172537
  0
ARC
  5
443
100
AcDbEntity
  8
LY_1
  6
CONTINUOUS
 62
     3
100
AcDbCircle
 10
-444.352738
 20
-258.90606
 30
0.0
 40
2.279032
100
AcDbArc
 50
232.099702
 51
316.176877
  0
ARC
  5
444
100
AcDbEntity
  8
LY_1
  6
CONTINUOUS
 62
     3
100
AcDbCircle
 10
-443.090863
 20
-257.285128
 30
0.0
 40
4.333235
100
AcDbArc
 50
210.903974
 51
232.099702
  0
ARC
  5
445
100
AcDbEntity
  8
LY_1
  6
CONTINUOUS
 62
     3
100
AcDbCircle
 10
-452.926709
 20
-257.144513
 30
0.0
 40
3.322713
100
AcDbArc
 50
219.597735
 51
320.402265
  0
ARC
  5
446
100
AcDbEntity
  8
LY_1
  6
CONTINUOUS
 62
     3
100
AcDbCircle
 10
-461.42671
 20
-257.144505
 30
0.0
 40
3.322721
100
AcDbArc
 50
219.597775
 51
320.402225
  0
ARC
  5
447
100
AcDbEntity
  8
LY_1
  6
CONTINUOUS
 62
     3
100
AcDbCircle
 10
-469.92671
 20
-257.144513
 30
0.0
 40
3.322713
100
AcDbArc
 50
219.597735
 51
320.402265
  0
ARC
  5
448
100
AcDbEntity
  8
LY_1
  6
CONTINUOUS
 62
     3
100
AcDbCircle
 10
-478.426711
 20
-257.144505
 30
0.0
 40
3.322721
100
AcDbArc
 50
219.597775
 51
320.402225
  0
ARC
  5
449
100
AcDbEntity
  8
LY_1
  6
CONTINUOUS
 62
     3
100
AcDbCircle
 10
-486.926715
 20
-257.144505
 30
0.0
 40
3.322721
100
AcDbArc
 50
219.597775
 51
320.402225
  0
ARC
  5
44A
100
AcDbEntity
  8
LY_1
  6
CONTINUOUS
 62
     3
100
AcDbCircle
 10
-445.943236
 20
-292.445284
 30
0.0
 40
4.978057
100
AcDbArc
 50
49.466448
 51
133.854831
  0
ARC
  5
44B
100
AcDbEntity
  8
LY_1
  6
CONTINUOUS
 62
     3
100
AcDbCircle
 10
-455.161524
 20
-290.789948
 30
0.0
 40
3.322721
100
AcDbArc
 50
39.597775
 51
140.402225
  0
ARC
  5
44C
100
AcDbEntity
  8
LY_1
  6
CONTINUOUS
 62
     3
100
AcDbCircle
 10
-463.661528
 20
-290.789948
 30
0.0
 40
3.322721
100
AcDbArc
 50
39.597775
 51
140.402225
  0
ARC
  5
44D
100
AcDbEntity
  8
LY_1
  6
CONTINUOUS
 62
     3
100
AcDbCircle
 10
-472.161529
 20
-290.78994
 30
0.0
 40
3.322713
100
AcDbArc
 50
39.597735
 51
140.402265
  0
ARC
  5
44E
100
AcDbEntity
  8
LY_1
  6
CONTINUOUS
 62
     3
100
AcDbCircle
 10
-480.661529
 20
-290.789948
 30
0.0
 40
3.322721
100
AcDbArc
 50
39.597775
 51
140.402225
  0
ARC
  5
44F
100
AcDbEntity
  8
LY_1
  6
CONTINUOUS
 62
     3
100
AcDbCircle
 10
-489.251393
 20
-290.982919
 30
0.0
 40
3.515692
100
AcDbArc
 50
40.515325
 51
128.452253
  0
LINE
  5
450
100
AcDbEntity
  8
LY_1
  6
CONTINUOUS
 62
     3
100
AcDbLine
 10
-440.20846
 20
-285.967226
 30
0.0
 11
-434.25846
 21
-284.467226
 31
0.0
  0
LINE
  5
451
100
AcDbEntity
  8
LY_1
  6
CONTINUOUS
 62
     3
100
AcDbLine
 10
-370.50846
 20
-285.967226
 30
0.0
 11
-376.45846
 21
-284.467226
 31
0.0
  0
LINE
  5
452
100
AcDbEntity
  8
LY_1
  6
CONTINUOUS
 62
     3
100
AcDbLine
 10
-440.20846
 20
-285.967226
 30
0.0
 11
-370.50846
 21
-285.967226
 31
0.0
  0
LINE
  5
453
100
AcDbEntity
  8
LY_1
  6
CONTINUOUS
 62
     3
100
AcDbLine
 10
-440.20846
 20
-289.067226
 30
0.0
 11
-440.20846
 21
-285.967226
 31
0.0
  0
LINE
  5
454
100
AcDbEntity
  8
LY_1
  6
CONTINUOUS
 62
     3
100
AcDbLine
 10
-370.50846
 20
-285.967226
 30
0.0
 11
-370.50846
 21
-289.067226
 31
0.0
  0
LINE
  5
455
100
AcDbEntity
  8
LY_1
  6
CONTINUOUS
 62
     3
100
AcDbLine
 10
-440.20846
 20
-289.067226
 30
0.0
 11
-370.50846
 21
-289.067226
 31
0.0
  0
LINE
  5
456
100
AcDbEntity
  8
LY_1
  6
CONTINUOUS
 62
     3
100
AcDbLine
 10
-434.25846
 20
-284.467226
 30
0.0
 11
-376.45846
 21
-284.467226
 31
0.0
  0
LINE
  5
457
100
AcDbEntity
  8
LY_1
  6
CONTINUOUS
 62
     3
100
AcDbLine
 10
-376.45846
 20
-263.467226
 30
0.0
 11
-376.45846
 21
-284.467226
 31
0.0
  0
LINE
  5
458
100
AcDbEntity
  8
LY_1
  6
CONTINUOUS
 62
     3
100
AcDbLine
 10
-440.20846
 20
-263.467226
 30
0.0
 11
-370.50846
 21
-263.467226
 31
0.0
  0
LINE
  5
459
100
AcDbEntity
  8
LY_1
  6
CONTINUOUS
 62
     3
100
AcDbLine
 10
-370.50846
 20
-260.017226
 30
0.0
 11
-370.50846
 21
-263.467226
 31
0.0
  0
LINE
  5
45A
100
AcDbEntity
  8
LY_1
  6
CONTINUOUS
 62
     3
100
AcDbLine
 10
-439.10846
 20
-255.367226
 30
0.0
 11
-439.10846
 21
-260.017226
 31
0.0
  0
LINE
  5
45B
100
AcDbEntity
  8
LY_1
  6
CONTINUOUS
 62
     3
100
AcDbLine
 10
-371.60846
 20
-255.367226
 30
0.0
 11
-371.60846
 21
-260.017226
 31
0.0
  0
LINE
  5
45C
100
AcDbEntity
  8
LY_1
  6
CONTINUOUS
 62
     3
100
AcDbLine
 10
-439.10846
 20
-257.867226
 30
0.0
 11
-371.60846
 21
-257.867226
 31
0.0
  0
LINE
  5
45D
100
AcDbEntity
  8
LY_1
  6
CONTINUOUS
 62
     3
100
AcDbLine
 10
-421.23346
 20
-495.367226
 30
0.0
 11
-389.48346
 21
-495.367226
 31
0.0
  0
LINE
  5
45E
100
AcDbEntity
  8
LY_1
  6
CENTER
 62
   110
100
AcDbLine
 10
-405.35846
 20
-273.967226
 30
0.0
 11
-549.85846
 21
-273.967226
 31
0.0
  0
LINE
  5
45F
100
AcDbEntity
  8
LY_1
  6
CONTINUOUS
 62
     3
100
AcDbLine
 10
-440.20846
 20
-287.917226
 30
0.0
 11
-442.70846
 21
-287.917226
 31
0.0
  0
LINE
  5
460
100
AcDbEntity
  8
LY_1
  6
CONTINUOUS
 62
     3
100
AcDbLine
 10
-405.35846
 20
-260.017226
 30
0.0
 11
-442.70846
 21
-260.017226
 31
0.0
  0
LINE
  5
461
100
AcDbEntity
  8
LY_1
  6
CONTINUOUS
 62
     3
100
AcDbLine
 10
-405.35846
 20
-260.017226
 30
0.0
 11
-370.50846
 21
-260.017226
 31
0.0
  0
LINE
  5
462
100
AcDbEntity
  8
LY_1
  6
CONTINUOUS
 62
     3
100
AcDbLine
 10
-440.20846
 20
-263.467226
 30
0.0
 11
-440.20846
 21
-260.017226
 31
0.0
  0
ARC
  5
463
100
AcDbEntity
  8
LY_1
  6
CONTINUOUS
 62
     3
100
AcDbCircle
 10
-443.598636
 20
-273.967226
 30
0.0
 40
14.053074
100
AcDbArc
 50
311.654392
 51
48.345608
  0
DIMENSION
  5
472
100
AcDbEntity
  8
LY_1
  6
CONTINUOUS
 62
   143
100
AcDbDimension
  2
*D24
 10
-389.48346
 20
-440.225491
 30
0.0
 11
-321.695671
 21
-440.225491
 31
0.0
 70
   128
  1
\A1;\U+2205<>
  3
MXDIMSTYLE
100
AcDbAlignedDimension
 13
-421.23346
 23
-495.467229
 33
0.0
 14
-389.48346
 24
-495.467229
 34
0.0
100
AcDbRotatedDimension
1001
ACAD
1000
DSTYLE
1002
{
1070
    41
1040
2.77
1070
    75
1070
     1
1070
    76
1070
     1
1070
   284
1070
     8
1070
   340
1005
46C
1002
}
  0
LINE
  5
473
100
AcDbEntity
  8
LY_1
  6
CONTINUOUS
 62
     3
100
AcDbLine
 10
491.557707
 20
-291.367226
 30
0.0
 11
551.557707
 21
-291.367226
 31
0.0
  0
LINE
  5
474
100
AcDbEntity
  8
LY_1
  6
CONTINUOUS
 62
     3
100
AcDbLine
 10
491.557707
 20
-292.767226
 30
0.0
 11
551.557707
 21
-292.767226
 31
0.0
  0
LINE
  5
475
100
AcDbEntity
  8
LY_1
  6
CONTINUOUS
 62
     3
100
AcDbLine
 10
551.557707
 20
-292.767226
 30
0.0
 11
551.257707
 21
-293.067226
 31
0.0
  0
LINE
  5
476
100
AcDbEntity
  8
LY_1
  6
CONTINUOUS
 62
     3
100
AcDbLine
 10
491.557707
 20
-292.767226
 30
0.0
 11
491.857707
 21
-293.067226
 31
0.0
  0
LINE
  5
477
100
AcDbEntity
  8
LY_1
  6
CONTINUOUS
 62
     3
100
AcDbLine
 10
551.257707
 20
-291.067226
 30
0.0
 11
551.557707
 21
-291.367226
 31
0.0
  0
LINE
  5
478
100
AcDbEntity
  8
LY_1
  6
CONTINUOUS
 62
     3
100
AcDbLine
 10
491.857707
 20
-291.067226
 30
0.0
 11
491.557707
 21
-291.367226
 31
0.0
  0
LINE
  5
479
100
AcDbEntity
  8
LY_1
  6
CONTINUOUS
 62
     3
100
AcDbLine
 10
551.557707
 20
-292.767226
 30
0.0
 11
551.557707
 21
-291.367226
 31
0.0
  0
LINE
  5
47A
100
AcDbEntity
  8
LY_1
  6
CONTINUOUS
 62
     3
100
AcDbLine
 10
491.557707
 20
-292.767226
 30
0.0
 11
491.557707
 21
-291.367226
 31
0.0
  0
LINE
  5
47B
100
AcDbEntity
  8
LY_1
  6
CONTINUOUS
 62
     3
100
AcDbLine
 10
741.557707
 20
-110.367226
 30
0.0
 11
245.557707
 21
-110.367226
 31
0.0
  0
LINE
  5
47C
100
AcDbEntity
  8
LY_1
  6
CONTINUOUS
 62
     3
100
AcDbLine
 10
741.557707
 20
-203.367226
 30
0.0
 11
245.557707
 21
-203.367226
 31
0.0
  0
LINE
  5
47D
100
AcDbEntity
  8
LY_1
  6
CONTINUOUS
 62
     3
100
AcDbLine
 10
551.557707
 20
-293.067226
 30
0.0
 11
521.557707
 21
-293.067226
 31
0.0
  0
LINE
  5
47E
100
AcDbEntity
  8
LY_1
  6
CONTINUOUS
 62
     3
100
AcDbLine
 10
491.557707
 20
-295.467226
 30
0.0
 11
491.557707
 21
-293.067226
 31
0.0
  0
LINE
  5
47F
100
AcDbEntity
  8
LY_1
  6
CONTINUOUS
 62
     3
100
AcDbLine
 10
491.557707
 20
-293.067226
 30
0.0
 11
521.557707
 21
-293.067226
 31
0.0
  0
LINE
  5
480
100
AcDbEntity
  8
LY_1
  6
CONTINUOUS
 62
     3
100
AcDbLine
 10
498.557707
 20
-295.467226
 30
0.0
 11
544.557707
 21
-295.467226
 31
0.0
  0
ARC
  5
481
100
AcDbEntity
  8
LY_1
  6
CONTINUOUS
 62
     3
100
AcDbCircle
 10
544.557707
 20
-296.467226
 30
0.0
 40
1.0
100
AcDbArc
 50
90.0
 51
180.0
  0
ARC
  5
482
100
AcDbEntity
  8
LY_1
  6
CONTINUOUS
 62
     3
100
AcDbCircle
 10
498.557707
 20
-296.467226
 30
0.0
 40
1.0
100
AcDbArc
 50
0.0
 51
90.0
  0
LINE
  5
483
100
AcDbEntity
  8
LY_1
  6
CONTINUOUS
 62
     3
100
AcDbLine
 10
498.557707
 20
-295.467226
 30
0.0
 11
491.557707
 21
-295.467226
 31
0.0
  0
LINE
  5
484
100
AcDbEntity
  8
LY_1
  6
CONTINUOUS
 62
     3
100
AcDbLine
 10
551.557707
 20
-293.067226
 30
0.0
 11
551.557707
 21
-295.467226
 31
0.0
  0
LINE
  5
485
100
AcDbEntity
  8
LY_1
  6
CONTINUOUS
 62
     3
100
AcDbLine
 10
551.557707
 20
-295.467226
 30
0.0
 11
544.557707
 21
-295.467226
 31
0.0
  0
LINE
  5
486
100
AcDbEntity
  8
LY_1
  6
CONTINUOUS
 62
     3
100
AcDbLine
 10
486.707707
 20
-290.567226
 30
0.0
 11
486.707707
 21
-291.067226
 31
0.0
  0
LINE
  5
487
100
AcDbEntity
  8
LY_1
  6
CONTINUOUS
 62
     3
100
AcDbLine
 10
486.707707
 20
-290.567226
 30
0.0
 11
488.099149
 21
-289.067226
 31
0.0
  0
LINE
  5
488
100
AcDbEntity
  8
LY_1
  6
CONTINUOUS
 62
     3
100
AcDbLine
 10
521.557707
 20
-290.567226
 30
0.0
 11
486.707707
 21
-290.567226
 31
0.0
  0
LINE
  5
489
100
AcDbEntity
  8
LY_1
  6
CONTINUOUS
 62
     3
100
AcDbLine
 10
556.407707
 20
-290.567226
 30
0.0
 11
556.407707
 21
-291.067226
 31
0.0
  0
LINE
  5
48A
100
AcDbEntity
  8
LY_1
  6
CONTINUOUS
 62
     3
100
AcDbLine
 10
556.407707
 20
-290.567226
 30
0.0
 11
555.016266
 21
-289.067226
 31
0.0
  0
LINE
  5
48B
100
AcDbEntity
  8
LY_1
  6
CONTINUOUS
 62
     3
100
AcDbLine
 10
521.557707
 20
-290.567226
 30
0.0
 11
556.407707
 21
-290.567226
 31
0.0
  0
LINE
  5
48C
100
AcDbEntity
  8
LY_1
  6
CONTINUOUS
 62
     3
100
AcDbLine
 10
486.707707
 20
-285.967226
 30
0.0
 11
492.657707
 21
-284.467226
 31
0.0
  0
LINE
  5
48D
100
AcDbEntity
  8
LY_1
  6
CONTINUOUS
 62
     3
100
AcDbLine
 10
486.707707
 20
-285.967226
 30
0.0
 11
556.407707
 21
-285.967226
 31
0.0
  0
LINE
  5
48E
100
AcDbEntity
  8
LY_1
  6
CONTINUOUS
 62
     3
100
AcDbLine
 10
486.707707
 20
-285.967226
 30
0.0
 11
486.707707
 21
-289.067226
 31
0.0
  0
LINE
  5
48F
100
AcDbEntity
  8
LY_1
  6
CONTINUOUS
 62
     3
100
AcDbLine
 10
486.707707
 20
-289.067226
 30
0.0
 11
556.407707
 21
-289.067226
 31
0.0
  0
LINE
  5
490
100
AcDbEntity
  8
LY_1
  6
CONTINUOUS
 62
     3
100
AcDbLine
 10
492.657707
 20
-284.467226
 30
0.0
 11
550.457707
 21
-284.467226
 31
0.0
  0
LINE
  5
491
100
AcDbEntity
  8
LY_1
  6
CONTINUOUS
 62
     3
100
AcDbLine
 10
492.657707
 20
-263.467226
 30
0.0
 11
492.657707
 21
-284.467226
 31
0.0
  0
LINE
  5
492
100
AcDbEntity
  8
LY_1
  6
CONTINUOUS
 62
     3
100
AcDbLine
 10
550.457707
 20
-263.467226
 30
0.0
 11
550.457707
 21
-284.467226
 31
0.0
  0
LINE
  5
493
100
AcDbEntity
  8
LY_1
  6
CONTINUOUS
 62
     3
100
AcDbLine
 10
486.707707
 20
-263.467226
 30
0.0
 11
556.407707
 21
-263.467226
 31
0.0
  0
LINE
  5
494
100
AcDbEntity
  8
LY_1
  6
CONTINUOUS
 62
     3
100
AcDbLine
 10
486.707707
 20
-260.367226
 30
0.0
 11
486.707707
 21
-263.467226
 31
0.0
  0
LINE
  5
495
100
AcDbEntity
  8
LY_1
  6
CONTINUOUS
 62
     3
100
AcDbLine
 10
556.407707
 20
-260.367226
 30
0.0
 11
556.407707
 21
-263.467226
 31
0.0
  0
LINE
  5
496
100
AcDbEntity
  8
LY_1
  6
CONTINUOUS
 62
     3
100
AcDbLine
 10
487.807707
 20
-255.367226
 30
0.0
 11
487.807707
 21
-260.367226
 31
0.0
  0
LINE
  5
497
100
AcDbEntity
  8
LY_1
  6
CONTINUOUS
 62
     3
100
AcDbLine
 10
555.307707
 20
-255.367226
 30
0.0
 11
555.307707
 21
-260.367226
 31
0.0
  0
LINE
  5
498
100
AcDbEntity
  8
LY_1
  6
CONTINUOUS
 62
     3
100
AcDbLine
 10
486.707707
 20
-260.367226
 30
0.0
 11
556.407707
 21
-260.367226
 31
0.0
  0
LINE
  5
499
100
AcDbEntity
  8
LY_1
  6
CONTINUOUS
 62
     3
100
AcDbLine
 10
487.807707
 20
-257.867226
 30
0.0
 11
555.307707
 21
-257.867226
 31
0.0
  0
LINE
  5
49A
100
AcDbEntity
  8
LY_1
  6
CONTINUOUS
 62
     3
100
AcDbLine
 10
743.557707
 20
-112.367226
 30
0.0
 11
743.557707
 21
-201.367226
 31
0.0
  0
LINE
  5
49B
100
AcDbEntity
  8
LY_1
  6
CONTINUOUS
 62
     3
100
AcDbLine
 10
243.557707
 20
-112.367226
 30
0.0
 11
243.557707
 21
-201.367226
 31
0.0
  0
LINE
  5
49C
100
AcDbEntity
  8
LY_1
  6
CENTER
 62
   110
100
AcDbLine
 10
521.557707
 20
-273.967226
 30
0.0
 11
577.387104
 21
-273.967226
 31
0.0
  0
LINE
  5
49D
100
AcDbEntity
  8
LY_1
  6
CONTINUOUS
 62
     3
100
AcDbLine
 10
556.407707
 20
-285.967226
 30
0.0
 11
550.457707
 21
-284.467226
 31
0.0
  0
LINE
  5
49E
100
AcDbEntity
  8
LY_1
  6
CONTINUOUS
 62
     3
100
AcDbLine
 10
556.407707
 20
-289.067226
 30
0.0
 11
556.407707
 21
-285.967226
 31
0.0
  0
LINE
  5
49F
100
AcDbEntity
  8
LY_1
  6
CENTER
 62
   110
100
AcDbLine
 10
617.120357
 20
-258.580019
 30
0.0
 11
623.516288
 21
-233.450349
 31
0.0
  0
LINE
  5
4A0
100
AcDbEntity
  8
LY_1
  6
CENTER
 62
   110
100
AcDbLine
 10
592.922848
 20
-227.969855
 30
0.0
 11
587.078141
 21
-250.933761
 31
0.0
  0
LINE
  5
4A1
100
AcDbEntity
  8
LY_1
  6
CONTINUOUS
 62
     3
100
AcDbLine
 10
633.752661
 20
-203.367226
 30
0.0
 11
629.680387
 21
-219.367226
 31
0.0
  0
LINE
  5
4A2
100
AcDbEntity
  8
LY_1
  6
CONTINUOUS
 62
     3
100
AcDbLine
 10
629.680387
 20
-219.367226
 30
0.0
 11
594.792652
 21
-210.487701
 31
0.0
  0
LINE
  5
4A3
100
AcDbEntity
  8
LY_1
  6
CONTINUOUS
 62
     3
100
AcDbLine
 10
596.604935
 20
-203.367226
 30
0.0
 11
594.792652
 21
-210.487701
 31
0.0
  0
LINE
  5
4A4
100
AcDbEntity
  8
LY_1
  6
CONTINUOUS
 62
     3
100
AcDbLine
 10
558.506564
 20
-259.703533
 30
0.0
 11
556.213081
 21
-285.918161
 31
0.0
  0
ARC
  5
4A5
100
AcDbEntity
  8
LY_1
  6
CONTINUOUS
 62
     3
100
AcDbCircle
 10
558.610773
 20
-287.274318
 30
0.0
 40
2.192908
100
AcDbArc
 50
219.597826
 51
320.402225
  0
ARC
  5
4A6
100
AcDbEntity
  8
LY_1
  6
CONTINUOUS
 62
     3
100
AcDbCircle
 10
556.375962
 20
-260.660135
 30
0.0
 40
2.192908
100
AcDbArc
 50
39.597735
 51
119.152816
  0
LINE
  5
4A7
100
AcDbEntity
  8
LY_1
  6
CENTER
 62
   110
100
AcDbLine
 10
577.387104
 20
-258.467226
 30
0.0
 11
573.375955
 21
-258.467226
 31
0.0
  0
ARC
  5
4A8
100
AcDbEntity
  8
LY_1
  6
CONTINUOUS
 62
     3
100
AcDbCircle
 10
562.860775
 20
-290.789948
 30
0.0
 40
3.322721
100
AcDbArc
 50
39.597826
 51
140.402225
  0
LINE
  5
4A9
100
AcDbEntity
  8
LY_1
  6
CONTINUOUS
 62
     3
100
AcDbLine
 10
563.008105
 20
-259.511236
 30
0.0
 11
560.473798
 21
-288.478494
 31
0.0
  0
ARC
  5
4AA
100
AcDbEntity
  8
LY_1
  6
CONTINUOUS
 62
     3
100
AcDbCircle
 10
564.875958
 20
-260.660135
 30
0.0
 40
2.192908
100
AcDbArc
 50
39.597735
 51
140.402265
  0
ARC
  5
4AB
100
AcDbEntity
  8
LY_1
  6
CONTINUOUS
 62
     3
100
AcDbCircle
 10
560.62596
 20
-257.144513
 30
0.0
 40
3.322713
100
AcDbArc
 50
219.597735
 51
320.402265
  0
LINE
  5
4AC
100
AcDbEntity
  8
LY_1
  6
CONTINUOUS
 62
     3
100
AcDbLine
 10
571.508101
 20
-259.511236
 30
0.0
 11
568.973795
 21
-288.478494
 31
0.0
  0
LINE
  5
4AD
100
AcDbEntity
  8
LY_1
  6
CONTINUOUS
 62
     3
100
AcDbLine
 10
575.484482
 20
-259.955853
 30
0.0
 11
573.037805
 21
-287.921493
 31
0.0
  0
LINE
  5
4AE
100
AcDbEntity
  8
LY_1
  6
CONTINUOUS
 62
     3
100
AcDbLine
 10
567.00656
 20
-259.703533
 30
0.0
 11
564.537809
 21
-287.921493
 31
0.0
  0
ARC
  5
4AF
100
AcDbEntity
  8
LY_1
  6
CONTINUOUS
 62
     3
100
AcDbCircle
 10
573.375955
 20
-260.660135
 30
0.0
 40
2.192908
100
AcDbArc
 50
25.827463
 51
149.096026
  0
ARC
  5
4B0
100
AcDbEntity
  8
LY_1
  6
CONTINUOUS
 62
     3
100
AcDbCircle
 10
567.110769
 20
-287.274318
 30
0.0
 40
2.192908
100
AcDbArc
 50
219.597826
 51
320.402225
  0
ARC
  5
4B1
100
AcDbEntity
  8
LY_1
  6
CONTINUOUS
 62
     3
100
AcDbCircle
 10
575.610774
 20
-287.274318
 30
0.0
 40
2.192908
100
AcDbArc
 50
219.597775
 51
270.0
  0
ARC
  5
4B2
100
AcDbEntity
  8
LY_1
  6
CONTINUOUS
 62
     3
100
AcDbCircle
 10
569.125957
 20
-257.144513
 30
0.0
 40
3.322713
100
AcDbArc
 50
219.597735
 51
320.402265
  0
ARC
  5
4B3
100
AcDbEntity
  8
LY_1
  6
CONTINUOUS
 62
     3
100
AcDbCircle
 10
571.360771
 20
-290.789948
 30
0.0
 40
3.322721
100
AcDbArc
 50
39.597775
 51
140.402225
  0
ARC
  5
4B4
100
AcDbEntity
  8
LY_1
  6
CONTINUOUS
 62
     3
100
AcDbCircle
 10
554.360778
 20
-290.789948
 30
0.0
 40
3.322721
100
AcDbArc
 50
39.597775
 51
51.972478
  0
LINE
  5
4B5
100
AcDbEntity
  8
LY_1
  6
CONTINUOUS
 62
     3
100
AcDbLine
 10
554.162004
 20
-263.467226
 30
0.0
 11
552.284451
 21
-284.92775
 31
0.0
  0
LINE
  5
4B6
100
AcDbEntity
  8
LY_1
  6
CENTER
 62
   110
100
AcDbLine
 10
567.110769
 20
-289.467226
 30
0.0
 11
577.387104
 21
-289.467226
 31
0.0
  0
LINE
  5
4B7
100
AcDbEntity
  8
LY_1
  6
CENTER
 62
   110
100
AcDbLine
 10
602.099249
 20
-254.75689
 30
0.0
 11
615.178798
 21
-203.367226
 31
0.0
  0
ARC
  5
4B8
100
AcDbEntity
  8
LY_1
  6
CONTINUOUS
 62
     3
100
AcDbCircle
 10
627.942976
 20
-221.420524
 30
0.0
 40
3.322721
100
AcDbArc
 50
119.015123
 51
216.122655
  0
ARC
  5
4B9
100
AcDbEntity
  8
LY_1
  6
CONTINUOUS
 62
     3
100
AcDbCircle
 10
625.84642
 20
-229.65791
 30
0.0
 40
3.322721
100
AcDbArc
 50
115.318204
 51
216.122655
  0
ARC
  5
4BA
100
AcDbEntity
  8
LY_1
  6
CONTINUOUS
 62
     3
100
AcDbCircle
 10
594.785825
 20
-215.28753
 30
0.0
 40
3.322721
100
AcDbArc
 50
295.318204
 51
36.122655
  0
ARC
  5
4BB
100
AcDbEntity
  8
LY_1
  6
CONTINUOUS
 62
     3
100
AcDbCircle
 10
592.689279
 20
-223.524914
 30
0.0
 40
3.322713
100
AcDbArc
 50
295.318165
 51
36.122695
  0
ARC
  5
4BC
100
AcDbEntity
  8
LY_1
  6
CONTINUOUS
 62
     3
100
AcDbCircle
 10
623.487688
 20
-224.672075
 30
0.0
 40
2.192908
100
AcDbArc
 50
295.318204
 51
44.816456
  0
ARC
  5
4BD
100
AcDbEntity
  8
LY_1
  6
CONTINUOUS
 62
     3
100
AcDbCircle
 10
621.391132
 20
-232.909461
 30
0.0
 40
2.192908
100
AcDbArc
 50
290.513119
 51
36.122655
  0
LINE
  5
4BE
100
AcDbEntity
  8
LY_1
  6
CONTINUOUS
 62
     3
100
AcDbLine
 10
625.062329
 20
-223.145495
 30
0.0
 11
611.3644
 21
-218.354031
 31
0.0
  0
ARC
  5
4BF
100
AcDbEntity
  8
LY_1
  6
CONTINUOUS
 62
     3
100
AcDbCircle
 10
597.144557
 20
-220.273365
 30
0.0
 40
2.192908
100
AcDbArc
 50
101.547893
 51
224.816456
  0
ARC
  5
4C0
100
AcDbEntity
  8
LY_1
  6
CONTINUOUS
 62
     3
100
AcDbCircle
 10
599.241113
 20
-212.035979
 30
0.0
 40
2.192908
100
AcDbArc
 50
155.12508
 51
224.816456
  0
LINE
  5
4C1
100
AcDbEntity
  8
LY_1
  6
CONTINUOUS
 62
     3
100
AcDbLine
 10
594.646478
 20
-226.21002
 30
0.0
 11
621.383682
 21
-235.562554
 31
0.0
  0
LINE
  5
4C2
100
AcDbEntity
  8
LY_1
  6
CONTINUOUS
 62
     3
100
AcDbLine
 10
596.982111
 20
-218.05627
 30
0.0
 11
623.480236
 21
-227.325176
 31
0.0
  0
LINE
  5
4C3
100
AcDbEntity
  8
LY_1
  6
CONTINUOUS
 62
     3
100
AcDbLine
 10
595.570443
 20
-221.800129
 30
0.0
 11
623.017625
 21
-231.40101
 31
0.0
  0
LINE
  5
4C4
100
AcDbEntity
  8
LY_1
  6
CONTINUOUS
 62
     3
100
AcDbLine
 10
597.689397
 20
-213.570578
 30
0.0
 11
611.364401
 21
-218.354023
 31
0.0
  0
ARC
  5
4C5
100
AcDbEntity
  8
LY_1
  6
CONTINUOUS
 62
     3
100
AcDbCircle
 10
595.048004
 20
-228.510743
 30
0.0
 40
2.192908
100
AcDbArc
 50
115.318165
 51
165.72043
  0
ARC
  5
4C6
100
AcDbEntity
  8
LY_1
  6
CENTER
 62
   110
100
AcDbCircle
 10
577.387104
 20
-248.467226
 30
0.0
 40
10.0
100
AcDbArc
 50
270.0
 51
345.72043
  0
ARC
  5
4C7
100
AcDbEntity
  8
LY_1
  6
CENTER
 62
   110
100
AcDbCircle
 10
577.387104
 20
-248.467226
 30
0.0
 40
25.5
100
AcDbArc
 50
270.0
 51
345.72043
  0
ARC
  5
4C8
100
AcDbEntity
  8
LY_1
  6
CENTER
 62
   110
100
AcDbCircle
 10
577.387104
 20
-248.467226
 30
0.0
 40
41.0
100
AcDbArc
 50
270.0
 51
345.72043
  0
ARC
  5
4C9
100
AcDbEntity
  8
LY_1
  6
CONTINUOUS
 62
     3
100
AcDbCircle
 10
245.557707
 20
-112.367226
 30
0.0
 40
2.0
100
AcDbArc
 50
90.0
 51
180.0
  0
ARC
  5
4CA
100
AcDbEntity
  8
LY_1
  6
CONTINUOUS
 62
     3
100
AcDbCircle
 10
245.557707
 20
-201.367226
 30
0.0
 40
2.0
100
AcDbArc
 50
180.0
 51
270.0
  0
ARC
  5
4CB
100
AcDbEntity
  8
LY_1
  6
CONTINUOUS
 62
     3
100
AcDbCircle
 10
741.557707
 20
-112.367226
 30
0.0
 40
2.0
100
AcDbArc
 50
0.0
 51
90.0
  0
ARC
  5
4CC
100
AcDbEntity
  8
LY_1
  6
CONTINUOUS
 62
     3
100
AcDbCircle
 10
741.557707
 20
-201.367226
 30
0.0
 40
2.0
100
AcDbArc
 50
270.0
 51
0.0
  0
POINT
  5
4CD
100
AcDbEntity
  8
LY_1
  6
CONTINUOUS
 62
   110
100
AcDbPoint
 10
243.557707
 20
-110.367226
 30
0.0
  0
LINE
  5
4CE
100
AcDbEntity
  8
LY_1
  6
CENTER
 62
   110
100
AcDbLine
 10
-405.35846
 20
-85.686131
 30
0.0
 11
-405.35846
 21
-509.95589
 31
0.0
  0
LINE
  5
4CF
100
AcDbEntity
  8
LY_1
  6
CONTINUOUS
 62
     3
100
AcDbLine
 10
-425.95846
 20
-333.467226
 30
0.0
 11
-425.95846
 21
-338.393482
 31
0.0
  0
LINE
  5
4D0
100
AcDbEntity
  8
LY_1
  6
CONTINUOUS
 62
     3
100
AcDbLine
 10
-384.75846
 20
-333.467226
 30
0.0
 11
-384.75846
 21
-338.393482
 31
0.0
  0
LINE
  5
4D1
100
AcDbEntity
  8
LY_1
  6
CONTINUOUS
 62
   110
100
AcDbLine
 10
-385.75846
 20
-333.467226
 30
0.0
 11
-385.75846
 21
-338.393482
 31
0.0
  0
LINE
  5
4D2
100
AcDbEntity
  8
LY_1
  6
CONTINUOUS
 62
   110
100
AcDbLine
 10
-424.95846
 20
-333.467226
 30
0.0
 11
-424.95846
 21
-338.393482
 31
0.0
  0
LINE
  5
4D3
100
AcDbEntity
  8
LY_1
  6
CONTINUOUS
 62
     3
100
AcDbLine
 10
-389.48346
 20
-348.643482
 30
0.0
 11
-389.48346
 21
-495.367226
 31
0.0
  0
LINE
  5
4D4
100
AcDbEntity
  8
LY_1
  6
CONTINUOUS
 62
     3
100
AcDbLine
 10
-421.23346
 20
-348.643482
 30
0.0
 11
-421.23346
 21
-495.367226
 31
0.0
  0
DIMENSION
  5
4E4
100
AcDbEntity
  8
LY_1
  6
CONTINUOUS
 62
   143
100
AcDbDimension
  2
*D25
 10
-427.35846
 20
-380.266325
 30
0.0
 11
-293.111573
 21
-380.266325
 31
0.0
 70
   128
  1
\A1;六角対辺<>
  3
MXDIMSTYLE
100
AcDbAlignedDimension
 13
-383.35846
 23
-346.043482
 33
0.0
 14
-427.35846
 24
-346.043482
 34
0.0
100
AcDbRotatedDimension
1001
ACAD
1000
DSTYLE
1002
{
1070
    41
1040
2.77
1070
    78
1070
     0
1070
   271
1070
     1
1002
}
  0
LINE
  5
4E5
100
AcDbEntity
  8
LY_1
  6
CONTINUOUS
 62
     3
100
AcDbLine
 10
-410.853235
 20
-338.968482
 30
0.0
 11
-399.863685
 21
-338.968482
 31
0.0
  0
LINE
  5
4E6
100
AcDbEntity
  8
LY_1
  6
CONTINUOUS
 62
     3
100
AcDbLine
 10
-399.863685
 20
-345.468482
 30
0.0
 11
-399.863685
 21
-338.968482
 31
0.0
  0
LINE
  5
4E7
100
AcDbEntity
  8
LY_1
  6
CONTINUOUS
 62
     3
100
AcDbLine
 10
-410.853235
 20
-345.468482
 30
0.0
 11
-410.853235
 21
-338.968482
 31
0.0
  0
LINE
  5
4E8
100
AcDbEntity
  8
LY_1
  6
CONTINUOUS
 62
     3
100
AcDbLine
 10
-410.853235
 20
-345.468482
 30
0.0
 11
-399.863685
 21
-345.468482
 31
0.0
  0
LINE
  5
4E9
100
AcDbEntity
  8
LY_1
  6
CONTINUOUS
 62
     3
100
AcDbLine
 10
-421.863685
 20
-345.468482
 30
0.0
 11
-421.863685
 21
-338.968482
 31
0.0
  0
LINE
  5
4EA
100
AcDbEntity
  8
LY_1
  6
CONTINUOUS
 62
     3
100
AcDbLine
 10
-383.35846
 20
-346.043482
 30
0.0
 11
-427.35846
 21
-346.043482
 31
0.0
  0
LINE
  5
4EB
100
AcDbEntity
  8
LY_1
  6
CONTINUOUS
 62
     3
100
AcDbLine
 10
-388.853235
 20
-345.468482
 30
0.0
 11
-388.853235
 21
-338.968482
 31
0.0
  0
LINE
  5
4EC
100
AcDbEntity
  8
LY_1
  6
CONTINUOUS
 62
     3
100
AcDbLine
 10
-426.441793
 20
-348.643482
 30
0.0
 11
-384.275126
 21
-348.643482
 31
0.0
  0
LINE
  5
4ED
100
AcDbEntity
  8
LY_1
  6
CONTINUOUS
 62
     3
100
AcDbLine
 10
-426.85846
 20
-347.393482
 30
0.0
 11
-383.85846
 21
-347.393482
 31
0.0
  0
LINE
  5
4EE
100
AcDbEntity
  8
LY_1
  6
CONTINUOUS
 62
     3
100
AcDbLine
 10
-383.85846
 20
-347.393482
 30
0.0
 11
-384.275126
 21
-348.643482
 31
0.0
  0
LINE
  5
4EF
100
AcDbEntity
  8
LY_1
  6
CONTINUOUS
 62
     3
100
AcDbLine
 10
-426.441793
 20
-348.643482
 30
0.0
 11
-426.85846
 21
-347.393482
 31
0.0
  0
LINE
  5
4F0
100
AcDbEntity
  8
LY_1
  6
CONTINUOUS
 62
     3
100
AcDbLine
 10
-426.85846
 20
-347.393482
 30
0.0
 11
-426.85846
 21
-346.043482
 31
0.0
  0
LINE
  5
4F1
100
AcDbEntity
  8
LY_1
  6
CONTINUOUS
 62
     3
100
AcDbLine
 10
-383.85846
 20
-346.043482
 30
0.0
 11
-383.85846
 21
-347.393482
 31
0.0
  0
LINE
  5
4F2
100
AcDbEntity
  8
LY_1
  6
CONTINUOUS
 62
     3
100
AcDbLine
 10
-388.853235
 20
-345.468482
 30
0.0
 11
-383.35846
 21
-345.468482
 31
0.0
  0
LINE
  5
4F3
100
AcDbEntity
  8
LY_1
  6
CONTINUOUS
 62
     3
100
AcDbLine
 10
-427.35846
 20
-345.468482
 30
0.0
 11
-421.863685
 21
-345.468482
 31
0.0
  0
LINE
  5
4F4
100
AcDbEntity
  8
LY_1
  6
CONTINUOUS
 62
     3
100
AcDbLine
 10
-427.35846
 20
-346.043482
 30
0.0
 11
-427.35846
 21
-338.393482
 31
0.0
  0
LINE
  5
4F5
100
AcDbEntity
  8
LY_1
  6
CONTINUOUS
 62
     3
100
AcDbLine
 10
-427.35846
 20
-338.968482
 30
0.0
 11
-421.863685
 21
-338.968482
 31
0.0
  0
LINE
  5
4F6
100
AcDbEntity
  8
LY_1
  6
CONTINUOUS
 62
     3
100
AcDbLine
 10
-388.853235
 20
-338.968482
 30
0.0
 11
-383.35846
 21
-338.968482
 31
0.0
  0
LINE
  5
4F7
100
AcDbEntity
  8
LY_1
  6
CONTINUOUS
 62
     3
100
AcDbLine
 10
-383.35846
 20
-338.393482
 30
0.0
 11
-427.35846
 21
-338.393482
 31
0.0
  0
LINE
  5
4F8
100
AcDbEntity
  8
LY_1
  6
CONTINUOUS
 62
     3
100
AcDbLine
 10
-383.35846
 20
-346.043482
 30
0.0
 11
-383.35846
 21
-338.393482
 31
0.0
  0
SPLINE
  5
4F9
100
AcDbEntity
  8
LY_1
  6
CONTINUOUS
 62
     3
100
AcDbSpline
210
0.0
220
0.0
230
1.0
 70
     0
 71
     3
 72
     0
 73
     0
 74
     4
 44
0.000001
 12
-0.9898684782093079
 22
-0.1419873087553568
 32
0.0
 13
-0.9638542298368542
 23
-0.2664301477415884
 33
0.0
 11
-397.12668731748226
 21
-338.39348248860682
 31
0.0
 11
-398.03871656802312
 21
-338.54447191753121
 31
0.0
 11
-398.94646497635313
 21
-338.73545982778359
 31
0.0
 11
-399.86368450728008
 21
-338.96848248860675
 31
0.0
  0
SPLINE
  5
4FA
100
AcDbEntity
  8
LY_1
  6
CONTINUOUS
 62
     3
100
AcDbSpline
210
0.0
220
0.0
230
1.0
 70
     0
 71
     3
 72
     0
 73
     0
 74
     4
 44
0.000001
 12
-0.9638002842785869
 22
0.2666252276595655
 32
0.0
 13
-0.9899002149481873
 23
0.1417658789890317
 33
0.0
 11
-410.85323491113559
 21
-338.96848248860675
 31
0.0
 11
-411.87427552214558
 21
-338.71159530895784
 31
0.0
 11
-412.90529467939086
 21
-338.50300120065361
 31
0.0
 11
-413.59023211497652
 21
-338.39348248860682
 31
0.0
  0
SPLINE
  5
4FB
100
AcDbEntity
  8
LY_1
  6
CONTINUOUS
 62
     3
100
AcDbSpline
210
0.0
220
0.0
230
1.0
 70
     0
 71
     3
 72
     0
 73
     0
 74
     4
 44
0.000001
 12
0.9638002830109889
 22
-0.266625232241695
 32
0.0
 13
0.9899002149515679
 23
-0.1417658789654255
 33
0.0
 11
-399.86368450728008
 21
-345.4684824886067
 31
0.0
 11
-398.84264389285863
 21
-345.72536967222425
 31
0.0
 11
-397.81162472944015
 21
-345.93396378074181
 31
0.0
 11
-397.12668731748226
 21
-346.0434824886068
 31
0.0
  0
SPLINE
  5
4FC
100
AcDbEntity
  8
LY_1
  6
CONTINUOUS
 62
     3
100
AcDbSpline
210
0.0
220
0.0
230
1.0
 70
     0
 71
     3
 72
     0
 73
     0
 74
     4
 44
0.000001
 12
0.9898684782129411
 22
0.1419873087300272
 32
0.0
 13
0.9638542312522682
 23
0.2664301426210988
 33
0.0
 11
-413.59023211497652
 21
-346.0434824886068
 31
0.0
 11
-412.6782028793595
 21
-345.8924930624915
 31
0.0
 11
-411.77045448581612
 21
-345.7015051563331
 31
0.0
 11
-410.85323491113559
 21
-345.4684824886067
 31
0.0
  0
SPLINE
  5
4FD
100
AcDbEntity
  8
LY_1
  6
CONTINUOUS
 62
     3
100
AcDbSpline
210
0.0
220
0.0
230
1.0
 70
     0
 71
     3
 72
     0
 73
     0
 74
     4
 44
0.000001
 12
-0.9898684782137546
 22
-0.1419873087243565
 32
0.0
 13
-0.9638542298260725
 23
-0.2664301477805929
 33
0.0
 11
-419.12668731748226
 21
-338.39348248860682
 31
0.0
 11
-420.0387165497641
 21
-338.54447191409434
 31
0.0
 11
-420.94646494000375
 21
-338.7354598193379
 31
0.0
 11
-421.86368450728014
 21
-338.96848248860675
 31
0.0
  0
SPLINE
  5
4FE
100
AcDbEntity
  8
LY_1
  6
CONTINUOUS
 62
     3
100
AcDbSpline
210
0.0
220
0.0
230
1.0
 70
     0
 71
     3
 72
     0
 73
     0
 74
     4
 44
0.000001
 12
0.963800283015271
 22
-0.2666252322262161
 32
0.0
 13
0.9899002149493784
 23
-0.141765878980714
 33
0.0
 11
-421.86368450728014
 21
-345.4684824886067
 31
0.0
 11
-420.84264390106864
 21
-345.72536967035762
 31
0.0
 11
-419.81162474602434
 21
-345.93396377780658
 31
0.0
 11
-419.12668731748226
 21
-346.0434824886068
 31
0.0
  0
SPLINE
  5
4FF
100
AcDbEntity
  8
LY_1
  6
CONTINUOUS
 62
     3
100
AcDbSpline
210
0.0
220
0.0
230
1.0
 70
     0
 71
     3
 72
     0
 73
     0
 74
     4
 44
0.000001
 12
-0.9638002803307362
 22
0.2666252419303064
 32
0.0
 13
-0.9899002149543071
 23
0.1417658789462982
 33
0.0
 11
-388.85323495495822
 21
-338.96848248860675
 31
0.0
 11
-389.87427556409369
 21
-338.71159529942003
 31
0.0
 11
-390.90529471795384
 21
-338.50300119382814
 31
0.0
 11
-391.59023211497646
 21
-338.39348248860682
 31
0.0
  0
SPLINE
  5
500
100
AcDbEntity
  8
LY_1
  6
CONTINUOUS
 62
     3
100
AcDbSpline
210
0.0
220
0.0
230
1.0
 70
     0
 71
     3
 72
     0
 73
     0
 74
     4
 44
0.000001
 12
0.9898684782110299
 22
0.1419873087433518
 32
0.0
 13
0.9638542268124577
 23
0.2664301586828328
 33
0.0
 11
-391.59023211497646
 21
-346.0434824886068
 31
0.0
 11
-390.67820287150744
 21
-345.8924930610134
 31
0.0
 11
-389.77045447018372
 21
-345.70150515270092
 31
0.0
 11
-388.85323495495822
 21
-345.4684824886067
 31
0.0
  0
LINE
  5
501
100
AcDbEntity
  8
LY_1
  6
CENTER
 62
   110
100
AcDbLine
 10
521.557707
 20
-85.686131
 30
0.0
 11
521.557707
 21
-507.090671
 31
0.0
  0
LINE
  5
502
100
AcDbEntity
  8
LY_1
  6
CONTINUOUS
 62
     3
100
AcDbLine
 10
556.407707
 20
-291.067226
 30
0.0
 11
486.707707
 21
-291.067226
 31
0.0
  0
LINE
  5
503
100
AcDbEntity
  8
LY_1
  6
CONTINUOUS
 62
     3
100
AcDbLine
 10
-442.70846
 20
-260.017226
 30
0.0
 11
-442.70846
 21
-288.661833
 31
0.0
  0
LINE
  5
504
100
AcDbEntity
  8
LY_1
  6
CONTINUOUS
 62
     3
100
AcDbLine
 10
-440.20846
 20
-291.067226
 30
0.0
 11
-370.50846
 21
-291.067226
 31
0.0
  0
LINE
  5
505
100
AcDbEntity
  8
LY_1
  6
CENTER
 62
   110
100
AcDbLine
 10
-575.35846
 20
407.589999
 30
0.0
 11
-575.35846
 21
364.801344
 31
0.0
  0
DIMENSION
  5
512
100
AcDbEntity
  8
LY_1
  6
CONTINUOUS
 62
   143
100
AcDbDimension
  2
*D26
 10
-1003.62939
 20
-203.367226
 30
0.0
 11
-1003.62939
 21
-349.367226
 31
0.0
 70
   128
  1
\A1;(<>)
  3
MXDIMSTYLE
100
AcDbAlignedDimension
 13
-421.233455
 23
-495.367226
 33
0.0
 14
-903.358463
 24
-203.367226
 34
0.0
 50
90.0
100
AcDbRotatedDimension
1001
ACAD
1000
DSTYLE
1002
{
1070
    41
1040
2.77
1070
    78
1070
     0
1070
   271
1070
     1
1070
   340
1005
115
1002
}
  0
ENDSEC
  0
SECTION
  2
OBJECTS
  0
DICTIONARY
  5
19
100
AcDbDictionary
  3
ACAD_GROUP
350
1A
  3
ACAD_MLINESTYLE
350
1B
  0
DICTIONARY
  5
1A
102
{ACAD_REACTORS
330
19
102
}
100
AcDbDictionary
  0
DICTIONARY
  5
1B
102
{ACAD_REACTORS
330
19
102
}
100
AcDbDictionary
  3
STANDARD
350
1C
  0
MLINESTYLE
  5
1C
102
{ACAD_REACTORS
330
1B
102
}
100
AcDbMlineStyle
  2
Standard
 70
     0
  3

 62
     0
 51
90.0
 52
90.0
 71
     2
 49
0.5
 62
   256
  6
ByLayer
 49
-0.5
 62
   256
  6
ByLayer
  0
ENDSEC
  0
EOF
