  0
SECTION
  2
HEADER
  9
$ACADVER
  1
AC1015
  9
$ACADMAINTVER
 70
     6
  9
$DWGCODEPAGE
  3
ANSI_932
  9
$INSBASE
 10
0.0
 20
0.0
 30
0.0
  9
$EXTMIN
 10
0.0
 20
0.0
 30
0.0
  9
$EXTMAX
 10
1050.0
 20
1485.0
 30
0.0
  9
$LIMMIN
 10
0.0
 20
0.0
  9
$LIMMAX
 10
12.0
 20
9.0
  9
$ORTHOMODE
 70
     0
  9
$REGENMODE
 70
     1
  9
$FILLMODE
 70
     1
  9
$QTEXTMODE
 70
     0
  9
$MIRRTEXT
 70
     1
  9
$LTSCALE
 40
1.0
  9
$ATTMODE
 70
     1
  9
$TEXTSIZE
 40
0.2
  9
$TRACEWID
 40
0.05
  9
$TEXTSTYLE
  7
Standard
  9
$CLAYER
  8
0
  9
$CELTYPE
  6
ByLayer
  9
$CECOLOR
 62
   256
  9
$CELTSCALE
 40
1.0
  9
$DISPSILH
 70
     0
  9
$DIMSCALE
 40
1.0
  9
$DIMASZ
 40
0.18
  9
$DIMEXO
 40
0.0625
  9
$DIMDLI
 40
0.38
  9
$DIMRND
 40
0.0
  9
$DIMDLE
 40
0.0
  9
$DIMEXE
 40
0.18
  9
$DIMTP
 40
0.0
  9
$DIMTM
 40
0.0
  9
$DIMTXT
 40
0.18
  9
$DIMCEN
 40
0.09
  9
$DIMTSZ
 40
0.0
  9
$DIMTOL
 70
     0
  9
$DIMLIM
 70
     0
  9
$DIMTIH
 70
     1
  9
$DIMTOH
 70
     1
  9
$DIMSE1
 70
     0
  9
$DIMSE2
 70
     0
  9
$DIMTAD
 70
     0
  9
$DIMZIN
 70
     0
  9
$DIMBLK
  1

  9
$DIMASO
 70
     1
  9
$DIMSHO
 70
     1
  9
$DIMPOST
  1

  9
$DIMAPOST
  1

  9
$DIMALT
 70
     0
  9
$DIMALTD
 70
     2
  9
$DIMALTF
 40
25.4
  9
$DIMLFAC
 40
1.0
  9
$DIMTOFL
 70
     0
  9
$DIMTVP
 40
0.0
  9
$DIMTIX
 70
     0
  9
$DIMSOXD
 70
     0
  9
$DIMSAH
 70
     0
  9
$DIMBLK1
  1

  9
$DIMBLK2
  1

  9
$DIMSTYLE
  2
Standard
  9
$DIMCLRD
 70
     0
  9
$DIMCLRE
 70
     0
  9
$DIMCLRT
 70
     0
  9
$DIMTFAC
 40
1.0
  9
$DIMGAP
 40
0.09
  9
$DIMJUST
 70
     0
  9
$DIMSD1
 70
     0
  9
$DIMSD2
 70
     0
  9
$DIMTOLJ
 70
     1
  9
$DIMTZIN
 70
     0
  9
$DIMALTZ
 70
     0
  9
$DIMALTTZ
 70
     0
  9
$DIMUPT
 70
     0
  9
$DIMDEC
 70
     4
  9
$DIMTDEC
 70
     4
  9
$DIMALTU
 70
     2
  9
$DIMALTTD
 70
     2
  9
$DIMTXSTY
  7
Standard
  9
$DIMAUNIT
 70
     0
  9
$DIMADEC
 70
     0
  9
$DIMALTRND
 40
0.0
  9
$DIMAZIN
 70
     0
  9
$DIMDSEP
 70
    46
  9
$DIMATFIT
 70
     3
  9
$DIMFRAC
 70
     0
  9
$DIMLDRBLK
  1

  9
$DIMLUNIT
 70
     2
  9
$DIMLWD
 70
    -2
  9
$DIMLWE
 70
    -2
  9
$DIMTMOVE
 70
     0
  9
$LUNITS
 70
     2
  9
$LUPREC
 70
     4
  9
$SKETCHINC
 40
0.1
  9
$FILLETRAD
 40
0.5
  9
$AUNITS
 70
     0
  9
$AUPREC
 70
     0
  9
$MENU
  1
.
  9
$ELEVATION
 40
0.0
  9
$PELEVATION
 40
0.0
  9
$THICKNESS
 40
0.0
  9
$LIMCHECK
 70
     0
  9
$CHAMFERA
 40
0.5
  9
$CHAMFERB
 40
0.5
  9
$CHAMFERC
 40
1.0
  9
$CHAMFERD
 40
0.0
  9
$SKPOLY
 70
     0
  9
$TDCREATE
 40
2457655.383329479
  9
$TDUCREATE
 40
2457655.008329479
  9
$TDUPDATE
 40
2457655.383330567
  9
$TDUUPDATE
 40
2457655.008330567
  9
$TDINDWG
 40
0.0000000116
  9
$TDUSRTIMER
 40
0.0000000116
  9
$USRTIMER
 70
     1
  9
$ANGBASE
 50
0.0
  9
$ANGDIR
 70
     0
  9
$PDMODE
 70
     0
  9
$PDSIZE
 40
0.0
  9
$PLINEWID
 40
0.0
  9
$SPLFRAME
 70
     0
  9
$SPLINETYPE
 70
     6
  9
$SPLINESEGS
 70
     8
  9
$HANDSEED
  5
461
  9
$SURFTAB1
 70
     6
  9
$SURFTAB2
 70
     6
  9
$SURFTYPE
 70
     6
  9
$SURFU
 70
     6
  9
$SURFV
 70
     6
  9
$UCSBASE
  2

  9
$UCSNAME
  2

  9
$UCSORG
 10
0.0
 20
0.0
 30
0.0
  9
$UCSXDIR
 10
1.0
 20
0.0
 30
0.0
  9
$UCSYDIR
 10
0.0
 20
1.0
 30
0.0
  9
$UCSORTHOREF
  2

  9
$UCSORTHOVIEW
 70
     0
  9
$UCSORGTOP
 10
0.0
 20
0.0
 30
0.0
  9
$UCSORGBOTTOM
 10
0.0
 20
0.0
 30
0.0
  9
$UCSORGLEFT
 10
0.0
 20
0.0
 30
0.0
  9
$UCSORGRIGHT
 10
0.0
 20
0.0
 30
0.0
  9
$UCSORGFRONT
 10
0.0
 20
0.0
 30
0.0
  9
$UCSORGBACK
 10
0.0
 20
0.0
 30
0.0
  9
$PUCSBASE
  2

  9
$PUCSNAME
  2

  9
$PUCSORG
 10
0.0
 20
0.0
 30
0.0
  9
$PUCSXDIR
 10
1.0
 20
0.0
 30
0.0
  9
$PUCSYDIR
 10
0.0
 20
1.0
 30
0.0
  9
$PUCSORTHOREF
  2

  9
$PUCSORTHOVIEW
 70
     0
  9
$PUCSORGTOP
 10
0.0
 20
0.0
 30
0.0
  9
$PUCSORGBOTTOM
 10
0.0
 20
0.0
 30
0.0
  9
$PUCSORGLEFT
 10
0.0
 20
0.0
 30
0.0
  9
$PUCSORGRIGHT
 10
0.0
 20
0.0
 30
0.0
  9
$PUCSORGFRONT
 10
0.0
 20
0.0
 30
0.0
  9
$PUCSORGBACK
 10
0.0
 20
0.0
 30
0.0
  9
$USERI1
 70
     0
  9
$USERI2
 70
     0
  9
$USERI3
 70
     0
  9
$USERI4
 70
     0
  9
$USERI5
 70
     0
  9
$USERR1
 40
18.1
  9
$USERR2
 40
0.0
  9
$USERR3
 40
0.0
  9
$USERR4
 40
0.0
  9
$USERR5
 40
0.0
  9
$WORLDVIEW
 70
     1
  9
$SHADEDGE
 70
     3
  9
$SHADEDIF
 70
    70
  9
$TILEMODE
 70
     1
  9
$MAXACTVP
 70
    64
  9
$PINSBASE
 10
0.0
 20
0.0
 30
0.0
  9
$PLIMCHECK
 70
     0
  9
$PEXTMIN
 10
1.00000000000000E+20
 20
1.00000000000000E+20
 30
1.00000000000000E+20
  9
$PEXTMAX
 10
-1.00000000000000E+20
 20
-1.00000000000000E+20
 30
-1.00000000000000E+20
  9
$PLIMMIN
 10
0.0
 20
0.0
  9
$PLIMMAX
 10
12.0
 20
9.0
  9
$UNITMODE
 70
     0
  9
$VISRETAIN
 70
     1
  9
$PLINEGEN
 70
     0
  9
$PSLTSCALE
 70
     1
  9
$TREEDEPTH
 70
  3020
  9
$CMLSTYLE
  2
Standard
  9
$CMLJUST
 70
     0
  9
$CMLSCALE
 40
1.0
  9
$PROXYGRAPHICS
 70
     1
  9
$MEASUREMENT
 70
     1
  9
$CELWEIGHT
370
    -1
  9
$ENDCAPS
280
     0
  9
$JOINSTYLE
280
     0
  9
$LWDISPLAY
290
     0
  9
$INSUNITS
 70
     4
  9
$HYPERLINKBASE
  1

  9
$STYLESHEET
  1

  9
$XEDIT
290
     1
  9
$CEPSNTYPE
380
     0
  9
$PSTYLEMODE
290
     1
  9
$FINGERPRINTGUID
  2
{3AD41BF3-62CC-42D7-822E-47A3BF8649AA}
  9
$VERSIONGUID
  2
{FAEB1C32-E019-11D5-929B-00C0DF256EC4}
  9
$EXTNAMES
290
     1
  9
$PSVPSCALE
 40
0.0
  9
$OLESTARTUP
290
     0
  0
ENDSEC
  0
SECTION
  2
CLASSES
  0
CLASS
  1
ACDBDICTIONARYWDFLT
  2
AcDbDictionaryWithDefault
  3
ObjectDBX Classes
 90
        0
280
     0
281
     0
  0
CLASS
  1
VISUALSTYLE
  2
AcDbVisualStyle
  3
ObjectDBX Classes
 90
     4095
280
     0
281
     0
  0
CLASS
  1
MATERIAL
  2
AcDbMaterial
  3
ObjectDBX Classes
 90
     1153
280
     0
281
     0
  0
CLASS
  1
DICTIONARYVAR
  2
AcDbDictionaryVar
  3
ObjectDBX Classes
 90
        0
280
     0
281
     0
  0
CLASS
  1
ACDBPLACEHOLDER
  2
AcDbPlaceHolder
  3
ObjectDBX Classes
 90
        0
280
     0
281
     0
  0
CLASS
  1
LAYOUT
  2
AcDbLayout
  3
ObjectDBX Classes
 90
        0
280
     0
281
     0
  0
ENDSEC
  0
SECTION
  2
TABLES
  0
TABLE
  2
VPORT
  5
8
330
0
100
AcDbSymbolTable
 70
     1
  0
VPORT
  5
29
330
8
100
AcDbSymbolTableRecord
100
AcDbViewportTableRecord
  2
*Active
 70
     0
 10
0.0
 20
0.0
 11
1.0
 21
1.0
 12
525.0
 22
742.5
 13
0.0
 23
0.0
 14
0.5
 24
0.5
 15
0.5
 25
0.5
 16
0.0
 26
0.0
 36
1.0
 17
0.0
 27
0.0
 37
0.0
 40
1633.5
 41
1.60267857142857
 42
50.0
 43
0.0
 44
0.0
 50
0.0
 51
0.0
 71
     0
 72
   100
 73
     1
 74
     3
 75
     0
 76
     0
 77
     0
 78
     0
281
     0
 65
     1
110
0.0
120
0.0
130
0.0
111
1.0
121
0.0
131
0.0
112
0.0
122
1.0
132
0.0
 79
     0
146
0.0
  0
ENDTAB
  0
TABLE
  2
LTYPE
  5
5
330
0
100
AcDbSymbolTable
 70
     8
  0
LTYPE
  5
14
330
5
100
AcDbSymbolTableRecord
100
AcDbLinetypeTableRecord
  2
ByBlock
 70
     0
  3

 72
    65
 73
     0
 40
0.0
  0
LTYPE
  5
15
330
5
100
AcDbSymbolTableRecord
100
AcDbLinetypeTableRecord
  2
ByLayer
 70
     0
  3

 72
    65
 73
     0
 40
0.0
  0
LTYPE
  5
16
330
5
100
AcDbSymbolTableRecord
100
AcDbLinetypeTableRecord
  2
Continuous
 70
     0
  3
Solid line
 72
    65
 73
     0
 40
0.0
  0
LTYPE
  5
3F
330
5
100
AcDbSymbolTableRecord
100
AcDbLinetypeTableRecord
  2
DASHED
 70
     0
  3
Dashed
 72
    65
 73
     2
 40
15.0
 49
7.0
 74
     0
 49
-8.0
 74
     0
  0
LTYPE
  5
40
330
5
100
AcDbSymbolTableRecord
100
AcDbLinetypeTableRecord
  2
DOTTED
 70
     0
  3
Dotted
 72
    65
 73
     2
 40
1.0
 49
0.0
 74
     0
 49
-1.0
 74
     0
  0
LTYPE
  5
41
330
5
100
AcDbSymbolTableRecord
100
AcDbLinetypeTableRecord
  2
DOT_CENTER
 70
     0
  3
Dot_Center
 72
    65
 73
     4
 40
14.0
 49
12.0
 74
     0
 49
-1.0
 74
     0
 49
0.0
 74
     0
 49
-1.0
 74
     0
  0
LTYPE
  5
42
330
5
100
AcDbSymbolTableRecord
100
AcDbLinetypeTableRecord
  2
LONG_DASHED
 70
     0
  3
Long_Dashed
 72
    65
 73
     2
 40
15.0
 49
10.0
 74
     0
 49
-5.0
 74
     0
  0
LTYPE
  5
43
330
5
100
AcDbSymbolTableRecord
100
AcDbLinetypeTableRecord
  2
DASH_CENTER
 70
     0
  3
Dash_Center
 72
    65
 73
     4
 40
14.0
 49
11.0
 74
     0
 49
-1.0
 74
     0
 49
1.0
 74
     0
 49
-1.0
 74
     0
  0
LTYPE
  5
44
330
5
100
AcDbSymbolTableRecord
100
AcDbLinetypeTableRecord
  2
PHANTOM
 70
     0
  3
Phantom
 72
    65
 73
     6
 40
13.0
 49
10.0
 74
     0
 49
-1.0
 74
     0
 49
0.0
 74
     0
 49
-1.0
 74
     0
 49
0.0
 74
     0
 49
-1.0
 74
     0
  0
LTYPE
  5
45
330
5
100
AcDbSymbolTableRecord
100
AcDbLinetypeTableRecord
  2
CENTER_DASH_DASH
 70
     0
  3
Center_Dash_Dash
 72
    65
 73
     6
 40
14.0
 49
9.0
 74
     0
 49
-1.0
 74
     0
 49
1.0
 74
     0
 49
-1.0
 74
     0
 49
1.0
 74
     0
 49
-1.0
 74
     0
  0
ENDTAB
  0
TABLE
  2
LAYER
  5
2
330
0
100
AcDbSymbolTable
 70
     2
  0
LAYER
  5
10
330
2
100
AcDbSymbolTableRecord
100
AcDbLayerTableRecord
  2
0
 70
     0
 62
     7
  6
Continuous
370
    -3
390
F
  0
LAYER
  5
46
330
2
100
AcDbSymbolTableRecord
100
AcDbLayerTableRecord
  2
1
 70
     0
 62
     7
  6
Continuous
370
    -3
390
F
  0
ENDTAB
  0
TABLE
  2
STYLE
  5
3
330
0
100
AcDbSymbolTable
 70
     3
  0
STYLE
  5
11
330
3
100
AcDbSymbolTableRecord
100
AcDbTextStyleTableRecord
  2
Standard
 70
     0
 40
0.0
 41
1.0
 50
0.0
 71
     0
 42
0.2
  3
txt
  4

  0
STYLE
  5
197
330
3
100
AcDbSymbolTableRecord
100
AcDbTextStyleTableRecord
  2
CONVERTER_11
 70
     0
 40
0.0
 41
0.89
 50
0.0
 71
     0
 42
0.2
  3
MS Mincho.ttf
  4

1001
ACAD
1000
MS Mincho
1071
    32785
  0
STYLE
  5
393
330
3
100
AcDbSymbolTableRecord
100
AcDbTextStyleTableRecord
  2
CONVERTER_12
 70
     0
 40
0.0
 41
0.9
 50
0.0
 71
     0
 42
0.2
  3
txt.shx
  4

  0
ENDTAB
  0
TABLE
  2
VIEW
  5
6
330
0
100
AcDbSymbolTable
 70
     0
  0
ENDTAB
  0
TABLE
  2
UCS
  5
7
330
0
100
AcDbSymbolTable
 70
     0
  0
ENDTAB
  0
TABLE
  2
APPID
  5
9
330
0
100
AcDbSymbolTable
 70
     1
  0
APPID
  5
12
330
9
100
AcDbSymbolTableRecord
100
AcDbRegAppTableRecord
  2
ACAD
 70
     0
  0
ENDTAB
  0
TABLE
  2
DIMSTYLE
  5
A
330
0
100
AcDbSymbolTable
 70
    13
100
AcDbDimStyleTable
  0
DIMSTYLE
105
27
330
A
100
AcDbSymbolTableRecord
100
AcDbDimStyleTableRecord
  2
Standard
 70
     0
178
     0
340
11
  0
DIMSTYLE
105
3A9
102
{ACAD_REACTORS
330
3AA
102
}
330
A
100
AcDbSymbolTableRecord
100
AcDbDimStyleTableRecord
  2
ME10_DIM_10
 70
     0
 41
17.5
 42
0.0
 44
5.0
 73
     0
 74
     0
 77
     1
 78
     8
140
17.5
147
5.0
172
     1
173
     1
174
     1
175
     1
176
     2
177
     2
271
     2
178
     7
271
     2
340
393
  0
DIMSTYLE
105
3B4
102
{ACAD_REACTORS
330
3B5
102
}
330
A
100
AcDbSymbolTableRecord
100
AcDbDimStyleTableRecord
  2
ME10_DIM_11
 70
     0
 41
17.5
 42
0.0
 44
5.0
 73
     0
 74
     0
 77
     1
 78
     8
140
17.5
147
5.0
172
     1
173
     1
174
     1
175
     1
176
     2
177
     2
271
     2
178
     7
271
     2
340
393
  0
DIMSTYLE
105
3C1
102
{ACAD_REACTORS
330
3C2
102
}
330
A
100
AcDbSymbolTableRecord
100
AcDbDimStyleTableRecord
  2
ME10_DIM_12
 70
     0
 41
17.5
 42
0.0
 44
5.0
 73
     0
 74
     0
 77
     1
 78
     8
140
17.5
147
5.0
172
     1
173
     1
174
     1
175
     1
176
     2
177
     2
271
     2
178
     7
271
     2
340
393
  0
DIMSTYLE
105
3CC
102
{ACAD_REACTORS
330
3CD
102
}
330
A
100
AcDbSymbolTableRecord
100
AcDbDimStyleTableRecord
  2
ME10_DIM_13
 70
     0
 41
17.5
 42
0.0
 44
5.0
 73
     0
 74
     0
 77
     1
 78
     8
140
17.5
147
5.0
172
     1
173
     1
174
     1
175
     1
176
     2
177
     2
271
     2
178
     7
271
     2
340
393
  0
DIMSTYLE
105
3D9
102
{ACAD_REACTORS
330
3DA
102
}
330
A
100
AcDbSymbolTableRecord
100
AcDbDimStyleTableRecord
  2
ME10_DIM_14
 70
     0
  3
{\Fgdt;n}<>
 41
17.5
 42
0.0
 44
5.0
 73
     0
 74
     0
 77
     1
 78
     8
140
17.5
147
5.0
172
     1
173
     1
174
     1
175
     1
176
     2
177
     2
271
     2
178
     7
271
     2
340
393
  0
DIMSTYLE
105
3E6
102
{ACAD_REACTORS
330
3E7
102
}
330
A
100
AcDbSymbolTableRecord
100
AcDbDimStyleTableRecord
  2
ME10_DIM_15
 70
     0
  3
{\Fgdt;n}<>
 41
17.5
 42
0.0
 44
5.0
 73
     0
 74
     0
 77
     1
 78
     8
140
17.5
147
5.0
172
     1
173
     1
174
     1
175
     1
176
     2
177
     2
271
     2
178
     7
271
     2
340
393
  0
DIMSTYLE
105
3F3
102
{ACAD_REACTORS
330
3F4
102
}
330
A
100
AcDbSymbolTableRecord
100
AcDbDimStyleTableRecord
  2
ME10_DIM_16
 70
     0
 41
17.5
 42
0.0
 44
5.0
 73
     0
 74
     0
 77
     1
 78
     8
140
17.5
147
5.0
172
     1
173
     1
174
     1
175
     1
176
     2
177
     2
271
     2
178
     7
271
     2
340
393
  0
DIMSTYLE
105
400
102
{ACAD_REACTORS
330
401
102
}
330
A
100
AcDbSymbolTableRecord
100
AcDbDimStyleTableRecord
  2
ME10_DIM_17
 70
     0
  3
ロックナット対辺<>
 41
17.5
 42
0.0
 44
5.0
 73
     0
 74
     0
 77
     1
 78
     8
140
17.5
147
5.0
172
     1
173
     1
174
     1
175
     1
176
     2
177
     2
271
     2
178
     7
271
     2
340
197
  0
DIMSTYLE
105
40B
102
{ACAD_REACTORS
330
40C
102
}
330
A
100
AcDbSymbolTableRecord
100
AcDbDimStyleTableRecord
  2
ME10_DIM_18
 70
     0
 41
17.5
 42
0.0
 44
5.0
 73
     0
 74
     0
 77
     1
 78
     8
140
17.5
147
5.0
172
     1
173
     1
174
     1
175
     1
176
     2
177
     2
271
     2
178
     7
271
     2
340
393
  0
DIMSTYLE
105
418
102
{ACAD_REACTORS
330
419
102
}
330
A
100
AcDbSymbolTableRecord
100
AcDbDimStyleTableRecord
  2
ME10_DIM_19
 70
     0
 41
17.5
 42
0.0
 44
5.0
 73
     0
 74
     0
 77
     1
 78
     8
140
17.5
147
5.0
172
     1
173
     1
174
     1
175
     1
176
     2
177
     2
271
     2
178
     7
271
     2
340
197
  0
DIMSTYLE
105
423
102
{ACAD_REACTORS
330
424
102
}
330
A
100
AcDbSymbolTableRecord
100
AcDbDimStyleTableRecord
  2
ME10_DIM_20
 70
     0
 41
17.5
 42
0.0
 44
5.0
 73
     0
 74
     0
 77
     1
 78
     8
140
17.5
147
5.0
172
     1
173
     1
174
     1
175
     1
176
     2
177
     2
271
     2
178
     7
271
     2
340
197
  0
DIMSTYLE
105
430
102
{ACAD_REACTORS
330
431
102
}
330
A
100
AcDbSymbolTableRecord
100
AcDbDimStyleTableRecord
  2
ME10_DIM_21
 70
     0
 41
17.5
 42
0.0
 44
5.0
 73
     0
 74
     0
 77
     1
 78
     8
140
17.5
147
5.0
172
     1
173
     1
174
     1
175
     1
176
     2
177
     2
271
     2
178
     7
271
     2
340
393
  0
ENDTAB
  0
TABLE
  2
BLOCK_RECORD
  5
1
330
0
100
AcDbSymbolTable
 70
    31
  0
BLOCK_RECORD
  5
1F
330
1
100
AcDbSymbolTableRecord
100
AcDbBlockTableRecord
  2
*Model_Space
340
22
  0
BLOCK_RECORD
  5
1B
330
1
100
AcDbSymbolTableRecord
100
AcDbBlockTableRecord
  2
*Paper_Space
340
1E
  0
BLOCK_RECORD
  5
23
330
1
100
AcDbSymbolTableRecord
100
AcDbBlockTableRecord
  2
*Paper_Space0
340
26
  0
BLOCK_RECORD
  5
47
330
1
100
AcDbSymbolTableRecord
100
AcDbBlockTableRecord
  2
30-255A-M11
340
0
102
{BLKREFS
331
84
102
}
  0
BLOCK_RECORD
  5
4A
330
1
100
AcDbSymbolTableRecord
100
AcDbBlockTableRecord
  2
35-18
340
0
102
{BLKREFS
331
51
102
}
  0
BLOCK_RECORD
  5
4D
330
1
100
AcDbSymbolTableRecord
100
AcDbBlockTableRecord
  2
32-116-C2
340
0
102
{BLKREFS
331
52
102
}
  0
BLOCK_RECORD
  5
50
330
1
100
AcDbSymbolTableRecord
100
AcDbBlockTableRecord
  2
T90-240
340
0
102
{BLKREFS
331
85
102
}
  0
BLOCK_RECORD
  5
55
330
1
100
AcDbSymbolTableRecord
100
AcDbBlockTableRecord
  2
開示A4
340
0
102
{BLKREFS
331
86
102
}
  0
BLOCK_RECORD
  5
58
330
1
100
AcDbSymbolTableRecord
100
AcDbBlockTableRecord
  2
30-360-M1
340
0
102
{BLKREFS
331
87
102
}
  0
BLOCK_RECORD
  5
5B
330
1
100
AcDbSymbolTableRecord
100
AcDbBlockTableRecord
  2
81-414-1-SH
340
0
102
{BLKREFS
331
88
102
}
  0
BLOCK_RECORD
  5
5E
330
1
100
AcDbSymbolTableRecord
100
AcDbBlockTableRecord
  2
レバー
340
0
102
{BLKREFS
331
62
102
}
  0
BLOCK_RECORD
  5
61
330
1
100
AcDbSymbolTableRecord
100
AcDbBlockTableRecord
  2
27-21-M1
340
0
102
{BLKREFS
331
89
102
}
  0
BLOCK_RECORD
  5
65
330
1
100
AcDbSymbolTableRecord
100
AcDbBlockTableRecord
  2
73-1-32_5-C2
340
0
102
{BLKREFS
331
8A
102
}
  0
BLOCK_RECORD
  5
68
330
1
100
AcDbSymbolTableRecord
100
AcDbBlockTableRecord
  2
32-33-32
340
0
102
{BLKREFS
331
8B
102
}
  0
BLOCK_RECORD
  5
6B
330
1
100
AcDbSymbolTableRecord
100
AcDbBlockTableRecord
  2
35-338-M11
340
0
102
{BLKREFS
331
8C
102
}
  0
BLOCK_RECORD
  5
6E
330
1
100
AcDbSymbolTableRecord
100
AcDbBlockTableRecord
  2
37-398-M11
340
0
102
{BLKREFS
331
78
102
}
  0
BLOCK_RECORD
  5
71
330
1
100
AcDbSymbolTableRecord
100
AcDbBlockTableRecord
  2
98-126
340
0
102
{BLKREFS
331
79
102
}
  0
BLOCK_RECORD
  5
74
330
1
100
AcDbSymbolTableRecord
100
AcDbBlockTableRecord
  2
92-64A
340
0
102
{BLKREFS
331
7A
102
}
  0
BLOCK_RECORD
  5
77
330
1
100
AcDbSymbolTableRecord
100
AcDbBlockTableRecord
  2
新コラム洗面混合栓ノーマル130618
340
0
102
{BLKREFS
331
8D
102
}
  0
BLOCK_RECORD
  5
7D
330
1
100
AcDbSymbolTableRecord
100
AcDbBlockTableRecord
  2
65-56-470-C2
340
0
102
{BLKREFS
331
81
102
}
  0
BLOCK_RECORD
  5
80
330
1
100
AcDbSymbolTableRecord
100
AcDbBlockTableRecord
  2
30-360X-470-C6
340
0
102
{BLKREFS
331
8E
102
}
  0
BLOCK_RECORD
  5
3A0
330
1
100
AcDbSymbolTableRecord
100
AcDbBlockTableRecord
  2
*D19
340
0
  0
BLOCK_RECORD
  5
3AB
330
1
100
AcDbSymbolTableRecord
100
AcDbBlockTableRecord
  2
*D20
340
0
  0
BLOCK_RECORD
  5
3B6
330
1
100
AcDbSymbolTableRecord
100
AcDbBlockTableRecord
  2
*D21
340
0
  0
BLOCK_RECORD
  5
3C3
330
1
100
AcDbSymbolTableRecord
100
AcDbBlockTableRecord
  2
*D22
340
0
  0
BLOCK_RECORD
  5
3CE
330
1
100
AcDbSymbolTableRecord
100
AcDbBlockTableRecord
  2
*D23
340
0
  0
BLOCK_RECORD
  5
3DB
330
1
100
AcDbSymbolTableRecord
100
AcDbBlockTableRecord
  2
*D24
340
0
  0
BLOCK_RECORD
  5
3E8
330
1
100
AcDbSymbolTableRecord
100
AcDbBlockTableRecord
  2
*D25
340
0
  0
BLOCK_RECORD
  5
3F5
330
1
100
AcDbSymbolTableRecord
100
AcDbBlockTableRecord
  2
*D26
340
0
  0
BLOCK_RECORD
  5
402
330
1
100
AcDbSymbolTableRecord
100
AcDbBlockTableRecord
  2
*D27
340
0
  0
BLOCK_RECORD
  5
40D
330
1
100
AcDbSymbolTableRecord
100
AcDbBlockTableRecord
  2
*D28
340
0
  0
BLOCK_RECORD
  5
41A
330
1
100
AcDbSymbolTableRecord
100
AcDbBlockTableRecord
  2
*D29
340
0
  0
BLOCK_RECORD
  5
425
330
1
100
AcDbSymbolTableRecord
100
AcDbBlockTableRecord
  2
*D30
340
0
  0
ENDTAB
  0
ENDSEC
  0
SECTION
  2
BLOCKS
  0
BLOCK
  5
20
330
1F
100
AcDbEntity
  8
0
100
AcDbBlockBegin
  2
*Model_Space
 70
     0
 10
0.0
 20
0.0
 30
0.0
  3
*Model_Space
  1

  0
ENDBLK
  5
21
330
1F
100
AcDbEntity
  8
0
100
AcDbBlockEnd
  0
BLOCK
  5
1C
330
1B
100
AcDbEntity
 67
     1
  8
0
100
AcDbBlockBegin
  2
*Paper_Space
 70
     0
 10
0.0
 20
0.0
 30
0.0
  3
*Paper_Space
  1

  0
ENDBLK
  5
1D
330
1B
100
AcDbEntity
 67
     1
  8
0
100
AcDbBlockEnd
  0
BLOCK
  5
24
330
23
100
AcDbEntity
  8
0
100
AcDbBlockBegin
  2
*Paper_Space0
 70
     0
 10
0.0
 20
0.0
 30
0.0
  3
*Paper_Space0
  1

  0
ENDBLK
  5
25
330
23
100
AcDbEntity
  8
0
100
AcDbBlockEnd
  0
BLOCK
  5
48
330
47
100
AcDbEntity
  8
0
100
AcDbBlockBegin
  2
30-255A-M11
 70
     0
 10
466.6701460384329
 20
4779.902708968039
 30
0.0
  3
30-255A-M11
  1

  0
LINE
  5
8F
330
47
100
AcDbEntity
  8
0
  6
Continuous
 62
     7
100
AcDbLine
 10
603.6023543496963
 20
997.4116394691276
 30
0.0
 11
603.0412788345999
 21
994.7719973703372
 31
0.0
  0
LINE
  5
B2
330
47
100
AcDbEntity
  8
0
  6
Continuous
 62
     7
100
AcDbLine
 10
321.5945180313681
 20
992.7057044281062
 30
0.0
 11
321.5881779940399
 21
1000.177500525632
 31
0.0
  0
LINE
  5
B3
330
47
100
AcDbEntity
  8
0
  6
Continuous
 62
     7
100
AcDbLine
 10
301.5881579519399
 20
1000.192923227431
 30
0.0
 11
301.5945115909497
 21
992.7057044281062
 31
0.0
  0
LINE
  5
B4
330
47
100
AcDbEntity
  8
0
  6
PHANTOM
 62
     4
100
AcDbLine
 10
612.0950594034613
 20
989.2693564215822
 30
0.0
 11
616.6691342802889
 21
1010.788599879965
 31
0.0
  0
LINE
  5
B5
330
47
100
AcDbEntity
  8
0
  6
Continuous
 62
     7
100
AcDbLine
 10
622.6042274331313
 20
990.613747482311
 30
0.0
 11
623.1684905591915
 21
993.268386051041
 31
0.0
  0
LINE
  5
B6
330
47
100
AcDbEntity
  8
0
  6
Continuous
 62
     7
100
AcDbLine
 10
620.7885131835598
 20
990.48852063255
 30
0.0
 11
622.0111974709672
 21
990.2286300145486
 31
0.0
  0
LINE
  5
B7
330
47
100
AcDbEntity
  8
0
  6
Continuous
 62
     7
100
AcDbLine
 10
604.649080589771
 20
993.9190767901762
 30
0.0
 11
620.7885131835609
 21
990.4885206325546
 31
0.0
  0
LINE
  5
B8
330
47
100
AcDbEntity
  8
0
  6
Continuous
 62
     7
100
AcDbLine
 10
603.4263963023626
 20
994.1789674081726
 30
0.0
 11
604.64908058977
 21
993.9190767901712
 31
0.0
  0
ARC
  5
B9
330
47
100
AcDbEntity
  8
0
  6
Continuous
 62
     7
100
AcDbCircle
 10
311.64217342464
 20
963.8386521165064
 30
0.0
 40
30.44842194796997
100
AcDbArc
 50
73.74908015530032
 51
106.6235617618008
  0
ARC
  5
BA
330
47
100
AcDbEntity
  8
0
  6
Continuous
 62
     7
100
AcDbCircle
 10
303.3452786146401
 20
991.7493687345061
 30
0.0
 40
1.331088391538458
100
AcDbArc
 50
108.1147672107976
 51
160.0380933991087
  0
ARC
  5
BB
330
47
100
AcDbEntity
  8
0
  6
Continuous
 62
     7
100
AcDbCircle
 10
311.5146276625399
 20
1027.080215400506
 30
0.0
 40
36.87377674410526
100
AcDbArc
 50
259.6171948467998
 51
281.5349533945001
  0
ARC
  5
BC
330
47
100
AcDbEntity
  8
0
  6
Continuous
 62
     7
100
AcDbCircle
 10
304.8600298781398
 20
994.2517354962063
 30
0.0
 40
3.441522850670606
100
AcDbArc
 50
216.5174655286052
 51
270.1508293658493
  0
SPLINE
  5
BD
330
47
100
AcDbEntity
  8
0
  6
Continuous
 62
     7
100
AcDbSpline
210
0.0
220
0.0
230
1.0
 70
     8
 71
     3
 72
    23
 73
    19
 74
    17
 42
0.000000001
 43
0.0000000001
 44
0.00000001
 40
0.0
 40
0.0
 40
0.0
 40
0.0
 40
0.1472846370991382
 40
0.2915794409538125
 40
0.4726044561107587
 40
0.6521942516856212
 40
0.8454144876105651
 40
1.040358229846681
 40
1.287291488897379
 40
1.549721657583041
 40
1.871641819453878
 40
2.222986772492498
 40
2.598095111804946
 40
2.999311105439377
 40
3.413744302118887
 40
3.86990796372395
 40
3.89646877273141
 40
3.923128692562045
 40
3.923128692562045
 40
3.923128692562045
 40
3.923128692562045
 10
301.593747750068
 20
992.6937928123641
 30
0.0
 10
301.5984832307688
 20
992.6449330889326
 30
0.0
 10
301.6078580757826
 20
992.54820548095
 30
0.0
 10
301.6370680874909
 20
992.392771068696
 30
0.0
 10
301.7037891489572
 20
992.2365914202128
 30
0.0
 10
301.8062926390751
 20
992.0823408947579
 30
0.0
 10
301.9310431139482
 20
991.9393184468948
 30
0.0
 10
302.089224153176
 20
991.7979654638916
 30
0.0
 10
302.2808190789125
 20
991.661486393009
 30
0.0
 10
302.5209453277714
 20
991.5226312740799
 30
0.0
 10
302.8021736568634
 20
991.3871077123018
 30
0.0
 10
303.1268434653874
 20
991.2572111599405
 30
0.0
 10
303.4832269886849
 20
991.1372815376743
 30
0.0
 10
303.8637051038525
 20
991.0241012506251
 30
0.0
 10
304.272792320058
 20
990.9125957349904
 30
0.0
 10
304.5651488523904
 20
990.8486942660302
 30
0.0
 10
304.7320820254973
 20
990.8176566683663
 30
0.0
 10
304.7495286699791
 20
990.8144424005094
 30
0.0
 10
304.7582682372573
 20
990.8128322733812
 30
0.0
 11
301.593747750068
 21
992.6937928123641
 31
0.0
 11
301.6101604178869
 21
992.5474254994771
 31
0.0
 11
301.6392996685152
 21
992.406103543775
 31
0.0
 11
301.708789145113
 21
992.2389471194401
 31
0.0
 11
301.8067672999147
 21
992.0884387268
 31
0.0
 11
301.9334863286172
 21
991.9425745872685
 31
0.0
 11
302.0782506243828
 21
991.8120128734283
 31
0.0
 11
302.2786179976519
 21
991.6676904916062
 31
0.0
 11
302.5051390902642
 21
991.5351846887047
 31
0.0
 11
302.7947357803476
 21
991.3945918459348
 31
0.0
 11
303.1205626355057
 21
991.2631379140788
 31
0.0
 11
303.4756087142985
 21
991.1421067287426
 31
0.0
 11
303.8599023745899
 21
991.0268129481245
 31
0.0
 11
304.2602005936155
 21
990.9194993412107
 31
0.0
 11
304.7059390844348
 21
990.822532929318
 31
0.0
 11
304.7320508966056
 21
990.8176698184651
 31
0.0
 11
304.7582682372573
 21
990.8128322733812
 31
0.0
  0
SPLINE
  5
BE
330
47
100
AcDbEntity
  8
0
  6
Continuous
 62
     7
100
AcDbSpline
210
0.0
220
0.0
230
1.0
 70
     8
 71
     3
 72
    50
 73
    46
 74
    44
 42
0.000000001
 43
0.0000000001
 44
0.00000001
 40
0.0
 40
0.0
 40
0.0
 40
0.0
 40
0.0021653604015359
 40
0.004329864452198
 40
0.1140513680079601
 40
0.2197128298849906
 40
0.3217739577217961
 40
0.4206861672944048
 40
0.5168921975526103
 40
0.6108260745894005
 40
0.7029134850849911
 40
0.7935725921310555
 40
0.914351173405415
 40
1.033008284262859
 40
1.149285223787431
 40
1.262931956191642
 40
1.373709298914062
 40
1.481391623385383
 40
1.588394805414699
 40
1.692205233126223
 40
1.793108297975243
 40
1.89139703383703
 40
1.987371703683999
 40
2.081339100711944
 40
2.179449497365302
 40
2.275715086331487
 40
2.370287441348522
 40
2.463412254935502
 40
2.555443390542459
 40
2.628533636107423
 40
2.701850044912307
 40
2.776005862513996
 40
2.851592681441304
 40
2.929174010264982
 40
2.969790920636301
 40
3.010761051263262
 40
3.05180754199368
 40
3.092700100353393
 40
3.133270003356788
 40
3.173428330758623
 40
3.21318734095526
 40
3.252683668933494
 40
3.292199992777307
 40
3.296905741096205
 40
3.301614998464067
 40
3.301614998464067
 40
3.301614998464067
 40
3.301614998464067
 10
319.035496391499
 20
990.9619724078341
 30
0.0
 10
319.0362010968498
 20
990.9621285058703
 30
0.0
 10
319.0376102288259
 20
990.962440640348
 30
0.0
 10
319.0747261659728
 20
990.9706691437241
 30
0.0
 10
319.1453775175506
 20
990.9870290514748
 30
0.0
 10
319.2480154142918
 20
991.0127847645872
 30
0.0
 10
319.3467062122381
 20
991.0393999060166
 30
0.0
 10
319.4419151413413
 20
991.0667662119906
 30
0.0
 10
319.5341082736542
 20
991.0947753483204
 30
0.0
 10
319.6237518165096
 20
991.1233188208422
 30
0.0
 10
319.7113125150435
 20
991.1522877960572
 30
0.0
 10
319.8070808738144
 20
991.1849216927288
 30
0.0
 10
319.9109682176263
 20
991.2211806802254
 30
0.0
 10
320.0225067959984
 20
991.261415116945
 30
0.0
 10
320.1313089033778
 20
991.3022058143677
 30
0.0
 10
320.237050974701
 20
991.3436447414948
 30
0.0
 10
320.3394093953677
 20
991.385824610434
 30
0.0
 10
320.4388639233103
 20
991.4291865481484
 30
0.0
 10
320.5351502459948
 20
991.4739349819743
 30
0.0
 10
320.6282177433216
 20
991.5201669082935
 30
0.0
 10
320.7174046466204
 20
991.567597109736
 30
0.0
 10
320.8028917240598
 20
991.616333538532
 30
0.0
 10
320.8848604766267
 20
991.6664836245293
 30
0.0
 10
320.9651160680548
 20
991.7192239974191
 30
0.0
 10
321.0435897025919
 20
991.7747619660034
 30
0.0
 10
321.1197973190788
 20
991.8337175876588
 30
0.0
 10
321.1917138141582
 20
991.8953300096392
 30
0.0
 10
321.2589597585023
 20
991.9600049447981
 30
0.0
 10
321.3170368662183
 20
992.0236412545249
 30
0.0
 10
321.3667016650073
 20
992.0857481841142
 30
0.0
 10
321.4092738192979
 20
992.1457374807221
 30
0.0
 10
321.4488962289851
 20
992.2086964277969
 30
0.0
 10
321.4858523876348
 20
992.2748848257348
 30
0.0
 10
321.5145755208545
 20
992.3327692579845
 30
0.0
 10
321.5365756825387
 20
992.381054247279
 30
0.0
 10
321.5523673438632
 20
992.4187681351399
 30
0.0
 10
321.5666755677818
 20
992.4571724669038
 30
0.0
 10
321.5790241721512
 20
992.4961182711477
 30
0.0
 10
321.5889342122414
 20
992.5354589031829
 30
0.0
 10
321.5959226255313
 20
992.5750498742639
 30
0.0
 10
321.5994987580009
 20
992.6147501750845
 30
0.0
 10
321.599164769954
 20
992.6544076678549
 30
0.0
 10
321.5958159606661
 20
992.6821881314945
 30
0.0
 10
321.5927629021741
 20
992.6982100662547
 30
0.0
 10
321.5921532710383
 20
992.7012886429944
 30
0.0
 10
321.5918483363041
 20
992.702828503983
 30
0.0
 11
319.035496391499
 21
990.9619724078341
 31
0.0
 11
319.0376104835952
 21
990.9624407634374
 31
0.0
 11
319.0397236646655
 21
990.9629093183446
 31
0.0
 11
319.1466157364563
 21
990.9876660037548
 31
0.0
 11
319.2491002293552
 21
991.0133812374993
 31
0.0
 11
319.3476431862471
 21
991.0399473712511
 31
0.0
 11
319.4427106500166
 21
991.0672567566828
 31
0.0
 11
319.5347686635484
 21
991.0952017454678
 31
0.0
 11
319.6242832697274
 21
991.1236746892785
 31
0.0
 11
319.7117205114383
 21
991.1525679397884
 31
0.0
 11
319.7975464315657
 21
991.1817738486698
 31
0.0
 11
319.9115654478979
 21
991.2216126436423
 31
0.0
 11
320.0231671278182
 21
991.2619186601987
 31
0.0
 11
320.1320262073234
 21
991.3027846295406
 31
0.0
 11
320.2378174224104
 21
991.344303282869
 31
0.0
 11
320.3402155090758
 21
991.3865673513851
 31
0.0
 11
320.4388952033164
 21
991.4296695662908
 31
0.0
 11
320.5359117146352
 21
991.4748079920358
 31
0.0
 11
320.6288635999161
 21
991.5210308425399
 31
0.0
 11
320.7179328521493
 21
991.5684449415808
 31
0.0
 11
320.8033014643254
 21
991.6171571129372
 31
0.0
 11
320.8851514294346
 21
991.6672741803867
 31
0.0
 11
320.9636647404674
 21
991.7189029677081
 31
0.0
 11
321.0436751902056
 21
991.7756830508938
 31
0.0
 11
321.1197349285401
 21
991.8346913537457
 31
0.0
 11
321.1914674785165
 21
991.8963222842104
 31
0.0
 11
321.2584963631803
 21
991.9609702502346
 31
0.0
 11
321.3204451055772
 21
992.0290296597648
 31
0.0
 11
321.3660971400194
 21
992.0861092160441
 31
0.0
 11
321.4085510365043
 21
992.1458834786846
 31
0.0
 11
321.4480889160328
 21
992.2086197630078
 31
0.0
 11
321.4849928996056
 21
992.2745853843337
 31
0.0
 11
321.5195451082237
 21
992.3440476579833
 31
0.0
 11
321.5363358016918
 21
992.3810315195586
 31
0.0
 11
321.5521045789094
 21
992.4188455019107
 31
0.0
 11
321.566372396852
 21
992.4573324316585
 31
0.0
 11
321.578660212495
 21
992.4963351354208
 31
0.0
 11
321.5884889828138
 21
992.5356964398163
 31
0.0
 11
321.595379664784
 21
992.5752591714642
 31
0.0
 11
321.5988532153809
 21
992.6148661569824
 31
0.0
 11
321.59843059158
 21
992.6543602229906
 31
0.0
 11
321.593632750357
 21
992.6935841961073
 31
0.0
 11
321.592757586909
 21
992.6982078502008
 31
0.0
 11
321.5918483363041
 21
992.702828503983
 31
0.0
  0
ARC
  5
BF
330
47
100
AcDbEntity
  8
1
  6
Continuous
 62
     7
100
AcDbCircle
 10
622.1151537181679
 20
990.7177037295121
 30
0.0
 40
0.5000000000002754
100
AcDbArc
 50
257.999952929447
 51
347.999952929406
  0
ARC
  5
C0
330
47
100
AcDbEntity
  8
1
  6
Continuous
 62
     7
100
AcDbCircle
 10
603.5303525495634
 20
994.6680411231362
 30
0.0
 40
0.5000000000003463
100
AcDbArc
 50
167.9999529294088
 51
257.9999529294342
  0
LWPOLYLINE
  5
C1
330
47
100
AcDbEntity
  8
0
  6
Continuous
 62
     7
100
AcDbPolyline
 90
       25
 70
     0
 43
0.0
 10
301.59374681874
 20
992.6925038619063
 10
301.6834844054399
 20
992.9696859492062
 10
301.9500699044401
 20
993.2420530988063
 10
302.38874705154
 20
993.5047456695063
 10
302.99168808024
 20
993.7530716581061
 10
303.74813248974
 20
993.9826035572062
 10
304.6445821562401
 20
994.1892435475063
 10
305.6650397518399
 20
994.3693073167062
 10
306.79129512624
 20
994.5195762141063
 10
308.00325033824
 20
994.6373736186063
 10
309.2792779823399
 20
994.7205928786063
 10
310.5966073087399
 20
994.7677531911061
 10
311.9317306006399
 20
994.7780126406062
 10
313.2608223857399
 20
994.7511849625064
 10
314.5601652247401
 20
994.6877507193065
 10
315.80657215434
 20
994.5888423993063
 10
316.9778010958399
 20
994.4562239273062
 10
318.0529510752401
 20
994.2922627254063
 10
319.01283638194
 20
994.0998850091062
 10
319.8403285966401
 20
993.882521770706
 10
320.52065973744
 20
993.6440547629061
 10
321.04169001444
 20
993.3887364043064
 10
321.39412110314
 20
993.1211264504061
 10
321.57166378214
 20
992.8459969981061
 10
321.59373333324
 20
992.7057044281062
  0
LWPOLYLINE
  5
C2
330
47
100
AcDbEntity
  8
0
  6
Continuous
 62
     7
100
AcDbPolyline
 90
       11
 70
     0
 43
0.0
 10
318.8881183193498
 20
990.9511821044423
 10
318.96110979484
 20
990.9696520938062
 10
319.70924308164
 20
991.1904370113064
 10
320.30620781344
 20
991.4302264972064
 10
320.7408839987401
 20
991.684557653806
 10
321.0051737876401
 20
991.9486900492063
 10
321.0941542090399
 20
992.2177044375064
 10
321.00616750884
 20
992.4865884407061
 10
320.7428528146401
 20
992.750335268506
 10
320.30911540254
 20
993.0040294005064
 10
320.1629946159329
 20
993.0705183817252
  0
ENDBLK
  5
49
330
47
100
AcDbEntity
  8
0
100
AcDbBlockEnd
  0
BLOCK
  5
4B
330
4A
100
AcDbEntity
  8
0
100
AcDbBlockBegin
  2
35-18
 70
     0
 10
1191.034849246653
 20
676.3708632020212
 30
0.0
  3
35-18
  1

  0
LINE
  5
C3
330
4A
100
AcDbEntity
  8
1
  6
Continuous
 62
     7
100
AcDbLine
 10
737.4917193917852
 20
499.7785420656547
 30
0.0
 11
737.4917193917852
 21
487.7785420656547
 31
0.0
  0
LINE
  5
C4
330
4A
100
AcDbEntity
  8
1
  6
Continuous
 62
     7
100
AcDbLine
 10
713.4917193917895
 20
499.7785420656547
 30
0.0
 11
713.4917193917896
 21
495.6999999999999
 31
0.0
  0
LINE
  5
C5
330
4A
100
AcDbEntity
  8
1
  6
Continuous
 62
     7
100
AcDbLine
 10
737.4917193917852
 20
487.7785420656547
 30
0.0
 11
725.4917193917868
 21
487.7785420656547
 31
0.0
  0
LINE
  5
C6
330
4A
100
AcDbEntity
  8
1
  6
Continuous
 62
     7
100
AcDbLine
 10
733.988494591727
 20
501.7785420656547
 30
0.0
 11
725.488494591727
 21
501.7785420656547
 31
0.0
  0
LINE
  5
C7
330
4A
100
AcDbEntity
  8
1
  6
Continuous
 62
     2
100
AcDbLine
 10
733.4474945917268
 20
501.7785420656547
 30
0.0
 11
733.4474945917268
 21
504.7352086140682
 31
0.0
  0
LINE
  5
C8
330
4A
100
AcDbEntity
  8
1
  6
Continuous
 62
     7
100
AcDbLine
 10
725.488494591727
 20
499.7785420656547
 30
0.0
 11
737.4917193917852
 21
499.7785420656547
 31
0.0
  0
LINE
  5
C9
330
4A
100
AcDbEntity
  8
1
  6
Continuous
 62
     7
100
AcDbLine
 10
733.988494591727
 20
504.7352086140682
 30
0.0
 11
733.988494591727
 21
499.7785420656547
 31
0.0
  0
LINE
  5
CA
330
4A
100
AcDbEntity
  8
1
  6
Continuous
 62
     2
100
AcDbLine
 10
733.988494591727
 20
500.8415025787601
 30
0.0
 11
733.4474945917268
 21
501.7785420656547
 31
0.0
  0
LINE
  5
CB
330
4A
100
AcDbEntity
  8
1
  6
Continuous
 62
     2
100
AcDbLine
 10
717.5294945917267
 20
501.7785420656547
 30
0.0
 11
716.9884945917267
 21
500.8415025787601
 31
0.0
  0
LINE
  5
CC
330
4A
100
AcDbEntity
  8
1
  6
Continuous
 62
     7
100
AcDbLine
 10
716.9884945917267
 20
499.7785420656547
 30
0.0
 11
716.9884945917267
 21
504.7352086140682
 31
0.0
  0
LINE
  5
CD
330
4A
100
AcDbEntity
  8
1
  6
Continuous
 62
     7
100
AcDbLine
 10
713.4917193917895
 20
499.7785420656547
 30
0.0
 11
725.488494591727
 21
499.7785420656547
 31
0.0
  0
LINE
  5
CE
330
4A
100
AcDbEntity
  8
1
  6
Continuous
 62
     2
100
AcDbLine
 10
717.5294945917267
 20
504.7352086140682
 30
0.0
 11
717.5294945917267
 21
501.7785420656547
 31
0.0
  0
LINE
  5
CF
330
4A
100
AcDbEntity
  8
1
  6
Continuous
 62
     7
100
AcDbLine
 10
725.488494591727
 20
501.7785420656547
 30
0.0
 11
716.9884945917267
 21
501.7785420656547
 31
0.0
  0
LINE
  5
D0
330
4A
100
AcDbEntity
  8
1
  6
Continuous
 62
     7
100
AcDbLine
 10
725.4917193917868
 20
487.7785420656547
 30
0.0
 11
713.4917193917895
 21
487.7785420656547
 31
0.0
  0
LINE
  5
D1
330
4A
100
AcDbEntity
  8
1
  6
Continuous
 62
     7
100
AcDbLine
 10
306.7417193917883
 20
487.7785420656547
 30
0.0
 11
299.6211566433111
 21
487.7785420656547
 31
0.0
  0
LINE
  5
D2
330
4A
100
AcDbEntity
  8
1
  6
Continuous
 62
     7
100
AcDbLine
 10
311.5917193917886
 20
501.7785420656547
 30
0.0
 11
303.0917193917884
 21
501.7785420656547
 31
0.0
  0
LINE
  5
D3
330
4A
100
AcDbEntity
  8
1
  6
Continuous
 62
     2
100
AcDbLine
 10
303.6327193917881
 20
504.7352086140682
 30
0.0
 11
303.6327193917881
 21
501.7785420656547
 31
0.0
  0
LINE
  5
D4
330
4A
100
AcDbEntity
  8
1
  6
Continuous
 62
     7
100
AcDbLine
 10
299.6211566433111
 20
499.7785420656547
 30
0.0
 11
311.5917193917886
 21
499.7785420656547
 31
0.0
  0
LINE
  5
D5
330
4A
100
AcDbEntity
  8
1
  6
Continuous
 62
     7
100
AcDbLine
 10
303.0917193917884
 20
499.7785420656547
 30
0.0
 11
303.0917193917884
 21
504.7352086140682
 31
0.0
  0
LINE
  5
D6
330
4A
100
AcDbEntity
  8
1
  6
Continuous
 62
     2
100
AcDbLine
 10
303.6327193917881
 20
501.7785420656547
 30
0.0
 11
303.0917193917884
 21
500.8415025787601
 31
0.0
  0
LINE
  5
D7
330
4A
100
AcDbEntity
  8
1
  6
Continuous
 62
     7
100
AcDbLine
 10
311.5917193917886
 20
487.7785420656547
 30
0.0
 11
306.7417193917883
 21
487.7785420656547
 31
0.0
  0
LINE
  5
D8
330
4A
100
AcDbEntity
  8
1
  6
Continuous
 62
     7
100
AcDbLine
 10
316.4417193917883
 20
487.7785420656547
 30
0.0
 11
311.5917193917886
 21
487.7785420656547
 31
0.0
  0
LINE
  5
D9
330
4A
100
AcDbEntity
  8
1
  6
Continuous
 62
     2
100
AcDbLine
 10
320.0917193917886
 20
500.8415025787601
 30
0.0
 11
319.5507193917885
 21
501.7785420656547
 31
0.0
  0
LINE
  5
DA
330
4A
100
AcDbEntity
  8
1
  6
Continuous
 62
     7
100
AcDbLine
 10
320.0917193917886
 20
504.7352086140682
 30
0.0
 11
320.0917193917886
 21
499.7785420656547
 31
0.0
  0
LINE
  5
DB
330
4A
100
AcDbEntity
  8
1
  6
Continuous
 62
     7
100
AcDbLine
 10
311.5917193917886
 20
499.7785420656547
 30
0.0
 11
323.5622821402659
 21
499.7785420656547
 31
0.0
  0
LINE
  5
DC
330
4A
100
AcDbEntity
  8
1
  6
Continuous
 62
     2
100
AcDbLine
 10
319.5507193917885
 20
501.7785420656547
 30
0.0
 11
319.5507193917885
 21
504.7352086140682
 31
0.0
  0
LINE
  5
DD
330
4A
100
AcDbEntity
  8
1
  6
Continuous
 62
     7
100
AcDbLine
 10
320.0917193917886
 20
501.7785420656547
 30
0.0
 11
311.5917193917886
 21
501.7785420656547
 31
0.0
  0
LINE
  5
DE
330
4A
100
AcDbEntity
  8
1
  6
Continuous
 62
     7
100
AcDbLine
 10
323.5622821402659
 20
487.7785420656547
 30
0.0
 11
316.4417193917883
 21
487.7785420656547
 31
0.0
  0
LINE
  5
DF
330
4A
100
AcDbEntity
  8
1
  6
Continuous
 62
     7
100
AcDbLine
 10
713.4917193917896
 20
495.6999999999999
 30
0.0
 11
713.4917193917895
 21
487.7785420656547
 31
0.0
  0
ARC
  5
E0
330
4A
100
AcDbEntity
  8
1
  6
Continuous
 62
     7
100
AcDbCircle
 10
311.6094278634411
 20
492.1865655365146
 30
0.0
 40
4.325962428294606
100
AcDbArc
 50
257.0105112688824
 51
269.7654571583037
  0
ARC
  5
E1
330
4A
100
AcDbEntity
  8
1
  6
Continuous
 62
     7
100
AcDbCircle
 10
311.6245213608089
 20
492.2519974197549
 30
0.0
 40
4.393112595889611
100
AcDbArc
 50
248.9340770978876
 51
257.0105112688383
  0
ARC
  5
E2
330
4A
100
AcDbEntity
  8
1
  6
Continuous
 62
     7
100
AcDbCircle
 10
311.6811774836316
 20
492.3990856050751
 30
0.0
 40
4.550735089576299
100
AcDbArc
 50
243.2937480863732
 51
248.9340770979714
  0
ARC
  5
E3
330
4A
100
AcDbEntity
  8
1
  6
Continuous
 62
     7
100
AcDbCircle
 10
311.7496417018009
 20
492.5351745552053
 30
0.0
 40
4.703075338741685
100
AcDbArc
 50
236.6890691401896
 51
243.2937480862491
  0
ARC
  5
E4
330
4A
100
AcDbEntity
  8
1
  6
Continuous
 62
     7
100
AcDbCircle
 10
311.8984823118007
 20
492.7616685513549
 30
0.0
 40
4.974097584092563
100
AcDbArc
 50
231.3706849884545
 51
236.6890691402332
  0
ARC
  5
E5
330
4A
100
AcDbEntity
  8
1
  6
Continuous
 62
     7
100
AcDbCircle
 10
311.9890470880199
 20
492.8749981144538
 30
0.0
 40
5.119168492838983
100
AcDbArc
 50
226.1749629858706
 51
231.3706849885241
  0
ARC
  5
E6
330
4A
100
AcDbEntity
  8
1
  6
Continuous
 62
     7
100
AcDbCircle
 10
312.2006491310605
 20
493.0954617589851
 30
0.0
 40
5.424749322040559
100
AcDbArc
 50
221.1559064026707
 51
226.1749629858124
  0
ARC
  5
E7
330
4A
100
AcDbEntity
  8
1
  6
Continuous
 62
     7
100
AcDbCircle
 10
312.3264395433506
 20
493.2054120597041
 30
0.0
 40
5.591819057336977
100
AcDbArc
 50
216.2584752923082
 51
221.1559064026166
  0
ARC
  5
E8
330
4A
100
AcDbEntity
  8
1
  6
Continuous
 62
     7
100
AcDbCircle
 10
312.5851754577597
 20
493.3951839367057
 30
0.0
 40
5.912689184822453
100
AcDbArc
 50
211.5232904563792
 51
216.2584752923943
  0
ARC
  5
E9
330
4A
100
AcDbEntity
  8
1
  6
Continuous
 62
     7
100
AcDbCircle
 10
312.7155207783688
 20
493.4751325518957
 30
0.0
 40
6.065599889727698
100
AcDbArc
 50
206.8821154913722
 51
211.5232904563969
  0
ARC
  5
EA
330
4A
100
AcDbEntity
  8
1
  6
Continuous
 62
     7
100
AcDbCircle
 10
312.9932249440791
 20
493.6159109390957
 30
0.0
 40
6.376948822525957
100
AcDbArc
 50
202.3852051772103
 51
206.8821154913893
  0
ARC
  5
EB
330
4A
100
AcDbEntity
  8
1
  6
Continuous
 62
     7
100
AcDbCircle
 10
313.4513501524997
 20
493.7638035280452
 30
0.0
 40
6.858920039797753
100
AcDbArc
 50
184.1831684271509
 51
196.1753239119417
  0
ARC
  5
EC
330
4A
100
AcDbEntity
  8
1
  6
Continuous
 62
     7
100
AcDbCircle
 10
313.6168932994113
 20
493.7759113646354
 30
0.0
 40
7.024905380099227
100
AcDbArc
 50
169.9019811870387
 51
184.1831684271669
  0
ARC
  5
ED
330
4A
100
AcDbEntity
  8
1
  6
Continuous
 62
     7
100
AcDbCircle
 10
313.2527702002191
 20
493.8407585771749
 30
0.0
 40
6.655052987460308
100
AcDbArc
 50
162.8608310077918
 51
169.9019811870511
  0
ARC
  5
EE
330
4A
100
AcDbEntity
  8
1
  6
Continuous
 62
     7
100
AcDbCircle
 10
313.2823803542304
 20
493.8316271415953
 30
0.0
 40
6.686039183362708
100
AcDbArc
 50
157.6904493679984
 51
162.8608310077859
  0
ARC
  5
EF
330
4A
100
AcDbEntity
  8
1
  6
Continuous
 62
     7
100
AcDbCircle
 10
312.8044822798803
 20
494.0277204926552
 30
0.0
 40
6.169474403497435
100
AcDbArc
 50
153.0422299636564
 51
157.6904493680254
  0
ARC
  5
F0
330
4A
100
AcDbEntity
  8
1
  6
Continuous
 62
     7
100
AcDbCircle
 10
312.893997030682
 20
493.982193523545
 30
0.0
 40
6.269901469211449
100
AcDbArc
 50
148.5523640887511
 51
153.0422299635927
  0
ARC
  5
F1
330
4A
100
AcDbEntity
  8
1
  6
Continuous
 62
     7
100
AcDbCircle
 10
312.4331504064611
 20
494.2640216792153
 30
0.0
 40
5.729710095353598
100
AcDbArc
 50
143.6658701624945
 51
148.5523640887823
  0
ARC
  5
F2
330
4A
100
AcDbEntity
  8
1
  6
Continuous
 62
     7
100
AcDbCircle
 10
312.4655929321708
 20
494.2401605086454
 30
0.0
 40
5.769982578957677
100
AcDbArc
 50
138.9197481423279
 51
143.6658701624587
  0
ARC
  5
F3
330
4A
100
AcDbEntity
  8
1
  6
Continuous
 62
     7
100
AcDbCircle
 10
312.0857704451593
 20
494.5712703126156
 30
0.0
 40
5.266098838479075
100
AcDbArc
 50
133.7493824690595
 51
138.9197481423822
  0
ARC
  5
F4
330
4A
100
AcDbEntity
  8
1
  6
Continuous
 62
     7
100
AcDbCircle
 10
312.0902772346816
 20
494.5665623572842
 30
0.0
 40
5.272616199536077
100
AcDbArc
 50
128.7049695566322
 51
133.7493824690767
  0
ARC
  5
F5
330
4A
100
AcDbEntity
  8
1
  6
Continuous
 62
     7
100
AcDbCircle
 10
311.817630833939
 20
494.9068202097844
 30
0.0
 40
4.83659846362454
100
AcDbArc
 50
123.2352763147076
 51
128.7049695566143
  0
ARC
  5
F6
330
4A
100
AcDbEntity
  8
1
  6
Continuous
 62
     7
100
AcDbCircle
 10
311.81672945209
 20
494.9081958163844
 30
0.0
 40
4.834953841249837
100
AcDbArc
 50
117.8815726076455
 51
123.2352763146368
  0
ARC
  5
F7
330
4A
100
AcDbEntity
  8
1
  6
Continuous
 62
     7
100
AcDbCircle
 10
311.6587933269185
 20
495.2067173765554
 30
0.0
 40
4.497227707355532
100
AcDbArc
 50
111.0229045358351
 51
117.8815726076427
  0
ARC
  5
F8
330
4A
100
AcDbEntity
  8
1
  6
Continuous
 62
     7
100
AcDbCircle
 10
311.6423557647614
 20
495.2494875776338
 30
0.0
 40
4.451407585677358
100
AcDbArc
 50
104.1909580717142
 51
111.0229045358903
  0
ARC
  5
F9
330
4A
100
AcDbEntity
  8
1
  6
Continuous
 62
     7
100
AcDbCircle
 10
311.5919582191017
 20
495.4487889894045
 30
0.0
 40
4.245832866066316
100
AcDbArc
 50
90.00322287699731
 51
104.1909580717051
  0
ARC
  5
FA
330
4A
100
AcDbEntity
  8
1
  6
Continuous
 62
     7
100
AcDbCircle
 10
313.1164418482114
 20
493.6666600640439
 30
0.0
 40
6.510207515097956
100
AcDbArc
 50
196.1753239119331
 51
202.3852051771374
  0
ARC
  5
FB
330
4A
100
AcDbEntity
  8
1
  6
Continuous
 62
     7
100
AcDbCircle
 10
316.5917193917884
 20
493.7785420656547
 30
0.0
 40
18.00000000000013
100
AcDbArc
 50
160.5287793655095
 51
199.4712206344905
  0
ARC
  5
FC
330
4A
100
AcDbEntity
  8
1
  6
Continuous
 62
     7
100
AcDbCircle
 10
306.5917193917886
 20
493.7785420656547
 30
0.0
 40
18.00000000000013
100
AcDbArc
 50
340.5287793655095
 51
19.47122063449055
  0
ARC
  5
FD
330
4A
100
AcDbEntity
  8
1
  6
Continuous
 62
     7
100
AcDbCircle
 10
310.0669969353659
 20
493.6666600640439
 30
0.0
 40
6.510207515101423
100
AcDbArc
 50
337.614794822862
 51
343.8246760880648
  0
ARC
  5
FE
330
4A
100
AcDbEntity
  8
1
  6
Continuous
 62
     7
100
AcDbCircle
 10
311.5914805644753
 20
495.4487889894045
 30
0.0
 40
4.245832866068381
100
AcDbArc
 50
75.80904192829341
 51
89.99677712299962
  0
ARC
  5
FF
330
4A
100
AcDbEntity
  8
1
  6
Continuous
 62
     7
100
AcDbCircle
 10
311.5410830188158
 20
495.2494875776338
 30
0.0
 40
4.451407585684363
100
AcDbArc
 50
68.97709546411242
 51
75.80904192828723
  0
ARC
  5
100
330
4A
100
AcDbEntity
  8
1
  6
Continuous
 62
     7
100
AcDbCircle
 10
311.5246454566587
 20
495.2067173765554
 30
0.0
 40
4.497227707346772
100
AcDbArc
 50
62.11842739235791
 51
68.97709546416696
  0
ARC
  5
101
330
4A
100
AcDbEntity
  8
1
  6
Continuous
 62
     7
100
AcDbCircle
 10
311.3667093314872
 20
494.9081958163844
 30
0.0
 40
4.834953841249649
100
AcDbArc
 50
56.76472368536487
 51
62.11842739235509
  0
ARC
  5
102
330
4A
100
AcDbEntity
  8
1
  6
Continuous
 62
     7
100
AcDbCircle
 10
311.365807949638
 20
494.9068202097844
 30
0.0
 40
4.836598463628609
100
AcDbArc
 50
51.2950304433847
 51
56.76472368529237
  0
ARC
  5
103
330
4A
100
AcDbEntity
  8
1
  6
Continuous
 62
     7
100
AcDbCircle
 10
311.0931615488954
 20
494.5665623572842
 30
0.0
 40
5.272616199540249
100
AcDbArc
 50
46.25061753092191
 51
51.29503044336678
  0
ARC
  5
104
330
4A
100
AcDbEntity
  8
1
  6
Continuous
 62
     7
100
AcDbCircle
 10
311.0976683384178
 20
494.5712703126156
 30
0.0
 40
5.266098838472956
100
AcDbArc
 50
41.08025185761854
 51
46.25061753094012
  0
ARC
  5
105
330
4A
100
AcDbEntity
  8
1
  6
Continuous
 62
     7
100
AcDbCircle
 10
310.7178458514062
 20
494.2401605086454
 30
0.0
 40
5.769982578954787
100
AcDbArc
 50
36.33412983753996
 51
41.08025185767215
  0
ARC
  5
106
330
4A
100
AcDbEntity
  8
1
  6
Continuous
 62
     7
100
AcDbCircle
 10
310.7502883771159
 20
494.2640216792153
 30
0.0
 40
5.729710095359393
100
AcDbArc
 50
31.44763591121684
 51
36.33412983750412
  0
ARC
  5
107
330
4A
100
AcDbEntity
  8
1
  6
Continuous
 62
     7
100
AcDbCircle
 10
310.2894417528952
 20
493.982193523545
 30
0.0
 40
6.269901469209029
100
AcDbArc
 50
26.9577700364075
 51
31.44763591124887
  0
ARC
  5
108
330
4A
100
AcDbEntity
  8
1
  6
Continuous
 62
     7
100
AcDbCircle
 10
310.3789565036969
 20
494.0277204926552
 30
0.0
 40
6.169474403497263
100
AcDbArc
 50
22.30955063197463
 51
26.95777003634388
  0
ARC
  5
109
330
4A
100
AcDbEntity
  8
1
  6
Continuous
 62
     7
100
AcDbCircle
 10
309.9010584293466
 20
493.8316271415953
 30
0.0
 40
6.686039183359969
100
AcDbArc
 50
17.13916899221343
 51
22.30955063200109
  0
ARC
  5
10A
330
4A
100
AcDbEntity
  8
1
  6
Continuous
 62
     7
100
AcDbCircle
 10
309.9306685833579
 20
493.8407585771749
 30
0.0
 40
6.655052987461653
100
AcDbArc
 50
10.09801881294956
 51
17.13916899220748
  0
ARC
  5
10B
330
4A
100
AcDbEntity
  8
1
  6
Continuous
 62
     7
100
AcDbCircle
 10
309.5665454841657
 20
493.7759113646354
 30
0.0
 40
7.024905380103473
100
AcDbArc
 50
355.8168315728332
 51
10.09801881296189
  0
ARC
  5
10C
330
4A
100
AcDbEntity
  8
1
  6
Continuous
 62
     7
100
AcDbCircle
 10
309.7320886310773
 20
493.7638035280452
 30
0.0
 40
6.858920039792809
100
AcDbArc
 50
343.8246760880571
 51
355.8168315728493
  0
ARC
  5
10D
330
4A
100
AcDbEntity
  8
1
  6
Continuous
 62
     7
100
AcDbCircle
 10
310.1902138394981
 20
493.6159109390957
 30
0.0
 40
6.376948822527331
100
AcDbArc
 50
333.1178845086105
 51
337.6147948227897
  0
ARC
  5
10E
330
4A
100
AcDbEntity
  8
1
  6
Continuous
 62
     7
100
AcDbCircle
 10
310.4679180052082
 20
493.4751325518957
 30
0.0
 40
6.06559988973067
100
AcDbArc
 50
328.4767095436039
 51
333.1178845086283
  0
ARC
  5
10F
330
4A
100
AcDbEntity
  8
1
  6
Continuous
 62
     7
100
AcDbCircle
 10
310.5982633258174
 20
493.3951839367057
 30
0.0
 40
5.912689184812065
100
AcDbArc
 50
323.7415247076063
 51
328.4767095436211
  0
ARC
  5
110
330
4A
100
AcDbEntity
  8
1
  6
Continuous
 62
     7
100
AcDbCircle
 10
310.8569992402264
 20
493.2054120597041
 30
0.0
 40
5.59181905733785
100
AcDbArc
 50
318.8440935973833
 51
323.7415247076932
  0
ARC
  5
111
330
4A
100
AcDbEntity
  8
1
  6
Continuous
 62
     7
100
AcDbCircle
 10
310.9827896525165
 20
493.0954617589851
 30
0.0
 40
5.424749322046358
100
AcDbArc
 50
313.8250370141889
 51
318.8440935973293
  0
ARC
  5
112
330
4A
100
AcDbEntity
  8
1
  6
Continuous
 62
     7
100
AcDbCircle
 10
311.1943916955571
 20
492.8749981144538
 30
0.0
 40
5.119168492836661
100
AcDbArc
 50
308.6293150114769
 51
313.8250370141307
  0
ARC
  5
113
330
4A
100
AcDbEntity
  8
1
  6
Continuous
 62
     7
100
AcDbCircle
 10
311.2849564717764
 20
492.7616685513549
 30
0.0
 40
4.974097584096003
100
AcDbArc
 50
303.3109308597657
 51
308.6293150115455
  0
ARC
  5
114
330
4A
100
AcDbEntity
  8
1
  6
Continuous
 62
     7
100
AcDbCircle
 10
311.4337970817761
 20
492.5351745552053
 30
0.0
 40
4.703075338745975
100
AcDbArc
 50
296.7062519137509
 51
303.3109308598104
  0
ARC
  5
115
330
4A
100
AcDbEntity
  8
1
  6
Continuous
 62
     7
100
AcDbCircle
 10
311.5022612999456
 20
492.3990856050751
 30
0.0
 40
4.550735089570117
100
AcDbArc
 50
291.0659229020266
 51
296.7062519136249
  0
ARC
  5
116
330
4A
100
AcDbEntity
  8
1
  6
Continuous
 62
     7
100
AcDbCircle
 10
311.5589174227681
 20
492.2519974197549
 30
0.0
 40
4.39311259588319
100
AcDbArc
 50
282.989488731166
 51
291.0659229021124
  0
ARC
  5
117
330
4A
100
AcDbEntity
  8
1
  6
Continuous
 62
     7
100
AcDbCircle
 10
311.574010920136
 20
492.1865655365146
 30
0.0
 40
4.325962428302649
100
AcDbArc
 50
270.2345428416979
 51
282.9894887311206
  0
SPLINE
  5
118
330
4A
100
AcDbEntity
  8
1
  6
Continuous
 62
     7
100
AcDbSpline
210
0.0
220
0.0
230
1.0
 70
    11
 71
     3
 72
    79
 73
    75
 74
    73
 42
0.000000001
 43
0.0000000001
 44
0.00000001
 40
0.0
 40
0.0
 40
0.0
 40
0.0
 40
0.3840904972706555
 40
0.7680482159497963
 40
1.165594404044922
 40
1.562931463944831
 40
1.980235353029948
 40
2.397320515395248
 40
2.83767560489433
 40
3.277843002775395
 40
3.741506292416216
 40
4.205026076747519
 40
4.689598155922077
 40
5.174069747158177
 40
5.675055359956787
 40
6.175978112650784
 40
6.687394598361209
 40
7.198780983883157
 40
7.713762195432372
 40
8.228743406977378
 40
8.740129792486403
 40
9.251546278174295
 40
9.752469030835309
 40
10.25345464358775
 40
10.7379262347635
 40
11.2224983138585
 40
11.6860180980904
 40
12.14968138760224
 40
12.58984878532579
 40
13.03020387462269
 40
13.44728903674027
 40
13.86459292550054
 40
14.2619299849682
 40
14.6594761723678
 40
15.04343388922284
 40
15.42752439459615
 40
15.80678202830402
 40
16.18603966201063
 40
16.57013016738021
 40
16.95408788422964
 40
17.35163407162128
 40
17.74897113107945
 40
18.16627501982891
 40
18.58336018193477
 40
19.02371527121849
 40
19.46388266892879
 40
19.92754595842666
 40
20.39106574264451
 40
20.87563782172512
 40
21.36010941288692
 40
21.86109502562538
 40
22.36201777827286
 40
22.87343426394716
 40
23.38482064944296
 40
23.89980186097499
 40
24.41478307251159
 40
24.92616945802128
 40
25.43758594371939
 40
25.93850869640161
 40
26.43949430918821
 40
26.9239659004122
 40
27.40853797957412
 40
27.87205776389199
 40
28.33572105351734
 40
28.7758884513801
 40
29.2162435408543
 40
29.6333287031844
 40
30.0506325922099
 40
30.44796965199297
 40
30.84551583978822
 40
31.22947355715007
 40
31.6135640632788
 40
31.99282169888232
 40
32.37207932458762
 40
32.37207932458762
 40
32.37207932458762
 40
32.37207932458762
 10
731.8702880310097
 20
499.6717715042604
 30
0.0
 10
731.9969712310821
 20
499.6522006388832
 30
0.0
 10
732.2502938385272
 20
499.6130656808639
 30
0.0
 10
732.6222798987839
 20
499.496422906704
 30
0.0
 10
732.983718550944
 20
499.3406839332125
 30
0.0
 10
733.3352542867894
 20
499.1398082269965
 30
0.0
 10
733.669753534801
 20
498.9005487549048
 30
0.0
 10
733.989762623045
 20
498.6200399660178
 30
0.0
 10
734.2877938992153
 20
498.3057395629901
 30
0.0
 10
734.5667506726857
 20
497.9544375696952
 30
0.0
 10
734.8199196634489
 20
497.5748177387264
 30
0.0
 10
735.0496831671369
 20
497.1636229782308
 30
0.0
 10
735.2507831826824
 20
496.7300238339881
 30
0.0
 10
735.4247041175134
 20
496.2714941577117
 30
0.0
 10
735.5678847419117
 20
495.7967624909708
 30
0.0
 10
735.6809675131656
 20
495.3047859172784
 30
0.0
 10
735.7619545451365
 20
494.8030080977829
 30
0.0
 10
735.8110039108253
 20
494.2924153740097
 30
0.0
 10
735.8272866458399
 20
493.7785420755134
 30
0.0
 10
735.8110039109756
 20
493.2646687770037
 30
0.0
 10
735.7619545454347
 20
492.754076053268
 30
0.0
 10
735.680967513641
 20
492.2522982336283
 30
0.0
 10
735.5678847424947
 20
491.760321660451
 30
0.0
 10
735.4247041185102
 20
491.2855899917956
 30
0.0
 10
735.2507831830482
 20
490.8270603224057
 30
0.0
 10
735.0496831707651
 20
490.3934611529612
 30
0.0
 10
734.8199196564454
 20
489.9822664825542
 30
0.0
 10
734.5667507055123
 20
489.6026463239638
 30
0.0
 10
734.2877937918465
 20
489.2513454943224
 30
0.0
 10
733.989763025691
 20
488.9370408702247
 30
0.0
 10
733.6697521311355
 20
488.6565470445211
 30
0.0
 10
733.3352594455231
 20
488.4172332266697
 30
0.0
 10
732.9837003305705
 20
488.2165511511122
 30
0.0
 10
732.6223470854661
 20
488.0601048471216
 30
0.0
 10
732.2500525797684
 20
487.9460166005972
 30
0.0
 10
731.8727790481173
 20
487.8781298875565
 30
0.0
 10
731.4917193922466
 20
487.8546780919913
 30
0.0
 10
731.1106597363763
 20
487.8781298875414
 30
0.0
 10
730.7333862047259
 20
487.9460166005662
 30
0.0
 10
730.3610916990297
 20
488.0601048470761
 30
0.0
 10
729.9997384539272
 20
488.2165511510512
 30
0.0
 10
729.6481793389769
 20
488.4172332265945
 30
0.0
 10
729.3136866533673
 20
488.6565470444317
 30
0.0
 10
728.9936757588158
 20
488.9370408701212
 30
0.0
 10
728.6956449926647
 20
489.251345494206
 30
0.0
 10
728.416688079004
 20
489.6026463238343
 30
0.0
 10
728.1635191280768
 20
489.982266482412
 30
0.0
 10
727.9337556137638
 20
490.3934611528068
 30
0.0
 10
727.7326556014889
 20
490.827060322239
 30
0.0
 10
727.5587346660354
 20
491.2855899916177
 30
0.0
 10
727.415554042061
 20
491.7603216602614
 30
0.0
 10
727.302471270925
 20
492.2522982334272
 30
0.0
 10
727.2214842391431
 20
492.7540760530552
 30
0.0
 10
727.1724348736158
 20
493.2646687767794
 30
0.0
 10
727.1561521387667
 20
493.7785420752741
 30
0.0
 10
727.172434873796
 20
494.292415373767
 30
0.0
 10
727.2214842395076
 20
494.8030080974906
 30
0.0
 10
727.3024712714775
 20
495.3047859171025
 30
0.0
 10
727.4155540428186
 20
495.796762490296
 30
0.0
 10
727.5587346669893
 20
496.2714941587903
 30
0.0
 10
727.7326556027326
 20
496.7300238286423
 30
0.0
 10
727.9337556150394
 20
497.1636229962525
 30
0.0
 10
728.1635191304014
 20
497.5748176730419
 30
0.0
 10
728.4166880788026
 20
497.9544378082055
 30
0.0
 10
728.6956450028133
 20
498.3057387207928
 30
0.0
 10
728.9936757329597
 20
498.6200430436807
 30
0.0
 10
729.3136867567939
 20
498.9005379367375
 30
0.0
 10
729.6481789747075
 20
499.1398478774913
 30
0.0
 10
729.999739758027
 20
499.3405437663009
 30
0.0
 10
730.3610869108919
 20
499.4969396098493
 30
0.0
 10
730.7334034213823
 20
499.6112100936156
 30
0.0
 10
731.1105957510498
 20
499.6784242836926
 30
0.0
 10
731.4919548912752
 20
499.704356413798
 30
0.0
 10
731.7441769853451
 20
499.6826331381966
 30
0.0
 10
731.8702880310097
 20
499.6717715042604
 30
0.0
 11
731.8702880310097
 21
499.6717715042604
 31
0.0
 11
732.2482847186911
 21
499.6036244533846
 31
0.0
 11
732.6155789872912
 21
499.4917385798232
 31
0.0
 11
732.9804813998494
 21
499.3339754645505
 31
0.0
 11
733.3258918364322
 21
499.1375871521934
 31
0.0
 11
733.6655278550556
 21
498.8951208441609
 31
0.0
 11
733.979587330804
 21
498.6206637833272
 31
0.0
 11
734.2829592455789
 21
498.3014803155816
 31
0.0
 11
734.5570781486438
 21
497.957087857657
 31
0.0
 11
734.8147517747252
 21
497.5716167841216
 31
0.0
 11
735.0411869856432
 21
497.1671694010309
 31
0.0
 11
735.2454503239948
 21
496.7277532105047
 31
0.0
 11
735.4175145424464
 21
496.2748662186087
 31
0.0
 11
735.5624788888372
 21
495.7953123399899
 31
0.0
 11
735.6748359187968
 21
495.3071530401883
 31
0.0
 11
735.7565210275677
 21
494.8023022059174
 31
0.0
 11
735.8054538623268
 21
494.2932623126021
 31
0.0
 11
735.8218464107041
 21
493.7785420656547
 31
0.0
 11
735.8054538623267
 21
493.2638218187074
 31
0.0
 11
735.7565210275675
 21
492.754781925392
 31
0.0
 11
735.6748359187968
 21
492.2499310911211
 31
0.0
 11
735.5624788888372
 21
491.7617717913195
 31
0.0
 11
735.4175145424464
 21
491.2822179127008
 31
0.0
 11
735.2454503239948
 21
490.829330920805
 31
0.0
 11
735.0411869856432
 21
490.3899147302786
 31
0.0
 11
734.8147517747251
 21
489.9854673471878
 31
0.0
 11
734.5570781486435
 21
489.5999962736525
 31
0.0
 11
734.2829592455786
 21
489.2556038157281
 31
0.0
 11
733.9795873308037
 21
488.9364203479823
 31
0.0
 11
733.6655278550556
 21
488.6619632871487
 31
0.0
 11
733.3258918364324
 21
488.4194969791163
 31
0.0
 11
732.9804813998494
 21
488.2231086667592
 31
0.0
 11
732.6155789872911
 21
488.0653455514864
 31
0.0
 11
732.2482847186911
 21
487.9534596779252
 31
0.0
 11
731.8702880310097
 21
487.8853126270492
 31
0.0
 11
731.4917193917827
 21
487.8624622825558
 31
0.0
 11
731.1131507525556
 21
487.8853126270492
 31
0.0
 11
730.7351540648745
 21
487.9534596779252
 31
0.0
 11
730.3678597962744
 21
488.0653455514865
 31
0.0
 11
730.0029573837163
 21
488.2231086667592
 31
0.0
 11
729.6575469471334
 21
488.4194969791163
 31
0.0
 11
729.31791092851
 21
488.6619632871488
 31
0.0
 11
729.0038514527616
 21
488.9364203479823
 31
0.0
 11
728.700479537987
 21
489.2556038157281
 31
0.0
 11
728.426360634922
 21
489.5999962736525
 31
0.0
 11
728.1686870088404
 21
489.9854673471878
 31
0.0
 11
727.9422517979224
 21
490.3899147302785
 31
0.0
 11
727.7379884595708
 21
490.8293309208048
 31
0.0
 11
727.5659242411193
 21
491.2822179127006
 31
0.0
 11
727.4209598947284
 21
491.7617717913195
 31
0.0
 11
727.3086028647687
 21
492.2499310911212
 31
0.0
 11
727.2269177559979
 21
492.754781925392
 31
0.0
 11
727.1779849212388
 21
493.2638218187074
 31
0.0
 11
727.1615923728616
 21
493.7785420656547
 31
0.0
 11
727.1779849212389
 21
494.2932623126021
 31
0.0
 11
727.2269177559981
 21
494.8023022059175
 31
0.0
 11
727.3086028647687
 21
495.3071530401883
 31
0.0
 11
727.4209598947285
 21
495.79531233999
 31
0.0
 11
727.5659242411193
 21
496.2748662186088
 31
0.0
 11
727.7379884595708
 21
496.7277532105047
 31
0.0
 11
727.9422517979224
 21
497.1671694010309
 31
0.0
 11
728.1686870088403
 21
497.5716167841217
 31
0.0
 11
728.4263606349218
 21
497.9570878576571
 31
0.0
 11
728.7004795379867
 21
498.3014803155817
 31
0.0
 11
729.0038514527614
 21
498.6206637833273
 31
0.0
 11
729.3179109285098
 21
498.8951208441609
 31
0.0
 11
729.6575469471331
 21
499.1375871521933
 31
0.0
 11
730.002957383716
 21
499.3339754645503
 31
0.0
 11
730.3678597962745
 21
499.4917385798233
 31
0.0
 11
730.7351540648747
 21
499.6036244533845
 31
0.0
 11
731.1131507525558
 21
499.6717715042604
 31
0.0
 11
731.4917193917828
 21
499.6946218487539
 31
0.0
 11
731.8702880310097
 21
499.6717715042604
 31
0.0
  0
SPLINE
  5
119
330
4A
100
AcDbEntity
  8
1
  6
Continuous
 62
     7
100
AcDbSpline
210
0.0
220
0.0
230
1.0
 70
    11
 71
     3
 72
    79
 73
    75
 74
    73
 42
0.000000001
 43
0.0000000001
 44
0.00000001
 40
0.0
 40
0.0
 40
0.0
 40
0.0
 40
0.3840904972705436
 40
0.7680482159496844
 40
1.16559440404481
 40
1.562931463944917
 40
1.980235353029756
 40
2.397320515395228
 40
2.837675604894309
 40
3.277843002775304
 40
3.741506292416125
 40
4.205026076747428
 40
4.689598155921987
 40
5.174069747158087
 40
5.675055359956696
 40
6.175978112650745
 40
6.687394598361133
 40
7.198780983883081
 40
7.713762195432292
 40
8.22874340697729
 40
8.740129792486293
 40
9.251546278174203
 40
9.752469030835268
 40
10.25345464358774
 40
10.73792623476345
 40
11.22249831385835
 40
11.68601809809014
 40
12.14968138760212
 40
12.58984878532573
 40
13.03020387462263
 40
13.44728903674029
 40
13.86459292550075
 40
14.26192998496841
 40
14.6594761723677
 40
15.04343388922285
 40
15.42752439459593
 40
15.8067820283038
 40
16.18603966201041
 40
16.5701301673801
 40
16.95408788422953
 40
17.35163407162138
 40
17.74897113107966
 40
18.16627501982911
 40
18.58336018193489
 40
19.02371527121885
 40
19.46388266892901
 40
19.92754595842675
 40
20.3910657426446
 40
20.87563782172516
 40
21.360109412887
 40
21.86109502562546
 40
22.36201777827292
 40
22.8734342639472
 40
23.38482064944302
 40
23.89980186097506
 40
24.41478307251166
 40
24.92616945802136
 40
25.4375859437195
 40
25.93850869640166
 40
26.43949430918827
 40
26.92396590041233
 40
27.4085379795742
 40
27.87205776389202
 40
28.33572105351743
 40
28.7758884513802
 40
29.21624354085455
 40
29.63332870318465
 40
30.05063259221015
 40
30.44796965199332
 40
30.84551583978836
 40
31.22947355715021
 40
31.61356406327905
 40
31.99282169888258
 40
32.37207932458765
 40
32.37207932458765
 40
32.37207932458765
 40
32.37207932458765
 10
719.1131507525635
 20
499.6717715042604
 30
0.0
 10
718.9864675524913
 20
499.6522006388833
 30
0.0
 10
718.733144945046
 20
499.6130656808641
 30
0.0
 10
718.3611588847895
 20
499.4964229067039
 30
0.0
 10
717.999720232629
 20
499.3406839332123
 30
0.0
 10
717.6481844967839
 20
499.1398082269968
 30
0.0
 10
717.3136852487723
 20
498.9005487549046
 30
0.0
 10
716.9936761605281
 20
498.6200399660179
 30
0.0
 10
716.6956448843578
 20
498.3057395629902
 30
0.0
 10
716.4166881108878
 20
497.954437569695
 30
0.0
 10
716.1635191201244
 20
497.5748177387266
 30
0.0
 10
715.9337556164364
 20
497.1636229782306
 30
0.0
 10
715.7326556008909
 20
496.7300238339881
 30
0.0
 10
715.5587346660598
 20
496.2714941577117
 30
0.0
 10
715.4155540416621
 20
495.7967624909708
 30
0.0
 10
715.3024712704073
 20
495.3047859172785
 30
0.0
 10
715.221484238437
 20
494.8030080977829
 30
0.0
 10
715.1724348727478
 20
494.2924153740096
 30
0.0
 10
715.1561521377337
 20
493.7785420755134
 30
0.0
 10
715.1724348725975
 20
493.2646687770037
 30
0.0
 10
715.2214842381381
 20
492.7540760532681
 30
0.0
 10
715.3024712699317
 20
492.2522982336283
 30
0.0
 10
715.4155540410791
 20
491.760321660451
 30
0.0
 10
715.558734665063
 20
491.2855899917957
 30
0.0
 10
715.7326556005254
 20
490.8270603224057
 30
0.0
 10
715.933755612808
 20
490.3934611529613
 30
0.0
 10
716.1635191271273
 20
489.9822664825541
 30
0.0
 10
716.4166880780608
 20
489.6026463239639
 30
0.0
 10
716.6956449917266
 20
489.2513454943226
 30
0.0
 10
716.9936757578823
 20
488.9370408702246
 30
0.0
 10
717.3136866524376
 20
488.6565470445211
 30
0.0
 10
717.6481793380503
 20
488.4172332266697
 30
0.0
 10
717.9997384530031
 20
488.2165511511124
 30
0.0
 10
718.3610916981072
 20
488.0601048471217
 30
0.0
 10
718.7333862038047
 20
487.9460166005973
 30
0.0
 10
719.1106597354558
 20
487.8781298875565
 30
0.0
 10
719.4917193913263
 20
487.8546780919912
 30
0.0
 10
719.8727790471971
 20
487.8781298875413
 30
0.0
 10
720.2500525788473
 20
487.9460166005662
 30
0.0
 10
720.6223470845434
 20
488.0601048470759
 30
0.0
 10
720.9837003296464
 20
488.2165511510513
 30
0.0
 10
721.3352594445965
 20
488.4172332265944
 30
0.0
 10
721.669752130206
 20
488.6565470444317
 30
0.0
 10
721.9897630247578
 20
488.9370408701213
 30
0.0
 10
722.2877937909094
 20
489.2513454942061
 30
0.0
 10
722.5667507045696
 20
489.6026463238342
 30
0.0
 10
722.8199196554962
 20
489.9822664824121
 30
0.0
 10
723.0496831698097
 20
490.3934611528068
 30
0.0
 10
723.2507831820843
 20
490.8270603222392
 30
0.0
 10
723.424704117538
 20
491.2855899916177
 30
0.0
 10
723.5678847415122
 20
491.7603216602612
 30
0.0
 10
723.6809675126483
 20
492.2522982334273
 30
0.0
 10
723.7619545444295
 20
492.7540760530551
 30
0.0
 10
723.8110039099574
 20
493.2646687767793
 30
0.0
 10
723.8272866448069
 20
493.7785420752742
 30
0.0
 10
723.8110039097774
 20
494.2924153737669
 30
0.0
 10
723.7619545440659
 20
494.8030080974905
 30
0.0
 10
723.6809675120955
 20
495.3047859171025
 30
0.0
 10
723.567884740755
 20
495.7967624902961
 30
0.0
 10
723.4247041165842
 20
496.2714941587906
 30
0.0
 10
723.2507831808402
 20
496.7300238286422
 30
0.0
 10
723.0496831685339
 20
497.1636229962525
 30
0.0
 10
722.8199196531722
 20
497.574817673042
 30
0.0
 10
722.5667507047709
 20
497.9544378082055
 30
0.0
 10
722.2877937807599
 20
498.3057387207927
 30
0.0
 10
721.9897630506136
 20
498.6200430436807
 30
0.0
 10
721.6697520267794
 20
498.9005379367375
 30
0.0
 10
721.3352598088653
 20
499.1398478774912
 30
0.0
 10
720.9836990255462
 20
499.3405437663008
 30
0.0
 10
720.6223518726813
 20
499.4969396098494
 30
0.0
 10
720.250035362191
 20
499.6112100936157
 30
0.0
 10
719.8728430325235
 20
499.6784242836926
 30
0.0
 10
719.4914838922975
 20
499.7043564137981
 30
0.0
 10
719.2392617982283
 20
499.6826331381965
 30
0.0
 10
719.1131507525636
 20
499.6717715042604
 30
0.0
 11
719.1131507525635
 21
499.6717715042604
 31
0.0
 11
718.7351540648822
 21
499.6036244533846
 31
0.0
 11
718.3678597962821
 21
499.4917385798232
 31
0.0
 11
718.0029573837239
 21
499.3339754645505
 31
0.0
 11
717.6575469471409
 21
499.1375871521934
 31
0.0
 11
717.3179109285178
 21
498.8951208441609
 31
0.0
 11
717.0038514527693
 21
498.6206637833272
 31
0.0
 11
716.7004795379943
 21
498.3014803155816
 31
0.0
 11
716.4263606349296
 21
497.957087857657
 31
0.0
 11
716.1686870088481
 21
497.5716167841216
 31
0.0
 11
715.9422517979301
 21
497.1671694010309
 31
0.0
 11
715.7379884595786
 21
496.7277532105047
 31
0.0
 11
715.5659242411269
 21
496.2748662186087
 31
0.0
 11
715.4209598947361
 21
495.7953123399899
 31
0.0
 11
715.3086028647763
 21
495.3071530401883
 31
0.0
 11
715.2269177560056
 21
494.8023022059174
 31
0.0
 11
715.1779849212465
 21
494.2932623126021
 31
0.0
 11
715.1615923728693
 21
493.7785420656547
 31
0.0
 11
715.1779849212465
 21
493.2638218187074
 31
0.0
 11
715.2269177560055
 21
492.754781925392
 31
0.0
 11
715.3086028647763
 21
492.2499310911211
 31
0.0
 11
715.4209598947361
 21
491.7617717913195
 31
0.0
 11
715.565924241127
 21
491.2822179127008
 31
0.0
 11
715.7379884595786
 21
490.829330920805
 31
0.0
 11
715.9422517979299
 21
490.3899147302786
 31
0.0
 11
716.1686870088478
 21
489.9854673471878
 31
0.0
 11
716.4263606349296
 21
489.5999962736525
 31
0.0
 11
716.7004795379946
 21
489.2556038157281
 31
0.0
 11
717.0038514527695
 21
488.9364203479823
 31
0.0
 11
717.3179109285177
 21
488.6619632871487
 31
0.0
 11
717.6575469471411
 21
488.4194969791163
 31
0.0
 11
718.0029573837242
 21
488.2231086667592
 31
0.0
 11
718.3678597962821
 21
488.0653455514864
 31
0.0
 11
718.7351540648822
 21
487.9534596779252
 31
0.0
 11
719.1131507525633
 21
487.8853126270492
 31
0.0
 11
719.4917193917904
 21
487.8624622825558
 31
0.0
 11
719.8702880310175
 21
487.8853126270492
 31
0.0
 11
720.2482847186988
 21
487.9534596779252
 31
0.0
 11
720.6155789872988
 21
488.0653455514865
 31
0.0
 11
720.9804813998571
 21
488.2231086667592
 31
0.0
 11
721.3258918364402
 21
488.4194969791163
 31
0.0
 11
721.6655278550636
 21
488.6619632871488
 31
0.0
 11
721.9795873308118
 21
488.9364203479823
 31
0.0
 11
722.2829592455868
 21
489.2556038157281
 31
0.0
 11
722.5570781486515
 21
489.5999962736525
 31
0.0
 11
722.8147517747329
 21
489.9854673471878
 31
0.0
 11
723.0411869856509
 21
490.3899147302785
 31
0.0
 11
723.2454503240024
 21
490.8293309208048
 31
0.0
 11
723.417514542454
 21
491.2822179127006
 31
0.0
 11
723.5624788888449
 21
491.7617717913195
 31
0.0
 11
723.6748359188045
 21
492.2499310911212
 31
0.0
 11
723.7565210275752
 21
492.754781925392
 31
0.0
 11
723.8054538623345
 21
493.2638218187074
 31
0.0
 11
723.8218464107119
 21
493.7785420656547
 31
0.0
 11
723.8054538623345
 21
494.2932623126021
 31
0.0
 11
723.7565210275753
 21
494.8023022059175
 31
0.0
 11
723.6748359188045
 21
495.3071530401883
 31
0.0
 11
723.5624788888449
 21
495.79531233999
 31
0.0
 11
723.4175145424541
 21
496.2748662186088
 31
0.0
 11
723.2454503240024
 21
496.7277532105047
 31
0.0
 11
723.0411869856509
 21
497.1671694010309
 31
0.0
 11
722.8147517747332
 21
497.5716167841217
 31
0.0
 11
722.5570781486515
 21
497.9570878576571
 31
0.0
 11
722.2829592455867
 21
498.3014803155817
 31
0.0
 11
721.9795873308117
 21
498.6206637833273
 31
0.0
 11
721.6655278550633
 21
498.8951208441609
 31
0.0
 11
721.32589183644
 21
499.1375871521933
 31
0.0
 11
720.980481399857
 21
499.3339754645503
 31
0.0
 11
720.6155789872987
 21
499.4917385798233
 31
0.0
 11
720.2482847186985
 21
499.6036244533845
 31
0.0
 11
719.8702880310173
 21
499.6717715042604
 31
0.0
 11
719.4917193917903
 21
499.6946218487539
 31
0.0
 11
719.1131507525636
 21
499.6717715042604
 31
0.0
  0
ENDBLK
  5
4C
330
4A
100
AcDbEntity
  8
0
100
AcDbBlockEnd
  0
BLOCK
  5
4E
330
4D
100
AcDbEntity
  8
0
100
AcDbBlockBegin
  2
32-116-C2
 70
     0
 10
1193.038176326962
 20
693.3275297504347
 30
0.0
  3
32-116-C2
  1

  0
LINE
  5
11A
330
4D
100
AcDbEntity
  8
1
  6
Continuous
 62
     7
100
AcDbLine
 10
716.5230924251894
 20
504.8373502691893
 30
0.0
 11
714.4917193917863
 21
504.8373502691893
 31
0.0
  0
LINE
  5
11B
330
4D
100
AcDbEntity
  8
1
  6
Continuous
 62
     7
100
AcDbLine
 10
734.460346358384
 20
504.8373502691893
 30
0.0
 11
734.460346358384
 21
515.3317967697242
 31
0.0
  0
LINE
  5
11C
330
4D
100
AcDbEntity
  8
1
  6
Continuous
 62
     7
100
AcDbLine
 10
734.460346358384
 20
504.8373502691893
 30
0.0
 11
736.4917193917868
 21
504.8373502691893
 31
0.0
  0
LINE
  5
11D
330
4D
100
AcDbEntity
  8
1
  6
Continuous
 62
     7
100
AcDbLine
 10
724.4603463583833
 20
504.8373502691893
 30
0.0
 11
724.4603463583833
 21
515.3317967697242
 31
0.0
  0
LINE
  5
11E
330
4D
100
AcDbEntity
  8
1
  6
Continuous
 62
     7
100
AcDbLine
 10
724.4603463583833
 20
504.8373502691893
 30
0.0
 11
726.5230924251896
 21
504.8373502691893
 31
0.0
  0
LINE
  5
11F
330
4D
100
AcDbEntity
  8
1
  6
Continuous
 62
     7
100
AcDbLine
 10
734.460346358384
 20
515.3317967697242
 30
0.0
 11
736.4917193917868
 21
515.3317967697242
 31
0.0
  0
LINE
  5
120
330
4D
100
AcDbEntity
  8
1
  6
Continuous
 62
     7
100
AcDbLine
 10
716.5230924251894
 20
515.3317967697242
 30
0.0
 11
716.5230924251894
 21
504.8373502691893
 31
0.0
  0
LINE
  5
121
330
4D
100
AcDbEntity
  8
1
  6
Continuous
 62
     7
100
AcDbLine
 10
714.4917193917863
 20
515.3317967697242
 30
0.0
 11
716.5230924251894
 21
515.3317967697242
 31
0.0
  0
LINE
  5
122
330
4D
100
AcDbEntity
  8
1
  6
Continuous
 62
     7
100
AcDbLine
 10
726.5230924251896
 20
515.3317967697242
 30
0.0
 11
726.5230924251896
 21
504.8373502691893
 31
0.0
  0
LINE
  5
123
330
4D
100
AcDbEntity
  8
1
  6
Continuous
 62
     7
100
AcDbLine
 10
724.4603463583833
 20
515.3317967697242
 30
0.0
 11
726.5230924251896
 21
515.3317967697242
 31
0.0
  0
LINE
  5
124
330
4D
100
AcDbEntity
  8
0
  6
Continuous
 62
     7
100
AcDbLine
 10
736.4917193917868
 20
504.8373502691893
 30
0.0
 11
736.4917193917868
 21
515.3317967697242
 31
0.0
  0
LINE
  5
125
330
4D
100
AcDbEntity
  8
0
  6
Continuous
 62
     7
100
AcDbLine
 10
736.4917193917868
 20
515.3317967697242
 30
0.0
 11
732.4917193917868
 21
522.2599999999999
 31
0.0
  0
LINE
  5
126
330
4D
100
AcDbEntity
  8
0
  6
Continuous
 62
     7
100
AcDbLine
 10
735.4917193917868
 20
504.2599999999999
 30
0.0
 11
736.4917193917868
 21
504.8373502691893
 31
0.0
  0
LINE
  5
127
330
4D
100
AcDbEntity
  8
0
  6
Continuous
 62
     7
100
AcDbLine
 10
725.4917193917868
 20
504.2599999999999
 30
0.0
 11
735.4917193917868
 21
504.2599999999999
 31
0.0
  0
LINE
  5
128
330
4D
100
AcDbEntity
  8
0
  6
Continuous
 62
     7
100
AcDbLine
 10
725.4917193917868
 20
522.2599999999999
 30
0.0
 11
732.4917193917868
 21
522.2599999999999
 31
0.0
  0
LINE
  5
129
330
4D
100
AcDbEntity
  8
0
  6
Continuous
 62
     7
100
AcDbLine
 10
718.4917193917863
 20
522.2599999999999
 30
0.0
 11
725.4917193917868
 21
522.2599999999999
 31
0.0
  0
LINE
  5
12A
330
4D
100
AcDbEntity
  8
0
  6
Continuous
 62
     7
100
AcDbLine
 10
715.4917193917863
 20
504.2599999999999
 30
0.0
 11
725.4917193917868
 21
504.2599999999999
 31
0.0
  0
LINE
  5
12B
330
4D
100
AcDbEntity
  8
0
  6
Continuous
 62
     7
100
AcDbLine
 10
714.4917193917863
 20
504.8373502691893
 30
0.0
 11
715.4917193917863
 21
504.2599999999999
 31
0.0
  0
LINE
  5
12C
330
4D
100
AcDbEntity
  8
0
  6
Continuous
 62
     7
100
AcDbLine
 10
718.4917193917863
 20
522.2599999999999
 30
0.0
 11
714.4917193917863
 21
515.3317967697242
 31
0.0
  0
LINE
  5
12D
330
4D
100
AcDbEntity
  8
0
  6
Continuous
 62
     7
100
AcDbLine
 10
714.4917193917863
 20
515.3317967697242
 30
0.0
 11
714.4917193917863
 21
504.8373502691893
 31
0.0
  0
LINE
  5
12E
330
4D
100
AcDbEntity
  8
1
  6
Continuous
 62
     7
100
AcDbLine
 10
307.0091436968325
 20
515.3317967697242
 30
0.0
 11
305.2227532014217
 21
515.3317967697242
 31
0.0
  0
LINE
  5
12F
330
4D
100
AcDbEntity
  8
1
  6
Continuous
 62
     7
100
AcDbLine
 10
307.0091436968325
 20
504.8373502691893
 30
0.0
 11
307.0091436968325
 21
515.3317967697242
 31
0.0
  0
LINE
  5
130
330
4D
100
AcDbEntity
  8
1
  6
Continuous
 62
     7
100
AcDbLine
 10
305.2227532014217
 20
504.8373502691893
 30
0.0
 11
307.0091436968325
 21
504.8373502691893
 31
0.0
  0
LINE
  5
131
330
4D
100
AcDbEntity
  8
1
  6
Continuous
 62
     7
100
AcDbLine
 10
305.2227532014217
 20
515.3317967697242
 30
0.0
 11
305.2227532014217
 21
504.8373502691893
 31
0.0
  0
LINE
  5
132
330
4D
100
AcDbEntity
  8
0
  6
Continuous
 62
     7
100
AcDbLine
 10
300.5917193917882
 20
515.3317967697242
 30
0.0
 11
300.5917193917882
 21
504.8373502691893
 31
0.0
  0
LINE
  5
133
330
4D
100
AcDbEntity
  8
0
  6
Continuous
 62
     7
100
AcDbLine
 10
304.5917193917882
 20
522.2599999999999
 30
0.0
 11
300.5917193917882
 21
515.3317967697242
 31
0.0
  0
LINE
  5
134
330
4D
100
AcDbEntity
  8
0
  6
Continuous
 62
     7
100
AcDbLine
 10
300.5917193917882
 20
504.8373502691893
 30
0.0
 11
301.5917193917882
 21
504.2599999999999
 31
0.0
  0
LINE
  5
135
330
4D
100
AcDbEntity
  8
0
  6
Continuous
 62
     7
100
AcDbLine
 10
301.5917193917882
 20
504.2599999999999
 30
0.0
 11
311.5917193917887
 21
504.2599999999999
 31
0.0
  0
LINE
  5
136
330
4D
100
AcDbEntity
  8
0
  6
Continuous
 62
     7
100
AcDbLine
 10
304.5917193917882
 20
522.2599999999999
 30
0.0
 11
311.5917193917887
 21
522.2599999999999
 31
0.0
  0
LINE
  5
137
330
4D
100
AcDbEntity
  8
0
  6
Continuous
 62
     7
100
AcDbLine
 10
311.5917193917887
 20
522.2599999999999
 30
0.0
 11
318.5917193917887
 21
522.2599999999999
 31
0.0
  0
LINE
  5
138
330
4D
100
AcDbEntity
  8
0
  6
Continuous
 62
     7
100
AcDbLine
 10
311.5917193917887
 20
504.2599999999999
 30
0.0
 11
321.5917193917887
 21
504.2599999999999
 31
0.0
  0
LINE
  5
139
330
4D
100
AcDbEntity
  8
0
  6
Continuous
 62
     7
100
AcDbLine
 10
321.5917193917887
 20
504.2599999999999
 30
0.0
 11
322.5917193917887
 21
504.8373502691893
 31
0.0
  0
LINE
  5
13A
330
4D
100
AcDbEntity
  8
0
  6
Continuous
 62
     7
100
AcDbLine
 10
322.5917193917887
 20
515.3317967697242
 30
0.0
 11
318.5917193917887
 21
522.2599999999999
 31
0.0
  0
LINE
  5
13B
330
4D
100
AcDbEntity
  8
0
  6
Continuous
 62
     7
100
AcDbLine
 10
322.5917193917887
 20
504.8373502691893
 30
0.0
 11
322.5917193917887
 21
515.3317967697242
 31
0.0
  0
LINE
  5
13C
330
4D
100
AcDbEntity
  8
1
  6
Continuous
 62
     7
100
AcDbLine
 10
317.960685582155
 20
504.8373502691893
 30
0.0
 11
317.960685582155
 21
515.3317967697242
 31
0.0
  0
LINE
  5
13D
330
4D
100
AcDbEntity
  8
1
  6
Continuous
 62
     7
100
AcDbLine
 10
316.1742950867444
 20
504.8373502691893
 30
0.0
 11
317.960685582155
 21
504.8373502691893
 31
0.0
  0
LINE
  5
13E
330
4D
100
AcDbEntity
  8
1
  6
Continuous
 62
     7
100
AcDbLine
 10
316.1742950867444
 20
515.3317967697242
 30
0.0
 11
316.1742950867444
 21
504.8373502691893
 31
0.0
  0
LINE
  5
13F
330
4D
100
AcDbEntity
  8
1
  6
Continuous
 62
     7
100
AcDbLine
 10
317.960685582155
 20
515.3317967697242
 30
0.0
 11
316.1742950867444
 21
515.3317967697242
 31
0.0
  0
ARC
  5
140
330
4D
100
AcDbEntity
  8
1
  6
Continuous
 62
     7
100
AcDbCircle
 10
730.4917193917868
 20
518.1624842987387
 30
0.0
 40
13.90356777613064
100
AcDbArc
 50
253.414880612809
 51
286.585119387191
  0
ARC
  5
141
330
4D
100
AcDbEntity
  8
1
  6
Continuous
 62
     7
100
AcDbCircle
 10
720.4917193917863
 20
518.1877264499938
 30
0.0
 40
13.92776163527333
100
AcDbArc
 50
253.4445208525354
 51
286.5554791474646
  0
ARC
  5
142
330
4D
100
AcDbEntity
  8
1
  6
Continuous
 62
     7
100
AcDbCircle
 10
730.491719391787
 20
511.6522309829385
 30
0.0
 40
5.411950145676182
100
AcDbArc
 50
42.83555318522092
 51
137.1644468147824
  0
ARC
  5
143
330
4D
100
AcDbEntity
  8
1
  6
Continuous
 62
     7
100
AcDbCircle
 10
720.4917193917863
 20
511.6522309829385
 30
0.0
 40
5.411950145676182
100
AcDbArc
 50
42.83555318522092
 51
137.1644468147791
  0
ARC
  5
144
330
4D
100
AcDbEntity
  8
1
  6
Continuous
 62
     7
100
AcDbCircle
 10
311.5917193917887
 20
522.7352086140681
 30
0.0
 40
18.47520861406853
100
AcDbArc
 50
255.6384884370828
 51
270.0
  0
ARC
  5
145
330
4D
100
AcDbEntity
  8
1
  6
Continuous
 62
     7
100
AcDbCircle
 10
311.5917193917887
 20
510.1356443470178
 30
0.0
 40
6.928203230275244
100
AcDbArc
 50
90.0
 51
131.4096221092742
  0
ARC
  5
146
330
4D
100
AcDbEntity
  8
1
  6
Continuous
 62
     7
100
AcDbCircle
 10
302.9072362966051
 20
509.1897428477695
 30
0.0
 40
4.930004025817079
100
AcDbArc
 50
241.9865705819875
 51
298.0134294180095
  0
ARC
  5
147
330
4D
100
AcDbEntity
  8
1
  6
Continuous
 62
     7
100
AcDbCircle
 10
302.9072362966051
 20
514.6525547089457
 30
0.0
 40
2.413086884805871
100
AcDbArc
 50
16.34871308827859
 51
163.6512869117233
  0
ARC
  5
148
330
4D
100
AcDbEntity
  8
1
  6
Continuous
 62
     7
100
AcDbCircle
 10
320.2762024869716
 20
514.6525547089457
 30
0.0
 40
2.413086884806307
100
AcDbArc
 50
16.34871308827555
 51
163.6512869117214
  0
ARC
  5
149
330
4D
100
AcDbEntity
  8
1
  6
Continuous
 62
     7
100
AcDbCircle
 10
320.2762024869716
 20
509.1897428477695
 30
0.0
 40
4.930004025816945
100
AcDbArc
 50
241.9865705819905
 51
298.0134294180142
  0
ARC
  5
14A
330
4D
100
AcDbEntity
  8
1
  6
Continuous
 62
     7
100
AcDbCircle
 10
311.5917193917887
 20
510.1356443470178
 30
0.0
 40
6.92820323027526
100
AcDbArc
 50
48.59037789072864
 51
90.0
  0
ARC
  5
14B
330
4D
100
AcDbEntity
  8
1
  6
Continuous
 62
     7
100
AcDbCircle
 10
311.5917193917887
 20
522.7352086140681
 30
0.0
 40
18.47520861406826
100
AcDbArc
 50
270.0
 51
284.3615115629159
  0
ENDBLK
  5
4F
330
4D
100
AcDbEntity
  8
0
100
AcDbBlockEnd
  0
BLOCK
  5
53
330
50
100
AcDbEntity
  8
0
100
AcDbBlockBegin
  2
T90-240
 70
     0
 10
298.5917193917883
 20
487.7785420656547
 30
0.0
  3
T90-240
  1

  0
INSERT
  5
51
330
50
100
AcDbEntity
  8
0
100
AcDbBlockReference
  2
35-18
 10
1191.034849246653
 20
676.370863202021
 30
0.0
 41
1.0
 42
1.0
 43
1.0
  0
INSERT
  5
52
330
50
100
AcDbEntity
  8
0
100
AcDbBlockReference
  2
32-116-C2
 10
1193.038176326962
 20
693.3275297504346
 30
0.0
 41
1.0
 42
1.0
 43
1.0
  0
ENDBLK
  5
54
330
50
100
AcDbEntity
  8
0
100
AcDbBlockEnd
  0
BLOCK
  5
56
330
55
100
AcDbEntity
  8
0
100
AcDbBlockBegin
  2
開示A4
 70
     0
 10
0.0
 20
0.0
 30
0.0
  3
開示A4
  1

  0
POINT
  5
14C
330
55
100
AcDbEntity
  8
1
 62
     4
100
AcDbPoint
 10
93.75
 20
17.0
 30
0.0
  0
POINT
  5
14D
330
55
100
AcDbEntity
  8
1
 62
     4
100
AcDbPoint
 10
85.25
 20
17.0
 30
0.0
  0
POINT
  5
14E
330
55
100
AcDbEntity
  8
1
 62
     4
100
AcDbPoint
 10
106.5
 20
19.00000000000001
 30
0.0
  0
POINT
  5
14F
330
55
100
AcDbEntity
  8
1
 62
     4
100
AcDbPoint
 10
106.5
 20
12.5
 30
0.0
  0
POINT
  5
150
330
55
100
AcDbEntity
  8
1
 62
     4
100
AcDbPoint
 10
112.25
 20
12.5
 30
0.0
  0
POINT
  5
151
330
55
100
AcDbEntity
  8
1
 62
     4
100
AcDbPoint
 10
100.75
 20
12.5
 30
0.0
  0
POINT
  5
152
330
55
100
AcDbEntity
  8
1
 62
     4
100
AcDbPoint
 10
123.5
 20
19.00000000000001
 30
0.0
  0
POINT
  5
153
330
55
100
AcDbEntity
  8
1
 62
     4
100
AcDbPoint
 10
123.5
 20
12.5
 30
0.0
  0
POINT
  5
154
330
55
100
AcDbEntity
  8
1
 62
     4
100
AcDbPoint
 10
129.25
 20
12.5
 30
0.0
  0
POINT
  5
155
330
55
100
AcDbEntity
  8
1
 62
     4
100
AcDbPoint
 10
117.75
 20
12.5
 30
0.0
  0
POINT
  5
156
330
55
100
AcDbEntity
  8
1
 62
     4
100
AcDbPoint
 10
140.5
 20
19.00000000000001
 30
0.0
  0
POINT
  5
157
330
55
100
AcDbEntity
  8
1
 62
     4
100
AcDbPoint
 10
140.5
 20
12.5
 30
0.0
  0
POINT
  5
158
330
55
100
AcDbEntity
  8
1
 62
     4
100
AcDbPoint
 10
146.25
 20
12.5
 30
0.0
  0
POINT
  5
159
330
55
100
AcDbEntity
  8
1
 62
     4
100
AcDbPoint
 10
134.75
 20
12.5
 30
0.0
  0
POINT
  5
15A
330
55
100
AcDbEntity
  8
1
 62
     4
100
AcDbPoint
 10
151.75
 20
12.5
 30
0.0
  0
POINT
  5
15B
330
55
100
AcDbEntity
  8
1
 62
     4
100
AcDbPoint
 10
163.25
 20
12.5
 30
0.0
  0
POINT
  5
15C
330
55
100
AcDbEntity
  8
1
 62
     4
100
AcDbPoint
 10
157.5
 20
12.5
 30
0.0
  0
POINT
  5
15D
330
55
100
AcDbEntity
  8
1
 62
     4
100
AcDbPoint
 10
57.0
 20
14.25
 30
0.0
  0
POINT
  5
15E
330
55
100
AcDbEntity
  8
1
 62
     4
100
AcDbPoint
 10
57.0
 20
22.75000000000001
 30
0.0
  0
POINT
  5
15F
330
55
100
AcDbEntity
  8
1
 62
     4
100
AcDbPoint
 10
47.5
 20
282.0000000000003
 30
0.0
  0
POINT
  5
160
330
55
100
AcDbEntity
  8
1
 62
     4
100
AcDbPoint
 10
157.5
 20
19.00000000000001
 30
0.0
  0
POINT
  5
161
330
55
100
AcDbEntity
  8
1
 62
     4
100
AcDbPoint
 10
57.0
 20
16.25
 30
0.0
  0
POINT
  5
162
330
55
100
AcDbEntity
  8
1
 62
     4
100
AcDbPoint
 10
57.0
 20
24.75000000000001
 30
0.0
  0
POINT
  5
163
330
55
100
AcDbEntity
  8
1
 62
     4
100
AcDbPoint
 10
57.0
 20
20.75000000000001
 30
0.0
  0
POINT
  5
164
330
55
100
AcDbEntity
  8
1
 62
     4
100
AcDbPoint
 10
57.0
 20
12.25
 30
0.0
  0
POINT
  5
165
330
55
100
AcDbEntity
  8
1
 62
     4
100
AcDbPoint
 10
34.0
 20
34.00000000000001
 30
0.0
  0
LINE
  5
166
330
55
100
AcDbEntity
  8
1
  6
Continuous
 62
     7
100
AcDbLine
 10
105.0
 20
9.99999999999999
 30
0.0
 11
200.0
 21
10.0
 31
0.0
  0
LINE
  5
167
330
55
100
AcDbEntity
  8
1
  6
Continuous
 62
     2
100
AcDbLine
 10
105.0
 20
9.99999999999999
 30
0.0
 11
105.0
 21
5.0
 31
0.0
  0
LINE
  5
168
330
55
100
AcDbEntity
  8
1
  6
Continuous
 62
     7
100
AcDbLine
 10
200.0
 20
148.5
 30
0.0
 11
200.0
 21
287.0000000000003
 31
0.0
  0
LINE
  5
169
330
55
100
AcDbEntity
  8
1
  6
Continuous
 62
     2
100
AcDbLine
 10
200.0
 20
148.5
 30
0.0
 11
205.0
 21
148.5
 31
0.0
  0
LINE
  5
16A
330
55
100
AcDbEntity
  8
1
  6
Continuous
 62
     7
100
AcDbLine
 10
25.0
 20
148.5
 30
0.0
 11
25.0
 21
287.0000000000003
 31
0.0
  0
LINE
  5
16B
330
55
100
AcDbEntity
  8
1
  6
Continuous
 62
     2
100
AcDbLine
 10
25.0
 20
148.5
 30
0.0
 11
20.0
 21
148.5
 31
0.0
  0
LINE
  5
16C
330
55
100
AcDbEntity
  8
1
  6
Continuous
 62
     7
100
AcDbLine
 10
105.0
 20
287.0000000000003
 30
0.0
 11
25.0
 21
287.0000000000003
 31
0.0
  0
LINE
  5
16D
330
55
100
AcDbEntity
  8
1
  6
Continuous
 62
     2
100
AcDbLine
 10
105.0
 20
287.0000000000003
 30
0.0
 11
105.0
 21
292.0000000000003
 31
0.0
  0
LINE
  5
16E
330
55
100
AcDbEntity
  8
1
  6
Continuous
 62
     2
100
AcDbLine
 10
166.0
 20
20.00000000000001
 30
0.0
 11
200.0
 21
20.00000000000001
 31
0.0
  0
LINE
  5
16F
330
55
100
AcDbEntity
  8
1
  6
Continuous
 62
     2
100
AcDbLine
 10
98.0
 20
27.00000000000001
 30
0.0
 11
98.0
 21
9.99999999999999
 31
0.0
  0
LINE
  5
170
330
55
100
AcDbEntity
  8
1
  6
Continuous
 62
     2
100
AcDbLine
 10
115.0
 20
27.00000000000001
 30
0.0
 11
115.0
 21
9.99999999999999
 31
0.0
  0
LINE
  5
171
330
55
100
AcDbEntity
  8
1
  6
Continuous
 62
     2
100
AcDbLine
 10
149.0
 20
27.00000000000001
 30
0.0
 11
149.0
 21
10.0
 31
0.0
  0
LINE
  5
172
330
55
100
AcDbEntity
  8
1
  6
Continuous
 62
     2
100
AcDbLine
 10
132.0
 20
27.00000000000001
 30
0.0
 11
132.0
 21
9.99999999999999
 31
0.0
  0
LINE
  5
173
330
55
100
AcDbEntity
  8
1
  6
Continuous
 62
     2
100
AcDbLine
 10
166.0
 20
27.00000000000001
 30
0.0
 11
166.0
 21
10.0
 31
0.0
  0
LINE
  5
174
330
55
100
AcDbEntity
  8
1
  6
Continuous
 62
     2
100
AcDbLine
 10
55.0
 20
277.0000000000003
 30
0.0
 11
25.0
 21
277.0000000000003
 31
0.0
  0
LINE
  5
175
330
55
100
AcDbEntity
  8
1
  6
Continuous
 62
     7
100
AcDbLine
 10
25.0
 20
10.0
 30
0.0
 11
25.0
 21
148.5
 31
0.0
  0
LINE
  5
176
330
55
100
AcDbEntity
  8
1
  6
Continuous
 62
     2
100
AcDbLine
 10
40.0
 20
287.0000000000003
 30
0.0
 11
40.0
 21
277.0000000000003
 31
0.0
  0
LINE
  5
177
330
55
100
AcDbEntity
  8
1
  6
Continuous
 62
     2
100
AcDbLine
 10
55.0
 20
287.0000000000003
 30
0.0
 11
55.0
 21
277.0000000000003
 31
0.0
  0
LINE
  5
178
330
55
100
AcDbEntity
  8
1
  6
Continuous
 62
     2
100
AcDbLine
 10
33.0
 20
41.00000000000001
 30
0.0
 11
33.0
 21
27.0
 31
0.0
  0
LINE
  5
179
330
55
100
AcDbEntity
  8
1
  6
Continuous
 62
     7
100
AcDbLine
 10
200.0
 20
27.00000000000001
 30
0.0
 11
25.0
 21
27.00000000000001
 31
0.0
  0
LINE
  5
17A
330
55
100
AcDbEntity
  8
1
  6
Continuous
 62
     7
100
AcDbLine
 10
25.0
 20
41.0
 30
0.0
 11
200.0
 21
41.0
 31
0.0
  0
LINE
  5
17B
330
55
100
AcDbEntity
  8
1
  6
PHANTOM
 62
     4
100
AcDbLine
 10
0.0
 20
0.0
 30
0.0
 11
210.0
 21
0.0
 31
0.0
  0
LINE
  5
17C
330
55
100
AcDbEntity
  8
1
  6
PHANTOM
 62
     4
100
AcDbLine
 10
210.0
 20
0.0
 30
0.0
 11
210.0
 21
297.0
 31
0.0
  0
LINE
  5
17D
330
55
100
AcDbEntity
  8
1
  6
PHANTOM
 62
     4
100
AcDbLine
 10
210.0
 20
297.0
 30
0.0
 11
0.0
 21
297.0
 31
0.0
  0
LINE
  5
17E
330
55
100
AcDbEntity
  8
1
  6
PHANTOM
 62
     4
100
AcDbLine
 10
0.0
 20
297.0
 30
0.0
 11
0.0
 21
0.0
 31
0.0
  0
LINE
  5
17F
330
55
100
AcDbEntity
  8
1
  6
Continuous
 62
     7
100
AcDbLine
 10
25.0
 20
10.0
 30
0.0
 11
105.0
 21
9.99999999999999
 31
0.0
  0
LINE
  5
180
330
55
100
AcDbEntity
  8
1
  6
Continuous
 62
     7
100
AcDbLine
 10
200.0
 20
10.0
 30
0.0
 11
200.0
 21
148.5
 31
0.0
  0
LINE
  5
181
330
55
100
AcDbEntity
  8
1
  6
Continuous
 62
     7
100
AcDbLine
 10
200.0
 20
287.0000000000003
 30
0.0
 11
105.0
 21
287.0000000000003
 31
0.0
  0
LINE
  5
182
330
55
100
AcDbEntity
  8
1
  6
Continuous
 62
     2
100
AcDbLine
 10
25.0
 20
18.50000000000001
 30
0.0
 11
81.0
 21
18.50000000000001
 31
0.0
  0
LINE
  5
183
330
55
100
AcDbEntity
  8
1
  6
Continuous
 62
     2
100
AcDbLine
 10
33.0
 20
27.0
 30
0.0
 11
33.0
 21
10.0
 31
0.0
  0
LINE
  5
184
330
55
100
AcDbEntity
  8
1
  6
Continuous
 62
     7
100
AcDbLine
 10
191.0
 20
24.70000000000001
 30
0.0
 11
191.0
 21
22.30000000000001
 31
0.0
  0
LINE
  5
185
330
55
100
AcDbEntity
  8
1
  6
Continuous
 62
     7
100
AcDbLine
 10
191.0
 20
24.70000000000001
 30
0.0
 11
196.0
 21
25.50000000000001
 31
0.0
  0
LINE
  5
186
330
55
100
AcDbEntity
  8
1
  6
Continuous
 62
     7
100
AcDbLine
 10
196.0
 20
25.50000000000001
 30
0.0
 11
196.0
 21
21.50000000000001
 31
0.0
  0
LINE
  5
187
330
55
100
AcDbEntity
  8
1
  6
Continuous
 62
     7
100
AcDbLine
 10
196.0
 20
21.50000000000001
 30
0.0
 11
191.0
 21
22.30000000000001
 31
0.0
  0
LINE
  5
188
330
55
100
AcDbEntity
  8
1
  6
DOT_CENTER
 62
     2
100
AcDbLine
 10
184.0
 20
23.50000000000001
 30
0.0
 11
197.0
 21
23.50000000000001
 31
0.0
  0
LINE
  5
189
330
55
100
AcDbEntity
  8
1
  6
DOT_CENTER
 62
     2
100
AcDbLine
 10
187.0
 20
26.50000000000001
 30
0.0
 11
187.0
 21
20.50000000000001
 31
0.0
  0
LINE
  5
18A
330
55
100
AcDbEntity
  8
1
  6
Continuous
 62
     2
100
AcDbLine
 10
81.0
 20
27.00000000000001
 30
0.0
 11
81.0
 21
10.0
 31
0.0
  0
CIRCLE
  5
18B
330
55
100
AcDbEntity
  8
1
  6
Continuous
 62
     7
100
AcDbCircle
 10
103.5
 20
12.5
 30
0.0
 40
0.2999999999999972
  0
CIRCLE
  5
18C
330
55
100
AcDbEntity
  8
1
  6
Continuous
 62
     7
100
AcDbCircle
 10
109.5
 20
12.5
 30
0.0
 40
0.2999999999999972
  0
CIRCLE
  5
18D
330
55
100
AcDbEntity
  8
1
  6
Continuous
 62
     7
100
AcDbCircle
 10
120.5
 20
12.5
 30
0.0
 40
0.2999999999999972
  0
CIRCLE
  5
18E
330
55
100
AcDbEntity
  8
1
  6
Continuous
 62
     7
100
AcDbCircle
 10
126.5
 20
12.5
 30
0.0
 40
0.2999999999999972
  0
CIRCLE
  5
18F
330
55
100
AcDbEntity
  8
1
  6
Continuous
 62
     7
100
AcDbCircle
 10
137.5
 20
12.5
 30
0.0
 40
0.3000000000000114
  0
CIRCLE
  5
190
330
55
100
AcDbEntity
  8
1
  6
Continuous
 62
     7
100
AcDbCircle
 10
143.5
 20
12.5
 30
0.0
 40
0.3000000000000114
  0
CIRCLE
  5
191
330
55
100
AcDbEntity
  8
1
  6
Continuous
 62
     7
100
AcDbCircle
 10
160.5
 20
12.5
 30
0.0
 40
0.3000000000000114
  0
CIRCLE
  5
192
330
55
100
AcDbEntity
  8
1
  6
Continuous
 62
     7
100
AcDbCircle
 10
154.5
 20
12.5
 30
0.0
 40
0.3000000000000114
  0
CIRCLE
  5
193
330
55
100
AcDbEntity
  8
1
  6
Continuous
 62
     7
100
AcDbCircle
 10
187.0
 20
23.50000000000001
 30
0.0
 40
1.200000000000102
  0
CIRCLE
  5
194
330
55
100
AcDbEntity
  8
1
  6
Continuous
 62
     7
100
AcDbCircle
 10
187.0
 20
23.50000000000001
 30
0.0
 40
2.0
  0
CIRCLE
  5
195
330
55
100
AcDbEntity
  8
1
  6
DOT_CENTER
 62
     7
100
AcDbCircle
 10
89.5
 20
16.0
 30
0.0
 40
0.1000000000000227
  0
CIRCLE
  5
196
330
55
100
AcDbEntity
  8
1
  6
DOT_CENTER
 62
     7
100
AcDbCircle
 10
89.5
 20
18.0
 30
0.0
 40
0.1000000000000227
  0
MTEXT
  5
198
330
55
100
AcDbEntity
  8
1
 62
     7
100
AcDbMText
 10
188.5
 20
15.0
 30
0.0
 40
3.0
 41
0.0
 71
     5
 72
     1
  1
三栄水栓製作所
  7
CONVERTER_11
 73
     1
 44
1.0
  0
MTEXT
  5
199
330
55
100
AcDbEntity
  8
1
 62
     7
100
AcDbMText
 10
171.5
 20
15.0
 30
0.0
 40
2.5
 41
0.0
 71
     5
 72
     1
  1
株式会社
  7
CONVERTER_11
 73
     1
 44
1.0
  0
MTEXT
  5
19A
330
55
100
AcDbEntity
  8
1
 62
     2
100
AcDbMText
 10
32.5
 20
282.0000000000003
 30
0.0
 40
5.0
 41
0.0
 71
     5
 72
     1
  1
図番
  7
CONVERTER_11
 73
     1
 44
0.45454545454545
  0
MTEXT
  5
19B
330
55
100
AcDbEntity
  8
1
 62
     2
100
AcDbMText
 10
29.0
 20
34.00000000000001
 30
0.0
 40
3.5
 41
0.0
 71
     5
 72
     1
  1
備考
  7
CONVERTER_11
 73
     1
 44
0.45454545454545
  0
MTEXT
  5
19C
330
55
100
AcDbEntity
  8
1
 62
     2
100
AcDbMText
 10
29.0
 20
22.75
 30
0.0
 40
3.5
 41
0.0
 71
     5
 72
     1
  1
品名
  7
CONVERTER_11
 73
     1
 44
0.72727272727273
  0
MTEXT
  5
19D
330
55
100
AcDbEntity
  8
1
 62
     2
100
AcDbMText
 10
29.0
 20
14.25
 30
0.0
 40
3.5
 41
0.0
 71
     5
 72
     1
  1
品番
  7
CONVERTER_11
 73
     1
 44
0.72727272727273
  0
MTEXT
  5
19E
330
55
100
AcDbEntity
  8
1
 62
     2
100
AcDbMText
 10
101.5
 20
25.00000000000001
 30
0.0
 40
3.0
 41
0.0
 71
     5
 72
     1
  1
承認
  7
CONVERTER_11
 73
     1
 44
0.59090909090909
  0
MTEXT
  5
19F
330
55
100
AcDbEntity
  8
1
 62
     2
100
AcDbMText
 10
175.0
 20
23.50000000000001
 30
0.0
 40
3.5
 41
0.0
 71
     5
 72
     1
  1
第三角法
  7
CONVERTER_11
 73
     1
 44
0.54545454545455
  0
MTEXT
  5
1A0
330
55
100
AcDbEntity
  8
1
 62
     2
100
AcDbMText
 10
118.5
 20
25.00000000000001
 30
0.0
 40
3.0
 41
0.0
 71
     5
 72
     1
  1
検図
  7
CONVERTER_11
 73
     1
 44
0.59090909090909
  0
MTEXT
  5
1A1
330
55
100
AcDbEntity
  8
1
 62
     2
100
AcDbMText
 10
152.5
 20
25.00000000000001
 30
0.0
 40
3.0
 41
0.0
 71
     5
 72
     1
  1
設計
  7
CONVERTER_11
 73
     1
 44
0.59090909090909
  0
MTEXT
  5
1A2
330
55
100
AcDbEntity
  8
1
 62
     2
100
AcDbMText
 10
135.5
 20
25.00000000000001
 30
0.0
 40
3.0
 41
0.0
 71
     5
 72
     1
  1
製図
  7
CONVERTER_11
 73
     1
 44
0.59090909090909
  0
MTEXT
  5
1A3
330
55
100
AcDbEntity
  8
1
 62
     2
100
AcDbMText
 10
89.5
 20
24.00000000000001
 30
0.0
 40
3.5
 41
0.0
 71
     5
 72
     1
  1
尺度
  7
CONVERTER_11
 73
     1
 44
0.54545454545455
  0
MTEXT
  5
1A4
330
55
100
AcDbEntity
  8
1
 62
   250
100
AcDbMText
 10
25.0
 20
5.0
 30
0.0
 40
3.5
 41
0.0
 71
     4
 72
     1
  1
備考欄の文字列 原点位置=4
  7
CONVERTER_11
 73
     1
 44
0.54545454545455
  0
ENDBLK
  5
57
330
55
100
AcDbEntity
  8
0
100
AcDbBlockEnd
  0
BLOCK
  5
59
330
58
100
AcDbEntity
  8
0
100
AcDbBlockBegin
  2
30-360-M1
 70
     0
 10
532.3308601234934
 20
1502.534948494536
 30
0.0
  3
30-360-M1
  1

  0
LINE
  5
1A5
330
58
100
AcDbEntity
  8
0
  6
Continuous
 62
     7
100
AcDbLine
 10
329.0917194663387
 20
893.2
 30
0.0
 11
329.0917194663387
 21
1019.004478346888
 31
0.0
  0
LINE
  5
1A6
330
58
100
AcDbEntity
  8
0
  6
Continuous
 62
     7
100
AcDbLine
 10
294.0917193173386
 20
893.2
 30
0.0
 11
294.0917193173386
 21
892.9000000000003
 31
0.0
  0
LINE
  5
1A7
330
58
100
AcDbEntity
  8
1
  6
Continuous
 62
     7
100
AcDbLine
 10
294.0917193173386
 20
893.2
 30
0.0
 11
329.0917194663387
 21
893.2
 31
0.0
  0
LINE
  5
1A8
330
58
100
AcDbEntity
  8
0
  6
Continuous
 62
     7
100
AcDbLine
 10
324.1382885007388
 20
984.8446647168004
 30
0.0
 11
324.6921553491386
 21
1010.513887324752
 31
0.0
  0
LINE
  5
208
330
58
100
AcDbEntity
  8
0
  6
Continuous
 62
     7
100
AcDbLine
 10
299.6968050702387
 20
1010.983326056452
 30
0.0
 11
299.1430583624388
 21
985.3339182675004
 31
0.0
  0
LINE
  5
209
330
58
100
AcDbEntity
  8
0
  6
Continuous
 62
     7
100
AcDbLine
 10
329.0917194663387
 20
892.9000000000003
 30
0.0
 11
329.0917194663387
 21
893.2
 31
0.0
  0
LINE
  5
20A
330
58
100
AcDbEntity
  8
0
  6
Continuous
 62
     7
100
AcDbLine
 10
294.0917193173386
 20
1019.004478346887
 30
0.0
 11
294.0917193173386
 21
893.2
 31
0.0
  0
LINE
  5
20B
330
58
100
AcDbEntity
  8
0
  6
Continuous
 62
     7
100
AcDbLine
 10
714.0913514628681
 20
893.2000040532001
 30
0.0
 11
749.0913516118682
 21
893.2000040532001
 31
0.0
  0
LINE
  5
20C
330
58
100
AcDbEntity
  8
0
  6
Continuous
 62
     7
100
AcDbLine
 10
714.0913514628681
 20
973.7530588627001
 30
0.0
 11
714.0913514628681
 21
893.2000040532001
 31
0.0
  0
LINE
  5
20D
330
58
100
AcDbEntity
  8
0
  6
Continuous
 62
     7
100
AcDbLine
 10
749.0913516118682
 20
893.2000040532001
 30
0.0
 11
749.0913516118682
 21
1019.0024796775
 31
0.0
  0
LINE
  5
20E
330
58
100
AcDbEntity
  8
0
  6
Continuous
 62
     7
100
AcDbLine
 10
714.5913506134681
 20
1019.5024796867
 30
0.0
 11
748.5913524611682
 21
1019.5024796867
 31
0.0
  0
LINE
  5
20F
330
58
100
AcDbEntity
  8
0
  6
Continuous
 62
     7
100
AcDbLine
 10
714.0913514628681
 20
1019.0024796775
 30
0.0
 11
714.0913514628681
 21
999.2722603947001
 31
0.0
  0
LINE
  5
210
330
58
100
AcDbEntity
  8
0
  6
Continuous
 62
     7
100
AcDbLine
 10
714.1029184891682
 20
999.2793105066002
 30
0.0
 11
602.7636737964252
 21
1022.945282569217
 31
0.0
  0
LINE
  5
211
330
58
100
AcDbEntity
  8
0
  6
Continuous
 62
     7
100
AcDbLine
 10
623.356706037325
 20
993.0097642895175
 30
0.0
 11
714.1080146863682
 21
973.7197026134002
 31
0.0
  0
LINE
  5
212
330
58
100
AcDbEntity
  8
0
  6
Continuous
 62
     8
100
AcDbLine
 10
596.7807681701253
 20
999.5683231931175
 30
0.0
 11
596.7777283333252
 21
999.5645047706175
 31
0.0
  0
LINE
  5
213
330
58
100
AcDbEntity
  8
0
  6
Continuous
 62
     7
100
AcDbLine
 10
601.6055704496251
 20
1022.281241657218
 30
0.0
 11
601.6083569668252
 21
1022.287265451618
 31
0.0
  0
LINE
  5
214
330
58
100
AcDbEntity
  8
0
  6
Continuous
 62
     7
100
AcDbLine
 10
596.7777283333252
 20
999.5645047706175
 30
0.0
 11
596.7779965542253
 21
999.5695171487175
 31
0.0
  0
LINE
  5
215
330
58
100
AcDbEntity
  8
0
  6
Continuous
 62
     7
100
AcDbLine
 10
597.5658954523252
 20
998.4918381628175
 30
0.0
 11
603.3233614109253
 21
997.2680355962175
 31
0.0
  0
LINE
  5
216
330
58
100
AcDbEntity
  8
1
  6
Continuous
 62
     7
100
AcDbLine
 10
328.5917193918388
 20
1019.504478341787
 30
0.0
 11
320.8800031585372
 21
1019.504478341788
 31
0.0
  0
LINE
  5
217
330
58
100
AcDbEntity
  8
1
  6
Continuous
 62
     7
100
AcDbLine
 10
294.5917193918388
 20
1019.504478341787
 30
0.0
 11
303.4940960214228
 21
1019.504478341788
 31
0.0
  0
ARC
  5
218
330
58
100
AcDbEntity
  8
0
  6
Continuous
 62
     7
100
AcDbCircle
 10
294.5917193918388
 20
1019.004478341787
 30
0.0
 40
0.5
100
AcDbArc
 50
90.0
 51
180.0
  0
ARC
  5
219
330
58
100
AcDbEntity
  8
0
  6
Continuous
 62
     7
100
AcDbCircle
 10
328.5917193918388
 20
1019.004478341787
 30
0.0
 40
0.5
100
AcDbArc
 50
0.0
 51
90.0
  0
ARC
  5
21A
330
58
100
AcDbEntity
  8
0
  6
Continuous
 62
     7
100
AcDbCircle
 10
748.5913515373683
 20
1019.0024796725
 30
0.0
 40
0.5
100
AcDbArc
 50
0.0
 51
90.0
  0
ARC
  5
21B
330
58
100
AcDbEntity
  8
0
  6
Continuous
 62
     7
100
AcDbCircle
 10
714.5913515373683
 20
1019.0024796725
 30
0.0
 40
0.5
100
AcDbArc
 50
90.0
 51
180.0
  0
ARC
  5
21C
330
58
100
AcDbEntity
  8
0
  6
Continuous
 62
     7
100
AcDbCircle
 10
696.3450900648254
 20
990.2746418837175
 30
0.0
 40
100.0000000000002
100
AcDbArc
 50
161.3330839216996
 51
174.6667303835001
  0
SPLINE
  5
21D
330
58
100
AcDbEntity
  8
0
  6
Continuous
 62
     7
100
AcDbSpline
210
0.0
220
0.0
230
1.0
 70
     8
 71
     3
 72
    41
 73
    37
 74
    35
 42
0.000000001
 43
0.0000000001
 44
0.00000001
 40
0.0
 40
0.0
 40
0.0
 40
0.0
 40
0.1596628737075066
 40
0.3192065992066274
 40
1.11277562399071
 40
1.903526313493204
 40
2.710870172258112
 40
3.50632881495875
 40
4.22704342866645
 40
4.939329092144964
 40
5.657595582694781
 40
6.369133116327882
 40
7.206671996479617
 40
8.040974330011613
 40
8.89181444390735
 40
9.745507080716202
 40
10.75250319208152
 40
11.77038615214734
 40
12.8322606214598
 40
13.9089038554002
 40
14.94631141826691
 40
15.99572845305654
 40
17.09372280496342
 40
18.19852278754649
 40
19.15414470110388
 40
20.10892266275995
 40
21.08941730380305
 40
22.06359208346413
 40
22.9778489873772
 40
23.88263899688893
 40
24.79938602732879
 40
25.70637818928363
 40
26.71441823043284
 40
27.70949586534673
 40
28.72220462248614
 40
29.73330143174704
 40
29.73330143174704
 40
29.73330143174704
 40
29.73330143174704
 10
324.1223777859098
 20
984.8443629682404
 30
0.0
 10
324.1238753864678
 20
984.7911629457362
 30
0.0
 10
324.1268694569258
 20
984.6848026008339
 30
0.0
 10
324.1321763480528
 20
984.3138906255532
 30
0.0
 10
324.0921186471131
 20
983.7323772128723
 30
0.0
 10
323.9643955023197
 20
982.9450472873746
 30
0.0
 10
323.7991615543731
 20
982.1641453970967
 30
0.0
 10
323.5915950479249
 20
981.4172580228719
 30
0.0
 10
323.3399761968286
 20
980.7176952698036
 30
0.0
 10
323.0520056234628
 20
980.0604153142613
 30
0.0
 10
322.7232590441177
 20
979.4259794045013
 30
0.0
 10
322.3315658008619
 20
978.778988270203
 30
0.0
 10
321.8714321128344
 20
978.1303200447288
 30
0.0
 10
321.3328387697662
 20
977.4834992605588
 30
0.0
 10
320.7427381381729
 20
976.8757336608135
 30
0.0
 10
320.0652749169727
 20
976.276188833133
 30
0.0
 10
319.2970926435718
 20
975.6992193271171
 30
0.0
 10
318.4241561843947
 20
975.1523330520833
 30
0.0
 10
317.4878760706476
 20
974.6696585143198
 30
0.0
 10
316.5088565804879
 20
974.2637213886188
 30
0.0
 10
315.5048092800087
 20
973.9381383863189
 30
0.0
 10
314.471988566303
 20
973.6882296988783
 30
0.0
 10
313.4007505429771
 20
973.5149499190466
 30
0.0
 10
312.3505221435233
 20
973.4273453428002
 30
0.0
 10
311.3447946519281
 20
973.4161267700872
 30
0.0
 10
310.3819192020632
 20
973.469381363142
 30
0.0
 10
309.4186874761193
 20
973.5886134927537
 30
0.0
 10
308.4791761573708
 20
973.7711153399066
 30
0.0
 10
307.5786030089826
 20
974.0101138218217
 30
0.0
 10
306.7141279225203
 20
974.302665871842
 30
0.0
 10
305.8743225548877
 20
974.6538214183602
 30
0.0
 10
305.0297737857626
 20
975.0768881225882
 30
0.0
 10
304.1940324272587
 20
975.5712674450203
 30
0.0
 10
303.3768626049896
 20
976.160044601583
 30
0.0
 10
302.6289563721253
 20
976.835388199614
 30
0.0
 10
302.1545857657559
 20
977.3150219761714
 30
0.0
 10
301.9175893841868
 20
977.5546478569853
 30
0.0
 11
324.1223777859098
 21
984.8443629682404
 31
0.0
 11
324.1265023698214
 21
984.684753374167
 31
0.0
 11
324.1284118248712
 21
984.5252210736617
 31
0.0
 11
324.0799571558989
 21
983.7331327274511
 31
0.0
 11
323.9591662986765
 21
982.9516621768814
 31
0.0
 11
323.7900857833924
 21
982.1622219409666
 31
0.0
 11
323.5750776930341
 21
981.3963721037254
 31
0.0
 11
323.3314308183764
 21
980.7180906321445
 31
0.0
 11
323.0458517773636
 21
980.0655605733738
 31
0.0
 11
322.7152681351993
 21
979.4278920020162
 31
0.0
 11
322.3466967447284
 21
978.8192535281524
 31
0.0
 11
321.8622306534265
 21
978.1360522531361
 31
0.0
 11
321.3285506917718
 21
977.4947675407273
 31
0.0
 11
320.7360045190755
 21
976.8841793548012
 31
0.0
 11
320.0969119771011
 21
976.3181830287322
 31
0.0
 11
319.292016061828
 21
975.7130518576836
 31
0.0
 11
318.4297081297824
 21
975.1722092271193
 31
0.0
 11
317.4861227980686
 21
974.6851526485904
 31
0.0
 11
316.4917580998132
 21
974.2723579049451
 31
0.0
 11
315.5050589908645
 21
973.9519841854001
 31
0.0
 11
314.4851302477158
 21
973.7049589395863
 31
0.0
 11
313.4012792688559
 21
973.5292926289042
 31
0.0
 11
312.3003046475908
 21
973.4374346673827
 31
0.0
 11
311.3447429374822
 21
973.426708063588
 31
0.0
 11
310.3914274816028
 21
973.4795341730456
 31
0.0
 11
309.4183618004351
 21
973.600003760432
 31
0.0
 11
308.462099519614
 21
973.785957926546
 31
0.0
 11
307.5785039393418
 21
974.0207440786124
 31
0.0
 11
306.7215915052777
 21
974.3111679792743
 31
0.0
 11
305.8757197284681
 21
974.6646167811979
 31
0.0
 11
305.0646587489729
 21
975.070590758358
 31
0.0
 11
304.1985404560267
 21
975.5863269588116
 31
0.0
 11
303.3930902584081
 21
976.170646631752
 31
0.0
 11
302.6353208852902
 21
976.8424833718451
 31
0.0
 11
301.9175893841868
 21
977.5546478569853
 31
0.0
  0
SPLINE
  5
21E
330
58
100
AcDbEntity
  8
0
  6
Continuous
 62
     7
100
AcDbSpline
210
0.0
220
0.0
230
1.0
 70
     8
 71
     3
 72
    21
 73
    17
 74
    15
 42
0.000000001
 43
0.0000000001
 44
0.00000001
 40
0.0
 40
0.0
 40
0.0
 40
0.0
 40
0.1623071236233337
 40
0.3245817870854194
 40
1.01983422052061
 40
1.717629476926553
 40
2.415411723555136
 40
3.112778942294496
 40
3.811206508957035
 40
4.510385615046607
 40
5.209859741578499
 40
5.909676576242434
 40
6.61003798264685
 40
7.310173407014841
 40
7.682051818634392
 40
8.054019825227018
 40
8.054019825227018
 40
8.054019825227018
 40
8.054019825227018
 10
319.7021681098827
 20
1020.518912517887
 30
0.0
 10
319.6599258407244
 20
1020.552715854317
 30
0.0
 10
319.5754497416759
 20
1020.620315755675
 30
0.0
 10
319.3070625150715
 20
1020.828997311024
 30
0.0
 10
318.8744860130246
 20
1021.116673875861
 30
0.0
 10
318.2654664452071
 20
1021.45602735881
 30
0.0
 10
317.643290080987
 20
1021.772046737609
 30
0.0
 10
317.0059719356745
 20
1022.057263230332
 30
0.0
 10
316.3523418570969
 20
1022.304241609465
 30
0.0
 10
315.6851167979721
 20
1022.513875125455
 30
0.0
 10
315.0070002776229
 20
1022.686859691305
 30
0.0
 10
314.3202227714992
 20
1022.823343978272
 30
0.0
 10
313.6270006975142
 20
1022.923618806895
 30
0.0
 10
313.0379030620563
 20
1022.97377512313
 30
0.0
 10
312.5568162696036
 20
1022.990589544748
 30
0.0
 10
312.3089051227441
 20
1022.994952310746
 30
0.0
 10
312.1849346189385
 20
1022.997133949261
 30
0.0
 11
319.7021681098827
 21
1020.518912517887
 31
0.0
 11
319.5752054318876
 21
1020.620026716121
 31
0.0
 11
319.4468655838256
 21
1020.719334067267
 31
0.0
 11
318.8706286720185
 21
1021.108341743407
 31
0.0
 11
318.2633720553104
 21
1021.452082370829
 31
0.0
 11
317.640673927407
 21
1021.766958705397
 31
0.0
 11
317.0036525680309
 21
1022.050727674228
 31
0.0
 11
316.3504230632262
 21
1022.297896204551
 31
0.0
 11
315.6834702222234
 21
1022.507718348366
 31
0.0
 11
315.005732339351
 21
1022.68073688873
 31
0.0
 11
314.3193636769987
 21
1022.817271345716
 31
0.0
 11
313.6261131937378
 21
1022.916819641987
 31
0.0
 11
312.9284369042701
 21
1022.975449034434
 31
0.0
 11
312.5568245678023
 21
1022.989514035118
 31
0.0
 11
312.1849346189385
 21
1022.997133949261
 31
0.0
  0
SPLINE
  5
21F
330
58
100
AcDbEntity
  8
0
  6
Continuous
 62
     7
100
AcDbSpline
210
0.0
220
0.0
230
1.0
 70
     8
 71
     3
 72
    19
 73
    15
 74
    13
 42
0.000000001
 43
0.0000000001
 44
0.00000001
 40
0.0
 40
0.0
 40
0.0
 40
0.0
 40
0.3825241400938318
 40
0.7649205982301235
 40
1.464784712728889
 40
2.164930449972745
 40
2.864984231873892
 40
3.564298060995519
 40
4.263025762298497
 40
4.961889546681156
 40
5.660562127876224
 40
6.357497632704789
 40
6.793448043293724
 40
7.22958862220101
 40
7.22958862220101
 40
7.22958862220101
 40
7.22958862220101
 10
312.1849346189385
 20
1022.997133949261
 30
0.0
 10
312.057446919422
 20
1022.994836915879
 30
0.0
 10
311.8025140745551
 20
1022.990243601306
 30
0.0
 10
311.3145093722583
 20
1022.972683313366
 30
0.0
 10
310.7221702026834
 20
1022.921129851533
 30
0.0
 10
310.0292106982055
 20
1022.819700433321
 30
0.0
 10
309.3425897448207
 20
1022.682692763337
 30
0.0
 10
308.664896342728
 20
1022.508388693297
 30
0.0
 10
307.998870800955
 20
1022.295106413
 30
0.0
 10
307.3452322446627
 20
1022.047360636644
 30
0.0
 10
306.704325111046
 20
1021.769728767508
 30
0.0
 10
306.1609442002422
 20
1021.489783735108
 30
0.0
 10
305.7142363248953
 20
1021.217445247901
 30
0.0
 10
305.4703027278939
 20
1021.059328535772
 30
0.0
 10
305.3483093372172
 20
1020.98025293411
 30
0.0
 11
312.1849346189385
 21
1022.997133949261
 31
0.0
 11
311.802494890988
 21
1022.989098265584
 31
0.0
 11
311.4203887216838
 21
1022.974201062184
 31
0.0
 11
310.7230876605808
 21
1022.914359527895
 31
0.0
 11
310.030207036119
 21
1022.813758862626
 31
0.0
 11
309.3437605200527
 21
1022.676403562276
 31
0.0
 11
308.6665893188305
 21
1022.501821213823
 31
0.0
 11
308.0009442978335
 21
1022.289366260277
 31
0.0
 11
307.3472037194854
 21
1022.042315968734
 31
0.0
 11
306.7070543392572
 21
1021.762401431296
 31
0.0
 11
306.0886493167466
 21
1021.441007082772
 31
0.0
 11
305.7153785021534
 21
1021.215792385698
 31
0.0
 11
305.3483093372172
 21
1020.98025293411
 31
0.0
  0
SPLINE
  5
220
330
58
100
AcDbEntity
  8
0
  6
Continuous
 62
     7
100
AcDbSpline
210
0.0
220
0.0
230
1.0
 70
     8
 71
     3
 72
    45
 73
    41
 74
    39
 42
0.000000001
 43
0.0000000001
 44
0.00000001
 40
0.0
 40
0.0
 40
0.0
 40
0.0
 40
0.1357204665149374
 40
0.2643647551727489
 40
0.4918544541626113
 40
0.669123174549498
 40
0.8054851264684514
 40
0.9023657349959331
 40
0.9706510808618595
 40
1.040680372459491
 40
1.164953498711061
 40
1.340614943308202
 40
1.56484951304099
 40
1.832370564365798
 40
2.315219215789154
 40
2.875675019081446
 40
3.504045616643333
 40
4.193863228969489
 40
4.958861924133797
 40
5.781123061472623
 40
6.656597197012722
 40
7.58293754409855
 40
8.23824757555054
 40
8.912941826124516
 40
9.603847986813413
 40
10.30814580248544
 40
11.02557519615517
 40
11.7484580021354
 40
12.47195101741072
 40
13.19117361861566
 40
13.85134086839568
 40
14.50094730531174
 40
15.13757312324057
 40
15.75826078430624
 40
16.40468621859915
 40
17.0293539210262
 40
17.6314817024642
 40
18.2073760737171
 40
18.40637442103287
 40
18.60347756446473
 40
18.60347756446473
 40
18.60347756446473
 40
18.60347756446473
 10
321.5877965360272
 20
999.6265597207957
 30
0.0
 10
321.606793102357
 20
999.667618512422
 30
0.0
 10
321.6437957901164
 20
999.7475953790828
 30
0.0
 10
321.7102007459085
 20
999.8975121065862
 30
0.0
 10
321.7725898077243
 20
1000.06425925304
 30
0.0
 10
321.8186597253348
 20
1000.239131697879
 30
0.0
 10
321.8379309133866
 20
1000.374658339887
 30
0.0
 10
321.8358986369173
 20
1000.476594197387
 30
0.0
 10
321.7908930712496
 20
1000.549465906321
 30
0.0
 10
321.6972884235672
 20
1000.563792613909
 30
0.0
 10
321.579438344618
 20
1000.523892392923
 30
0.0
 10
321.4229168988792
 20
1000.446068789391
 30
0.0
 10
321.2321369519475
 20
1000.331279938478
 30
0.0
 10
320.9583073204067
 20
1000.156557833847
 30
0.0
 10
320.5913560187319
 20
999.9193118326248
 30
0.0
 10
320.1187010599662
 20
999.6241156889935
 30
0.0
 10
319.5778444188385
 20
999.3082309979978
 30
0.0
 10
318.9643720776996
 20
998.9823953916944
 30
0.0
 10
318.2769119155061
 20
998.6598622838069
 30
0.0
 10
317.5165918143726
 20
998.3493777633498
 30
0.0
 10
316.6902347680841
 20
998.0613689098818
 30
0.0
 10
315.9024200403366
 20
997.8355521290041
 30
0.0
 10
315.1697527991552
 20
997.6647821019319
 30
0.0
 10
314.5079465693047
 20
997.5381318284424
 30
0.0
 10
313.8254971870096
 20
997.435328594178
 30
0.0
 10
313.1252117449031
 20
997.3590866641069
 30
0.0
 10
312.4116446023488
 20
997.3124713639683
 30
0.0
 10
311.6903792257326
 20
997.2953483665369
 30
0.0
 10
310.9684174927079
 20
997.3075801017915
 30
0.0
 10
310.2684354202423
 20
997.3484851488781
 30
0.0
 10
309.5953108727414
 20
997.4160477698508
 30
0.0
 10
308.9525612886496
 20
997.5055509665734
 30
0.0
 10
308.3265239408767
 20
997.616449848287
 30
0.0
 10
307.7060708662387
 20
997.7503124929362
 30
0.0
 10
307.0952018943238
 20
997.9074833645344
 30
0.0
 10
306.4967999436555
 20
998.0863054628703
 30
0.0
 10
305.9275195961018
 20
998.2790434708071
 30
0.0
 10
305.4985010253022
 20
998.4426189616491
 30
0.0
 10
305.1991434815268
 20
998.5665693631959
 30
0.0
 10
305.0775434014239
 20
998.6180125904667
 30
0.0
 10
305.0170342705529
 20
998.6436111419017
 30
0.0
 11
321.5877965360272
 21
999.6265597207957
 31
0.0
 11
321.644440714654
 21
999.7498945684877
 31
0.0
 11
321.6960171505193
 21
999.8677471219113
 31
0.0
 11
321.7743946331112
 21
1000.081308666922
 31
0.0
 11
321.8183156370503
 21
1000.253050172191
 31
0.0
 11
321.8355045166271
 21
1000.388324428137
 31
0.0
 11
321.8252148746831
 21
1000.484657057982
 31
0.0
 11
321.7856603602984
 21
1000.540319693125
 31
0.0
 11
321.7175819247349
 21
1000.556733974676
 31
0.0
 11
321.5968343438444
 21
1000.527342948495
 31
0.0
 11
321.4384058758001
 21
1000.451465652745
 31
0.0
 11
321.2450096065591
 21
1000.337979859022
 31
0.0
 11
321.0189046605804
 21
1000.194997110826
 31
0.0
 11
320.612454637448
 21
999.9343417852343
 31
0.0
 11
320.1365417137127
 21
999.6383390887196
 31
0.0
 11
319.5935608586659
 21
999.3220774900032
 31
0.0
 11
318.9840859069808
 21
998.9989852099234
 31
0.0
 11
318.2916831423488
 21
998.673713915391
 31
0.0
 11
317.5305577262622
 21
998.3625845550115
 31
0.0
 11
316.7038238431038
 21
998.074546279133
 31
0.0
 11
315.8133022754772
 21
997.8194428174307
 31
0.0
 11
315.1751543620323
 21
997.670451281214
 31
0.0
 11
314.512514722286
 21
997.5434826253465
 31
0.0
 11
313.8293057440019
 21
997.4406389826223
 31
0.0
 11
313.1291281699521
 21
997.3645681081828
 31
0.0
 11
312.4132424913208
 21
997.3175295068659
 31
0.0
 11
311.6905661683846
 21
997.3002528338247
 31
0.0
 11
310.967178731744
 21
997.3126124310146
 31
0.0
 11
310.2491960546319
 21
997.3548264740521
 31
0.0
 11
309.59231558464
 21
997.4206204388801
 31
0.0
 11
308.9489070500564
 21
997.5101412771753
 31
0.0
 11
308.3220601971302
 21
997.6212963715573
 31
0.0
 11
307.7153730939458
 21
997.7523838667685
 31
0.0
 11
307.0893123213568
 21
997.9133613530505
 31
0.0
 11
306.4907623722535
 21
998.0921005396657
 31
0.0
 11
305.9205399209469
 21
998.2855022487896
 31
0.0
 11
305.3826063207667
 21
998.4911275594048
 31
0.0
 11
305.1986587713159
 21
998.5670462082459
 31
0.0
 11
305.0170342705529
 21
998.6436111419017
 31
0.0
  0
SPLINE
  5
221
330
58
100
AcDbEntity
  8
0
  6
Continuous
 62
     7
100
AcDbSpline
210
0.0
220
0.0
230
1.0
 70
     8
 71
     3
 72
    25
 73
    21
 74
    19
 42
0.000000001
 43
0.0000000001
 44
0.00000001
 40
0.0
 40
0.0
 40
0.0
 40
0.0
 40
0.7634551701043922
 40
1.487530931595509
 40
2.141066041629208
 40
2.719891168373117
 40
3.081147196763504
 40
3.399494358261034
 40
3.667558603280887
 40
3.878364454183212
 40
3.992144616579725
 40
4.076493542562231
 40
4.143202462818822
 40
4.219998459027873
 40
4.332494646096742
 40
4.482560941532631
 40
4.668018673821003
 40
4.905311108798292
 40
5.011316909386625
 40
5.122653975272942
 40
5.122653975272942
 40
5.122653975272942
 40
5.122653975272942
 10
305.0170342705529
 20
998.6436111419017
 30
0.0
 10
304.7867496798324
 20
998.7519102790897
 30
0.0
 10
304.338058697297
 20
998.9629224322919
 30
0.0
 10
303.6988233713995
 20
999.2807968132079
 30
0.0
 10
303.1313256542938
 20
999.6027148319163
 30
0.0
 10
302.6800876551694
 20
999.8831252484828
 30
0.0
 10
302.3264761200874
 20
1000.108721877526
 30
0.0
 10
302.0595404788626
 20
1000.277775676464
 30
0.0
 10
301.8320240613662
 20
1000.414778658072
 30
0.0
 10
301.6564098236921
 20
1000.506843470755
 30
0.0
 10
301.527426647196
 20
1000.551257568458
 30
0.0
 10
301.4376186049454
 20
1000.561705778749
 30
0.0
 10
301.3635948821232
 20
1000.525835313239
 30
0.0
 10
301.3343218651026
 20
1000.439298296048
 30
0.0
 10
301.3397819583137
 20
1000.3263874298
 30
0.0
 10
301.3649917304558
 20
1000.178773057672
 30
0.0
 10
301.4128231991849
 20
999.993702568009
 30
0.0
 10
301.4765927218297
 20
999.8288963653977
 30
0.0
 10
301.5402504738803
 20
999.6913810473168
 30
0.0
 10
301.5717052379376
 20
999.6261152765771
 30
0.0
 10
301.5878184034806
 20
999.5926819308218
 30
0.0
 11
305.0170342705529
 21
998.6436111419017
 31
0.0
 11
304.3273855336992
 21
998.9710991597813
 31
0.0
 11
303.6809947609287
 21
999.2973884134104
 31
0.0
 11
303.1120508571822
 21
999.6189641810058
 31
0.0
 11
302.6192516356091
 21
999.9225880517176
 31
0.0
 11
302.314288021087
 21
1000.116245255439
 31
0.0
 11
302.0447355031353
 21
1000.285615728658
 31
0.0
 11
301.8140427630048
 21
1000.422141557898
 31
0.0
 11
301.6250452294332
 21
1000.515517362815
 31
0.0
 11
301.5165955401581
 21
1000.549935246225
 31
0.0
 11
301.4323070912939
 21
1000.55312882499
 31
0.0
 11
301.3734003199329
 21
1000.521822715738
 31
0.0
 11
301.3424679904562
 21
1000.451531776648
 31
0.0
 11
301.3411141201689
 21
1000.339043736415
 31
0.0
 11
301.3648281141501
 21
1000.190862969917
 31
0.0
 11
301.4115133564237
 21
1000.011377430958
 31
0.0
 11
301.4956109493357
 21
999.7894871546439
 31
0.0
 11
301.53974723696
 21
999.6931065658094
 31
0.0
 11
301.5878184034806
 21
999.5926819308218
 31
0.0
  0
SPLINE
  5
222
330
58
100
AcDbEntity
  8
0
  6
Continuous
 62
     7
100
AcDbSpline
210
0.0
220
0.0
230
1.0
 70
     8
 71
     3
 72
    17
 73
    13
 74
    11
 42
0.000000001
 43
0.0000000001
 44
0.00000001
 40
0.0
 40
0.0
 40
0.0
 40
0.0
 40
0.8378680591888416
 40
1.677484415489776
 40
2.544086701897245
 40
3.422172934960765
 40
4.293838706251431
 40
5.178931105963267
 40
6.113457730798785
 40
7.057470468886479
 40
7.755757098890692
 40
8.456558469648593
 40
8.456558469648593
 40
8.456558469648593
 40
8.456558469648593
 10
301.9175893841868
 20
977.5546478569853
 30
0.0
 10
301.7411731851491
 20
977.7711635529074
 30
0.0
 10
301.3879726880925
 20
978.2046467359537
 30
0.0
 10
300.8851614033545
 20
978.8886498788104
 30
0.0
 10
300.4456989751343
 20
979.631260796129
 30
0.0
 10
300.0694569225134
 20
980.4190879080637
 30
0.0
 10
299.7531514037181
 20
981.2393410126738
 30
0.0
 10
299.4946311680968
 20
982.0992531099635
 30
0.0
 10
299.297176539532
 20
983.0000437952631
 30
0.0
 10
299.1873844788601
 20
983.8534084003982
 30
0.0
 10
299.155421803987
 20
984.6342270210114
 30
0.0
 10
299.1533895395577
 20
985.1005847696829
 30
0.0
 10
299.1523715882188
 20
985.3341827631343
 30
0.0
 11
301.9175893841868
 21
977.5546478569853
 31
0.0
 11
301.3937454576882
 21
978.2085671384503
 31
0.0
 11
300.9018936409241
 21
978.8890356660233
 31
0.0
 11
300.4589496402098
 21
979.6338847354248
 31
0.0
 11
300.0790021597035
 21
980.4255130231726
 31
0.0
 11
299.7651384394047
 21
981.2387108976915
 31
0.0
 11
299.5099752424842
 21
982.0862250864848
 31
0.0
 11
299.3112621310231
 21
982.9993806664547
 31
0.0
 11
299.1926326631194
 21
983.9359099507675
 31
0.0
 11
299.159704025309
 21
984.6334197521664
 31
0.0
 11
299.1523715882188
 21
985.3341827631343
 31
0.0
  0
SPLINE
  5
223
330
58
100
AcDbEntity
  8
0
  6
Continuous
 62
     7
100
AcDbSpline
210
0.0
220
0.0
230
1.0
 70
     8
 71
     3
 72
    69
 73
    65
 74
    63
 42
0.000000001
 43
0.0000000001
 44
0.00000001
 40
0.0
 40
0.0
 40
0.0
 40
0.0
 40
0.0223043361400994
 40
0.0583467145993965
 40
0.1219060659782115
 40
0.2174224882611038
 40
0.3451279159770752
 40
0.500002354489066
 40
0.6825667580194597
 40
0.888199885167535
 40
1.116699665190045
 40
1.450385020742281
 40
1.819631789334499
 40
2.220980461507406
 40
2.66394060643949
 40
3.134770268775831
 40
3.631032115163835
 40
4.297226303030782
 40
4.996934804765539
 40
5.726311167097578
 40
6.503779138661718
 40
7.305843580011826
 40
8.129883535159667
 40
9.148809750731026
 40
10.19311644914414
 40
10.91933004601032
 40
11.65470603187547
 40
12.39794059748267
 40
12.92072254431021
 40
13.44627077895643
 40
13.97407115597095
 40
14.51740944845529
 40
15.06165205167577
 40
15.60582117482222
 40
16.13597503757362
 40
16.66425176127637
 40
17.18964266163925
 40
17.72838152087093
 40
18.26207779666518
 40
18.78971930339697
 40
19.50444010078552
 40
20.20396117205385
 40
20.8999731371774
 40
21.57650451364745
 40
22.35067292476227
 40
23.09200399762355
 40
23.5757975494854
 40
24.041858707397
 40
24.48909213845689
 40
24.9873837452295
 40
25.45664298041255
 40
25.89518164124961
 40
26.31254564365465
 40
26.69197368032211
 40
27.0299187667382
 40
27.31046292762126
 40
27.55289839757813
 40
27.75984078430087
 40
27.89635930171051
 40
28.00537806141738
 40
28.07926466220282
 40
28.1104035212247
 40
28.11458164961257
 40
28.12899037506758
 40
28.12899037506758
 40
28.12899037506758
 40
28.12899037506758
 10
714.0969673379612
 20
999.2722603947391
 30
0.0
 10
714.1013799498147
 20
999.2662758386743
 30
0.0
 10
714.1129230738433
 20
999.2506206336125
 30
0.0
 10
714.1355185844789
 20
999.2168324378977
 30
0.0
 10
714.170673967928
 20
999.1621161486646
 30
0.0
 10
714.2215304244502
 20
999.0811696427096
 30
0.0
 10
714.2880681488057
 20
998.9741338208677
 30
0.0
 10
714.369411098932
 20
998.84213591959
 30
0.0
 10
714.4638635543586
 20
998.6877063172718
 30
0.0
 10
714.5704921035966
 20
998.511956934145
 30
0.0
 10
714.7024525850505
 20
998.2926587713453
 30
0.0
 10
714.8613730796664
 20
998.0259354898991
 30
0.0
 10
715.0480791643146
 20
997.7087050226564
 30
0.0
 10
715.2511987496903
 20
997.3588768658652
 30
0.0
 10
715.4688285602828
 20
996.9783285611079
 30
0.0
 10
715.6991063549833
 20
996.5685810629373
 30
0.0
 10
715.9619075918856
 20
996.0917741869167
 30
0.0
 10
716.2558766968776
 20
995.5450585677532
 30
0.0
 10
716.5782922537708
 20
994.9254766492106
 30
0.0
 10
716.907729125217
 20
994.2678256626348
 30
0.0
 10
717.2402784385146
 20
993.5736896849984
 30
0.0
 10
717.5710718464829
 20
992.84389762218
 30
0.0
 10
717.9153669157915
 20
992.0321224871732
 30
0.0
 10
718.2639431266858
 20
991.1348104442777
 30
0.0
 10
718.5650868059103
 20
990.2547651223229
 30
0.0
 10
718.8035240060556
 20
989.4540525056384
 30
0.0
 10
718.9870270277978
 20
988.7421951696493
 30
0.0
 10
719.126580012971
 20
988.0895899301267
 30
0.0
 10
719.2285169436075
 20
987.5010605607531
 30
0.0
 10
719.3003680846265
 20
986.9805077015191
 30
0.0
 10
719.3538199626423
 20
986.4508427924997
 30
0.0
 10
719.3867371048354
 20
985.9132402838043
 30
0.0
 10
719.3976712109223
 20
985.3692768736596
 30
0.0
 10
719.3855810929881
 20
984.8297185924448
 30
0.0
 10
719.350280698726
 20
984.2965210290106
 30
0.0
 10
719.2929803703371
 20
983.7715405285692
 30
0.0
 10
719.2130708538784
 20
983.2466260519873
 30
0.0
 10
719.1102493913204
 20
982.7238685517939
 30
0.0
 10
718.9855168402521
 20
982.2051466462915
 30
0.0
 10
718.824212786872
 20
981.6353763574638
 30
0.0
 10
718.6196997578184
 20
981.0209321114365
 30
0.0
 10
718.3657420284725
 20
980.3647034734529
 30
0.0
 10
718.0884745804888
 20
979.7318879912292
 30
0.0
 10
717.7755818561754
 20
979.0881744678081
 30
0.0
 10
717.4314193264901
 20
978.4434168041846
 30
0.0
 10
717.0966421056146
 20
977.867031393209
 30
0.0
 10
716.8010760783208
 20
977.3869622554695
 30
0.0
 10
716.5495081505608
 20
976.9950304726635
 30
0.0
 10
716.2886840100222
 20
976.6033856254109
 30
0.0
 10
716.0209918676503
 20
976.2151026690368
 30
0.0
 10
715.7489097888509
 20
975.8334444816771
 30
0.0
 10
715.4874974428918
 20
975.477362615256
 30
0.0
 10
715.2398365869352
 20
975.148390498873
 30
0.0
 10
715.0090291507854
 20
974.8486736895054
 30
0.0
 10
714.8036099076619
 20
974.587177467696
 30
0.0
 10
714.6243820529191
 20
974.362632437905
 30
0.0
 10
714.4717147438539
 20
974.1744207363853
 30
0.0
 10
714.3461751037307
 20
974.0213393415193
 30
0.0
 10
714.2532836515702
 20
973.9104609028135
 30
0.0
 10
714.1763733249892
 20
973.8164069886495
 30
0.0
 10
714.1475360486672
 20
973.7878043337541
 30
0.0
 10
714.1012339376636
 20
973.7276321042011
 30
0.0
 10
714.1089488402745
 20
973.7449002850844
 30
0.0
 10
714.1127340024642
 20
973.7494961194438
 30
0.0
 10
714.1156682952602
 20
973.7530588627332
 30
0.0
 11
714.0969673379612
 21
999.2722603947391
 31
0.0
 11
714.1100987249695
 21
999.2542312506409
 31
0.0
 11
714.1303507346925
 21
999.2244166706352
 31
0.0
 11
714.1648439898446
 21
999.1710312188143
 31
0.0
 11
714.2157668057756
 21
999.0902212339209
 31
0.0
 11
714.2832231924634
 21
998.9817854835355
 31
0.0
 11
714.3645009233906
 21
998.8499521732801
 31
0.0
 11
714.4597638011671
 21
998.6942128257831
 31
0.0
 11
714.5664372577859
 21
998.5184124986353
 31
0.0
 11
714.6842593535141
 21
998.322631743597
 31
0.0
 11
714.8550609234911
 21
998.035973860835
 31
0.0
 11
715.0423508962441
 21
997.7177512296233
 31
0.0
 11
715.2438724621489
 21
997.3706636101473
 31
0.0
 11
715.463750980649
 21
996.9861286606005
 31
0.0
 11
715.6944009748431
 21
996.5756641050725
 31
0.0
 11
715.9339210226493
 21
996.1410309643024
 31
0.0
 11
716.2492905043704
 21
995.5542117534958
 31
0.0
 11
716.5721587372866
 21
994.9334476342408
 31
0.0
 11
716.8986883222415
 21
994.2812449753757
 31
0.0
 11
717.2342855236519
 21
993.5799383624343
 31
0.0
 11
717.5650965942948
 21
992.8492733203354
 31
0.0
 11
717.8865216880398
 21
992.0905060589785
 31
0.0
 11
718.2544530153033
 21
991.1403286169434
 31
0.0
 11
718.5915384649593
 21
990.1519208670134
 31
0.0
 11
718.7983502036873
 21
989.4557778550845
 31
0.0
 11
718.9814355684769
 21
988.7435576715452
 31
0.0
 11
719.136353789206
 21
988.0166477978701
 31
0.0
 11
719.2254107050895
 21
987.5015072057192
 31
0.0
 11
719.2970899522998
 21
986.9808700648281
 31
0.0
 11
719.3498930170492
 21
986.4557176352017
 31
0.0
 11
719.3830062977586
 21
985.9133893114625
 31
0.0
 11
719.3938153562548
 21
985.3692540567512
 31
0.0
 11
719.3814639210058
 21
984.8252251267904
 31
0.0
 11
719.3464814504168
 21
984.296226691123
 31
0.0
 11
719.2891670916736
 21
983.7710682758981
 31
0.0
 11
719.2100651770187
 21
983.2516662300101
 31
0.0
 11
719.1062433716857
 21
982.7230259069445
 31
0.0
 11
718.9815916637205
 21
982.2040907795121
 31
0.0
 11
718.837955242331
 21
981.6963761568538
 31
0.0
 11
718.6126709216819
 21
981.0180894969094
 31
0.0
 11
718.3605974748087
 21
980.3655646265021
 31
0.0
 11
718.0816528894774
 21
979.7278949832848
 31
0.0
 11
717.786262950237
 21
979.1192575812804
 31
0.0
 11
717.4221343287057
 21
978.4360686793506
 31
0.0
 11
717.0502340629056
 21
977.7947715938558
 31
0.0
 11
716.7966716792224
 21
977.382749363393
 31
0.0
 11
716.5449982243373
 21
976.9904822668719
 31
0.0
 11
716.2971796675877
 21
976.6181870818606
 31
0.0
 11
716.0143971963004
 21
976.2079083969317
 31
0.0
 11
715.7420518718247
 21
975.8257667294355
 31
0.0
 11
715.4825983777005
 21
975.4722132802476
 31
0.0
 11
715.2315927178865
 21
975.1387633301158
 31
0.0
 11
715.0001005237302
 21
974.8381356549879
 31
0.0
 11
714.7913633122404
 21
974.5723619580734
 31
0.0
 11
714.6163018355946
 21
974.3531394555788
 31
0.0
 11
714.4636223394582
 21
974.1648207667753
 31
0.0
 11
714.3322045191483
 21
974.0049629927149
 31
0.0
 11
714.2449447287656
 21
973.8999723522834
 31
0.0
 11
714.1748055029515
 21
973.8165123081276
 31
0.0
 11
714.1267404413766
 21
973.7603965382145
 31
0.0
 11
714.1057031437115
 21
973.7374387205114
 31
0.0
 11
714.1074071253147
 21
973.7412535848757
 31
0.0
 11
714.1156682952602
 21
973.7530588627332
 31
0.0
  0
SPLINE
  5
224
330
58
100
AcDbEntity
  8
0
  6
Continuous
 62
     7
100
AcDbSpline
210
0.0
220
0.0
230
1.0
 70
     8
 71
     3
 72
   117
 73
   113
 74
   111
 42
0.000000001
 43
0.0000000001
 44
0.00000001
 40
0.0
 40
0.0
 40
0.0
 40
0.0
 40
0.0075005537167956
 40
0.0172719677276093
 40
0.0315954659814916
 40
0.052756273090028
 40
0.0830390216451312
 40
0.1256819338961012
 40
0.1794358379106243
 40
0.2432652351057936
 40
0.3161343822970671
 40
0.3970074500698302
 40
0.5111208426351669
 40
0.6367118698087116
 40
0.7738031099106197
 40
0.9224174473873819
 40
1.089719693057919
 40
1.268920408632114
 40
1.459341782505577
 40
1.660306782335387
 40
1.87561211062036
 40
2.100726312154385
 40
2.335182512788556
 40
2.578515404718214
 40
2.866784408089917
 40
3.165399915199694
 40
3.473733399969013
 40
3.791162390235035
 40
4.117071106268083
 40
4.460609155600963
 40
4.81197599817706
 40
5.170686824788929
 40
5.53627772328641
 40
5.908308073109563
 40
6.272628585290955
 40
6.642253469788287
 40
7.016937607812372
 40
7.396491017952372
 40
7.710361070381701
 40
8.02711583475024
 40
8.346521775458786
 40
8.668403118204113
 40
8.99264788895086
 40
9.254798684476647
 40
9.518303857140062
 40
9.783060410125236
 40
10.04900893485616
 40
10.32264432972216
 40
10.59726976795715
 40
10.8726774286684
 40
11.14870291316822
 40
11.41907176231351
 40
11.68970549830539
 40
11.96039112707347
 40
12.23091739128751
 40
12.45457018280268
 40
12.67791275262844
 40
12.90086656502505
 40
13.12333440848884
 40
13.34520186322901
 40
13.60936320951268
 40
13.8724550251395
 40
14.13440693651781
 40
14.39510646825229
 40
14.65440235405992
 40
14.98523790400553
 40
15.31344437169149
 40
15.63894624727468
 40
15.9616015086815
 40
16.34284197661298
 40
16.71953742654868
 40
17.09142655350727
 40
17.45819287692331
 40
17.81947068242019
 40
18.18471881798906
 40
18.54334040710035
 40
18.89491985770517
 40
19.23902317882919
 40
19.57519982055339
 40
19.84646511095608
 40
20.11162684930275
 40
20.37029970744678
 40
20.62209534505249
 40
20.86662266437829
 40
21.10348805669334
 40
21.30704435724322
 40
21.5039537280852
 40
21.6939201864107
 40
21.87664709042549
 40
22.05183718727103
 40
22.21919266047264
 40
22.37841517808161
 40
22.51733357162927
 40
22.64858255994128
 40
22.7716212605424
 40
22.88590862287897
 40
22.99090345213885
 40
23.08874852715446
 40
23.17712226142918
 40
23.25692711996859
 40
23.3290655423498
 40
23.39443995019573
 40
23.43112553136195
 40
23.46461534164242
 40
23.4938883419015
 40
23.51792356242172
 40
23.53570023678688
 40
23.54619846743773
 40
23.54841333685112
 40
23.5555513118384
 40
23.55904021854928
 40
23.56288657331756
 40
23.56288657331756
 40
23.56288657331756
 40
23.56288657331756
 10
623.3588518045398
 20
993.0199138429216
 30
0.0
 10
623.3575217949989
 20
993.0220310533443
 30
0.0
 10
623.3544591170645
 20
993.026906487335
 30
0.0
 10
623.348561566978
 20
993.035634746896
 30
0.0
 10
623.3397709706719
 20
993.0478953848807
 30
0.0
 10
623.3266830151098
 20
993.0654830507773
 30
0.0
 10
623.3076819127322
 20
993.0904343173132
 30
0.0
 10
623.2818640526281
 20
993.1238489076356
 30
0.0
 10
623.2490345070042
 20
993.1659763822472
 30
0.0
 10
623.2098588099402
 20
993.2159314848757
 30
0.0
 10
623.1649668141907
 20
993.2728913745088
 30
0.0
 10
623.109552713427
 20
993.3428994806103
 30
0.0
 10
623.0430444669864
 20
993.426538938766
 30
0.0
 10
622.9646189210986
 20
993.5246433030968
 30
0.0
 10
622.8787288240596
 20
993.6315031937925
 30
0.0
 10
622.7838105310926
 20
993.7489440740567
 30
0.0
 10
622.6797092756133
 20
993.8770101244828
 30
0.0
 10
622.5663884196014
 20
994.0155397781001
 30
0.0
 10
622.4454750712259
 20
994.1623543115927
 30
0.0
 10
622.3163595411493
 20
994.3180031523152
 30
0.0
 10
622.1792363510856
 20
994.4820327552471
 30
0.0
 10
622.0342320644072
 20
994.6540223950475
 30
0.0
 10
621.8823994108907
 20
994.8324719784374
 30
0.0
 10
621.7159886399149
 20
995.0261546329335
 30
0.0
 10
621.5344853046528
 20
995.2350615192165
 30
0.0
 10
621.3372903789298
 20
995.45902966052
 30
0.0
 10
621.1319935165714
 20
995.6888048958658
 30
0.0
 10
620.9187603561379
 20
995.9236768412754
 30
0.0
 10
620.6955501320116
 20
996.1653248468864
 30
0.0
 10
620.4623208545461
 20
996.4131001534462
 30
0.0
 10
620.2188102665705
 20
996.6661876492558
 30
0.0
 10
619.9670414087723
 20
996.9214956487085
 30
0.0
 10
619.7069121390123
 20
997.1781884405409
 30
0.0
 10
619.4416274002724
 20
997.4322639354575
 30
0.0
 10
619.1713417368549
 20
997.6829974423979
 30
0.0
 10
618.8959469678578
 20
997.9294450654978
 30
0.0
 10
618.611797088184
 20
998.173617834369
 30
0.0
 10
618.3366372639833
 20
998.3996098277421
 30
0.0
 10
618.0717390518855
 20
998.6075268584864
 30
0.0
 10
617.818328761438
 20
998.7974894989229
 30
0.0
 10
617.5581665179142
 20
998.9827478213112
 30
0.0
 10
617.2910671704076
 20
999.1623807427279
 30
0.0
 10
617.0350019377133
 20
999.3240053219768
 30
0.0
 10
616.7912390647127
 20
999.4684216606532
 30
0.0
 10
616.5610069115565
 20
999.5965934492344
 30
0.0
 10
616.3260715397012
 20
999.7187050871071
 30
0.0
 10
616.0844812354516
 20
999.8350773690411
 30
0.0
 10
615.8362060991914
 20
999.9448365608228
 30
0.0
 10
615.5813899403283
 20
1000.047210188334
 30
0.0
 10
615.3223414826475
 20
1000.140731346824
 30
0.0
 10
615.0613572737248
 20
1000.224177267253
 30
0.0
 10
614.7989194170295
 20
1000.297197699102
 30
0.0
 10
614.5356612953448
 20
1000.359916535603
 30
0.0
 10
614.2701872652135
 20
1000.412738378702
 30
0.0
 10
614.0183788174436
 20
1000.45306838562
 30
0.0
 10
613.7810110385344
 20
1000.482704354857
 30
0.0
 10
613.5586438301445
 20
1000.503633376176
 30
0.0
 10
613.3361534794037
 20
1000.517981669895
 30
0.0
 10
613.1138369053916
 20
1000.525949607888
 30
0.0
 10
612.8776502914609
 20
1000.527853459412
 30
0.0
 10
612.6279590197223
 20
1000.522463003657
 30
0.0
 10
612.3652096744896
 20
1000.508759565577
 30
0.0
 10
612.1041174993755
 20
1000.487596861322
 30
0.0
 10
611.8449552186916
 20
1000.459515600798
 30
0.0
 10
611.5638340796296
 20
1000.421816934107
 30
0.0
 10
611.261605654722
 20
1000.372918668475
 30
0.0
 10
610.939200394881
 20
1000.311409881968
 30
0.0
 10
610.6211518652813
 20
1000.242220467894
 30
0.0
 10
610.2876221914349
 20
1000.161497544936
 30
0.0
 10
609.9395215523532
 20
1000.068798893841
 30
0.0
 10
609.5778673436898
 20
999.9636222178293
 30
0.0
 10
609.2230716072471
 20
999.8524432852612
 30
0.0
 10
608.8752761490653
 20
999.7363394043182
 30
0.0
 10
608.5315204913619
 20
999.6152942223102
 30
0.0
 10
608.1920884162957
 20
999.490263627983
 30
0.0
 10
607.8573848985967
 20
999.3618473138624
 30
0.0
 10
607.5308331396561
 20
999.2319397674721
 30
0.0
 10
607.2126648770749
 20
999.1012605976899
 30
0.0
 10
606.9204679745294
 20
998.9778582377943
 30
0.0
 10
606.6534156185161
 20
998.8625828399465
 30
0.0
 10
606.4107876252205
 20
998.755927824179
 30
0.0
 10
606.1747508248413
 20
998.6504189965324
 30
0.0
 10
605.945586130208
 20
998.5464017378105
 30
0.0
 10
605.7235745656601
 20
998.4442213826894
 30
0.0
 10
605.5166265840443
 20
998.3477784670428
 30
0.0
 10
605.3244266290367
 20
998.2572705138681
 30
0.0
 10
605.146668103338
 20
998.172792609771
 30
0.0
 10
604.9754525257141
 20
998.090725280054
 30
0.0
 10
604.8110108622776
 20
998.0112774434838
 30
0.0
 10
604.6535741263438
 20
997.9346579459893
 30
0.0
 10
604.5033733143506
 20
997.8610756642241
 30
0.0
 10
604.364189377447
 20
997.7924885660622
 30
0.0
 10
604.2359241136327
 20
997.7289729785707
 30
0.0
 10
604.1185645085449
 20
997.6706142621235
 30
0.0
 10
604.0086370670123
 20
997.6157495037687
 30
0.0
 10
603.90660393203
 20
997.5646648421888
 30
0.0
 10
603.8121277671721
 20
997.5172446643253
 30
0.0
 10
603.7254024486406
 20
997.4736381776651
 30
0.0
 10
603.6462039866368
 20
997.4337530160606
 30
0.0
 10
603.5746786412934
 20
997.3976848233086
 30
0.0
 10
603.510006110443
 20
997.3650461637991
 30
0.0
 10
603.4581779892243
 20
997.3388801222488
 30
0.0
 10
603.417821071736
 20
997.3185264730048
 30
0.0
 10
603.3882642964275
 20
997.3036142726398
 30
0.0
 10
603.3622680655267
 20
997.290611588465
 30
0.0
 10
603.341473105741
 20
997.2800455519882
 30
0.0
 10
603.3249111862548
 20
997.2722297630439
 30
0.0
 10
603.317343265305
 20
997.2679192841781
 30
0.0
 10
603.3092443992375
 20
997.2649998681017
 30
0.0
 10
603.3176120726035
 20
997.2692756866829
 30
0.0
 10
603.3210270783433
 20
997.271204223226
 30
0.0
 10
603.3232622493106
 20
997.2724149655916
 30
0.0
 10
603.3244342945071
 20
997.2730498369975
 30
0.0
 11
623.3588518045398
 21
993.0199138429216
 31
0.0
 11
623.3548313654776
 21
993.026245854903
 31
0.0
 11
623.3493811864417
 21
993.0343561001929
 31
0.0
 11
623.341071527459
 21
993.0460228121004
 31
0.0
 11
623.3284726485556
 21
993.063024223934
 31
0.0
 11
623.3101548097582
 21
993.0871385690023
 31
0.0
 11
623.2841079427309
 21
993.1209021392983
 31
0.0
 11
623.2510791819673
 21
993.1633118452046
 31
0.0
 11
623.2116993649329
 21
993.2135455186935
 31
0.0
 11
623.1665993290939
 21
993.2707809917367
 31
0.0
 11
623.1164099119159
 21
993.3341960963061
 31
0.0
 11
623.0453890242077
 21
993.4235151863962
 31
0.0
 11
622.9669711440422
 21
993.5216158598911
 31
0.0
 11
622.8810890185395
 21
993.6284721582364
 31
0.0
 11
622.7876753948183
 21
993.744058122878
 31
0.0
 11
622.6821463991278
 21
993.8738798206446
 31
0.0
 11
622.5686823380873
 21
994.0125838342905
 31
0.0
 11
622.4476252060413
 21
994.1595718285168
 31
0.0
 11
622.3193169973345
 21
994.3142454680251
 31
0.0
 11
622.1812209849484
 21
994.4794298370473
 31
0.0
 11
622.0361128047606
 21
994.651534513887
 31
0.0
 11
621.8841762542077
 21
994.8300982129847
 31
0.0
 11
621.7255951307268
 21
995.0146596487808
 31
0.0
 11
621.5365130254684
 21
995.23225325115
 31
0.0
 11
621.339164217635
 21
995.456361861313
 31
0.0
 11
621.1337142838952
 21
995.6862745894783
 31
0.0
 11
620.920328800918
 21
995.9212805458549
 31
0.0
 11
620.6991733453722
 21
996.1606688406515
 31
0.0
 11
620.4636603157036
 21
996.4107728274539
 31
0.0
 11
620.219996607601
 21
996.6639262501741
 31
0.0
 11
619.9680807249297
 21
996.9192923505211
 31
0.0
 11
619.7078111715533
 21
997.1760343702026
 31
0.0
 11
619.4390864513368
 21
997.4333155509279
 31
0.0
 11
619.1719104401801
 21
997.6809976348154
 31
0.0
 11
618.896391833616
 21
997.9273957936915
 31
0.0
 11
618.6121383101128
 21
998.1715026098271
 31
0.0
 11
618.3187575481387
 21
998.412310665493
 31
0.0
 11
618.0717909989436
 21
998.6060164563323
 31
0.0
 11
617.818276193972
 21
998.7959212335874
 31
0.0
 11
617.5580308665056
 21
998.9811036423233
 31
0.0
 11
617.2908727498259
 21
999.1606423276045
 31
0.0
 11
617.0166195772143
 21
999.3336159344958
 31
0.0
 11
616.7910434344872
 21
999.4671765702916
 31
0.0
 11
616.5607761231704
 21
999.5952856697563
 31
0.0
 11
616.3258234126399
 21
999.7173235989768
 31
0.0
 11
616.0861910722705
 21
999.832670724039
 31
0.0
 11
615.8359016948849
 21
999.9432670933053
 31
0.0
 11
615.581052158742
 21
1000.04559424149
 31
0.0
 11
615.3219878190904
 21
1000.13905571751
 31
0.0
 11
615.0590540311786
 21
1000.223055070286
 31
0.0
 11
614.7985824385698
 21
1000.29553861345
 31
0.0
 11
614.535317334806
 21
1000.358261051167
 31
0.0
 11
614.2698347499704
 21
1000.411078725909
 31
0.0
 11
614.0027107141467
 21
1000.453847980147
 31
0.0
 11
613.7807852883875
 21
1000.481591025197
 31
0.0
 11
613.5584284909368
 21
1000.502551896308
 31
0.0
 11
613.3359387990844
 21
1000.516930334157
 31
0.0
 11
613.1136146901217
 21
1000.52492607942
 31
0.0
 11
612.8917546413393
 21
1000.526738872772
 31
0.0
 11
612.6276532815516
 21
1000.521109608367
 31
0.0
 11
612.364914841897
 21
1000.507478182672
 31
0.0
 11
612.1038136094837
 21
1000.4863843377
 31
0.0
 11
611.8446238714204
 21
1000.458367815467
 31
0.0
 11
611.587619914815
 21
1000.423968357985
 31
0.0
 11
611.2610123088539
 21
1000.371246134791
 31
0.0
 11
610.9385979307327
 21
1000.309858398271
 31
0.0
 11
610.6205095687901
 21
1000.240784054342
 31
0.0
 11
610.306880011365
 21
1000.16500200892
 31
0.0
 11
609.9384489250435
 21
1000.067007983583
 31
0.0
 11
609.5767070616859
 21
999.9619257002051
 31
0.0
 11
609.2217988087534
 21
999.8508326998159
 31
0.0
 11
608.8738685537079
 21
999.7348065234462
 31
0.0
 11
608.5330606840105
 21
999.6149247121259
 31
0.0
 11
608.1903061078345
 21
999.4887284323212
 31
0.0
 11
607.8554630797585
 21
999.3603166310077
 31
0.0
 11
607.5287640595885
 21
999.2304095091861
 31
0.0
 11
607.2104415071309
 21
999.099727267856
 31
0.0
 11
606.9007278821917
 21
998.9689901080176
 31
0.0
 11
606.651669329132
 21
998.861497341182
 31
0.0
 11
606.4089199993196
 21
998.754803806439
 31
0.0
 11
606.1727608894039
 21
998.6492551335814
 31
0.0
 11
605.9434729960353
 21
998.5451969524039
 31
0.0
 11
605.7213373158643
 21
998.4429748927005
 31
0.0
 11
605.5066348455401
 21
998.3429345842644
 31
0.0
 11
605.3224743647814
 21
998.2562161616576
 31
0.0
 11
605.1446256915817
 21
998.1716990050222
 31
0.0
 11
604.9733197776185
 21
998.0895921287613
 31
0.0
 11
604.8087875745692
 21
998.0101045472779
 31
0.0
 11
604.6512600341123
 21
997.9334452749756
 31
0.0
 11
604.5009681079251
 21
997.8598233262569
 31
0.0
 11
604.3581427476853
 21
997.7894477155253
 31
0.0
 11
604.2336507771456
 21
997.7278030131023
 31
0.0
 11
604.1161288157034
 21
997.6693659913478
 31
0.0
 11
604.0060389180794
 21
997.6144229637044
 31
0.0
 11
603.9038431389946
 21
997.5632602436145
 31
0.0
 11
603.8100035331697
 21
997.5161641445208
 31
0.0
 11
603.7225866849468
 21
997.472210153217
 31
0.0
 11
603.6436567898412
 21
997.4324610831873
 31
0.0
 11
603.5723983506159
 21
997.3965298949851
 31
0.0
 11
603.5079958700339
 21
997.3640295491639
 31
0.0
 11
603.4496338508577
 21
997.334573006277
 31
0.0
 11
603.416879592356
 21
997.3180505846778
 31
0.0
 11
603.3869700210278
 21
997.3029845654438
 31
0.0
 11
603.3608113148939
 21
997.289845667562
 31
0.0
 11
603.3393096519751
 21
997.2791046100182
 31
0.0
 11
603.3233712102926
 21
997.2712321117995
 31
0.0
 11
603.3139021678674
 21
997.266698891892
 31
0.0
 11
603.3118087027199
 21
997.2659756692822
 31
0.0
 11
603.3179969928713
 21
997.2695331629563
 31
0.0
 11
603.3210568545205
 21
997.2712093839637
 31
0.0
 11
603.3244342945071
 21
997.2730498369975
 31
0.0
  0
SPLINE
  5
225
330
58
100
AcDbEntity
  8
0
  6
Continuous
 62
     7
100
AcDbSpline
210
0.0
220
0.0
230
1.0
 70
     8
 71
     3
 72
    17
 73
    13
 74
    11
 42
0.000000001
 43
0.0000000001
 44
0.00000001
 40
0.0
 40
0.0
 40
0.0
 40
0.0
 40
0.194158911369957
 40
0.385655175101857
 40
0.5118594824907418
 40
0.6383067948816907
 40
0.7465349398286908
 40
0.854900747037737
 40
0.9438705513023027
 40
1.027543329878748
 40
1.05507071797654
 40
1.081891675684535
 40
1.081891675684535
 40
1.081891675684535
 40
1.081891675684535
 10
602.5557280920001
 20
1022.967138847356
 30
0.0
 10
602.4914042658091
 20
1022.960094077699
 30
0.0
 10
602.363638736475
 20
1022.946101134213
 30
0.0
 10
602.1964823454348
 20
1022.905949038097
 30
0.0
 10
602.0625322801278
 20
1022.841333646352
 30
0.0
 10
601.9620844485383
 20
1022.774625199978
 30
0.0
 10
601.8741097039225
 20
1022.701278315255
 30
0.0
 10
601.8030561035453
 20
1022.628020004737
 30
0.0
 10
601.7443716213984
 20
1022.554899215486
 30
0.0
 10
601.7073381112539
 20
1022.499203224542
 30
0.0
 10
601.6854150431448
 20
1022.458742024696
 30
0.0
 10
601.6772108749637
 20
1022.442589923478
 30
0.0
 10
601.6731621168109
 20
1022.434618843739
 30
0.0
 11
602.5557280920001
 21
1022.967138847356
 31
0.0
 11
602.363218754315
 21
1022.941883403069
 31
0.0
 11
602.1780432603807
 21
1022.893089389448
 31
0.0
 11
602.0640711126546
 21
1022.838887205386
 31
0.0
 11
601.9585044525118
 21
1022.769284022992
 31
0.0
 11
601.8754387269013
 21
1022.699905232849
 31
0.0
 11
601.7999560974092
 21
1022.62215228567
 31
0.0
 11
601.7443577850846
 21
1022.552693996241
 31
0.0
 11
601.6985983989687
 21
1022.482642492299
 31
0.0
 11
601.6854127401841
 21
1022.458478561394
 31
0.0
 11
601.6731621168109
 21
1022.434618843739
 31
0.0
  0
SPLINE
  5
226
330
58
100
AcDbEntity
  8
0
  6
Continuous
 62
     7
100
AcDbSpline
210
0.0
220
0.0
230
1.0
 70
     8
 71
     3
 72
    23
 73
    19
 74
    17
 42
0.000000001
 43
0.0000000001
 44
0.00000001
 40
0.0
 40
0.0
 40
0.0
 40
0.0
 40
0.0072345063634152
 40
0.0145920595923604
 40
0.069643021741359
 40
0.1319062341022497
 40
0.1972302806879785
 40
0.3207034604274685
 40
0.4426124225506737
 40
0.5525900052980722
 40
0.6637500454434853
 40
0.7760444943489455
 40
0.8654796697377038
 40
0.9545558156524023
 40
1.042770563978528
 40
1.130216179299338
 40
1.21982999278587
 40
1.310218962632582
 40
1.310218962632582
 40
1.310218962632582
 40
1.310218962632582
 10
596.7753292463275
 20
999.4189902749106
 30
0.0
 10
596.7753689923184
 20
999.4165791011341
 30
0.0
 10
596.7754491746605
 20
999.4117157437984
 30
0.0
 10
596.7760477738211
 20
999.3885082451367
 30
0.0
 10
596.7798853620603
 20
999.3470606692115
 30
0.0
 10
596.7896575412624
 20
999.2869402559874
 30
0.0
 10
596.8078787825847
 20
999.2052200509702
 30
0.0
 10
596.8392077023511
 20
999.1062197287315
 30
0.0
 10
596.8891475339185
 20
998.9984356362949
 30
0.0
 10
596.9497401635599
 20
998.9011800905303
 30
0.0
 10
597.0183566237245
 20
998.8134976605829
 30
0.0
 10
597.0905618712541
 20
998.7380162126142
 30
0.0
 10
597.1632224374521
 20
998.6737095019126
 30
0.0
 10
597.2349421394363
 20
998.6209092077228
 30
0.0
 10
597.3114787328234
 20
998.5765819866285
 30
0.0
 10
597.3935174650745
 20
998.5426507193727
 30
0.0
 10
597.4804817494838
 20
998.5219294129297
 30
0.0
 10
597.5397531240808
 20
998.5126207070721
 30
0.0
 10
597.569516434476
 20
998.5079463180356
 30
0.0
 11
596.7753292463275
 21
999.4189902749106
 31
0.0
 11
596.7754596086806
 21
999.4117569421022
 31
0.0
 11
596.7756570718735
 21
999.4044020381017
 31
0.0
 11
596.7802504060386
 21
999.3495430389199
 31
0.0
 11
596.7900732604849
 21
999.2880595522843
 31
0.0
 11
596.8042971036882
 21
999.2243028786226
 31
0.0
 11
596.8418321140047
 21
999.106673163863
 31
0.0
 11
596.8931378267262
 21
998.9960860070037
 31
0.0
 11
596.9511260720244
 21
998.902638523973
 31
0.0
 11
597.0195045513968
 21
998.8149975640589
 31
0.0
 11
597.0970304153415
 21
998.7337585147666
 31
0.0
 11
597.1641648075778
 21
998.6746685519203
 31
0.0
 11
597.2360785034089
 21
998.6221044952507
 31
0.0
 11
597.3125939815652
 21
998.5782043418379
 31
0.0
 11
597.3935337207766
 21
998.5451060887619
 31
0.0
 11
597.480413391354
 21
998.5231388740469
 31
0.0
 11
597.569516434476
 21
998.5079463180356
 31
0.0
  0
SPLINE
  5
227
330
58
100
AcDbEntity
  8
0
  6
Continuous
 62
     7
100
AcDbSpline
210
0.0
220
0.0
230
1.0
 70
     8
 71
     3
 72
    11
 73
     7
 74
     5
 42
0.000000001
 43
0.0000000001
 44
0.00000001
 40
0.0
 40
0.0
 40
0.0
 40
0.0
 40
0.008142954034365
 40
0.0162636415303786
 40
0.0694423936871542
 40
0.1235821582787333
 40
0.1235821582787333
 40
0.1235821582787333
 40
0.1235821582787333
 10
602.6781709335297
 20
1022.956774158423
 30
0.0
 10
602.6755816803434
 20
1022.957588393308
 30
0.0
 10
602.6704102499311
 20
1022.959214622929
 30
0.0
 10
602.6481691342152
 20
1022.965655368962
 30
0.0
 10
602.609470339889
 20
1022.969681506376
 30
0.0
 10
602.5737488009557
 20
1022.967991451123
 30
0.0
 10
602.5557280920001
 20
1022.967138847356
 30
0.0
 11
602.6781709335297
 21
1022.956774158423
 31
0.0
 11
602.6703937675577
 21
1022.959187332208
 31
0.0
 11
602.6625843189211
 21
1022.96141400749
 31
0.0
 11
602.6098550997438
 21
1022.968313973272
 31
0.0
 11
602.5557280920001
 21
1022.967138847356
 31
0.0
  0
LWPOLYLINE
  5
228
330
58
100
AcDbEntity
  8
0
  6
Continuous
 62
     7
100
AcDbPolyline
 90
       52
 70
     1
 43
0.0
 10
313.6162535502388
 20
1022.231140689452
 10
315.0222966196386
 20
1021.974087276952
 10
316.3855314469388
 20
1021.549996504052
 10
317.6852931483386
 20
1020.965297290552
 10
318.9018788962387
 20
1020.228853033352
 10
320.0168452440387
 20
1019.351827496152
 10
321.0132924123386
 20
1018.347515541552
 10
321.8761134176386
 20
1017.231141499652
 10
322.5922296969386
 20
1016.019628374752
 10
323.1507848231386
 20
1014.731341615252
 10
323.5433130739386
 20
1013.385810240552
 10
323.7638632981386
 20
1012.003431146452
 10
323.8090920476386
 20
1010.605159731052
 10
323.6783138691387
 20
1009.212192663452
 10
323.3735115482386
 20
1007.845645820252
 10
322.8993053762388
 20
1006.526234143852
 10
322.2628833009387
 20
1005.273959183552
 10
321.4738938241387
 20
1004.107803621752
 10
320.5442960588387
 20
1003.045445823552
 10
319.4881827785387
 20
1002.102989287552
 10
318.3215629524386
 20
1001.294721433352
 10
317.0621214649386
 20
1000.632894740852
 10
315.7289504288387
 20
1000.127541416752
 10
314.3422593111386
 20
999.7863215892518
 10
312.9230688773387
 20
999.6144087551518
 10
311.4928924678386
 20
999.6144087551518
 10
310.0734101590388
 20
999.7863215892518
 10
308.6861398751387
 20
1000.127541416752
 10
307.3521113238387
 20
1000.632894740852
 10
306.0915471269386
 20
1001.294721433352
 10
304.9235554626387
 20
1002.102989287552
 10
303.8658426358386
 20
1003.045445823552
 10
302.9344418300386
 20
1004.107803621752
 10
302.1434732927387
 20
1005.273959183552
 10
301.5049259393386
 20
1006.526234143852
 10
301.0284808679387
 20
1007.845645820252
 10
300.7213595538387
 20
1009.212192663452
 10
300.5882167472387
 20
1010.605159731052
 10
300.6310734181386
 20
1012.003431146452
 10
300.8492767094388
 20
1013.385810240552
 10
301.2395213572386
 20
1014.731341615252
 10
301.7958916007387
 20
1016.019628374752
 10
302.5099515198388
 20
1017.231141499652
 10
303.3708782150386
 20
1018.347515541552
 10
304.3656201316387
 20
1019.351827496152
 10
305.4790986916387
 20
1020.228853033352
 10
306.6944341390388
 20
1020.965297290552
 10
307.9932037490387
 20
1021.549996504052
 10
309.3557188967386
 20
1021.974087276952
 10
310.7613257580388
 20
1022.231140689452
 10
312.1887165453386
 20
1022.317260553552
 10
313.6162535502388
 20
1022.231140689452
  0
LWPOLYLINE
  5
229
330
58
100
AcDbEntity
  8
0
  6
Continuous
 62
     7
100
AcDbPolyline
 90
       45
 70
     0
 43
0.0
 10
319.7183721913386
 20
1020.506157589552
 10
320.3467522962387
 20
1020.010438331852
 10
321.4102295442388
 20
1019.001388040752
 10
322.3443377046388
 20
1017.876486110952
 10
323.1359637557387
 20
1016.651523814952
 10
323.7739960877386
 20
1015.343696627252
 10
324.2494763090388
 20
1013.971363709752
 10
324.5557314931386
 20
1012.553789702652
 10
324.6884617238386
 20
1011.110873942652
 10
324.6458034245386
 20
1009.662872230152
 10
324.4283563672386
 20
1008.230111145852
 10
324.0391724957387
 20
1006.832703532152
 10
323.4837149484388
 20
1005.490266302052
 10
322.7697807579386
 20
1004.221642905352
 10
321.9073937489386
 20
1003.044643954752
 10
320.9086573897387
 20
1001.975790181652
 10
319.7875936730386
 20
1001.030087986452
 10
318.5599391563387
 20
1000.220810578652
 10
317.2429274982387
 20
999.5593200935517
 10
315.8550468488386
 20
999.0549018173517
 10
314.4157800107387
 20
998.7146375267517
 10
312.9453307465387
 20
998.5433021126518
 10
311.4643411809386
 20
998.5433021126518
 10
309.9936011695386
 20
998.7146375267517
 10
308.5537565621387
 20
999.0549018173517
 10
307.1650197944387
 20
999.5593200935517
 10
305.8468858926387
 20
1000.220810578652
 10
304.6178581407387
 20
1001.030087986452
 10
303.4951892896388
 20
1001.975790181652
 10
302.4946396453388
 20
1003.044643954752
 10
301.6302540181387
 20
1004.221642905352
 10
300.9141675411388
 20
1005.490266302052
 10
300.3564319788386
 20
1006.832703532152
 10
299.9648760287387
 20
1008.230111145852
 10
299.7449972881386
 20
1009.662872230152
 10
299.6998821600387
 20
1011.110873942652
 10
299.8301639436386
 20
1012.553789702652
 10
300.1340125902386
 20
1013.971363709752
 10
300.6071645050388
 20
1015.343696627252
 10
301.2429774953387
 20
1016.651523814952
 10
302.0325248344386
 20
1017.876486110952
 10
302.9647237836387
 20
1019.001388040752
 10
304.0264878636388
 20
1020.010438331852
 10
305.2029131195386
 20
1020.889472266152
 10
305.3302956959387
 20
1020.972338089252
  0
ENDBLK
  5
5A
330
58
100
AcDbEntity
  8
0
100
AcDbBlockEnd
  0
BLOCK
  5
5C
330
5B
100
AcDbEntity
  8
0
100
AcDbBlockBegin
  2
81-414-1-SH
 70
     0
 10
351.0891018826861
 20
1126.704478413341
 30
0.0
  3
81-414-1-SH
  1

  0
LINE
  5
22A
330
5B
100
AcDbEntity
  8
1
  6
Continuous
 62
     7
100
AcDbLine
 10
714.7911746825024
 20
1042.104477988338
 30
0.0
 11
714.7911746825033
 21
1023.704478413338
 31
0.0
  0
LINE
  5
22B
330
5B
100
AcDbEntity
  8
1
  6
Continuous
 62
     7
100
AcDbLine
 10
307.0917193917886
 20
1041.554477988338
 30
0.0
 11
307.0917193917886
 21
1024.204478413338
 31
0.0
  0
LINE
  5
22C
330
5B
100
AcDbEntity
  8
1
  6
Continuous
 62
     7
100
AcDbLine
 10
316.0917193917886
 20
1041.554477988338
 30
0.0
 11
316.0917193917886
 21
1024.204478413338
 31
0.0
  0
LINE
  5
22D
330
5B
100
AcDbEntity
  8
1
  6
Continuous
 62
     7
100
AcDbLine
 10
307.5917193917886
 20
1042.054477988338
 30
0.0
 11
308.5917193917886
 21
1042.054477988338
 31
0.0
  0
LINE
  5
22E
330
5B
100
AcDbEntity
  8
1
  6
Continuous
 62
     7
100
AcDbLine
 10
314.5917193917886
 20
1042.054477988338
 30
0.0
 11
314.5917193917886
 21
1023.704478413338
 31
0.0
  0
LINE
  5
22F
330
5B
100
AcDbEntity
  8
1
  6
Continuous
 62
     7
100
AcDbLine
 10
314.5917193917886
 20
1042.054477988338
 30
0.0
 11
315.5917193917886
 21
1042.054477988338
 31
0.0
  0
LINE
  5
230
330
5B
100
AcDbEntity
  8
1
  6
Continuous
 62
     7
100
AcDbLine
 10
308.5917193917886
 20
1042.054477988338
 30
0.0
 11
308.5917193917886
 21
1023.704478413338
 31
0.0
  0
LINE
  5
231
330
5B
100
AcDbEntity
  8
1
  6
Continuous
 62
     7
100
AcDbLine
 10
308.5917193917886
 20
1042.054477988338
 30
0.0
 11
314.5917193917886
 21
1042.054477988338
 31
0.0
  0
LINE
  5
232
330
5B
100
AcDbEntity
  8
1
  6
Continuous
 62
     7
100
AcDbLine
 10
713.5911746825028
 20
1042.104477988338
 30
0.0
 11
713.5911746825028
 21
1023.704478413338
 31
0.0
  0
LINE
  5
233
330
5B
100
AcDbEntity
  8
1
  6
Continuous
 62
     7
100
AcDbLine
 10
713.5911746825028
 20
1042.104477988338
 30
0.0
 11
714.7911746825024
 21
1042.104477988338
 31
0.0
  0
LINE
  5
234
330
5B
100
AcDbEntity
  8
1
  6
Continuous
 62
     7
100
AcDbLine
 10
713.5911746825028
 20
1023.704478413338
 30
0.0
 11
714.7911746825033
 21
1023.704478413338
 31
0.0
  0
LINE
  5
235
330
5B
100
AcDbEntity
  8
1
  6
Continuous
 62
     7
100
AcDbLine
 10
314.5917193917886
 20
1023.704478413338
 30
0.0
 11
308.5917193917886
 21
1023.704478413338
 31
0.0
  0
LINE
  5
236
330
5B
100
AcDbEntity
  8
1
  6
Continuous
 62
     7
100
AcDbLine
 10
315.5917193917886
 20
1023.704478413338
 30
0.0
 11
314.5917193917886
 21
1023.704478413338
 31
0.0
  0
LINE
  5
237
330
5B
100
AcDbEntity
  8
1
  6
Continuous
 62
     7
100
AcDbLine
 10
308.5917193917886
 20
1023.704478413338
 30
0.0
 11
307.5917193917886
 21
1023.704478413338
 31
0.0
  0
ARC
  5
238
330
5B
100
AcDbEntity
  8
1
  6
Continuous
 62
     7
100
AcDbCircle
 10
315.5917193917886
 20
1041.554477988338
 30
0.0
 40
0.5
100
AcDbArc
 50
0.0
 51
90.0
  0
ARC
  5
239
330
5B
100
AcDbEntity
  8
1
  6
Continuous
 62
     7
100
AcDbCircle
 10
307.5917193917886
 20
1041.554477988338
 30
0.0
 40
0.5
100
AcDbArc
 50
90.0
 51
180.0
  0
ARC
  5
23A
330
5B
100
AcDbEntity
  8
1
  6
Continuous
 62
     7
100
AcDbCircle
 10
307.5917193917886
 20
1024.204478413338
 30
0.0
 40
0.5
100
AcDbArc
 50
180.0
 51
270.0
  0
ARC
  5
23B
330
5B
100
AcDbEntity
  8
1
  6
Continuous
 62
     7
100
AcDbCircle
 10
315.5917193917886
 20
1024.204478413338
 30
0.0
 40
0.4999999999998863
100
AcDbArc
 50
270.0
 51
0.0
  0
ENDBLK
  5
5D
330
5B
100
AcDbEntity
  8
0
100
AcDbBlockEnd
  0
BLOCK
  5
5F
330
5E
100
AcDbEntity
  8
0
100
AcDbBlockBegin
  2
レバー
 70
     0
 10
830.5929570124421
 20
1098.748916343836
 30
0.0
  3
レバー
  1

  0
LINE
  5
23C
330
5E
100
AcDbEntity
  8
1
  6
PHANTOM
 62
     5
100
AcDbLine
 10
716.9135814136099
 20
1029.823314485377
 30
0.0
 11
723.8869617622191
 21
1047.083036510091
 31
0.0
  0
LINE
  5
23D
330
5E
100
AcDbEntity
  8
1
  6
PHANTOM
 62
     5
100
AcDbLine
 10
709.8102921892043
 20
1059.223224687437
 30
0.0
 11
757.3748239284802
 21
1040.005906445201
 31
0.0
  0
LINE
  5
23E
330
5E
100
AcDbEntity
  8
1
  6
PHANTOM
 62
     5
100
AcDbLine
 10
757.7063702851707
 20
1039.224832176411
 30
0.0
 11
751.365133212844
 21
1023.529719664299
 31
0.0
  0
LINE
  5
23F
330
5E
100
AcDbEntity
  8
1
  6
PHANTOM
 62
     5
100
AcDbLine
 10
708.3527091500586
 20
1057.217260367016
 30
0.0
 11
709.0292179204043
 21
1058.891678330747
 31
0.0
  0
LINE
  5
240
330
5E
100
AcDbEntity
  8
1
  6
PHANTOM
 62
     5
100
AcDbLine
 10
722.5275406757397
 20
1050.328492977321
 30
0.0
 11
708.6789702108133
 21
1056.438350814882
 31
0.0
  0
LINE
  5
241
330
5E
100
AcDbEntity
  8
1
  6
PHANTOM
 62
     5
100
AcDbLine
 10
751.365133212844
 20
1023.529719664299
 30
0.0
 11
732.4907752159869
 21
1023.5297196643
 31
0.0
  0
LINE
  5
242
330
5E
100
AcDbEntity
  8
1
  6
PHANTOM
 62
     5
100
AcDbLine
 10
716.9135814136099
 20
1029.823314485377
 30
0.0
 11
732.4907752159869
 21
1023.5297196643
 31
0.0
  0
ARC
  5
243
330
5E
100
AcDbEntity
  8
1
  6
PHANTOM
 62
     5
100
AcDbCircle
 10
757.1500599724305
 20
1039.449596132461
 30
0.0
 40
0.6000000000002743
100
AcDbArc
 50
337.9999999999554
 51
67.99999999998754
  0
ARC
  5
244
330
5E
100
AcDbEntity
  8
1
  6
PHANTOM
 62
     5
100
AcDbCircle
 10
709.5855282331547
 20
1058.666914374696
 30
0.0
 40
0.6000000000009472
100
AcDbArc
 50
68.00000000002822
 51
90.00000000001087
  0
ARC
  5
245
330
5E
100
AcDbEntity
  8
1
  6
PHANTOM
 62
     5
100
AcDbCircle
 10
721.5690021258023
 20
1048.019552993631
 30
0.0
 40
2.499999999999926
100
AcDbArc
 50
337.9999999999966
 51
67.45459723071126
  0
ARC
  5
246
330
5E
100
AcDbEntity
  8
1
  6
PHANTOM
 62
     5
100
AcDbCircle
 10
717.4146340002347
 20
1029.728729574125
 30
0.0
 40
0.5000000000000866
100
AcDbArc
 50
157.9999999999957
 51
247.9999999999761
  0
ARC
  5
247
330
5E
100
AcDbEntity
  8
1
  6
PHANTOM
 62
     5
100
AcDbCircle
 10
708.9090194627986
 20
1056.992496410967
 30
0.0
 40
0.5999999999997431
100
AcDbArc
 50
158.000000000052
 51
247.4545972306666
  0
ARC
  5
248
330
5E
100
AcDbEntity
  8
1
  6
PHANTOM
 62
     5
100
AcDbCircle
 10
709.5855282331494
 20
1058.666914374689
 30
0.0
 40
0.6000000000080945
100
AcDbArc
 50
89.99999999950062
 51
157.9999999994257
  0
ENDBLK
  5
60
330
5E
100
AcDbEntity
  8
0
100
AcDbBlockEnd
  0
BLOCK
  5
63
330
61
100
AcDbEntity
  8
0
100
AcDbBlockBegin
  2
27-21-M1
 70
     0
 10
582.1167099910061
 20
1085.366826684177
 30
0.0
  3
27-21-M1
  1

  0
INSERT
  5
62
330
61
100
AcDbEntity
  8
1
100
AcDbBlockReference
  2
レバー
 10
830.592957012442
 20
1098.748916343836
 30
0.0
 41
1.0
 42
1.0
 43
1.0
  0
LINE
  5
249
330
61
100
AcDbEntity
  8
1
  6
Continuous
 62
     7
100
AcDbLine
 10
746.0906299732052
 20
1029.562496395698
 30
0.0
 11
749.0917193917884
 21
1030.774937365454
 31
0.0
  0
LINE
  5
24A
330
61
100
AcDbEntity
  8
1
  6
Continuous
 62
     7
100
AcDbLine
 10
306.6917193917888
 20
1044.054058108247
 30
0.0
 11
306.6917193917888
 21
1023.704478413338
 31
0.0
  0
LINE
  5
24B
330
61
100
AcDbEntity
  8
1
  6
Continuous
 62
     7
100
AcDbLine
 10
302.5917193917886
 20
1044.054058108247
 30
0.0
 11
320.5917193917886
 21
1044.054058108247
 31
0.0
  0
LINE
  5
24C
330
61
100
AcDbEntity
  8
1
  6
Continuous
 62
     7
100
AcDbLine
 10
714.7911746825031
 20
1024.204478413339
 30
0.0
 11
714.7911746825031
 21
1042.319688265952
 31
0.0
  0
LINE
  5
24D
330
61
100
AcDbEntity
  8
1
  6
Continuous
 62
     7
100
AcDbLine
 10
301.5917193917888
 20
1151.500000000001
 30
0.0
 11
301.5917193917888
 21
1168.388202796436
 31
0.0
  0
LINE
  5
24E
330
61
100
AcDbEntity
  8
1
  6
Continuous
 62
     7
100
AcDbLine
 10
321.5917193917888
 20
1151.500000000001
 30
0.0
 11
321.5917193917888
 21
1168.388202796436
 31
0.0
  0
LINE
  5
24F
330
61
100
AcDbEntity
  8
1
  6
Continuous
 62
     7
100
AcDbLine
 10
304.0917193917888
 20
1149.000000000001
 30
0.0
 11
319.0917193917888
 21
1149.000000000001
 31
0.0
  0
LINE
  5
250
330
61
100
AcDbEntity
  8
1
  6
Continuous
 62
     7
100
AcDbLine
 10
302.5917193917886
 20
1045.302427984457
 30
0.0
 11
320.5917193917886
 21
1045.302427984457
 31
0.0
  0
LINE
  5
251
330
61
100
AcDbEntity
  8
1
  6
Continuous
 62
     7
100
AcDbLine
 10
320.5917193917886
 20
1048.302661500001
 30
0.0
 11
328.0917193917886
 21
1048.302661500001
 31
0.0
  0
LINE
  5
252
330
61
100
AcDbEntity
  8
1
  6
Continuous
 62
     7
100
AcDbLine
 10
295.0917193917886
 20
1048.302661500001
 30
0.0
 11
302.5917193917886
 21
1048.302661500001
 31
0.0
  0
LINE
  5
253
330
61
100
AcDbEntity
  8
1
  6
Continuous
 62
     7
100
AcDbLine
 10
714.0917193917884
 20
1048.302661500001
 30
0.0
 11
748.4917193917883
 21
1048.302661500001
 31
0.0
  0
LINE
  5
254
330
61
100
AcDbEntity
  8
1
  6
Continuous
 62
     7
100
AcDbLine
 10
749.0917193917884
 20
1047.7026615
 30
0.0
 11
749.0917193917884
 21
1030.774937365454
 31
0.0
  0
LINE
  5
255
330
61
100
AcDbEntity
  8
1
  6
Continuous
 62
     7
100
AcDbLine
 10
715.2911746825031
 20
1023.704478413339
 30
0.0
 11
716.0917193918013
 21
1023.704478413339
 31
0.0
  0
LINE
  5
256
330
61
100
AcDbEntity
  8
1
  6
Continuous
 62
     7
100
AcDbLine
 10
697.1917193917884
 20
1048.302661500001
 30
0.0
 11
714.0917193917884
 21
1048.302661500001
 31
0.0
  0
LINE
  5
257
330
61
100
AcDbEntity
  8
1
  6
Continuous
 62
     7
100
AcDbLine
 10
696.5917193917885
 20
1045.896743552355
 30
0.0
 11
696.5917193917885
 21
1047.7026615
 31
0.0
  0
LINE
  5
258
330
61
100
AcDbEntity
  8
1
  6
Continuous
 62
     7
100
AcDbLine
 10
712.3149720082932
 20
1044.819575000843
 30
0.0
 11
697.1860080335989
 21
1045.296770735981
 31
0.0
  0
LINE
  5
259
330
61
100
AcDbEntity
  8
1
  6
Continuous
 62
     7
100
AcDbLine
 10
294.5917193917886
 20
1023.704478413338
 30
0.0
 11
306.6917193917888
 21
1023.704478413338
 31
0.0
  0
LINE
  5
25A
330
61
100
AcDbEntity
  8
1
  6
Continuous
 62
     7
100
AcDbLine
 10
329.0917193917886
 20
1047.302661500001
 30
0.0
 11
329.0917193917886
 21
1024.204478413338
 31
0.0
  0
LINE
  5
25B
330
61
100
AcDbEntity
  8
1
  6
Continuous
 62
     7
100
AcDbLine
 10
294.0917193917886
 20
1047.302661500001
 30
0.0
 11
294.0917193917886
 21
1024.204478413338
 31
0.0
  0
LINE
  5
25C
330
61
100
AcDbEntity
  8
1
  6
Continuous
 62
     7
100
AcDbLine
 10
301.5917193917886
 20
1045.054058108247
 30
0.0
 11
301.5917193917886
 21
1047.302661500001
 31
0.0
  0
LINE
  5
25D
330
61
100
AcDbEntity
  8
1
  6
Continuous
 62
     7
100
AcDbLine
 10
302.5917193917886
 20
1048.302661500001
 30
0.0
 11
320.5917193917886
 21
1048.302661500001
 31
0.0
  0
LINE
  5
25E
330
61
100
AcDbEntity
  8
1
  6
Continuous
 62
     7
100
AcDbLine
 10
321.5917193917886
 20
1045.054058108247
 30
0.0
 11
321.5917193917886
 21
1047.302661500001
 31
0.0
  0
LINE
  5
25F
330
61
100
AcDbEntity
  8
1
  6
Continuous
 62
     7
100
AcDbLine
 10
746.0906299732052
 20
1029.562496395698
 30
0.0
 11
731.5915266779949
 21
1023.704478413339
 31
0.0
  0
LINE
  5
260
330
61
100
AcDbEntity
  8
1
  6
Continuous
 62
     7
100
AcDbLine
 10
716.0917193918013
 20
1023.704478413339
 30
0.0
 11
731.5915266779949
 21
1023.704478413339
 31
0.0
  0
LINE
  5
261
330
61
100
AcDbEntity
  8
1
  6
Continuous
 62
     7
100
AcDbLine
 10
316.4917193917888
 20
1023.704478413338
 30
0.0
 11
328.5917193917886
 21
1023.704478413338
 31
0.0
  0
LINE
  5
262
330
61
100
AcDbEntity
  8
1
  6
Continuous
 62
     7
100
AcDbLine
 10
316.4917193917888
 20
1023.704478413338
 30
0.0
 11
316.4917193917887
 21
1044.054058108247
 31
0.0
  0
ARC
  5
263
330
61
100
AcDbEntity
  8
1
  6
Continuous
 62
     7
100
AcDbCircle
 10
311.5917193917888
 20
1184.000000000003
 30
0.0
 40
17.49945529071445
100
AcDbArc
 50
308.6834368800553
 51
231.3165631199443
  0
ARC
  5
264
330
61
100
AcDbEntity
  8
1
  6
Continuous
 62
     7
100
AcDbCircle
 10
748.4917193917883
 20
1047.7026615
 30
0.0
 40
0.6000000000001364
100
AcDbArc
 50
0.0
 51
90.0
  0
ARC
  5
265
330
61
100
AcDbEntity
  8
1
  6
Continuous
 62
     7
100
AcDbCircle
 10
328.5917193917886
 20
1024.204478413338
 30
0.0
 40
0.4999999999998863
100
AcDbArc
 50
270.0
 51
0.0
  0
ARC
  5
266
330
61
100
AcDbEntity
  8
1
  6
Continuous
 62
     7
100
AcDbCircle
 10
302.5917193917886
 20
1045.054058108247
 30
0.0
 40
1.0
100
AcDbArc
 50
180.0
 51
270.0
  0
ARC
  5
267
330
61
100
AcDbEntity
  8
1
  6
Continuous
 62
     7
100
AcDbCircle
 10
320.5917193917886
 20
1045.054058108247
 30
0.0
 40
1.0
100
AcDbArc
 50
270.0
 51
0.0
  0
ARC
  5
268
330
61
100
AcDbEntity
  8
1
  6
Continuous
 62
     7
100
AcDbCircle
 10
299.0917193917888
 20
1168.388202796436
 30
0.0
 40
2.5
100
AcDbArc
 50
0.0
 51
51.31656311995453
  0
ARC
  5
269
330
61
100
AcDbEntity
  8
1
  6
Continuous
 62
     7
100
AcDbCircle
 10
324.0917193917888
 20
1168.388202796436
 30
0.0
 40
2.500000000000398
100
AcDbArc
 50
128.6834368800485
 51
180.0
  0
ARC
  5
26A
330
61
100
AcDbEntity
  8
1
  6
Continuous
 62
     7
100
AcDbCircle
 10
304.0917193917888
 20
1151.500000000001
 30
0.0
 40
2.5
100
AcDbArc
 50
180.0
 51
270.0
  0
ARC
  5
26B
330
61
100
AcDbEntity
  8
1
  6
Continuous
 62
     7
100
AcDbCircle
 10
319.0917193917888
 20
1151.500000000001
 30
0.0
 40
2.5
100
AcDbArc
 50
270.0
 51
0.0
  0
ARC
  5
26C
330
61
100
AcDbEntity
  8
1
  6
Continuous
 62
     7
100
AcDbCircle
 10
294.5917193917886
 20
1024.204478413338
 30
0.0
 40
0.5
100
AcDbArc
 50
180.0
 51
270.0
  0
ARC
  5
26D
330
61
100
AcDbEntity
  8
1
  6
Continuous
 62
     7
100
AcDbCircle
 10
302.5917193917886
 20
1047.302661500001
 30
0.0
 40
1.0
100
AcDbArc
 50
90.0
 51
180.0
  0
ARC
  5
26E
330
61
100
AcDbEntity
  8
1
  6
Continuous
 62
     7
100
AcDbCircle
 10
302.5917193917886
 20
1046.302427984457
 30
0.0
 40
1.0
100
AcDbArc
 50
180.0
 51
270.0
  0
ARC
  5
26F
330
61
100
AcDbEntity
  8
1
  6
Continuous
 62
     7
100
AcDbCircle
 10
320.5917193917886
 20
1046.302427984457
 30
0.0
 40
1.0
100
AcDbArc
 50
270.0
 51
0.0
  0
ARC
  5
270
330
61
100
AcDbEntity
  8
1
  6
Continuous
 62
     7
100
AcDbCircle
 10
320.5917193917886
 20
1047.302661500001
 30
0.0
 40
1.0
100
AcDbArc
 50
0.0
 51
90.0
  0
ARC
  5
271
330
61
100
AcDbEntity
  8
1
  6
Continuous
 62
     7
100
AcDbCircle
 10
295.0917193917886
 20
1047.302661500001
 30
0.0
 40
1.0
100
AcDbArc
 50
90.0
 51
180.0
  0
ARC
  5
272
330
61
100
AcDbEntity
  8
1
  6
Continuous
 62
     7
100
AcDbCircle
 10
328.0917193917886
 20
1047.302661500001
 30
0.0
 40
1.0
100
AcDbArc
 50
0.0
 51
90.0
  0
ARC
  5
273
330
61
100
AcDbEntity
  8
1
  6
Continuous
 62
     7
100
AcDbCircle
 10
712.2911746825031
 20
1042.319688265952
 30
0.0
 40
2.5
100
AcDbArc
 50
0.0
 51
43.92752774961275
  0
ARC
  5
274
330
61
100
AcDbEntity
  8
1
  6
Continuous
 62
     7
100
AcDbCircle
 10
715.2911746825031
 20
1024.204478413339
 30
0.0
 40
0.5
100
AcDbArc
 50
180.0
 51
270.0
  0
ARC
  5
275
330
61
100
AcDbEntity
  8
1
  6
Continuous
 62
     7
100
AcDbCircle
 10
712.2911746825031
 20
1042.319688265952
 30
0.0
 40
2.499999999999613
100
AcDbArc
 50
43.92752774961275
 51
89.45459723070506
  0
ARC
  5
276
330
61
100
AcDbEntity
  8
1
  6
Continuous
 62
     7
100
AcDbCircle
 10
697.1917193917884
 20
1045.896743552355
 30
0.0
 40
0.599999999999909
100
AcDbArc
 50
180.0
 51
269.4545972307182
  0
ARC
  5
277
330
61
100
AcDbEntity
  8
1
  6
Continuous
 62
     7
100
AcDbCircle
 10
697.1917193917884
 20
1047.7026615
 30
0.0
 40
0.6000000000010459
100
AcDbArc
 50
90.0
 51
180.0
  0
ENDBLK
  5
64
330
61
100
AcDbEntity
  8
0
100
AcDbBlockEnd
  0
BLOCK
  5
66
330
65
100
AcDbEntity
  8
0
100
AcDbBlockBegin
  2
73-1-32_5-C2
 70
     0
 10
598.3605951314333
 20
813.79271932828
 30
0.0
  3
73-1-32_5-C2
  1

  0
LINE
  5
278
330
65
100
AcDbEntity
  8
1
  6
Continuous
 62
     7
100
AcDbLine
 10
706.6029719241914
 20
871.7000000000004
 30
0.0
 11
715.5917193918018
 21
871.7000000000004
 31
0.0
  0
LINE
  5
279
330
65
100
AcDbEntity
  8
1
  6
Continuous
 62
     7
100
AcDbLine
 10
706.5917193918018
 20
871.2000000000007
 30
0.0
 11
706.6029719241914
 21
871.7000000000004
 31
0.0
  0
LINE
  5
27A
330
65
100
AcDbEntity
  8
1
  6
Continuous
 62
     7
100
AcDbLine
 10
717.1588034722923
 20
870.2000000000004
 30
0.0
 11
717.9088034722923
 21
870.2000000000004
 31
0.0
  0
LINE
  5
27B
330
65
100
AcDbEntity
  8
1
  6
Continuous
 62
     7
100
AcDbLine
 10
722.8258587985894
 20
870.2000000000004
 30
0.0
 11
724.1248969042662
 21
870.2000000000004
 31
0.0
  0
LINE
  5
27C
330
65
100
AcDbEntity
  8
1
  6
Continuous
 62
     7
100
AcDbLine
 10
730.8417193918018
 20
870.2000000000004
 30
0.0
 11
731.5917193918018
 21
870.2000000000004
 31
0.0
  0
LINE
  5
27D
330
65
100
AcDbEntity
  8
1
  6
Continuous
 62
     7
100
AcDbLine
 10
739.0585418793374
 20
870.2000000000004
 30
0.0
 11
740.357579985014
 21
870.2000000000004
 31
0.0
  0
LINE
  5
27E
330
65
100
AcDbEntity
  8
1
  6
Continuous
 62
     7
100
AcDbLine
 10
745.2746353113115
 20
870.2000000000004
 30
0.0
 11
746.0246353113115
 21
870.2000000000004
 31
0.0
  0
LINE
  5
27F
330
65
100
AcDbEntity
  8
1
  6
Continuous
 62
     7
100
AcDbLine
 10
717.9088034722923
 20
871.2000000000007
 30
0.0
 11
717.1588034722923
 21
871.2000000000007
 31
0.0
  0
LINE
  5
280
330
65
100
AcDbEntity
  8
1
  6
Continuous
 62
     7
100
AcDbLine
 10
724.1248969042662
 20
871.2000000000007
 30
0.0
 11
722.8258587985894
 21
871.2000000000007
 31
0.0
  0
LINE
  5
281
330
65
100
AcDbEntity
  8
1
  6
Continuous
 62
     7
100
AcDbLine
 10
731.5917193918018
 20
871.2000000000007
 30
0.0
 11
730.8417193918018
 21
871.2000000000007
 31
0.0
  0
LINE
  5
282
330
65
100
AcDbEntity
  8
1
  6
Continuous
 62
     7
100
AcDbLine
 10
732.3417193918018
 20
871.2000000000007
 30
0.0
 11
731.5917193918018
 21
871.2000000000007
 31
0.0
  0
LINE
  5
283
330
65
100
AcDbEntity
  8
1
  6
Continuous
 62
     7
100
AcDbLine
 10
740.357579985014
 20
871.2000000000007
 30
0.0
 11
739.0585418793374
 21
871.2000000000007
 31
0.0
  0
LINE
  5
284
330
65
100
AcDbEntity
  8
1
  6
Continuous
 62
     7
100
AcDbLine
 10
746.0246353113115
 20
871.2000000000007
 30
0.0
 11
745.2746353113115
 21
871.2000000000007
 31
0.0
  0
LINE
  5
285
330
65
100
AcDbEntity
  8
1
  6
Continuous
 62
     7
100
AcDbLine
 10
731.5917193918018
 20
870.2000000000004
 30
0.0
 11
732.3417193918018
 21
870.2000000000004
 31
0.0
  0
LINE
  5
286
330
65
100
AcDbEntity
  8
1
  6
Continuous
 62
     7
100
AcDbLine
 10
715.5917193918018
 20
871.7000000000004
 30
0.0
 11
753.7396351534586
 21
871.7000000000004
 31
0.0
  0
LINE
  5
287
330
65
100
AcDbEntity
  8
1
  6
Continuous
 62
     7
100
AcDbLine
 10
715.3417193918018
 20
870.2000000000004
 30
0.0
 11
747.8417193918018
 21
870.2000000000004
 31
0.0
  0
LINE
  5
288
330
65
100
AcDbEntity
  8
1
  6
Continuous
 62
     7
100
AcDbLine
 10
747.8417193918018
 20
871.2000000000007
 30
0.0
 11
751.3417193918018
 21
871.2000000000007
 31
0.0
  0
LINE
  5
289
330
65
100
AcDbEntity
  8
1
  6
Continuous
 62
     7
100
AcDbLine
 10
747.8417193918018
 20
870.2000000000004
 30
0.0
 11
751.3417193918018
 21
870.2000000000004
 31
0.0
  0
LINE
  5
28A
330
65
100
AcDbEntity
  8
1
  6
Continuous
 62
     7
100
AcDbLine
 10
756.5917193918018
 20
870.7000000000004
 30
0.0
 11
753.939795603155
 21
870.7000000000004
 31
0.0
  0
LINE
  5
28B
330
65
100
AcDbEntity
  8
1
  6
Continuous
 62
     7
100
AcDbLine
 10
756.5917193918018
 20
870.7000000000004
 30
0.0
 11
756.5917193918018
 21
871.7000000000007
 31
0.0
  0
LINE
  5
28C
330
65
100
AcDbEntity
  8
1
  6
Continuous
 62
     7
100
AcDbLine
 10
756.5917193918018
 20
871.7000000000007
 30
0.0
 11
753.7396351534586
 21
871.7000000000004
 31
0.0
  0
LINE
  5
28D
330
65
100
AcDbEntity
  8
1
  6
Continuous
 62
     7
100
AcDbLine
 10
709.0917193918018
 20
871.2000000000007
 30
0.0
 11
706.5917193918018
 21
871.2000000000007
 31
0.0
  0
LINE
  5
28E
330
65
100
AcDbEntity
  8
1
  6
Continuous
 62
     7
100
AcDbLine
 10
706.5917193918018
 20
870.2000000000004
 30
0.0
 11
706.5917193918018
 21
871.2000000000007
 31
0.0
  0
LINE
  5
28F
330
65
100
AcDbEntity
  8
1
  6
Continuous
 62
     7
100
AcDbLine
 10
706.5917193918018
 20
870.2000000000004
 30
0.0
 11
709.0917193918018
 21
870.2000000000004
 31
0.0
  0
LINE
  5
290
330
65
100
AcDbEntity
  8
1
  6
Continuous
 62
     7
100
AcDbLine
 10
711.8417193918018
 20
870.2000000000004
 30
0.0
 11
715.3417193918018
 21
870.2000000000004
 31
0.0
  0
LINE
  5
291
330
65
100
AcDbEntity
  8
1
  6
Continuous
 62
     7
100
AcDbLine
 10
711.8417193918018
 20
871.2000000000007
 30
0.0
 11
715.3417193918018
 21
871.2000000000007
 31
0.0
  0
LINE
  5
292
330
65
100
AcDbEntity
  8
1
  6
Continuous
 62
     7
100
AcDbLine
 10
291.8417193918017
 20
871.2000000000007
 30
0.0
 11
295.3417193918017
 21
871.2000000000007
 31
0.0
  0
LINE
  5
293
330
65
100
AcDbEntity
  8
1
  6
Continuous
 62
     7
100
AcDbLine
 10
291.8417193918017
 20
870.2000000000004
 30
0.0
 11
295.3417193918017
 21
870.2000000000004
 31
0.0
  0
LINE
  5
294
330
65
100
AcDbEntity
  8
1
  6
Continuous
 62
     7
100
AcDbLine
 10
286.5917193918017
 20
870.2000000000004
 30
0.0
 11
289.0917193918017
 21
870.2000000000004
 31
0.0
  0
LINE
  5
295
330
65
100
AcDbEntity
  8
1
  6
Continuous
 62
     7
100
AcDbLine
 10
286.5917193918017
 20
870.2000000000004
 30
0.0
 11
286.5917193918017
 21
871.2000000000007
 31
0.0
  0
LINE
  5
296
330
65
100
AcDbEntity
  8
1
  6
Continuous
 62
     7
100
AcDbLine
 10
289.0917193918017
 20
871.2000000000007
 30
0.0
 11
286.5917193918017
 21
871.2000000000007
 31
0.0
  0
LINE
  5
297
330
65
100
AcDbEntity
  8
1
  6
Continuous
 62
     7
100
AcDbLine
 10
336.5917193918017
 20
871.7000000000007
 30
0.0
 11
333.7396351534585
 21
871.7000000000004
 31
0.0
  0
LINE
  5
298
330
65
100
AcDbEntity
  8
1
  6
Continuous
 62
     7
100
AcDbLine
 10
336.5917193918017
 20
870.7000000000004
 30
0.0
 11
336.5917193918017
 21
871.7000000000007
 31
0.0
  0
LINE
  5
299
330
65
100
AcDbEntity
  8
1
  6
Continuous
 62
     7
100
AcDbLine
 10
336.5917193918017
 20
870.7000000000004
 30
0.0
 11
333.9397956031548
 21
870.7000000000004
 31
0.0
  0
LINE
  5
29A
330
65
100
AcDbEntity
  8
1
  6
Continuous
 62
     7
100
AcDbLine
 10
327.8417193918017
 20
870.2000000000004
 30
0.0
 11
331.3417193918017
 21
870.2000000000004
 31
0.0
  0
LINE
  5
29B
330
65
100
AcDbEntity
  8
1
  6
Continuous
 62
     7
100
AcDbLine
 10
327.8417193918017
 20
871.2000000000007
 30
0.0
 11
331.3417193918017
 21
871.2000000000007
 31
0.0
  0
LINE
  5
29C
330
65
100
AcDbEntity
  8
1
  6
Continuous
 62
     7
100
AcDbLine
 10
295.3417193918017
 20
870.2000000000004
 30
0.0
 11
327.8417193918017
 21
870.2000000000004
 31
0.0
  0
LINE
  5
29D
330
65
100
AcDbEntity
  8
1
  6
Continuous
 62
     7
100
AcDbLine
 10
295.5917193918017
 20
871.7000000000004
 30
0.0
 11
333.7396351534585
 21
871.7000000000004
 31
0.0
  0
LINE
  5
29E
330
65
100
AcDbEntity
  8
1
  6
Continuous
 62
     7
100
AcDbLine
 10
311.5917193918017
 20
870.2000000000004
 30
0.0
 11
312.3417193918017
 21
870.2000000000004
 31
0.0
  0
LINE
  5
29F
330
65
100
AcDbEntity
  8
1
  6
Continuous
 62
     7
100
AcDbLine
 10
326.0246353113114
 20
871.2000000000007
 30
0.0
 11
325.2746353113114
 21
871.2000000000007
 31
0.0
  0
LINE
  5
2A0
330
65
100
AcDbEntity
  8
1
  6
Continuous
 62
     7
100
AcDbLine
 10
320.3575799850139
 20
871.2000000000007
 30
0.0
 11
319.0585418793373
 21
871.2000000000007
 31
0.0
  0
LINE
  5
2A1
330
65
100
AcDbEntity
  8
1
  6
Continuous
 62
     7
100
AcDbLine
 10
312.3417193918017
 20
871.2000000000007
 30
0.0
 11
311.5917193918017
 21
871.2000000000007
 31
0.0
  0
LINE
  5
2A2
330
65
100
AcDbEntity
  8
1
  6
Continuous
 62
     7
100
AcDbLine
 10
311.5917193918017
 20
871.2000000000007
 30
0.0
 11
310.8417193918017
 21
871.2000000000007
 31
0.0
  0
LINE
  5
2A3
330
65
100
AcDbEntity
  8
1
  6
Continuous
 62
     7
100
AcDbLine
 10
304.1248969042661
 20
871.2000000000007
 30
0.0
 11
302.8258587985893
 21
871.2000000000007
 31
0.0
  0
LINE
  5
2A4
330
65
100
AcDbEntity
  8
1
  6
Continuous
 62
     7
100
AcDbLine
 10
297.9088034722922
 20
871.2000000000007
 30
0.0
 11
297.1588034722922
 21
871.2000000000007
 31
0.0
  0
LINE
  5
2A5
330
65
100
AcDbEntity
  8
1
  6
Continuous
 62
     7
100
AcDbLine
 10
325.2746353113114
 20
870.2000000000004
 30
0.0
 11
326.0246353113114
 21
870.2000000000004
 31
0.0
  0
LINE
  5
2A6
330
65
100
AcDbEntity
  8
1
  6
Continuous
 62
     7
100
AcDbLine
 10
319.0585418793373
 20
870.2000000000004
 30
0.0
 11
320.3575799850139
 21
870.2000000000004
 31
0.0
  0
LINE
  5
2A7
330
65
100
AcDbEntity
  8
1
  6
Continuous
 62
     7
100
AcDbLine
 10
310.8417193918017
 20
870.2000000000004
 30
0.0
 11
311.5917193918017
 21
870.2000000000004
 31
0.0
  0
LINE
  5
2A8
330
65
100
AcDbEntity
  8
1
  6
Continuous
 62
     7
100
AcDbLine
 10
302.8258587985893
 20
870.2000000000004
 30
0.0
 11
304.1248969042661
 21
870.2000000000004
 31
0.0
  0
LINE
  5
2A9
330
65
100
AcDbEntity
  8
1
  6
Continuous
 62
     7
100
AcDbLine
 10
297.1588034722922
 20
870.2000000000004
 30
0.0
 11
297.9088034722922
 21
870.2000000000004
 31
0.0
  0
LINE
  5
2AA
330
65
100
AcDbEntity
  8
1
  6
Continuous
 62
     7
100
AcDbLine
 10
286.5917193918017
 20
871.2000000000007
 30
0.0
 11
286.6029719241913
 21
871.7000000000004
 31
0.0
  0
LINE
  5
2AB
330
65
100
AcDbEntity
  8
1
  6
Continuous
 62
     7
100
AcDbLine
 10
286.6029719241913
 20
871.7000000000004
 30
0.0
 11
295.5917193918017
 21
871.7000000000004
 31
0.0
  0
ARC
  5
2AC
330
65
100
AcDbEntity
  8
1
  6
Continuous
 62
     7
100
AcDbCircle
 10
746.9284123218482
 20
871.0831289055349
 30
0.0
 40
0.6168710944655618
100
AcDbArc
 50
32.60202871134822
 51
147.9057037069254
  0
ARC
  5
2AD
330
65
100
AcDbEntity
  8
1
  6
Continuous
 62
     7
100
AcDbCircle
 10
746.0246353113115
 20
871.64994179031
 30
0.0
 40
1.449941790309595
100
AcDbArc
 50
270.0
 51
297.6999132239771
  0
ARC
  5
2AE
330
65
100
AcDbEntity
  8
1
  6
Continuous
 62
     7
100
AcDbCircle
 10
715.3417193918018
 20
871.667258709562
 30
0.0
 40
1.467258709561634
100
AcDbArc
 50
270.0
 51
297.5753084985826
  0
ARC
  5
2AF
330
65
100
AcDbEntity
  8
1
  6
Continuous
 62
     7
100
AcDbCircle
 10
717.1588034722923
 20
871.64994179031
 30
0.0
 40
1.449941790309638
100
AcDbArc
 50
242.3000867760149
 51
270.0
  0
ARC
  5
2B0
330
65
100
AcDbEntity
  8
1
  6
Continuous
 62
     7
100
AcDbCircle
 10
717.9088034722923
 20
872.4292638315748
 30
0.0
 40
2.229263831574372
100
AcDbArc
 50
270.0
 51
292.9913569710379
  0
ARC
  5
2B1
330
65
100
AcDbEntity
  8
1
  6
Continuous
 62
     7
100
AcDbCircle
 10
720.3673311354408
 20
866.6349055611076
 30
0.0
 40
4.065094438892864
100
AcDbArc
 50
67.00864302896039
 51
112.9913569710396
  0
ARC
  5
2B2
330
65
100
AcDbEntity
  8
1
  6
Continuous
 62
     7
100
AcDbCircle
 10
722.8258587985894
 20
872.4292638315748
 30
0.0
 40
2.229263831574202
100
AcDbArc
 50
247.0086430289621
 51
270.0
  0
ARC
  5
2B3
330
65
100
AcDbEntity
  8
1
  6
Continuous
 62
     7
100
AcDbCircle
 10
724.1248969042662
 20
872.8792056218844
 30
0.0
 40
2.679205621883966
100
AcDbArc
 50
270.0
 51
286.9359833827783
  0
ARC
  5
2B4
330
65
100
AcDbEntity
  8
1
  6
Continuous
 62
     7
100
AcDbCircle
 10
727.4833081480341
 20
861.8502795396182
 30
0.0
 40
8.849720460382345
100
AcDbArc
 50
73.06401661722397
 51
106.9359833827774
  0
ARC
  5
2B5
330
65
100
AcDbEntity
  8
1
  6
Continuous
 62
     7
100
AcDbCircle
 10
730.8417193918018
 20
872.8792056218844
 30
0.0
 40
2.679205621883759
100
AcDbArc
 50
253.0640166172217
 51
270.0
  0
ARC
  5
2B6
330
65
100
AcDbEntity
  8
1
  6
Continuous
 62
     7
100
AcDbCircle
 10
732.3417193918018
 20
872.8792056218844
 30
0.0
 40
2.679205621883966
100
AcDbArc
 50
270.0
 51
286.935983382783
  0
ARC
  5
2B7
330
65
100
AcDbEntity
  8
1
  6
Continuous
 62
     7
100
AcDbCircle
 10
739.0585418793374
 20
872.8792056218844
 30
0.0
 40
2.679205621883693
100
AcDbArc
 50
253.0640166172263
 51
270.0
  0
ARC
  5
2B8
330
65
100
AcDbEntity
  8
1
  6
Continuous
 62
     7
100
AcDbCircle
 10
735.7001306355695
 20
861.8502795396182
 30
0.0
 40
8.849720460382478
100
AcDbArc
 50
73.06401661722114
 51
106.9359833827746
  0
ARC
  5
2B9
330
65
100
AcDbEntity
  8
1
  6
Continuous
 62
     7
100
AcDbCircle
 10
740.3575799850142
 20
872.4292638315748
 30
0.0
 40
2.229263831574372
100
AcDbArc
 50
269.9999999999941
 51
292.9913569710379
  0
ARC
  5
2BA
330
65
100
AcDbEntity
  8
1
  6
Continuous
 62
     7
100
AcDbCircle
 10
742.8161076481628
 20
866.6349055611076
 30
0.0
 40
4.065094438892864
100
AcDbArc
 50
67.00864302896039
 51
112.9913569710396
  0
ARC
  5
2BB
330
65
100
AcDbEntity
  8
1
  6
Continuous
 62
     7
100
AcDbCircle
 10
745.2746353113115
 20
872.4292638315748
 30
0.0
 40
2.229263831574291
100
AcDbArc
 50
247.0086430289567
 51
270.0
  0
ARC
  5
2BC
330
65
100
AcDbEntity
  8
1
  6
Continuous
 62
     7
100
AcDbCircle
 10
715.3417193918018
 20
871.667258709562
 30
0.0
 40
0.4672587095612926
100
AcDbArc
 50
270.0
 51
327.3979712886579
  0
ARC
  5
2BD
330
65
100
AcDbEntity
  8
1
  6
Continuous
 62
     7
100
AcDbCircle
 10
716.2550264617552
 20
871.0831289055349
 30
0.0
 40
0.6168710944656665
100
AcDbArc
 50
32.09429629306339
 51
147.3979712886404
  0
ARC
  5
2BE
330
65
100
AcDbEntity
  8
1
  6
Continuous
 62
     7
100
AcDbCircle
 10
717.1588034722923
 20
871.64994179031
 30
0.0
 40
0.4499417903096316
100
AcDbArc
 50
212.0942962930504
 51
270.0
  0
ARC
  5
2BF
330
65
100
AcDbEntity
  8
1
  6
Continuous
 62
     7
100
AcDbCircle
 10
717.9088034722923
 20
872.4292638315748
 30
0.0
 40
1.229263831574031
100
AcDbArc
 50
270.0
 51
292.9913569710356
  0
ARC
  5
2C0
330
65
100
AcDbEntity
  8
1
  6
Continuous
 62
     7
100
AcDbCircle
 10
720.3673311354408
 20
866.6349055611076
 30
0.0
 40
5.065094438892787
100
AcDbArc
 50
67.00864302896015
 51
112.9913569710398
  0
ARC
  5
2C1
330
65
100
AcDbEntity
  8
1
  6
Continuous
 62
     7
100
AcDbCircle
 10
722.8258587985894
 20
872.4292638315748
 30
0.0
 40
1.229263831574279
100
AcDbArc
 50
247.0086430289644
 51
270.0
  0
ARC
  5
2C2
330
65
100
AcDbEntity
  8
1
  6
Continuous
 62
     7
100
AcDbCircle
 10
724.1248969042662
 20
872.8792056218844
 30
0.0
 40
1.679205621883625
100
AcDbArc
 50
270.0
 51
286.9359833827797
  0
ARC
  5
2C3
330
65
100
AcDbEntity
  8
1
  6
Continuous
 62
     7
100
AcDbCircle
 10
727.4833081480341
 20
861.8502795396182
 30
0.0
 40
9.84972046038209
100
AcDbArc
 50
73.06401661722272
 51
106.9359833827773
  0
ARC
  5
2C4
330
65
100
AcDbEntity
  8
1
  6
Continuous
 62
     7
100
AcDbCircle
 10
730.8417193918018
 20
872.8792056218844
 30
0.0
 40
1.679205621884015
100
AcDbArc
 50
253.0640166172276
 51
270.0
  0
ARC
  5
2C5
330
65
100
AcDbEntity
  8
1
  6
Continuous
 62
     7
100
AcDbCircle
 10
732.3417193918018
 20
872.8792056218844
 30
0.0
 40
1.679205621883625
100
AcDbArc
 50
270.0
 51
286.9359833827797
  0
ARC
  5
2C6
330
65
100
AcDbEntity
  8
1
  6
Continuous
 62
     7
100
AcDbCircle
 10
735.7001306355695
 20
861.8502795396182
 30
0.0
 40
9.849720460382155
100
AcDbArc
 50
73.06401661722145
 51
106.935983382776
  0
ARC
  5
2C7
330
65
100
AcDbEntity
  8
1
  6
Continuous
 62
     7
100
AcDbCircle
 10
739.0585418793374
 20
872.8792056218844
 30
0.0
 40
1.679205621884015
100
AcDbArc
 50
253.0640166172276
 51
270.0
  0
ARC
  5
2C8
330
65
100
AcDbEntity
  8
1
  6
Continuous
 62
     7
100
AcDbCircle
 10
740.3575799850142
 20
872.4292638315748
 30
0.0
 40
1.229263831574031
100
AcDbArc
 50
269.9999999999894
 51
292.9913569710356
  0
ARC
  5
2C9
330
65
100
AcDbEntity
  8
1
  6
Continuous
 62
     7
100
AcDbCircle
 10
742.8161076481628
 20
866.6349055611076
 30
0.0
 40
5.065094438892787
100
AcDbArc
 50
67.00864302896015
 51
112.9913569710398
  0
ARC
  5
2CA
330
65
100
AcDbEntity
  8
1
  6
Continuous
 62
     7
100
AcDbCircle
 10
745.2746353113115
 20
872.4292638315748
 30
0.0
 40
1.229263831574367
100
AcDbArc
 50
247.0086430289547
 51
270.0
  0
ARC
  5
2CB
330
65
100
AcDbEntity
  8
1
  6
Continuous
 62
     7
100
AcDbCircle
 10
746.0246353113115
 20
871.64994179031
 30
0.0
 40
0.4499417903092535
100
AcDbArc
 50
270.0
 51
327.9057037069342
  0
ARC
  5
2CC
330
65
100
AcDbEntity
  8
1
  6
Continuous
 62
     7
100
AcDbCircle
 10
747.8417193918018
 20
871.667258709562
 30
0.0
 40
0.4672587095616197
100
AcDbArc
 50
212.6020287113421
 51
270.0
  0
ARC
  5
2CD
330
65
100
AcDbEntity
  8
1
  6
Continuous
 62
     7
100
AcDbCircle
 10
747.8417193918018
 20
871.667258709562
 30
0.0
 40
1.467258709561611
100
AcDbArc
 50
242.4246915014174
 51
270.0
  0
ARC
  5
2CE
330
65
100
AcDbEntity
  8
1
  6
Continuous
 62
     7
100
AcDbCircle
 10
751.3417193918018
 20
874.2000000000004
 30
0.0
 40
4.0
100
AcDbArc
 50
270.0
 51
291.7867892982621
  0
ARC
  5
2CF
330
65
100
AcDbEntity
  8
1
  6
Continuous
 62
     7
100
AcDbCircle
 10
751.3417193918018
 20
874.2000000000004
 30
0.0
 40
2.999999999999659
100
AcDbArc
 50
270.0
 51
293.5564643091091
  0
ARC
  5
2D0
330
65
100
AcDbEntity
  8
1
  6
Continuous
 62
     7
100
AcDbCircle
 10
709.0917193918018
 20
873.2000000000004
 30
0.0
 40
1.999999999999659
100
AcDbArc
 50
270.0
 51
285.204838578393
  0
ARC
  5
2D1
330
65
100
AcDbEntity
  8
1
  6
Continuous
 62
     7
100
AcDbCircle
 10
709.0917193918018
 20
873.2000000000004
 30
0.0
 40
3.0
100
AcDbArc
 50
270.0
 51
285.2048385783927
  0
ARC
  5
2D2
330
65
100
AcDbEntity
  8
1
  6
Continuous
 62
     7
100
AcDbCircle
 10
710.4030727543194
 20
868.3750282530765
 30
0.0
 40
2.000000000000212
100
AcDbArc
 50
76.12677200855396
 51
105.204838578393
  0
ARC
  5
2D3
330
65
100
AcDbEntity
  8
1
  6
Continuous
 62
     7
100
AcDbCircle
 10
711.8417193918018
 20
874.2000000000004
 30
0.0
 40
3.999999999999873
100
AcDbArc
 50
256.126772008552
 51
270.0
  0
ARC
  5
2D4
330
65
100
AcDbEntity
  8
1
  6
Continuous
 62
     7
100
AcDbCircle
 10
711.8417193918018
 20
874.2000000000004
 30
0.0
 40
3.000000000000126
100
AcDbArc
 50
256.1267720085553
 51
270.0
  0
ARC
  5
2D5
330
65
100
AcDbEntity
  8
1
  6
Continuous
 62
     7
100
AcDbCircle
 10
710.4030727543194
 20
868.3750282530765
 30
0.0
 40
2.99999999999996
100
AcDbArc
 50
76.12677200855002
 51
105.2048385783927
  0
ARC
  5
2D6
330
65
100
AcDbEntity
  8
1
  6
Continuous
 62
     7
100
AcDbCircle
 10
290.4030727543193
 20
868.3750282530765
 30
0.0
 40
2.99999999999996
100
AcDbArc
 50
76.12677200855002
 51
105.2048385783927
  0
ARC
  5
2D7
330
65
100
AcDbEntity
  8
1
  6
Continuous
 62
     7
100
AcDbCircle
 10
291.8417193918017
 20
874.2000000000004
 30
0.0
 40
3.000000000000126
100
AcDbArc
 50
256.1267720085553
 51
270.0
  0
ARC
  5
2D8
330
65
100
AcDbEntity
  8
1
  6
Continuous
 62
     7
100
AcDbCircle
 10
291.8417193918017
 20
874.2000000000004
 30
0.0
 40
3.999999999999873
100
AcDbArc
 50
256.126772008552
 51
270.0
  0
ARC
  5
2D9
330
65
100
AcDbEntity
  8
1
  6
Continuous
 62
     7
100
AcDbCircle
 10
290.4030727543193
 20
868.3750282530765
 30
0.0
 40
2.000000000000212
100
AcDbArc
 50
76.12677200855396
 51
105.2048385783914
  0
ARC
  5
2DA
330
65
100
AcDbEntity
  8
1
  6
Continuous
 62
     7
100
AcDbCircle
 10
289.0917193918017
 20
873.2000000000004
 30
0.0
 40
3.0
100
AcDbArc
 50
270.0
 51
285.2048385783938
  0
ARC
  5
2DB
330
65
100
AcDbEntity
  8
1
  6
Continuous
 62
     7
100
AcDbCircle
 10
289.0917193918017
 20
873.2000000000004
 30
0.0
 40
1.999999999999659
100
AcDbArc
 50
270.0
 51
285.204838578393
  0
ARC
  5
2DC
330
65
100
AcDbEntity
  8
1
  6
Continuous
 62
     7
100
AcDbCircle
 10
331.3417193918017
 20
874.2000000000004
 30
0.0
 40
2.999999999999659
100
AcDbArc
 50
270.0
 51
293.5564643091091
  0
ARC
  5
2DD
330
65
100
AcDbEntity
  8
1
  6
Continuous
 62
     7
100
AcDbCircle
 10
331.3417193918017
 20
874.2000000000004
 30
0.0
 40
4.0
100
AcDbArc
 50
270.0
 51
291.7867892982628
  0
ARC
  5
2DE
330
65
100
AcDbEntity
  8
1
  6
Continuous
 62
     7
100
AcDbCircle
 10
327.8417193918017
 20
871.667258709562
 30
0.0
 40
1.467258709561584
100
AcDbArc
 50
242.4246915014194
 51
270.0
  0
ARC
  5
2DF
330
65
100
AcDbEntity
  8
1
  6
Continuous
 62
     7
100
AcDbCircle
 10
327.8417193918017
 20
871.667258709562
 30
0.0
 40
0.4672587095616676
100
AcDbArc
 50
212.6020287113383
 51
270.0
  0
ARC
  5
2E0
330
65
100
AcDbEntity
  8
1
  6
Continuous
 62
     7
100
AcDbCircle
 10
326.0246353113114
 20
871.64994179031
 30
0.0
 40
0.4499417903092535
100
AcDbArc
 50
270.0
 51
327.9057037069304
  0
ARC
  5
2E1
330
65
100
AcDbEntity
  8
1
  6
Continuous
 62
     7
100
AcDbCircle
 10
325.2746353113114
 20
872.4292638315748
 30
0.0
 40
1.229263831574367
100
AcDbArc
 50
247.0086430289547
 51
270.0
  0
ARC
  5
2E2
330
65
100
AcDbEntity
  8
1
  6
Continuous
 62
     7
100
AcDbCircle
 10
322.8161076481626
 20
866.6349055611076
 30
0.0
 40
5.065094438892809
100
AcDbArc
 50
67.00864302895957
 51
112.9913569710393
  0
ARC
  5
2E3
330
65
100
AcDbEntity
  8
1
  6
Continuous
 62
     7
100
AcDbCircle
 10
320.3575799850141
 20
872.4292638315748
 30
0.0
 40
1.229263831574031
100
AcDbArc
 50
269.9999999999894
 51
292.9913569710356
  0
ARC
  5
2E4
330
65
100
AcDbEntity
  8
1
  6
Continuous
 62
     7
100
AcDbCircle
 10
319.0585418793373
 20
872.8792056218844
 30
0.0
 40
1.679205621883999
100
AcDbArc
 50
253.0640166172295
 51
270.0
  0
ARC
  5
2E5
330
65
100
AcDbEntity
  8
1
  6
Continuous
 62
     7
100
AcDbCircle
 10
315.7001306355694
 20
861.8502795396182
 30
0.0
 40
9.849720460382173
100
AcDbArc
 50
73.06401661722114
 51
106.935983382776
  0
ARC
  5
2E6
330
65
100
AcDbEntity
  8
1
  6
Continuous
 62
     7
100
AcDbCircle
 10
312.3417193918017
 20
872.8792056218844
 30
0.0
 40
1.679205621883625
100
AcDbArc
 50
270.0
 51
286.9359833827797
  0
ARC
  5
2E7
330
65
100
AcDbEntity
  8
1
  6
Continuous
 62
     7
100
AcDbCircle
 10
310.8417193918017
 20
872.8792056218844
 30
0.0
 40
1.679205621884015
100
AcDbArc
 50
253.0640166172276
 51
270.0
  0
ARC
  5
2E8
330
65
100
AcDbEntity
  8
1
  6
Continuous
 62
     7
100
AcDbCircle
 10
307.483308148034
 20
861.8502795396182
 30
0.0
 40
9.84972046038209
100
AcDbArc
 50
73.06401661722272
 51
106.935983382777
  0
ARC
  5
2E9
330
65
100
AcDbEntity
  8
1
  6
Continuous
 62
     7
100
AcDbCircle
 10
304.1248969042661
 20
872.8792056218844
 30
0.0
 40
1.679205621883625
100
AcDbArc
 50
270.0
 51
286.9359833827797
  0
ARC
  5
2EA
330
65
100
AcDbEntity
  8
1
  6
Continuous
 62
     7
100
AcDbCircle
 10
302.8258587985893
 20
872.4292638315748
 30
0.0
 40
1.229263831574301
100
AcDbArc
 50
247.0086430289619
 51
270.0
  0
ARC
  5
2EB
330
65
100
AcDbEntity
  8
1
  6
Continuous
 62
     7
100
AcDbCircle
 10
300.3673311354407
 20
866.6349055611076
 30
0.0
 40
5.065094438892809
100
AcDbArc
 50
67.00864302895957
 51
112.9913569710393
  0
ARC
  5
2EC
330
65
100
AcDbEntity
  8
1
  6
Continuous
 62
     7
100
AcDbCircle
 10
297.9088034722922
 20
872.4292638315748
 30
0.0
 40
1.229263831574031
100
AcDbArc
 50
270.0
 51
292.9913569710356
  0
ARC
  5
2ED
330
65
100
AcDbEntity
  8
1
  6
Continuous
 62
     7
100
AcDbCircle
 10
297.1588034722922
 20
871.64994179031
 30
0.0
 40
0.4499417903096797
100
AcDbArc
 50
212.0942962930466
 51
270.0
  0
ARC
  5
2EE
330
65
100
AcDbEntity
  8
1
  6
Continuous
 62
     7
100
AcDbCircle
 10
296.2550264617551
 20
871.0831289055349
 30
0.0
 40
0.6168710944655701
100
AcDbArc
 50
32.094296293069
 51
147.3979712886461
  0
ARC
  5
2EF
330
65
100
AcDbEntity
  8
1
  6
Continuous
 62
     7
100
AcDbCircle
 10
295.3417193918017
 20
871.667258709562
 30
0.0
 40
0.4672587095612926
100
AcDbArc
 50
270.0
 51
327.3979712886542
  0
ARC
  5
2F0
330
65
100
AcDbEntity
  8
1
  6
Continuous
 62
     7
100
AcDbCircle
 10
325.2746353113114
 20
872.4292638315748
 30
0.0
 40
2.229263831574291
100
AcDbArc
 50
247.0086430289567
 51
270.0
  0
ARC
  5
2F1
330
65
100
AcDbEntity
  8
1
  6
Continuous
 62
     7
100
AcDbCircle
 10
322.8161076481626
 20
866.6349055611076
 30
0.0
 40
4.065094438892887
100
AcDbArc
 50
67.00864302895965
 51
112.9913569710381
  0
ARC
  5
2F2
330
65
100
AcDbEntity
  8
1
  6
Continuous
 62
     7
100
AcDbCircle
 10
320.3575799850141
 20
872.4292638315748
 30
0.0
 40
2.229263831574372
100
AcDbArc
 50
269.9999999999941
 51
292.9913569710393
  0
ARC
  5
2F3
330
65
100
AcDbEntity
  8
1
  6
Continuous
 62
     7
100
AcDbCircle
 10
315.7001306355694
 20
861.8502795396182
 30
0.0
 40
8.849720460382494
100
AcDbArc
 50
73.06401661722082
 51
106.9359833827746
  0
ARC
  5
2F4
330
65
100
AcDbEntity
  8
1
  6
Continuous
 62
     7
100
AcDbCircle
 10
319.0585418793373
 20
872.8792056218844
 30
0.0
 40
2.679205621883676
100
AcDbArc
 50
253.0640166172275
 51
270.0
  0
ARC
  5
2F5
330
65
100
AcDbEntity
  8
1
  6
Continuous
 62
     7
100
AcDbCircle
 10
312.3417193918017
 20
872.8792056218844
 30
0.0
 40
2.679205621883966
100
AcDbArc
 50
270.0
 51
286.935983382783
  0
ARC
  5
2F6
330
65
100
AcDbEntity
  8
1
  6
Continuous
 62
     7
100
AcDbCircle
 10
310.8417193918017
 20
872.8792056218844
 30
0.0
 40
2.679205621883759
100
AcDbArc
 50
253.0640166172217
 51
270.0
  0
ARC
  5
2F7
330
65
100
AcDbEntity
  8
1
  6
Continuous
 62
     7
100
AcDbCircle
 10
307.483308148034
 20
861.8502795396182
 30
0.0
 40
8.849720460382345
100
AcDbArc
 50
73.06401661722397
 51
106.9359833827771
  0
ARC
  5
2F8
330
65
100
AcDbEntity
  8
1
  6
Continuous
 62
     7
100
AcDbCircle
 10
304.1248969042661
 20
872.8792056218844
 30
0.0
 40
2.679205621883966
100
AcDbArc
 50
270.0
 51
286.9359833827783
  0
ARC
  5
2F9
330
65
100
AcDbEntity
  8
1
  6
Continuous
 62
     7
100
AcDbCircle
 10
302.8258587985893
 20
872.4292638315748
 30
0.0
 40
2.229263831574224
100
AcDbArc
 50
247.0086430289607
 51
270.0
  0
ARC
  5
2FA
330
65
100
AcDbEntity
  8
1
  6
Continuous
 62
     7
100
AcDbCircle
 10
300.3673311354407
 20
866.6349055611076
 30
0.0
 40
4.065094438892887
100
AcDbArc
 50
67.00864302895965
 51
112.9913569710381
  0
ARC
  5
2FB
330
65
100
AcDbEntity
  8
1
  6
Continuous
 62
     7
100
AcDbCircle
 10
297.9088034722922
 20
872.4292638315748
 30
0.0
 40
2.229263831574372
100
AcDbArc
 50
270.0
 51
292.9913569710393
  0
ARC
  5
2FC
330
65
100
AcDbEntity
  8
1
  6
Continuous
 62
     7
100
AcDbCircle
 10
297.1588034722922
 20
871.64994179031
 30
0.0
 40
1.449941790309638
100
AcDbArc
 50
242.3000867760149
 51
270.0
  0
ARC
  5
2FD
330
65
100
AcDbEntity
  8
1
  6
Continuous
 62
     7
100
AcDbCircle
 10
295.3417193918017
 20
871.667258709562
 30
0.0
 40
1.467258709561634
100
AcDbArc
 50
270.0
 51
297.5753084985826
  0
ARC
  5
2FE
330
65
100
AcDbEntity
  8
1
  6
Continuous
 62
     7
100
AcDbCircle
 10
326.0246353113114
 20
871.64994179031
 30
0.0
 40
1.449941790309595
100
AcDbArc
 50
270.0
 51
297.6999132239791
  0
ARC
  5
2FF
330
65
100
AcDbEntity
  8
1
  6
Continuous
 62
     7
100
AcDbCircle
 10
326.9284123218481
 20
871.0831289055349
 30
0.0
 40
0.6168710944655139
100
AcDbArc
 50
32.60202871135106
 51
147.9057037069282
  0
ARC
  5
300
330
65
100
AcDbEntity
  8
1
  6
Continuous
 62
     7
100
AcDbCircle
 10
746.9310476273821
 20
869.9234743857896
 30
0.0
 40
0.4999999999999003
100
AcDbArc
 50
62.42469150143524
 51
117.6999132239988
  0
ARC
  5
301
330
65
100
AcDbEntity
  8
1
  6
Continuous
 62
     7
100
AcDbCircle
 10
716.2523911562217
 20
869.9234743857896
 30
0.0
 40
0.4999999999999346
100
AcDbArc
 50
62.30008677602427
 51
117.5753084985879
  0
ARC
  5
302
330
65
100
AcDbEntity
  8
1
  6
Continuous
 62
     7
100
AcDbCircle
 10
753.939795603155
 20
867.7000000000004
 30
0.0
 40
3.0
100
AcDbArc
 50
90.0
 51
111.7867892982585
  0
ARC
  5
303
330
65
100
AcDbEntity
  8
1
  6
Continuous
 62
     7
100
AcDbCircle
 10
753.7396351534586
 20
868.7000000000004
 30
0.0
 40
3.0
100
AcDbArc
 50
90.0
 51
113.5564643091011
  0
ARC
  5
304
330
65
100
AcDbEntity
  8
1
  6
Continuous
 62
     7
100
AcDbCircle
 10
333.7396351534585
 20
868.7000000000004
 30
0.0
 40
3.0
100
AcDbArc
 50
90.0
 51
113.5564643091011
  0
ARC
  5
305
330
65
100
AcDbEntity
  8
1
  6
Continuous
 62
     7
100
AcDbCircle
 10
333.9397956031548
 20
867.7000000000004
 30
0.0
 40
3.0
100
AcDbArc
 50
90.0
 51
111.7867892982564
  0
ARC
  5
306
330
65
100
AcDbEntity
  8
1
  6
Continuous
 62
     7
100
AcDbCircle
 10
296.2523911562216
 20
869.9234743857896
 30
0.0
 40
0.4999999999999346
100
AcDbArc
 50
62.30008677602427
 51
117.5753084985879
  0
ARC
  5
307
330
65
100
AcDbEntity
  8
1
  6
Continuous
 62
     7
100
AcDbCircle
 10
326.931047627382
 20
869.9234743857896
 30
0.0
 40
0.4999999999999266
100
AcDbArc
 50
62.42469150142946
 51
117.6999132239931
  0
ENDBLK
  5
67
330
65
100
AcDbEntity
  8
0
100
AcDbBlockEnd
  0
BLOCK
  5
69
330
68
100
AcDbEntity
  8
0
100
AcDbBlockBegin
  2
32-33-32
 70
     0
 10
610.045328859244
 20
789.4495240620078
 30
0.0
  3
32-33-32
  1

  0
LINE
  5
308
330
68
100
AcDbEntity
  8
1
  6
Continuous
 62
     7
100
AcDbLine
 10
290.8071097009752
 20
864.2000000000004
 30
0.0
 11
290.8071097009752
 21
870.2000000000004
 31
0.0
  0
LINE
  5
309
330
68
100
AcDbEntity
  8
1
  6
Continuous
 62
     7
100
AcDbLine
 10
290.8071097009752
 20
864.2000000000004
 30
0.0
 11
332.3763290826282
 21
864.2000000000004
 31
0.0
  0
LINE
  5
30A
330
68
100
AcDbEntity
  8
1
  6
Continuous
 62
     7
100
AcDbLine
 10
301.1994145463884
 20
864.2000000000004
 30
0.0
 11
301.1994145463884
 21
870.2000000000004
 31
0.0
  0
LINE
  5
30B
330
68
100
AcDbEntity
  8
1
  6
Continuous
 62
     7
100
AcDbLine
 10
321.984024237215
 20
870.2000000000004
 30
0.0
 11
321.984024237215
 21
864.2000000000004
 31
0.0
  0
LINE
  5
30C
330
68
100
AcDbEntity
  8
1
  6
Continuous
 62
     7
100
AcDbLine
 10
332.3763290826282
 20
870.2000000000004
 30
0.0
 11
332.3763290826282
 21
864.2000000000004
 31
0.0
  0
LINE
  5
30D
330
68
100
AcDbEntity
  8
0
  6
Continuous
 62
     7
100
AcDbLine
 10
291.8417193918017
 20
870.2000000000004
 30
0.0
 11
290.8071097009752
 21
870.2000000000004
 31
0.0
  0
LINE
  5
30E
330
68
100
AcDbEntity
  8
0
  6
Continuous
 62
     7
100
AcDbLine
 10
331.3417193918017
 20
870.2000000000004
 30
0.0
 11
332.3763290826282
 21
870.2000000000004
 31
0.0
  0
LINE
  5
30F
330
68
100
AcDbEntity
  8
1
  6
Continuous
 62
     7
100
AcDbLine
 10
749.5917193917884
 20
864.2000000000004
 30
0.0
 11
713.5917193917884
 21
864.2000000000004
 31
0.0
  0
LINE
  5
310
330
68
100
AcDbEntity
  8
1
  6
Continuous
 62
     7
100
AcDbLine
 10
713.5917193917884
 20
864.2000000000004
 30
0.0
 11
713.5917193917884
 21
870.2000000000004
 31
0.0
  0
LINE
  5
311
330
68
100
AcDbEntity
  8
1
  6
Continuous
 62
     7
100
AcDbLine
 10
749.5917193917884
 20
870.2000000000004
 30
0.0
 11
749.5917193917884
 21
864.2000000000004
 31
0.0
  0
LINE
  5
312
330
68
100
AcDbEntity
  8
1
  6
Continuous
 62
     7
100
AcDbLine
 10
749.5917193917884
 20
870.2000000000004
 30
0.0
 11
713.5917193917884
 21
870.2000000000004
 31
0.0
  0
ENDBLK
  5
6A
330
68
100
AcDbEntity
  8
0
100
AcDbBlockEnd
  0
BLOCK
  5
6C
330
6B
100
AcDbEntity
  8
0
100
AcDbBlockBegin
  2
35-338-M11
 70
     0
 10
1146.330860123494
 20
1502.432947233518
 30
0.0
  3
35-338-M11
  1

  0
LINE
  5
313
330
6B
100
AcDbEntity
  8
1
  6
Continuous
 62
     7
100
AcDbLine
 10
295.5917193918017
 20
864.2000000000005
 30
0.0
 11
295.5917193918017
 21
846.6999999999997
 31
0.0
  0
LINE
  5
314
330
6B
100
AcDbEntity
  8
1
  6
Continuous
 62
     7
100
AcDbLine
 10
289.3917193917755
 20
893.2
 30
0.0
 11
333.7917193918017
 21
893.2
 31
0.0
  0
LINE
  5
315
330
6B
100
AcDbEntity
  8
1
  6
Continuous
 62
     7
100
AcDbLine
 10
333.7917193918017
 20
891.2
 30
0.0
 11
289.3917193917755
 21
891.2
 31
0.0
  0
LINE
  5
316
330
6B
100
AcDbEntity
  8
1
  6
Continuous
 62
     7
100
AcDbLine
 10
289.0917193917755
 20
891.5
 30
0.0
 11
289.3917193917755
 21
891.2
 31
0.0
  0
LINE
  5
317
330
6B
100
AcDbEntity
  8
1
  6
Continuous
 62
     7
100
AcDbLine
 10
289.3917193917755
 20
893.2
 30
0.0
 11
289.0917193917755
 21
892.9
 31
0.0
  0
LINE
  5
318
330
6B
100
AcDbEntity
  8
1
  6
Continuous
 62
     7
100
AcDbLine
 10
289.0917193917755
 20
891.5
 30
0.0
 11
289.0917193917755
 21
892.9
 31
0.0
  0
LINE
  5
319
330
6B
100
AcDbEntity
  8
1
  6
Continuous
 62
     7
100
AcDbLine
 10
295.5917193918017
 20
888.7000000000002
 30
0.0
 11
295.5917193918017
 21
873.2000000000003
 31
0.0
  0
LINE
  5
31A
330
6B
100
AcDbEntity
  8
1
  6
Continuous
 62
     7
100
AcDbLine
 10
327.5917193918017
 20
846.6999999999999
 30
0.0
 11
327.5917193918017
 21
864.2000000000005
 31
0.0
  0
LINE
  5
31B
330
6B
100
AcDbEntity
  8
1
  6
Continuous
 62
     7
100
AcDbLine
 10
334.0917193918017
 20
892.9
 30
0.0
 11
334.0917193918017
 21
891.5
 31
0.0
  0
LINE
  5
31C
330
6B
100
AcDbEntity
  8
1
  6
Continuous
 62
     7
100
AcDbLine
 10
334.0917193918017
 20
892.9
 30
0.0
 11
333.7917193918017
 21
893.2
 31
0.0
  0
LINE
  5
31D
330
6B
100
AcDbEntity
  8
1
  6
Continuous
 62
     7
100
AcDbLine
 10
333.7917193918017
 20
891.2
 30
0.0
 11
334.0917193918017
 21
891.5
 31
0.0
  0
LINE
  5
31E
330
6B
100
AcDbEntity
  8
1
  6
Continuous
 62
     7
100
AcDbLine
 10
327.5917193918017
 20
846.6999999999999
 30
0.0
 11
326.7797193918018
 21
845.8879999999998
 31
0.0
  0
LINE
  5
31F
330
6B
100
AcDbEntity
  8
1
  6
Continuous
 62
     2
100
AcDbLine
 10
326.7797193918018
 20
888.7000000000002
 30
0.0
 11
326.7797193918018
 21
873.2000000000003
 31
0.0
  0
LINE
  5
320
330
6B
100
AcDbEntity
  8
1
  6
Continuous
 62
     7
100
AcDbLine
 10
296.4037193918018
 20
845.8879999999996
 30
0.0
 11
295.5917193918017
 21
846.6999999999997
 31
0.0
  0
LINE
  5
321
330
6B
100
AcDbEntity
  8
1
  6
Continuous
 62
     7
100
AcDbLine
 10
297.9917193918018
 20
845.6999999999999
 30
0.0
 11
326.5917193918017
 21
845.6999999999999
 31
0.0
  0
LINE
  5
322
330
6B
100
AcDbEntity
  8
1
  6
Continuous
 62
     7
100
AcDbLine
 10
326.7797193918018
 20
845.8879999999998
 30
0.0
 11
326.5917193918017
 21
845.6999999999999
 31
0.0
  0
LINE
  5
323
330
6B
100
AcDbEntity
  8
1
  6
Continuous
 62
     7
100
AcDbLine
 10
296.5917193918017
 20
845.6999999999999
 30
0.0
 11
297.9917193918018
 21
845.6999999999999
 31
0.0
  0
LINE
  5
324
330
6B
100
AcDbEntity
  8
1
  6
Continuous
 62
     7
100
AcDbLine
 10
296.5917193918017
 20
845.6999999999999
 30
0.0
 11
296.4037193918018
 21
845.8879999999996
 31
0.0
  0
LINE
  5
325
330
6B
100
AcDbEntity
  8
1
  6
Continuous
 62
     2
100
AcDbLine
 10
296.4037193918018
 20
845.8879999999996
 30
0.0
 11
296.4037193918018
 21
864.2000000000005
 31
0.0
  0
LINE
  5
326
330
6B
100
AcDbEntity
  8
1
  6
Continuous
 62
     7
100
AcDbLine
 10
295.5917193918017
 20
846.6999999999997
 30
0.0
 11
327.5917193918017
 21
846.6999999999999
 31
0.0
  0
LINE
  5
327
330
6B
100
AcDbEntity
  8
1
  6
Continuous
 62
     7
100
AcDbLine
 10
327.5917193918017
 20
873.2000000000003
 30
0.0
 11
327.5917193918017
 21
888.7000000000002
 31
0.0
  0
LINE
  5
328
330
6B
100
AcDbEntity
  8
1
  6
Continuous
 62
     2
100
AcDbLine
 10
326.7797193918018
 20
864.2000000000005
 30
0.0
 11
326.7797193918018
 21
845.8879999999998
 31
0.0
  0
LINE
  5
329
330
6B
100
AcDbEntity
  8
1
  6
Continuous
 62
     2
100
AcDbLine
 10
296.4037193918018
 20
873.2000000000003
 30
0.0
 11
296.4037193918018
 21
888.7000000000002
 31
0.0
  0
LINE
  5
32A
330
6B
100
AcDbEntity
  8
1
  6
Continuous
 62
     2
100
AcDbLine
 10
716.4037193918019
 20
873.2000000000003
 30
0.0
 11
716.4037193918019
 21
888.7000000000002
 31
0.0
  0
LINE
  5
32B
330
6B
100
AcDbEntity
  8
1
  6
Continuous
 62
     2
100
AcDbLine
 10
746.7797193918019
 20
864.2000000000005
 30
0.0
 11
746.7797193918019
 21
845.8879999999998
 31
0.0
  0
LINE
  5
32C
330
6B
100
AcDbEntity
  8
1
  6
Continuous
 62
     7
100
AcDbLine
 10
747.5917193918018
 20
873.2000000000003
 30
0.0
 11
747.5917193918018
 21
888.7000000000002
 31
0.0
  0
LINE
  5
32D
330
6B
100
AcDbEntity
  8
1
  6
Continuous
 62
     7
100
AcDbLine
 10
715.5917193918018
 20
846.6999999999997
 30
0.0
 11
747.5917193918018
 21
846.6999999999999
 31
0.0
  0
LINE
  5
32E
330
6B
100
AcDbEntity
  8
1
  6
Continuous
 62
     2
100
AcDbLine
 10
716.4037193918019
 20
845.8879999999996
 30
0.0
 11
716.4037193918019
 21
864.2000000000005
 31
0.0
  0
LINE
  5
32F
330
6B
100
AcDbEntity
  8
1
  6
Continuous
 62
     7
100
AcDbLine
 10
716.5917193918018
 20
845.6999999999999
 30
0.0
 11
716.4037193918019
 21
845.8879999999996
 31
0.0
  0
LINE
  5
330
330
6B
100
AcDbEntity
  8
1
  6
Continuous
 62
     7
100
AcDbLine
 10
716.5917193918018
 20
845.6999999999999
 30
0.0
 11
717.9917193918019
 21
845.6999999999999
 31
0.0
  0
LINE
  5
331
330
6B
100
AcDbEntity
  8
1
  6
Continuous
 62
     7
100
AcDbLine
 10
746.7797193918019
 20
845.8879999999998
 30
0.0
 11
746.5917193918018
 21
845.6999999999999
 31
0.0
  0
LINE
  5
332
330
6B
100
AcDbEntity
  8
1
  6
Continuous
 62
     7
100
AcDbLine
 10
717.9917193918019
 20
845.6999999999999
 30
0.0
 11
746.5917193918018
 21
845.6999999999999
 31
0.0
  0
LINE
  5
333
330
6B
100
AcDbEntity
  8
1
  6
Continuous
 62
     7
100
AcDbLine
 10
716.4037193918019
 20
845.8879999999996
 30
0.0
 11
715.5917193918018
 21
846.6999999999997
 31
0.0
  0
LINE
  5
334
330
6B
100
AcDbEntity
  8
1
  6
Continuous
 62
     2
100
AcDbLine
 10
746.7797193918019
 20
888.7000000000002
 30
0.0
 11
746.7797193918019
 21
873.2000000000003
 31
0.0
  0
LINE
  5
335
330
6B
100
AcDbEntity
  8
1
  6
Continuous
 62
     7
100
AcDbLine
 10
747.5917193918018
 20
846.6999999999999
 30
0.0
 11
746.7797193918019
 21
845.8879999999998
 31
0.0
  0
LINE
  5
336
330
6B
100
AcDbEntity
  8
1
  6
Continuous
 62
     7
100
AcDbLine
 10
753.7917193918018
 20
891.2
 30
0.0
 11
754.0917193918018
 21
891.5
 31
0.0
  0
LINE
  5
337
330
6B
100
AcDbEntity
  8
1
  6
Continuous
 62
     7
100
AcDbLine
 10
754.0917193918018
 20
892.9
 30
0.0
 11
753.7917193918018
 21
893.2
 31
0.0
  0
LINE
  5
338
330
6B
100
AcDbEntity
  8
1
  6
Continuous
 62
     7
100
AcDbLine
 10
754.0917193918018
 20
892.9
 30
0.0
 11
754.0917193918018
 21
891.5
 31
0.0
  0
LINE
  5
339
330
6B
100
AcDbEntity
  8
1
  6
Continuous
 62
     7
100
AcDbLine
 10
747.5917193918018
 20
846.6999999999999
 30
0.0
 11
747.5917193918018
 21
864.2000000000005
 31
0.0
  0
LINE
  5
33A
330
6B
100
AcDbEntity
  8
1
  6
Continuous
 62
     7
100
AcDbLine
 10
715.5917193918018
 20
888.7000000000002
 30
0.0
 11
715.5917193918018
 21
873.2000000000003
 31
0.0
  0
LINE
  5
33B
330
6B
100
AcDbEntity
  8
1
  6
Continuous
 62
     7
100
AcDbLine
 10
709.0917193917757
 20
891.5
 30
0.0
 11
709.0917193917757
 21
892.9
 31
0.0
  0
LINE
  5
33C
330
6B
100
AcDbEntity
  8
1
  6
Continuous
 62
     7
100
AcDbLine
 10
709.3917193917756
 20
893.2
 30
0.0
 11
709.0917193917757
 21
892.9
 31
0.0
  0
LINE
  5
33D
330
6B
100
AcDbEntity
  8
1
  6
Continuous
 62
     7
100
AcDbLine
 10
709.0917193917757
 20
891.5
 30
0.0
 11
709.3917193917756
 21
891.2
 31
0.0
  0
LINE
  5
33E
330
6B
100
AcDbEntity
  8
1
  6
Continuous
 62
     7
100
AcDbLine
 10
753.7917193918018
 20
891.2
 30
0.0
 11
709.3917193917756
 21
891.2
 31
0.0
  0
LINE
  5
33F
330
6B
100
AcDbEntity
  8
1
  6
Continuous
 62
     7
100
AcDbLine
 10
709.3917193917756
 20
893.2
 30
0.0
 11
753.7917193918018
 21
893.2
 31
0.0
  0
LINE
  5
340
330
6B
100
AcDbEntity
  8
1
  6
Continuous
 62
     7
100
AcDbLine
 10
715.5917193918018
 20
864.2000000000005
 30
0.0
 11
715.5917193918018
 21
846.6999999999997
 31
0.0
  0
ENDBLK
  5
6D
330
6B
100
AcDbEntity
  8
0
100
AcDbBlockEnd
  0
BLOCK
  5
6F
330
6E
100
AcDbEntity
  8
0
100
AcDbBlockBegin
  2
37-398-M11
 70
     0
 10
351.0891018826861
 20
1586.504478413392
 30
0.0
  3
37-398-M11
  1

  0
LINE
  5
341
330
6E
100
AcDbEntity
  8
1
  6
Continuous
 62
     7
100
AcDbLine
 10
328.5922641010733
 20
1020.065870601328
 30
0.0
 11
328.5922641010733
 21
1019.504478341788
 31
0.0
  0
LINE
  5
342
330
6E
100
AcDbEntity
  8
1
  6
Continuous
 62
     7
100
AcDbLine
 10
328.2778432418401
 20
1020.530155408868
 30
0.0
 11
327.8417193917886
 21
1020.704478341788
 31
0.0
  0
LINE
  5
343
330
6E
100
AcDbEntity
  8
1
  6
Continuous
 62
     7
100
AcDbLine
 10
295.3417193917886
 20
1020.704478341788
 30
0.0
 11
294.9055955417372
 21
1020.530155408868
 31
0.0
  0
LINE
  5
344
330
6E
100
AcDbEntity
  8
1
  6
Continuous
 62
     7
100
AcDbLine
 10
328.5922641010733
 20
1019.504478341788
 30
0.0
 11
323.6117609549996
 21
1019.504478341786
 31
0.0
  0
LINE
  5
345
330
6E
100
AcDbEntity
  8
1
  6
Continuous
 62
     7
100
AcDbLine
 10
294.5911746825042
 20
1019.504478341774
 30
0.0
 11
294.5911746825042
 21
1020.065870601328
 31
0.0
  0
LINE
  5
346
330
6E
100
AcDbEntity
  8
1
  6
Continuous
 62
     7
100
AcDbLine
 10
714.591174682504
 20
1019.504478341787
 30
0.0
 11
714.591174682504
 21
1020.065870601328
 31
0.0
  0
LINE
  5
347
330
6E
100
AcDbEntity
  8
1
  6
Continuous
 62
     7
100
AcDbLine
 10
748.5922641010733
 20
1019.5044783418
 30
0.0
 11
748.5922641010733
 21
1019.504478341787
 31
0.0
  0
LINE
  5
348
330
6E
100
AcDbEntity
  8
1
  6
Continuous
 62
     7
100
AcDbLine
 10
748.5922641010733
 20
1019.5044783418
 30
0.0
 11
714.591174682504
 21
1019.504478341787
 31
0.0
  0
LINE
  5
349
330
6E
100
AcDbEntity
  8
1
  6
Continuous
 62
     7
100
AcDbLine
 10
720.591174682504
 20
1025.904478341788
 30
0.0
 11
720.591174682504
 21
1025.904478341788
 31
0.0
  0
LINE
  5
34A
330
6E
100
AcDbEntity
  8
1
  6
Continuous
 62
     7
100
AcDbLine
 10
715.3417193917884
 20
1020.704478341788
 30
0.0
 11
714.905595541737
 21
1020.530155408868
 31
0.0
  0
LINE
  5
34B
330
6E
100
AcDbEntity
  8
1
  6
Continuous
 62
     7
100
AcDbLine
 10
748.2778432418401
 20
1020.530155408868
 30
0.0
 11
747.8417193917884
 21
1020.704478341788
 31
0.0
  0
LINE
  5
34C
330
6E
100
AcDbEntity
  8
1
  6
Continuous
 62
     7
100
AcDbLine
 10
300.7688353165357
 20
1019.504478341777
 30
0.0
 11
294.5911746825042
 21
1019.504478341774
 31
0.0
  0
ARC
  5
34D
330
6E
100
AcDbEntity
  8
1
  6
Continuous
 62
     7
100
AcDbCircle
 10
293.7846550638263
 20
1024.388979756985
 30
0.0
 40
4.000000000000205
100
AcDbArc
 50
292.9088405879435
 51
347.2248620236922
  0
ARC
  5
34E
330
6E
100
AcDbEntity
  8
1
  6
Continuous
 62
     7
100
AcDbCircle
 10
329.3987837197511
 20
1024.388979756985
 30
0.0
 40
3.999999999999945
100
AcDbArc
 50
192.7751379763078
 51
247.0911594120542
  0
ARC
  5
34F
330
6E
100
AcDbEntity
  8
1
  6
Continuous
 62
     7
100
AcDbCircle
 10
749.3987837197509
 20
1024.388979756985
 30
0.0
 40
4.000000000000002
100
AcDbArc
 50
194.2483483872913
 51
247.0911594120542
  0
ARC
  5
350
330
6E
100
AcDbEntity
  8
1
  6
Continuous
 62
     7
100
AcDbCircle
 10
713.7846550638261
 20
1024.388979756985
 30
0.0
 40
4.000000000000183
100
AcDbArc
 50
292.9088405879428
 51
351.5975486374424
  0
ARC
  5
351
330
6E
100
AcDbEntity
  8
1
  6
Continuous
 62
     7
100
AcDbCircle
 10
328.0922641010733
 20
1020.065870601328
 30
0.0
 40
0.5
100
AcDbArc
 50
0.0
 51
68.21293075092652
  0
ARC
  5
352
330
6E
100
AcDbEntity
  8
1
  6
Continuous
 62
     7
100
AcDbCircle
 10
295.0911746825042
 20
1020.065870601328
 30
0.0
 40
0.5000000000002766
100
AcDbArc
 50
111.7870692490856
 51
180.0
  0
ARC
  5
353
330
6E
100
AcDbEntity
  8
1
  6
Continuous
 62
     7
100
AcDbCircle
 10
715.091174682504
 20
1020.065870601328
 30
0.0
 40
0.5000000000002978
100
AcDbArc
 50
111.7870692490916
 51
180.0
  0
ARC
  5
354
330
6E
100
AcDbEntity
  8
1
  6
Continuous
 62
     7
100
AcDbCircle
 10
748.092264101073
 20
1020.065870601328
 30
0.0
 40
0.5
100
AcDbArc
 50
0.00000000011725
 51
68.21293075090837
  0
ENDBLK
  5
70
330
6E
100
AcDbEntity
  8
0
100
AcDbBlockEnd
  0
BLOCK
  5
72
330
71
100
AcDbEntity
  8
0
100
AcDbBlockBegin
  2
98-126
 70
     0
 10
1356.330860123493
 20
1502.647727390118
 30
0.0
  3
98-126
  1

  0
LINE
  5
355
330
71
100
AcDbEntity
  8
1
  6
Continuous
 62
     7
100
AcDbLine
 10
751.841719391802
 20
888.6999999999998
 30
0.0
 11
711.341719391802
 21
888.7000000000002
 31
0.0
  0
LINE
  5
356
330
71
100
AcDbEntity
  8
1
  6
Continuous
 62
     7
100
AcDbLine
 10
711.341719391802
 20
888.7000000000002
 30
0.0
 11
711.341719391802
 21
891.2
 31
0.0
  0
LINE
  5
357
330
71
100
AcDbEntity
  8
1
  6
Continuous
 62
     7
100
AcDbLine
 10
751.841719391802
 20
891.2
 30
0.0
 11
751.841719391802
 21
888.6999999999998
 31
0.0
  0
LINE
  5
358
330
71
100
AcDbEntity
  8
1
  6
Continuous
 62
     7
100
AcDbLine
 10
331.8417193918019
 20
891.2
 30
0.0
 11
331.8417193918019
 21
888.6999999999998
 31
0.0
  0
LINE
  5
359
330
71
100
AcDbEntity
  8
1
  6
Continuous
 62
     7
100
AcDbLine
 10
291.3417193918019
 20
888.7000000000002
 30
0.0
 11
291.3417193918019
 21
891.2
 31
0.0
  0
LINE
  5
35A
330
71
100
AcDbEntity
  8
1
  6
Continuous
 62
     7
100
AcDbLine
 10
331.8417193918019
 20
888.6999999999998
 30
0.0
 11
291.3417193918019
 21
888.7000000000002
 31
0.0
  0
ENDBLK
  5
73
330
71
100
AcDbEntity
  8
0
100
AcDbBlockEnd
  0
BLOCK
  5
75
330
74
100
AcDbEntity
  8
0
100
AcDbBlockBegin
  2
92-64A
 70
     0
 10
660.6791750130905
 20
738.4741394466233
 30
0.0
  3
92-64A
  1

  0
LINE
  5
35B
330
74
100
AcDbEntity
  8
0
  6
Continuous
 62
     7
100
AcDbLine
 10
706.591719391802
 20
873.2000000000006
 30
0.0
 11
706.591719391802
 21
871.7000000000004
 31
0.0
  0
LINE
  5
35C
330
74
100
AcDbEntity
  8
0
  6
Continuous
 62
     7
100
AcDbLine
 10
756.591719391802
 20
871.7000000000004
 30
0.0
 11
756.591719391802
 21
873.2000000000006
 31
0.0
  0
LINE
  5
35D
330
74
100
AcDbEntity
  8
1
  6
Continuous
 62
     7
100
AcDbLine
 10
706.591719391802
 20
873.2000000000006
 30
0.0
 11
756.591719391802
 21
873.2000000000006
 31
0.0
  0
LINE
  5
35E
330
74
100
AcDbEntity
  8
1
  6
Continuous
 62
     7
100
AcDbLine
 10
706.6029719241914
 20
871.7000000000004
 30
0.0
 11
756.591719391802
 21
871.7000000000004
 31
0.0
  0
LINE
  5
35F
330
74
100
AcDbEntity
  8
1
  6
Continuous
 62
     7
100
AcDbLine
 10
286.6029719241913
 20
871.7000000000004
 30
0.0
 11
336.5917193918019
 21
871.7000000000004
 31
0.0
  0
LINE
  5
360
330
74
100
AcDbEntity
  8
1
  6
Continuous
 62
     7
100
AcDbLine
 10
286.5917193918019
 20
873.2000000000006
 30
0.0
 11
336.5917193918019
 21
873.2000000000006
 31
0.0
  0
LINE
  5
361
330
74
100
AcDbEntity
  8
0
  6
Continuous
 62
     7
100
AcDbLine
 10
336.5917193918019
 20
871.7000000000004
 30
0.0
 11
336.5917193918019
 21
873.2000000000006
 31
0.0
  0
LINE
  5
362
330
74
100
AcDbEntity
  8
0
  6
Continuous
 62
     7
100
AcDbLine
 10
286.5917193918019
 20
873.2000000000006
 30
0.0
 11
286.5917193918019
 21
871.7000000000004
 31
0.0
  0
ENDBLK
  5
76
330
74
100
AcDbEntity
  8
0
100
AcDbBlockEnd
  0
BLOCK
  5
7B
330
77
100
AcDbEntity
  8
0
100
AcDbBlockBegin
  2
新コラム洗面混合栓ノーマル130618
 70
     0
 10
1000.0
 20
200.0
 30
0.0
  3
新コラム洗面混合栓ノーマル130618
  1

  0
INSERT
  5
78
330
77
100
AcDbEntity
  8
1
100
AcDbBlockReference
  2
37-398-M11
 10
351.0891018826861
 20
1586.504478413392
 30
0.0
 41
1.0
 42
1.0
 43
1.0
  0
INSERT
  5
79
330
77
100
AcDbEntity
  8
0
100
AcDbBlockReference
  2
98-126
 10
1356.330860123493
 20
1502.647727390118
 30
0.0
 41
1.0
 42
1.0
 43
1.0
  0
INSERT
  5
7A
330
77
100
AcDbEntity
  8
0
100
AcDbBlockReference
  2
92-64A
 10
660.6791750130903
 20
738.4741394466232
 30
0.0
 41
1.0
 42
1.0
 43
1.0
  0
LINE
  5
363
330
77
100
AcDbEntity
  8
1
  6
DASH_CENTER
 62
     2
100
AcDbLine
 10
318.4422641010737
 20
1037.304478413338
 30
0.0
 11
304.7422641010736
 21
1037.304478413338
 31
0.0
  0
ENDBLK
  5
7C
330
77
100
AcDbEntity
  8
0
100
AcDbBlockEnd
  0
BLOCK
  5
7E
330
7D
100
AcDbEntity
  8
0
100
AcDbBlockBegin
  2
65-56-470-C2
 70
     0
 10
238.0520751304849
 20
829.604478413333
 30
0.0
  3
65-56-470-C2
  1

  0
LINE
  5
364
330
7D
100
AcDbEntity
  8
1
  6
Continuous
 62
     7
100
AcDbLine
 10
720.7417193917951
 20
522.2599999999999
 30
0.0
 11
720.7417193917898
 21
845.6999999999999
 31
0.0
  0
LINE
  5
365
330
7D
100
AcDbEntity
  8
1
  6
Continuous
 62
     7
100
AcDbLine
 10
720.7417193917901
 20
825.9155675098498
 30
0.0
 11
720.7417193917901
 21
825.9220493949763
 31
0.0
  0
LINE
  5
366
330
7D
100
AcDbEntity
  8
1
  6
Continuous
 62
     7
100
AcDbLine
 10
730.241719391787
 20
522.2599999999999
 30
0.0
 11
730.2417193917893
 21
845.6999999999999
 31
0.0
  0
LINE
  5
367
330
7D
100
AcDbEntity
  8
1
  6
Continuous
 62
     7
100
AcDbLine
 10
306.8417193917886
 20
845.903877362683
 30
0.0
 11
306.8417193917886
 21
522.2599999999999
 31
0.0
  0
LINE
  5
368
330
7D
100
AcDbEntity
  8
1
  6
Continuous
 62
     7
100
AcDbLine
 10
316.3417193917875
 20
522.2599999999999
 30
0.0
 11
316.3417193917886
 21
845.903877362683
 31
0.0
  0
ENDBLK
  5
7F
330
7D
100
AcDbEntity
  8
0
100
AcDbBlockEnd
  0
BLOCK
  5
82
330
80
100
AcDbEntity
  8
0
100
AcDbBlockBegin
  2
30-360X-470-C6
 70
     0
 10
529.2308601234939
 20
1082.432947233518
 30
0.0
  3
30-360X-470-C6
  1

  0
INSERT
  5
81
330
80
100
AcDbEntity
  8
1
100
AcDbBlockReference
  2
65-56-470-C2
 10
238.0520751304849
 20
829.6044784133329
 30
0.0
 41
1.0
 42
1.0
 43
1.0
  0
ENDBLK
  5
83
330
80
100
AcDbEntity
  8
0
100
AcDbBlockEnd
  0
BLOCK
  5
3A7
330
3A0
100
AcDbEntity
  8
0
100
AcDbBlockBegin
  2
*D19
 70
     1
 10
0.0
 20
0.0
 30
0.0
  3
*D19
  1

  0
LINE
  5
3A1
330
3A0
100
AcDbEntity
  8
1
  6
Continuous
 62
     2
100
AcDbLine
 10
442.5917193917888
 20
992.2037960662333
 30
0.0
 11
442.5917193917888
 21
891.2
 31
0.0
  0
LINE
  5
3A2
330
3A0
100
AcDbEntity
  8
1
  6
Continuous
 62
     2
100
AcDbLine
 10
709.3917193917756
 20
891.2
 30
0.0
 11
437.5917193917888
 21
891.2
 31
0.0
  0
LINE
  5
3A3
330
3A0
100
AcDbEntity
  8
1
  6
Continuous
 62
     2
100
AcDbLine
 10
612.7188093309846
 20
992.2037960662333
 30
0.0
 11
437.5917193917888
 21
992.2037960662333
 31
0.0
  0
SOLID
  5
3A4
330
3A0
100
AcDbEntity
  8
1
 62
     2
100
AcDbTrace
 10
444.8956380995682
 20
974.7037960662333
 30
0.0
 11
440.2878006840094
 21
974.7037960662333
 31
0.0
 12
442.5917193917888
 22
992.2037960662333
 32
0.0
 13
442.5917193917888
 23
992.2037960662333
 33
0.0
  0
SOLID
  5
3A5
330
3A0
100
AcDbEntity
  8
1
 62
     2
100
AcDbTrace
 10
440.2878006840094
 20
908.7
 30
0.0
 11
444.8956380995682
 21
908.7
 31
0.0
 12
442.5917193917888
 22
891.2
 32
0.0
 13
442.5917193917888
 23
891.2
 33
0.0
  0
MTEXT
  5
3A6
330
3A0
100
AcDbEntity
  8
1
 62
     7
100
AcDbMText
 10
437.5917193917888
 20
922.3381803743607
 30
0.0
 40
17.5
 41
0.0
 71
     7
 72
     1
  1
101
  7
CONVERTER_12
 11
0.0
 21
1.0
 31
0.0
 73
     1
 44
0.60024009603842
  0
ENDBLK
  5
3A8
330
3A0
100
AcDbEntity
  8
0
100
AcDbBlockEnd
  0
BLOCK
  5
3B2
330
3AB
100
AcDbEntity
  8
0
100
AcDbBlockBegin
  2
*D20
 70
     1
 10
0.0
 20
0.0
 30
0.0
  3
*D20
  1

  0
LINE
  5
3AC
330
3AB
100
AcDbEntity
  8
1
  6
Continuous
 62
     2
100
AcDbLine
 10
820.591719391789
 20
891.2
 30
0.0
 11
820.591719391789
 21
1048.302661500001
 31
0.0
  0
LINE
  5
3AD
330
3AB
100
AcDbEntity
  8
1
  6
Continuous
 62
     2
100
AcDbLine
 10
753.7917193918018
 20
891.2
 30
0.0
 11
825.591719391789
 21
891.2
 31
0.0
  0
LINE
  5
3AE
330
3AB
100
AcDbEntity
  8
1
  6
Continuous
 62
     2
100
AcDbLine
 10
748.4917193917883
 20
1048.302661500001
 30
0.0
 11
825.591719391789
 21
1048.302661500001
 31
0.0
  0
SOLID
  5
3AF
330
3AB
100
AcDbEntity
  8
1
 62
     2
100
AcDbTrace
 10
818.2878006840095
 20
908.7
 30
0.0
 11
822.8956380995684
 21
908.7
 31
0.0
 12
820.591719391789
 22
891.2
 32
0.0
 13
820.591719391789
 23
891.2
 33
0.0
  0
SOLID
  5
3B0
330
3AB
100
AcDbEntity
  8
1
 62
     2
100
AcDbTrace
 10
822.8956380995684
 20
1030.802661500001
 30
0.0
 11
818.2878006840095
 21
1030.802661500001
 31
0.0
 12
820.591719391789
 22
1048.302661500001
 32
0.0
 13
820.591719391789
 23
1048.302661500001
 33
0.0
  0
MTEXT
  5
3B1
330
3AB
100
AcDbEntity
  8
1
 62
     7
100
AcDbMText
 10
815.591719391789
 20
954.75247873199
 30
0.0
 40
17.5
 41
0.0
 71
     7
 72
     1
  1
158
  7
CONVERTER_12
 11
0.0
 21
1.0
 31
0.0
 73
     1
 44
0.60024009603842
  0
ENDBLK
  5
3B3
330
3AB
100
AcDbEntity
  8
0
100
AcDbBlockEnd
  0
BLOCK
  5
3BF
330
3B6
100
AcDbEntity
  8
0
100
AcDbBlockBegin
  2
*D21
 70
     1
 10
0.0
 20
0.0
 30
0.0
  3
*D21
  1

  0
LINE
  5
3B7
330
3B6
100
AcDbEntity
  8
1
  6
Continuous
 62
     2
100
AcDbLine
 10
860.591719391789
 20
926.2
 30
0.0
 11
860.591719391789
 21
891.2
 31
0.0
  0
LINE
  5
3B8
330
3B6
100
AcDbEntity
  8
1
  6
Continuous
 62
     2
100
AcDbLine
 10
860.591719391789
 20
891.2
 30
0.0
 11
860.591719391789
 21
845.6999999999999
 31
0.0
  0
LINE
  5
3B9
330
3B6
100
AcDbEntity
  8
1
  6
Continuous
 62
     2
100
AcDbLine
 10
860.591719391789
 20
845.6999999999999
 30
0.0
 11
860.591719391789
 21
810.6999999999999
 31
0.0
  0
LINE
  5
3BA
330
3B6
100
AcDbEntity
  8
1
  6
Continuous
 62
     2
100
AcDbLine
 10
753.7917193918017
 20
891.2
 30
0.0
 11
865.591719391789
 21
891.2
 31
0.0
  0
LINE
  5
3BB
330
3B6
100
AcDbEntity
  8
1
  6
Continuous
 62
     2
100
AcDbLine
 10
746.5917193918017
 20
845.6999999999999
 30
0.0
 11
865.591719391789
 21
845.6999999999999
 31
0.0
  0
SOLID
  5
3BC
330
3B6
100
AcDbEntity
  8
1
 62
     2
100
AcDbTrace
 10
858.2878006840095
 20
908.7
 30
0.0
 11
862.8956380995684
 21
908.7
 31
0.0
 12
860.591719391789
 22
891.2
 32
0.0
 13
860.591719391789
 23
891.2
 33
0.0
  0
SOLID
  5
3BD
330
3B6
100
AcDbEntity
  8
1
 62
     2
100
AcDbTrace
 10
862.8956380995684
 20
828.1999999999999
 30
0.0
 11
858.2878006840095
 21
828.1999999999999
 31
0.0
 12
860.591719391789
 22
845.6999999999999
 32
0.0
 13
860.591719391789
 23
845.6999999999999
 33
0.0
  0
MTEXT
  5
3BE
330
3B6
100
AcDbEntity
  8
1
 62
     7
100
AcDbMText
 10
855.591719391789
 20
852.0155419804552
 30
0.0
 40
17.5
 41
0.0
 71
     7
 72
     1
  1
46
  7
CONVERTER_12
 11
0.0
 21
1.0
 31
0.0
 73
     1
 44
0.60024009603842
  0
ENDBLK
  5
3C0
330
3B6
100
AcDbEntity
  8
0
100
AcDbBlockEnd
  0
BLOCK
  5
3CA
330
3C3
100
AcDbEntity
  8
0
100
AcDbBlockBegin
  2
*D22
 70
     1
 10
0.0
 20
0.0
 30
0.0
  3
*D22
  1

  0
LINE
  5
3C4
330
3C3
100
AcDbEntity
  8
1
  6
Continuous
 62
     2
100
AcDbLine
 10
860.591719391789
 20
891.2
 30
0.0
 11
860.591719391789
 21
1059.266914374697
 31
0.0
  0
LINE
  5
3C5
330
3C3
100
AcDbEntity
  8
1
  6
Continuous
 62
     2
100
AcDbLine
 10
753.7917193918018
 20
891.2
 30
0.0
 11
865.591719391789
 21
891.2
 31
0.0
  0
LINE
  5
3C6
330
3C3
100
AcDbEntity
  8
1
  6
Continuous
 62
     2
100
AcDbLine
 10
709.5855282331545
 20
1059.266914374697
 30
0.0
 11
865.591719391789
 21
1059.266914374697
 31
0.0
  0
SOLID
  5
3C7
330
3C3
100
AcDbEntity
  8
1
 62
     2
100
AcDbTrace
 10
858.2878006840095
 20
908.7
 30
0.0
 11
862.8956380995684
 21
908.7
 31
0.0
 12
860.591719391789
 22
891.2
 32
0.0
 13
860.591719391789
 23
891.2
 33
0.0
  0
SOLID
  5
3C8
330
3C3
100
AcDbEntity
  8
1
 62
     2
100
AcDbTrace
 10
862.8956380995684
 20
1041.766914374697
 30
0.0
 11
858.2878006840095
 21
1041.766914374697
 31
0.0
 12
860.591719391789
 22
1059.266914374697
 32
0.0
 13
860.591719391789
 23
1059.266914374697
 33
0.0
  0
MTEXT
  5
3C9
330
3C3
100
AcDbEntity
  8
1
 62
     7
100
AcDbMText
 10
855.591719391789
 20
954.5321256150479
 30
0.0
 40
17.5
 41
0.0
 71
     7
 72
     1
  1
169
  7
CONVERTER_12
 11
0.0
 21
1.0
 31
0.0
 73
     1
 44
0.60024009603842
  0
ENDBLK
  5
3CB
330
3C3
100
AcDbEntity
  8
0
100
AcDbBlockEnd
  0
BLOCK
  5
3D7
330
3CE
100
AcDbEntity
  8
0
100
AcDbBlockBegin
  2
*D23
 70
     1
 10
0.0
 20
0.0
 30
0.0
  3
*D23
  1

  0
LINE
  5
3CF
330
3CE
100
AcDbEntity
  8
1
  6
Continuous
 62
     2
100
AcDbLine
 10
680.5917193918017
 20
795.6999999999999
 30
0.0
 11
715.5917193918018
 21
795.6999999999999
 31
0.0
  0
LINE
  5
3D0
330
3CE
100
AcDbEntity
  8
1
  6
Continuous
 62
     2
100
AcDbLine
 10
715.5917193918018
 20
795.6999999999999
 30
0.0
 11
747.5917193918018
 21
795.6999999999999
 31
0.0
  0
LINE
  5
3D1
330
3CE
100
AcDbEntity
  8
1
  6
Continuous
 62
     2
100
AcDbLine
 10
747.5917193918018
 20
795.6999999999999
 30
0.0
 11
844.216719391789
 21
795.6999999999999
 31
0.0
  0
LINE
  5
3D2
330
3CE
100
AcDbEntity
  8
1
  6
Continuous
 62
     2
100
AcDbLine
 10
715.5917193918018
 20
846.6999999999997
 30
0.0
 11
715.5917193918018
 21
790.6999999999999
 31
0.0
  0
LINE
  5
3D3
330
3CE
100
AcDbEntity
  8
1
  6
Continuous
 62
     2
100
AcDbLine
 10
747.5917193918018
 20
846.6999999999999
 30
0.0
 11
747.5917193918018
 21
790.6999999999999
 31
0.0
  0
SOLID
  5
3D4
330
3CE
100
AcDbEntity
  8
1
 62
     2
100
AcDbTrace
 10
698.0917193918018
 20
793.3960812922205
 30
0.0
 11
698.0917193918018
 21
798.0039187077793
 31
0.0
 12
715.5917193918018
 22
795.6999999999999
 32
0.0
 13
715.5917193918018
 23
795.6999999999999
 33
0.0
  0
SOLID
  5
3D5
330
3CE
100
AcDbEntity
  8
1
 62
     2
100
AcDbTrace
 10
765.0917193918018
 20
798.0039187077793
 30
0.0
 11
765.0917193918018
 21
793.3960812922205
 31
0.0
 12
747.5917193918018
 22
795.6999999999999
 32
0.0
 13
747.5917193918018
 23
795.6999999999999
 33
0.0
  0
MTEXT
  5
3D6
330
3CE
100
AcDbEntity
  8
1
 62
     7
100
AcDbMText
 10
803.6167193918311
 20
800.6999652146183
 30
0.0
 40
17.5
 41
0.0
 71
     7
 72
     1
  1
\C7;{\Fgdt;n}\C7;32
  7
CONVERTER_12
 11
0.9999999999970619
 21
2.424068405545306E-6
 31
0.0
 73
     1
 44
0.60024009603842
  0
ENDBLK
  5
3D8
330
3CE
100
AcDbEntity
  8
0
100
AcDbBlockEnd
  0
BLOCK
  5
3E4
330
3DB
100
AcDbEntity
  8
0
100
AcDbBlockBegin
  2
*D24
 70
     1
 10
0.0
 20
0.0
 30
0.0
  3
*D24
  1

  0
LINE
  5
3DC
330
3DB
100
AcDbEntity
  8
1
  6
Continuous
 62
     2
100
AcDbLine
 10
604.228995403673
 20
915.178464559748
 30
0.0
 11
709.091719391776
 21
915.178464559748
 31
0.0
  0
LINE
  5
3DD
330
3DB
100
AcDbEntity
  8
1
  6
Continuous
 62
     2
100
AcDbLine
 10
709.091719391776
 20
915.178464559748
 30
0.0
 11
754.0917193918021
 21
915.178464559748
 31
0.0
  0
LINE
  5
3DE
330
3DB
100
AcDbEntity
  8
1
  6
Continuous
 62
     2
100
AcDbLine
 10
754.0917193918021
 20
915.178464559748
 30
0.0
 11
789.0917193918021
 21
915.178464559748
 31
0.0
  0
LINE
  5
3DF
330
3DB
100
AcDbEntity
  8
1
  6
Continuous
 62
     2
100
AcDbLine
 10
709.091719391776
 20
892.9000000000002
 30
0.0
 11
709.091719391776
 21
920.178464559748
 31
0.0
  0
LINE
  5
3E0
330
3DB
100
AcDbEntity
  8
1
  6
Continuous
 62
     2
100
AcDbLine
 10
754.0917193918021
 20
892.9
 30
0.0
 11
754.0917193918021
 21
920.178464559748
 31
0.0
  0
SOLID
  5
3E1
330
3DB
100
AcDbEntity
  8
1
 62
     2
100
AcDbTrace
 10
691.591719391776
 20
912.8745458519686
 30
0.0
 11
691.591719391776
 21
917.4823832675274
 31
0.0
 12
709.091719391776
 22
915.178464559748
 32
0.0
 13
709.091719391776
 23
915.178464559748
 33
0.0
  0
SOLID
  5
3E2
330
3DB
100
AcDbEntity
  8
1
 62
     2
100
AcDbTrace
 10
771.5917193918021
 20
917.4823832675274
 30
0.0
 11
771.5917193918021
 21
912.8745458519686
 31
0.0
 12
754.0917193918021
 22
915.178464559748
 32
0.0
 13
754.0917193918021
 23
915.178464559748
 33
0.0
  0
MTEXT
  5
3E3
330
3DB
100
AcDbEntity
  8
1
 62
     7
100
AcDbMText
 10
610.8789954037152
 20
920.1784297743664
 30
0.0
 40
17.5
 41
0.0
 71
     7
 72
     1
  1
\C7;{\Fgdt;n}\C7;45
  7
CONVERTER_12
 11
0.9999999999970619
 21
2.424068405545306E-6
 31
0.0
 73
     1
 44
0.60024009603842
  0
ENDBLK
  5
3E5
330
3DB
100
AcDbEntity
  8
0
100
AcDbBlockEnd
  0
BLOCK
  5
3F1
330
3E8
100
AcDbEntity
  8
0
100
AcDbBlockBegin
  2
*D25
 70
     1
 10
0.0
 20
0.0
 30
0.0
  3
*D25
  1

  0
LINE
  5
3E9
330
3E8
100
AcDbEntity
  8
1
  6
Continuous
 62
     2
100
AcDbLine
 10
696.5917193917887
 20
1144.273620285326
 30
0.0
 11
731.5917193917887
 21
1144.273620285326
 31
0.0
  0
LINE
  5
3EA
330
3E8
100
AcDbEntity
  8
1
  6
Continuous
 62
     2
100
AcDbLine
 10
731.5917193917887
 20
1144.273620285326
 30
0.0
 11
757.7063702851707
 21
1144.273620285326
 31
0.0
  0
LINE
  5
3EB
330
3E8
100
AcDbEntity
  8
1
  6
Continuous
 62
     2
100
AcDbLine
 10
757.7063702851707
 20
1144.273620285326
 30
0.0
 11
792.7063702851707
 21
1144.273620285326
 31
0.0
  0
LINE
  5
3EC
330
3E8
100
AcDbEntity
  8
1
  6
Continuous
 62
     2
100
AcDbLine
 10
731.5917193917887
 20
1051.3026615
 30
0.0
 11
731.5917193917887
 21
1149.273620285326
 31
0.0
  0
LINE
  5
3ED
330
3E8
100
AcDbEntity
  8
1
  6
Continuous
 62
     2
100
AcDbLine
 10
757.7063702851707
 20
1039.22483217641
 30
0.0
 11
757.7063702851707
 21
1149.273620285326
 31
0.0
  0
SOLID
  5
3EE
330
3E8
100
AcDbEntity
  8
1
 62
     2
100
AcDbTrace
 10
714.0917193917887
 20
1141.969701577546
 30
0.0
 11
714.0917193917887
 21
1146.577538993105
 31
0.0
 12
731.5917193917887
 22
1144.273620285326
 32
0.0
 13
731.5917193917887
 23
1144.273620285326
 33
0.0
  0
SOLID
  5
3EF
330
3E8
100
AcDbEntity
  8
1
 62
     2
100
AcDbTrace
 10
775.2063702851707
 20
1146.577538993105
 30
0.0
 11
775.2063702851707
 21
1141.969701577546
 31
0.0
 12
757.7063702851707
 22
1144.273620285326
 32
0.0
 13
757.7063702851707
 23
1144.273620285326
 33
0.0
  0
MTEXT
  5
3F0
330
3E8
100
AcDbEntity
  8
1
 62
     7
100
AcDbMText
 10
738.4205532137107
 20
1149.273620285326
 30
0.0
 40
17.5
 41
0.0
 71
     7
 72
     1
  1
27
  7
CONVERTER_12
 11
0.9999999999970619
 21
2.424068405545306E-6
 31
0.0
 73
     1
 44
0.60024009603842
  0
ENDBLK
  5
3F2
330
3E8
100
AcDbEntity
  8
0
100
AcDbBlockEnd
  0
BLOCK
  5
3FE
330
3F5
100
AcDbEntity
  8
0
100
AcDbBlockBegin
  2
*D26
 70
     1
 10
0.0
 20
0.0
 30
0.0
  3
*D26
  1

  0
LINE
  5
3F6
330
3F5
100
AcDbEntity
  8
1
  6
Continuous
 62
     2
100
AcDbLine
 10
749.5917193917884
 20
755.6999999999999
 30
0.0
 11
936.8012482390266
 21
755.6999999999999
 31
0.0
  0
LINE
  5
3F7
330
3F5
100
AcDbEntity
  8
1
  6
Continuous
 62
     2
100
AcDbLine
 10
713.5917193917884
 20
755.6999999999999
 30
0.0
 11
749.5917193917884
 21
755.6999999999999
 31
0.0
  0
LINE
  5
3F8
330
3F5
100
AcDbEntity
  8
1
  6
Continuous
 62
     2
100
AcDbLine
 10
678.5917193917884
 20
755.6999999999999
 30
0.0
 11
713.5917193917884
 21
755.6999999999999
 31
0.0
  0
LINE
  5
3F9
330
3F5
100
AcDbEntity
  8
1
  6
Continuous
 62
     2
100
AcDbLine
 10
749.5917193917884
 20
864.2000000000004
 30
0.0
 11
749.5917193917884
 21
750.6999999999999
 31
0.0
  0
LINE
  5
3FA
330
3F5
100
AcDbEntity
  8
1
  6
Continuous
 62
     2
100
AcDbLine
 10
713.5917193917884
 20
864.2000000000004
 30
0.0
 11
713.5917193917884
 21
750.6999999999999
 31
0.0
  0
SOLID
  5
3FB
330
3F5
100
AcDbEntity
  8
1
 62
     2
100
AcDbTrace
 10
696.0917193917884
 20
753.3960812922205
 30
0.0
 11
696.0917193917884
 21
758.0039187077793
 31
0.0
 12
713.5917193917884
 22
755.6999999999999
 32
0.0
 13
713.5917193917884
 23
755.6999999999999
 33
0.0
  0
SOLID
  5
3FC
330
3F5
100
AcDbEntity
  8
1
 62
     2
100
AcDbTrace
 10
767.0917193917884
 20
758.0039187077793
 30
0.0
 11
767.0917193917884
 21
753.3960812922205
 31
0.0
 12
749.5917193917884
 22
755.6999999999999
 32
0.0
 13
749.5917193917884
 23
755.6999999999999
 33
0.0
  0
MTEXT
  5
3FD
330
3F5
100
AcDbEntity
  8
1
 62
     7
100
AcDbMText
 10
795.7512482393638
 20
760.699721716947
 30
0.0
 40
17.5
 41
0.0
 71
     7
 72
     1
  1
\C7;ロックナット対辺\C7;36
  7
CONVERTER_11
 11
0.9999999999970619
 21
2.424068405545306E-6
 31
0.0
 73
     1
 44
0.45454545454545
  0
ENDBLK
  5
3FF
330
3F5
100
AcDbEntity
  8
0
100
AcDbBlockEnd
  0
BLOCK
  5
409
330
402
100
AcDbEntity
  8
0
100
AcDbBlockBegin
  2
*D27
 70
     1
 10
0.0
 20
0.0
 30
0.0
  3
*D27
  1

  0
LINE
  5
403
330
402
100
AcDbEntity
  8
1
  6
Continuous
 62
     2
100
AcDbLine
 10
731.5917193917887
 20
1144.273620285326
 30
0.0
 11
612.7188093309846
 21
1144.273620285326
 31
0.0
  0
LINE
  5
404
330
402
100
AcDbEntity
  8
1
  6
Continuous
 62
     2
100
AcDbLine
 10
612.7188093309846
 20
992.2037960662333
 30
0.0
 11
612.7188093309846
 21
1149.273620285326
 31
0.0
  0
LINE
  5
405
330
402
100
AcDbEntity
  8
1
  6
Continuous
 62
     2
100
AcDbLine
 10
731.5917193917887
 20
1051.3026615
 30
0.0
 11
731.5917193917887
 21
1149.273620285326
 31
0.0
  0
SOLID
  5
406
330
402
100
AcDbEntity
  8
1
 62
     2
100
AcDbTrace
 10
714.0917193917887
 20
1141.969701577546
 30
0.0
 11
714.0917193917887
 21
1146.577538993105
 31
0.0
 12
731.5917193917887
 22
1144.273620285326
 32
0.0
 13
731.5917193917887
 23
1144.273620285326
 33
0.0
  0
SOLID
  5
407
330
402
100
AcDbEntity
  8
1
 62
     2
100
AcDbTrace
 10
630.2188093309846
 20
1146.577538993105
 30
0.0
 11
630.2188093309846
 21
1141.969701577546
 31
0.0
 12
612.7188093309846
 22
1144.273620285326
 32
0.0
 13
612.7188093309846
 23
1144.273620285326
 33
0.0
  0
MTEXT
  5
408
330
402
100
AcDbEntity
  8
1
 62
     7
100
AcDbMText
 10
656.4052643613867
 20
1149.273620285326
 30
0.0
 40
17.5
 41
0.0
 71
     7
 72
     1
  1
119
  7
CONVERTER_12
 11
0.9999999999970619
 21
2.424068405545306E-6
 31
0.0
 73
     1
 44
0.60024009603842
  0
ENDBLK
  5
40A
330
402
100
AcDbEntity
  8
0
100
AcDbBlockEnd
  0
BLOCK
  5
416
330
40D
100
AcDbEntity
  8
0
100
AcDbBlockBegin
  2
*D28
 70
     1
 10
0.0
 20
0.0
 30
0.0
  3
*D28
  1

  0
LINE
  5
40E
330
40D
100
AcDbEntity
  8
1
  6
Continuous
 62
     2
100
AcDbLine
 10
482.5917193917888
 20
923.6999999999999
 30
0.0
 11
482.5917193917888
 21
888.6999999999999
 31
0.0
  0
LINE
  5
40F
330
40D
100
AcDbEntity
  8
1
  6
Continuous
 62
     2
100
AcDbLine
 10
482.5917193917888
 20
888.6999999999999
 30
0.0
 11
482.5917193917888
 21
873.2000000000002
 31
0.0
  0
LINE
  5
410
330
40D
100
AcDbEntity
  8
1
  6
Continuous
 62
     2
100
AcDbLine
 10
482.5917193917888
 20
873.2000000000002
 30
0.0
 11
482.5917193917888
 21
838.2000000000002
 31
0.0
  0
LINE
  5
411
330
40D
100
AcDbEntity
  8
1
  6
Continuous
 62
     2
100
AcDbLine
 10
692.5917193917887
 20
888.6999999999999
 30
0.0
 11
477.5917193917888
 21
888.6999999999999
 31
0.0
  0
LINE
  5
412
330
40D
100
AcDbEntity
  8
1
  6
Continuous
 62
     2
100
AcDbLine
 10
692.5917193917887
 20
873.2000000000002
 30
0.0
 11
477.5917193917888
 21
873.2000000000002
 31
0.0
  0
SOLID
  5
413
330
40D
100
AcDbEntity
  8
1
 62
     2
100
AcDbTrace
 10
480.2878006840094
 20
906.1999999999999
 30
0.0
 11
484.8956380995682
 21
906.1999999999999
 31
0.0
 12
482.5917193917888
 22
888.6999999999999
 32
0.0
 13
482.5917193917888
 23
888.6999999999999
 33
0.0
  0
SOLID
  5
414
330
40D
100
AcDbEntity
  8
1
 62
     2
100
AcDbTrace
 10
484.8956380995682
 20
855.7000000000002
 30
0.0
 11
480.2878006840094
 21
855.7000000000002
 31
0.0
 12
482.5917193917888
 22
873.2000000000002
 32
0.0
 13
482.5917193917888
 23
873.2000000000002
 33
0.0
  0
MTEXT
  5
415
330
40D
100
AcDbEntity
  8
1
 62
     7
100
AcDbMText
 10
477.5917193917888
 20
858.3295440982182
 30
0.0
 40
17.5
 41
0.0
 71
     7
 72
     1
  1
最大30最小5
  7
CONVERTER_11
 11
0.0
 21
1.0
 31
0.0
 73
     1
 44
0.45454545454545
  0
ENDBLK
  5
417
330
40D
100
AcDbEntity
  8
0
100
AcDbBlockEnd
  0
BLOCK
  5
421
330
41A
100
AcDbEntity
  8
0
100
AcDbBlockBegin
  2
*D29
 70
     1
 10
0.0
 20
0.0
 30
0.0
  3
*D29
  1

  0
LINE
  5
41B
330
41A
100
AcDbEntity
  8
1
  6
Continuous
 62
     2
100
AcDbLine
 10
442.5917193917888
 20
891.2
 30
0.0
 11
442.5917193917888
 21
495.6999999999998
 31
0.0
  0
LINE
  5
41C
330
41A
100
AcDbEntity
  8
1
  6
Continuous
 62
     2
100
AcDbLine
 10
709.3917193917756
 20
891.2
 30
0.0
 11
437.5917193917888
 21
891.2
 31
0.0
  0
LINE
  5
41D
330
41A
100
AcDbEntity
  8
1
  6
Continuous
 62
     2
100
AcDbLine
 10
713.4917193917895
 20
495.6999999999998
 30
0.0
 11
437.5917193917888
 21
495.6999999999998
 31
0.0
  0
SOLID
  5
41E
330
41A
100
AcDbEntity
  8
1
 62
     2
100
AcDbTrace
 10
444.8956380995682
 20
873.7
 30
0.0
 11
440.2878006840094
 21
873.7
 31
0.0
 12
442.5917193917888
 22
891.2
 32
0.0
 13
442.5917193917888
 23
891.2
 33
0.0
  0
SOLID
  5
41F
330
41A
100
AcDbEntity
  8
1
 62
     2
100
AcDbTrace
 10
440.2878006840094
 20
513.1999999999998
 30
0.0
 11
444.8956380995682
 21
513.1999999999998
 31
0.0
 12
442.5917193917888
 22
495.6999999999998
 32
0.0
 13
442.5917193917888
 23
495.6999999999998
 33
0.0
  0
MTEXT
  5
420
330
41A
100
AcDbEntity
  8
1
 62
     7
100
AcDbMText
 10
437.5917193917888
 20
544.352820905996
 30
0.0
 40
17.5
 41
0.0
 71
     7
 72
     1
  1
銅管直管時393(銅管曲げR60以上)
  7
CONVERTER_11
 11
0.0
 21
1.0
 31
0.0
 73
     1
 44
0.45454545454545
  0
ENDBLK
  5
422
330
41A
100
AcDbEntity
  8
0
100
AcDbBlockEnd
  0
BLOCK
  5
42E
330
425
100
AcDbEntity
  8
0
100
AcDbBlockBegin
  2
*D30
 70
     1
 10
0.0
 20
0.0
 30
0.0
  3
*D30
  1

  0
LINE
  5
426
330
425
100
AcDbEntity
  8
1
  6
Continuous
 62
     2
100
AcDbLine
 10
612.7188093309844
 20
989.1318312284795
 30
0.0
 11
612.7188093309811
 21
944.5665232472552
 31
0.0
  0
LINE
  5
427
330
425
100
AcDbEntity
  8
1
  6
Continuous
 62
     2
100
AcDbLine
 10
612.3549419553578
 20
990.491934661195
 30
0.0
 11
602.8144633589648
 21
945.6075119601344
 31
0.0
  0
LINE
  5
428
330
425
100
AcDbEntity
  8
1
  6
Continuous
 62
     2
100
AcDbLine
 10
612.7188093309811
 20
944.5665232472552
 30
0.0
 11
612.7188093309808
 21
939.5665232472552
 31
0.0
  0
LINE
  5
429
330
425
100
AcDbEntity
  8
1
  6
Continuous
 62
     2
100
AcDbLine
 10
602.8144633589648
 20
945.6075119601344
 30
0.0
 11
601.774904901278
 21
940.7167739572301
 31
0.0
  0
ARC
  5
42A
330
425
100
AcDbEntity
  8
1
  6
Continuous
 62
     2
100
AcDbCircle
 10
612.7188093309846
 20
992.2037960662333
 30
0.0
 40
47.6372728189782
100
AcDbArc
 50
182.1374691867739
 51
301.5722148481017
  0
SOLID
  5
42B
330
425
100
AcDbEntity
  8
1
 62
     2
100
AcDbTrace
 10
585.7668208531893
 20
950.1830913122312
 30
0.0
 11
587.5319522639935
 21
954.4394367811536
 31
0.0
 12
602.8144633589648
 22
945.6075119601344
 32
0.0
 13
602.8144633589648
 23
945.6075119601344
 33
0.0
  0
SOLID
  5
42C
330
425
100
AcDbEntity
  8
1
 62
     2
100
AcDbTrace
 10
629.503621318446
 20
950.0280365867529
 30
0.0
 11
630.3452363864233
 21
945.4977110216772
 31
0.0
 12
612.7188093309811
 22
944.5665232472552
 32
0.0
 13
612.7188093309811
 23
944.5665232472552
 33
0.0
  0
MTEXT
  5
42D
330
425
100
AcDbEntity
  8
1
 62
     7
100
AcDbMText
 10
568.375944363989
 20
980.8884089779025
 30
0.0
 40
17.5
 41
0.0
 71
     7
 72
     1
  1
12{\Fgdt;~}
  7
CONVERTER_12
 11
0.5823622543008895
 21
-0.8129293971591791
 31
0.0
 73
     1
 44
0.60024009603842
  0
ENDBLK
  5
42F
330
425
100
AcDbEntity
  8
0
100
AcDbBlockEnd
  0
ENDSEC
  0
SECTION
  2
ENTITIES
  0
INSERT
  5
84
330
1F
100
AcDbEntity
  8
1
100
AcDbBlockReference
  2
30-255A-M11
 10
466.6701460384328
 20
4779.902708968038
 30
0.0
 41
1.0
 42
1.0
 43
1.0
  0
INSERT
  5
85
330
1F
100
AcDbEntity
  8
1
100
AcDbBlockReference
  2
T90-240
 10
298.5917193917882
 20
487.7785420656546
 30
0.0
 41
1.0
 42
1.0
 43
1.0
  0
INSERT
  5
86
330
1F
100
AcDbEntity
  8
1
100
AcDbBlockReference
  2
開示A4
 10
0.0
 20
0.0
 30
0.0
 41
5.0
 42
5.0
 43
5.0
  0
INSERT
  5
87
330
1F
100
AcDbEntity
  8
1
100
AcDbBlockReference
  2
30-360-M1
 10
532.3308601234933
 20
1502.534948494536
 30
0.0
 41
1.0
 42
1.0
 43
1.0
  0
INSERT
  5
88
330
1F
100
AcDbEntity
  8
1
100
AcDbBlockReference
  2
81-414-1-SH
 10
351.0891018826861
 20
1126.704478413341
 30
0.0
 41
1.0
 42
1.0
 43
1.0
  0
INSERT
  5
89
330
1F
100
AcDbEntity
  8
1
100
AcDbBlockReference
  2
27-21-M1
 10
582.116709991006
 20
1085.366826684177
 30
0.0
 41
1.0
 42
1.0
 43
1.0
  0
INSERT
  5
8A
330
1F
100
AcDbEntity
  8
0
100
AcDbBlockReference
  2
73-1-32_5-C2
 10
598.3605951314332
 20
813.7927193282799
 30
0.0
 41
1.0
 42
1.0
 43
1.0
  0
INSERT
  5
8B
330
1F
100
AcDbEntity
  8
0
100
AcDbBlockReference
  2
32-33-32
 10
610.0453288592439
 20
789.4495240620076
 30
0.0
 41
1.0
 42
1.0
 43
1.0
  0
INSERT
  5
8C
330
1F
100
AcDbEntity
  8
1
100
AcDbBlockReference
  2
35-338-M11
 10
1146.330860123494
 20
1502.432947233518
 30
0.0
 41
1.0
 42
1.0
 43
1.0
  0
INSERT
  5
8D
330
1F
100
AcDbEntity
  8
1
100
AcDbBlockReference
  2
新コラム洗面混合栓ノーマル130618
 10
1000.0
 20
200.0
 30
0.0
 41
1.0
 42
1.0
 43
1.0
  0
INSERT
  5
8E
330
1F
100
AcDbEntity
  8
1
100
AcDbBlockReference
  2
30-360X-470-C6
 10
529.2308601234938
 20
1082.432947233518
 30
0.0
 41
1.0
 42
1.0
 43
1.0
  0
LINE
  5
369
330
1F
100
AcDbEntity
  8
1
  6
DASH_CENTER
 62
     2
100
AcDbLine
 10
612.7188093309846
 20
992.2037960662333
 30
0.0
 11
613.9568508763488
 21
998.0283235762718
 31
0.0
  0
LINE
  5
36A
330
1F
100
AcDbEntity
  8
1
  6
DASH_CENTER
 62
     2
100
AcDbLine
 10
725.4917193917865
 20
484.7785420656547
 30
0.0
 11
725.491719391789
 21
845.6999999999999
 31
0.0
  0
LINE
  5
36B
330
1F
100
AcDbEntity
  8
1
  6
DASH_CENTER
 62
     2
100
AcDbLine
 10
718.391174682503
 20
1029.304478413338
 30
0.0
 11
712.9911746825029
 21
1029.304478413338
 31
0.0
  0
LINE
  5
36C
330
1F
100
AcDbEntity
  8
1
  6
DASH_CENTER
 62
     2
100
AcDbLine
 10
742.8292365665494
 20
1049.11830943763
 30
0.0
 11
730.4678996115407
 21
1018.52292684964
 31
0.0
  0
LINE
  5
36D
330
1F
100
AcDbEntity
  8
1
  6
DASH_CENTER
 62
     2
100
AcDbLine
 10
730.0917193917884
 20
1037.304478413338
 30
0.0
 11
710.5911746825028
 21
1037.304478413338
 31
0.0
  0
LINE
  5
36E
330
1F
100
AcDbEntity
  8
1
  6
DASH_CENTER
 62
     2
100
AcDbLine
 10
734.0660327286952
 20
982.2567449167899
 30
0.0
 11
595.5958958651067
 21
1011.689586854634
 31
0.0
  0
LINE
  5
36F
330
1F
100
AcDbEntity
  8
1
  6
DASH_CENTER
 62
     2
100
AcDbLine
 10
613.9568508763488
 20
998.0283235762718
 30
0.0
 11
619.1640621641282
 21
1022.526326498571
 31
0.0
  0
LINE
  5
370
330
1F
100
AcDbEntity
  8
1
  6
DASH_CENTER
 62
     2
100
AcDbLine
 10
612.7188093309844
 20
989.1318312284795
 30
0.0
 11
612.7188093309846
 21
992.2037960662333
 31
0.0
  0
LINE
  5
371
330
1F
100
AcDbEntity
  8
1
  6
DASH_CENTER
 62
     2
100
AcDbLine
 10
612.3549419553578
 20
990.491934661195
 30
0.0
 11
612.7188093309846
 21
992.2037960662333
 31
0.0
  0
LINE
  5
372
330
1F
100
AcDbEntity
  8
1
  6
DASH_CENTER
 62
     2
100
AcDbLine
 10
311.5917193917892
 20
1204.499455290718
 30
0.0
 11
311.5917193917894
 21
1146.000544667489
 31
0.0
  0
LINE
  5
373
330
1F
100
AcDbEntity
  8
1
  6
DASH_CENTER
 62
     2
100
AcDbLine
 10
731.5917193917887
 20
1051.302661500001
 30
0.0
 11
731.5917193917887
 21
842.6999999999999
 31
0.0
  0
LINE
  5
374
330
1F
100
AcDbEntity
  8
1
  6
DASH_CENTER
 62
     2
100
AcDbLine
 10
311.5917193917886
 20
1051.302661500001
 30
0.0
 11
311.5917193917887
 21
484.7785420656547
 31
0.0
  0
LINE
  5
375
102
{ACAD_REACTORS
330
432
102
}
330
1F
100
AcDbEntity
  8
1
  6
PHANTOM
 62
     4
100
AcDbLine
 10
770.5917193917887
 20
888.6999999999999
 30
0.0
 11
770.5917193917887
 21
873.2000000000002
 31
0.0
  0
LINE
  5
376
102
{ACAD_REACTORS
330
432
102
}
330
1F
100
AcDbEntity
  8
1
  6
Continuous
 62
     2
100
AcDbLine
 10
750.5917193917887
 20
873.2000000000002
 30
0.0
 11
770.5917193917887
 21
873.2000000000002
 31
0.0
  0
LINE
  5
377
102
{ACAD_REACTORS
330
432
102
}
330
1F
100
AcDbEntity
  8
1
  6
Continuous
 62
     2
100
AcDbLine
 10
750.5917193917887
 20
873.2000000000002
 30
0.0
 11
750.5917193917887
 21
888.6999999999999
 31
0.0
  0
LINE
  5
378
102
{ACAD_REACTORS
330
432
102
}
330
1F
100
AcDbEntity
  8
1
  6
Continuous
 62
     2
100
AcDbLine
 10
750.5917193917887
 20
888.6999999999999
 30
0.0
 11
770.5917193917887
 21
888.6999999999999
 31
0.0
  0
LINE
  5
379
102
{ACAD_REACTORS
330
433
102
}
330
1F
100
AcDbEntity
  8
1
  6
PHANTOM
 62
     4
100
AcDbLine
 10
692.5917193917887
 20
888.6999999999999
 30
0.0
 11
692.5917193917887
 21
873.2000000000002
 31
0.0
  0
LINE
  5
37A
102
{ACAD_REACTORS
330
433
102
}
330
1F
100
AcDbEntity
  8
1
  6
Continuous
 62
     2
100
AcDbLine
 10
712.5917193917887
 20
873.2000000000002
 30
0.0
 11
692.5917193917887
 21
873.2000000000002
 31
0.0
  0
LINE
  5
37B
102
{ACAD_REACTORS
330
433
102
}
330
1F
100
AcDbEntity
  8
1
  6
Continuous
 62
     2
100
AcDbLine
 10
712.5917193917887
 20
888.6999999999999
 30
0.0
 11
712.5917193917887
 21
873.2000000000002
 31
0.0
  0
LINE
  5
37C
102
{ACAD_REACTORS
330
433
102
}
330
1F
100
AcDbEntity
  8
1
  6
Continuous
 62
     2
100
AcDbLine
 10
692.5917193917887
 20
888.6999999999999
 30
0.0
 11
712.5917193917887
 21
888.6999999999999
 31
0.0
  0
LINE
  5
37D
102
{ACAD_REACTORS
330
435
102
}
330
1F
100
AcDbEntity
  8
1
  6
Continuous
 62
     2
100
AcDbLine
 10
272.5917193917885
 20
888.6999999999999
 30
0.0
 11
292.5917193917885
 21
888.6999999999999
 31
0.0
  0
LINE
  5
37E
102
{ACAD_REACTORS
330
435
102
}
330
1F
100
AcDbEntity
  8
1
  6
Continuous
 62
     2
100
AcDbLine
 10
292.5917193917885
 20
888.6999999999999
 30
0.0
 11
292.5917193917885
 21
873.2000000000002
 31
0.0
  0
LINE
  5
37F
102
{ACAD_REACTORS
330
435
102
}
330
1F
100
AcDbEntity
  8
1
  6
Continuous
 62
     2
100
AcDbLine
 10
292.5917193917885
 20
873.2000000000002
 30
0.0
 11
272.5917193917885
 21
873.2000000000002
 31
0.0
  0
LINE
  5
380
102
{ACAD_REACTORS
330
435
102
}
330
1F
100
AcDbEntity
  8
1
  6
PHANTOM
 62
     4
100
AcDbLine
 10
272.5917193917885
 20
888.6999999999999
 30
0.0
 11
272.5917193917885
 21
873.2000000000002
 31
0.0
  0
LINE
  5
381
102
{ACAD_REACTORS
330
434
102
}
330
1F
100
AcDbEntity
  8
1
  6
Continuous
 62
     2
100
AcDbLine
 10
330.5917193917885
 20
888.6999999999999
 30
0.0
 11
350.5917193917885
 21
888.6999999999999
 31
0.0
  0
LINE
  5
382
102
{ACAD_REACTORS
330
434
102
}
330
1F
100
AcDbEntity
  8
1
  6
Continuous
 62
     2
100
AcDbLine
 10
330.5917193917885
 20
873.2000000000002
 30
0.0
 11
330.5917193917885
 21
888.6999999999999
 31
0.0
  0
LINE
  5
383
102
{ACAD_REACTORS
330
434
102
}
330
1F
100
AcDbEntity
  8
1
  6
Continuous
 62
     2
100
AcDbLine
 10
330.5917193917885
 20
873.2000000000002
 30
0.0
 11
350.5917193917885
 21
873.2000000000002
 31
0.0
  0
LINE
  5
384
102
{ACAD_REACTORS
330
434
102
}
330
1F
100
AcDbEntity
  8
1
  6
PHANTOM
 62
     4
100
AcDbLine
 10
350.5917193917885
 20
888.6999999999999
 30
0.0
 11
350.5917193917885
 21
873.2000000000002
 31
0.0
  0
LINE
  5
385
330
1F
100
AcDbEntity
  8
1
  6
Continuous
 62
     2
100
AcDbLine
 10
657.3701543828944
 20
1091.316329185195
 30
0.0
 11
708.3701543828944
 21
1091.316329185195
 31
0.0
  0
LINE
  5
386
330
1F
100
AcDbEntity
  8
1
  6
Continuous
 62
     2
100
AcDbLine
 10
616.3701543828944
 20
1025.316329185196
 30
0.0
 11
670.3701543828944
 21
1025.316329185196
 31
0.0
  0
LINE
  5
387
330
1F
100
AcDbEntity
  8
1
  6
DASH_CENTER
 62
     2
100
AcDbLine
 10
332.0911746825036
 20
1184.000000000001
 30
0.0
 11
291.0922641010741
 21
1184.000000000001
 31
0.0
  0
ARC
  5
388
330
1F
100
AcDbEntity
  8
1
  6
Continuous
 62
     2
100
AcDbCircle
 10
766.8396301693734
 20
965.2876695322657
 30
0.0
 40
149.9999999999999
100
AcDbArc
 50
133.2023811412279
 51
142.487669972412
  0
SOLID
  5
389
330
1F
100
AcDbEntity
  8
1
 62
     2
100
AcDbTrace
 10
707.3369715209798
 20
835.8306601846787
 30
0.0
 11
703.3464672625973
 21
838.1345788924581
 31
0.0
 12
714.0917193917887
 22
852.138064104796
 32
0.0
 13
714.0917193917887
 23
852.138064104796
 33
0.0
  0
LEADER
  5
38A
330
1F
100
AcDbEntity
  8
1
  6
Continuous
 62
     2
100
AcDbLeader
  3
Standard
 71
     0
 76
     3
 10
714.0917193917887
 20
852.138064104796
 30
0.0
 10
654.5126502023322
 20
748.9440892009954
 30
0.0
 10
552.396102607091
 20
748.9440892009954
 30
0.0
  0
SOLID
  5
38B
330
1F
100
AcDbEntity
  8
1
 62
     2
100
AcDbTrace
 10
695.2452521291906
 20
844.6925960798827
 30
0.0
 11
691.2547478708082
 21
846.9965147876621
 31
0.0
 12
701.9999999999995
 22
861.0
 32
0.0
 13
701.9999999999995
 23
861.0
 33
0.0
  0
LEADER
  5
38C
330
1F
100
AcDbEntity
  8
1
  6
Continuous
 62
     2
100
AcDbLeader
  3
Standard
 71
     0
 76
     3
 10
701.9999999999995
 20
861.0
 30
0.0
 10
656.389328734019
 20
782.0
 30
0.0
 10
479.1173295680571
 20
782.0
 30
0.0
  0
SOLID
  5
38D
330
1F
100
AcDbEntity
  8
1
 62
     2
100
AcDbTrace
 10
658.3704085482093
 20
1066.383439253936
 30
0.0
 11
655.30319280256
 21
1069.82209498225
 31
0.0
 12
669.8963923706775
 22
1079.751675425408
 32
0.0
 13
669.8963923706775
 23
1079.751675425408
 33
0.0
  0
LEADER
  5
38E
330
1F
100
AcDbEntity
  8
1
  6
Continuous
 62
     2
100
AcDbLeader
  3
Standard
 71
     0
 76
     2
 10
669.8963923706775
 20
1079.751675425408
 30
0.0
 10
664.1530201145232
 20
1074.628696212296
 30
0.0
  0
SOLID
  5
38F
330
1F
100
AcDbEntity
  8
1
 62
     2
100
AcDbTrace
 10
651.4524882103566
 20
1065.785717767229
 30
0.0
 11
655.2065678044055
 21
1063.113817310668
 31
0.0
 12
643.1819785665244
 22
1050.192234780951
 32
0.0
 13
643.1819785665244
 23
1050.192234780951
 33
0.0
  0
LEADER
  5
390
330
1F
100
AcDbEntity
  8
1
  6
Continuous
 62
     2
100
AcDbLeader
  3
Standard
 71
     0
 76
     2
 10
643.1819785665244
 20
1050.192234780951
 30
0.0
 10
646.1172305891681
 20
1054.316329185195
 30
0.0
  0
SOLID
  5
391
330
1F
100
AcDbEntity
  8
1
 62
     2
100
AcDbTrace
 10
327.1869715209796
 20
473.7750568533169
 30
0.0
 11
323.1964672625973
 21
471.4711381455375
 31
0.0
 12
316.4417193917883
 22
487.7785420656548
 32
0.0
 13
316.4417193917883
 23
487.7785420656548
 33
0.0
  0
LEADER
  5
392
330
1F
100
AcDbEntity
  8
1
  6
Continuous
 62
     2
100
AcDbLeader
  3
Standard
 71
     0
 76
     3
 10
316.4417193917883
 20
487.7785420656548
 30
0.0
 10
333.7622274674769
 20
457.7785420656548
 30
0.0
 10
389.6947536887093
 20
457.7785420656548
 30
0.0
  0
MTEXT
  5
394
330
1F
100
AcDbEntity
  8
1
 62
     7
100
AcDbMText
 10
602.1876690844065
 20
763.9440892009954
 30
0.0
 40
17.5
 41
0.0
 71
     5
 72
     1
  1
M32X1,5
  7
CONVERTER_12
 73
     1
 44
0.7202881152461
  0
MTEXT
  5
395
330
1F
100
AcDbEntity
  8
1
 62
     7
100
AcDbMText
 10
565.0926455875504
 20
797.0
 30
0.0
 40
17.5
 41
0.0
 71
     5
 72
     1
  1
取付穴径{\Fgdt;n}33～{\Fgdt;n}35
  7
CONVERTER_11
 73
     1
 44
0.54545454545455
  0
MTEXT
  5
396
330
1F
100
AcDbEntity
  8
1
 62
     7
100
AcDbMText
 10
363.7867680995631
 20
472.7785420656548
 30
0.0
 40
17.5
 41
0.0
 71
     5
 72
     1
  1
G1/2
  7
CONVERTER_12
 73
     1
 44
0.7202881152461
  0
MTEXT
  5
397
330
1F
100
AcDbEntity
  8
1
 62
     7
100
AcDbMText
 10
682.9618737746831
 20
1106.316329185196
 30
0.0
 40
25.0
 41
0.0
 71
     5
 72
     1
  1
吐水
  7
CONVERTER_11
 73
     1
 44
0.54545454545455
  0
MTEXT
  5
398
330
1F
100
AcDbEntity
  8
1
 62
     7
100
AcDbMText
 10
644.9618737746831
 20
1040.316329185196
 30
0.0
 40
25.0
 41
0.0
 71
     5
 72
     1
  1
止水
  7
CONVERTER_11
 73
     1
 44
0.54545454545455
  0
MTEXT
  5
399
330
1F
100
AcDbEntity
  8
0
 62
     7
100
AcDbMText
 10
284.9999999999999
 20
71.25
 30
0.0
 40
17.5
 41
0.0
 71
     5
 72
     1
  1
Y50750H-13
  7
CONVERTER_12
 73
     1
 44
0.7202881152461
  0
MTEXT
  5
39A
330
1F
100
AcDbEntity
  8
1
 62
     7
100
AcDbMText
 10
426.2499999999999
 20
85.0
 30
0.0
 40
17.5
 41
0.0
 71
     5
 72
     1
  1
1
  7
CONVERTER_12
 73
     1
 44
0.7202881152461
  0
MTEXT
  5
39B
330
1F
100
AcDbEntity
  8
1
 62
     7
100
AcDbMText
 10
468.7499999999999
 20
85.0
 30
0.0
 40
17.5
 41
0.0
 71
     5
 72
     1
  1
5
  7
CONVERTER_12
 73
     1
 44
0.7202881152461
  0
MTEXT
  5
39C
330
1F
100
AcDbEntity
  8
1
 62
     7
100
AcDbMText
 10
635.9946230601374
 20
1078.105343086156
 30
0.0
 40
17.5
 41
0.0
 71
     5
 72
     1
  1
25{\Fgdt;~}
  7
CONVERTER_12
 73
     1
 44
0.7202881152461
  0
MTEXT
  5
39D
330
1F
100
AcDbEntity
  8
0
 62
     7
100
AcDbMText
 10
284.9999999999999
 20
113.7500000000001
 30
0.0
 40
17.5
 41
0.0
 71
     5
 72
     1
  1
立水栓
  7
CONVERTER_11
 73
     1
 44
0.54545454545455
  0
MTEXT
  5
39E
330
1F
100
AcDbEntity
  8
1
 62
     7
100
AcDbMText
 10
170.0
 20
187.5
 30
0.0
 40
17.5
 41
0.0
 71
     4
 72
     1
  1
JIS
  7
CONVERTER_12
 73
     1
 44
0.7202881152461
  0
MTEXT
  5
39F
330
1F
100
AcDbEntity
  8
1
 62
     7
100
AcDbMText
 10
170.0
 20
152.5000000000001
 30
0.0
 40
17.5
 41
0.0
 71
     4
 72
     1
  1
単水栓、内地寒冷地共用、吐水口は固定式
  7
CONVERTER_11
 73
     1
 44
0.54545454545455
  0
DIMENSION
  5
3AA
330
1F
100
AcDbEntity
  8
1
100
AcDbDimension
  2
*D19
 10
442.5917193917888
 20
992.2037960662333
 30
0.0
 11
428.8417193917888
 21
938.0881803743607
 31
0.0
 70
    32
  1
<>
 71
     5
 42
-1.0
 53
90.0
  3
ME10_DIM_10
100
AcDbAlignedDimension
 13
709.3917193917754
 23
891.1999999999997
 33
0.0
 14
612.7188093309846
 24
992.2037960662333
 34
0.0
 50
90.0
100
AcDbRotatedDimension
  0
DIMENSION
  5
3B5
330
1F
100
AcDbEntity
  8
1
100
AcDbDimension
  2
*D20
 10
820.591719391789
 20
891.2
 30
0.0
 11
806.841719391789
 21
973.12747873199
 31
0.0
 70
    32
  1
158
 71
     5
 42
-1.0
 53
90.0
  3
ME10_DIM_11
100
AcDbAlignedDimension
 13
748.491719391788
 23
1048.302661500001
 33
0.0
 14
753.7917193918017
 24
891.1999999999997
 34
0.0
 50
90.0
100
AcDbRotatedDimension
  0
DIMENSION
  5
3C2
330
1F
100
AcDbEntity
  8
1
100
AcDbDimension
  2
*D21
 10
860.591719391789
 20
891.2
 30
0.0
 11
846.841719391789
 21
865.1405419804552
 31
0.0
 70
    32
  1
46
 71
     5
 42
-1.0
 53
90.0
  3
ME10_DIM_12
100
AcDbAlignedDimension
 13
746.5917193918016
 23
845.6999999999998
 33
0.0
 14
753.7917193918017
 24
891.1999999999997
 34
0.0
 50
90.0
100
AcDbRotatedDimension
  0
DIMENSION
  5
3CD
330
1F
100
AcDbEntity
  8
1
100
AcDbDimension
  2
*D22
 10
860.591719391789
 20
891.2
 30
0.0
 11
846.841719391789
 21
972.9071256150479
 31
0.0
 70
    32
  1
169
 71
     5
 42
-1.0
 53
90.0
  3
ME10_DIM_13
100
AcDbAlignedDimension
 13
709.5855282331545
 23
1059.266914374697
 33
0.0
 14
753.7917193918017
 24
891.1999999999997
 34
0.0
 50
90.0
100
AcDbRotatedDimension
  0
DIMENSION
  5
3DA
330
1F
100
AcDbEntity
  8
1
100
AcDbDimension
  2
*D23
 10
715.5917193918018
 20
795.6999999999999
 30
0.0
 11
820.591719391789
 21
809.4499999999999
 31
0.0
 70
    32
  1
<>
 71
     5
 42
-1.0
 53
0.00013888888889
  3
ME10_DIM_14
100
AcDbAlignedDimension
 13
747.5917193918017
 23
846.6999999999997
 33
0.0
 14
715.5917193918016
 24
846.6999999999995
 34
0.0
100
AcDbRotatedDimension
  0
DIMENSION
  5
3E7
330
1F
100
AcDbEntity
  8
1
100
AcDbDimension
  2
*D24
 10
709.091719391776
 20
915.178464559748
 30
0.0
 11
627.853995403673
 21
928.928464559748
 31
0.0
 70
    32
  1
<>
 71
     5
 42
-1.0
 53
0.00013888888889
  3
ME10_DIM_15
100
AcDbAlignedDimension
 13
754.0917193918016
 23
892.8999999999997
 33
0.0
 14
709.0917193917754
 24
892.8999999999997
 34
0.0
100
AcDbRotatedDimension
  0
DIMENSION
  5
3F4
330
1F
100
AcDbEntity
  8
1
100
AcDbDimension
  2
*D25
 10
731.5917193917887
 20
1144.273620285326
 30
0.0
 11
751.5455532137107
 21
1158.023620285326
 31
0.0
 70
    32
  1
27
 71
     5
 42
-1.0
 53
0.00013888888889
  3
ME10_DIM_16
100
AcDbAlignedDimension
 13
757.7063702851705
 23
1039.224832176411
 33
0.0
 14
731.5917193917887
 24
1051.302661500001
 34
0.0
100
AcDbRotatedDimension
  0
DIMENSION
  5
401
330
1F
100
AcDbEntity
  8
1
100
AcDbDimension
  2
*D26
 10
713.5917193917884
 20
755.6999999999999
 30
0.0
 11
850.7231232390266
 21
769.4499999999999
 31
0.0
 70
    32
  1
<>
 71
     5
 42
-1.0
 53
0.00013888888889
  3
ME10_DIM_17
100
AcDbAlignedDimension
 13
749.5917193917882
 23
864.2000000000002
 33
0.0
 14
713.5917193917883
 24
864.2000000000002
 34
0.0
100
AcDbRotatedDimension
  0
DIMENSION
  5
40C
330
1F
100
AcDbEntity
  8
1
100
AcDbDimension
  2
*D27
 10
731.5917193917887
 20
1144.273620285326
 30
0.0
 11
672.1552643613867
 21
1158.023620285326
 31
0.0
 70
    32
  1
119
 71
     5
 42
-1.0
 53
0.00013888888889
  3
ME10_DIM_18
100
AcDbAlignedDimension
 13
612.7188093309846
 23
992.2037960662333
 33
0.0
 14
731.5917193917887
 24
1051.302661500001
 34
0.0
100
AcDbRotatedDimension
  0
DIMENSION
  5
419
330
1F
100
AcDbEntity
  8
1
100
AcDbDimension
  2
*D28
 10
482.5917193917888
 20
888.6999999999999
 30
0.0
 11
468.8417193917888
 21
914.3295440982182
 31
0.0
 70
    32
  1
最大30最小5
 71
     5
 42
-1.0
 53
90.0
  3
ME10_DIM_19
100
AcDbAlignedDimension
 13
692.5917193917887
 23
873.2000000000002
 33
0.0
 14
692.5917193917887
 24
888.6999999999999
 34
0.0
 50
90.0
100
AcDbRotatedDimension
  0
DIMENSION
  5
424
330
1F
100
AcDbEntity
  8
1
100
AcDbDimension
  2
*D29
 10
442.5917193917888
 20
891.2
 30
0.0
 11
428.8417193917888
 21
693.977820905996
 31
0.0
 70
    32
  1
銅管直管時393(銅管曲げR60以上)
 71
     5
 42
-1.0
 53
90.0
  3
ME10_DIM_20
100
AcDbAlignedDimension
 13
713.4917193917895
 23
495.6999999999998
 33
0.0
 14
709.3917193917754
 24
891.1999999999997
 34
0.0
 50
90.0
100
AcDbRotatedDimension
  0
DIMENSION
  5
431
330
1F
100
AcDbEntity
  8
1
100
AcDbDimension
  2
*D30
 10
607.7393583915266
 20
944.8274852139593
 30
0.0
 11
585.1708490668841
 21
972.4691274752639
 31
0.0
 70
    37
  1
<>
 71
     5
 42
-1.0
  3
ME10_DIM_21
100
AcDb3PointAngularDimension
 13
612.3549419553578
 23
990.491934661195
 33
0.0
 14
612.7188093309844
 24
989.1318312284795
 34
0.0
 15
612.7188093309846
 25
992.2037960662333
 35
0.0
  0
HATCH
  5
432
330
1F
100
AcDbEntity
  8
1
  6
Continuous
 62
     4
100
AcDbHatch
 10
0.0
 20
0.0
 30
0.0
210
0.0
220
0.0
230
1.0
  2
CUSTOM0
 70
     0
 71
     1
 91
        1
 92
        1
 93
        4
 72
     1
 10
770.5917193917887
 20
873.2000000000002
 11
750.5917193917887
 21
873.2000000000002
 72
     1
 10
750.5917193917887
 20
873.2000000000002
 11
750.5917193917887
 21
888.6999999999999
 72
     1
 10
750.5917193917887
 20
888.6999999999999
 11
770.5917193917887
 21
888.6999999999999
 72
     1
 10
770.5917193917887
 20
888.6999999999999
 11
770.5917193917887
 21
873.2000000000002
 97
        4
330
378
330
377
330
376
330
375
 75
     1
 76
     2
 52
45.0
 41
2.0
 77
     0
 78
     2
 53
45.0
 43
0.0
 44
0.0
 45
-8.485281374238571
 46
0.0000000000000009
 79
     0
 53
45.0
 43
1.414213562373095
 44
-1.414213562373095
 45
-8.485281374238571
 46
0.0000000000000009
 79
     0
 98
        1
 10
0.0
 20
0.0
  0
HATCH
  5
433
330
1F
100
AcDbEntity
  8
1
  6
Continuous
 62
     4
100
AcDbHatch
 10
0.0
 20
0.0
 30
0.0
210
0.0
220
0.0
230
1.0
  2
CUSTOM1
 70
     0
 71
     1
 91
        1
 92
        1
 93
        4
 72
     1
 10
712.5917193917887
 20
873.2000000000002
 11
692.5917193917887
 21
873.2000000000002
 72
     1
 10
692.5917193917887
 20
873.2000000000002
 11
692.5917193917887
 21
888.6999999999999
 72
     1
 10
692.5917193917887
 20
888.6999999999999
 11
712.5917193917887
 21
888.6999999999999
 72
     1
 10
712.5917193917887
 20
888.6999999999999
 11
712.5917193917887
 21
873.2000000000002
 97
        4
330
37C
330
379
330
37A
330
37B
 75
     1
 76
     2
 52
45.0
 41
2.0
 77
     0
 78
     2
 53
45.0
 43
0.0
 44
0.0
 45
-8.485281374238571
 46
0.0000000000000009
 79
     0
 53
45.0
 43
1.414213562373095
 44
-1.414213562373095
 45
-8.485281374238571
 46
0.0000000000000009
 79
     0
 98
        1
 10
0.0
 20
0.0
  0
HATCH
  5
434
330
1F
100
AcDbEntity
  8
1
  6
Continuous
 62
     4
100
AcDbHatch
 10
0.0
 20
0.0
 30
0.0
210
0.0
220
0.0
230
1.0
  2
CUSTOM2
 70
     0
 71
     1
 91
        1
 92
        1
 93
        4
 72
     1
 10
350.5917193917885
 20
873.2000000000002
 11
330.5917193917885
 21
873.2000000000002
 72
     1
 10
330.5917193917885
 20
873.2000000000002
 11
330.5917193917885
 21
888.6999999999999
 72
     1
 10
330.5917193917885
 20
888.6999999999999
 11
350.5917193917885
 21
888.6999999999999
 72
     1
 10
350.5917193917885
 20
888.6999999999999
 11
350.5917193917885
 21
873.2000000000002
 97
        4
330
381
330
382
330
383
330
384
 75
     1
 76
     2
 52
45.0
 41
2.0
 77
     0
 78
     2
 53
45.0
 43
0.0
 44
0.0
 45
-8.485281374238571
 46
0.0000000000000009
 79
     0
 53
45.0
 43
1.414213562373095
 44
-1.414213562373095
 45
-8.485281374238571
 46
0.0000000000000009
 79
     0
 98
        1
 10
0.0
 20
0.0
  0
HATCH
  5
435
330
1F
100
AcDbEntity
  8
1
  6
Continuous
 62
     4
100
AcDbHatch
 10
0.0
 20
0.0
 30
0.0
210
0.0
220
0.0
230
1.0
  2
CUSTOM3
 70
     0
 71
     1
 91
        1
 92
        1
 93
        4
 72
     1
 10
292.5917193917885
 20
873.2000000000002
 11
272.5917193917885
 21
873.2000000000002
 72
     1
 10
272.5917193917885
 20
873.2000000000002
 11
272.5917193917885
 21
888.6999999999999
 72
     1
 10
272.5917193917885
 20
888.6999999999999
 11
292.5917193917885
 21
888.6999999999999
 72
     1
 10
292.5917193917885
 20
888.6999999999999
 11
292.5917193917885
 21
873.2000000000002
 97
        4
330
37D
330
380
330
37F
330
37E
 75
     1
 76
     2
 52
45.0
 41
2.0
 77
     0
 78
     2
 53
45.0
 43
0.0
 44
0.0
 45
-8.485281374238571
 46
0.0000000000000009
 79
     0
 53
45.0
 43
1.414213562373095
 44
-1.414213562373095
 45
-8.485281374238571
 46
0.0000000000000009
 79
     0
 98
        1
 10
0.0
 20
0.0
  0
ENDSEC
  0
SECTION
  2
OBJECTS
  0
DICTIONARY
  5
C
330
0
100
AcDbDictionary
281
     1
  3
ACAD_GROUP
350
D
  3
ACAD_LAYOUT
350
1A
  3
ACAD_MATERIAL
350
3B
  3
ACAD_MLEADERSTYLE
350
438
  3
ACAD_MLINESTYLE
350
17
  3
ACAD_PLOTSETTINGS
350
19
  3
ACAD_PLOTSTYLENAME
350
E
  3
ACAD_VISUALSTYLE
350
2A
  3
AcDbVariableDictionary
350
436
  0
DICTIONARY
  5
D
102
{ACAD_REACTORS
330
C
102
}
330
C
100
AcDbDictionary
281
     1
  0
DICTIONARY
  5
1A
102
{ACAD_REACTORS
330
C
102
}
330
C
100
AcDbDictionary
281
     1
  3
Layout1
350
1E
  3
Layout2
350
26
  3
Model
350
22
  0
DICTIONARY
  5
3B
102
{ACAD_REACTORS
330
C
102
}
330
C
100
AcDbDictionary
281
     1
  3
ByBlock
350
3D
  3
ByLayer
350
3C
  3
Global
350
3E
  0
DICTIONARY
  5
438
102
{ACAD_REACTORS
330
C
102
}
330
C
100
AcDbDictionary
281
     1
  0
DICTIONARY
  5
17
102
{ACAD_REACTORS
330
C
102
}
330
C
100
AcDbDictionary
281
     1
  3
Standard
350
18
  0
DICTIONARY
  5
19
102
{ACAD_REACTORS
330
C
102
}
330
C
100
AcDbDictionary
281
     1
  0
ACDBDICTIONARYWDFLT
  5
E
102
{ACAD_REACTORS
330
C
102
}
330
C
100
AcDbDictionary
281
     1
  3
Normal
350
F
100
AcDbDictionaryWithDefault
340
F
  0
DICTIONARY
  5
2A
102
{ACAD_REACTORS
330
C
102
}
330
C
100
AcDbDictionary
281
     1
  3
2dWireframe
350
2F
  3
3D Hidden
350
31
  3
3dWireframe
350
30
  3
Basic
350
32
  3
Brighten
350
36
  3
ColorChange
350
3A
  3
Conceptual
350
34
  3
Dim
350
35
  3
Facepattern
350
39
  3
Flat
350
2B
  3
FlatWithEdges
350
2C
  3
Gouraud
350
2D
  3
GouraudWithEdges
350
2E
  3
Linepattern
350
38
  3
Realistic
350
33
  3
Thicken
350
37
  0
DICTIONARY
  5
436
102
{ACAD_REACTORS
330
C
102
}
330
C
100
AcDbDictionary
281
     1
  3
DIMASSOC
350
439
  3
HIDETEXT
350
43A
  0
LAYOUT
  5
1E
102
{ACAD_REACTORS
330
1A
102
}
330
1A
100
AcDbPlotSettings
  1

  2
none_device
  4

  6

 40
0.0
 41
0.0
 42
0.0
 43
0.0
 44
0.0
 45
0.0
 46
0.0
 47
0.0
 48
0.0
 49
0.0
140
0.0
141
0.0
142
1.0
143
1.0
 70
   688
 72
     0
 73
     0
 74
     5
  7

 75
    16
147
1.0
148
0.0
149
0.0
100
AcDbLayout
  1
Layout1
 70
     1
 71
     1
 10
0.0
 20
0.0
 11
12.0
 21
9.0
 12
0.0
 22
0.0
 32
0.0
 14
1.00000000000000E+20
 24
1.00000000000000E+20
 34
1.00000000000000E+20
 15
-1.00000000000000E+20
 25
-1.00000000000000E+20
 35
-1.00000000000000E+20
146
0.0
 13
0.0
 23
0.0
 33
0.0
 16
1.0
 26
0.0
 36
0.0
 17
0.0
 27
1.0
 37
0.0
 76
     0
330
1B
  0
LAYOUT
  5
26
102
{ACAD_REACTORS
330
1A
102
}
330
1A
100
AcDbPlotSettings
  1

  2
none_device
  4

  6

 40
0.0
 41
0.0
 42
0.0
 43
0.0
 44
0.0
 45
0.0
 46
0.0
 47
0.0
 48
0.0
 49
0.0
140
0.0
141
0.0
142
1.0
143
1.0
 70
   688
 72
     0
 73
     0
 74
     5
  7

 75
    16
147
1.0
148
0.0
149
0.0
100
AcDbLayout
  1
Layout2
 70
     1
 71
     2
 10
0.0
 20
0.0
 11
0.0
 21
0.0
 12
0.0
 22
0.0
 32
0.0
 14
0.0
 24
0.0
 34
0.0
 15
0.0
 25
0.0
 35
0.0
146
0.0
 13
0.0
 23
0.0
 33
0.0
 16
1.0
 26
0.0
 36
0.0
 17
0.0
 27
1.0
 37
0.0
 76
     0
330
23
  0
LAYOUT
  5
22
102
{ACAD_REACTORS
330
1A
102
}
330
1A
100
AcDbPlotSettings
  1

  2
none_device
  4

  6

 40
0.0
 41
0.0
 42
0.0
 43
0.0
 44
0.0
 45
0.0
 46
0.0
 47
0.0
 48
0.0
 49
0.0
140
0.0
141
0.0
142
1.0
143
1.0
 70
  1712
 72
     0
 73
     0
 74
     0
  7

 75
     0
147
1.0
148
0.0
149
0.0
100
AcDbLayout
  1
Model
 70
     1
 71
     0
 10
0.0
 20
0.0
 11
12.0
 21
9.0
 12
0.0
 22
0.0
 32
0.0
 14
0.0
 24
0.0
 34
0.0
 15
1050.0
 25
1485.0
 35
0.0
146
0.0
 13
0.0
 23
0.0
 33
0.0
 16
1.0
 26
0.0
 36
0.0
 17
0.0
 27
1.0
 37
0.0
 76
     0
330
1F
331
29
  0
MATERIAL
  5
3D
102
{ACAD_REACTORS
330
3B
102
}
102
{ACAD_XDICTIONARY
360
45D
102
}
330
3B
100
AcDbMaterial
  1
ByBlock
  0
MATERIAL
  5
3C
102
{ACAD_REACTORS
330
3B
102
}
102
{ACAD_XDICTIONARY
360
45B
102
}
330
3B
100
AcDbMaterial
  1
ByLayer
  0
MATERIAL
  5
3E
102
{ACAD_REACTORS
330
3B
102
}
102
{ACAD_XDICTIONARY
360
45F
102
}
330
3B
100
AcDbMaterial
  1
Global
  0
MLINESTYLE
  5
18
102
{ACAD_REACTORS
330
17
102
}
330
17
100
AcDbMlineStyle
  2
Standard
 70
     0
  3

 62
   256
 51
90.0
 52
90.0
 71
     2
 49
0.5
 62
   256
  6
BYLAYER
 49
-0.5
 62
   256
  6
BYLAYER
  0
ACDBPLACEHOLDER
  5
F
102
{ACAD_REACTORS
330
E
102
}
330
E
  0
VISUALSTYLE
  5
2F
102
{ACAD_REACTORS
330
2A
102
}
102
{ACAD_XDICTIONARY
360
443
102
}
330
2A
100
AcDbVisualStyle
  2
2dWireframe
 70
     4
 71
     0
 72
     2
 73
     0
 90
        0
 40
-0.6
 41
-30.0
 62
     5
 63
     7
 74
     1
 91
        4
 64
     7
 65
   257
 75
     1
175
     1
 42
1.0
 92
        0
 66
   257
 43
1.0
 76
     1
 77
     6
 78
     2
 67
     7
 79
     5
170
     0
171
     0
290
     0
174
     0
 93
        1
 44
0.0
173
     0
291
     0
 45
0.0
1001
ACAD
1000
AcDbSavedByObjectVersion
1070
     0
  0
VISUALSTYLE
  5
31
102
{ACAD_REACTORS
330
2A
102
}
102
{ACAD_XDICTIONARY
360
447
102
}
330
2A
100
AcDbVisualStyle
  2
3D Hidden
 70
     6
 71
     1
 72
     2
 73
     2
 90
        0
 40
-0.6
 41
-30.0
 62
     5
 63
     7
 74
     2
 91
        2
 64
     7
 65
   257
 75
     2
175
     1
 42
40.0
 92
        0
 66
   257
 43
1.0
 76
     1
 77
     6
 78
     2
 67
     7
 79
     3
170
     0
171
     0
290
     0
174
     0
 93
        1
 44
0.0
173
     0
291
     0
 45
0.0
1001
ACAD
1000
AcDbSavedByObjectVersion
1070
     0
  0
VISUALSTYLE
  5
30
102
{ACAD_REACTORS
330
2A
102
}
102
{ACAD_XDICTIONARY
360
445
102
}
330
2A
100
AcDbVisualStyle
  2
3dWireframe
 70
     5
 71
     0
 72
     2
 73
     0
 90
        0
 40
-0.6
 41
-30.0
 62
     5
 63
     7
 74
     1
 91
        4
 64
     7
 65
   257
 75
     1
175
     1
 42
1.0
 92
        0
 66
   257
 43
1.0
 76
     1
 77
     6
 78
     2
 67
     7
 79
     5
170
     0
171
     0
290
     0
174
     0
 93
        1
 44
0.0
173
     0
291
     0
 45
0.0
1001
ACAD
1000
AcDbSavedByObjectVersion
1070
     0
  0
VISUALSTYLE
  5
32
102
{ACAD_REACTORS
330
2A
102
}
102
{ACAD_XDICTIONARY
360
449
102
}
330
2A
100
AcDbVisualStyle
  2
Basic
 70
     7
 71
     1
 72
     0
 73
     1
 90
        0
 40
-0.6
 41
-30.0
 62
     5
 63
     7
 74
     0
 91
        4
 64
     7
 65
   257
 75
     1
175
     1
 42
1.0
 92
        8
 66
     7
 43
1.0
 76
     1
 77
     6
 78
     2
 67
     7
 79
     5
170
     0
171
     0
290
     0
174
     0
 93
        1
 44
0.0
173
     0
291
     1
 45
0.0
1001
ACAD
1000
AcDbSavedByObjectVersion
1070
     0
  0
VISUALSTYLE
  5
36
102
{ACAD_REACTORS
330
2A
102
}
102
{ACAD_XDICTIONARY
360
451
102
}
330
2A
100
AcDbVisualStyle
  2
Brighten
 70
    12
 71
     2
 72
     2
 73
     0
 90
        0
 40
-0.6
 41
-30.0
 62
     5
 63
     7
 74
     1
 91
        4
 64
     7
 65
   257
 75
     1
175
     1
 42
1.0
 92
        8
 66
     7
 43
1.0
 76
     1
 77
     6
 78
     2
 67
     7
 79
     5
170
     0
171
     0
290
     0
174
     0
 93
        1
 44
50.0
173
     0
291
     1
 45
0.0
1001
ACAD
1000
AcDbSavedByObjectVersion
1070
     0
  0
VISUALSTYLE
  5
3A
102
{ACAD_REACTORS
330
2A
102
}
102
{ACAD_XDICTIONARY
360
459
102
}
330
2A
100
AcDbVisualStyle
  2
ColorChange
 70
    16
 71
     2
 72
     2
 73
     3
 90
        0
 40
-0.6
 41
-30.0
 62
     5
 63
     8
 74
     1
 91
        4
 64
     7
 65
   257
 75
     1
175
     1
 42
1.0
 92
        8
 66
     8
 43
1.0
 76
     1
 77
     6
 78
     2
 67
     7
 79
     5
170
     0
171
     0
290
     0
174
     0
 93
        1
 44
0.0
173
     0
291
     1
 45
0.0
1001
ACAD
1000
AcDbSavedByObjectVersion
1070
     0
  0
VISUALSTYLE
  5
34
102
{ACAD_REACTORS
330
2A
102
}
102
{ACAD_XDICTIONARY
360
44D
102
}
330
2A
100
AcDbVisualStyle
  2
Conceptual
 70
     9
 71
     3
 72
     2
 73
     0
 90
        0
 40
-0.6
 41
-30.0
 62
     5
 63
     7
 74
     2
 91
        2
 64
     7
 65
   257
 75
     1
175
     1
 42
40.0
 92
        8
 66
     7
 43
1.0
 76
     1
 77
     6
 78
     2
 67
     7
 79
     3
170
     0
171
     0
290
     0
174
     0
 93
        1
 44
0.0
173
     0
291
     0
 45
0.0
1001
ACAD
1000
AcDbSavedByObjectVersion
1070
     0
  0
VISUALSTYLE
  5
35
102
{ACAD_REACTORS
330
2A
102
}
102
{ACAD_XDICTIONARY
360
44F
102
}
330
2A
100
AcDbVisualStyle
  2
Dim
 70
    11
 71
     2
 72
     2
 73
     0
 90
        0
 40
-0.6
 41
-30.0
 62
     5
 63
     7
 74
     1
 91
        4
 64
     7
 65
   257
 75
     1
175
     1
 42
1.0
 92
        8
 66
     7
 43
1.0
 76
     1
 77
     6
 78
     2
 67
     7
 79
     5
170
     0
171
     0
290
     0
174
     0
 93
        1
 44
-50.0
173
     0
291
     1
 45
0.0
1001
ACAD
1000
AcDbSavedByObjectVersion
1070
     0
  0
VISUALSTYLE
  5
39
102
{ACAD_REACTORS
330
2A
102
}
102
{ACAD_XDICTIONARY
360
457
102
}
330
2A
100
AcDbVisualStyle
  2
Facepattern
 70
    15
 71
     2
 72
     2
 73
     0
 90
        0
 40
-0.6
 41
-30.0
 62
     5
 63
     7
 74
     1
 91
        4
 64
     7
 65
   257
 75
     1
175
     1
 42
1.0
 92
        8
 66
     7
 43
1.0
 76
     1
 77
     6
 78
     2
 67
     7
 79
     5
170
     0
171
     0
290
     0
174
     0
 93
        1
 44
0.0
173
     0
291
     1
 45
0.0
1001
ACAD
1000
AcDbSavedByObjectVersion
1070
     0
  0
VISUALSTYLE
  5
2B
102
{ACAD_REACTORS
330
2A
102
}
102
{ACAD_XDICTIONARY
360
43B
102
}
330
2A
100
AcDbVisualStyle
  2
Flat
 70
     0
 71
     2
 72
     1
 73
     1
 90
        2
 40
-0.6
 41
30.0
 62
     5
 63
     7
 74
     0
 91
        4
 64
     7
 65
   257
 75
     1
175
     1
 42
1.0
 92
        8
 66
     7
 43
1.0
 76
     1
 77
     6
 78
     2
 67
     7
 79
     5
170
     0
171
     0
290
     0
174
     0
 93
       13
 44
0.0
173
     0
291
     1
 45
0.0
1001
ACAD
1000
AcDbSavedByObjectVersion
1070
     0
  0
VISUALSTYLE
  5
2C
102
{ACAD_REACTORS
330
2A
102
}
102
{ACAD_XDICTIONARY
360
43D
102
}
330
2A
100
AcDbVisualStyle
  2
FlatWithEdges
 70
     1
 71
     2
 72
     1
 73
     1
 90
        2
 40
-0.6
 41
30.0
 62
     5
 63
     7
 74
     1
 91
        4
 64
     7
 65
   257
 75
     1
175
     1
 42
1.0
 92
        0
 66
   257
 43
1.0
 76
     1
 77
     6
 78
     2
 67
     7
 79
     5
170
     0
171
     0
290
     0
174
     0
 93
       13
 44
0.0
173
     0
291
     1
 45
0.0
1001
ACAD
1000
AcDbSavedByObjectVersion
1070
     0
  0
VISUALSTYLE
  5
2D
102
{ACAD_REACTORS
330
2A
102
}
102
{ACAD_XDICTIONARY
360
43F
102
}
330
2A
100
AcDbVisualStyle
  2
Gouraud
 70
     2
 71
     2
 72
     2
 73
     1
 90
        2
 40
-0.6
 41
30.0
 62
     5
 63
     7
 74
     0
 91
        4
 64
     7
 65
   257
 75
     1
175
     1
 42
1.0
 92
        0
 66
     7
 43
1.0
 76
     1
 77
     6
 78
     2
 67
     7
 79
     5
170
     0
171
     0
290
     0
174
     0
 93
       13
 44
0.0
173
     0
291
     1
 45
0.0
1001
ACAD
1000
AcDbSavedByObjectVersion
1070
     0
  0
VISUALSTYLE
  5
2E
102
{ACAD_REACTORS
330
2A
102
}
102
{ACAD_XDICTIONARY
360
441
102
}
330
2A
100
AcDbVisualStyle
  2
GouraudWithEdges
 70
     3
 71
     2
 72
     2
 73
     1
 90
        2
 40
-0.6
 41
30.0
 62
     5
 63
     7
 74
     1
 91
        4
 64
     7
 65
   257
 75
     1
175
     1
 42
1.0
 92
        0
 66
   257
 43
1.0
 76
     1
 77
     6
 78
     2
 67
     7
 79
     5
170
     0
171
     0
290
     0
174
     0
 93
       13
 44
0.0
173
     0
291
     1
 45
0.0
1001
ACAD
1000
AcDbSavedByObjectVersion
1070
     0
  0
VISUALSTYLE
  5
38
102
{ACAD_REACTORS
330
2A
102
}
102
{ACAD_XDICTIONARY
360
455
102
}
330
2A
100
AcDbVisualStyle
  2
Linepattern
 70
    14
 71
     2
 72
     2
 73
     0
 90
        0
 40
-0.6
 41
-30.0
 62
     5
 63
     7
 74
     1
 91
        4
 64
     7
 65
   257
 75
     7
175
     7
 42
1.0
 92
        8
 66
     7
 43
1.0
 76
     1
 77
     6
 78
     2
 67
     7
 79
     5
170
     0
171
     0
290
     0
174
     0
 93
        1
 44
0.0
173
     0
291
     1
 45
0.0
1001
ACAD
1000
AcDbSavedByObjectVersion
1070
     0
  0
VISUALSTYLE
  5
33
102
{ACAD_REACTORS
330
2A
102
}
102
{ACAD_XDICTIONARY
360
44B
102
}
330
2A
100
AcDbVisualStyle
  2
Realistic
 70
     8
 71
     2
 72
     2
 73
     0
 90
        0
 40
-0.6
 41
-30.0
 62
     5
 63
     7
 74
     1
 91
        0
 64
     7
 65
   257
 75
     1
175
     1
 42
1.0
 92
        8
 66
     8
 43
1.0
 76
     1
 77
     6
 78
     2
 67
     7
 79
     5
170
     0
171
     0
290
     0
174
     0
 93
       13
 44
0.0
173
     0
291
     0
 45
0.0
1001
ACAD
1000
AcDbSavedByObjectVersion
1070
     0
  0
VISUALSTYLE
  5
37
102
{ACAD_REACTORS
330
2A
102
}
102
{ACAD_XDICTIONARY
360
453
102
}
330
2A
100
AcDbVisualStyle
  2
Thicken
 70
    13
 71
     2
 72
     2
 73
     0
 90
        0
 40
-0.6
 41
-30.0
 62
     5
 63
     7
 74
     1
 91
        4
 64
     7
 65
   257
 75
     1
175
     1
 42
1.0
 92
       12
 66
     7
 43
1.0
 76
     1
 77
     6
 78
     2
 67
     7
 79
     5
170
     0
171
     0
290
     0
174
     0
 93
        1
 44
0.0
173
     0
291
     1
 45
0.0
1001
ACAD
1000
AcDbSavedByObjectVersion
1070
     0
  0
DICTIONARYVAR
  5
439
102
{ACAD_REACTORS
330
436
102
}
330
436
100
DictionaryVariables
280
     0
  1
2
  0
DICTIONARYVAR
  5
43A
102
{ACAD_REACTORS
330
436
102
}
330
436
100
DictionaryVariables
280
     0
  1
1
  0
DICTIONARY
  5
45D
330
3D
100
AcDbDictionary
280
     1
281
     1
  3
ACAD_XREC_ROUNDTRIP
360
45E
  0
DICTIONARY
  5
45B
330
3C
100
AcDbDictionary
280
     1
281
     1
  3
ACAD_XREC_ROUNDTRIP
360
45C
  0
DICTIONARY
  5
45F
330
3E
100
AcDbDictionary
280
     1
281
     1
  3
ACAD_XREC_ROUNDTRIP
360
460
  0
DICTIONARY
  5
443
330
2F
100
AcDbDictionary
280
     1
281
     1
  3
ACAD_XREC_ROUNDTRIP
360
444
  0
DICTIONARY
  5
447
330
31
100
AcDbDictionary
280
     1
281
     1
  3
ACAD_XREC_ROUNDTRIP
360
448
  0
DICTIONARY
  5
445
330
30
100
AcDbDictionary
280
     1
281
     1
  3
ACAD_XREC_ROUNDTRIP
360
446
  0
DICTIONARY
  5
449
330
32
100
AcDbDictionary
280
     1
281
     1
  3
ACAD_XREC_ROUNDTRIP
360
44A
  0
DICTIONARY
  5
451
330
36
100
AcDbDictionary
280
     1
281
     1
  3
ACAD_XREC_ROUNDTRIP
360
452
  0
DICTIONARY
  5
459
330
3A
100
AcDbDictionary
280
     1
281
     1
  3
ACAD_XREC_ROUNDTRIP
360
45A
  0
DICTIONARY
  5
44D
330
34
100
AcDbDictionary
280
     1
281
     1
  3
ACAD_XREC_ROUNDTRIP
360
44E
  0
DICTIONARY
  5
44F
330
35
100
AcDbDictionary
280
     1
281
     1
  3
ACAD_XREC_ROUNDTRIP
360
450
  0
DICTIONARY
  5
457
330
39
100
AcDbDictionary
280
     1
281
     1
  3
ACAD_XREC_ROUNDTRIP
360
458
  0
DICTIONARY
  5
43B
330
2B
100
AcDbDictionary
280
     1
281
     1
  3
ACAD_XREC_ROUNDTRIP
360
43C
  0
DICTIONARY
  5
43D
330
2C
100
AcDbDictionary
280
     1
281
     1
  3
ACAD_XREC_ROUNDTRIP
360
43E
  0
DICTIONARY
  5
43F
330
2D
100
AcDbDictionary
280
     1
281
     1
  3
ACAD_XREC_ROUNDTRIP
360
440
  0
DICTIONARY
  5
441
330
2E
100
AcDbDictionary
280
     1
281
     1
  3
ACAD_XREC_ROUNDTRIP
360
442
  0
DICTIONARY
  5
455
330
38
100
AcDbDictionary
280
     1
281
     1
  3
ACAD_XREC_ROUNDTRIP
360
456
  0
DICTIONARY
  5
44B
330
33
100
AcDbDictionary
280
     1
281
     1
  3
ACAD_XREC_ROUNDTRIP
360
44C
  0
DICTIONARY
  5
453
330
37
100
AcDbDictionary
280
     1
281
     1
  3
ACAD_XREC_ROUNDTRIP
360
454
  0
XRECORD
  5
45E
102
{ACAD_REACTORS
330
45D
102
}
330
45D
100
AcDbXrecord
280
     1
102
MATERIAL
148
0.0
149
0.0
149
0.0
 93
        0
 94
      127
282
     0
 72
     1
 77
     1
171
     1
175
     1
179
     1
273
     0
  0
XRECORD
  5
45C
102
{ACAD_REACTORS
330
45B
102
}
330
45B
100
AcDbXrecord
280
     1
102
MATERIAL
148
0.0
149
0.0
149
0.0
 93
        0
 94
      127
282
     0
 72
     1
 77
     1
171
     1
175
     1
179
     1
273
     0
  0
XRECORD
  5
460
102
{ACAD_REACTORS
330
45F
102
}
330
45F
100
AcDbXrecord
280
     1
102
MATERIAL
148
0.0
149
0.0
149
0.0
 93
        0
 94
      127
282
     0
 72
     1
 77
     1
171
     1
175
     1
179
     1
273
     0
  0
XRECORD
  5
444
102
{ACAD_REACTORS
330
443
102
}
330
443
100
AcDbXrecord
280
     1
102
RTVSPropertyOp0
 70
     1
102
RTVSPropertyOp1
 70
     1
102
RTVSPropertyOp2
 70
     1
102
RTVSPropertyOp3
 70
     1
102
RTVSPropertyOp4
 70
     1
102
RTVSPropertyOp5
 70
     1
102
RTVSPropertyOp6
 70
     1
102
RTVSPropertyOp7
 70
     1
102
RTVSPropertyOp8
 70
     1
102
RTVSPropertyOp9
 70
     1
102
RTVSPropertyOp10
 70
     1
102
RTVSPropertyOp11
 70
     1
102
RTVSPropertyOp12
 70
     1
102
RTVSPropertyOp13
 70
     1
102
RTVSPropertyOp14
 70
     1
102
RTVSPropertyOp15
 70
     1
102
RTVSPropertyOp16
 70
     1
102
RTVSPropertyOp17
 70
     1
102
RTVSPropertyOp18
 70
     1
102
RTVSPropertyOp19
 70
     1
102
RTVSPropertyOp20
 70
     1
102
RTVSPropertyOp21
 70
     1
102
RTVSPropertyOp22
 70
     1
102
RTVSPropertyOp23
 70
     1
102
RTVSPropertyOp24
 70
     1
102
RTVSPropertyOp25
 70
     1
102
RTVSPropertyOp26
 70
     1
102
RTVSPropertyOp27
 70
     1
102
RTVSPropertyOp28
 70
     1
102
RTVSPropertyOp29
 70
     1
102
RTVSPropertyOp30
 70
     1
102
RTVSPropertyOp31
 70
     1
102
RTVSPropertyOp32
 70
     1
  0
XRECORD
  5
448
102
{ACAD_REACTORS
330
447
102
}
330
447
100
AcDbXrecord
280
     1
102
RTVSPropertyOp0
 70
     1
102
RTVSPropertyOp1
 70
     1
102
RTVSPropertyOp2
 70
     1
102
RTVSPropertyOp3
 70
     1
102
RTVSPropertyOp4
 70
     1
102
RTVSPropertyOp5
 70
     1
102
RTVSPropertyOp6
 70
     1
102
RTVSPropertyOp7
 70
     1
102
RTVSPropertyOp8
 70
     1
102
RTVSPropertyOp9
 70
     1
102
RTVSPropertyOp10
 70
     1
102
RTVSPropertyOp11
 70
     1
102
RTVSPropertyOp12
 70
     1
102
RTVSPropertyOp13
 70
     1
102
RTVSPropertyOp14
 70
     1
102
RTVSPropertyOp15
 70
     1
102
RTVSPropertyOp16
 70
     1
102
RTVSPropertyOp17
 70
     1
102
RTVSPropertyOp18
 70
     1
102
RTVSPropertyOp19
 70
     1
102
RTVSPropertyOp20
 70
     1
102
RTVSPropertyOp21
 70
     1
102
RTVSPropertyOp22
 70
     1
102
RTVSPropertyOp23
 70
     1
102
RTVSPropertyOp24
 70
     1
102
RTVSPropertyOp25
 70
     1
102
RTVSPropertyOp26
 70
     1
102
RTVSPropertyOp27
 70
     1
102
RTVSPropertyOp28
 70
     1
102
RTVSPropertyOp29
 70
     1
102
RTVSPropertyOp30
 70
     1
102
RTVSPropertyOp31
 70
     1
102
RTVSPropertyOp32
 70
     1
  0
XRECORD
  5
446
102
{ACAD_REACTORS
330
445
102
}
330
445
100
AcDbXrecord
280
     1
102
RTVSPropertyOp0
 70
     1
102
RTVSPropertyOp1
 70
     1
102
RTVSPropertyOp2
 70
     1
102
RTVSPropertyOp3
 70
     1
102
RTVSPropertyOp4
 70
     1
102
RTVSPropertyOp5
 70
     1
102
RTVSPropertyOp6
 70
     1
102
RTVSPropertyOp7
 70
     1
102
RTVSPropertyOp8
 70
     1
102
RTVSPropertyOp9
 70
     1
102
RTVSPropertyOp10
 70
     1
102
RTVSPropertyOp11
 70
     1
102
RTVSPropertyOp12
 70
     1
102
RTVSPropertyOp13
 70
     1
102
RTVSPropertyOp14
 70
     1
102
RTVSPropertyOp15
 70
     1
102
RTVSPropertyOp16
 70
     1
102
RTVSPropertyOp17
 70
     1
102
RTVSPropertyOp18
 70
     1
102
RTVSPropertyOp19
 70
     1
102
RTVSPropertyOp20
 70
     1
102
RTVSPropertyOp21
 70
     1
102
RTVSPropertyOp22
 70
     1
102
RTVSPropertyOp23
 70
     1
102
RTVSPropertyOp24
 70
     1
102
RTVSPropertyOp25
 70
     1
102
RTVSPropertyOp26
 70
     1
102
RTVSPropertyOp27
 70
     1
102
RTVSPropertyOp28
 70
     1
102
RTVSPropertyOp29
 70
     1
102
RTVSPropertyOp30
 70
     1
102
RTVSPropertyOp31
 70
     1
102
RTVSPropertyOp32
 70
     1
  0
XRECORD
  5
44A
102
{ACAD_REACTORS
330
449
102
}
330
449
100
AcDbXrecord
280
     1
102
RTVSPropertyOp0
 70
     1
102
RTVSPropertyOp1
 70
     1
102
RTVSPropertyOp2
 70
     1
102
RTVSPropertyOp3
 70
     1
102
RTVSPropertyOp4
 70
     1
102
RTVSPropertyOp5
 70
     1
102
RTVSPropertyOp6
 70
     1
102
RTVSPropertyOp7
 70
     1
102
RTVSPropertyOp8
 70
     1
102
RTVSPropertyOp9
 70
     1
102
RTVSPropertyOp10
 70
     1
102
RTVSPropertyOp11
 70
     1
102
RTVSPropertyOp12
 70
     1
102
RTVSPropertyOp13
 70
     1
102
RTVSPropertyOp14
 70
     1
102
RTVSPropertyOp15
 70
     1
102
RTVSPropertyOp16
 70
     1
102
RTVSPropertyOp17
 70
     1
102
RTVSPropertyOp18
 70
     1
102
RTVSPropertyOp19
 70
     1
102
RTVSPropertyOp20
 70
     1
102
RTVSPropertyOp21
 70
     1
102
RTVSPropertyOp22
 70
     1
102
RTVSPropertyOp23
 70
     1
102
RTVSPropertyOp24
 70
     1
102
RTVSPropertyOp25
 70
     1
102
RTVSPropertyOp26
 70
     1
102
RTVSPropertyOp27
 70
     1
102
RTVSPropertyOp28
 70
     1
102
RTVSPropertyOp29
 70
     1
102
RTVSPropertyOp30
 70
     1
102
RTVSPropertyOp31
 70
     1
102
RTVSPropertyOp32
 70
     1
  0
XRECORD
  5
452
102
{ACAD_REACTORS
330
451
102
}
330
451
100
AcDbXrecord
280
     1
102
RTVSPropertyOp0
 70
     1
102
RTVSPropertyOp1
 70
     1
102
RTVSPropertyOp2
 70
     1
102
RTVSPropertyOp3
 70
     1
102
RTVSPropertyOp4
 70
     1
102
RTVSPropertyOp5
 70
     1
102
RTVSPropertyOp6
 70
     1
102
RTVSPropertyOp7
 70
     1
102
RTVSPropertyOp8
 70
     1
102
RTVSPropertyOp9
 70
     1
102
RTVSPropertyOp10
 70
     1
102
RTVSPropertyOp11
 70
     1
102
RTVSPropertyOp12
 70
     1
102
RTVSPropertyOp13
 70
     1
102
RTVSPropertyOp14
 70
     1
102
RTVSPropertyOp15
 70
     1
102
RTVSPropertyOp16
 70
     1
102
RTVSPropertyOp17
 70
     1
102
RTVSPropertyOp18
 70
     1
102
RTVSPropertyOp19
 70
     1
102
RTVSPropertyOp20
 70
     1
102
RTVSPropertyOp21
 70
     1
102
RTVSPropertyOp22
 70
     1
102
RTVSPropertyOp23
 70
     1
102
RTVSPropertyOp24
 70
     1
102
RTVSPropertyOp25
 70
     1
102
RTVSPropertyOp26
 70
     1
102
RTVSPropertyOp27
 70
     1
102
RTVSPropertyOp28
 70
     1
102
RTVSPropertyOp29
 70
     1
102
RTVSPropertyOp30
 70
     1
102
RTVSPropertyOp31
 70
     1
102
RTVSPropertyOp32
 70
     1
  0
XRECORD
  5
45A
102
{ACAD_REACTORS
330
459
102
}
330
459
100
AcDbXrecord
280
     1
102
RTVSPropertyOp0
 70
     1
102
RTVSPropertyOp1
 70
     1
102
RTVSPropertyOp2
 70
     1
102
RTVSPropertyOp3
 70
     1
102
RTVSPropertyOp4
 70
     1
102
RTVSPropertyOp5
 70
     1
102
RTVSPropertyOp6
 70
     1
102
RTVSPropertyOp7
 70
     1
102
RTVSPropertyOp8
 70
     1
102
RTVSPropertyOp9
 70
     1
102
RTVSPropertyOp10
 70
     1
102
RTVSPropertyOp11
 70
     1
102
RTVSPropertyOp12
 70
     1
102
RTVSPropertyOp13
 70
     1
102
RTVSPropertyOp14
 70
     1
102
RTVSPropertyOp15
 70
     1
102
RTVSPropertyOp16
 70
     1
102
RTVSPropertyOp17
 70
     1
102
RTVSPropertyOp18
 70
     1
102
RTVSPropertyOp19
 70
     1
102
RTVSPropertyOp20
 70
     1
102
RTVSPropertyOp21
 70
     1
102
RTVSPropertyOp22
 70
     1
102
RTVSPropertyOp23
 70
     1
102
RTVSPropertyOp24
 70
     1
102
RTVSPropertyOp25
 70
     1
102
RTVSPropertyOp26
 70
     1
102
RTVSPropertyOp27
 70
     1
102
RTVSPropertyOp28
 70
     1
102
RTVSPropertyOp29
 70
     1
102
RTVSPropertyOp30
 70
     1
102
RTVSPropertyOp31
 70
     1
102
RTVSPropertyOp32
 70
     1
  0
XRECORD
  5
44E
102
{ACAD_REACTORS
330
44D
102
}
330
44D
100
AcDbXrecord
280
     1
102
RTVSPropertyOp0
 70
     1
102
RTVSPropertyOp1
 70
     1
102
RTVSPropertyOp2
 70
     1
102
RTVSPropertyOp3
 70
     1
102
RTVSPropertyOp4
 70
     1
102
RTVSPropertyOp5
 70
     1
102
RTVSPropertyOp6
 70
     1
102
RTVSPropertyOp7
 70
     1
102
RTVSPropertyOp8
 70
     1
102
RTVSPropertyOp9
 70
     1
102
RTVSPropertyOp10
 70
     1
102
RTVSPropertyOp11
 70
     1
102
RTVSPropertyOp12
 70
     1
102
RTVSPropertyOp13
 70
     1
102
RTVSPropertyOp14
 70
     1
102
RTVSPropertyOp15
 70
     1
102
RTVSPropertyOp16
 70
     1
102
RTVSPropertyOp17
 70
     1
102
RTVSPropertyOp18
 70
     1
102
RTVSPropertyOp19
 70
     1
102
RTVSPropertyOp20
 70
     1
102
RTVSPropertyOp21
 70
     1
102
RTVSPropertyOp22
 70
     1
102
RTVSPropertyOp23
 70
     1
102
RTVSPropertyOp24
 70
     1
102
RTVSPropertyOp25
 70
     1
102
RTVSPropertyOp26
 70
     1
102
RTVSPropertyOp27
 70
     1
102
RTVSPropertyOp28
 70
     1
102
RTVSPropertyOp29
 70
     1
102
RTVSPropertyOp30
 70
     1
102
RTVSPropertyOp31
 70
     1
102
RTVSPropertyOp32
 70
     1
  0
XRECORD
  5
450
102
{ACAD_REACTORS
330
44F
102
}
330
44F
100
AcDbXrecord
280
     1
102
RTVSPropertyOp0
 70
     1
102
RTVSPropertyOp1
 70
     1
102
RTVSPropertyOp2
 70
     1
102
RTVSPropertyOp3
 70
     1
102
RTVSPropertyOp4
 70
     1
102
RTVSPropertyOp5
 70
     1
102
RTVSPropertyOp6
 70
     1
102
RTVSPropertyOp7
 70
     1
102
RTVSPropertyOp8
 70
     1
102
RTVSPropertyOp9
 70
     1
102
RTVSPropertyOp10
 70
     1
102
RTVSPropertyOp11
 70
     1
102
RTVSPropertyOp12
 70
     1
102
RTVSPropertyOp13
 70
     1
102
RTVSPropertyOp14
 70
     1
102
RTVSPropertyOp15
 70
     1
102
RTVSPropertyOp16
 70
     1
102
RTVSPropertyOp17
 70
     1
102
RTVSPropertyOp18
 70
     1
102
RTVSPropertyOp19
 70
     1
102
RTVSPropertyOp20
 70
     1
102
RTVSPropertyOp21
 70
     1
102
RTVSPropertyOp22
 70
     1
102
RTVSPropertyOp23
 70
     1
102
RTVSPropertyOp24
 70
     1
102
RTVSPropertyOp25
 70
     1
102
RTVSPropertyOp26
 70
     1
102
RTVSPropertyOp27
 70
     1
102
RTVSPropertyOp28
 70
     1
102
RTVSPropertyOp29
 70
     1
102
RTVSPropertyOp30
 70
     1
102
RTVSPropertyOp31
 70
     1
102
RTVSPropertyOp32
 70
     1
  0
XRECORD
  5
458
102
{ACAD_REACTORS
330
457
102
}
330
457
100
AcDbXrecord
280
     1
102
RTVSPropertyOp0
 70
     1
102
RTVSPropertyOp1
 70
     1
102
RTVSPropertyOp2
 70
     1
102
RTVSPropertyOp3
 70
     1
102
RTVSPropertyOp4
 70
     1
102
RTVSPropertyOp5
 70
     1
102
RTVSPropertyOp6
 70
     1
102
RTVSPropertyOp7
 70
     1
102
RTVSPropertyOp8
 70
     1
102
RTVSPropertyOp9
 70
     1
102
RTVSPropertyOp10
 70
     1
102
RTVSPropertyOp11
 70
     1
102
RTVSPropertyOp12
 70
     1
102
RTVSPropertyOp13
 70
     1
102
RTVSPropertyOp14
 70
     1
102
RTVSPropertyOp15
 70
     1
102
RTVSPropertyOp16
 70
     1
102
RTVSPropertyOp17
 70
     1
102
RTVSPropertyOp18
 70
     1
102
RTVSPropertyOp19
 70
     1
102
RTVSPropertyOp20
 70
     1
102
RTVSPropertyOp21
 70
     1
102
RTVSPropertyOp22
 70
     1
102
RTVSPropertyOp23
 70
     1
102
RTVSPropertyOp24
 70
     1
102
RTVSPropertyOp25
 70
     1
102
RTVSPropertyOp26
 70
     1
102
RTVSPropertyOp27
 70
     1
102
RTVSPropertyOp28
 70
     1
102
RTVSPropertyOp29
 70
     1
102
RTVSPropertyOp30
 70
     1
102
RTVSPropertyOp31
 70
     1
102
RTVSPropertyOp32
 70
     1
  0
XRECORD
  5
43C
102
{ACAD_REACTORS
330
43B
102
}
330
43B
100
AcDbXrecord
280
     1
102
RTVSPropertyOp0
 70
     1
102
RTVSPropertyOp1
 70
     1
102
RTVSPropertyOp2
 70
     1
102
RTVSPropertyOp3
 70
     1
102
RTVSPropertyOp4
 70
     1
102
RTVSPropertyOp5
 70
     1
102
RTVSPropertyOp6
 70
     1
102
RTVSPropertyOp7
 70
     1
102
RTVSPropertyOp8
 70
     1
102
RTVSPropertyOp9
 70
     1
102
RTVSPropertyOp10
 70
     1
102
RTVSPropertyOp11
 70
     1
102
RTVSPropertyOp12
 70
     1
102
RTVSPropertyOp13
 70
     1
102
RTVSPropertyOp14
 70
     1
102
RTVSPropertyOp15
 70
     1
102
RTVSPropertyOp16
 70
     1
102
RTVSPropertyOp17
 70
     1
102
RTVSPropertyOp18
 70
     1
102
RTVSPropertyOp19
 70
     1
102
RTVSPropertyOp20
 70
     1
102
RTVSPropertyOp21
 70
     1
102
RTVSPropertyOp22
 70
     1
102
RTVSPropertyOp23
 70
     1
102
RTVSPropertyOp24
 70
     1
102
RTVSPropertyOp25
 70
     1
102
RTVSPropertyOp26
 70
     1
102
RTVSPropertyOp27
 70
     1
102
RTVSPropertyOp28
 70
     1
102
RTVSPropertyOp29
 70
     1
102
RTVSPropertyOp30
 70
     1
102
RTVSPropertyOp31
 70
     1
102
RTVSPropertyOp32
 70
     1
  0
XRECORD
  5
43E
102
{ACAD_REACTORS
330
43D
102
}
330
43D
100
AcDbXrecord
280
     1
102
RTVSPropertyOp0
 70
     1
102
RTVSPropertyOp1
 70
     1
102
RTVSPropertyOp2
 70
     1
102
RTVSPropertyOp3
 70
     1
102
RTVSPropertyOp4
 70
     1
102
RTVSPropertyOp5
 70
     1
102
RTVSPropertyOp6
 70
     1
102
RTVSPropertyOp7
 70
     1
102
RTVSPropertyOp8
 70
     1
102
RTVSPropertyOp9
 70
     1
102
RTVSPropertyOp10
 70
     1
102
RTVSPropertyOp11
 70
     1
102
RTVSPropertyOp12
 70
     1
102
RTVSPropertyOp13
 70
     1
102
RTVSPropertyOp14
 70
     1
102
RTVSPropertyOp15
 70
     1
102
RTVSPropertyOp16
 70
     1
102
RTVSPropertyOp17
 70
     1
102
RTVSPropertyOp18
 70
     1
102
RTVSPropertyOp19
 70
     1
102
RTVSPropertyOp20
 70
     1
102
RTVSPropertyOp21
 70
     1
102
RTVSPropertyOp22
 70
     1
102
RTVSPropertyOp23
 70
     1
102
RTVSPropertyOp24
 70
     1
102
RTVSPropertyOp25
 70
     1
102
RTVSPropertyOp26
 70
     1
102
RTVSPropertyOp27
 70
     1
102
RTVSPropertyOp28
 70
     1
102
RTVSPropertyOp29
 70
     1
102
RTVSPropertyOp30
 70
     1
102
RTVSPropertyOp31
 70
     1
102
RTVSPropertyOp32
 70
     1
  0
XRECORD
  5
440
102
{ACAD_REACTORS
330
43F
102
}
330
43F
100
AcDbXrecord
280
     1
102
RTVSPropertyOp0
 70
     1
102
RTVSPropertyOp1
 70
     1
102
RTVSPropertyOp2
 70
     1
102
RTVSPropertyOp3
 70
     1
102
RTVSPropertyOp4
 70
     1
102
RTVSPropertyOp5
 70
     1
102
RTVSPropertyOp6
 70
     1
102
RTVSPropertyOp7
 70
     1
102
RTVSPropertyOp8
 70
     1
102
RTVSPropertyOp9
 70
     1
102
RTVSPropertyOp10
 70
     1
102
RTVSPropertyOp11
 70
     1
102
RTVSPropertyOp12
 70
     1
102
RTVSPropertyOp13
 70
     1
102
RTVSPropertyOp14
 70
     1
102
RTVSPropertyOp15
 70
     1
102
RTVSPropertyOp16
 70
     1
102
RTVSPropertyOp17
 70
     1
102
RTVSPropertyOp18
 70
     1
102
RTVSPropertyOp19
 70
     1
102
RTVSPropertyOp20
 70
     1
102
RTVSPropertyOp21
 70
     1
102
RTVSPropertyOp22
 70
     1
102
RTVSPropertyOp23
 70
     1
102
RTVSPropertyOp24
 70
     1
102
RTVSPropertyOp25
 70
     1
102
RTVSPropertyOp26
 70
     1
102
RTVSPropertyOp27
 70
     1
102
RTVSPropertyOp28
 70
     1
102
RTVSPropertyOp29
 70
     1
102
RTVSPropertyOp30
 70
     1
102
RTVSPropertyOp31
 70
     1
102
RTVSPropertyOp32
 70
     1
  0
XRECORD
  5
442
102
{ACAD_REACTORS
330
441
102
}
330
441
100
AcDbXrecord
280
     1
102
RTVSPropertyOp0
 70
     1
102
RTVSPropertyOp1
 70
     1
102
RTVSPropertyOp2
 70
     1
102
RTVSPropertyOp3
 70
     1
102
RTVSPropertyOp4
 70
     1
102
RTVSPropertyOp5
 70
     1
102
RTVSPropertyOp6
 70
     1
102
RTVSPropertyOp7
 70
     1
102
RTVSPropertyOp8
 70
     1
102
RTVSPropertyOp9
 70
     1
102
RTVSPropertyOp10
 70
     1
102
RTVSPropertyOp11
 70
     1
102
RTVSPropertyOp12
 70
     1
102
RTVSPropertyOp13
 70
     1
102
RTVSPropertyOp14
 70
     1
102
RTVSPropertyOp15
 70
     1
102
RTVSPropertyOp16
 70
     1
102
RTVSPropertyOp17
 70
     1
102
RTVSPropertyOp18
 70
     1
102
RTVSPropertyOp19
 70
     1
102
RTVSPropertyOp20
 70
     1
102
RTVSPropertyOp21
 70
     1
102
RTVSPropertyOp22
 70
     1
102
RTVSPropertyOp23
 70
     1
102
RTVSPropertyOp24
 70
     1
102
RTVSPropertyOp25
 70
     1
102
RTVSPropertyOp26
 70
     1
102
RTVSPropertyOp27
 70
     1
102
RTVSPropertyOp28
 70
     1
102
RTVSPropertyOp29
 70
     1
102
RTVSPropertyOp30
 70
     1
102
RTVSPropertyOp31
 70
     1
102
RTVSPropertyOp32
 70
     1
  0
XRECORD
  5
456
102
{ACAD_REACTORS
330
455
102
}
330
455
100
AcDbXrecord
280
     1
102
RTVSPropertyOp0
 70
     1
102
RTVSPropertyOp1
 70
     1
102
RTVSPropertyOp2
 70
     1
102
RTVSPropertyOp3
 70
     1
102
RTVSPropertyOp4
 70
     1
102
RTVSPropertyOp5
 70
     1
102
RTVSPropertyOp6
 70
     1
102
RTVSPropertyOp7
 70
     1
102
RTVSPropertyOp8
 70
     1
102
RTVSPropertyOp9
 70
     1
102
RTVSPropertyOp10
 70
     1
102
RTVSPropertyOp11
 70
     1
102
RTVSPropertyOp12
 70
     1
102
RTVSPropertyOp13
 70
     1
102
RTVSPropertyOp14
 70
     1
102
RTVSPropertyOp15
 70
     1
102
RTVSPropertyOp16
 70
     1
102
RTVSPropertyOp17
 70
     1
102
RTVSPropertyOp18
 70
     1
102
RTVSPropertyOp19
 70
     1
102
RTVSPropertyOp20
 70
     1
102
RTVSPropertyOp21
 70
     1
102
RTVSPropertyOp22
 70
     1
102
RTVSPropertyOp23
 70
     1
102
RTVSPropertyOp24
 70
     1
102
RTVSPropertyOp25
 70
     1
102
RTVSPropertyOp26
 70
     1
102
RTVSPropertyOp27
 70
     1
102
RTVSPropertyOp28
 70
     1
102
RTVSPropertyOp29
 70
     1
102
RTVSPropertyOp30
 70
     1
102
RTVSPropertyOp31
 70
     1
102
RTVSPropertyOp32
 70
     1
  0
XRECORD
  5
44C
102
{ACAD_REACTORS
330
44B
102
}
330
44B
100
AcDbXrecord
280
     1
102
RTVSPropertyOp0
 70
     1
102
RTVSPropertyOp1
 70
     1
102
RTVSPropertyOp2
 70
     1
102
RTVSPropertyOp3
 70
     1
102
RTVSPropertyOp4
 70
     1
102
RTVSPropertyOp5
 70
     1
102
RTVSPropertyOp6
 70
     1
102
RTVSPropertyOp7
 70
     1
102
RTVSPropertyOp8
 70
     1
102
RTVSPropertyOp9
 70
     1
102
RTVSPropertyOp10
 70
     1
102
RTVSPropertyOp11
 70
     1
102
RTVSPropertyOp12
 70
     1
102
RTVSPropertyOp13
 70
     1
102
RTVSPropertyOp14
 70
     1
102
RTVSPropertyOp15
 70
     1
102
RTVSPropertyOp16
 70
     1
102
RTVSPropertyOp17
 70
     1
102
RTVSPropertyOp18
 70
     1
102
RTVSPropertyOp19
 70
     1
102
RTVSPropertyOp20
 70
     1
102
RTVSPropertyOp21
 70
     1
102
RTVSPropertyOp22
 70
     1
102
RTVSPropertyOp23
 70
     1
102
RTVSPropertyOp24
 70
     1
102
RTVSPropertyOp25
 70
     1
102
RTVSPropertyOp26
 70
     1
102
RTVSPropertyOp27
 70
     1
102
RTVSPropertyOp28
 70
     1
102
RTVSPropertyOp29
 70
     1
102
RTVSPropertyOp30
 70
     1
102
RTVSPropertyOp31
 70
     1
102
RTVSPropertyOp32
 70
     1
  0
XRECORD
  5
454
102
{ACAD_REACTORS
330
453
102
}
330
453
100
AcDbXrecord
280
     1
102
RTVSPropertyOp0
 70
     1
102
RTVSPropertyOp1
 70
     1
102
RTVSPropertyOp2
 70
     1
102
RTVSPropertyOp3
 70
     1
102
RTVSPropertyOp4
 70
     1
102
RTVSPropertyOp5
 70
     1
102
RTVSPropertyOp6
 70
     1
102
RTVSPropertyOp7
 70
     1
102
RTVSPropertyOp8
 70
     1
102
RTVSPropertyOp9
 70
     1
102
RTVSPropertyOp10
 70
     1
102
RTVSPropertyOp11
 70
     1
102
RTVSPropertyOp12
 70
     1
102
RTVSPropertyOp13
 70
     1
102
RTVSPropertyOp14
 70
     1
102
RTVSPropertyOp15
 70
     1
102
RTVSPropertyOp16
 70
     1
102
RTVSPropertyOp17
 70
     1
102
RTVSPropertyOp18
 70
     1
102
RTVSPropertyOp19
 70
     1
102
RTVSPropertyOp20
 70
     1
102
RTVSPropertyOp21
 70
     1
102
RTVSPropertyOp22
 70
     1
102
RTVSPropertyOp23
 70
     1
102
RTVSPropertyOp24
 70
     1
102
RTVSPropertyOp25
 70
     1
102
RTVSPropertyOp26
 70
     1
102
RTVSPropertyOp27
 70
     1
102
RTVSPropertyOp28
 70
     1
102
RTVSPropertyOp29
 70
     1
102
RTVSPropertyOp30
 70
     1
102
RTVSPropertyOp31
 70
     1
102
RTVSPropertyOp32
 70
     1
  0
ENDSEC
  0
EOF
